0
SECTION
2
HEADER
9
$ACADVER
1
AC1015
9
$DWGCODEPAGE
3
ANSI_1252
9
$HANDSEED
5
268
9
$ANGBASE
50
0
9
$ANGDIR
70
0
9
$ATTMODE
70
1
9
$AUNITS
70
0
9
$AUPREC
70
0
9
$CECOLOR
62
256
9
$CELTSCALE
40
1
9
$CELTYPE
6
ByLayer
9
$CELWEIGHT
370
18
9
$CLAYER
8
0
9
$CMLJUST
70
0
9
$CMLSCALE
40
1
9
$CMLSTYLE
2
Standard
9
$DIMSTYLE
2
Standard
9
$TEXTSIZE
40
0.2
9
$TEXTSTYLE
7
Standard
9
$LUNITS
70
2
9
$LUPREC
70
4
9
$EXTNAMES
290
1
9
$INSUNITS
70
4
9
$LTSCALE
40
1
9
$LWDISPLAY
290
1
9
$PDMODE
70
0
9
$PDSIZE
40
0
9
$PLINEGEN
70
0
0
ENDSEC
0
SECTION
2
CLASSES
0
CLASS
1
RASTERVARIABLES
2
AcDbRasterVariables
3
ISM
90
0
280
0
281
0
0
ENDSEC
0
SECTION
2
TABLES
0
TABLE
2
VPORT
5
25e
100
AcDbSymbolTable
0
VPORT
5
1
100
AcDbSymbolTableRecord
100
AcDbViewportTableRecord
2
*Active
70
0
10
0
20
0
11
1
21
1
12
-1
22
1
13
0
23
0
14
0.5
24
0.5
15
10
25
10
16
0
26
0
36
1
17
0
27
0
37
0
0
ENDTAB
0
TABLE
2
LTYPE
5
25f
100
AcDbSymbolTable
0
LTYPE
5
14
100
AcDbSymbolTableRecord
100
AcDbLinetypeTableRecord
70
0
2
ByBlock
3

72
65
73
0
40
0
0
LTYPE
5
15
100
AcDbSymbolTableRecord
100
AcDbLinetypeTableRecord
70
0
2
ByLayer
3

72
65
73
0
40
0
0
LTYPE
5
16
100
AcDbSymbolTableRecord
100
AcDbLinetypeTableRecord
70
0
2
Continuous
3
Solid line
72
65
73
0
40
0
0
LTYPE
5
6E
100
AcDbSymbolTableRecord
100
AcDbLinetypeTableRecord
70
0
2
CENTER
3
____ _ ____ _ ____ _ ____
72
65
73
4
40
47.5
49
22
74
0
49
-8.5
74
0
49
8.5
74
0
49
-8.5
74
0
0
LTYPE
5
6F
100
AcDbSymbolTableRecord
100
AcDbLinetypeTableRecord
70
0
2
DASHED
3
__ __ __ __ __ __ __ __ __
72
65
73
2
40
25.72
49
12.86
74
0
49
-12.86
74
0
0
ENDTAB
0
TABLE
2
LAYER
5
260
100
AcDbSymbolTable
0
LAYER
5
10
100
AcDbSymbolTableRecord
100
AcDbLayerTableRecord
2
0
70
0
62
7
6
Continuous
290
1
370
-3
390
0
0
LAYER
5
71
100
AcDbSymbolTableRecord
100
AcDbLayerTableRecord
2
80
70
0
62
-6
6
Continuous
290
1
370
-3
390
0
0
LAYER
5
73
100
AcDbSymbolTableRecord
100
AcDbLayerTableRecord
2
81
70
0
62
-3
6
Continuous
290
1
370
-3
390
0
0
LAYER
5
75
100
AcDbSymbolTableRecord
100
AcDbLayerTableRecord
2
1
70
0
62
4
6
Continuous
290
1
370
-3
390
0
0
LAYER
5
A7
100
AcDbSymbolTableRecord
100
AcDbLayerTableRecord
2
4
70
0
62
-2
6
CENTER
290
1
370
-3
390
0
0
LAYER
5
122
100
AcDbSymbolTableRecord
100
AcDbLayerTableRecord
2
Defpoints
70
0
62
7
6
Continuous
290
0
370
-3
390
0
0
LAYER
5
14F
100
AcDbSymbolTableRecord
100
AcDbLayerTableRecord
2
2
70
0
62
7
6
Continuous
290
1
370
-3
390
0
0
LAYER
5
24a
100
AcDbSymbolTableRecord
100
AcDbLayerTableRecord
2
SK1
70
0
62
4
6
Continuous
290
1
370
-3
390
0
0
LAYER
5
24b
100
AcDbSymbolTableRecord
100
AcDbLayerTableRecord
2
SK4
70
0
62
2
6
CENTER
290
1
370
-3
390
0
0
LAYER
5
24c
100
AcDbSymbolTableRecord
100
AcDbLayerTableRecord
2
SK2
70
0
62
7
6
Continuous
290
1
370
-3
390
0
0
LAYER
5
24d
100
AcDbSymbolTableRecord
100
AcDbLayerTableRecord
2
SK6
70
0
62
5
6
Continuous
290
1
370
-3
390
0
0
ENDTAB
0
TABLE
2
STYLE
5
261
100
AcDbSymbolTable
0
STYLE
5
11
100
AcDbSymbolTableRecord
100
AcDbTextStyleTableRecord
2
Standard
3
txt
70
0
71
0
40
0
41
1
42
0
50
0
0
STYLE
5
113
100
AcDbSymbolTableRecord
100
AcDbTextStyleTableRecord
2
iso_b_vert
3
simplex.shx
70
0
71
0
40
0
41
1
42
0
50
0
0
STYLE
5
114
100
AcDbSymbolTableRecord
100
AcDbTextStyleTableRecord
2
DWGDirectTextStyle
3
simplex
70
0
71
0
40
0
41
1
42
0
50
0
0
ENDTAB
0
TABLE
2
DIMSTYLE
5
262
100
AcDbSymbolTable
100
AcDbDimStyleTable
0
DIMSTYLE
105
27
100
AcDbSymbolTableRecord
100
AcDbDimStyleTableRecord
2
Standard
70
0
3
<>
41
0.18
42
0.0625
44
0.18
140
0.18
147
0.09
73
0
74
0
77
1
271
2
275
0
278
52
280
0
340
11
0
ENDTAB
0
TABLE
2
VIEW
5
263
100
AcDbSymbolTable
0
ENDTAB
0
TABLE
2
UCS
5
264
100
AcDbSymbolTable
0
ENDTAB
0
TABLE
2
APPID
5
265
100
AcDbSymbolTable
0
APPID
5
12
100
AcDbSymbolTableRecord
100
AcDbRegAppTableRecord
2
ACAD
70
0
0
APPID
5
117
100
AcDbSymbolTableRecord
100
AcDbRegAppTableRecord
2
ACAD_DSTYLE_DIMBREAK
70
0
0
APPID
5
209
100
AcDbSymbolTableRecord
100
AcDbRegAppTableRecord
2
ACAD_DSTYLE_DIM_LINETYPE
70
0
0
APPID
5
20A
100
AcDbSymbolTableRecord
100
AcDbRegAppTableRecord
2
ACAD_DSTYLE_DIM_EXT1_LINETYPE
70
0
0
APPID
5
20B
100
AcDbSymbolTableRecord
100
AcDbRegAppTableRecord
2
ACAD_DSTYLE_DIM_EXT2_LINETYPE
70
0
0
APPID
5
246
100
AcDbSymbolTableRecord
100
AcDbRegAppTableRecord
2
ACAD_MLEADERVER
70
0
0
ENDTAB
0
TABLE
2
BLOCK_RECORD
5
266
100
AcDbSymbolTable
0
BLOCK_RECORD
5
1F
100
AcDbSymbolTableRecord
100
AcDbBlockTableRecord
2
*Model_Space
340
0
70
0
0
BLOCK_RECORD
5
1B
100
AcDbSymbolTableRecord
100
AcDbBlockTableRecord
2
*Paper_Space
340
0
70
0
0
BLOCK_RECORD
5
23
100
AcDbSymbolTableRecord
100
AcDbBlockTableRecord
2
*Paper_Space0
340
0
70
0
0
BLOCK_RECORD
5
119
100
AcDbSymbolTableRecord
100
AcDbBlockTableRecord
2
_Closed
340
0
70
0
0
BLOCK_RECORD
5
123
100
AcDbSymbolTableRecord
100
AcDbBlockTableRecord
2
*D2
340
0
70
0
0
BLOCK_RECORD
5
12F
100
AcDbSymbolTableRecord
100
AcDbBlockTableRecord
2
_U0
340
0
70
0
0
BLOCK_RECORD
5
141
100
AcDbSymbolTableRecord
100
AcDbBlockTableRecord
2
*D4
340
0
70
0
0
BLOCK_RECORD
5
150
100
AcDbSymbolTableRecord
100
AcDbBlockTableRecord
2
_U1
340
0
70
0
0
BLOCK_RECORD
5
160
100
AcDbSymbolTableRecord
100
AcDbBlockTableRecord
2
*D6
340
0
70
0
0
BLOCK_RECORD
5
16E
100
AcDbSymbolTableRecord
100
AcDbBlockTableRecord
2
_U2
340
0
70
0
0
BLOCK_RECORD
5
17E
100
AcDbSymbolTableRecord
100
AcDbBlockTableRecord
2
*D8
340
0
70
0
0
BLOCK_RECORD
5
18A
100
AcDbSymbolTableRecord
100
AcDbBlockTableRecord
2
_U3
340
0
70
0
0
BLOCK_RECORD
5
19A
100
AcDbSymbolTableRecord
100
AcDbBlockTableRecord
2
*D10
340
0
70
0
0
BLOCK_RECORD
5
1A6
100
AcDbSymbolTableRecord
100
AcDbBlockTableRecord
2
_U4
340
0
70
0
0
BLOCK_RECORD
5
1B6
100
AcDbSymbolTableRecord
100
AcDbBlockTableRecord
2
*D12
340
0
70
0
0
BLOCK_RECORD
5
1C2
100
AcDbSymbolTableRecord
100
AcDbBlockTableRecord
2
_U5
340
0
70
0
0
BLOCK_RECORD
5
1D2
100
AcDbSymbolTableRecord
100
AcDbBlockTableRecord
2
*D14
340
0
70
0
0
BLOCK_RECORD
5
1DE
100
AcDbSymbolTableRecord
100
AcDbBlockTableRecord
2
_U6
340
0
70
0
0
ENDTAB
0
ENDSEC
0
SECTION
2
BLOCKS
0
BLOCK
5
20
100
AcDbEntity
8
0
100
AcDbBlockBegin
2
*Model_Space
70
0
10
0
20
0
30
0
3
*Model_Space
0
ENDBLK
5
21
100
AcDbEntity
8
0
100
AcDbBlockEnd
0
BLOCK
5
1C
100
AcDbEntity
8
0
100
AcDbBlockBegin
2
*Paper_Space
70
0
10
0
20
0
30
0
3
*Paper_Space
0
ENDBLK
5
1D
100
AcDbEntity
8
0
100
AcDbBlockEnd
0
BLOCK
5
24
100
AcDbEntity
8
0
100
AcDbBlockBegin
2
*Paper_Space0
70
0
10
0
20
0
30
0
3
*Paper_Space0
0
ENDBLK
5
25
100
AcDbEntity
8
0
100
AcDbBlockEnd
0
BLOCK
5
11A
100
AcDbEntity
8
0
100
AcDbBlockBegin
2
_Closed
70
0
10
0
20
0
30
0
3
_Closed
0
LINE
5
11C
100
AcDbEntity
8
0
62
256
6
ByLayer
370
-2
48
1
60
0
100
AcDbLine
10
-1
20
0.166667
30
0
11
0
21
0
31
0
39
0
210
0
220
0
230
1
0
LINE
5
11D
100
AcDbEntity
8
0
62
256
6
ByLayer
370
-2
48
1
60
0
100
AcDbLine
10
0
20
0
30
0
11
-1
21
-0.166667
31
0
39
0
210
0
220
0
230
1
0
LINE
5
11E
100
AcDbEntity
8
0
62
256
6
ByLayer
370
-2
48
1
60
0
100
AcDbLine
10
-1
20
0.166667
30
0
11
-1
21
-0.166667
31
0
39
0
210
0
220
0
230
1
0
LINE
5
11F
100
AcDbEntity
8
0
62
256
6
ByLayer
370
-2
48
1
60
0
100
AcDbLine
10
0
20
0
30
0
11
-1
21
0
31
0
39
0
210
0
220
0
230
1
0
ENDBLK
5
11B
100
AcDbEntity
8
0
100
AcDbBlockEnd
0
BLOCK
5
124
100
AcDbEntity
8
0
100
AcDbBlockBegin
2
*D2
70
1
10
0
20
0
30
0
3
*D2
0
LINE
5
126
100
AcDbEntity
8
0
62
256
6
ByLayer
370
-2
48
1
60
0
100
AcDbLine
10
0
20
-6.5875
30
0
11
0
21
-31.67512
31
0
39
0
210
0
220
0
230
1
0
LINE
5
127
100
AcDbEntity
8
0
62
256
6
ByLayer
370
-2
48
1
60
0
100
AcDbLine
10
63
20
-1.5875
30
0
11
63
21
-31.67512
31
0
39
0
210
0
220
0
230
1
0
LINE
5
128
100
AcDbEntity
8
0
62
256
6
ByLayer
370
-2
48
1
60
0
100
AcDbLine
10
3.175
20
-28.50012
30
0
11
59.825
21
-28.50012
31
0
39
0
210
0
220
0
230
1
0
SOLID
5
129
100
AcDbEntity
8
0
62
256
6
ByLayer
370
-1
48
1
60
0
100
AcDbTrace
10
3.175
20
-27.970953
30
0
11
3.175
21
-29.029287
31
0
12
0
22
-28.50012
32
0
13
0
23
-28.50012
33
0
39
0
210
0
220
0
230
1
0
SOLID
5
12A
100
AcDbEntity
8
0
62
256
6
ByLayer
370
-1
48
1
60
0
100
AcDbTrace
10
59.825
20
-29.029287
30
0
11
59.825
21
-27.970953
31
0
12
63
22
-28.50012
32
0
13
63
23
-28.50012
33
0
39
0
210
0
220
0
230
1
0
MTEXT
5
12B
100
AcDbEntity
8
0
62
256
6
ByLayer
370
18
48
1
60
0
100
AcDbMText
10
31.5
20
-21.193619
30
0
210
0
220
0
230
1
1
\A1;63
40
3.50012
41
0
44
1
50
0
71
5
72
5
7
iso_b_vert
0
POINT
5
12C
100
AcDbEntity
8
Defpoints
62
0
6
ByLayer
370
-1
48
1
60
0
100
AcDbPoint
10
0
20
-5
30
0
39
0
210
0
220
0
230
1
50
360
0
POINT
5
12D
100
AcDbEntity
8
Defpoints
62
0
6
ByLayer
370
-1
48
1
60
0
100
AcDbPoint
10
63
20
0
30
0
39
0
210
0
220
0
230
1
50
360
0
POINT
5
12E
100
AcDbEntity
8
Defpoints
62
0
6
ByLayer
370
-1
48
1
60
0
100
AcDbPoint
10
63
20
-28.50012
30
0
39
0
210
0
220
0
230
1
50
360
0
ENDBLK
5
125
100
AcDbEntity
8
0
100
AcDbBlockEnd
0
BLOCK
5
13C
100
AcDbEntity
8
0
100
AcDbBlockBegin
2
_U0
70
0
10
0
20
0
30
0
3
_U0
0
MTEXT
5
130
100
AcDbEntity
8
SK2
62
256
6
ByLayer
370
18
48
1
60
0
100
AcDbMText
10
26.270389
20
-27.467451
30
0
210
0
220
0
230
1
1
\W0.7468;63.00
40
3.50012
41
0
44
1.084337
50
0
71
7
72
5
7
iso_b_vert
0
MTEXT
5
131
100
AcDbEntity
8
SK2
62
256
6
ByLayer
370
18
48
1
60
0
100
AcDbMText
10
22.744329
20
-27.400814
30
0
210
0
220
0
230
1
1
\W0.1790;(
40
3.175
41
0
44
1.084337
50
0
71
7
72
5
7
iso_b_vert
0
MTEXT
5
132
100
AcDbEntity
8
SK2
62
256
6
ByLayer
370
18
48
1
60
0
100
AcDbMText
10
40.258393
20
-27.400814
30
0
210
0
220
0
230
1
1
\W0.1969;)
40
3.175
41
0
44
1.084337
50
0
71
7
72
5
7
iso_b_vert
0
LINE
5
133
100
AcDbEntity
8
SK2
62
256
6
ByLayer
370
13
48
1
60
0
100
AcDbLine
10
0
20
-6.5875
30
0
11
0
21
-31.67512
31
0
39
0
210
0
220
0
230
1
0
LINE
5
134
100
AcDbEntity
8
SK2
62
256
6
ByLayer
370
13
48
1
60
0
100
AcDbLine
10
63
20
-1.5875
30
0
11
63
21
-31.67512
31
0
39
0
210
0
220
0
230
1
0
LINE
5
135
100
AcDbEntity
8
SK2
62
256
6
ByLayer
370
13
48
1
60
0
100
AcDbLine
10
0
20
-28.50012
30
0
11
63
21
-28.50012
31
0
39
0
210
0
220
0
230
1
0
LINE
5
136
100
AcDbEntity
8
SK2
62
256
6
ByLayer
370
13
48
1
60
0
100
AcDbLine
10
0
20
-28.50012
30
0
11
3.174998
21
-28.082123
31
0
39
0
210
0
220
0
230
1
0
LINE
5
137
100
AcDbEntity
8
SK2
62
256
6
ByLayer
370
13
48
1
60
0
100
AcDbLine
10
0
20
-28.50012
30
0
11
3.175002
21
-28.918117
31
0
39
0
210
0
220
0
230
1
0
LINE
5
138
100
AcDbEntity
8
SK2
62
256
6
ByLayer
370
13
48
1
60
0
100
AcDbLine
10
3.174998
20
-28.082123
30
0
11
3.175002
21
-28.918117
31
0
39
0
210
0
220
0
230
1
0
LINE
5
139
100
AcDbEntity
8
SK2
62
256
6
ByLayer
370
13
48
1
60
0
100
AcDbLine
10
63
20
-28.50012
30
0
11
59.825002
21
-28.918117
31
0
39
0
210
0
220
0
230
1
0
LINE
5
13A
100
AcDbEntity
8
SK2
62
256
6
ByLayer
370
13
48
1
60
0
100
AcDbLine
10
63
20
-28.50012
30
0
11
59.824998
21
-28.082123
31
0
39
0
210
0
220
0
230
1
0
LINE
5
13B
100
AcDbEntity
8
SK2
62
256
6
ByLayer
370
13
48
1
60
0
100
AcDbLine
10
59.825002
20
-28.918117
30
0
11
59.824998
21
-28.082123
31
0
39
0
210
0
220
0
230
1
0
ENDBLK
5
13D
100
AcDbEntity
8
0
100
AcDbBlockEnd
0
BLOCK
5
142
100
AcDbEntity
8
0
100
AcDbBlockBegin
2
*D4
70
1
10
0
20
0
30
0
3
*D4
0
LINE
5
144
100
AcDbEntity
8
0
62
256
6
ByLayer
370
-2
48
1
60
0
100
AcDbLine
10
63.0042
20
-4.35
30
0
11
72.92506
21
-4.35
31
0
39
0
210
0
220
0
230
1
0
LINE
5
145
100
AcDbEntity
8
0
62
256
6
ByLayer
370
-2
48
1
60
0
100
AcDbLine
10
63.0042
20
4.35
30
0
11
72.92506
21
4.35
31
0
39
0
210
0
220
0
230
1
0
LINE
5
146
100
AcDbEntity
8
0
62
256
6
ByLayer
370
-2
48
1
60
0
100
AcDbLine
10
69.75006
20
4.35
30
0
11
69.75006
21
29.146466
31
0
39
0
210
0
220
0
230
1
0
LINE
5
147
100
AcDbEntity
8
0
62
256
6
ByLayer
370
-2
48
1
60
0
100
AcDbLine
10
69.75006
20
-7.525
30
0
11
69.75006
21
-10.7
31
0
39
0
210
0
220
0
230
1
0
LINE
5
148
100
AcDbEntity
8
0
62
256
6
ByLayer
370
-2
48
1
60
0
100
AcDbLine
10
69.75006
20
7.525
30
0
11
69.75006
21
10.7
31
0
39
0
210
0
220
0
230
1
0
SOLID
5
149
100
AcDbEntity
8
0
62
256
6
ByLayer
370
-1
48
1
60
0
100
AcDbTrace
10
70.279227
20
-7.525
30
0
11
69.220893
21
-7.525
31
0
12
69.75006
22
-4.35
32
0
13
69.75006
23
-4.35
33
0
39
0
210
0
220
0
230
1
0
SOLID
5
14A
100
AcDbEntity
8
0
62
256
6
ByLayer
370
-1
48
1
60
0
100
AcDbTrace
10
69.220893
20
7.525
30
0
11
70.279227
21
7.525
31
0
12
69.75006
22
4.35
32
0
13
69.75006
23
4.35
33
0
39
0
210
0
220
0
230
1
0
MTEXT
5
14B
100
AcDbEntity
8
0
62
256
6
ByLayer
370
18
48
1
60
0
100
AcDbMText
10
62.44356
20
19.923233
30
0
210
0
220
0
230
1
1
\A1;8.7
40
3.50012
41
0
44
1
50
90
71
5
72
5
7
iso_b_vert
0
POINT
5
14C
100
AcDbEntity
8
Defpoints
62
0
6
ByLayer
370
-1
48
1
60
0
100
AcDbPoint
10
61.4167
20
-4.35
30
0
39
0
210
0
220
0
230
1
50
360
0
POINT
5
14D
100
AcDbEntity
8
Defpoints
62
0
6
ByLayer
370
-1
48
1
60
0
100
AcDbPoint
10
61.4167
20
4.35
30
0
39
0
210
0
220
0
230
1
50
360
0
POINT
5
14E
100
AcDbEntity
8
Defpoints
62
0
6
ByLayer
370
-1
48
1
60
0
100
AcDbPoint
10
69.75006
20
4.35
30
0
39
0
210
0
220
0
230
1
50
360
0
ENDBLK
5
143
100
AcDbEntity
8
0
100
AcDbBlockEnd
0
BLOCK
5
15B
100
AcDbEntity
8
0
100
AcDbBlockBegin
2
_U1
70
0
10
0
20
0
30
0
3
_U1
0
MTEXT
5
151
100
AcDbEntity
8
2
62
256
6
ByLayer
370
18
48
1
60
0
100
AcDbMText
10
69.060403
20
8.507505
30
0
210
0
220
0
230
1
1
\W0.7346;8.70
40
3.50012
41
0
44
1.084337
50
90
71
7
72
5
7
iso_b_vert
0
LINE
5
152
100
AcDbEntity
8
2
62
256
6
ByLayer
370
13
48
1
60
0
100
AcDbLine
10
63.0042
20
-4.35
30
0
11
72.92506
21
-4.35
31
0
39
0
210
0
220
0
230
1
0
LINE
5
153
100
AcDbEntity
8
2
62
256
6
ByLayer
370
13
48
1
60
0
100
AcDbLine
10
63.0042
20
4.35
30
0
11
72.92506
21
4.35
31
0
39
0
210
0
220
0
230
1
0
LINE
5
154
100
AcDbEntity
8
2
62
256
6
ByLayer
370
13
48
1
60
0
100
AcDbLine
10
69.75006
20
-4.35
30
0
11
69.75006
21
16.56468
31
0
39
0
210
0
220
0
230
1
0
LINE
5
155
100
AcDbEntity
8
2
62
256
6
ByLayer
370
13
48
1
60
0
100
AcDbLine
10
69.75006
20
-4.35
30
0
11
69.332063
21
-1.175002
31
0
39
0
210
0
220
0
230
1
0
LINE
5
156
100
AcDbEntity
8
2
62
256
6
ByLayer
370
13
48
1
60
0
100
AcDbLine
10
69.75006
20
-4.35
30
0
11
70.168057
21
-1.174998
31
0
39
0
210
0
220
0
230
1
0
LINE
5
157
100
AcDbEntity
8
2
62
256
6
ByLayer
370
13
48
1
60
0
100
AcDbLine
10
69.332063
20
-1.175002
30
0
11
70.168057
21
-1.174998
31
0
39
0
210
0
220
0
230
1
0
LINE
5
158
100
AcDbEntity
8
2
62
256
6
ByLayer
370
13
48
1
60
0
100
AcDbLine
10
69.75006
20
4.35
30
0
11
70.168057
21
1.175002
31
0
39
0
210
0
220
0
230
1
0
LINE
5
159
100
AcDbEntity
8
2
62
256
6
ByLayer
370
13
48
1
60
0
100
AcDbLine
10
69.75006
20
4.35
30
0
11
69.332063
21
1.174998
31
0
39
0
210
0
220
0
230
1
0
LINE
5
15A
100
AcDbEntity
8
2
62
256
6
ByLayer
370
13
48
1
60
0
100
AcDbLine
10
70.168057
20
1.175002
30
0
11
69.332063
21
1.174998
31
0
39
0
210
0
220
0
230
1
0
ENDBLK
5
15C
100
AcDbEntity
8
0
100
AcDbBlockEnd
0
BLOCK
5
161
100
AcDbEntity
8
0
100
AcDbBlockBegin
2
*D6
70
1
10
0
20
0
30
0
3
*D6
0
LINE
5
163
100
AcDbEntity
8
0
62
256
6
ByLayer
370
-2
48
1
60
0
100
AcDbLine
10
-41.5875
20
5
30
0
11
-46.42494
21
5
31
0
39
0
210
0
220
0
230
1
0
LINE
5
164
100
AcDbEntity
8
0
62
256
6
ByLayer
370
-2
48
1
60
0
100
AcDbLine
10
-41.5875
20
-5
30
0
11
-46.42494
21
-5
31
0
39
0
210
0
220
0
230
1
0
LINE
5
165
100
AcDbEntity
8
0
62
256
6
ByLayer
370
-2
48
1
60
0
100
AcDbLine
10
-43.24994
20
5
30
0
11
-43.24994
21
28.117532
31
0
39
0
210
0
220
0
230
1
0
LINE
5
166
100
AcDbEntity
8
0
62
256
6
ByLayer
370
-2
48
1
60
0
100
AcDbLine
10
-43.24994
20
8.175
30
0
11
-43.24994
21
11.35
31
0
39
0
210
0
220
0
230
1
0
LINE
5
167
100
AcDbEntity
8
0
62
256
6
ByLayer
370
-2
48
1
60
0
100
AcDbLine
10
-43.24994
20
-8.175
30
0
11
-43.24994
21
-11.35
31
0
39
0
210
0
220
0
230
1
0
SOLID
5
168
100
AcDbEntity
8
0
62
256
6
ByLayer
370
-1
48
1
60
0
100
AcDbTrace
10
-43.779107
20
8.175
30
0
11
-42.720773
21
8.175
31
0
12
-43.24994
22
5
32
0
13
-43.24994
23
5
33
0
39
0
210
0
220
0
230
1
0
SOLID
5
169
100
AcDbEntity
8
0
62
256
6
ByLayer
370
-1
48
1
60
0
100
AcDbTrace
10
-42.720773
20
-8.175
30
0
11
-43.779107
21
-8.175
31
0
12
-43.24994
22
-5
32
0
13
-43.24994
23
-5
33
0
39
0
210
0
220
0
230
1
0
MTEXT
5
16A
100
AcDbEntity
8
0
62
256
6
ByLayer
370
18
48
1
60
0
100
AcDbMText
10
-50.556441
20
19.97767
30
0
210
0
220
0
230
1
1
\A1;10
40
3.50012
41
0
44
1
50
90
71
5
72
5
7
iso_b_vert
0
POINT
5
16B
100
AcDbEntity
8
Defpoints
62
0
6
ByLayer
370
-1
48
1
60
0
100
AcDbPoint
10
-40
20
5
30
0
39
0
210
0
220
0
230
1
50
360
0
POINT
5
16C
100
AcDbEntity
8
Defpoints
62
0
6
ByLayer
370
-1
48
1
60
0
100
AcDbPoint
10
-40
20
-5
30
0
39
0
210
0
220
0
230
1
50
360
0
POINT
5
16D
100
AcDbEntity
8
Defpoints
62
0
6
ByLayer
370
-1
48
1
60
0
100
AcDbPoint
10
-43.24994
20
-5
30
0
39
0
210
0
220
0
230
1
50
360
0
ENDBLK
5
162
100
AcDbEntity
8
0
100
AcDbBlockEnd
0
BLOCK
5
179
100
AcDbEntity
8
0
100
AcDbBlockBegin
2
_U2
70
0
10
0
20
0
30
0
3
_U2
0
MTEXT
5
16F
100
AcDbEntity
8
SK2
62
256
6
ByLayer
370
18
48
1
60
0
100
AcDbMText
10
-43.939597
20
15.157505
30
0
210
0
220
0
230
1
1
\W0.6864;10.00
40
3.50012
41
0
44
1.084337
50
90
71
7
72
5
7
iso_b_vert
0
LINE
5
170
100
AcDbEntity
8
SK2
62
256
6
ByLayer
370
13
48
1
60
0
100
AcDbLine
10
-41.5875
20
5
30
0
11
-46.42494
21
5
31
0
39
0
210
0
220
0
230
1
0
LINE
5
171
100
AcDbEntity
8
SK2
62
256
6
ByLayer
370
13
48
1
60
0
100
AcDbLine
10
-41.5875
20
-5
30
0
11
-46.42494
21
-5
31
0
39
0
210
0
220
0
230
1
0
LINE
5
172
100
AcDbEntity
8
SK2
62
256
6
ByLayer
370
13
48
1
60
0
100
AcDbLine
10
-43.24994
20
-5
30
0
11
-43.24994
21
24.955339
31
0
39
0
210
0
220
0
230
1
0
LINE
5
173
100
AcDbEntity
8
SK2
62
256
6
ByLayer
370
13
48
1
60
0
100
AcDbLine
10
-43.24994
20
5
30
0
11
-42.831943
21
1.825002
31
0
39
0
210
0
220
0
230
1
0
LINE
5
174
100
AcDbEntity
8
SK2
62
256
6
ByLayer
370
13
48
1
60
0
100
AcDbLine
10
-43.24994
20
5
30
0
11
-43.667937
21
1.824998
31
0
39
0
210
0
220
0
230
1
0
LINE
5
175
100
AcDbEntity
8
SK2
62
256
6
ByLayer
370
13
48
1
60
0
100
AcDbLine
10
-42.831943
20
1.825002
30
0
11
-43.667937
21
1.824998
31
0
39
0
210
0
220
0
230
1
0
LINE
5
176
100
AcDbEntity
8
SK2
62
256
6
ByLayer
370
13
48
1
60
0
100
AcDbLine
10
-43.24994
20
-5
30
0
11
-43.667937
21
-1.825002
31
0
39
0
210
0
220
0
230
1
0
LINE
5
177
100
AcDbEntity
8
SK2
62
256
6
ByLayer
370
13
48
1
60
0
100
AcDbLine
10
-43.24994
20
-5
30
0
11
-42.831943
21
-1.824998
31
0
39
0
210
0
220
0
230
1
0
LINE
5
178
100
AcDbEntity
8
SK2
62
256
6
ByLayer
370
13
48
1
60
0
100
AcDbLine
10
-43.667937
20
-1.825002
30
0
11
-42.831943
21
-1.824998
31
0
39
0
210
0
220
0
230
1
0
ENDBLK
5
17A
100
AcDbEntity
8
0
100
AcDbBlockEnd
0
BLOCK
5
17F
100
AcDbEntity
8
0
100
AcDbBlockBegin
2
*D8
70
1
10
0
20
0
30
0
3
*D8
0
LINE
5
181
100
AcDbEntity
8
0
62
256
6
ByLayer
370
-2
48
1
60
0
100
AcDbLine
10
-40
20
-6.5875
30
0
11
-40
21
-31.67512
31
0
39
0
210
0
220
0
230
1
0
LINE
5
182
100
AcDbEntity
8
0
62
256
6
ByLayer
370
-2
48
1
60
0
100
AcDbLine
10
0
20
-6.5875
30
0
11
0
21
-31.67512
31
0
39
0
210
0
220
0
230
1
0
LINE
5
183
100
AcDbEntity
8
0
62
256
6
ByLayer
370
-2
48
1
60
0
100
AcDbLine
10
-36.825
20
-28.50012
30
0
11
-3.175
21
-28.50012
31
0
39
0
210
0
220
0
230
1
0
SOLID
5
184
100
AcDbEntity
8
0
62
256
6
ByLayer
370
-1
48
1
60
0
100
AcDbTrace
10
-36.825
20
-27.970953
30
0
11
-36.825
21
-29.029287
31
0
12
-40
22
-28.50012
32
0
13
-40
23
-28.50012
33
0
39
0
210
0
220
0
230
1
0
SOLID
5
185
100
AcDbEntity
8
0
62
256
6
ByLayer
370
-1
48
1
60
0
100
AcDbTrace
10
-3.175
20
-29.029287
30
0
11
-3.175
21
-27.970953
31
0
12
0
22
-28.50012
32
0
13
0
23
-28.50012
33
0
39
0
210
0
220
0
230
1
0
MTEXT
5
186
100
AcDbEntity
8
0
62
256
6
ByLayer
370
18
48
1
60
0
100
AcDbMText
10
-20
20
-21.193619
30
0
210
0
220
0
230
1
1
\A1;40
40
3.50012
41
0
44
1
50
0
71
5
72
5
7
iso_b_vert
0
POINT
5
187
100
AcDbEntity
8
Defpoints
62
0
6
ByLayer
370
-1
48
1
60
0
100
AcDbPoint
10
-40
20
-5
30
0
39
0
210
0
220
0
230
1
50
360
0
POINT
5
188
100
AcDbEntity
8
Defpoints
62
0
6
ByLayer
370
-1
48
1
60
0
100
AcDbPoint
10
0
20
-5
30
0
39
0
210
0
220
0
230
1
50
360
0
POINT
5
189
100
AcDbEntity
8
Defpoints
62
0
6
ByLayer
370
-1
48
1
60
0
100
AcDbPoint
10
0
20
-28.50012
30
0
39
0
210
0
220
0
230
1
50
360
0
ENDBLK
5
180
100
AcDbEntity
8
0
100
AcDbBlockEnd
0
BLOCK
5
195
100
AcDbEntity
8
0
100
AcDbBlockBegin
2
_U3
70
0
10
0
20
0
30
0
3
_U3
0
MTEXT
5
18B
100
AcDbEntity
8
SK2
62
256
6
ByLayer
370
18
48
1
60
0
100
AcDbMText
10
-25.413884
20
-27.467451
30
0
210
0
220
0
230
1
1
\W0.7694;40.00
40
3.50012
41
0
44
1.084337
50
0
71
7
72
5
7
iso_b_vert
0
LINE
5
18C
100
AcDbEntity
8
SK2
62
256
6
ByLayer
370
13
48
1
60
0
100
AcDbLine
10
-40
20
-6.5875
30
0
11
-40
21
-31.67512
31
0
39
0
210
0
220
0
230
1
0
LINE
5
18D
100
AcDbEntity
8
SK2
62
256
6
ByLayer
370
13
48
1
60
0
100
AcDbLine
10
0
20
-6.5875
30
0
11
0
21
-31.67512
31
0
39
0
210
0
220
0
230
1
0
LINE
5
18E
100
AcDbEntity
8
SK2
62
256
6
ByLayer
370
13
48
1
60
0
100
AcDbLine
10
-40
20
-28.50012
30
0
11
0
21
-28.50012
31
0
39
0
210
0
220
0
230
1
0
LINE
5
18F
100
AcDbEntity
8
SK2
62
256
6
ByLayer
370
13
48
1
60
0
100
AcDbLine
10
-40
20
-28.50012
30
0
11
-36.825002
21
-28.082123
31
0
39
0
210
0
220
0
230
1
0
LINE
5
190
100
AcDbEntity
8
SK2
62
256
6
ByLayer
370
13
48
1
60
0
100
AcDbLine
10
-40
20
-28.50012
30
0
11
-36.824998
21
-28.918117
31
0
39
0
210
0
220
0
230
1
0
LINE
5
191
100
AcDbEntity
8
SK2
62
256
6
ByLayer
370
13
48
1
60
0
100
AcDbLine
10
-36.825002
20
-28.082123
30
0
11
-36.824998
21
-28.918117
31
0
39
0
210
0
220
0
230
1
0
LINE
5
192
100
AcDbEntity
8
SK2
62
256
6
ByLayer
370
13
48
1
60
0
100
AcDbLine
10
0
20
-28.50012
30
0
11
-3.174998
21
-28.918117
31
0
39
0
210
0
220
0
230
1
0
LINE
5
193
100
AcDbEntity
8
SK2
62
256
6
ByLayer
370
13
48
1
60
0
100
AcDbLine
10
0
20
-28.50012
30
0
11
-3.175002
21
-28.082123
31
0
39
0
210
0
220
0
230
1
0
LINE
5
194
100
AcDbEntity
8
SK2
62
256
6
ByLayer
370
13
48
1
60
0
100
AcDbLine
10
-3.174998
20
-28.918117
30
0
11
-3.175002
21
-28.082123
31
0
39
0
210
0
220
0
230
1
0
ENDBLK
5
196
100
AcDbEntity
8
0
100
AcDbBlockEnd
0
BLOCK
5
19B
100
AcDbEntity
8
0
100
AcDbBlockBegin
2
*D10
70
1
10
0
20
0
30
0
3
*D10
0
LINE
5
19D
100
AcDbEntity
8
0
62
256
6
ByLayer
370
-2
48
1
60
0
100
AcDbLine
10
2
20
3.2625
30
0
11
2
21
-22.92482
31
0
39
0
210
0
220
0
230
1
0
LINE
5
19E
100
AcDbEntity
8
0
62
256
6
ByLayer
370
-2
48
1
60
0
100
AcDbLine
10
63
20
-1.5875
30
0
11
63
21
-22.92482
31
0
39
0
210
0
220
0
230
1
0
LINE
5
19F
100
AcDbEntity
8
0
62
256
6
ByLayer
370
-2
48
1
60
0
100
AcDbLine
10
5.175
20
-19.74982
30
0
11
59.825
21
-19.74982
31
0
39
0
210
0
220
0
230
1
0
SOLID
5
1A0
100
AcDbEntity
8
0
62
256
6
ByLayer
370
-1
48
1
60
0
100
AcDbTrace
10
5.175
20
-19.220653
30
0
11
5.175
21
-20.278987
31
0
12
2
22
-19.74982
32
0
13
2
23
-19.74982
33
0
39
0
210
0
220
0
230
1
0
SOLID
5
1A1
100
AcDbEntity
8
0
62
256
6
ByLayer
370
-1
48
1
60
0
100
AcDbTrace
10
59.825
20
-20.278987
30
0
11
59.825
21
-19.220653
31
0
12
63
22
-19.74982
32
0
13
63
23
-19.74982
33
0
39
0
210
0
220
0
230
1
0
MTEXT
5
1A2
100
AcDbEntity
8
0
62
256
6
ByLayer
370
18
48
1
60
0
100
AcDbMText
10
32.5
20
-12.443319
30
0
210
0
220
0
230
1
1
\A1;61
40
3.50012
41
0
44
1
50
0
71
5
72
5
7
iso_b_vert
0
POINT
5
1A3
100
AcDbEntity
8
Defpoints
62
0
6
ByLayer
370
-1
48
1
60
0
100
AcDbPoint
10
2
20
4.85
30
0
39
0
210
0
220
0
230
1
50
360
0
POINT
5
1A4
100
AcDbEntity
8
Defpoints
62
0
6
ByLayer
370
-1
48
1
60
0
100
AcDbPoint
10
63
20
0
30
0
39
0
210
0
220
0
230
1
50
360
0
POINT
5
1A5
100
AcDbEntity
8
Defpoints
62
0
6
ByLayer
370
-1
48
1
60
0
100
AcDbPoint
10
63
20
-19.74982
30
0
39
0
210
0
220
0
230
1
50
360
0
ENDBLK
5
19C
100
AcDbEntity
8
0
100
AcDbBlockEnd
0
BLOCK
5
1B1
100
AcDbEntity
8
0
100
AcDbBlockBegin
2
_U4
70
0
10
0
20
0
30
0
3
_U4
0
MTEXT
5
1A7
100
AcDbEntity
8
SK2
62
256
6
ByLayer
370
18
48
1
60
0
100
AcDbMText
10
27.707837
20
-18.717151
30
0
210
0
220
0
230
1
1
\W0.6864;61.00
40
3.50012
41
0
44
1.084337
50
0
71
7
72
5
7
iso_b_vert
0
LINE
5
1A8
100
AcDbEntity
8
SK2
62
256
6
ByLayer
370
13
48
1
60
0
100
AcDbLine
10
2
20
3.2625
30
0
11
2
21
-22.92482
31
0
39
0
210
0
220
0
230
1
0
LINE
5
1A9
100
AcDbEntity
8
SK2
62
256
6
ByLayer
370
13
48
1
60
0
100
AcDbLine
10
63
20
-1.5875
30
0
11
63
21
-22.92482
31
0
39
0
210
0
220
0
230
1
0
LINE
5
1AA
100
AcDbEntity
8
SK2
62
256
6
ByLayer
370
13
48
1
60
0
100
AcDbLine
10
2
20
-19.74982
30
0
11
63
21
-19.74982
31
0
39
0
210
0
220
0
230
1
0
LINE
5
1AB
100
AcDbEntity
8
SK2
62
256
6
ByLayer
370
13
48
1
60
0
100
AcDbLine
10
2
20
-19.74982
30
0
11
5.174998
21
-19.331823
31
0
39
0
210
0
220
0
230
1
0
LINE
5
1AC
100
AcDbEntity
8
SK2
62
256
6
ByLayer
370
13
48
1
60
0
100
AcDbLine
10
2
20
-19.74982
30
0
11
5.175002
21
-20.167817
31
0
39
0
210
0
220
0
230
1
0
LINE
5
1AD
100
AcDbEntity
8
SK2
62
256
6
ByLayer
370
13
48
1
60
0
100
AcDbLine
10
5.174998
20
-19.331823
30
0
11
5.175002
21
-20.167817
31
0
39
0
210
0
220
0
230
1
0
LINE
5
1AE
100
AcDbEntity
8
SK2
62
256
6
ByLayer
370
13
48
1
60
0
100
AcDbLine
10
63
20
-19.74982
30
0
11
59.825002
21
-20.167817
31
0
39
0
210
0
220
0
230
1
0
LINE
5
1AF
100
AcDbEntity
8
SK2
62
256
6
ByLayer
370
13
48
1
60
0
100
AcDbLine
10
63
20
-19.74982
30
0
11
59.824998
21
-19.331823
31
0
39
0
210
0
220
0
230
1
0
LINE
5
1B0
100
AcDbEntity
8
SK2
62
256
6
ByLayer
370
13
48
1
60
0
100
AcDbLine
10
59.825002
20
-20.167817
30
0
11
59.824998
21
-19.331823
31
0
39
0
210
0
220
0
230
1
0
ENDBLK
5
1B2
100
AcDbEntity
8
0
100
AcDbBlockEnd
0
BLOCK
5
1B7
100
AcDbEntity
8
0
100
AcDbBlockBegin
2
*D12
70
1
10
0
20
0
30
0
3
*D12
0
LINE
5
1B9
100
AcDbEntity
8
0
62
256
6
ByLayer
370
-2
48
1
60
0
100
AcDbLine
10
18
20
-5.9375
30
0
11
18
21
-12.32
31
0
39
0
210
0
220
0
230
1
0
LINE
5
1BA
100
AcDbEntity
8
0
62
256
6
ByLayer
370
-2
48
1
60
0
100
AcDbLine
10
63
20
-1.5875
30
0
11
63
21
-12.32
31
0
39
0
210
0
220
0
230
1
0
LINE
5
1BB
100
AcDbEntity
8
0
62
256
6
ByLayer
370
-2
48
1
60
0
100
AcDbLine
10
21.175
20
-11.82
30
0
11
59.825
21
-11.82
31
0
39
0
210
0
220
0
230
1
0
SOLID
5
1BC
100
AcDbEntity
8
0
62
256
6
ByLayer
370
-1
48
1
60
0
100
AcDbTrace
10
21.175
20
-11.290833
30
0
11
21.175
21
-12.349167
31
0
12
18
22
-11.82
32
0
13
18
23
-11.82
33
0
39
0
210
0
220
0
230
1
0
SOLID
5
1BD
100
AcDbEntity
8
0
62
256
6
ByLayer
370
-1
48
1
60
0
100
AcDbTrace
10
59.825
20
-12.349167
30
0
11
59.825
21
-11.290833
31
0
12
63
22
-11.82
32
0
13
63
23
-11.82
33
0
39
0
210
0
220
0
230
1
0
MTEXT
5
1BE
100
AcDbEntity
8
0
62
256
6
ByLayer
370
18
48
1
60
0
100
AcDbMText
10
40.5
20
-5.975
30
0
210
0
220
0
230
1
1
\A1;45
40
2.8
41
0
44
1
50
0
71
5
72
5
7
iso_b_vert
0
POINT
5
1BF
100
AcDbEntity
8
Defpoints
62
0
6
ByLayer
370
-1
48
1
60
0
100
AcDbPoint
10
18
20
-4.35
30
0
39
0
210
0
220
0
230
1
50
360
0
POINT
5
1C0
100
AcDbEntity
8
Defpoints
62
0
6
ByLayer
370
-1
48
1
60
0
100
AcDbPoint
10
63
20
0
30
0
39
0
210
0
220
0
230
1
50
360
0
POINT
5
1C1
100
AcDbEntity
8
Defpoints
62
0
6
ByLayer
370
-1
48
1
60
0
100
AcDbPoint
10
63
20
-11.82
30
0
39
0
210
0
220
0
230
1
50
360
0
ENDBLK
5
1B8
100
AcDbEntity
8
0
100
AcDbBlockEnd
0
BLOCK
5
1CD
100
AcDbEntity
8
0
100
AcDbBlockBegin
2
_U5
70
0
10
0
20
0
30
0
3
_U5
0
MTEXT
5
1C3
100
AcDbEntity
8
SK2
62
256
6
ByLayer
370
18
48
1
60
0
100
AcDbMText
10
36.169041
20
-11.973893
30
0
210
0
220
0
230
1
1
\W0.7694;45.00
40
2.8
41
0
44
1.084337
50
0
71
7
72
5
7
iso_b_vert
0
LINE
5
1C4
100
AcDbEntity
8
SK2
62
256
6
ByLayer
370
13
48
1
60
0
100
AcDbLine
10
18
20
-5.9375
30
0
11
18
21
-12.32
31
0
39
0
210
0
220
0
230
1
0
LINE
5
1C5
100
AcDbEntity
8
SK2
62
256
6
ByLayer
370
13
48
1
60
0
100
AcDbLine
10
63
20
-1.5875
30
0
11
63
21
-12.32
31
0
39
0
210
0
220
0
230
1
0
LINE
5
1C6
100
AcDbEntity
8
SK2
62
256
6
ByLayer
370
13
48
1
60
0
100
AcDbLine
10
18
20
-11.82
30
0
11
63
21
-11.82
31
0
39
0
210
0
220
0
230
1
0
LINE
5
1C7
100
AcDbEntity
8
SK2
62
256
6
ByLayer
370
13
48
1
60
0
100
AcDbLine
10
18
20
-11.82
30
0
11
21.174998
21
-11.402003
31
0
39
0
210
0
220
0
230
1
0
LINE
5
1C8
100
AcDbEntity
8
SK2
62
256
6
ByLayer
370
13
48
1
60
0
100
AcDbLine
10
18
20
-11.82
30
0
11
21.175002
21
-12.237997
31
0
39
0
210
0
220
0
230
1
0
LINE
5
1C9
100
AcDbEntity
8
SK2
62
256
6
ByLayer
370
13
48
1
60
0
100
AcDbLine
10
21.174998
20
-11.402003
30
0
11
21.175002
21
-12.237997
31
0
39
0
210
0
220
0
230
1
0
LINE
5
1CA
100
AcDbEntity
8
SK2
62
256
6
ByLayer
370
13
48
1
60
0
100
AcDbLine
10
63
20
-11.82
30
0
11
59.825002
21
-12.237997
31
0
39
0
210
0
220
0
230
1
0
LINE
5
1CB
100
AcDbEntity
8
SK2
62
256
6
ByLayer
370
13
48
1
60
0
100
AcDbLine
10
63
20
-11.82
30
0
11
59.824998
21
-11.402003
31
0
39
0
210
0
220
0
230
1
0
LINE
5
1CC
100
AcDbEntity
8
SK2
62
256
6
ByLayer
370
13
48
1
60
0
100
AcDbLine
10
59.825002
20
-12.237997
30
0
11
59.824998
21
-11.402003
31
0
39
0
210
0
220
0
230
1
0
ENDBLK
5
1CE
100
AcDbEntity
8
0
100
AcDbBlockEnd
0
BLOCK
5
1D3
100
AcDbEntity
8
0
100
AcDbBlockBegin
2
*D14
70
1
10
0
20
0
30
0
3
*D14
0
LINE
5
1D5
100
AcDbEntity
8
0
62
256
6
ByLayer
370
-2
48
1
60
0
100
AcDbLine
10
-40
20
-1.5875
30
0
11
-40
21
-41.67512
31
0
39
0
210
0
220
0
230
1
0
LINE
5
1D6
100
AcDbEntity
8
0
62
256
6
ByLayer
370
-2
48
1
60
0
100
AcDbLine
10
63
20
-1.5875
30
0
11
63
21
-41.67512
31
0
39
0
210
0
220
0
230
1
0
LINE
5
1D7
100
AcDbEntity
8
0
62
256
6
ByLayer
370
-2
48
1
60
0
100
AcDbLine
10
-36.825
20
-38.50012
30
0
11
59.825
21
-38.50012
31
0
39
0
210
0
220
0
230
1
0
SOLID
5
1D8
100
AcDbEntity
8
0
62
256
6
ByLayer
370
-1
48
1
60
0
100
AcDbTrace
10
-36.825
20
-37.970953
30
0
11
-36.825
21
-39.029287
31
0
12
-40
22
-38.50012
32
0
13
-40
23
-38.50012
33
0
39
0
210
0
220
0
230
1
0
SOLID
5
1D9
100
AcDbEntity
8
0
62
256
6
ByLayer
370
-1
48
1
60
0
100
AcDbTrace
10
59.825
20
-39.029287
30
0
11
59.825
21
-37.970953
31
0
12
63
22
-38.50012
32
0
13
63
23
-38.50012
33
0
39
0
210
0
220
0
230
1
0
MTEXT
5
1DA
100
AcDbEntity
8
0
62
256
6
ByLayer
370
18
48
1
60
0
100
AcDbMText
10
11.5
20
-31.193619
30
0
210
0
220
0
230
1
1
\A1;103
40
3.50012
41
0
44
1
50
0
71
5
72
5
7
iso_b_vert
0
POINT
5
1DB
100
AcDbEntity
8
Defpoints
62
0
6
ByLayer
370
-1
48
1
60
0
100
AcDbPoint
10
-40
20
0
30
0
39
0
210
0
220
0
230
1
50
360
0
POINT
5
1DC
100
AcDbEntity
8
Defpoints
62
0
6
ByLayer
370
-1
48
1
60
0
100
AcDbPoint
10
63
20
0
30
0
39
0
210
0
220
0
230
1
50
360
0
POINT
5
1DD
100
AcDbEntity
8
Defpoints
62
0
6
ByLayer
370
-1
48
1
60
0
100
AcDbPoint
10
63
20
-38.50012
30
0
39
0
210
0
220
0
230
1
50
360
0
ENDBLK
5
1D4
100
AcDbEntity
8
0
100
AcDbBlockEnd
0
BLOCK
5
1E9
100
AcDbEntity
8
0
100
AcDbBlockBegin
2
_U6
70
0
10
0
20
0
30
0
3
_U6
0
MTEXT
5
1DF
100
AcDbEntity
8
SK2
62
256
6
ByLayer
370
18
48
1
60
0
100
AcDbMText
10
5.400059
20
-37.467451
30
0
210
0
220
0
230
1
1
\W0.7022;103.00
40
3.50012
41
0
44
1.084337
50
0
71
7
72
5
7
iso_b_vert
0
LINE
5
1E0
100
AcDbEntity
8
SK2
62
256
6
ByLayer
370
13
48
1
60
0
100
AcDbLine
10
-40
20
-1.5875
30
0
11
-40
21
-41.67512
31
0
39
0
210
0
220
0
230
1
0
LINE
5
1E1
100
AcDbEntity
8
SK2
62
256
6
ByLayer
370
13
48
1
60
0
100
AcDbLine
10
63
20
-1.5875
30
0
11
63
21
-41.67512
31
0
39
0
210
0
220
0
230
1
0
LINE
5
1E2
100
AcDbEntity
8
SK2
62
256
6
ByLayer
370
13
48
1
60
0
100
AcDbLine
10
-40
20
-38.50012
30
0
11
63
21
-38.50012
31
0
39
0
210
0
220
0
230
1
0
LINE
5
1E3
100
AcDbEntity
8
SK2
62
256
6
ByLayer
370
13
48
1
60
0
100
AcDbLine
10
-40
20
-38.50012
30
0
11
-36.825002
21
-38.082123
31
0
39
0
210
0
220
0
230
1
0
LINE
5
1E4
100
AcDbEntity
8
SK2
62
256
6
ByLayer
370
13
48
1
60
0
100
AcDbLine
10
-40
20
-38.50012
30
0
11
-36.824998
21
-38.918117
31
0
39
0
210
0
220
0
230
1
0
LINE
5
1E5
100
AcDbEntity
8
SK2
62
256
6
ByLayer
370
13
48
1
60
0
100
AcDbLine
10
-36.825002
20
-38.082123
30
0
11
-36.824998
21
-38.918117
31
0
39
0
210
0
220
0
230
1
0
LINE
5
1E6
100
AcDbEntity
8
SK2
62
256
6
ByLayer
370
13
48
1
60
0
100
AcDbLine
10
63
20
-38.50012
30
0
11
59.825002
21
-38.918117
31
0
39
0
210
0
220
0
230
1
0
LINE
5
1E7
100
AcDbEntity
8
SK2
62
256
6
ByLayer
370
13
48
1
60
0
100
AcDbLine
10
63
20
-38.50012
30
0
11
59.824998
21
-38.082123
31
0
39
0
210
0
220
0
230
1
0
LINE
5
1E8
100
AcDbEntity
8
SK2
62
256
6
ByLayer
370
13
48
1
60
0
100
AcDbLine
10
59.825002
20
-38.918117
30
0
11
59.824998
21
-38.082123
31
0
39
0
210
0
220
0
230
1
0
ENDBLK
5
1EA
100
AcDbEntity
8
0
100
AcDbBlockEnd
0
ENDSEC
0
SECTION
2
ENTITIES
0
ARC
5
B3
100
AcDbEntity
8
1
62
256
6
ByLayer
370
18
48
1
60
0
100
AcDbCircle
39
0
10
1.31433
20
5.112435
30
0
40
0.800000000000001
210
0
220
0
230
1
100
AcDbArc
50
214.769191
51
270.03581
0
ARC
5
B4
100
AcDbEntity
8
1
62
256
6
ByLayer
370
18
48
1
60
0
100
AcDbCircle
39
0
10
1.31433
20
-5.112435
30
0
40
0.800000000000001
210
0
220
0
230
1
100
AcDbArc
50
89.96419
51
145.230809
0
ARC
5
B5
100
AcDbEntity
8
1
62
256
6
ByLayer
370
18
48
1
60
0
100
AcDbCircle
39
0
10
0
20
4.2
30
0
40
0.800000000000002
210
0
220
0
230
1
100
AcDbArc
50
34.769191
51
90
0
ARC
5
B6
100
AcDbEntity
8
1
62
256
6
ByLayer
370
18
48
1
60
0
100
AcDbCircle
39
0
10
0
20
-4.2
30
0
40
0.800000000000002
210
0
220
0
230
1
100
AcDbArc
50
270
51
325.230809
0
ARC
5
B7
100
AcDbEntity
8
SK2
62
256
6
ByLayer
370
13
48
1
60
0
100
AcDbCircle
39
0
10
63
20
0
30
0
40
20
210
0
220
0
230
1
100
AcDbArc
50
9.606349
51
69.999657
0
ARC
5
B8
100
AcDbEntity
8
SK2
62
256
6
ByLayer
370
13
48
1
60
0
100
AcDbCircle
39
0
10
63
20
0
30
0
40
20
210
0
220
0
230
1
100
AcDbArc
50
290.000343
51
350.393651
0
ELLIPSE
5
B9
100
AcDbEntity
8
1
62
256
6
ByLayer
370
18
48
1
60
0
100
AcDbEllipse
10
3.563095
20
-3.53459
30
0
11
-0.00163188184431734
21
0.00986594960691507
31
0
210
0
220
0
230
1
40
0.540142
41
0.581774590691293
42
1.96550052366854
0
ELLIPSE
5
BA
100
AcDbEntity
8
1
62
256
6
ByLayer
370
18
48
1
60
0
100
AcDbEllipse
10
3.601862
20
-3.536474
30
0
11
-0.00235458321612886
21
-0.00971884447238067
31
0
210
0
220
0
230
1
40
0.368251
41
-2.56333659962929
42
-0.993935065879501
0
ELLIPSE
5
BB
100
AcDbEntity
8
1
62
256
6
ByLayer
370
18
48
1
60
0
100
AcDbEllipse
10
3.602366
20
1.270852
30
0
11
4.59947357098132E-05
21
0.00999989422365492
31
0
210
0
220
0
230
1
40
0.009036
41
-1.88528110055569
42
-0.314596349838888
0
ELLIPSE
5
BC
100
AcDbEntity
8
1
62
256
6
ByLayer
370
18
48
1
60
0
100
AcDbEllipse
10
3.640751
20
1.262468
30
0
11
-0.00414784302682489
21
-0.00909919766929041
31
0
210
0
220
0
230
1
40
0.139214
41
1.29041984429248
42
2.85617489476737
0
POINT
5
70
100
AcDbEntity
8
80
62
256
6
ByLayer
370
18
48
1
60
0
100
AcDbPoint
10
0
20
0
30
0
39
0
210
0
220
0
230
1
50
360
0
POINT
5
72
100
AcDbEntity
8
81
62
256
6
ByLayer
370
18
48
1
60
0
100
AcDbPoint
10
63
20
0
30
0
39
0
210
0
220
0
230
1
50
360
0
POINT
5
74
100
AcDbEntity
8
1
62
256
6
ByLayer
370
18
48
1
60
0
100
AcDbPoint
10
-40
20
0
30
0
39
0
210
0
220
0
230
1
50
360
0
POINT
5
76
100
AcDbEntity
8
1
62
256
6
ByLayer
370
18
48
1
60
1
100
AcDbPoint
10
0
20
-5
30
0
39
0
210
0
220
0
230
1
50
360
0
POINT
5
77
100
AcDbEntity
8
1
62
256
6
ByLayer
370
18
48
1
60
1
100
AcDbPoint
10
63
20
0
30
0
39
0
210
0
220
0
230
1
50
360
0
POINT
5
78
100
AcDbEntity
8
1
62
256
6
ByLayer
370
18
48
1
60
1
100
AcDbPoint
10
61.4167
20
-4.35
30
0
39
0
210
0
220
0
230
1
50
360
0
POINT
5
79
100
AcDbEntity
8
1
62
256
6
ByLayer
370
18
48
1
60
1
100
AcDbPoint
10
61.4167
20
4.35
30
0
39
0
210
0
220
0
230
1
50
360
0
POINT
5
7A
100
AcDbEntity
8
1
62
256
6
ByLayer
370
18
48
1
60
1
100
AcDbPoint
10
-40
20
5
30
0
39
0
210
0
220
0
230
1
50
360
0
POINT
5
7B
100
AcDbEntity
8
1
62
256
6
ByLayer
370
18
48
1
60
1
100
AcDbPoint
10
-40
20
-5
30
0
39
0
210
0
220
0
230
1
50
360
0
POINT
5
7C
100
AcDbEntity
8
1
62
256
6
ByLayer
370
18
48
1
60
1
100
AcDbPoint
10
-40
20
-5
30
0
39
0
210
0
220
0
230
1
50
360
0
POINT
5
7D
100
AcDbEntity
8
1
62
256
6
ByLayer
370
18
48
1
60
1
100
AcDbPoint
10
0
20
-5
30
0
39
0
210
0
220
0
230
1
50
360
0
POINT
5
7E
100
AcDbEntity
8
1
62
256
6
ByLayer
370
18
48
1
60
1
100
AcDbPoint
10
2
20
4.85
30
0
39
0
210
0
220
0
230
1
50
360
0
POINT
5
7F
100
AcDbEntity
8
1
62
256
6
ByLayer
370
18
48
1
60
1
100
AcDbPoint
10
63
20
0
30
0
39
0
210
0
220
0
230
1
50
360
0
POINT
5
80
100
AcDbEntity
8
1
62
256
6
ByLayer
370
18
48
1
60
1
100
AcDbPoint
10
18
20
-4.35
30
0
39
0
210
0
220
0
230
1
50
360
0
POINT
5
81
100
AcDbEntity
8
1
62
256
6
ByLayer
370
18
48
1
60
1
100
AcDbPoint
10
63
20
0
30
0
39
0
210
0
220
0
230
1
50
360
0
POINT
5
82
100
AcDbEntity
8
1
62
256
6
ByLayer
370
18
48
1
60
1
100
AcDbPoint
10
-40
20
0
30
0
39
0
210
0
220
0
230
1
50
360
0
POINT
5
83
100
AcDbEntity
8
1
62
256
6
ByLayer
370
18
48
1
60
1
100
AcDbPoint
10
63
20
0
30
0
39
0
210
0
220
0
230
1
50
360
0
SPLINE
5
BD
100
AcDbEntity
8
1
62
256
6
ByLayer
370
18
48
1
60
0
100
AcDbSpline
70
4
71
3
72
8
73
4
40
0
40
0
40
0
40
0
40
1
40
1
40
1
40
1
41
1
10
3.64683593805646
20
1.33411689987472
30
-1E-16
41
1
10
3.64626163097793
20
1.31309965842854
30
-1E-16
41
1
10
3.6456789921439
20
1.29207299390126
30
-1E-16
41
1
10
3.64508803689773
20
1.27103633095081
30
-1E-16
0
SPLINE
5
BE
100
AcDbEntity
8
1
62
256
6
ByLayer
370
18
48
1
60
0
100
AcDbSpline
70
4
71
3
72
10
73
6
40
0
40
0
40
0
40
0
40
0.5
40
0.5
40
1
40
1
40
1
40
1
41
1
10
3.55710376106273
20
-3.70964852118428
30
-2E-16
41
1
10
3.54042554264166
20
-3.70539571131093
30
-2E-16
41
1
10
3.52640581494711
20
-3.69879770347464
30
-2E-16
41
1
10
3.50703063170769
20
-3.68259936548151
30
-2E-16
41
1
10
3.50172104885402
20
-3.6729850023448
30
-2E-16
41
1
10
3.50172104885402
20
-3.66314291757297
30
-2E-16
0
SPLINE
5
BF
100
AcDbEntity
8
1
62
256
6
ByLayer
370
18
48
1
60
0
100
AcDbSpline
70
4
71
3
72
8
73
4
40
0
40
0
40
0
40
0
40
1
40
1
40
1
40
1
41
1
10
3.5588035314197
20
-3.53919774844317
30
2E-16
41
1
10
3.55822915056987
20
-3.59601951537806
30
2E-16
41
1
10
3.55766255421156
20
-3.65283634655594
30
-2E-16
41
1
10
3.55710376106276
20
-3.70964852118428
30
-2E-16
0
SPLINE
5
C0
100
AcDbEntity
8
1
62
256
6
ByLayer
370
18
48
1
60
0
100
AcDbSpline
70
4
71
3
72
10
73
6
40
0
40
0
40
0
40
0
40
0.5
40
0.5
40
1
40
1
40
1
40
1
41
1
10
61.4888741404124
20
-4.17016852919446
30
0
41
1
10
61.4749587716366
20
-4.17939201136585
30
0
41
1
10
61.463130737476
20
-4.1832760936835
30
0
41
1
10
61.442984371629
20
-4.18049508300473
30
0
41
1
10
61.4347155044015
20
-4.1738851657401
30
0
41
1
10
61.4276584143925
20
-4.1625009379016
30
0
0
SPLINE
5
C1
100
AcDbEntity
8
1
62
256
6
ByLayer
370
18
48
1
60
0
100
AcDbSpline
70
4
71
3
72
8
73
4
40
0
40
0
40
0
40
0
40
1
40
1
40
1
40
1
41
1
10
61.4819416655468
20
4.17483657707544
30
0
41
1
10
61.4842524549598
20
4.17328071667825
30
0
41
1
10
61.4865632798251
20
4.17172470069721
30
0
41
1
10
61.4888741404124
20
4.17016852919443
30
0
0
SPLINE
5
C2
100
AcDbEntity
8
1
62
256
6
ByLayer
370
18
48
1
60
0
100
AcDbSpline
70
4
71
3
72
14
73
10
40
0
40
0
40
0
40
0
40
0.270602312396144
40
0.270602312396144
40
0.506529430440706
40
0.506529430440706
40
0.781756931728214
40
0.781756931728214
40
1
40
1
40
1
40
1
41
1
10
60.9479779438032
20
-0.0839770428712256
30
0
41
1
10
60.9487177224226
20
-0.0843012941664938
30
0
41
1
10
60.9494444523676
20
-0.084995598359427
30
0
41
1
10
60.9506588413632
20
-0.0867311570676179
30
0
41
1
10
60.9511819340422
20
-0.0877400031710636
30
0
41
1
10
60.9521543225825
20
-0.09019380914512
30
0
41
1
10
60.9525924455313
20
-0.0917215028774478
30
0
41
1
10
60.9531397474731
20
-0.0946315028180891
30
0
41
1
10
60.9533035813807
20
-0.0960129469807214
30
0
41
1
10
60.9533574337893
20
-0.0973903047848523
30
0
0
SPLINE
5
C3
100
AcDbEntity
8
1
62
256
6
ByLayer
370
18
48
1
60
0
100
AcDbSpline
70
4
71
3
72
10
73
6
40
0
40
0
40
0
40
0
40
0.5
40
0.5
40
1
40
1
40
1
40
1
41
1
10
3.55880353141967
20
-3.52683174202227
30
2E-16
41
1
10
3.53899617815068
20
-3.53059830847028
30
2E-16
41
1
10
3.52479696307569
20
-3.53634519099177
30
2E-16
41
1
10
3.50621965314005
20
-3.5487580067547
30
2E-16
41
1
10
3.50172104885408
20
-3.55556775924219
30
2E-16
41
1
10
3.50172104885408
20
-3.56221154236175
30
2E-16
0
SPLINE
5
C4
100
AcDbEntity
8
1
62
256
6
ByLayer
370
18
48
1
60
0
100
AcDbSpline
70
4
71
3
72
68
73
64
40
0
40
0
40
0
40
0
40
0.0195075082278234
40
0.0195075082278234
40
0.0382172238929806
40
0.0382172238929806
40
0.0569269395581377
40
0.0569269395581377
40
0.0756366552232949
40
0.0756366552232949
40
0.094346370888452
40
0.094346370888452
40
0.0990237998047415
40
0.101362514262886
40
0.101947192877422
40
0.10223953218469
40
0.10223953218469
40
0.102385701838324
40
0.102385701838324
40
0.102531871491958
40
0.102531871491958
40
0.103701228721031
40
0.103701228721031
40
0.10837865763732
40
0.10837865763732
40
0.11305608655361
40
0.11305608655361
40
0.131765802218767
40
0.131765802218767
40
0.169185233549082
40
0.169185233549082
40
0.244024096209713
40
0.244024096209713
40
0.393701821530974
40
0.393701821530974
40
0.468540684191605
40
0.468540684191605
40
0.50596011552192
40
0.50596011552192
40
0.524669831187077
40
0.524669831187077
40
0.534024689019656
40
0.534024689019656
40
0.535194046248728
40
0.535194046248728
40
0.536363403477801
40
0.536363403477801
40
0.536509573131435
40
0.536509573131435
40
0.536655742785069
40
0.536655742785069
40
0.536948082092337
40
0.536948082092337
40
0.537532760706873
40
0.538702117935946
40
0.543379546852237
40
0.693057272173542
40
0.693057272173542
40
0.842734997494847
40
0.842734997494847
40
0.992412722816152
40
0.992412722816152
40
1
40
1
40
1
40
1
41
1
10
7.97334101181295
20
4.28078716755277
30
0
41
1
10
7.94107603201545
20
4.18478333991308
30
0
41
1
10
7.90672265825657
20
4.08778601989525
30
0
41
1
10
7.83678763247084
20
3.89512331990957
30
0
41
1
10
7.80167428919563
20
3.79937018549799
30
0
41
1
10
7.72739580511092
20
3.60617628676024
30
0
41
1
10
7.6878576835951
20
3.50893241198932
30
0
41
1
10
7.60501780864706
20
3.31257647067201
30
0
41
1
10
7.56196669781872
20
3.21333387672379
30
0
41
1
10
7.47124763544031
20
3.01332783027448
30
0
41
1
10
7.42390375352497
20
2.91312353230978
30
0
41
1
10
7.36291314012612
20
2.7875320616121
30
0
41
1
10
7.34447693776556
20
2.74982431849941
30
0
41
1
10
7.32429339306071
20
2.70891633674992
30
0
41
1
10
7.31572075004965
20
2.69160317914918
30
0
41
1
10
7.31337999518229
20
2.68688080435413
30
0
41
1
10
7.31220916363705
20
2.68451952294063
30
0
41
1
10
7.3116260809517
20
2.68368675749281
30
0
41
1
10
7.31214070319788
20
2.68189989871266
30
0
41
1
10
7.31279123844897
20
2.68119549604984
30
0
41
1
10
7.3184399925166
20
2.67518503505787
30
0
41
1
10
7.32471122690387
20
2.67149555470704
30
0
41
1
10
7.35456104616003
20
2.65133624702878
30
0
41
1
10
7.37920622013917
20
2.63650980474256
30
0
41
1
10
7.42831966747866
20
2.60663439542165
30
0
41
1
10
7.45295882433621
20
2.59185559752663
30
0
41
1
10
7.57630173082867
20
2.51826616104546
30
0
41
1
10
7.67540138136775
20
2.46031945486027
30
0
41
1
10
7.97283775520302
20
2.28709607184894
30
0
41
1
10
8.17143913102876
20
2.17266333598016
30
0
41
1
10
8.76712630085129
20
1.83087795961904
30
0
41
1
10
9.1643194266189
20
1.60535836166997
30
0
41
1
10
10.3554297780333
20
0.934630397508954
30
1E-16
41
1
10
11.1485820344986
20
0.495155751456139
30
0
41
1
10
12.3375736154827
20
-0.149273074649415
30
0
41
1
10
12.7338439103919
20
-0.361717724608525
30
0
41
1
10
13.3274705980673
20
-0.67712428823944
30
0
41
1
10
13.5252720914341
20
-0.781688932295367
30
0
41
1
10
13.8214379158328
20
-0.937948949245822
30
1E-16
41
1
10
13.9201054199529
20
-0.989916645757205
30
1E-16
41
1
10
14.0674732267806
20
-1.06806039500941
30
1E-16
41
1
10
14.1166975280497
20
-1.09401374323159
30
1E-16
41
1
10
14.1709575713027
20
-1.12383901145313
30
1E-16
41
1
10
14.1769662015265
20
-1.12716650943702
30
1E-16
41
1
10
14.1888404543115
20
-1.13389407721283
30
1E-16
41
1
10
14.1949842622179
20
-1.13719190285551
30
1E-16
41
1
10
14.2007769504949
20
-1.14134763645151
30
1E-16
41
1
10
14.2014365942417
20
-1.14181750164332
30
1E-16
41
1
10
14.2022150875914
20
-1.14281204331124
30
1E-16
41
1
10
14.201280213478
20
-1.14292856755085
30
1E-16
41
1
10
14.1986226270923
20
-1.14251475346984
30
1E-16
41
1
10
14.1968330363587
20
-1.1421636977168
30
1E-16
41
1
10
14.1914887343262
20
-1.14121289168654
30
1E-16
41
1
10
14.1808003316758
20
-1.13931045918309
30
1E-16
41
1
10
14.1416117427696
20
-1.13232584924594
30
1E-16
41
1
10
13.1941409896056
20
-0.962698640619806
30
1E-16
41
1
10
12.2584546158176
20
-0.775264906343835
30
0
41
1
10
10.4545382477198
20
-0.376340030313685
30
0
41
1
10
9.55774242469161
20
-0.159119244148655
30
0
41
1
10
7.77393705776524
20
0.310779569787712
30
0
41
1
10
6.88734897902705
20
0.563323847925943
30
0
41
1
10
5.96227401884434
20
0.846527329016169
30
-1E-16
41
1
10
5.91765855139275
20
0.860234425090283
30
-1E-16
41
1
10
5.87305798326841
20
0.873985369999815
30
-1E-16
0
SPLINE
5
C5
100
AcDbEntity
8
1
62
256
6
ByLayer
370
18
48
1
60
0
100
AcDbSpline
70
4
71
3
72
8
73
4
40
0
40
0
40
0
40
0
40
1
40
1
40
1
40
1
41
1
10
62.2705158715052
20
-0.457380909524829
30
0
41
1
10
62.1315598948991
20
-0.0864537887927952
30
0
41
1
10
61.9581387812457
20
0.307135552643672
30
0
41
1
10
61.7508733214269
20
0.722978919687108
30
0
0
SPLINE
5
C6
100
AcDbEntity
8
1
62
256
6
ByLayer
370
18
48
1
60
0
100
AcDbSpline
70
4
71
3
72
42
73
38
40
0
40
0
40
0
40
0
40
0.1095770355671
40
0.1095770355671
40
0.16436555335065
40
0.16436555335065
40
0.219154071134201
40
0.219154071134201
40
0.273942588917751
40
0.273942588917751
40
0.328731106701302
40
0.328731106701302
40
0.383519624484852
40
0.383519624484852
40
0.438308142268402
40
0.438308142268402
40
0.493096660051953
40
0.493096660051953
40
0.547885177835503
40
0.547885177835503
40
0.602673695619053
40
0.602673695619053
40
0.657462213402604
40
0.657462213402604
40
0.712250731186154
40
0.712250731186154
40
0.767039248969704
40
0.767039248969704
40
0.821827766753255
40
0.821827766753255
40
0.876616284536805
40
0.876616284536805
40
0.931404802320356
40
0.931404802320356
40
0.986193320103906
40
0.986193320103906
40
1
40
1
40
1
40
1
41
1
10
3.64683593805646
20
1.33411689987472
30
-1E-16
41
1
10
4.24399094729219
20
1.04715829427926
30
-1E-16
41
1
10
4.84153028145397
20
0.754465380161832
30
0
41
1
10
5.7400995370206
20
0.310525040065471
30
0
41
1
10
6.03989647491153
20
0.161787301279247
30
0
41
1
10
6.6379114655
20
-0.135631891187472
30
0
41
1
10
6.93627069854205
20
-0.284814310111671
30
0
41
1
10
7.53300719114279
20
-0.58145842860668
30
0
41
1
10
7.83159483162601
20
-0.728503025457428
30
0
41
1
10
8.42911042807202
20
-1.02023860742452
30
1E-16
41
1
10
8.72821001162183
20
-1.16504541175803
30
1E-16
41
1
10
9.32705762618619
20
-1.44968283195766
30
1E-16
41
1
10
9.62608942181953
20
-1.58912162838772
30
1E-16
41
1
10
10.2234279398158
20
-1.86218642096799
30
1E-16
41
1
10
10.5217002773357
20
-1.99585754101506
30
1E-16
41
1
10
11.1186510516468
20
-2.25530296271239
30
1E-16
41
1
10
11.4173680634078
20
-2.38102701883847
30
1E-16
41
1
10
12.0154033620804
20
-2.62425243851499
30
2E-16
41
1
10
12.3149866894991
20
-2.74190445388084
30
2E-16
41
1
10
12.9129771118858
20
-2.96612319327878
30
2E-16
41
1
10
13.2116959350231
20
-3.07277124085056
30
2E-16
41
1
10
13.8087112447436
20
-3.27503152416355
30
2E-16
41
1
10
14.106966827582
20
-3.37067311594382
30
2E-16
41
1
10
14.7041138649669
20
-3.54947274267593
30
2E-16
41
1
10
15.0030440766276
20
-3.63261004642058
30
-2E-16
41
1
10
15.6017687035023
20
-3.7861196293596
30
-2E-16
41
1
10
15.9005846155419
20
-3.85624045671912
30
0
41
1
10
16.4959696113561
20
-3.98186712145849
30
0
41
1
10
16.7929136855319
20
-4.03746404209699
30
0
41
1
10
17.3855073374034
20
-4.13429455095013
30
0
41
1
10
17.6811189097903
20
-4.17551988789185
30
0
41
1
10
18.2721136165582
20
-4.2430542617671
30
0
41
1
10
18.5675490781869
20
-4.2693838963109
30
0
41
1
10
19.1581389822394
20
-4.30724364091461
30
0
41
1
10
19.4532699238135
20
-4.31872071273349
30
0
41
1
10
19.8235396427268
20
-4.32357883187638
30
0
41
1
10
19.8980976396705
20
-4.32407812028293
30
0
41
1
10
19.9726866279684
20
-4.32409733620707
30
0
0
SPLINE
5
C7
100
AcDbEntity
8
1
62
256
6
ByLayer
370
18
48
1
60
0
100
AcDbSpline
70
4
71
3
72
34
73
30
40
0
40
0
40
0
40
0
40
0.0180105459057973
40
0.0180105459057973
40
0.0725655155776969
40
0.0725655155776969
40
0.127120485249596
40
0.127120485249596
40
0.181675454921495
40
0.181675454921495
40
0.236230424593395
40
0.236230424593395
40
0.345340363937196
40
0.345340363937196
40
0.454450303280997
40
0.454450303280997
40
0.563560242624798
40
0.563560242624798
40
0.618115212296698
40
0.618115212296698
40
0.672670181968599
40
0.672670181968599
40
0.7817801213124
40
0.7817801213124
40
0.8363350909843
40
0.8363350909843
40
0.890890060656201
40
0.890890060656201
40
1
40
1
40
1
40
1
41
1
10
44.4812023256476
20
4.1317987523006
30
0
41
1
10
44.5798214978806
20
4.14694970693483
30
0
41
1
10
44.6785296469156
20
4.16130601328484
30
0
41
1
10
45.0764821132458
20
4.21590146527339
30
0
41
1
10
45.3750111814473
20
4.24947905173187
30
0
41
1
10
45.9712678463596
20
4.30142164357963
30
0
41
1
10
46.2694484017335
20
4.31964292915993
30
0
41
1
10
46.8660544351454
20
4.34076880703014
30
0
41
1
10
47.1642930470896
20
4.34367051530936
30
0
41
1
10
47.7616226980266
20
4.33395714551352
30
0
41
1
10
48.0613243906091
20
4.3213281515429
30
0
41
1
10
48.956054727036
20
4.26060251720901
30
0
41
1
10
49.5474928719983
20
4.18917356066959
30
0
41
1
10
50.7297979536179
20
3.99086484121184
30
0
41
1
10
51.319933621766
20
3.8639256759235
30
2E-16
41
1
10
52.5005277323236
20
3.55634074005792
30
-2E-16
41
1
10
53.0910815363575
20
3.37545082496848
30
-2E-16
41
1
10
53.9832467700596
20
3.0701334221292
30
-2E-16
41
1
10
54.281795771415
20
2.96235686712925
30
-2E-16
41
1
10
54.8799386239783
20
2.73617782327182
30
-2E-16
41
1
10
55.1784536756236
20
2.61827044908708
30
-2E-16
41
1
10
56.0730156807791
20
2.25127867805142
30
-1E-16
41
1
10
56.6679677207484
20
1.98868006294589
30
-1E-16
41
1
10
57.562928304379
20
1.5759535819945
30
-1E-16
41
1
10
57.8619281715858
20
1.43488764561354
30
-1E-16
41
1
10
58.4595965614181
20
1.14836876403859
30
-1E-16
41
1
10
58.7579348684462
20
1.00322896235747
30
-1E-16
41
1
10
59.6522105559227
20
0.563668087726199
30
0
41
1
10
60.2471118591486
20
0.264514642453918
30
0
41
1
10
60.8433545569674
20
-0.0355537363103338
30
0
0
SPLINE
5
C8
100
AcDbEntity
8
1
62
256
6
ByLayer
370
18
48
1
60
0
100
AcDbSpline
70
4
71
3
72
8
73
4
40
0
40
0
40
0
40
0
40
1
40
1
40
1
40
1
41
1
10
3.64508803689773
20
1.27103633095084
30
-1E-16
41
1
10
3.63173038087976
20
1.27712780446058
30
-1E-16
41
1
10
3.6172616666791
20
1.28028905709519
30
-1E-16
41
1
10
3.60243801020312
20
1.28036052700975
30
-1E-16
0
SPLINE
5
C9
100
AcDbEntity
8
1
62
256
6
ByLayer
370
18
48
1
60
0
100
AcDbSpline
70
4
71
3
72
12
73
8
40
0
40
0
40
0
40
0
40
0.658761615675713
40
0.658761615675713
40
0.988142423513566
40
0.988142423513566
40
1
40
1
40
1
40
1
41
1
10
3.64508803689776
20
1.27103633095081
30
-1E-16
41
1
10
4.24562243273303
20
0.99748104920036
30
-1E-16
41
1
10
4.84316138617936
20
0.718263751947944
30
0
41
1
10
5.73783521412113
20
0.296967756078033
30
0
41
1
10
6.03578151816899
20
0.156111777006743
30
0
41
1
10
6.34426961322123
20
0.0099556245303916
30
0
41
1
10
6.35498873299343
20
0.0048761713152032
30
0
41
1
10
6.36570745017821
20
-0.0002039491930361
30
0
0
SPLINE
5
CA
100
AcDbEntity
8
1
62
256
6
ByLayer
370
18
48
1
60
0
100
AcDbSpline
70
4
71
3
72
30
73
26
40
0
40
0
40
0
40
0
40
0.0581417041319999
40
0.0581417041319999
40
0.121823806537941
40
0.121823806537941
40
0.185505908943883
40
0.185505908943883
40
0.249188011349824
40
0.249188011349824
40
0.376552216161707
40
0.376552216161707
40
0.440234318567647
40
0.440234318567647
40
0.503916420973587
40
0.503916420973587
40
0.631280625785468
40
0.631280625785468
40
0.758644830597348
40
0.758644830597348
40
0.886009035409229
40
0.886009035409229
40
0.949691137815169
40
0.949691137815169
40
1
40
1
40
1
40
1
41
1
10
46.7069185109028
20
4.12690088890315
30
0
41
1
10
46.9808436241053
20
4.13375468531626
30
0
41
1
10
47.253924450226
20
4.13474663929694
30
0
41
1
10
47.8249988612766
20
4.12384905808239
30
0
41
1
10
48.1229516553674
20
4.1103850246235
30
0
41
1
10
48.7178780550551
20
4.06965735779545
30
0
41
1
10
49.0147565516149
20
4.04273287513234
30
0
41
1
10
49.6081678009194
20
3.97497153252465
30
0
41
1
10
49.9049644480167
20
3.9334534997366
30
0
41
1
10
50.796422041235
20
3.78721903264119
30
0
41
1
10
51.3920231644987
20
3.66151997855025
30
0
41
1
10
52.2886881973623
20
3.4357837108472
30
-2E-16
41
1
10
52.5880237884166
20
3.35445517046298
30
-2E-16
41
1
10
53.1890349832719
20
3.17910073020494
30
-2E-16
41
1
10
53.4897406352337
20
3.08518789336301
30
-2E-16
41
1
10
54.387632837617
20
2.78851518180204
30
-2E-16
41
1
10
54.9828796193372
20
2.57050653808284
30
-2E-16
41
1
10
56.170938230757
20
2.10236745225202
30
-1E-16
41
1
10
56.7636022970618
20
1.85227389547168
30
-1E-16
41
1
10
57.9515801641474
20
1.32829537047158
30
-1E-16
41
1
10
58.5466245261226
20
1.05444307460854
30
-1E-16
41
1
10
59.4448760646704
20
0.633082150930534
30
0
41
1
10
59.745494941855
20
0.490602277466934
30
0
41
1
10
60.2838426053574
20
0.234047056068988
30
0
41
1
10
60.5212680230082
20
0.120430081670946
30
0
41
1
10
60.7586648876761
20
0.0067186801802563
30
0
0
SPLINE
5
CB
100
AcDbEntity
8
1
62
256
6
ByLayer
370
18
48
1
60
0
100
AcDbSpline
70
4
71
3
72
8
73
4
40
0
40
0
40
0
40
0
40
1
40
1
40
1
40
1
41
1
10
3.60187733498
20
-3.52786145033653
30
2E-16
41
1
10
3.58699291896787
20
-3.52462186569565
30
2E-16
41
1
10
3.57244521544166
20
-3.52423763928468
30
2E-16
41
1
10
3.55880353141995
20
-3.52683174202176
30
2E-16
0
SPLINE
5
CC
100
AcDbEntity
8
1
62
256
6
ByLayer
370
18
48
1
60
0
100
AcDbSpline
70
4
71
3
72
12
73
8
40
0
40
0
40
0
40
0
40
0.249999999999997
40
0.249999999999997
40
0.499999999999995
40
0.499999999999995
40
1
40
1
40
1
40
1
41
1
10
3.60243801020312
20
1.28036052700975
30
-1E-16
41
1
10
3.58679822681089
20
1.28043593175113
30
-1E-16
41
1
10
3.57161419829006
20
1.27797429232575
30
-1E-16
41
1
10
3.54555538243036
20
1.26958828850403
30
-1E-16
41
1
10
3.53479400147754
20
1.26380779094882
30
-1E-16
41
1
10
3.5094539607388
20
1.24420312464716
30
-1E-16
41
1
10
3.50172104885408
20
1.22848833586366
30
-1E-16
41
1
10
3.50172104885411
20
1.21281427950905
30
-1E-16
0
SPLINE
5
CD
100
AcDbEntity
8
1
62
256
6
ByLayer
370
18
48
1
60
0
100
AcDbSpline
70
4
71
3
72
64
73
60
40
0
40
0
40
0
40
0
40
0.0224567341697701
40
0.0224567341697701
40
0.052359246781449
40
0.052359246781449
40
0.0822617593931278
40
0.0822617593931278
40
0.112164272004807
40
0.112164272004807
40
0.142066784616486
40
0.142066784616486
40
0.171969297228165
40
0.171969297228165
40
0.201871809839844
40
0.201871809839844
40
0.231774322451522
40
0.231774322451522
40
0.261676835063201
40
0.261676835063201
40
0.29157934767488
40
0.29157934767488
40
0.321481860286559
40
0.321481860286559
40
0.351384372898238
40
0.351384372898238
40
0.381286885509917
40
0.381286885509917
40
0.411189398121596
40
0.411189398121596
40
0.441091910733275
40
0.441091910733275
40
0.470994423344954
40
0.470994423344954
40
0.500896935956633
40
0.500896935956633
40
0.560701961179991
40
0.560701961179991
40
0.62050698640335
40
0.62050698640335
40
0.680312011626709
40
0.680312011626709
40
0.710214524238389
40
0.710214524238389
40
0.740117036850069
40
0.740117036850069
40
0.79992206207343
40
0.79992206207343
40
0.859727087296791
40
0.859727087296791
40
0.889629599908473
40
0.889629599908473
40
0.919532112520154
40
0.919532112520154
40
0.949434625131835
40
0.949434625131835
40
0.979337137743516
40
0.979337137743516
40
1
40
1
40
1
40
1
41
1
10
17.3104271649742
20
4.12070424173575
30
0
41
1
10
17.532715862636
20
4.15436249502093
30
0
41
1
10
17.7546982725696
20
4.18392797706511
30
0
41
1
10
18.2721136165582
20
4.24305426176707
30
0
41
1
10
18.5675490781869
20
4.26938389631087
30
0
41
1
10
19.1581389822394
20
4.30724364091461
30
0
41
1
10
19.4532699238135
20
4.31872071273352
30
0
41
1
10
20.0447553270376
20
4.32648128945192
30
0
41
1
10
20.3409858681829
20
4.32282592304878
30
0
41
1
10
20.9344240932635
20
4.30025265240357
30
0
41
1
10
21.2316106359293
20
4.28127524646371
30
0
41
1
10
21.8284497972825
20
4.22813278641647
30
0
41
1
10
22.1283727036924
20
4.19388411557338
30
0
41
1
10
22.7261182989609
20
4.11049820210943
30
0
41
1
10
23.0243551126658
20
4.06127515644062
30
0
41
1
10
23.6212567072981
20
3.94903092121356
30
0
41
1
10
23.9197045462674
20
3.88589781088479
30
0
41
1
10
24.5166073854212
20
3.7455382972793
30
2E-16
41
1
10
24.8150336922681
20
3.66822688750298
30
2E-16
41
1
10
25.4136549395138
20
3.50120169438077
30
-2E-16
41
1
10
25.7130007057222
20
3.4113853751353
30
-2E-16
41
1
10
26.3102081324294
20
3.21976720152119
30
-2E-16
41
1
10
26.6082906996018
20
3.11781591283881
30
-2E-16
41
1
10
27.2050784251338
20
2.90397671079759
30
-2E-16
41
1
10
27.5035486402304
20
2.79178493747381
30
-2E-16
41
1
10
28.1008301759288
20
2.5570577555643
30
-2E-16
41
1
10
28.4000955627162
20
2.43449230482568
30
-1E-16
41
1
10
28.9983469650912
20
2.18181844341782
30
-1E-16
41
1
10
29.2970610740697
20
2.05170183601885
30
-1E-16
41
1
10
29.8937583349801
20
1.78408511185339
30
-1E-16
41
1
10
30.1918827449482
20
1.6468270052236
30
-1E-16
41
1
10
30.7887384897948
20
1.36738928716662
30
-1E-16
41
1
10
31.0873526867706
20
1.22500051510622
30
-1E-16
41
1
10
31.6851362991486
20
0.93516308685858
30
-1E-16
41
1
10
31.9845153898222
20
0.788035298443702
30
0
41
1
10
32.8808800252484
20
0.345233736854596
30
0
41
1
10
33.476548237997
20
0.0452457700311015
30
0
41
1
10
34.6708415339777
20
-0.55069642017736
30
0
41
1
10
35.2697019405422
20
-0.848695478040014
30
1E-16
41
1
10
36.4637202836441
20
-1.42492592255482
30
1E-16
41
1
10
37.0593720140453
20
-1.70528147608243
30
1E-16
41
1
10
37.9558027427745
20
-2.10476166448495
30
1E-16
41
1
10
38.2554899464953
20
-2.23483925350732
30
1E-16
41
1
10
38.8518842122339
20
-2.4860021378538
30
2E-16
41
1
10
39.1492235349321
20
-2.60670596580124
30
2E-16
41
1
10
40.0393183615695
20
-2.95352701367676
30
2E-16
41
1
10
40.6295442881962
20
-3.1652082916832
30
2E-16
41
1
10
41.8102724683292
20
-3.54050767169696
30
2E-16
41
1
10
42.3998488228041
20
-3.70530513747374
30
-2E-16
41
1
10
43.2882798501589
20
-3.9119722971241
30
0
41
1
10
43.58491209136
20
-3.97433013506515
30
0
41
1
10
44.179509790366
20
-4.08537232623979
30
0
41
1
10
44.4781184260683
20
-4.1338114200571
30
0
41
1
10
45.0764821132457
20
-4.21590146527339
30
0
41
1
10
45.3750111814473
20
-4.24947905173187
30
0
41
1
10
45.9712678463596
20
-4.30142164357963
30
0
41
1
10
46.2694484017336
20
-4.31964292915993
30
0
41
1
10
46.7738810579428
20
-4.33750493874754
30
0
41
1
10
46.9799799447232
20
-4.34114583728837
30
0
41
1
10
47.1862099583821
20
-4.34109650492425
30
0
0
SPLINE
5
CE
100
AcDbEntity
8
1
62
256
6
ByLayer
370
18
48
1
60
0
100
AcDbSpline
70
2053
71
3
72
56
73
52
40
0
40
0
40
0
40
0
40
0.0625000000000045
40
0.0625000000000045
40
0.125000000000009
40
0.125000000000009
40
0.187500000000014
40
0.187500000000014
40
0.250000000000018
40
0.250000000000018
40
0.281250000000021
40
0.281250000000021
40
0.312500000000024
40
0.312500000000024
40
0.343750000000027
40
0.343750000000027
40
0.37500000000003
40
0.37500000000003
40
0.406250000000032
40
0.406250000000032
40
0.437500000000035
40
0.437500000000035
40
0.500000000000038
40
0.500000000000038
40
0.531250000000038
40
0.531250000000038
40
0.562500000000037
40
0.562500000000037
40
0.625000000000032
40
0.625000000000032
40
0.656250000000029
40
0.656250000000029
40
0.687500000000027
40
0.687500000000027
40
0.718750000000024
40
0.718750000000024
40
0.750000000000021
40
0.750000000000021
40
0.781250000000019
40
0.781250000000019
40
0.812500000000016
40
0.812500000000016
40
0.843750000000013
40
0.843750000000013
40
0.875000000000011
40
0.875000000000011
40
0.937500000000005
40
0.937500000000005
40
0.968750000000003
40
0.968750000000003
40
1
40
1
40
1
40
1
41
1
10
61.8051641915494
20
-1.92232461232825
30
-1E-16
41
1
10
61.7731782050992
20
-1.96383809787486
30
-1E-16
41
1
10
61.743319605067
20
-1.99093296799916
30
-1E-16
41
1
10
61.6864839566697
20
-2.01709986179844
30
-1E-16
41
1
10
61.6609497632629
20
-2.0154341454359
30
-1E-16
41
1
10
61.6141330606626
20
-1.98204694753909
30
1E-16
41
1
10
61.593999036311
20
-1.95119621381059
30
1E-16
41
1
10
61.5593765304794
20
-1.85975109718677
30
1E-16
41
1
10
61.5457907138688
20
-1.80155264515346
30
1E-16
41
1
10
61.5318440439653
20
-1.69520061215954
30
1E-16
41
1
10
61.5284453578908
20
-1.6576179109646
30
1E-16
41
1
10
61.5243709861333
20
-1.57809170951938
30
1E-16
41
1
10
61.5237122275687
20
-1.53551969122464
30
1E-16
41
1
10
61.5257619718334
20
-1.44869599945702
30
1E-16
41
1
10
61.528413691362
20
-1.40474059693619
30
1E-16
41
1
10
61.5374716800163
20
-1.31572405689008
30
1E-16
41
1
10
61.5439601987065
20
-1.27063962251583
30
1E-16
41
1
10
61.5604504127567
20
-1.18471392877987
30
1E-16
41
1
10
61.5706587831889
20
-1.14269562133961
30
1E-16
41
1
10
61.5943681064419
20
-1.06412815512755
30
1E-16
41
1
10
61.6077033879422
20
-1.02790305383206
30
1E-16
41
1
10
61.6520535456779
20
-0.927798885606705
30
1E-16
41
1
10
61.6865101493547
20
-0.875085075882652
30
1E-16
41
1
10
61.7402713924026
20
-0.81837205004328
30
1E-16
41
1
10
61.7584594779505
20
-0.803173062264676
30
0
41
1
10
61.7951948830308
20
-0.779561110234539
30
0
41
1
10
61.8136533169623
20
-0.771264451841944
30
0
41
1
10
61.8676674810242
20
-0.756666649549999
30
0
41
1
10
61.9029194669242
20
-0.760391916036383
30
0
41
1
10
61.950044946867
20
-0.785294655145435
30
0
41
1
10
61.9648572601807
20
-0.79677684487072
30
0
41
1
10
61.9923904018561
20
-0.826530886422717
30
1E-16
41
1
10
62.0051374339055
20
-0.844956138440097
30
1E-16
41
1
10
62.0272171728865
20
-0.88795737031819
30
1E-16
41
1
10
62.0366871859463
20
-0.91262544585328
30
1E-16
41
1
10
62.0519913284306
20
-0.969163232158365
30
1E-16
41
1
10
62.0577101364811
20
-1.000863580718
30
1E-16
41
1
10
62.0645359237411
20
-1.06952298492521
30
1E-16
41
1
10
62.0656986741039
20
-1.10731694181476
30
1E-16
41
1
10
62.0630809695082
20
-1.18672824447245
30
1E-16
41
1
10
62.0593868295094
20
-1.22802867814423
30
1E-16
41
1
10
62.0472827616791
20
-1.31401387956805
30
1E-16
41
1
10
62.0388506570047
20
-1.35837861699787
30
1E-16
41
1
10
62.0185046584942
20
-1.44546991468059
30
1E-16
41
1
10
62.0063235593064
20
-1.48935096763441
30
1E-16
41
1
10
61.9663990816994
20
-1.61519924451255
30
1E-16
41
1
10
61.9348558689307
20
-1.69318013185551
30
1E-16
41
1
10
61.8864678542015
20
-1.79254299387017
30
1E-16
41
1
10
61.8699101935975
20
-1.82321787831504
30
-1E-16
41
1
10
61.8373391514311
20
-1.87755717148812
30
-1E-16
41
1
10
61.8211571847745
20
-1.90156786955495
30
-1E-16
41
1
10
61.8051641915494
20
-1.92232461232825
30
-1E-16
0
SPLINE
5
CF
100
AcDbEntity
8
1
62
256
6
ByLayer
370
18
48
1
60
0
100
AcDbSpline
70
4
71
3
72
8
73
4
40
0
40
0
40
0
40
0
40
1
40
1
40
1
40
1
41
1
10
35.9785478435678
20
-4.11743977434469
30
0
41
1
10
35.6076879999993
20
-4.12904421744847
30
0
41
1
10
35.2368605121008
20
-4.12933447768745
30
0
41
1
10
34.8654891284313
20
-4.1182782254823
30
0
0
SPLINE
5
D0
100
AcDbEntity
8
1
62
256
6
ByLayer
370
18
48
1
60
0
100
AcDbSpline
70
4
71
3
72
20
73
16
40
0
40
0
40
0
40
0
40
0.171313002072432
40
0.171313002072432
40
0.310763846472649
40
0.310763846472649
40
0.380489268672758
40
0.380489268672758
40
0.450214690872867
40
0.450214690872867
40
0.729116379673302
40
0.729116379673302
40
0.868567224073518
40
0.868567224073518
40
1
40
1
40
1
40
1
41
1
10
34.7673819097398
20
-4.11509391824768
30
0
41
1
10
34.0301669793622
20
-4.08918612586083
30
0
41
1
10
33.2906100545786
20
-4.01857825562595
30
0
41
1
10
31.9366258220882
20
-3.80894984968646
30
0
41
1
10
31.3299355629933
20
-3.68639873436214
30
0
41
1
10
30.4189732811817
20
-3.46288840807264
30
2E-16
41
1
10
30.1147348046171
20
-3.38171434452326
30
2E-16
41
1
10
29.5089908724038
20
-3.20807463860376
30
2E-16
41
1
10
29.2070811521218
20
-3.11546416427672
30
2E-16
41
1
10
27.7007853830116
20
-2.62606727356143
30
2E-16
41
1
10
26.5066116578076
20
-2.15048534268394
30
1E-16
41
1
10
24.7026585147959
20
-1.36135216038622
30
1E-16
41
1
10
24.0995394021163
20
-1.08555657689524
30
1E-16
41
1
10
22.9188439453257
20
-0.534766724141292
30
0
41
1
10
22.3491627286873
20
-0.263442006585251
30
0
41
1
10
21.7817897689976
20
0.0062815730769046
30
0
0
SPLINE
5
D1
100
AcDbEntity
8
1
62
256
6
ByLayer
370
18
48
1
60
0
100
AcDbSpline
70
4
71
3
72
30
73
26
40
0
40
0
40
0
40
0
40
0.0625000000000001
40
0.0625000000000001
40
0.125
40
0.125
40
0.25
40
0.25
40
0.3125
40
0.3125
40
0.375
40
0.375
40
0.4375
40
0.4375
40
0.500000000000001
40
0.500000000000001
40
0.625000000000001
40
0.625000000000001
40
0.687500000000001
40
0.687500000000001
40
0.750000000000001
40
0.750000000000001
40
0.875
40
0.875
40
1
40
1
40
1
40
1
41
1
10
3.60243801020314
20
1.26775791456589
30
-1E-16
41
1
10
3.60243097561326
20
1.15716555412357
30
-1E-16
41
1
10
3.60242322625868
20
1.04532494492753
30
-1E-16
41
1
10
3.60240649610492
20
0.819158224227266
30
-1E-16
41
1
10
3.60239749638714
20
0.704638115489928
30
0
41
1
10
3.60236926169614
20
0.361748637394243
30
0
41
1
10
3.60234872001243
20
0.132685873047791
30
0
41
1
10
3.60231612683381
20
-0.211600079333948
30
0
41
1
10
3.60230495980616
20
-0.326477975059277
30
0
41
1
10
3.602282086961
20
-0.556470941867303
30
0
41
1
10
3.60227035663681
20
-0.671805432187199
30
0
41
1
10
3.60224674727513
20
-0.899252214689113
30
1E-16
41
1
10
3.60223482838549
20
-1.01177543561982
30
1E-16
41
1
10
3.60221077126513
20
-1.23442841753763
30
1E-16
41
1
10
3.60219859782805
20
-1.34486986427527
30
1E-16
41
1
10
3.60216194487364
20
-1.6703586698417
30
1E-16
41
1
10
3.60213758793324
20
-1.87754829859639
30
1E-16
41
1
10
3.60210069015665
20
-2.17414447330896
30
1E-16
41
1
10
3.60208832669829
20
-2.2706321282657
30
1E-16
41
1
10
3.60206334143578
20
-2.4587841757353
30
2E-16
41
1
10
3.60205067352212
20
-2.55076812008829
30
2E-16
41
1
10
3.60201235179664
20
-2.81698693370458
30
2E-16
41
1
10
3.60198669790555
20
-2.97951483275566
30
2E-16
41
1
10
3.60193371423185
20
-3.27571542470622
30
2E-16
41
1
10
3.60190632790943
20
-3.4096498158259
30
2E-16
41
1
10
3.60187733498
20
-3.52786145033653
30
2E-16
0
SPLINE
5
D2
100
AcDbEntity
8
1
62
256
6
ByLayer
370
18
48
1
60
0
100
AcDbSpline
70
4
71
3
72
38
73
34
40
0
40
0
40
0
40
0
40
0.0092654183937031
40
0.0092654183937031
40
0.0727212028803632
40
0.0727212028803632
40
0.136176987367023
40
0.136176987367023
40
0.199632771853683
40
0.199632771853683
40
0.263088556340343
40
0.263088556340343
40
0.326544340827003
40
0.326544340827003
40
0.390000125313663
40
0.390000125313663
40
0.453455909800323
40
0.453455909800323
40
0.516911694286983
40
0.516911694286983
40
0.580367478773643
40
0.580367478773643
40
0.643823263260303
40
0.643823263260303
40
0.770734832233623
40
0.770734832233623
40
0.834190616720282
40
0.834190616720282
40
0.897646401206941
40
0.897646401206941
40
0.9611021856936
40
0.9611021856936
40
1
40
1
40
1
40
1
41
1
10
48.5531556051182
20
-0.387629587325108
30
0
41
1
10
48.4892330986481
20
-0.356926635501878
30
0
41
1
10
48.4253059093386
20
-0.32618331517088
30
0
41
1
10
47.9235139979863
20
-0.0846116129316385
30
0
41
1
10
47.4855152659711
20
0.127122744339033
30
0
41
1
10
46.6100045459259
20
0.547782493059316
30
0
41
1
10
46.1717749960084
20
0.757162302707769
30
0
41
1
10
45.2989324586161
20
1.16687732640582
30
-1E-16
41
1
10
44.8637596039027
20
1.36730113025831
30
-1E-16
41
1
10
43.9940066843155
20
1.75601683084966
30
-1E-16
41
1
10
43.5596018479108
20
1.94467544191534
30
-1E-16
41
1
10
42.6894610129734
20
2.30576232695728
30
-1E-16
41
1
10
42.2538092976819
20
2.47845655357983
30
-2E-16
41
1
10
41.3794126534795
20
2.80469896657291
30
-2E-16
41
1
10
40.9410779654969
20
2.95863083008314
30
-2E-16
41
1
10
40.065206363114
20
3.24165511449914
30
-2E-16
41
1
10
39.6275774379145
20
3.37096392053789
30
-2E-16
41
1
10
38.7518829980353
20
3.60354596357689
30
-2E-16
41
1
10
38.3139215758472
20
3.70662882361793
30
0
41
1
10
37.4382706922467
20
3.88243510472924
30
0
41
1
10
37.0008926381288
20
3.95545286234119
30
0
41
1
10
36.1256654495726
20
4.07165286373836
30
0
41
1
10
35.6875256181732
20
4.11425549395602
30
0
41
1
10
34.3742575894257
20
4.19446225466331
30
0
41
1
10
33.4980458813381
20
4.18467713850575
30
0
41
1
10
32.1850848090773
20
4.07343384487456
30
0
41
1
10
31.747361212881
20
4.02078429400171
30
0
41
1
10
30.8715606185966
20
3.88461002584845
30
0
41
1
10
30.4338678390274
20
3.80119042132924
30
0
41
1
10
29.5583114674928
20
3.60610734699048
30
-2E-16
41
1
10
29.120703946893
20
3.49455693455721
30
-2E-16
41
1
10
28.415682860111
20
3.2940805033445
30
-2E-16
41
1
10
28.14781079901
20
3.21308998750783
30
-2E-16
41
1
10
27.8797993849768
20
3.12757407799512
30
-2E-16
0
SPLINE
5
D3
100
AcDbEntity
8
1
62
256
6
ByLayer
370
18
48
1
60
0
100
AcDbSpline
70
4
71
3
72
22
73
18
40
0
40
0
40
0
40
0
40
0.072547907783674
40
0.072547907783674
40
0.145095815567347
40
0.145095815567347
40
0.290191631134695
40
0.290191631134695
40
0.58038326226939
40
0.58038326226939
40
0.652931170053063
40
0.652931170053063
40
0.725479077836737
40
0.725479077836737
40
0.870574893404087
40
0.870574893404087
40
1
40
1
40
1
40
1
41
1
10
61.4469586198619
20
-4.10617651414591
30
0
41
1
10
61.1435540748674
20
-4.08640053816822
30
0
41
1
10
60.8402755643003
20
-4.06005845141428
30
0
41
1
10
60.233510452487
20
-3.99140382194486
30
0
41
1
10
59.9295446807238
20
-3.94953072018973
30
0
41
1
10
59.0202915365715
20
-3.80270015688879
30
0
41
1
10
58.4182681503522
20
-3.67680153684566
30
0
41
1
10
56.6174547942353
20
-3.22449349962147
30
2E-16
41
1
10
55.4238079554307
20
-2.82267571788216
30
2E-16
41
1
10
53.9170720304063
20
-2.22910635143054
30
1E-16
41
1
10
53.6149590638192
20
-2.10585216376416
30
1E-16
41
1
10
53.008643608601
20
-1.85117073753236
30
1E-16
41
1
10
52.7048196106079
20
-1.71986861983402
30
1E-16
41
1
10
51.7981899127186
20
-1.31939384623192
30
1E-16
41
1
10
51.1973358037571
20
-1.04250848431144
30
1E-16
41
1
10
50.0626486182548
20
-0.509782601344853
30
0
41
1
10
49.5286788017266
20
-0.254695669940816
30
0
41
1
10
48.9939968812171
20
0.0006707923342049
30
0
0
SPLINE
5
D4
100
AcDbEntity
8
1
62
256
6
ByLayer
370
18
48
1
60
0
100
AcDbSpline
70
4
71
3
72
10
73
6
40
0
40
0
40
0
40
0
40
0.251636776763285
40
0.251636776763285
40
1
40
1
40
1
40
1
41
1
10
8.43267517368886
20
-4.1079701763156
30
0
41
1
10
8.02659964114909
20
-4.11297783281998
30
0
41
1
10
7.62160481416183
20
-4.10440558811422
30
0
41
1
10
6.01364876367853
20
-4.01750150869745
30
0
41
1
10
4.8137221550347
20
-3.83456837807711
30
0
41
1
10
3.59757770701674
20
-3.54104794169871
30
2E-16
0
SPLINE
5
D5
100
AcDbEntity
8
1
62
256
6
ByLayer
370
18
48
1
60
0
100
AcDbSpline
70
4
71
3
72
16
73
12
40
0
40
0
40
0
40
0
40
0.125000000000004
40
0.125000000000004
40
0.250000000000009
40
0.250000000000009
40
0.500000000000006
40
0.500000000000006
40
0.750000000000003
40
0.750000000000003
40
1
40
1
40
1
40
1
41
1
10
61.7508733214268
20
0.722978919686994
30
0
41
1
10
61.7135475360546
20
0.735709080281083
30
0
41
1
10
61.6756629001214
20
0.745892743490003
30
0
41
1
10
61.5988608732278
20
0.759930485453339
30
0
41
1
10
61.5599234664368
20
0.763567207152164
30
0
41
1
10
61.4422607856162
20
0.767406248473606
30
0
41
1
10
61.3638415002591
20
0.7627428355581
30
0
41
1
10
61.2085049406446
20
0.73744652854964
30
0
41
1
10
61.1316227433389
20
0.716132674928019
30
0
41
1
10
60.9807785738193
20
0.657627710767315
30
0
41
1
10
60.9067247850185
20
0.62141981097011
30
0
41
1
10
60.834776755674
20
0.577241520471546
30
0
0
SPLINE
5
D6
100
AcDbEntity
8
1
62
256
6
ByLayer
370
18
48
1
60
0
100
AcDbSpline
70
4
71
3
72
26
73
22
40
0
40
0
40
0
40
0
40
0.138014198059715
40
0.138014198059715
40
0.276028396119429
40
0.276028396119429
40
0.414042594179144
40
0.414042594179144
40
0.483049693209
40
0.483049693209
40
0.552056792238856
40
0.552056792238856
40
0.621063891268712
40
0.621063891268712
40
0.690070990298568
40
0.690070990298568
40
0.82808518835828
40
0.82808518835828
40
0.966099386417992
40
0.966099386417992
40
1
40
1
40
1
40
1
41
1
10
60.8347767556816
20
0.57724152047615
30
0
41
1
10
60.2610575245176
20
0.862729504687422
30
-1E-16
41
1
10
59.6910716191746
20
1.1441414158709
30
-1E-16
41
1
10
58.5515015441778
20
1.68504915801529
30
-1E-16
41
1
10
57.9824421459393
20
1.9456631143683
30
-1E-16
41
1
10
56.8426036641912
20
2.44110419188115
30
-1E-16
41
1
10
56.270689922712
20
2.67393690352367
30
-2E-16
41
1
10
55.4078493981864
20
2.99720544850007
30
-2E-16
41
1
10
55.1189499512612
20
3.10113951306741
30
-2E-16
41
1
10
54.5434244972907
20
3.29691911184659
30
-2E-16
41
1
10
54.2564214482956
20
3.38889378548589
30
-2E-16
41
1
10
53.6836881772238
20
3.56102870788985
30
-2E-16
41
1
10
53.3979429362914
20
3.64117332598067
30
2E-16
41
1
10
52.8275997123027
20
3.78955638080407
30
2E-16
41
1
10
52.5429804745676
20
3.85773340420357
30
2E-16
41
1
10
51.6887795342256
20
4.04240814559668
30
0
41
1
10
51.119055722952
20
4.13949979015831
30
0
41
1
10
49.9777661833146
20
4.28010610216674
30
0
41
1
10
49.4048777080142
20
4.32281134579426
30
0
41
1
10
48.6862432832029
20
4.34022550524097
30
0
41
1
10
48.5445187369654
20
4.34191329823446
30
0
41
1
10
48.4029616792377
20
4.34185847623735
30
0
0
SPLINE
5
D7
100
AcDbEntity
8
1
62
256
6
ByLayer
370
18
48
1
60
0
100
AcDbSpline
70
4
71
3
72
48
73
44
40
0
40
0
40
0
40
0
40
0.0125652022229079
40
0.0125652022229079
40
0.0885217251288377
40
0.0885217251288377
40
0.164478248034767
40
0.164478248034767
40
0.202456509487732
40
0.202456509487732
40
0.240434770940697
40
0.240434770940697
40
0.278413032393661
40
0.278413032393661
40
0.316391293846626
40
0.316391293846626
40
0.392347816752556
40
0.392347816752556
40
0.468304339658487
40
0.468304339658487
40
0.544260862564417
40
0.544260862564417
40
0.582239124017382
40
0.582239124017382
40
0.620217385470348
40
0.620217385470348
40
0.696173908376278
40
0.696173908376278
40
0.734152169829243
40
0.734152169829243
40
0.772130431282209
40
0.772130431282209
40
0.810108692735174
40
0.810108692735174
40
0.848086954188139
40
0.848086954188139
40
0.886065215641104
40
0.886065215641104
40
0.924043477094069
40
0.924043477094069
40
0.962021738547035
40
0.962021738547035
40
1
40
1
40
1
40
1
41
1
10
28.507991529285
20
-2.88380764617807
30
2E-16
41
1
10
28.4126558529197
20
-2.91938940260238
30
2E-16
41
1
10
28.3173983347643
20
-2.95438776163408
30
2E-16
41
1
10
27.6473149260825
20
-3.19647568233739
30
2E-16
41
1
10
27.0755673660953
20
-3.38299068279937
30
2E-16
41
1
10
25.9354332861333
20
-3.71020914330808
30
-2E-16
41
1
10
25.3658727106634
20
-3.8495541048776
30
0
41
1
10
24.5103809061509
20
-4.02060655619275
30
0
41
1
10
24.2252427731017
20
-4.07142764354808
30
0
41
1
10
23.6536285602397
20
-4.15947232050277
30
0
41
1
10
23.3671050838944
20
-4.1966999393176
30
0
41
1
10
22.7923796180917
20
-4.25737120868743
30
0
41
1
10
22.5038391622969
20
-4.28083802062559
30
0
41
1
10
21.926379968563
20
-4.31350371700518
30
0
41
1
10
21.638892733298
20
-4.32259831832141
30
0
41
1
10
20.7780580067113
20
-4.32831179741459
30
0
41
1
10
20.2065031324398
20
-4.3036889031282
30
0
41
1
10
19.066806686416
20
-4.19868847817548
30
0
41
1
10
18.4973273001623
20
-4.11866207449461
30
0
41
1
10
17.3556338746326
20
-3.90592675165763
30
0
41
1
10
16.7840979284824
20
-3.7724495406068
30
-2E-16
41
1
10
15.9203219630575
20
-3.53581114336924
30
2E-16
41
1
10
15.6307767656763
20
-3.4505210308767
30
2E-16
41
1
10
15.0542259883206
20
-3.26932200085921
30
2E-16
41
1
10
14.7671577555736
20
-3.17308535575447
30
2E-16
41
1
10
13.9077241821661
20
-2.87022107707665
30
2E-16
41
1
10
13.3367056098002
20
-2.65020851708567
30
2E-16
41
1
10
12.4816755957775
20
-2.29577104701019
30
1E-16
41
1
10
12.1970492663221
20
-2.17328989186188
30
1E-16
41
1
10
11.6270701904423
20
-1.92226269242607
30
1E-16
41
1
10
11.3417291759153
20
-1.79372020543769
30
1E-16
41
1
10
10.7702589396317
20
-1.53074721640516
30
1E-16
41
1
10
10.4840778941506
20
-1.39641767665853
30
1E-16
41
1
10
9.91079632994507
20
-1.1219660278428
30
1E-16
41
1
10
9.62352227886115
20
-0.982174313166979
30
1E-16
41
1
10
9.04657642284033
20
-0.699728322908328
30
0
41
1
10
8.75707498803777
20
-0.556997672291459
30
0
41
1
10
8.17995273856283
20
-0.270671143165117
30
0
41
1
10
7.89173102999783
20
-0.126968185246341
30
0
41
1
10
7.31601553209228
20
0.161613273620105
30
0
41
1
10
7.02832497300119
20
0.306093727352362
30
0
41
1
10
6.45161985969392
20
0.592095555271015
30
0
41
1
10
6.1627347429031
20
0.733878271483093
30
0
41
1
10
5.87308108922426
20
0.873970441818443
30
-1E-16
0
SPLINE
5
D8
100
AcDbEntity
8
1
62
256
6
ByLayer
370
18
48
1
60
0
100
AcDbSpline
70
4
71
3
72
8
73
4
40
0
40
0
40
0
40
0
40
1
40
1
40
1
40
1
41
1
10
60.8433545569673
20
-0.0355537363103053
30
0
41
1
10
60.8324963096582
20
0.171364025536235
30
0
41
1
10
60.8289449329681
20
0.37568021905119
30
0
41
1
10
60.8347767556813
20
0.577241520469045
30
0
0
SPLINE
5
D9
100
AcDbEntity
8
1
62
256
6
ByLayer
370
18
48
1
60
0
100
AcDbSpline
70
4
71
3
72
10
73
6
40
0
40
0
40
0
40
0
40
0.5
40
0.5
40
1
40
1
40
1
40
1
41
1
10
61.8845459293023
20
1.2166752260737
30
0
41
1
10
62.0060709700526
20
1.2348896410584
30
0
41
1
10
62.1275348943968
20
1.25535674797052
30
0
41
1
10
62.3702571847761
20
1.30386764325922
30
0
41
1
10
62.4910822460298
20
1.33148175772376
30
0
41
1
10
62.6107982173643
20
1.36275349599052
30
0
0
SPLINE
5
DA
100
AcDbEntity
8
1
62
256
6
ByLayer
370
18
48
1
60
0
100
AcDbSpline
70
4
71
3
72
18
73
14
40
0
40
0
40
0
40
0
40
0.032348672081705
40
0.032348672081705
40
0.274261504061302
40
0.274261504061302
40
0.395217920051085
40
0.395217920051085
40
0.516174336040868
40
0.516174336040868
40
0.758087168020434
40
0.758087168020434
40
1
40
1
40
1
40
1
41
1
10
61.2291255069428
20
0.887872582967788
30
0
41
1
10
61.2329699515306
20
0.891930399862474
30
0
41
1
10
61.23693840557
20
0.896026019846488
30
0
41
1
10
61.2715882749595
20
0.930980888315133
30
1E-16
41
1
10
61.3086870778082
20
0.963228196572402
30
1E-16
41
1
10
61.3752413977362
20
1.01206462787181
30
0
41
1
10
61.3992021792564
20
1.02842439132348
30
0
41
1
10
61.4494035795458
20
1.06005635135278
30
0
41
1
10
61.4758161095706
20
1.07545006416919
30
0
41
1
10
61.5591816743388
20
1.11976896157461
30
0
41
1
10
61.6207966532967
20
1.14688065834463
30
0
41
1
10
61.7484512793436
20
1.18992541280878
30
0
41
1
10
61.8158814509385
20
1.20638365739046
30
0
41
1
10
61.8845459293024
20
1.21667522607382
30
0
0
SPLINE
5
DB
100
AcDbEntity
8
1
62
256
6
ByLayer
370
18
48
1
60
0
100
AcDbSpline
70
4
71
3
72
44
73
40
40
0
40
0
40
0
40
0
40
0.069766635282938
40
0.069766635282938
40
0.139533270565876
40
0.139533270565876
40
0.174416588207345
40
0.174416588207345
40
0.209299905848814
40
0.209299905848814
40
0.279066541131752
40
0.279066541131752
40
0.418599811697627
40
0.418599811697627
40
0.453483129339096
40
0.453483129339096
40
0.488366446980565
40
0.488366446980565
40
0.558133082263503
40
0.558133082263503
40
0.593016399904972
40
0.593016399904972
40
0.627899717546441
40
0.627899717546441
40
0.697666352829379
40
0.697666352829379
40
0.767432988112317
40
0.767432988112317
40
0.802316305753787
40
0.802316305753787
40
0.837199623395256
40
0.837199623395256
40
0.906966258678197
40
0.906966258678197
40
0.941849576319667
40
0.941849576319667
40
0.976732893961136
40
0.976732893961136
40
1
40
1
40
1
40
1
41
1
10
61.2032263438464
20
-4.2937693152806
30
0
41
1
10
60.6010007224331
20
-4.24487543988505
30
0
41
1
10
59.9995139583965
20
-4.16492277071004
30
0
41
1
10
58.7933971421695
20
-3.94550480399369
30
0
41
1
10
58.192623841638
20
-3.80672706221878
30
-2E-16
41
1
10
57.2911361955001
20
-3.55895758137953
30
2E-16
41
1
10
56.9905795869639
20
-3.46976609326487
30
2E-16
41
1
10
56.3886567663094
20
-3.27893505366143
30
2E-16
41
1
10
56.086743451105
20
-3.17709049546616
30
2E-16
41
1
10
55.1847885439466
20
-2.85625605228529
30
2E-16
41
1
10
54.5875846274015
20
-2.62162568886714
30
2E-16
41
1
10
52.8005149555904
20
-1.86930927352418
30
1E-16
41
1
10
51.6153642301871
20
-1.30272760583588
30
1E-16
41
1
10
50.1160594971331
20
-0.561038580612262
30
0
41
1
10
49.8149413105986
20
-0.41084115129425
30
0
41
1
10
49.2120269797192
20
-0.109006545583952
30
0
41
1
10
48.9111443323963
20
0.0421557658572453
30
0
41
1
10
48.0091157750204
20
0.494165018391556
30
0
41
1
10
47.4086123850029
20
0.793579396190552
30
0
41
1
10
46.5051495786822
20
1.23189730523549
30
-1E-16
41
1
10
46.2032846200762
20
1.37631225024131
30
-1E-16
41
1
10
45.6010748014098
20
1.65900193772987
30
-1E-16
41
1
10
45.3003878158302
20
1.79740498918963
30
-1E-16
41
1
10
44.398530906651
20
2.20190756655188
30
-1E-16
41
1
10
43.7976307072136
20
2.45741036712616
30
-2E-16
41
1
10
42.5911811286881
20
2.93077317275618
30
-2E-16
41
1
10
41.9899646966351
20
3.14697292217164
30
-2E-16
41
1
10
41.0880579873026
20
3.43495214831296
30
-2E-16
41
1
10
40.7873764015414
20
3.52492945883401
30
-2E-16
41
1
10
40.1852180655778
20
3.69195631739135
30
2E-16
41
1
10
39.8833479706957
20
3.76907272581539
30
2E-16
41
1
10
38.9794901226961
20
3.97904288171816
30
0
41
1
10
38.3787549639669
20
4.09067765296473
30
0
41
1
10
37.4764054540566
20
4.21288275535952
30
0
41
1
10
37.1754346045493
20
4.24609261511139
30
0
41
1
10
36.5724304983391
20
4.29704587270584
30
0
41
1
10
36.2708209992019
20
4.31473196410806
30
0
41
1
10
35.7690808010159
20
4.33108462262496
30
0
41
1
10
35.5684655998228
20
4.3341322469652
30
0
41
1
10
35.3678920499239
20
4.33369262612862
30
0
0
SPLINE
5
DC
100
AcDbEntity
8
1
62
256
6
ByLayer
370
18
48
1
60
0
100
AcDbSpline
70
4
71
3
72
12
73
8
40
0
40
0
40
0
40
0
40
0.019736752589346
40
0.019736752589346
40
0.509868376294673
40
0.509868376294673
40
1
40
1
40
1
40
1
41
1
10
10.8671413997393
20
-4.11433113664319
30
0
41
1
10
10.8185501165916
20
-4.1216647733244
30
0
41
1
10
10.7699489382962
20
-4.12880505391382
30
0
41
1
10
9.51413752895127
20
-4.30823392324575
30
0
41
1
10
8.32677960623033
20
-4.3567710127854
30
0
41
1
10
5.95188672617317
20
-4.21133942256191
30
0
41
1
10
4.76433103262022
20
-4.01748164401855
30
0
41
1
10
3.55710376106276
20
-3.70964852118431
30
-2E-16
0
SPLINE
5
DD
100
AcDbEntity
8
1
62
256
6
ByLayer
370
18
48
1
60
0
100
AcDbSpline
70
4
71
3
72
16
73
12
40
0
40
0
40
0
40
0
40
0.227627515891612
40
0.227627515891612
40
0.457620043211355
40
0.457620043211355
40
0.655051591505446
40
0.655051591505446
40
0.828485696083253
40
0.828485696083253
40
1
40
1
40
1
40
1
41
1
10
61.4495495504137
20
-4.09495976128556
30
0
41
1
10
61.4496299317158
20
-4.09512607510078
30
0
41
1
10
61.4496540555815
20
-4.09547232028285
30
0
41
1
10
61.4495636453466
20
-4.09653824790141
30
0
41
1
10
61.4494449433953
20
-4.09728260824013
30
0
41
1
10
61.4490892185087
20
-4.09896096693726
30
0
41
1
10
61.448865216107
20
-4.09987996515412
30
0
41
1
10
61.4483714751456
20
-4.10170503868736
30
0
41
1
10
61.4481042411548
20
-4.10262280681266
30
0
41
1
10
61.4475476158109
20
-4.10442133759446
30
0
41
1
10
61.4472520276358
20
-4.10532382465365
30
0
41
1
10
61.4469586198628
20
-4.106176514146
30
0
0
SPLINE
5
DE
100
AcDbEntity
8
1
62
256
6
ByLayer
370
18
48
1
60
0
100
AcDbSpline
70
4
71
3
72
30
73
26
40
0
40
0
40
0
40
0
40
0.125
40
0.125
40
0.1875
40
0.1875
40
0.25
40
0.25
40
0.3125
40
0.3125
40
0.375
40
0.375
40
0.4375
40
0.4375
40
0.5
40
0.5
40
0.5625
40
0.5625
40
0.625
40
0.625
40
0.75
40
0.75
40
0.875
40
0.875
40
1
40
1
40
1
40
1
41
1
10
62.9393389626663
20
0.0523667435701043
30
0
41
1
10
62.9182821884428
20
-0.0170603847680297
30
0
41
1
10
62.8940731180724
20
-0.084900255241962
30
0
41
1
10
62.8528530498718
20
-0.184108037184529
30
0
41
1
10
62.8381575700002
20
-0.217004605534584
30
0
41
1
10
62.807788582415
20
-0.280170180870471
30
0
41
1
10
62.7921076321066
20
-0.310505781906244
30
0
41
1
10
62.7597757743748
20
-0.368605128749721
30
0
41
1
10
62.7431255328569
20
-0.396370563071827
30
0
41
1
10
62.708805325177
20
-0.449101849922073
30
0
41
1
10
62.6911757541805
20
-0.473948136360065
30
0
41
1
10
62.6563174274563
20
-0.518658610642774
30
0
41
1
10
62.6389123136811
20
-0.53880523609871
30
0
41
1
10
62.6041270212186
20
-0.574589625273774
30
0
41
1
10
62.5865883168357
20
-0.590325418454228
30
0
41
1
10
62.5526385824175
20
-0.616128165173365
30
0
41
1
10
62.5361459413296
20
-0.626323758595731
30
0
41
1
10
62.5039986115954
20
-0.64151528727831
30
0
41
1
10
62.488226897667
20
-0.646512648589379
30
0
41
1
10
62.4431362611919
20
-0.653525358189
30
0
41
1
10
62.4156726660124
20
-0.647789413906793
30
0
41
1
10
62.3657458412264
20
-0.618655342623128
30
0
41
1
10
62.343763028904
20
-0.595726268866088
30
0
41
1
10
62.3039670022089
20
-0.536113610206939
30
0
41
1
10
62.2862138945187
20
-0.499284990370057
30
0
41
1
10
62.2705158715051
20
-0.457380909525057
30
0
0
SPLINE
5
DF
100
AcDbEntity
8
1
62
256
6
ByLayer
370
18
48
1
60
0
100
AcDbSpline
70
4
71
3
72
64
73
60
40
0
40
0
40
0
40
0
40
0.12499999999999
40
0.12499999999999
40
0.187499999999986
40
0.187499999999986
40
0.218749999999983
40
0.218749999999983
40
0.249999999999981
40
0.249999999999981
40
0.281249999999979
40
0.281249999999979
40
0.312499999999977
40
0.312499999999977
40
0.343749999999975
40
0.343749999999975
40
0.359374999999974
40
0.359374999999974
40
0.374999999999973
40
0.374999999999973
40
0.390624999999972
40
0.390624999999972
40
0.406249999999971
40
0.406249999999971
40
0.437499999999968
40
0.437499999999968
40
0.453124999999967
40
0.453124999999967
40
0.468749999999966
40
0.468749999999966
40
0.499999999999963
40
0.499999999999963
40
0.53124999999996
40
0.53124999999996
40
0.562499999999957
40
0.562499999999957
40
0.624999999999951
40
0.624999999999951
40
0.687499999999945
40
0.687499999999945
40
0.703124999999944
40
0.703124999999944
40
0.710937499999944
40
0.714843749999944
40
0.716796874999944
40
0.716796874999944
40
0.718749999999945
40
0.718749999999945
40
0.722656249999945
40
0.722656249999945
40
0.726562499999946
40
0.726562499999946
40
0.734374999999947
40
0.734374999999947
40
0.749999999999951
40
0.749999999999951
40
0.874999999999976
40
0.874999999999976
40
1
40
1
40
1
40
1
41
1
10
5.87303677359793
20
0.873992046449558
30
-1E-16
41
1
10
5.37278456807942
20
1.11787414621654
30
-1E-16
41
1
10
4.88413944131068
20
1.37364626623344
30
-1E-16
41
1
10
4.17673307169582
20
1.781502958522
30
-1E-16
41
1
10
3.94523826884009
20
1.92152788934138
30
-1E-16
41
1
10
3.60674335033914
20
2.13954543950828
30
-1E-16
41
1
10
3.49545633701516
20
2.21352809274703
30
-1E-16
41
1
10
3.27857685071481
20
2.36318065458747
30
-1E-16
41
1
10
3.17273266753224
20
2.43900419512911
30
-1E-16
41
1
10
2.96735011491765
20
2.59300166583242
30
-2E-16
41
1
10
2.86746140242568
20
2.67145676815176
30
-2E-16
41
1
10
2.6772954206858
20
2.8299273734425
30
-2E-16
41
1
10
2.58749197840032
20
2.90951262373781
30
-2E-16
41
1
10
2.42097138450131
20
3.06946884121965
30
-2E-16
41
1
10
2.34421612251171
20
3.14983745161953
30
-2E-16
41
1
10
2.24197158737226
20
3.27111336922962
30
-2E-16
41
1
10
2.20991636195293
20
3.31185522899449
30
-2E-16
41
1
10
2.15161524550862
20
3.39267419777437
30
-2E-16
41
1
10
2.12550996207736
20
3.43252573474524
30
-2E-16
41
1
10
2.07994569066548
20
3.51100934328844
30
-2E-16
41
1
10
2.06048512870561
20
3.54964165690947
30
-2E-16
41
1
10
2.02891603089685
20
3.62556015429826
30
-2E-16
41
1
10
2.01676950298284
20
3.66311088083418
30
2E-16
41
1
10
1.99314762317815
20
3.77099655655741
30
2E-16
41
1
10
1.99411234288394
20
3.83678158912417
30
0
41
1
10
2.02060254647418
20
3.92636664743688
30
0
41
1
10
2.03375046616566
20
3.95483869799534
30
0
41
1
10
2.06747630449419
20
4.00742366403091
30
0
41
1
10
2.08805496390394
20
4.03171310070681
30
0
41
1
10
2.15988352936094
20
4.09918370311834
30
0
41
1
10
2.22190465581284
20
4.13719321762494
30
0
41
1
10
2.36346203907533
20
4.19938397725031
30
0
41
1
10
2.44313576084642
20
4.22396598308805
30
0
41
1
10
2.61616065386605
20
4.26333480982365
30
0
41
1
10
2.71011202710429
20
4.27813865083363
30
0
41
1
10
3.00357925988962
20
4.31036212807467
30
0
41
1
10
3.21451730557831
20
4.31624347093592
30
0
41
1
10
3.65591935765005
20
4.30934547358399
30
0
41
1
10
3.88712992659563
20
4.29628807599522
30
0
41
1
10
4.18353228683776
20
4.27195118793705
30
0
41
1
10
4.24317825641944
20
4.26667746799123
30
0
41
1
10
4.33311901503654
20
4.25821454491651
30
0
41
1
10
4.3782099549091
20
4.25384466796061
30
0
41
1
10
4.43101252249019
20
4.2485156099095
30
0
41
1
10
4.45368337145069
20
4.24618336076296
30
0
41
1
10
4.46880629299434
20
4.24461790325356
30
0
41
1
10
4.47635127385917
20
4.24381221809639
30
0
41
1
10
4.50055132318624
20
4.24200587057149
30
0
41
1
10
4.51798304083238
20
4.24151785669622
30
0
41
1
10
4.55275362255392
20
4.24151363738082
30
0
41
1
10
4.56978234666857
20
4.24200950473534
30
0
41
1
10
4.62016821560138
20
4.24444673849948
30
0
41
1
10
4.65348929123152
20
4.24629057718539
30
0
41
1
10
4.75368966076567
20
4.25145666620477
30
0
41
1
10
4.82036271063046
20
4.25484563170866
30
0
41
1
10
5.41928056833351
20
4.28468308805475
30
0
41
1
10
5.94333500124006
20
4.30651663491759
30
0
41
1
10
6.97140578958275
20
4.32048393214768
30
0
41
1
10
7.47545357047582
20
4.31244964424101
30
0
41
1
10
7.97333961615894
20
4.28078727139587
30
0
0
SPLINE
5
E0
100
AcDbEntity
8
1
62
256
6
ByLayer
370
18
48
1
60
0
100
AcDbSpline
70
4
71
3
72
38
73
34
40
0
40
0
40
0
40
0
40
0.497435877382949
40
0.497435877382949
40
0.665474041100628
40
0.665474041100628
40
0.777398777748909
40
0.777398777748909
40
0.852034237456543
40
0.852034237456543
40
0.901817869212595
40
0.901817869212595
40
0.934988892055137
40
0.934988892055137
40
0.95706685175874
40
0.95706685175874
40
0.971764115357278
40
0.971764115357278
40
0.981552373612467
40
0.981552373612467
40
0.988073844063843
40
0.988073844063843
40
0.99242007698113
40
0.99242007698113
40
0.99531742752072
40
0.99531742752072
40
0.997253391716579
40
0.997253391716579
40
0.999013368896669
40
0.999013368896669
40
0.999967613341773
40
0.999967613341773
40
1
40
1
40
1
40
1
41
1
10
61.2193556604457
20
4.34914022101964
30
0
41
1
10
61.262761429546
20
4.3207338320307
30
0
41
1
10
61.3062485513463
20
4.29206352934924
30
0
41
1
10
61.3645665326779
20
4.25334790885779
30
0
41
1
10
61.3793093865935
20
4.2435376495871
30
0
41
1
10
61.4038726333118
20
4.22715657726266
30
0
41
1
10
61.4136908721261
20
4.22059933559348
30
0
41
1
10
61.4300349507282
20
4.20966815730097
30
0
41
1
10
61.4365678935351
20
4.20529465554856
30
0
41
1
10
61.4474427090864
20
4.19800742714983
30
0
41
1
10
61.4517887691999
20
4.19509324468615
30
0
41
1
10
61.4590424775613
20
4.19022586674137
30
0
41
1
10
61.4619462693934
20
4.18827643453957
30
0
41
1
10
61.4667937144399
20
4.18502058783696
30
0
41
1
10
61.4687337251246
20
4.18371714209459
30
0
41
1
10
61.471971357262
20
4.18154118454936
30
0
41
1
10
61.4732669321941
20
4.18067027247449
30
0
41
1
10
61.4754283920347
20
4.17921700629176
30
0
41
1
10
61.4762932662832
20
4.17863542795772
30
0
41
1
10
61.4777357943276
20
4.17766528584747
30
0
41
1
10
61.4783129737205
20
4.17727708267282
30
0
41
1
10
61.4792754681602
20
4.17662966747397
30
0
41
1
10
61.479660565769
20
4.17637061980594
30
0
41
1
10
61.4803026694165
20
4.17593866532596
30
0
41
1
10
61.4805598515404
20
4.17576564684731
30
0
41
1
10
61.480983060445
20
4.17548096351604
30
0
41
1
10
61.4811512677007
20
4.17536782159061
30
0
41
1
10
61.4814631870605
20
4.17515805817121
30
0
41
1
10
61.4816093693501
20
4.17505976887614
30
0
41
1
10
61.4818127656313
20
4.17492309983581
30
0
41
1
10
61.4818809548412
20
4.17487730034253
30
0
41
1
10
61.4819347055531
20
4.17484124554963
30
0
41
1
10
61.481943011215
20
4.17483567455508
30
0
41
1
10
61.4819513170577
20
4.17483010382992
30
0
0
SPLINE
5
E1
100
AcDbEntity
8
1
62
256
6
ByLayer
370
18
48
1
60
0
100
AcDbSpline
70
4
71
3
72
38
73
34
40
0
40
0
40
0
40
0
40
0.49743587682571
40
0.49743587682571
40
0.66547404036203
40
0.66547404036203
40
0.777398776889405
40
0.777398776889405
40
0.852034236516434
40
0.852034236516434
40
0.901817868218169
40
0.901817868218169
40
0.934988891024654
40
0.934988891024654
40
0.957066850704388
40
0.957066850704388
40
0.971764114286979
40
0.971764114286979
40
0.981552372531474
40
0.981552372531474
40
0.988073842975769
40
0.988073842975769
40
0.992420075888261
40
0.992420075888261
40
0.995317426424702
40
0.995317426424702
40
0.997253390618403
40
0.997253390618403
40
0.999013367796168
40
0.999013367796168
40
0.999967612240552
40
0.999967612240552
40
1
40
1
40
1
40
1
41
1
10
61.2193556604507
20
-4.34914022101637
30
0
41
1
10
61.2627614295493
20
-4.32073383202848
30
0
41
1
10
61.3062485513479
20
-4.29206352934813
30
0
41
1
10
61.364566532678
20
-4.25334790885776
30
0
41
1
10
61.3793093865935
20
-4.24353764958701
30
0
41
1
10
61.403872633312
20
-4.22715657726255
30
0
41
1
10
61.4136908721263
20
-4.22059933559336
30
0
41
1
10
61.4300349507285
20
-4.20966815730085
30
0
41
1
10
61.4365678935353
20
-4.20529465554841
30
0
41
1
10
61.4474427090865
20
-4.19800742714969
30
0
41
1
10
61.4517887692
20
-4.19509324468604
30
0
41
1
10
61.4590424775614
20
-4.19022586674129
30
0
41
1
10
61.4619462693935
20
-4.18827643453955
30
0
41
1
10
61.4667937144399
20
-4.18502058783693
30
0
41
1
10
61.4687337251247
20
-4.18371714209457
30
0
41
1
10
61.4719713572621
20
-4.18154118454933
30
0
41
1
10
61.4732669321942
20
-4.18067027247443
30
0
41
1
10
61.4754283920347
20
-4.17921700629174
30
0
41
1
10
61.4762932662833
20
-4.17863542795772
30
0
41
1
10
61.4777357943277
20
-4.17766528584747
30
0
41
1
10
61.4783129737205
20
-4.17727708267279
30
0
41
1
10
61.4792754681601
20
-4.17662966747395
30
0
41
1
10
61.479660565769
20
-4.17637061980594
30
0
41
1
10
61.4803026694165
20
-4.17593866532596
30
0
41
1
10
61.4805598515404
20
-4.17576564684731
30
0
41
1
10
61.480983060445
20
-4.17548096351604
30
0
41
1
10
61.4811512677007
20
-4.17536782159061
30
0
41
1
10
61.4814631870604
20
-4.17515805817126
30
0
41
1
10
61.48160936935
20
-4.1750597688762
30
0
41
1
10
61.4818127656312
20
-4.17492309983587
30
0
41
1
10
61.4818809548412
20
-4.17487730034259
30
0
41
1
10
61.4819347056476
20
-4.17484124548625
30
0
41
1
10
61.4819430113095
20
-4.17483567449167
30
0
41
1
10
61.4819513171522
20
-4.17483010376651
30
0
0
SPLINE
5
E2
100
AcDbEntity
8
1
62
256
6
ByLayer
370
18
48
1
60
0
100
AcDbSpline
70
4
71
3
72
50
73
46
40
0
40
0
40
0
40
0
40
0.0097952158114872
40
0.0097952158114872
40
0.0399338817407687
40
0.0399338817407687
40
0.0700725476700503
40
0.0700725476700503
40
0.130349879528614
40
0.130349879528614
40
0.160488545457897
40
0.160488545457897
40
0.190627211387179
40
0.190627211387179
40
0.250904543245742
40
0.250904543245742
40
0.281043209175024
40
0.281043209175024
40
0.311181875104305
40
0.311181875104305
40
0.371459206962869
40
0.371459206962869
40
0.431736538821433
40
0.431736538821433
40
0.461875204750716
40
0.461875204750716
40
0.492013870679999
40
0.492013870679999
40
0.552291202538565
40
0.552291202538565
40
0.672845866255698
40
0.672845866255698
40
0.702984532184982
40
0.702984532184982
40
0.733123198114265
40
0.733123198114265
40
0.793400529972832
40
0.793400529972832
40
0.823539195902115
40
0.823539195902115
40
0.853677861831398
40
0.853677861831398
40
0.913955193689964
40
0.913955193689964
40
1
40
1
40
1
40
1
41
1
10
38.0704022887781
20
-4.13004858158189
30
0
41
1
10
37.9726787171658
20
-4.14487298424581
30
0
41
1
10
37.8749446451205
20
-4.158908633229
30
0
41
1
10
37.4764054540566
20
-4.21288275535952
30
0
41
1
10
37.1754346045493
20
-4.24609261511142
30
0
41
1
10
36.5724304983391
20
-4.29704587270584
30
0
41
1
10
36.2708209992019
20
-4.31473196410806
30
0
41
1
10
35.3678681951245
20
-4.34416089747901
30
0
41
1
10
34.7671649614336
20
-4.33235293331507
30
0
41
1
10
33.8640013971162
20
-4.26782946998696
30
0
41
1
10
33.5622588666635
20
-4.23846975444221
30
0
41
1
10
32.9593583043037
20
-4.1644752223406
30
0
41
1
10
32.6583860337973
20
-4.11990795245777
30
0
41
1
10
31.7559155633026
20
-3.96427239723184
30
0
41
1
10
31.1550576515794
20
-3.83109599491465
30
-2E-16
41
1
10
30.250757516161
20
-3.59066025060099
30
2E-16
41
1
10
29.9488988668929
20
-3.5036792548996
30
2E-16
41
1
10
29.3466698350423
20
-3.31777292257061
30
2E-16
41
1
10
29.0458792754904
20
-3.21879207549239
30
2E-16
41
1
10
28.1436043142206
20
-2.90501534715153
30
2E-16
41
1
10
27.5418210254769
20
-2.67305691972845
30
2E-16
41
1
10
26.3350752674664
20
-2.17285317443393
30
1E-16
41
1
10
25.7340009218849
20
-1.90583973062223
30
1E-16
41
1
10
24.8315099395954
20
-1.48784162090655
30
1E-16
41
1
10
24.5306494922658
20
-1.3453810142706
30
1E-16
41
1
10
23.927975059623
20
-1.05586660216966
30
1E-16
41
1
10
23.6258010757549
20
-0.90863708324656
30
1E-16
41
1
10
22.7236937394311
20
-0.465017301497141
30
0
41
1
10
22.1263424824981
20
-0.16545118156256
30
0
41
1
10
20.3378823846807
20
0.727128224273571
30
0
41
1
10
19.1512803596086
20
1.31587616639826
30
-1E-16
41
1
10
17.6497201227603
20
1.99251387520812
30
-1E-16
41
1
10
17.3479568950255
20
2.12512223867816
30
-1E-16
41
1
10
16.74474070044
20
2.38189496298014
30
-1E-16
41
1
10
16.4436289985864
20
2.50593389255684
30
-2E-16
41
1
10
15.5408147948185
20
2.86350565159199
30
-2E-16
41
1
10
14.939703336155
20
3.08258516287131
30
-2E-16
41
1
10
14.0351439296392
20
3.37616206811671
30
-2E-16
41
1
10
13.7330730678388
20
3.46819020342059
30
-2E-16
41
1
10
13.1304793237145
20
3.63887152181238
30
2E-16
41
1
10
12.8295587266371
20
3.71764249482248
30
2E-16
41
1
10
11.9268931575626
20
3.9332529283256
30
0
41
1
10
11.3249368854528
20
4.04950902338717
30
0
41
1
10
9.85970927020639
20
4.25885903594576
30
0
41
1
10
9.00818929626209
20
4.31882598327013
30
0
41
1
10
8.15953060225615
20
4.31663077538545
30
0
0
SPLINE
5
E3
100
AcDbEntity
8
1
62
256
6
ByLayer
370
18
48
1
60
0
100
AcDbSpline
70
4
71
3
72
18
73
14
40
0
40
0
40
0
40
0
40
0.25
40
0.25
40
0.5
40
0.5
40
0.5625
40
0.5625
40
0.625
40
0.625
40
0.75
40
0.75
40
1
40
1
40
1
40
1
41
1
10
7.97334101182221
20
4.28078716758054
30
0
41
1
10
8.94308999415728
20
4.21923473979254
30
0
41
1
10
9.90097755517439
20
4.0775442505873
30
0
41
1
10
11.815100174945
20
3.65290963832004
30
2E-16
41
1
10
12.7707792074345
20
3.36948581591767
30
-2E-16
41
1
10
13.9771545251781
20
2.94039446512687
30
-2E-16
41
1
10
14.2193209255272
20
2.85068875432191
30
-2E-16
41
1
10
14.7036807774112
20
2.66474501069251
30
-2E-16
41
1
10
14.9451288118252
20
2.56875439421623
30
-2E-16
41
1
10
15.6678104253876
20
2.27270865593397
30
-1E-16
41
1
10
16.1476434491284
20
2.06504783157015
30
-1E-16
41
1
10
17.5842864240404
20
1.41700865269593
30
-1E-16
41
1
10
18.5386752163486
20
0.952299432897433
30
-1E-16
41
1
10
19.50000000001
20
0.474919310937338
30
0
0
SPLINE
5
E4
100
AcDbEntity
8
1
62
256
6
ByLayer
370
18
48
1
60
0
100
AcDbSpline
70
4
71
3
72
22
73
18
40
0
40
0
40
0
40
0
40
0.0244777739243989
40
0.0244777739243989
40
0.152971320253323
40
0.152971320253323
40
0.281464866582247
40
0.281464866582247
40
0.538451959240097
40
0.538451959240097
40
0.60269873240456
40
0.60269873240456
40
0.666945505569023
40
0.666945505569023
40
0.795439051897948
40
0.795439051897948
40
1
40
1
40
1
40
1
41
1
10
21.3380901664826
20
0.22762453372988
30
0
41
1
10
21.4525603482336
20
0.173409224127454
30
0
41
1
10
21.5670952470221
20
0.119112175998794
30
0
41
1
10
22.283388423305
20
-0.220468345601375
30
0
41
1
10
22.8875906323875
20
-0.507947315788641
30
0
41
1
10
24.1031624089141
20
-1.07389636759027
30
1E-16
41
1
10
24.7062691233872
20
-1.34920052891837
30
1E-16
41
1
10
26.5101865298161
20
-2.13719135225668
30
1E-16
41
1
10
27.7043770311053
20
-2.61236715546067
30
2E-16
41
1
10
29.2106234161181
20
-3.10176230022265
30
2E-16
41
1
10
29.5125200215033
20
-3.19439715166564
30
2E-16
41
1
10
30.1182325830196
20
-3.36812956134494
30
2E-16
41
1
10
30.4224508818566
20
-3.44937476163142
30
2E-16
41
1
10
31.3333589113125
20
-3.6731837784254
30
0
41
1
10
31.9400125674418
20
-3.79602978264686
30
0
41
1
10
33.5147709416575
20
-4.04088579922748
30
0
41
1
10
34.4705328311687
20
-4.11601631917327
30
0
41
1
10
35.4246008392714
20
-4.11638647185771
30
0
0
SPLINE
5
E5
100
AcDbEntity
8
1
62
256
6
ByLayer
370
18
48
1
60
0
100
AcDbSpline
70
4
71
3
72
8
73
4
40
0
40
0
40
0
40
0
40
1
40
1
40
1
40
1
41
1
10
62.9959885779289
20
0.240160693984563
30
0
41
1
10
62.9771989512796
20
0.177533413047939
30
0
41
1
10
62.9583156292407
20
0.114935466191468
30
0
41
1
10
62.9393389626663
20
0.0523667435701043
30
0
0
SPLINE
5
E6
100
AcDbEntity
8
1
62
256
6
ByLayer
370
18
48
1
60
0
100
AcDbSpline
70
4
71
3
72
40
73
36
40
0
40
0
40
0
40
0
40
0.0025247699203363
40
0.0025247699203363
40
0.0672622428784088
40
0.0672622428784088
40
0.131999715836481
40
0.131999715836481
40
0.196737188794554
40
0.196737188794554
40
0.261474661752627
40
0.261474661752627
40
0.3262121347107
40
0.3262121347107
40
0.390949607668772
40
0.390949607668772
40
0.455687080626845
40
0.455687080626845
40
0.520424553584917
40
0.520424553584917
40
0.58516202654299
40
0.58516202654299
40
0.649899499501062
40
0.649899499501062
40
0.714636972459135
40
0.714636972459135
40
0.779374445417208
40
0.779374445417208
40
0.844111918375281
40
0.844111918375281
40
0.908849391333353
40
0.908849391333353
40
0.973586864291426
40
0.973586864291426
40
1
40
1
40
1
40
1
41
1
10
19.7268778772694
20
4.11707815824721
30
0
41
1
10
19.7384581288681
20
4.11723567213298
30
0
41
1
10
19.7500385309203
20
4.11738102990623
30
0
41
1
10
20.0585563761582
20
4.12092719993342
30
0
41
1
10
20.355547228712
20
4.116708575355
30
0
41
1
10
20.9496109049739
20
4.09467986050592
30
0
41
1
10
21.2466409239609
20
4.07697726441535
30
0
41
1
10
21.8422162491037
20
4.02572010009635
30
0
41
1
10
22.1406279852191
20
3.99261604440221
30
0
41
1
10
22.7385966037719
20
3.91284641855816
30
0
41
1
10
23.0381017572708
20
3.86626695576155
30
0
41
1
10
23.6400248107154
20
3.75754712667114
30
0
41
1
10
23.940680803889
20
3.69618785020535
30
0
41
1
10
24.5393778916781
20
3.56156572900943
30
-2E-16
41
1
10
24.8377530090227
20
3.48827250470296
30
-2E-16
41
1
10
25.433807479837
20
3.32889493341475
30
-2E-16
41
1
10
25.7313549515557
20
3.24323037096369
30
-2E-16
41
1
10
26.3256486774023
20
3.06123457190779
30
-2E-16
41
1
10
26.6223549296977
20
2.96492057989923
30
-2E-16
41
1
10
27.2162923684658
20
2.7617055178587
30
-2E-16
41
1
10
27.5133423960431
20
2.65501368230971
30
-2E-16
41
1
10
28.107752608338
20
2.43249183994428
30
-1E-16
41
1
10
28.4051827245056
20
2.31661631248903
30
-1E-16
41
1
10
29.0015481451136
20
2.0765225931502
30
-1E-16
41
1
10
29.3004255294091
20
1.95233502564486
30
-1E-16
41
1
10
29.8995248253271
20
1.6965284949809
30
-1E-16
41
1
10
30.2003727062816
20
1.56471156417635
30
-1E-16
41
1
10
30.802310874731
20
1.29607573658853
30
-1E-16
41
1
10
31.1030279204935
20
1.15934083035612
30
-1E-16
41
1
10
31.7041583183864
20
0.881759718126574
30
-1E-16
41
1
10
32.0047175807887
20
0.741090476802214
30
0
41
1
10
32.6067592680202
20
0.457670446686393
30
0
41
1
10
32.9076238077624
20
0.314949257138835
30
0
41
1
10
33.3293393655022
20
0.114005412678864
30
0
41
1
10
33.4513971426598
20
0.0557908511973437
30
0
41
1
10
33.5733358945722
20
-0.0023478330766125
30
0
0
SPLINE
5
E7
100
AcDbEntity
8
1
62
256
6
ByLayer
370
18
48
1
60
0
100
AcDbSpline
70
4
71
3
72
8
73
4
40
0
40
0
40
0
40
0
40
1
40
1
40
1
40
1
41
1
10
61.2032263438458
20
-4.29376931527963
30
0
41
1
10
61.2778590141111
20
-4.25079146036543
30
0
41
1
10
61.3526609261975
20
-4.20702852388573
30
0
41
1
10
61.4276584143924
20
-4.16250093790165
30
0
0
SPLINE
5
E8
100
AcDbEntity
8
1
62
256
6
ByLayer
370
18
48
1
60
0
100
AcDbSpline
70
4
71
3
72
8
73
4
40
0
40
0
40
0
40
0
40
1
40
1
40
1
40
1
41
1
10
61.2032263438445
20
-4.29376931528122
30
0
41
1
10
61.208994679929
20
-4.32668654237233
30
0
41
1
10
61.2143279450727
20
-4.34535834714089
30
0
41
1
10
61.2193556604334
20
-4.34914022102811
30
0
0
SPLINE
5
E9
100
AcDbEntity
8
1
62
256
6
ByLayer
370
18
48
1
60
0
100
AcDbSpline
70
4
71
3
72
48
73
44
40
0
40
0
40
0
40
0
40
0.0540278295103784
40
0.0540278295103784
40
0.0970265645326325
40
0.0970265645326325
40
0.140025299554887
40
0.140025299554887
40
0.183024034577141
40
0.183024034577141
40
0.226022769599395
40
0.226022769599395
40
0.269021504621649
40
0.269021504621649
40
0.290520872132776
40
0.290520872132776
40
0.312020239643903
40
0.312020239643903
40
0.398017709688413
40
0.398017709688413
40
0.484015179732924
40
0.484015179732924
40
0.505514547244052
40
0.505514547244052
40
0.52701391475518
40
0.52701391475518
40
0.570012649777437
40
0.570012649777437
40
0.613011384799693
40
0.613011384799693
40
0.656010119821949
40
0.656010119821949
40
0.699008854844206
40
0.699008854844206
40
0.742007589866462
40
0.742007589866462
40
0.785006324888718
40
0.785006324888718
40
0.828005059910975
40
0.828005059910975
40
0.914002529955487
40
0.914002529955487
40
1
40
1
40
1
40
1
41
1
10
30.927499405087
20
4.02971494628684
30
0
41
1
10
31.4734173316282
20
4.13009064170586
30
0
41
1
10
32.0187677256601
20
4.20637067761695
30
0
41
1
10
33.0006187874405
20
4.2978096017948
30
0
41
1
10
33.4366675590147
20
4.32219752390918
30
0
41
1
10
34.3060503880736
20
4.33801942825136
30
0
41
1
10
34.740178190737
20
4.32955703103144
30
0
41
1
10
35.6092083302936
20
4.28005368284053
30
0
41
1
10
36.0447664410073
20
4.23892084178584
30
0
41
1
10
36.9154984884212
20
4.12478686495552
30
0
41
1
10
37.3497849713546
20
4.05194789156093
30
0
41
1
10
38.2182880150611
20
3.87633644319851
30
0
41
1
10
38.652517601117
20
3.77358066457637
30
2E-16
41
1
10
39.305293742583
20
3.59831059567466
30
-2E-16
41
1
10
39.5234011638062
20
3.53627257658653
30
-2E-16
41
1
10
39.9582201290391
20
3.40601354074957
30
-2E-16
41
1
10
40.1750756131877
20
3.33776357758939
30
-2E-16
41
1
10
41.2571877698417
20
2.98188341158908
30
-2E-16
41
1
10
42.1159445674432
20
2.65029896880549
30
-2E-16
41
1
10
43.8348531923235
20
1.91874851590194
30
-1E-16
41
1
10
44.6949216957011
20
1.51864111961538
30
-1E-16
41
1
10
45.7803506074078
20
0.992413532093167
30
-1E-16
41
1
10
45.9982620662273
20
0.885724556665224
30
-1E-16
41
1
10
46.4335859136054
20
0.671103325314277
30
0
41
1
10
46.6509808663738
20
0.563183786016708
30
0
41
1
10
47.3027237175815
20
0.23831798114395
30
0
41
1
10
47.7366267236295
20
0.020258636818312
30
0
41
1
10
48.6052299011521
20
-0.414849708415375
30
0
41
1
10
49.0405386415351
20
-0.632200745587397
30
0
41
1
10
49.9110629144395
20
-1.06058129504172
30
1E-16
41
1
10
50.3452512261321
20
-1.27109457368081
30
1E-16
41
1
10
51.2135159827031
20
-1.68090755643556
30
1E-16
41
1
10
51.6475980048104
20
-1.88019846637872
30
1E-16
41
1
10
52.5175947172265
20
-2.26394453335064
30
1E-16
41
1
10
52.9533588723666
20
-2.44831162931402
30
1E-16
41
1
10
53.822154400206
20
-2.79620741099654
30
2E-16
41
1
10
54.2559879895923
20
-2.96010921477799
30
2E-16
41
1
10
55.1244981880717
20
-3.26483336144125
30
2E-16
41
1
10
55.5597284580812
20
-3.40579783317591
30
2E-16
41
1
10
56.8657108767288
20
-3.7883622783319
30
-2E-16
41
1
10
57.736208969718
20
-3.98921653214614
30
0
41
1
10
59.4774281077908
20
-4.26542747350658
30
0
41
1
10
60.3485954030891
20
-4.34055509510875
30
0
41
1
10
61.2193556604511
20
-4.34914022102808
30
0
0
SPLINE
5
EA
100
AcDbEntity
8
1
62
256
6
ByLayer
370
18
48
1
60
0
100
AcDbSpline
70
4
71
3
72
8
73
4
40
0
40
0
40
0
40
0
40
1
40
1
40
1
40
1
41
1
10
62.9959885779289
20
0.240160693984563
30
0
41
1
10
63.0013446422456
20
0.0798290085437543
30
0
41
1
10
63.0013296601184
20
-0.0802774926419829
30
0
41
1
10
62.9959885779291
20
-0.240160693975867
30
0
0
SPLINE
5
EB
100
AcDbEntity
8
1
62
256
6
ByLayer
370
18
48
1
60
0
100
AcDbSpline
70
4
71
3
72
38
73
34
40
0
40
0
40
0
40
0
40
0.0602386812276584
40
0.0602386812276584
40
0.123714617590729
40
0.123714617590729
40
0.1871905539538
40
0.1871905539538
40
0.250666490316871
40
0.250666490316871
40
0.314142426679942
40
0.314142426679942
40
0.377618363043013
40
0.377618363043013
40
0.441094299406084
40
0.441094299406084
40
0.504570235769155
40
0.504570235769155
40
0.568046172132226
40
0.568046172132226
40
0.631522108495297
40
0.631522108495297
40
0.694998044858368
40
0.694998044858368
40
0.758473981221439
40
0.758473981221439
40
0.82194991758451
40
0.82194991758451
40
0.88542585394758
40
0.88542585394758
40
0.948901790310648
40
0.948901790310648
40
1
40
1
40
1
40
1
41
1
10
34.058624716008
20
-0.243915939293515
30
0
41
1
10
33.7755879892723
20
-0.1097372852376
30
0
41
1
10
33.4920954406116
20
0.0253129526286102
30
0
41
1
10
32.9082743545471
20
0.302857321292663
30
0
41
1
10
32.6073861239062
20
0.445278271854249
30
0
41
1
10
32.005258518251
20
0.728164763958318
30
0
41
1
10
31.704656750705
20
0.868593333425082
30
-1E-16
41
1
10
31.1034436339171
20
1.1457327197343
30
-1E-16
41
1
10
30.8026868221135
20
1.28226657186425
30
-1E-16
41
1
10
30.2006756173755
20
1.55055468114196
30
-1E-16
41
1
10
29.8997737624839
20
1.68223367286868
30
-1E-16
41
1
10
29.300566922862
20
1.93780455616377
30
-1E-16
41
1
10
29.0016344983298
20
2.06189702206205
30
-1E-16
41
1
10
28.4051567034903
20
2.30186119030711
30
-1E-16
41
1
10
28.107669345658
20
2.41769925034708
30
-1E-16
41
1
10
27.5131449986488
20
2.64018588012468
30
-2E-16
41
1
10
27.2160380925307
20
2.74688058918167
30
-2E-16
41
1
10
26.6219908614762
20
2.95016347276547
30
-2E-16
41
1
10
26.3252303663498
20
3.04653893599908
30
-2E-16
41
1
10
25.730831148659
20
3.22868575942405
30
-2E-16
41
1
10
25.4332334737973
20
3.31444857722445
30
-2E-16
41
1
10
24.8370864661223
20
3.47407894806315
30
-2E-16
41
1
10
24.5386686842559
20
3.54752811455481
30
-2E-16
41
1
10
23.9398908532402
20
3.68248378777315
30
0
41
1
10
23.6392140089823
20
3.74403070795932
30
0
41
1
10
23.0371946146023
20
3.85319106458562
30
0
41
1
10
22.7376375536779
20
3.90001773158411
30
0
41
1
10
22.1395621193921
20
3.98030001127899
30
0
41
1
10
21.8410960679853
20
4.0136816056785
30
0
41
1
10
21.2454098240112
20
4.06553580796003
30
0
41
1
10
20.9483230514498
20
4.08355767353632
30
0
41
1
10
20.4120773864093
20
4.10403029095795
30
0
41
1
10
20.1729481496534
20
4.10876870434728
30
0
41
1
10
19.9338526482823
20
4.10867834641979
30
0
0
SPLINE
5
EC
100
AcDbEntity
8
1
62
256
6
ByLayer
370
18
48
1
60
0
100
AcDbSpline
70
4
71
3
72
16
73
12
40
0
40
0
40
0
40
0
40
0.2046665693463
40
0.2046665693463
40
0.4093331386926
40
0.4093331386926
40
0.613999708038899
40
0.613999708038899
40
0.818666277385199
40
0.818666277385199
40
1
40
1
40
1
40
1
41
1
10
61.481941665547
20
4.17483657707584
30
0
41
1
10
61.0441247441715
20
4.17806430550377
30
0
41
1
10
60.6064614551969
20
4.16484860747471
30
0
41
1
10
59.7306725754096
20
4.10769127506799
30
0
41
1
10
59.2925782347973
20
4.06266445821834
30
0
41
1
10
58.4172423694498
20
3.94260375447692
30
0
41
1
10
57.9799910559304
20
3.86778094904955
30
0
41
1
10
57.1042771408364
20
3.68856667204142
30
0
41
1
10
56.6670250216481
20
3.58440041495544
30
-2E-16
41
1
10
55.8436452666514
20
3.36283426320654
30
-2E-16
41
1
10
55.457215363306
20
3.24849160736196
30
-2E-16
41
1
10
55.0703387276029
20
3.12464370340439
30
-2E-16
0
SPLINE
5
ED
100
AcDbEntity
8
1
62
256
6
ByLayer
370
18
48
1
60
0
100
AcDbSpline
70
4
71
3
72
8
73
4
40
0
40
0
40
0
40
0
40
1
40
1
40
1
40
1
41
1
10
3.59757770701674
20
-3.54104794169871
30
2E-16
41
1
10
3.58419397114088
20
-3.53781773331241
30
2E-16
41
1
10
3.57110226869884
20
-3.53715431745604
30
2E-16
41
1
10
3.55880353141967
20
-3.53919774844317
30
2E-16
0
SPLINE
5
EE
100
AcDbEntity
8
1
62
256
6
ByLayer
370
18
48
1
60
0
100
AcDbSpline
70
4
71
3
72
8
73
4
40
0
40
0
40
0
40
0
40
1
40
1
40
1
40
1
41
1
10
61.4819416658935
20
-4.17483657684204
30
0
41
1
10
61.4842524551909
20
-4.17328071652264
30
0
41
1
10
61.4865632799406
20
-4.17172470061942
30
0
41
1
10
61.4888741404124
20
-4.17016852919443
30
0
0
SPLINE
5
EF
100
AcDbEntity
8
1
62
256
6
ByLayer
370
18
48
1
60
0
100
AcDbSpline
70
4
71
3
72
22
73
18
40
0
40
0
40
0
40
0
40
0.177730382723557
40
0.177730382723557
40
0.355460765447116
40
0.355460765447116
40
0.533191148170674
40
0.533191148170674
40
0.622056339532454
40
0.622056339532454
40
0.710921530894234
40
0.710921530894234
40
0.888651913617795
40
0.888651913617795
40
0.977517104979574
40
0.977517104979574
40
1
40
1
40
1
40
1
41
1
10
19.4999997757321
20
0.535243383643291
30
0
41
1
10
20.3719568210068
20
0.103023631201353
30
0
41
1
10
21.2435332060807
20
-0.337299768018823
30
0
41
1
10
22.9870184756103
20
-1.194001095245
30
1E-16
41
1
10
23.8587160679477
20
-1.61109858990832
30
1E-16
41
1
10
25.6018603320007
20
-2.38475051275088
30
1E-16
41
1
10
26.4731819875522
20
-2.74071104395964
30
2E-16
41
1
10
27.7810337074696
20
-3.20504310430871
30
2E-16
41
1
10
28.2160774167741
20
-3.3479343488429
30
2E-16
41
1
10
29.0862420901533
20
-3.6074794969461
30
2E-16
41
1
10
29.521846687014
20
-3.72425581424679
30
-2E-16
41
1
10
30.8285048078236
20
-4.03093618194956
30
0
41
1
10
31.6952539987299
20
-4.17624212930769
30
0
41
1
10
33.0006187874404
20
-4.29780960179477
30
0
41
1
10
33.4366675590146
20
-4.32219752390918
30
0
41
1
10
33.9813359092753
20
-4.33210994712252
30
0
41
1
10
34.0912767687695
20
-4.33306337629386
30
0
41
1
10
34.2011969508276
20
-4.33297012508822
30
0
0
SPLINE
5
F0
100
AcDbEntity
8
1
62
256
6
ByLayer
370
18
48
1
60
0
100
AcDbSpline
70
4
71
3
72
10
73
6
40
0
40
0
40
0
40
0
40
0.15144134822003
40
0.15144134822003
40
1
40
1
40
1
40
1
41
1
10
58.1406974103917
20
4.0474321945587
30
0
41
1
10
58.296068586071
20
4.0760283124543
30
0
41
1
10
58.4514417870919
20
4.10267446828928
30
0
41
1
10
59.4774281077901
20
4.26542747350649
30
0
41
1
10
60.3485954030884
20
4.34055509510873
30
0
41
1
10
61.2193556604504
20
4.34914022102808
30
0
0
SPLINE
5
F1
100
AcDbEntity
8
1
62
256
6
ByLayer
370
18
48
1
60
0
100
AcDbSpline
70
4
71
3
72
74
73
70
40
0
40
0
40
0
40
0
40
0.0003487003801008
40
0.0003487003801008
40
0.0252565407769209
40
0.0252565407769209
40
0.0501643811737409
40
0.0501643811737409
40
0.075072221570561
40
0.075072221570561
40
0.099980061967381
40
0.099980061967381
40
0.149795742761021
40
0.149795742761021
40
0.199611423554661
40
0.199611423554661
40
0.224519263951482
40
0.224519263951482
40
0.249427104348302
40
0.249427104348302
40
0.274334944745123
40
0.274334944745123
40
0.299242785141943
40
0.299242785141943
40
0.349058465935585
40
0.349058465935585
40
0.373966306332407
40
0.373966306332407
40
0.398874146729228
40
0.398874146729228
40
0.423781987126049
40
0.423781987126049
40
0.44868982752287
40
0.44868982752287
40
0.498505508316512
40
0.498505508316512
40
0.548321189110154
40
0.548321189110154
40
0.573229029506975
40
0.573229029506975
40
0.598136869903796
40
0.598136869903796
40
0.623044710300617
40
0.623044710300617
40
0.647952550697438
40
0.647952550697438
40
0.69776823149108
40
0.69776823149108
40
0.722676071887901
40
0.722676071887901
40
0.747583912284722
40
0.747583912284722
40
0.772491752681543
40
0.772491752681543
40
0.797399593078364
40
0.797399593078364
40
0.847215273872005
40
0.847215273872005
40
0.897030954665646
40
0.897030954665646
40
0.921938795062467
40
0.921938795062467
40
0.946846635459288
40
0.946846635459288
40
0.971754475856109
40
0.971754475856109
40
0.99666231625293
40
0.99666231625293
40
1
40
1
40
1
40
1
41
1
10
55.7075418620077
20
-2.88492108390159
30
2E-16
41
1
10
55.7035157054993
20
-2.88643132630998
30
2E-16
41
1
10
55.6994893871014
20
-2.88794072090127
30
2E-16
41
1
10
55.4078493981866
20
-2.99720544850001
30
2E-16
41
1
10
55.1189499512614
20
-3.10113951306732
30
2E-16
41
1
10
54.5434244972909
20
-3.29691911184648
30
2E-16
41
1
10
54.2564214482959
20
-3.38889378548581
30
2E-16
41
1
10
53.6836881772242
20
-3.56102870788973
30
2E-16
41
1
10
53.3979429362917
20
-3.64117332598056
30
-2E-16
41
1
10
52.8275997123031
20
-3.78955638080399
30
-2E-16
41
1
10
52.542980474568
20
-3.85773340420349
30
-2E-16
41
1
10
51.688779534226
20
-4.04240814559657
30
0
41
1
10
51.1190557229525
20
-4.13949979015825
30
0
41
1
10
49.9777661833152
20
-4.28010610216668
30
0
41
1
10
49.4048777080148
20
-4.32281134579424
30
0
41
1
10
48.5394919431879
20
-4.34378162660923
30
0
41
1
10
48.2509721583991
20
-4.34353634187866
30
0
41
1
10
47.676877790732
20
-4.32863514102652
30
0
41
1
10
47.3905768414909
20
-4.3140140360662
30
0
41
1
10
46.8187972788172
20
-4.2709143001031
30
0
41
1
10
46.5334285758334
20
-4.24240996703819
30
0
41
1
10
45.9633495546346
20
-4.17175276199495
30
0
41
1
10
45.6788441375427
20
-4.1294688321353
30
0
41
1
10
44.8250547384519
20
-3.98279427018826
30
0
41
1
10
44.2551295296205
20
-3.85906995947974
30
-2E-16
41
1
10
43.3977220288158
20
-3.63557318883989
30
-2E-16
41
1
10
43.1116220207188
20
-3.55455616597985
30
2E-16
41
1
10
42.5373415075268
20
-3.38101062280049
30
2E-16
41
1
10
42.2486673805391
20
-3.288333158527
30
2E-16
41
1
10
41.6714981339393
20
-3.09230398788287
30
2E-16
41
1
10
41.383920280729
20
-2.98937673366311
30
2E-16
41
1
10
40.8107265231645
20
-2.77383543461264
30
2E-16
41
1
10
40.5249309117762
20
-2.66148952849386
30
2E-16
41
1
10
39.66830999653
20
-2.31358601393168
30
1E-16
41
1
10
39.0986589285004
20
-2.06657283014292
30
1E-16
41
1
10
37.9601308218926
20
-1.54611271858778
30
1E-16
41
1
10
37.3899447610858
20
-1.27507265309737
30
1E-16
41
1
10
36.5310564866618
20
-0.856532606207196
30
1E-16
41
1
10
36.2443213796884
20
-0.714674751336958
30
0
41
1
10
35.6689671855451
20
-0.428212103190617
30
0
41
1
10
35.3796282168975
20
-0.283578354512514
30
0
41
1
10
34.8035753744998
20
0.0043491419123143
30
0
41
1
10
34.5164695545025
20
0.148034602929329
30
0
41
1
10
33.9437397254939
20
0.434142157237773
30
0
41
1
10
33.6583102105311
20
0.576960692477513
30
0
41
1
10
32.802598992648
20
1.00014357641814
30
-1E-16
41
1
10
32.2328235627632
20
1.27519073538605
30
-1E-16
41
1
10
31.3783484477471
20
1.67550453119435
30
-1E-16
41
1
10
31.0934827688495
20
1.8067394084666
30
-1E-16
41
1
10
30.5224211640904
20
2.06243706531157
30
-1E-16
41
1
10
30.2362735466666
20
2.18700161841176
30
-1E-16
41
1
10
29.6626709556664
20
2.42939436836778
30
-1E-16
41
1
10
29.37517503806
20
2.54714804510982
30
-2E-16
41
1
10
28.7985550165582
20
2.77522299764016
30
-2E-16
41
1
10
28.5097677144763
20
2.88488849850046
30
-2E-16
41
1
10
27.6473149260844
20
3.19647568233674
30
-2E-16
41
1
10
27.0755673660972
20
3.38299068279878
30
-2E-16
41
1
10
25.9354332861352
20
3.71020914330759
30
2E-16
41
1
10
25.3658727106654
20
3.84955410487717
30
0
41
1
10
24.5103809061529
20
4.02060655619238
30
0
41
1
10
24.2252427731036
20
4.07142764354774
30
0
41
1
10
23.6536285602418
20
4.15947232050249
30
0
41
1
10
23.3671050838966
20
4.19669993931734
30
0
41
1
10
22.7923796180938
20
4.25737120868723
30
0
41
1
10
22.503839162299
20
4.28083802062542
30
0
41
1
10
21.926379968565
20
4.31350371700509
30
0
41
1
10
21.6388927333001
20
4.32259831832135
30
0
41
1
10
21.3134968249391
20
4.32475801595211
30
0
41
1
10
21.2750563072096
20
4.3248855873068
30
0
41
1
10
21.2366260822767
20
4.32488569221329
30
0
0
SPLINE
5
F2
100
AcDbEntity
8
1
62
256
6
ByLayer
370
18
48
1
60
0
100
AcDbSpline
70
4
71
3
72
30
73
26
40
0
40
0
40
0
40
0
40
0.0648214308081203
40
0.0648214308081203
40
0.12964286161624
40
0.12964286161624
40
0.25928572323248
40
0.25928572323248
40
0.38892858484872
40
0.38892858484872
40
0.51857144646496
40
0.51857144646496
40
0.583392877273082
40
0.583392877273082
40
0.648214308081203
40
0.648214308081203
40
0.777857169697445
40
0.777857169697445
40
0.842678600505568
40
0.842678600505568
40
0.90750003131369
40
0.90750003131369
40
0.972321462121813
40
0.972321462121813
40
1
40
1
40
1
40
1
41
1
10
60.9533574337854
20
-0.0973903047829765
30
0
41
1
10
60.6528199718384
20
0.0462490178374253
30
0
41
1
10
60.3522992678763
20
0.189884700548276
30
0
41
1
10
59.7507228419326
20
0.475957477555369
30
0
41
1
10
59.4500321956222
20
0.618189769130112
30
0
41
1
10
58.5515911392516
20
1.03888139642174
30
-1E-16
41
1
10
57.9564159888027
20
1.31239897190611
30
-1E-16
41
1
10
56.7681978118661
20
1.83591918541652
30
-1E-16
41
1
10
56.175418460957
20
2.08589188025246
30
-1E-16
41
1
10
54.9871645690745
20
2.5539853442404
30
-2E-16
41
1
10
54.3918351415443
20
2.77207969834174
30
-2E-16
41
1
10
53.4938554418868
20
3.06904317851195
30
-2E-16
41
1
10
53.1931529405293
20
3.16308104906304
30
-2E-16
41
1
10
52.5920162179392
20
3.33876755423705
30
-2E-16
41
1
10
52.2926192386839
20
3.42027515311122
30
-2E-16
41
1
10
51.3957753110535
20
3.64662326689205
30
0
41
1
10
50.8000555572907
20
3.77283526386671
30
0
41
1
10
49.9084226172415
20
3.91998663953461
30
0
41
1
10
49.6115679636104
20
3.9618461644337
30
0
41
1
10
49.0180458583638
20
4.03030297538859
30
0
41
1
10
48.7211160427735
20
4.0575716480875
30
0
41
1
10
48.1260970582951
20
4.09904758203479
30
0
41
1
10
47.8281031184806
20
4.11291774871151
30
0
41
1
10
47.402057257069
20
4.1216467959228
30
0
41
1
10
47.2744574194847
20
4.12290509451313
30
0
41
1
10
47.146710538361
20
4.12284500548807
30
0
0
SPLINE
5
F3
100
AcDbEntity
8
1
62
256
6
ByLayer
370
18
48
1
60
0
100
AcDbSpline
70
4
71
3
72
12
73
8
40
0
40
0
40
0
40
0
40
0.143590826063099
40
0.143590826063099
40
0.429060550708733
40
0.429060550708733
40
1
40
1
40
1
40
1
41
1
10
6.77901599407187
20
-0.206919661253778
30
0
41
1
10
6.62930643706383
20
-0.135996304697898
30
0
41
1
10
6.47958245042858
20
-0.0650592040551317
30
0
41
1
10
6.03194932571543
20
0.146502849833098
30
0
41
1
10
5.73394711038299
20
0.287062021789097
30
0
41
1
10
4.83910771750365
20
0.707522312176451
30
0
41
1
10
4.2414599341453
20
0.986252536249111
30
-1E-16
41
1
10
3.64082083044988
20
1.2593950349173
30
-1E-16
0
SPLINE
5
F4
100
AcDbEntity
8
1
62
256
6
ByLayer
370
18
48
1
60
0
100
AcDbSpline
70
4
71
3
72
10
73
6
40
0
40
0
40
0
40
0
40
0.5
40
0.5
40
1
40
1
40
1
40
1
41
1
10
3.55880353141967
20
-3.53919774844317
30
2E-16
41
1
10
3.5389950067221
20
-3.5416664764096
30
2E-16
41
1
10
3.52479967252512
20
-3.54542506036245
30
2E-16
41
1
10
3.50622236010179
20
-3.55350549214413
30
2E-16
41
1
10
3.50172104885408
20
-3.55792116430118
30
2E-16
41
1
10
3.50172104885408
20
-3.56221154236175
30
2E-16
0
SPLINE
5
F5
100
AcDbEntity
8
1
62
256
6
ByLayer
370
18
48
1
60
0
100
AcDbSpline
70
4
71
3
72
20
73
16
40
0
40
0
40
0
40
0
40
0.499999999999998
40
0.499999999999998
40
0.562499999999997
40
0.562499999999997
40
0.624999999999996
40
0.624999999999996
40
0.749999999999999
40
0.749999999999999
40
0.812499999999998
40
0.812499999999998
40
0.874999999999997
40
0.874999999999997
40
1
40
1
40
1
40
1
41
1
10
61.4888741404124
20
4.17016852919446
30
0
41
1
10
61.6599888576715
20
3.68823151901631
30
0
41
1
10
61.8278544261335
20
3.1995972692261
30
0
41
1
10
62.0221886743574
20
2.65177295171205
30
0
41
1
10
62.0440132528284
20
2.59079503697606
30
0
41
1
10
62.0886051961326
20
2.46999634104728
30
0
41
1
10
62.1112782439801
20
2.41015914885634
30
0
41
1
10
62.180659546304
20
2.23238905309549
30
0
41
1
10
62.2287259995972
20
2.1161883204002
30
0
41
1
10
62.3045068916189
20
1.94574742418203
30
0
41
1
10
62.3303802629347
20
1.88957757191264
30
0
41
1
10
62.3835036278422
20
1.77858925506638
30
0
41
1
10
62.4108586474984
20
1.72357256206675
30
0
41
1
10
62.4942126602369
20
1.56248654571303
30
0
41
1
10
62.5515346311333
20
1.46025006609597
30
0
41
1
10
62.6107982173645
20
1.36275349599066
30
0
0
SPLINE
5
F6
100
AcDbEntity
8
1
62
256
6
ByLayer
370
18
48
1
60
0
100
AcDbSpline
70
4
71
3
72
30
73
26
40
0
40
0
40
0
40
0
40
0.0366754042816183
40
0.0366754042816183
40
0.257988839038006
40
0.257988839038006
40
0.313317197727102
40
0.313317197727102
40
0.340981377071653
40
0.354813466743928
40
0.361729511580064
40
0.361729511580064
40
0.368645556416199
40
0.368645556416199
40
0.38247764608847
40
0.38247764608847
40
0.39630973576074
40
0.39630973576074
40
0.423973915105287
40
0.423973915105287
40
0.479302273794386
40
0.479302273794386
40
0.921929143307171
40
0.921929143307171
40
1
40
1
40
1
40
1
41
1
10
3.32632608303752
20
-4.31371191514077
30
0
41
1
10
3.36233860841878
20
-4.31368135678994
30
0
41
1
10
3.39864441388562
20
-4.31336603006409
30
0
41
1
10
3.65591935765116
20
-4.30934547358393
30
0
41
1
10
3.88712992659677
20
-4.29628807599514
30
0
41
1
10
4.18353228683893
20
-4.27195118793694
30
0
41
1
10
4.24317825642066
20
-4.26667746799112
30
0
41
1
10
4.3331190150378
20
-4.2582145449164
30
0
41
1
10
4.37820995491037
20
-4.25384466796049
30
0
41
1
10
4.43101252249147
20
-4.24851560990939
30
0
41
1
10
4.45368337145197
20
-4.24618336076281
30
0
41
1
10
4.46880629299559
20
-4.24461790325344
30
0
41
1
10
4.47635127386044
20
-4.24381221809628
30
0
41
1
10
4.50055132318766
20
-4.24200587057143
30
0
41
1
10
4.51798304083383
20
-4.24151785669619
30
0
41
1
10
4.55275362255529
20
-4.24151363738085
30
0
41
1
10
4.56978234666994
20
-4.24200950473539
30
0
41
1
10
4.62016821560269
20
-4.24444673849959
30
0
41
1
10
4.65348929123283
20
-4.24629057718548
30
0
41
1
10
4.75368966076692
20
-4.25145666620483
30
0
41
1
10
4.82036271063171
20
-4.25484563170872
30
0
41
1
10
5.41928056833456
20
-4.2846830880548
30
0
41
1
10
5.94333500124091
20
-4.30651663491759
30
0
41
1
10
6.54803634083362
20
-4.31473206467331
30
0
41
1
10
6.63839156993856
20
-4.31549663530137
30
0
41
1
10
6.72845707621667
20
-4.31574674951426
30
0
0
SPLINE
5
F7
100
AcDbEntity
8
1
62
256
6
ByLayer
370
18
48
1
60
0
100
AcDbSpline
70
4
71
3
72
8
73
4
40
0
40
0
40
0
40
0
40
1
40
1
40
1
40
1
41
1
10
61.4469586198627
20
-4.10617651414634
30
0
41
1
10
61.4404982756684
20
-4.12495129831757
30
0
41
1
10
61.4340646989514
20
-4.14372605868746
30
0
41
1
10
61.4276584143925
20
-4.16250093790168
30
0
0
SPLINE
5
F8
100
AcDbEntity
8
1
62
256
6
ByLayer
370
18
48
1
60
0
100
AcDbSpline
70
4
71
3
72
8
73
4
40
0
40
0
40
0
40
0
40
1
40
1
40
1
40
1
41
1
10
3.64082083044991
20
1.2593950349173
30
-1E-16
41
1
10
3.62879637186174
20
1.2648631948218
30
-1E-16
41
1
10
3.61577597028779
20
1.26769685923284
30
-1E-16
41
1
10
3.60243801020312
20
1.26775791456589
30
-1E-16
0
SPLINE
5
F9
100
AcDbEntity
8
1
62
256
6
ByLayer
370
18
48
1
60
0
100
AcDbSpline
70
4
71
3
72
8
73
4
40
0
40
0
40
0
40
0
40
1
40
1
40
1
40
1
41
1
10
62.6107982173645
20
1.36275349599063
30
0
41
1
10
62.7427888779491
20
0.989841914928718
30
0
41
1
10
62.8712038157283
20
0.615650809325388
30
0
41
1
10
62.9959885779288
20
0.240160693984535
30
0
0
SPLINE
5
FA
100
AcDbEntity
8
1
62
256
6
ByLayer
370
18
48
1
60
0
100
AcDbSpline
70
4
71
3
72
8
73
4
40
0
40
0
40
0
40
0
40
1
40
1
40
1
40
1
41
1
10
62.6107982173646
20
-1.36275349599063
30
0
41
1
10
62.7427888779506
20
-0.989841914924682
30
0
41
1
10
62.8712038157312
20
-0.615650809317231
30
0
41
1
10
62.9959885779329
20
-0.240160693972285
30
0
0
SPLINE
5
FB
100
AcDbEntity
8
1
62
256
6
ByLayer
370
18
48
1
60
0
100
AcDbSpline
70
4
71
3
72
20
73
16
40
0
40
0
40
0
40
0
40
0.500000000000015
40
0.500000000000015
40
0.562500000000016
40
0.562500000000016
40
0.625000000000017
40
0.625000000000017
40
0.750000000000013
40
0.750000000000013
40
0.812500000000011
40
0.812500000000011
40
0.87500000000001
40
0.87500000000001
40
1
40
1
40
1
40
1
41
1
10
61.4888741404124
20
-4.17016852919446
30
0
41
1
10
61.6599888576715
20
-3.68823151901646
30
0
41
1
10
61.8278544261336
20
-3.19959726922644
30
0
41
1
10
62.0221886743572
20
-2.65177295171253
30
0
41
1
10
62.0440132528283
20
-2.59079503697654
30
0
41
1
10
62.0886051961326
20
-2.46999634104748
30
0
41
1
10
62.11127824398
20
-2.41015914885645
30
0
41
1
10
62.180659546304
20
-2.23238905309538
30
0
41
1
10
62.2287259995972
20
-2.11618832040006
30
0
41
1
10
62.3045068916189
20
-1.94574742418206
30
0
41
1
10
62.3303802629347
20
-1.88957757191275
30
0
41
1
10
62.3835036278421
20
-1.77858925506672
30
0
41
1
10
62.4108586474981
20
-1.72357256206715
30
0
41
1
10
62.4942126602368
20
-1.56248654571311
30
0
41
1
10
62.5515346311333
20
-1.46025006609599
30
0
41
1
10
62.6107982173645
20
-1.36275349599066
30
0
0
SPLINE
5
FC
100
AcDbEntity
8
1
62
256
6
ByLayer
370
18
48
1
60
0
100
AcDbSpline
70
4
71
3
72
10
73
6
40
0
40
0
40
0
40
0
40
0.5
40
0.5
40
1
40
1
40
1
40
1
41
1
10
3.50172104885411
20
1.24893350856863
30
-1E-16
41
1
10
3.50172104885411
20
1.28177686560937
30
-1E-16
41
1
10
3.52015734394436
20
1.31316420273495
30
-1E-16
41
1
10
3.57854569295333
20
1.34731963296039
30
-1E-16
41
1
10
3.61621337431055
20
1.34883235575529
30
-1E-16
41
1
10
3.64683593805643
20
1.33411689987472
30
-1E-16
0
SPLINE
5
FD
100
AcDbEntity
8
1
62
256
6
ByLayer
370
18
48
1
60
0
100
AcDbSpline
70
4
71
3
72
8
73
4
40
0
40
0
40
0
40
0
40
1
40
1
40
1
40
1
41
1
10
60.8433545569673
20
-0.0355537363103053
30
0
41
1
10
60.8784358292963
20
-0.0526431458803529
30
0
41
1
10
60.9132969089785
20
-0.0687760487244304
30
0
41
1
10
60.9479779438011
20
-0.083977042870174
30
0
0
SPLINE
5
FE
100
AcDbEntity
8
1
62
256
6
ByLayer
370
18
48
1
60
0
100
AcDbSpline
70
4
71
3
72
10
73
6
40
0
40
0
40
0
40
0
40
0.784621877287876
40
0.784621877287876
40
1
40
1
40
1
40
1
41
1
10
3.60187733498
20
-3.52786145033656
30
2E-16
41
1
10
4.81791572568221
20
-3.82175146278638
30
0
41
1
10
6.01779988851413
20
-4.00544704071456
30
0
41
1
10
7.5514037123088
20
-4.08973701655887
30
0
41
1
10
7.88195662120526
20
-4.09905496863226
30
0
41
1
10
8.21314125815746
20
-4.09938065442972
30
0
0
SPLINE
5
FF
100
AcDbEntity
8
1
62
256
6
ByLayer
370
18
48
1
60
0
100
AcDbSpline
70
4
71
3
72
22
73
18
40
0
40
0
40
0
40
0
40
0.159074781279893
40
0.159074781279893
40
0.299228984399911
40
0.299228984399911
40
0.36930608595992
40
0.36930608595992
40
0.439383187519929
40
0.439383187519929
40
0.719691593759964
40
0.719691593759964
40
0.859845796879984
40
0.859845796879984
40
0.929922898439992
40
0.929922898439992
40
1
40
1
40
1
40
1
41
1
10
48.559777398114
20
0.218491996073738
30
0
41
1
10
49.2407680941416
20
-0.105463400437031
30
0
41
1
10
49.9198612879416
20
-0.430665329782755
30
0
41
1
10
51.2002624132298
20
-1.0306206916695
30
1E-16
41
1
10
51.8011008463016
20
-1.30702402231529
30
1E-16
41
1
10
52.7076867132143
20
-1.70689544271789
30
1E-16
41
1
10
53.0114877556834
20
-1.8380150420308
30
1E-16
41
1
10
53.6177773434479
20
-2.09239504152282
30
1E-16
41
1
10
53.9198804376966
20
-2.21552633949457
30
1E-16
41
1
10
55.4265820889519
20
-2.80860635501841
30
2E-16
41
1
10
56.6202401070406
20
-3.21045427372221
30
2E-16
41
1
10
58.4210180370581
20
-3.66338652296412
30
0
41
1
10
59.0230192623619
20
-3.78959114777234
30
0
41
1
10
59.9322112880243
20
-3.9370255688207
30
0
41
1
10
60.2361590224304
20
-3.97912497917235
30
0
41
1
10
60.8428927105317
20
-4.04827825873914
30
0
41
1
10
61.146128264736
20
-4.07492684177203
30
0
41
1
10
61.4495495504148
20
-4.09495976128562
30
0
0
SPLINE
5
100
100
AcDbEntity
8
1
62
256
6
ByLayer
370
18
48
1
60
0
100
AcDbSpline
70
4
71
3
72
12
73
8
40
0
40
0
40
0
40
0
40
0.500000000000007
40
0.500000000000007
40
0.750000000000005
40
0.750000000000005
40
1
40
1
40
1
40
1
41
1
10
3.50172104885411
20
1.21281427950908
30
-1E-16
41
1
10
3.50172104885408
20
1.22561971168355
30
-1E-16
41
1
10
3.50945085546354
20
1.23842000100655
30
-1E-16
41
1
10
3.53479673138312
20
1.25434646151393
30
-1E-16
41
1
10
3.54556133227661
20
1.25903424252084
30
-1E-16
41
1
10
3.57162155116484
20
1.26582826456089
30
-1E-16
41
1
10
3.58680291061518
20
1.26781893547718
30
-1E-16
41
1
10
3.60243801020312
20
1.26775791456589
30
-1E-16
0
SPLINE
5
101
100
AcDbEntity
8
1
62
256
6
ByLayer
370
18
48
1
60
0
100
AcDbSpline
70
4
71
3
72
28
73
24
40
0
40
0
40
0
40
0
40
0.125
40
0.125
40
0.1875
40
0.1875
40
0.25
40
0.25
40
0.375
40
0.375
40
0.4375
40
0.4375
40
0.5
40
0.5
40
0.625
40
0.625
40
0.6875
40
0.6875
40
0.75
40
0.75
40
0.875
40
0.875
40
1
40
1
40
1
40
1
41
1
10
60.9533574337893
20
-0.097390304782607
30
0
41
1
10
60.9629841918943
20
-0.343609382612158
30
0
41
1
10
60.9825624159306
20
-0.584768759073199
30
0
41
1
10
61.0197393929403
20
-0.939931768733743
30
1E-16
41
1
10
61.0334607777852
20
-1.05721382596082
30
1E-16
41
1
10
61.062627944498
20
-1.28963228364879
30
1E-16
41
1
10
61.0781484977373
20
-1.40528958154232
30
1E-16
41
1
10
61.1254908738607
20
-1.74497331377012
30
1E-16
41
1
10
61.1578089330878
20
-1.96064488139584
30
1E-16
41
1
10
61.2035775689795
20
-2.26883936850808
30
1E-16
41
1
10
61.2184027504834
20
-2.36899942250145
30
1E-16
41
1
10
61.2467653254825
20
-2.56409578338111
30
2E-16
41
1
10
61.2603485275269
20
-2.65938516621867
30
2E-16
41
1
10
61.2980456281942
20
-2.93204781992037
30
2E-16
41
1
10
61.3192599823288
20
-3.09779224790555
30
2E-16
41
1
10
61.3456827153168
20
-3.32266429560002
30
2E-16
41
1
10
61.3536083309533
20
-3.39364037203714
30
2E-16
41
1
10
61.3680058012968
20
-3.52738923638793
30
2E-16
41
1
10
61.37447863861
20
-3.59018861029162
30
2E-16
41
1
10
61.3921274051779
20
-3.7623792714937
30
0
41
1
10
61.4016305711849
20
-3.85710935032327
30
0
41
1
10
61.422302745731
20
-4.00681875307043
30
0
41
1
10
61.4335566648353
20
-4.06186950584078
30
0
41
1
10
61.4495495504137
20
-4.09495976128562
30
0
0
SPLINE
5
102
100
AcDbEntity
8
SK1
62
256
6
ByLayer
370
18
48
1
60
0
100
AcDbSpline
70
4
71
3
72
12
73
8
40
0
40
0
40
0
40
0
40
0.5
40
0.5
40
0.75
40
0.75
40
1
40
1
40
1
40
1
41
1
10
-40.0000000000001
20
-3.21589469249324
30
0
41
1
10
-39.9123015823215
20
-3.34976521661142
30
0
41
1
10
-39.8274378507374
20
-3.47930275363726
30
0
41
1
10
-39.7059807717948
20
-3.66547203058255
30
0
41
1
10
-39.6664759830087
20
-3.72616030802064
30
0
41
1
10
-39.589878798846
20
-3.84427169298914
30
0
41
1
10
-39.5527407465257
20
-3.90176896872936
30
0
41
1
10
-39.5179491924311
20
-3.95596638155771
30
0
0
SPLINE
5
103
100
AcDbEntity
8
SK1
62
256
6
ByLayer
370
18
48
1
60
0
100
AcDbSpline
70
4
71
3
72
12
73
8
40
0
40
0
40
0
40
0
40
0.5
40
0.5
40
0.75
40
0.75
40
1
40
1
40
1
40
1
41
1
10
-39.35
20
4.2425847570905
30
0
41
1
10
-39.3264103729719
20
4.26679671673605
30
0
41
1
10
-39.3036886178189
20
4.29157471462602
30
0
41
1
10
-39.275599229617
20
4.32446669813842
30
0
41
1
10
-39.2670477807071
20
4.33495635227274
30
0
41
1
10
-39.2542670006876
20
4.35215299764911
30
0
41
1
10
-39.25
20
4.35896499467003
30
0
41
1
10
-39.25
20
4.36148038705676
30
0
0
SPLINE
5
104
100
AcDbEntity
8
SK1
62
256
6
ByLayer
370
18
48
1
60
0
100
AcDbSpline
70
4
71
3
72
12
73
8
40
0
40
0
40
0
40
0
40
0.25
40
0.25
40
0.499999999999999
40
0.499999999999999
40
1
40
1
40
1
40
1
41
1
10
-39.25
20
-4.25884518849668
30
0
41
1
10
-39.25
20
-4.25442682678857
30
0
41
1
10
-39.254235624227
20
-4.24589934277049
30
0
41
1
10
-39.2670201311554
20
-4.2257869367526
30
0
41
1
10
-39.2754786511825
20
-4.2142398825377
30
0
41
1
10
-39.3037388067419
20
-4.17837740700332
30
0
41
1
10
-39.3264172660865
20
-4.15275053225875
30
0
41
1
10
-39.35
20
-4.12854564757927
30
0
0
SPLINE
5
105
100
AcDbEntity
8
SK1
62
256
6
ByLayer
370
18
48
1
60
0
100
AcDbSpline
70
4
71
3
72
10
73
6
40
0
40
0
40
0
40
0
40
0.5
40
0.5
40
1
40
1
40
1
40
1
41
1
10
-39.5179491924311
20
-4.07000549106891
30
0
41
1
10
-39.5876702969376
20
-3.97516711755597
30
0
41
1
10
-39.6641392526985
20
-3.86928923473562
30
0
41
1
10
-39.8261142497238
20
-3.64210322064807
30
0
41
1
10
-39.9120447599511
20
-3.52017005843595
30
0
41
1
10
-40
20
-3.39393819515249
30
0
0
SPLINE
5
106
100
AcDbEntity
8
SK1
62
256
6
ByLayer
370
18
48
1
60
0
100
AcDbSpline
70
4
71
3
72
8
73
4
40
0
40
0
40
0
40
0
40
1
40
1
40
1
40
1
41
1
10
-39.5179491924311
20
-4.07000549106891
30
0
41
1
10
-39.4620006705012
20
-4.12756566668037
30
0
41
1
10
-39.4060162221868
20
-4.18509073611796
30
0
41
1
10
-39.35
20
-4.24258475709047
30
0
0
SPLINE
5
107
100
AcDbEntity
8
SK1
62
256
6
ByLayer
370
18
48
1
60
0
100
AcDbSpline
70
4
71
3
72
8
73
4
40
0
40
0
40
0
40
0
40
1
40
1
40
1
40
1
41
1
10
-39.5179491924311
20
4.07000549106891
30
0
41
1
10
-39.4620006705012
20
4.12756566668037
30
0
41
1
10
-39.4060162221868
20
4.18509073611796
30
0
41
1
10
-39.35
20
4.24258475709047
30
0
0
SPLINE
5
108
100
AcDbEntity
8
SK1
62
256
6
ByLayer
370
18
48
1
60
0
100
AcDbSpline
70
4
71
3
72
12
73
8
40
0
40
0
40
0
40
0
40
0.5
40
0.5
40
0.75
40
0.75
40
1
40
1
40
1
40
1
41
1
10
-39.35
20
-4.2425847570905
30
0
41
1
10
-39.3264103729719
20
-4.26679671673605
30
0
41
1
10
-39.3036886178189
20
-4.29157471462602
30
0
41
1
10
-39.275599229617
20
-4.32446669813842
30
0
41
1
10
-39.2670477807071
20
-4.33495635227274
30
0
41
1
10
-39.2542670006876
20
-4.35215299764911
30
0
41
1
10
-39.25
20
-4.35896499467003
30
0
41
1
10
-39.25
20
-4.36148038705676
30
0
0
SPLINE
5
109
100
AcDbEntity
8
SK1
62
256
6
ByLayer
370
18
48
1
60
0
100
AcDbSpline
70
4
71
3
72
10
73
6
40
0
40
0
40
0
40
0
40
0.5
40
0.5
40
1
40
1
40
1
40
1
41
1
10
-39.5179491924311
20
4.07000549106891
30
0
41
1
10
-39.5876702969376
20
3.975167117556
30
0
41
1
10
-39.6641392526984
20
3.86928923473562
30
0
41
1
10
-39.8261142497238
20
3.64210322064807
30
0
41
1
10
-39.9120447599511
20
3.52017005843595
30
0
41
1
10
-40
20
3.39393819515249
30
0
0
SPLINE
5
10A
100
AcDbEntity
8
SK1
62
256
6
ByLayer
370
18
48
1
60
0
100
AcDbSpline
70
4
71
3
72
8
73
4
40
0
40
0
40
0
40
0
40
1
40
1
40
1
40
1
41
1
10
-39.35
20
-4.12854564757924
30
0
41
1
10
-39.4060167433372
20
-4.0710510917076
30
0
41
1
10
-39.4620012127403
20
-4.01352599931028
30
0
41
1
10
-39.5179491924311
20
-3.95596638155771
30
0
0
SPLINE
5
10B
100
AcDbEntity
8
1
62
256
6
ByLayer
370
18
48
1
60
0
100
AcDbSpline
70
4
71
3
72
12
73
8
40
0
40
0
40
0
40
0
40
0.0727580652610485
40
0.229792649910142
40
0.440677808257828
40
0.705449369927509
40
1
40
1
40
1
40
1
41
1
10
61.7331869798006
20
0.729228418578174
30
0
41
1
10
61.600749079405
20
0.770336573757447
30
0
41
1
10
61.1827693214812
20
0.901483066271993
30
-1E-16
41
1
10
60.3825241932128
20
1.16176230938424
30
-1E-16
41
1
10
59.2394475384195
20
1.55099683547945
30
-1E-16
41
1
10
57.8561701752489
20
2.0500321957993
30
-1E-16
41
1
10
56.8599352153719
20
2.43443425194568
30
-1E-16
41
1
10
56.3374865383301
20
2.6429275172558
30
-2E-16
0
SPLINE
5
10C
100
AcDbEntity
8
1
62
256
6
ByLayer
370
18
48
1
60
0
100
AcDbSpline
70
4
71
3
72
28
73
24
40
0
40
0
40
0
40
0
40
1.10379395847E-05
40
3.72333071416E-05
40
6.12632972075E-05
40
8.40558009064E-05
40
0.0001061005080071
40
0.0001478558617391
40
0.0008403277782387
40
0.0013870375069033
40
0.0023706821636612
40
0.0041507167574294
40
0.0074043887984836
40
0.0134539137689823
40
0.0250205219386452
40
0.04684745318283
40
0.0867117872702059
40
0.160662945075281
40
0.297145770404528
40
0.411957631718834
40
0.57035685020768
40
0.774445570287295
40
1
40
1
40
1
40
1
41
1
10
36.5674690063383
20
0.126842936116873
30
0
41
1
10
36.5674776929469
20
0.126842143400665
30
0
41
1
10
36.5675031170029
20
0.126840598862032
30
0
41
1
10
36.5675215211903
20
0.126844761439742
30
0
41
1
10
36.5674975197975
20
0.126862233516931
30
0
41
1
10
36.5674343448621
20
0.126889121134553
30
0
41
1
10
36.5673147228399
20
0.126932752464967
30
0
41
1
10
36.5657585798691
20
0.127426818288598
30
0
41
1
10
36.5622459085316
20
0.128387063833145
30
0
41
1
10
36.5568817802983
20
0.129948480928022
30
0
41
1
10
36.5486367661197
20
0.132310355181147
30
0
41
1
10
36.5338075215104
20
0.136580265459997
30
0
41
1
10
36.5063897360262
20
0.14445779898503
30
0
41
1
10
36.4548145463867
20
0.159278054386903
30
0
41
1
10
36.3572919133798
20
0.187284805833514
30
0
41
1
10
36.1759999616034
20
0.239311572056522
30
0
41
1
10
35.8391687895968
20
0.336193807049853
30
0
41
1
10
35.2124189144586
20
0.520280355996874
30
0
41
1
10
34.3999161217658
20
0.769288476643851
30
0
41
1
10
33.3810846807923
20
1.09643291543094
30
-1E-16
41
1
10
32.2000255986484
20
1.49481001439506
30
-1E-16
41
1
10
30.7544622813712
20
2.01259167329562
30
-1E-16
41
1
10
29.7080199056458
20
2.41569959943433
30
-1E-16
41
1
10
29.1612084655817
20
2.63403055513541
30
-2E-16
0
SPLINE
5
10D
100
AcDbEntity
8
1
62
256
6
ByLayer
370
18
48
1
60
0
100
AcDbSpline
70
4
71
3
72
20
73
16
40
0
40
0
40
0
40
0
40
0.0956680097812377
40
0.164286959151476
40
0.207520678214373
40
0.248586447457972
40
0.294963400542952
40
0.345546553287888
40
0.395857415311054
40
0.528863800142384
40
0.64321208766035
40
0.740308333800468
40
0.857844397823393
40
0.972736735287108
40
1
40
1
40
1
40
1
41
1
10
35.393937068669
20
-4.11642322893573
30
0
41
1
10
35.6834534828953
20
-4.1166313727787
30
0
41
1
10
36.1806248961655
20
-4.11698100569663
30
0
41
1
10
36.8085925252355
20
-4.11736039015335
30
0
41
1
10
37.2713639839698
20
-4.11768590566783
30
0
41
1
10
37.6668086231455
20
-4.11790696084987
30
0
41
1
10
38.0844929012341
20
-4.11801368737832
30
0
41
1
10
38.5301620903759
20
-4.11834067082634
30
0
41
1
10
39.2378972895429
20
-4.11911007990125
30
0
41
1
10
40.1384484491064
20
-4.11857857516205
30
0
41
1
10
41.1799825019606
20
-4.12002566065664
30
0
41
1
10
42.1756957863972
20
-4.12034537326201
30
0
41
1
10
43.1728602632875
20
-4.12061254825718
30
0
41
1
10
43.9587533771794
20
-4.12156424389121
30
0
41
1
10
44.3889467559679
20
-4.12173201180426
30
0
41
1
10
44.4714511982638
20
-4.12174636745615
30
0
0
SPLINE
5
10E
100
AcDbEntity
8
1
62
256
6
ByLayer
370
18
48
1
60
0
100
AcDbSpline
70
4
71
3
72
20
73
16
40
0
40
0
40
0
40
0
40
0.0957837879519164
40
0.164531251629912
40
0.207971139371844
40
0.249314929667299
40
0.296028737232706
40
0.346955815510576
40
0.397541458382508
40
0.531020046995902
40
0.645758659966594
40
0.743585900662879
40
0.862015763716071
40
0.97734268943977
40
1
40
1
40
1
40
1
41
1
10
19.9640692667584
20
4.10868004225466
30
0
41
1
10
19.6750726556842
20
4.10828728709728
30
0
41
1
10
19.1786557244469
20
4.10780393005956
30
0
41
1
10
18.5511829254167
20
4.10739100622919
30
0
41
1
10
18.0879616369258
20
4.10755702176482
30
0
41
1
10
17.6912480909398
20
4.10708409405925
30
0
41
1
10
17.2719091981711
20
4.10649775246603
30
0
41
1
10
16.8246859776619
20
4.10631607764168
30
0
41
1
10
16.1156807928164
20
4.10605755408059
30
0
41
1
10
15.2141532081957
20
4.10483363284629
30
0
41
1
10
14.1700655388675
20
4.10445049660421
30
0
41
1
10
13.1714589374919
20
4.10351222265027
30
0
41
1
10
12.1708882596047
20
4.10273561238583
30
0
41
1
10
11.39760107743
20
4.10223035240918
30
0
41
1
10
10.9815130614548
20
4.10176749954295
30
0
41
1
10
10.9131833169854
20
4.10168998862892
30
0
0
SPLINE
5
10F
100
AcDbEntity
8
1
62
256
6
ByLayer
370
18
48
1
60
0
100
AcDbSpline
70
4
71
3
72
20
73
16
40
0
40
0
40
0
40
0
40
0.100096878107361
40
0.171556179337087
40
0.215962619464365
40
0.255650922743028
40
0.299041194127392
40
0.345900224809742
40
0.394791079652252
40
0.535177190865968
40
0.652165084321656
40
0.747851747997859
40
0.857866782227557
40
0.975040733240458
40
1
40
1
40
1
40
1
41
1
10
8.18947805936421
20
-4.09938152948828
30
0
41
1
10
8.49294142438831
20
-4.09970817956543
30
0
41
1
10
9.01289571821528
20
-4.10019388557905
30
0
41
1
10
9.66772626562431
20
-4.10070211980175
30
0
41
1
10
10.1385093721105
20
-4.10092408178573
30
0
41
1
10
10.5248940265906
20
-4.10122132732064
30
0
41
1
10
10.9188651602772
20
-4.10172866282198
30
0
41
1
10
11.3401925725152
20
-4.10212417456952
30
0
41
1
10
12.0557467360611
20
-4.10252287259138
30
0
41
1
10
12.9842638763644
20
-4.10354496353975
30
0
41
1
10
14.0544731962915
20
-4.10428199933065
30
0
41
1
10
15.0326830905226
20
-4.10494718250135
30
0
41
1
10
16.0114414883682
20
-4.10577019241128
30
0
41
1
10
16.7757996784787
20
-4.10617950110097
30
0
41
1
10
17.2066637353572
20
-4.10653388343476
30
0
41
1
10
17.2823251010281
20
-4.10660378144163
30
0
0
SPLINE
5
110
100
AcDbEntity
8
1
62
256
6
ByLayer
370
18
48
1
60
0
100
AcDbSpline
70
4
71
3
72
20
73
16
40
0
40
0
40
0
40
0
40
0.101810346756159
40
0.173986859951166
40
0.218051179100674
40
0.257790317335119
40
0.301280056645948
40
0.348200268212765
40
0.397116471018389
40
0.537231171755312
40
0.653802562469915
40
0.749572594261753
40
0.859705951147636
40
0.97675847552999
40
1
40
1
40
1
40
1
41
1
10
47.1705570131545
20
4.12283333512045
30
0
41
1
10
46.862332966169
20
4.12321507272682
30
0
41
1
10
46.3355935161044
20
4.12341966204283
30
0
41
1
10
45.675425248016
20
4.12233666901835
30
0
41
1
10
45.2031919199864
20
4.1215418561994
30
0
41
1
10
44.8178035206084
20
4.12169210865204
30
0
41
1
10
44.4237687367423
20
4.12187357159269
30
0
41
1
10
44.0019515083658
20
4.12138413117415
30
0
41
1
10
43.2875860083187
20
4.12011581736121
30
0
41
1
10
42.3624550605123
20
4.12101942251988
30
0
41
1
10
41.2950384770064
20
4.11994774905884
30
0
41
1
10
40.3198670135568
20
4.11903748405564
30
0
41
1
10
39.3420545687086
20
4.11903913046055
30
0
41
1
10
38.5840853576224
20
4.11828568098016
30
0
41
1
10
38.1593517635479
20
4.11808895316688
30
0
41
1
10
38.0889879191396
20
4.11805911217729
30
0
0
SPLINE
5
111
100
AcDbEntity
8
1
62
256
6
ByLayer
370
18
48
1
60
0
100
AcDbSpline
70
4
71
2
72
6
73
3
40
0
40
0
40
0
40
1
40
1
40
1
41
1
10
48.9962665067843
20
-0.000631143323659
30
0
41
1
10
48.9962446080712
20
-0.0006240421038797
30
0
41
1
10
48.9962227092986
20
-0.0006164026897864
30
0
0
LINE
5
84
100
AcDbEntity
8
1
62
256
6
ByLayer
370
18
48
1
60
0
100
AcDbLine
10
19.5
20
0.535243
30
0
11
19.5
21
0.474919
31
0
39
0
210
0
220
0
230
1
0
LINE
5
85
100
AcDbEntity
8
1
62
256
6
ByLayer
370
18
48
1
60
0
100
AcDbLine
10
62.939339
20
0.052367
30
0
11
61.884546
21
1.216675
31
0
39
0
210
0
220
0
230
1
0
LINE
5
86
100
AcDbEntity
8
1
62
256
6
ByLayer
370
18
48
1
60
0
100
AcDbLine
10
3.501721
20
-3.663143
30
0
11
3.501721
21
1.248934
31
0
39
0
210
0
220
0
230
1
0
LINE
5
87
100
AcDbEntity
8
1
62
256
6
ByLayer
370
18
48
1
60
0
100
AcDbLine
10
0
20
5
30
0
11
0
21
0
31
0
39
0
210
0
220
0
230
1
0
LINE
5
88
100
AcDbEntity
8
1
62
256
6
ByLayer
370
18
48
1
60
0
100
AcDbLine
10
0
20
0
30
0
11
0
21
-5
31
0
39
0
210
0
220
0
230
1
0
LINE
5
89
100
AcDbEntity
8
1
62
256
6
ByLayer
370
18
48
1
60
0
100
AcDbLine
10
1.31483
20
4.312435
30
0
11
1.31483
21
0
31
0
39
0
210
0
220
0
230
1
0
LINE
5
8A
100
AcDbEntity
8
1
62
256
6
ByLayer
370
18
48
1
60
0
100
AcDbLine
10
1.31483
20
0
30
0
11
1.31483
21
-4.312435
31
0
39
0
210
0
220
0
230
1
0
LINE
5
8B
100
AcDbEntity
8
1
62
256
6
ByLayer
370
18
48
1
60
0
100
AcDbLine
10
0.657165
20
4.656218
30
0
11
0.657165
21
0
31
0
39
0
210
0
220
0
230
1
0
LINE
5
8C
100
AcDbEntity
8
1
62
256
6
ByLayer
370
18
48
1
60
0
100
AcDbLine
10
0.657165
20
0
30
0
11
0.657165
21
-4.656218
31
0
39
0
210
0
220
0
230
1
0
LINE
5
8D
100
AcDbEntity
8
SK1
62
256
6
ByLayer
370
18
48
1
60
0
100
AcDbLine
10
-39.25
20
4.41
30
0
11
-39.25
21
4.36148
31
0
39
0
210
0
220
0
230
1
0
LINE
5
8F
100
AcDbEntity
8
SK1
62
256
6
ByLayer
370
18
48
1
60
0
100
AcDbLine
10
-40
20
3.393938
30
0
11
-40
21
-3.215895
31
0
39
0
210
0
220
0
230
1
0
LINE
5
90
100
AcDbEntity
8
SK1
62
256
6
ByLayer
370
18
48
1
60
0
100
AcDbLine
10
-39.35
20
-4.242585
30
0
11
-39.35
21
-4.128528
31
0
39
0
210
0
220
0
230
1
0
LINE
5
91
100
AcDbEntity
8
SK1
62
256
6
ByLayer
370
18
48
1
60
0
100
AcDbLine
10
0
20
5
30
0
11
0
21
-5
31
0
39
0
210
0
220
0
230
1
0
LINE
5
92
100
AcDbEntity
8
SK1
62
256
6
ByLayer
370
18
48
1
60
0
100
AcDbLine
10
-38.66
20
-5
30
0
11
-38.66
21
5
31
0
39
0
210
0
220
0
230
1
0
LINE
5
93
100
AcDbEntity
8
SK1
62
256
6
ByLayer
370
18
48
1
60
0
100
AcDbLine
10
-39.25
20
-4.41
30
0
11
-39.25
21
-4.258845
31
0
39
0
210
0
220
0
230
1
0
LINE
5
94
100
AcDbEntity
8
SK1
62
256
6
ByLayer
370
18
48
1
60
0
100
AcDbLine
10
-39.517949
20
-4.070005
30
0
11
-39.517949
21
-3.955886
31
0
39
0
210
0
220
0
230
1
0
LINE
5
95
100
AcDbEntity
8
SK1
62
256
6
ByLayer
370
18
48
1
60
0
100
AcDbLine
10
-40
20
-3.393938
30
0
11
-40
21
-3.215886
31
0
39
0
210
0
220
0
230
1
0
LINE
5
96
100
AcDbEntity
8
1
62
256
6
ByLayer
370
18
48
1
60
0
100
AcDbLine
10
47.170802
20
-4.341095
30
0
11
48.399369
21
-4.341863
31
0
39
0
210
0
220
0
230
1
0
LINE
5
97
100
AcDbEntity
8
1
62
256
6
ByLayer
370
18
48
1
60
0
100
AcDbLine
10
48.399369
20
4.341863
30
0
11
47.170802
21
4.341095
31
0
39
0
210
0
220
0
230
1
0
LINE
5
98
100
AcDbEntity
8
SK1
62
256
6
ByLayer
370
18
48
1
60
0
100
AcDbLine
10
-39.25
20
-4.41
30
0
11
-38.66
21
-5
31
0
39
0
210
0
220
0
230
1
0
LINE
5
99
100
AcDbEntity
8
SK1
62
256
6
ByLayer
370
18
48
1
60
0
100
AcDbLine
10
-38.66
20
5
30
0
11
-39.25
21
4.41
31
0
39
0
210
0
220
0
230
1
0
LINE
5
9A
100
AcDbEntity
8
SK1
62
256
6
ByLayer
370
18
48
1
60
0
100
AcDbLine
10
-38.66
20
-5
30
0
11
0
21
-5
31
0
39
0
210
0
220
0
230
1
0
LINE
5
9B
100
AcDbEntity
8
SK1
62
256
6
ByLayer
370
18
48
1
60
0
100
AcDbLine
10
0
20
5
30
0
11
-38.66
21
5
31
0
39
0
210
0
220
0
230
1
0
LINE
5
9C
100
AcDbEntity
8
1
62
256
6
ByLayer
370
18
48
1
60
0
100
AcDbLine
10
1.31483
20
-4.312435
30
0
11
3.322317
21
-4.31369
31
0
39
0
210
0
220
0
230
1
0
LINE
5
9D
100
AcDbEntity
8
1
62
256
6
ByLayer
370
18
48
1
60
0
100
AcDbLine
10
6.713375
20
-4.315809
30
0
11
8.194722
21
-4.316735
31
0
39
0
210
0
220
0
230
1
0
LINE
5
9E
100
AcDbEntity
8
1
62
256
6
ByLayer
370
18
48
1
60
0
100
AcDbLine
10
19.967018
20
-4.324093
30
0
11
21.224832
21
-4.324879
31
0
39
0
210
0
220
0
230
1
0
LINE
5
9F
100
AcDbEntity
8
1
62
256
6
ByLayer
370
18
48
1
60
0
100
AcDbLine
10
34.176103
20
-4.332974
30
0
11
35.394378
21
-4.333735
31
0
39
0
210
0
220
0
230
1
0
LINE
5
A0
100
AcDbEntity
8
1
62
256
6
ByLayer
370
18
48
1
60
0
100
AcDbLine
10
35.394378
20
4.333735
30
0
11
34.176103
21
4.332974
31
0
39
0
210
0
220
0
230
1
0
LINE
5
A1
100
AcDbEntity
8
1
62
256
6
ByLayer
370
18
48
1
60
0
100
AcDbLine
10
21.224832
20
4.324879
30
0
11
19.967018
21
4.324093
31
0
39
0
210
0
220
0
230
1
0
LINE
5
A2
100
AcDbEntity
8
1
62
256
6
ByLayer
370
18
48
1
60
0
100
AcDbLine
10
8.194722
20
4.316735
30
0
11
6.713375
21
4.315809
31
0
39
0
210
0
220
0
230
1
0
LINE
5
A3
100
AcDbEntity
8
1
62
256
6
ByLayer
370
18
48
1
60
0
100
AcDbLine
10
3.322317
20
4.31369
30
0
11
1.31483
21
4.312435
31
0
39
0
210
0
220
0
230
1
0
LINE
5
A4
100
AcDbEntity
8
SK4
62
256
6
ByLayer
370
18
48
0.05
60
0
100
AcDbLine
10
68
20
0
30
0
11
-45
21
0
31
0
39
0
210
0
220
0
230
1
0
LINE
5
A6
100
AcDbEntity
8
4
62
256
6
ByLayer
370
18
48
0.05
60
0
100
AcDbLine
10
-40
20
0
30
0
11
68
21
0
31
0
39
0
210
0
220
0
230
1
0
LINE
5
A8
100
AcDbEntity
8
80
62
256
6
ByLayer
370
18
48
1
60
0
100
AcDbLine
10
0
20
0
30
0
11
-6
21
0
31
0
39
0
210
0
220
0
230
1
0
LINE
5
A9
100
AcDbEntity
8
81
62
256
6
ByLayer
370
18
48
1
60
0
100
AcDbLine
10
63
20
0
30
0
11
69
21
0
31
0
39
0
210
0
220
0
230
1
0
LINE
5
AA
100
AcDbEntity
8
SK2
62
256
6
ByLayer
370
13
48
1
60
0
100
AcDbLine
10
63.542966
20
1.491759
30
0
11
70.926447
21
21.777329
31
0
39
0
210
0
220
0
230
1
0
LINE
5
AC
100
AcDbEntity
8
SK2
62
256
6
ByLayer
370
13
48
1
60
0
100
AcDbLine
10
63.542966
20
-1.491759
30
0
11
70.926447
21
-21.777329
31
0
39
0
210
0
220
0
230
1
0
LINE
5
AD
100
AcDbEntity
8
1
62
256
6
ByLayer
370
13
48
1
60
0
100
AcDbLine
10
69.840515
20
18.793811
30
0
11
72.937101
21
17.977421
31
0
39
0
210
0
220
0
230
1
0
LINE
5
AE
100
AcDbEntity
8
1
62
256
6
ByLayer
370
13
48
1
60
0
100
AcDbLine
10
69.840515
20
18.793811
30
0
11
72.620293
21
17.203782
31
0
39
0
210
0
220
0
230
1
0
LINE
5
AF
100
AcDbEntity
8
1
62
256
6
ByLayer
370
13
48
1
60
0
100
AcDbLine
10
72.937101
20
17.977421
30
0
11
72.620293
21
17.203782
31
0
39
0
210
0
220
0
230
1
0
LINE
5
B0
100
AcDbEntity
8
1
62
256
6
ByLayer
370
13
48
1
60
0
100
AcDbLine
10
69.840515
20
-18.793811
30
0
11
72.62029
21
-17.203783
31
0
39
0
210
0
220
0
230
1
0
LINE
5
B1
100
AcDbEntity
8
1
62
256
6
ByLayer
370
13
48
1
60
0
100
AcDbLine
10
69.840515
20
-18.793811
30
0
11
72.937104
21
-17.97742
31
0
39
0
210
0
220
0
230
1
0
LINE
5
B2
100
AcDbEntity
8
1
62
256
6
ByLayer
370
13
48
1
60
0
100
AcDbLine
10
72.62029
20
-17.203783
30
0
11
72.937104
21
-17.97742
31
0
39
0
210
0
220
0
230
1
0
MTEXT
5
112
100
AcDbEntity
8
SK2
62
256
6
ByLayer
370
18
48
1
60
0
100
AcDbMText
10
76.717388
20
-2.467451
30
0
210
0
220
0
230
1
1
\W0.7237;140.00
40
3.50012
41
0
44
1.084337
50
0
71
7
72
5
7
iso_b_vert
0
MTEXT
5
115
100
AcDbEntity
8
SK6
62
256
6
ByLayer
370
18
48
1
60
0
100
AcDbMText
10
-27.531895
20
-104.714652
30
0
210
0
220
0
230
1
1
\W0.7541;860.1-0870-044A1-GM X1BM
40
3.175
41
0
44
1.084337
50
0
71
7
72
5
7
iso_b_vert
0
DIMENSION
5
118
100
AcDbEntity
8
SK2
62
256
6
ByLayer
370
18
48
1
60
0
100
AcDbDimension
2
_U0
10
63
20
-28.50012
30
0
11
31.5
21
-28.50012
31
0
70
32
71
2
72
1
41
1
210
0
220
0
230
1
3
Standard
100
AcDbAlignedDimension
13
0
23
-5
33
0
14
63
24
0
34
0
50
0
100
AcDbRotatedDimension
1001
ACAD
1000
DSTYLE
1002
{
1070
   371
1070
    13
1070
   372
1070
    13
1070
     3
1000

1070
   170
1070
     0
1070
   144
1040
1.0
1070
   277
1070
     2
1070
   284
1070
     8
1070
   278
1070
    46
1070
   146
1040
0.999966
1070
   345
1005
16
1070
   347
1005
16
1070
   346
1005
16
1070
   344
1005
119
1070
   343
1005
119
1070
   172
1070
     1
1070
    76
1070
     0
1070
    75
1070
     0
1070
   282
1070
     0
1070
   281
1070
     0
1070
    71
1070
     0
1070
    74
1070
     0
1070
   279
1070
     0
1070
   173
1070
     1
1070
   340
1005
113
1070
   271
1070
     1
1070
   272
1070
     2
1070
    77
1070
     1
1070
    73
1070
     1
1070
   171
1070
     3
1070
   274
1070
     4
1070
   177
1070
   150
1070
   176
1070
     9
1070
   178
1070
    43
1070
    78
1070
     8
1070
    48
1040
-0.1
1070
    41
1040
3.175
1070
   147
1040
1.75006
1070
    42
1040
1.5875
1070
    44
1040
3.175
1070
   140
1040
3.50012
1002
}
1001
ACAD_DSTYLE_DIM_LINETYPE
1070
   380
1005
16
1001
ACAD_DSTYLE_DIM_EXT1_LINETYPE
1070
   381
1005
16
1001
ACAD_DSTYLE_DIM_EXT2_LINETYPE
1070
   382
1005
16
0
DIMENSION
5
13E
100
AcDbEntity
8
2
62
256
6
ByLayer
370
18
48
1
60
0
100
AcDbDimension
2
_U1
10
69.75006
20
4.35
30
0
11
69.75006
21
19.923233
31
0
70
32
71
1
72
1
41
1
210
0
220
0
230
1
3
Standard
100
AcDbAlignedDimension
13
61.4167
23
-4.35
33
0
14
61.4167
24
4.35
34
0
50
90
100
AcDbRotatedDimension
1001
ACAD
1000
DSTYLE
1002
{
1070
   371
1070
    13
1070
   372
1070
    13
1070
     3
1000

1070
   170
1070
     0
1070
   144
1040
1.0
1070
   277
1070
     2
1070
   284
1070
     8
1070
   278
1070
    46
1070
   146
1040
0.999966
1070
   345
1005
16
1070
   347
1005
16
1070
   346
1005
16
1070
   344
1005
119
1070
   343
1005
119
1070
   172
1070
     1
1070
    76
1070
     0
1070
    75
1070
     0
1070
   282
1070
     0
1070
   281
1070
     0
1070
    71
1070
     0
1070
    74
1070
     0
1070
   279
1070
     0
1070
   173
1070
     1
1070
   340
1005
113
1070
   271
1070
     1
1070
   272
1070
     2
1070
    77
1070
     1
1070
    73
1070
     0
1070
   171
1070
     3
1070
   274
1070
     4
1070
   177
1070
   150
1070
   176
1070
     9
1070
   178
1070
    43
1070
    78
1070
     8
1070
    48
1040
-0.1
1070
    41
1040
3.175
1070
   147
1040
1.75006
1070
    42
1040
1.5875
1070
    44
1040
3.175
1070
   140
1040
3.50012
1002
}
1001
ACAD_DSTYLE_DIM_LINETYPE
1070
   380
1005
16
1001
ACAD_DSTYLE_DIM_EXT1_LINETYPE
1070
   381
1005
16
1001
ACAD_DSTYLE_DIM_EXT2_LINETYPE
1070
   382
1005
16
0
DIMENSION
5
15D
100
AcDbEntity
8
SK2
62
256
6
ByLayer
370
18
48
1
60
0
100
AcDbDimension
2
_U2
10
-43.24994
20
-5
30
0
11
-43.24994
21
19.97767
31
0
70
32
71
1
72
1
41
1
210
0
220
0
230
1
3
Standard
100
AcDbAlignedDimension
13
-40
23
5
33
0
14
-40
24
-5
34
0
50
90
100
AcDbRotatedDimension
1001
ACAD
1000
DSTYLE
1002
{
1070
   371
1070
    13
1070
   372
1070
    13
1070
     3
1000

1070
   170
1070
     0
1070
   144
1040
1.0
1070
   277
1070
     2
1070
   284
1070
     8
1070
   278
1070
    46
1070
   146
1040
0.999966
1070
   345
1005
16
1070
   347
1005
16
1070
   346
1005
16
1070
   344
1005
119
1070
   343
1005
119
1070
   172
1070
     1
1070
    76
1070
     0
1070
    75
1070
     0
1070
   282
1070
     0
1070
   281
1070
     0
1070
    71
1070
     0
1070
    74
1070
     0
1070
   279
1070
     0
1070
   173
1070
     1
1070
   340
1005
113
1070
   271
1070
     1
1070
   272
1070
     2
1070
    77
1070
     1
1070
    73
1070
     0
1070
   171
1070
     3
1070
   274
1070
     4
1070
   177
1070
   150
1070
   176
1070
     9
1070
   178
1070
    43
1070
    78
1070
     8
1070
    48
1040
-0.1
1070
    41
1040
3.175
1070
   147
1040
1.75006
1070
    42
1040
1.5875
1070
    44
1040
3.175
1070
   140
1040
3.50012
1002
}
1001
ACAD_DSTYLE_DIM_LINETYPE
1070
   380
1005
16
1001
ACAD_DSTYLE_DIM_EXT1_LINETYPE
1070
   381
1005
16
1001
ACAD_DSTYLE_DIM_EXT2_LINETYPE
1070
   382
1005
16
0
DIMENSION
5
17B
100
AcDbEntity
8
SK2
62
256
6
ByLayer
370
18
48
1
60
0
100
AcDbDimension
2
_U3
10
0
20
-28.50012
30
0
11
-20
21
-28.50012
31
0
70
32
71
1
72
1
41
1
210
0
220
0
230
1
3
Standard
100
AcDbAlignedDimension
13
-40
23
-5
33
0
14
0
24
-5
34
0
50
0
100
AcDbRotatedDimension
1001
ACAD
1000
DSTYLE
1002
{
1070
   371
1070
    13
1070
   372
1070
    13
1070
     3
1000

1070
   170
1070
     0
1070
   144
1040
1.0
1070
   277
1070
     2
1070
   284
1070
     8
1070
   278
1070
    46
1070
   146
1040
0.999966
1070
   345
1005
16
1070
   347
1005
16
1070
   346
1005
16
1070
   344
1005
119
1070
   343
1005
119
1070
   172
1070
     1
1070
    76
1070
     0
1070
    75
1070
     0
1070
   282
1070
     0
1070
   281
1070
     0
1070
    71
1070
     0
1070
    74
1070
     0
1070
   279
1070
     0
1070
   173
1070
     1
1070
   340
1005
113
1070
   271
1070
     1
1070
   272
1070
     2
1070
    77
1070
     1
1070
    73
1070
     1
1070
   171
1070
     3
1070
   274
1070
     4
1070
   177
1070
   150
1070
   176
1070
     9
1070
   178
1070
    43
1070
    78
1070
     8
1070
    48
1040
-0.1
1070
    41
1040
3.175
1070
   147
1040
1.75006
1070
    42
1040
1.5875
1070
    44
1040
3.175
1070
   140
1040
3.50012
1002
}
1001
ACAD_DSTYLE_DIM_LINETYPE
1070
   380
1005
16
1001
ACAD_DSTYLE_DIM_EXT1_LINETYPE
1070
   381
1005
16
1001
ACAD_DSTYLE_DIM_EXT2_LINETYPE
1070
   382
1005
16
0
DIMENSION
5
197
100
AcDbEntity
8
SK2
62
256
6
ByLayer
370
18
48
1
60
0
100
AcDbDimension
2
_U4
10
63
20
-19.74982
30
0
11
32.5
21
-19.74982
31
0
70
32
71
1
72
1
41
1
210
0
220
0
230
1
3
Standard
100
AcDbAlignedDimension
13
2
23
4.85
33
0
14
63
24
0
34
0
50
0
100
AcDbRotatedDimension
1001
ACAD
1000
DSTYLE
1002
{
1070
   371
1070
    13
1070
   372
1070
    13
1070
     3
1000

1070
   170
1070
     0
1070
   144
1040
1.0
1070
   277
1070
     2
1070
   284
1070
     8
1070
   278
1070
    46
1070
   146
1040
0.999966
1070
   345
1005
16
1070
   347
1005
16
1070
   346
1005
16
1070
   344
1005
119
1070
   343
1005
119
1070
   172
1070
     1
1070
    76
1070
     0
1070
    75
1070
     0
1070
   282
1070
     0
1070
   281
1070
     0
1070
    71
1070
     0
1070
    74
1070
     0
1070
   279
1070
     0
1070
   173
1070
     1
1070
   340
1005
113
1070
   271
1070
     1
1070
   272
1070
     2
1070
    77
1070
     1
1070
    73
1070
     1
1070
   171
1070
     3
1070
   274
1070
     4
1070
   177
1070
   150
1070
   176
1070
     9
1070
   178
1070
    43
1070
    78
1070
     8
1070
    48
1040
-0.1
1070
    41
1040
3.175
1070
   147
1040
1.75006
1070
    42
1040
1.5875
1070
    44
1040
3.175
1070
   140
1040
3.50012
1002
}
1001
ACAD_DSTYLE_DIM_LINETYPE
1070
   380
1005
16
1001
ACAD_DSTYLE_DIM_EXT1_LINETYPE
1070
   381
1005
16
1001
ACAD_DSTYLE_DIM_EXT2_LINETYPE
1070
   382
1005
16
0
DIMENSION
5
1B3
100
AcDbEntity
8
SK2
62
256
6
ByLayer
370
18
48
1
60
0
100
AcDbDimension
2
_U5
10
63
20
-11.82
30
0
11
40.5
21
-11.82
31
0
70
32
71
1
72
1
41
1
210
0
220
0
230
1
3
Standard
100
AcDbAlignedDimension
13
18
23
-4.35
33
0
14
63
24
0
34
0
50
0
100
AcDbRotatedDimension
1001
ACAD
1000
DSTYLE
1002
{
1070
   371
1070
    13
1070
   372
1070
    13
1070
     3
1000

1070
   170
1070
     0
1070
   144
1040
1.0
1070
   277
1070
     2
1070
   284
1070
     8
1070
   278
1070
    46
1070
   146
1040
1.25
1070
   345
1005
16
1070
   347
1005
16
1070
   346
1005
16
1070
   344
1005
119
1070
   343
1005
119
1070
   172
1070
     1
1070
    76
1070
     0
1070
    75
1070
     0
1070
   282
1070
     0
1070
   281
1070
     0
1070
    71
1070
     0
1070
    74
1070
     0
1070
   279
1070
     0
1070
   173
1070
     1
1070
   340
1005
113
1070
   271
1070
     1
1070
   272
1070
     2
1070
    77
1070
     1
1070
    73
1070
     1
1070
   171
1070
     3
1070
   274
1070
     4
1070
   177
1070
   150
1070
   176
1070
     9
1070
   178
1070
    43
1070
    78
1070
     8
1070
    48
1040
-0.1
1070
    41
1040
3.175
1070
   147
1040
0.42
1070
    42
1040
1.5875
1070
    44
1040
0.5
1070
   140
1040
2.8
1002
}
1001
ACAD_DSTYLE_DIM_LINETYPE
1070
   380
1005
16
1001
ACAD_DSTYLE_DIM_EXT1_LINETYPE
1070
   381
1005
16
1001
ACAD_DSTYLE_DIM_EXT2_LINETYPE
1070
   382
1005
16
0
DIMENSION
5
1CF
100
AcDbEntity
8
SK2
62
256
6
ByLayer
370
18
48
1
60
0
100
AcDbDimension
2
_U6
10
63
20
-38.50012
30
0
11
11.5
21
-38.50012
31
0
70
32
71
1
72
1
41
1
210
0
220
0
230
1
3
Standard
100
AcDbAlignedDimension
13
-40
23
0
33
0
14
63
24
0
34
0
50
0
100
AcDbRotatedDimension
1001
ACAD
1000
DSTYLE
1002
{
1070
   371
1070
    13
1070
   372
1070
    13
1070
     3
1000

1070
   170
1070
     0
1070
   144
1040
1.0
1070
   277
1070
     2
1070
   284
1070
     8
1070
   278
1070
    46
1070
   146
1040
0.999966
1070
   345
1005
16
1070
   347
1005
16
1070
   346
1005
16
1070
   344
1005
119
1070
   343
1005
119
1070
   172
1070
     1
1070
    76
1070
     0
1070
    75
1070
     0
1070
   282
1070
     0
1070
   281
1070
     0
1070
    71
1070
     0
1070
    74
1070
     0
1070
   279
1070
     0
1070
   173
1070
     1
1070
   340
1005
113
1070
   271
1070
     1
1070
   272
1070
     2
1070
    77
1070
     1
1070
    73
1070
     1
1070
   171
1070
     3
1070
   274
1070
     4
1070
   177
1070
   150
1070
   176
1070
     9
1070
   178
1070
    43
1070
    78
1070
     8
1070
    48
1040
-0.1
1070
    41
1040
3.175
1070
   147
1040
1.75006
1070
    42
1040
1.5875
1070
    44
1040
3.175
1070
   140
1040
3.50012
1002
}
1001
ACAD_DSTYLE_DIM_LINETYPE
1070
   380
1005
16
1001
ACAD_DSTYLE_DIM_EXT1_LINETYPE
1070
   381
1005
16
1001
ACAD_DSTYLE_DIM_EXT2_LINETYPE
1070
   382
1005
16
0
ENDSEC
0
SECTION
2
OBJECTS
0
DICTIONARY
5
25b
330
0
100
AcDbDictionary
280
0
281
1
3
ACAD_GROUP
350
25c
3
ACAD_MLINESTYLE
350
25d
0
DICTIONARY
5
25c
330
0
100
AcDbDictionary
280
0
281
1
0
DICTIONARY
5
25d
330
0
100
AcDbDictionary
280
0
281
1
3
Standard
350
18
0
MLINESTYLE
5
18
330
25d
100
AcDbMlineStyle
2
Standard
70
0
3

62
256
51
90
52
90
71
2
49
-0.5
62
256
6
ByLayer
49
0.5
62
256
6
ByLayer
0
RASTERVARIABLES
5
249
330

100
AcDbRasterVariables
90
0
70
1
71
1
72
1
0
ENDSEC
0
EOF
