0
SECTION
2
HEADER
9
$ACADVER
1
AC1015
9
$DWGCODEPAGE
3
ANSI_1252
9
$HANDSEED
5
26b
9
$ANGBASE
50
0
9
$ANGDIR
70
0
9
$ATTMODE
70
1
9
$AUNITS
70
0
9
$AUPREC
70
0
9
$CECOLOR
62
256
9
$CELTSCALE
40
1
9
$CELTYPE
6
ByLayer
9
$CELWEIGHT
370
18
9
$CLAYER
8
0
9
$CMLJUST
70
0
9
$CMLSCALE
40
1
9
$CMLSTYLE
2
Standard
9
$DIMSTYLE
2
Standard
9
$TEXTSIZE
40
0.2
9
$TEXTSTYLE
7
Standard
9
$LUNITS
70
2
9
$LUPREC
70
4
9
$EXTNAMES
290
1
9
$INSUNITS
70
4
9
$LTSCALE
40
1
9
$LWDISPLAY
290
1
9
$PDMODE
70
0
9
$PDSIZE
40
0
9
$PLINEGEN
70
0
0
ENDSEC
0
SECTION
2
CLASSES
0
CLASS
1
RASTERVARIABLES
2
AcDbRasterVariables
3
ISM
90
0
280
0
281
0
0
ENDSEC
0
SECTION
2
TABLES
0
TABLE
2
VPORT
5
261
100
AcDbSymbolTable
0
VPORT
5
1
100
AcDbSymbolTableRecord
100
AcDbViewportTableRecord
2
*Active
70
0
10
0
20
0
11
1
21
1
12
-1
22
1
13
0
23
0
14
0.5
24
0.5
15
10
25
10
16
0
26
0
36
1
17
0
27
0
37
0
0
ENDTAB
0
TABLE
2
LTYPE
5
262
100
AcDbSymbolTable
0
LTYPE
5
14
100
AcDbSymbolTableRecord
100
AcDbLinetypeTableRecord
70
0
2
ByBlock
3

72
65
73
0
40
0
0
LTYPE
5
15
100
AcDbSymbolTableRecord
100
AcDbLinetypeTableRecord
70
0
2
ByLayer
3

72
65
73
0
40
0
0
LTYPE
5
16
100
AcDbSymbolTableRecord
100
AcDbLinetypeTableRecord
70
0
2
Continuous
3
Solid line
72
65
73
0
40
0
0
LTYPE
5
6E
100
AcDbSymbolTableRecord
100
AcDbLinetypeTableRecord
70
0
2
CENTER
3
____ _ ____ _ ____ _ ____
72
65
73
4
40
47.5
49
22
74
0
49
-8.5
74
0
49
8.5
74
0
49
-8.5
74
0
0
LTYPE
5
6F
100
AcDbSymbolTableRecord
100
AcDbLinetypeTableRecord
70
0
2
DASHED
3
__ __ __ __ __ __ __ __ __
72
65
73
2
40
25.72
49
12.86
74
0
49
-12.86
74
0
0
ENDTAB
0
TABLE
2
LAYER
5
263
100
AcDbSymbolTable
0
LAYER
5
10
100
AcDbSymbolTableRecord
100
AcDbLayerTableRecord
2
0
70
0
62
7
6
Continuous
290
1
370
-3
390
0
0
LAYER
5
71
100
AcDbSymbolTableRecord
100
AcDbLayerTableRecord
2
80
70
0
62
-6
6
Continuous
290
1
370
-3
390
0
0
LAYER
5
73
100
AcDbSymbolTableRecord
100
AcDbLayerTableRecord
2
81
70
0
62
-3
6
Continuous
290
1
370
-3
390
0
0
LAYER
5
75
100
AcDbSymbolTableRecord
100
AcDbLayerTableRecord
2
1
70
0
62
4
6
Continuous
290
1
370
-3
390
0
0
LAYER
5
A7
100
AcDbSymbolTableRecord
100
AcDbLayerTableRecord
2
4
70
0
62
-2
6
CENTER
290
1
370
-3
390
0
0
LAYER
5
125
100
AcDbSymbolTableRecord
100
AcDbLayerTableRecord
2
Defpoints
70
0
62
7
6
Continuous
290
0
370
-3
390
0
0
LAYER
5
152
100
AcDbSymbolTableRecord
100
AcDbLayerTableRecord
2
2
70
0
62
7
6
Continuous
290
1
370
-3
390
0
0
LAYER
5
24d
100
AcDbSymbolTableRecord
100
AcDbLayerTableRecord
2
SK1
70
0
62
4
6
Continuous
290
1
370
-3
390
0
0
LAYER
5
24e
100
AcDbSymbolTableRecord
100
AcDbLayerTableRecord
2
SK4
70
0
62
2
6
CENTER
290
1
370
-3
390
0
0
LAYER
5
24f
100
AcDbSymbolTableRecord
100
AcDbLayerTableRecord
2
SK2
70
0
62
7
6
Continuous
290
1
370
-3
390
0
0
LAYER
5
250
100
AcDbSymbolTableRecord
100
AcDbLayerTableRecord
2
SK6
70
0
62
5
6
Continuous
290
1
370
-3
390
0
0
ENDTAB
0
TABLE
2
STYLE
5
264
100
AcDbSymbolTable
0
STYLE
5
11
100
AcDbSymbolTableRecord
100
AcDbTextStyleTableRecord
2
Standard
3
txt
70
0
71
0
40
0
41
1
42
0
50
0
0
STYLE
5
116
100
AcDbSymbolTableRecord
100
AcDbTextStyleTableRecord
2
iso_b_vert
3
simplex.shx
70
0
71
0
40
0
41
1
42
0
50
0
0
STYLE
5
117
100
AcDbSymbolTableRecord
100
AcDbTextStyleTableRecord
2
DWGDirectTextStyle
3
simplex
70
0
71
0
40
0
41
1
42
0
50
0
0
ENDTAB
0
TABLE
2
DIMSTYLE
5
265
100
AcDbSymbolTable
100
AcDbDimStyleTable
0
DIMSTYLE
105
27
100
AcDbSymbolTableRecord
100
AcDbDimStyleTableRecord
2
Standard
70
0
3
<>
41
0.18
42
0.0625
44
0.18
140
0.18
147
0.09
73
0
74
0
77
1
271
2
275
0
278
52
280
0
340
11
0
ENDTAB
0
TABLE
2
VIEW
5
266
100
AcDbSymbolTable
0
ENDTAB
0
TABLE
2
UCS
5
267
100
AcDbSymbolTable
0
ENDTAB
0
TABLE
2
APPID
5
268
100
AcDbSymbolTable
0
APPID
5
12
100
AcDbSymbolTableRecord
100
AcDbRegAppTableRecord
2
ACAD
70
0
0
APPID
5
11A
100
AcDbSymbolTableRecord
100
AcDbRegAppTableRecord
2
ACAD_DSTYLE_DIMBREAK
70
0
0
APPID
5
20C
100
AcDbSymbolTableRecord
100
AcDbRegAppTableRecord
2
ACAD_DSTYLE_DIM_LINETYPE
70
0
0
APPID
5
20D
100
AcDbSymbolTableRecord
100
AcDbRegAppTableRecord
2
ACAD_DSTYLE_DIM_EXT1_LINETYPE
70
0
0
APPID
5
20E
100
AcDbSymbolTableRecord
100
AcDbRegAppTableRecord
2
ACAD_DSTYLE_DIM_EXT2_LINETYPE
70
0
0
APPID
5
249
100
AcDbSymbolTableRecord
100
AcDbRegAppTableRecord
2
ACAD_MLEADERVER
70
0
0
ENDTAB
0
TABLE
2
BLOCK_RECORD
5
269
100
AcDbSymbolTable
0
BLOCK_RECORD
5
1F
100
AcDbSymbolTableRecord
100
AcDbBlockTableRecord
2
*Model_Space
340
0
70
0
0
BLOCK_RECORD
5
1B
100
AcDbSymbolTableRecord
100
AcDbBlockTableRecord
2
*Paper_Space
340
0
70
0
0
BLOCK_RECORD
5
23
100
AcDbSymbolTableRecord
100
AcDbBlockTableRecord
2
*Paper_Space0
340
0
70
0
0
BLOCK_RECORD
5
11C
100
AcDbSymbolTableRecord
100
AcDbBlockTableRecord
2
_Closed
340
0
70
0
0
BLOCK_RECORD
5
126
100
AcDbSymbolTableRecord
100
AcDbBlockTableRecord
2
*D2
340
0
70
0
0
BLOCK_RECORD
5
132
100
AcDbSymbolTableRecord
100
AcDbBlockTableRecord
2
_U0
340
0
70
0
0
BLOCK_RECORD
5
144
100
AcDbSymbolTableRecord
100
AcDbBlockTableRecord
2
*D4
340
0
70
0
0
BLOCK_RECORD
5
153
100
AcDbSymbolTableRecord
100
AcDbBlockTableRecord
2
_U1
340
0
70
0
0
BLOCK_RECORD
5
163
100
AcDbSymbolTableRecord
100
AcDbBlockTableRecord
2
*D6
340
0
70
0
0
BLOCK_RECORD
5
171
100
AcDbSymbolTableRecord
100
AcDbBlockTableRecord
2
_U2
340
0
70
0
0
BLOCK_RECORD
5
181
100
AcDbSymbolTableRecord
100
AcDbBlockTableRecord
2
*D8
340
0
70
0
0
BLOCK_RECORD
5
18D
100
AcDbSymbolTableRecord
100
AcDbBlockTableRecord
2
_U3
340
0
70
0
0
BLOCK_RECORD
5
19D
100
AcDbSymbolTableRecord
100
AcDbBlockTableRecord
2
*D10
340
0
70
0
0
BLOCK_RECORD
5
1A9
100
AcDbSymbolTableRecord
100
AcDbBlockTableRecord
2
_U4
340
0
70
0
0
BLOCK_RECORD
5
1B9
100
AcDbSymbolTableRecord
100
AcDbBlockTableRecord
2
*D12
340
0
70
0
0
BLOCK_RECORD
5
1C5
100
AcDbSymbolTableRecord
100
AcDbBlockTableRecord
2
_U5
340
0
70
0
0
BLOCK_RECORD
5
1D5
100
AcDbSymbolTableRecord
100
AcDbBlockTableRecord
2
*D14
340
0
70
0
0
BLOCK_RECORD
5
1E1
100
AcDbSymbolTableRecord
100
AcDbBlockTableRecord
2
_U6
340
0
70
0
0
ENDTAB
0
ENDSEC
0
SECTION
2
BLOCKS
0
BLOCK
5
20
100
AcDbEntity
8
0
100
AcDbBlockBegin
2
*Model_Space
70
0
10
0
20
0
30
0
3
*Model_Space
0
ENDBLK
5
21
100
AcDbEntity
8
0
100
AcDbBlockEnd
0
BLOCK
5
1C
100
AcDbEntity
8
0
100
AcDbBlockBegin
2
*Paper_Space
70
0
10
0
20
0
30
0
3
*Paper_Space
0
ENDBLK
5
1D
100
AcDbEntity
8
0
100
AcDbBlockEnd
0
BLOCK
5
24
100
AcDbEntity
8
0
100
AcDbBlockBegin
2
*Paper_Space0
70
0
10
0
20
0
30
0
3
*Paper_Space0
0
ENDBLK
5
25
100
AcDbEntity
8
0
100
AcDbBlockEnd
0
BLOCK
5
11D
100
AcDbEntity
8
0
100
AcDbBlockBegin
2
_Closed
70
0
10
0
20
0
30
0
3
_Closed
0
LINE
5
11F
100
AcDbEntity
8
0
62
256
6
ByLayer
370
-2
48
1
60
0
100
AcDbLine
10
-1
20
0.166667
30
0
11
0
21
0
31
0
39
0
210
0
220
0
230
1
0
LINE
5
120
100
AcDbEntity
8
0
62
256
6
ByLayer
370
-2
48
1
60
0
100
AcDbLine
10
0
20
0
30
0
11
-1
21
-0.166667
31
0
39
0
210
0
220
0
230
1
0
LINE
5
121
100
AcDbEntity
8
0
62
256
6
ByLayer
370
-2
48
1
60
0
100
AcDbLine
10
-1
20
0.166667
30
0
11
-1
21
-0.166667
31
0
39
0
210
0
220
0
230
1
0
LINE
5
122
100
AcDbEntity
8
0
62
256
6
ByLayer
370
-2
48
1
60
0
100
AcDbLine
10
0
20
0
30
0
11
-1
21
0
31
0
39
0
210
0
220
0
230
1
0
ENDBLK
5
11E
100
AcDbEntity
8
0
100
AcDbBlockEnd
0
BLOCK
5
127
100
AcDbEntity
8
0
100
AcDbBlockBegin
2
*D2
70
1
10
0
20
0
30
0
3
*D2
0
LINE
5
129
100
AcDbEntity
8
0
62
256
6
ByLayer
370
-2
48
1
60
0
100
AcDbLine
10
0
20
-5.5875
30
0
11
0
21
-30.67512
31
0
39
0
210
0
220
0
230
1
0
LINE
5
12A
100
AcDbEntity
8
0
62
256
6
ByLayer
370
-2
48
1
60
0
100
AcDbLine
10
55
20
-1.5875
30
0
11
55
21
-30.67512
31
0
39
0
210
0
220
0
230
1
0
LINE
5
12B
100
AcDbEntity
8
0
62
256
6
ByLayer
370
-2
48
1
60
0
100
AcDbLine
10
3.175
20
-27.50012
30
0
11
51.825
21
-27.50012
31
0
39
0
210
0
220
0
230
1
0
SOLID
5
12C
100
AcDbEntity
8
0
62
256
6
ByLayer
370
-1
48
1
60
0
100
AcDbTrace
10
3.175
20
-26.970953
30
0
11
3.175
21
-28.029287
31
0
12
0
22
-27.50012
32
0
13
0
23
-27.50012
33
0
39
0
210
0
220
0
230
1
0
SOLID
5
12D
100
AcDbEntity
8
0
62
256
6
ByLayer
370
-1
48
1
60
0
100
AcDbTrace
10
51.825
20
-28.029287
30
0
11
51.825
21
-26.970953
31
0
12
55
22
-27.50012
32
0
13
55
23
-27.50012
33
0
39
0
210
0
220
0
230
1
0
MTEXT
5
12E
100
AcDbEntity
8
0
62
256
6
ByLayer
370
18
48
1
60
0
100
AcDbMText
10
27.5
20
-20.193619
30
0
210
0
220
0
230
1
1
\A1;55
40
3.50012
41
0
44
1
50
0
71
5
72
5
7
iso_b_vert
0
POINT
5
12F
100
AcDbEntity
8
Defpoints
62
0
6
ByLayer
370
-1
48
1
60
0
100
AcDbPoint
10
0
20
-4
30
0
39
0
210
0
220
0
230
1
50
360
0
POINT
5
130
100
AcDbEntity
8
Defpoints
62
0
6
ByLayer
370
-1
48
1
60
0
100
AcDbPoint
10
55
20
0
30
0
39
0
210
0
220
0
230
1
50
360
0
POINT
5
131
100
AcDbEntity
8
Defpoints
62
0
6
ByLayer
370
-1
48
1
60
0
100
AcDbPoint
10
55
20
-27.50012
30
0
39
0
210
0
220
0
230
1
50
360
0
ENDBLK
5
128
100
AcDbEntity
8
0
100
AcDbBlockEnd
0
BLOCK
5
13F
100
AcDbEntity
8
0
100
AcDbBlockBegin
2
_U0
70
0
10
0
20
0
30
0
3
_U0
0
MTEXT
5
133
100
AcDbEntity
8
SK2
62
256
6
ByLayer
370
18
48
1
60
0
100
AcDbMText
10
22.270389
20
-26.467451
30
0
210
0
220
0
230
1
1
\W0.7468;55.00
40
3.50012
41
0
44
1.084337
50
0
71
7
72
5
7
iso_b_vert
0
MTEXT
5
134
100
AcDbEntity
8
SK2
62
256
6
ByLayer
370
18
48
1
60
0
100
AcDbMText
10
18.744329
20
-26.400814
30
0
210
0
220
0
230
1
1
\W0.1790;(
40
3.175
41
0
44
1.084337
50
0
71
7
72
5
7
iso_b_vert
0
MTEXT
5
135
100
AcDbEntity
8
SK2
62
256
6
ByLayer
370
18
48
1
60
0
100
AcDbMText
10
36.258393
20
-26.400814
30
0
210
0
220
0
230
1
1
\W0.1969;)
40
3.175
41
0
44
1.084337
50
0
71
7
72
5
7
iso_b_vert
0
LINE
5
136
100
AcDbEntity
8
SK2
62
256
6
ByLayer
370
13
48
1
60
0
100
AcDbLine
10
0
20
-5.5875
30
0
11
0
21
-30.67512
31
0
39
0
210
0
220
0
230
1
0
LINE
5
137
100
AcDbEntity
8
SK2
62
256
6
ByLayer
370
13
48
1
60
0
100
AcDbLine
10
55
20
-1.5875
30
0
11
55
21
-30.67512
31
0
39
0
210
0
220
0
230
1
0
LINE
5
138
100
AcDbEntity
8
SK2
62
256
6
ByLayer
370
13
48
1
60
0
100
AcDbLine
10
0
20
-27.50012
30
0
11
55
21
-27.50012
31
0
39
0
210
0
220
0
230
1
0
LINE
5
139
100
AcDbEntity
8
SK2
62
256
6
ByLayer
370
13
48
1
60
0
100
AcDbLine
10
0
20
-27.50012
30
0
11
3.174998
21
-27.082123
31
0
39
0
210
0
220
0
230
1
0
LINE
5
13A
100
AcDbEntity
8
SK2
62
256
6
ByLayer
370
13
48
1
60
0
100
AcDbLine
10
0
20
-27.50012
30
0
11
3.175002
21
-27.918117
31
0
39
0
210
0
220
0
230
1
0
LINE
5
13B
100
AcDbEntity
8
SK2
62
256
6
ByLayer
370
13
48
1
60
0
100
AcDbLine
10
3.174998
20
-27.082123
30
0
11
3.175002
21
-27.918117
31
0
39
0
210
0
220
0
230
1
0
LINE
5
13C
100
AcDbEntity
8
SK2
62
256
6
ByLayer
370
13
48
1
60
0
100
AcDbLine
10
55
20
-27.50012
30
0
11
51.825002
21
-27.918117
31
0
39
0
210
0
220
0
230
1
0
LINE
5
13D
100
AcDbEntity
8
SK2
62
256
6
ByLayer
370
13
48
1
60
0
100
AcDbLine
10
55
20
-27.50012
30
0
11
51.824998
21
-27.082123
31
0
39
0
210
0
220
0
230
1
0
LINE
5
13E
100
AcDbEntity
8
SK2
62
256
6
ByLayer
370
13
48
1
60
0
100
AcDbLine
10
51.825002
20
-27.918117
30
0
11
51.824998
21
-27.082123
31
0
39
0
210
0
220
0
230
1
0
ENDBLK
5
140
100
AcDbEntity
8
0
100
AcDbBlockEnd
0
BLOCK
5
145
100
AcDbEntity
8
0
100
AcDbBlockBegin
2
*D4
70
1
10
0
20
0
30
0
3
*D4
0
LINE
5
147
100
AcDbEntity
8
0
62
256
6
ByLayer
370
-2
48
1
60
0
100
AcDbLine
10
55.2044
20
-3.8
30
0
11
64.92506
21
-3.8
31
0
39
0
210
0
220
0
230
1
0
LINE
5
148
100
AcDbEntity
8
0
62
256
6
ByLayer
370
-2
48
1
60
0
100
AcDbLine
10
55.2044
20
3.8
30
0
11
64.92506
21
3.8
31
0
39
0
210
0
220
0
230
1
0
LINE
5
149
100
AcDbEntity
8
0
62
256
6
ByLayer
370
-2
48
1
60
0
100
AcDbLine
10
61.75006
20
3.8
30
0
11
61.75006
21
28.596466
31
0
39
0
210
0
220
0
230
1
0
LINE
5
14A
100
AcDbEntity
8
0
62
256
6
ByLayer
370
-2
48
1
60
0
100
AcDbLine
10
61.75006
20
-6.975
30
0
11
61.75006
21
-10.15
31
0
39
0
210
0
220
0
230
1
0
LINE
5
14B
100
AcDbEntity
8
0
62
256
6
ByLayer
370
-2
48
1
60
0
100
AcDbLine
10
61.75006
20
6.975
30
0
11
61.75006
21
10.15
31
0
39
0
210
0
220
0
230
1
0
SOLID
5
14C
100
AcDbEntity
8
0
62
256
6
ByLayer
370
-1
48
1
60
0
100
AcDbTrace
10
62.279227
20
-6.975
30
0
11
61.220893
21
-6.975
31
0
12
61.75006
22
-3.8
32
0
13
61.75006
23
-3.8
33
0
39
0
210
0
220
0
230
1
0
SOLID
5
14D
100
AcDbEntity
8
0
62
256
6
ByLayer
370
-1
48
1
60
0
100
AcDbTrace
10
61.220893
20
6.975
30
0
11
62.279227
21
6.975
31
0
12
61.75006
22
3.8
32
0
13
61.75006
23
3.8
33
0
39
0
210
0
220
0
230
1
0
MTEXT
5
14E
100
AcDbEntity
8
0
62
256
6
ByLayer
370
18
48
1
60
0
100
AcDbMText
10
54.443559
20
19.373233
30
0
210
0
220
0
230
1
1
\A1;7.6
40
3.50012
41
0
44
1
50
90
71
5
72
5
7
iso_b_vert
0
POINT
5
14F
100
AcDbEntity
8
Defpoints
62
0
6
ByLayer
370
-1
48
1
60
0
100
AcDbPoint
10
53.6169
20
-3.8
30
0
39
0
210
0
220
0
230
1
50
360
0
POINT
5
150
100
AcDbEntity
8
Defpoints
62
0
6
ByLayer
370
-1
48
1
60
0
100
AcDbPoint
10
53.6169
20
3.8
30
0
39
0
210
0
220
0
230
1
50
360
0
POINT
5
151
100
AcDbEntity
8
Defpoints
62
0
6
ByLayer
370
-1
48
1
60
0
100
AcDbPoint
10
61.75006
20
3.8
30
0
39
0
210
0
220
0
230
1
50
360
0
ENDBLK
5
146
100
AcDbEntity
8
0
100
AcDbBlockEnd
0
BLOCK
5
15E
100
AcDbEntity
8
0
100
AcDbBlockBegin
2
_U1
70
0
10
0
20
0
30
0
3
_U1
0
MTEXT
5
154
100
AcDbEntity
8
2
62
256
6
ByLayer
370
18
48
1
60
0
100
AcDbMText
10
61.060403
20
7.957505
30
0
210
0
220
0
230
1
1
\W0.7346;7.60
40
3.50012
41
0
44
1.084337
50
90
71
7
72
5
7
iso_b_vert
0
LINE
5
155
100
AcDbEntity
8
2
62
256
6
ByLayer
370
13
48
1
60
0
100
AcDbLine
10
55.2044
20
-3.8
30
0
11
64.92506
21
-3.8
31
0
39
0
210
0
220
0
230
1
0
LINE
5
156
100
AcDbEntity
8
2
62
256
6
ByLayer
370
13
48
1
60
0
100
AcDbLine
10
55.2044
20
3.8
30
0
11
64.92506
21
3.8
31
0
39
0
210
0
220
0
230
1
0
LINE
5
157
100
AcDbEntity
8
2
62
256
6
ByLayer
370
13
48
1
60
0
100
AcDbLine
10
61.75006
20
-3.8
30
0
11
61.75006
21
16.01468
31
0
39
0
210
0
220
0
230
1
0
LINE
5
158
100
AcDbEntity
8
2
62
256
6
ByLayer
370
13
48
1
60
0
100
AcDbLine
10
61.75006
20
-3.8
30
0
11
61.332063
21
-0.625002
31
0
39
0
210
0
220
0
230
1
0
LINE
5
159
100
AcDbEntity
8
2
62
256
6
ByLayer
370
13
48
1
60
0
100
AcDbLine
10
61.75006
20
-3.8
30
0
11
62.168057
21
-0.624998
31
0
39
0
210
0
220
0
230
1
0
LINE
5
15A
100
AcDbEntity
8
2
62
256
6
ByLayer
370
13
48
1
60
0
100
AcDbLine
10
61.332063
20
-0.625002
30
0
11
62.168057
21
-0.624998
31
0
39
0
210
0
220
0
230
1
0
LINE
5
15B
100
AcDbEntity
8
2
62
256
6
ByLayer
370
13
48
1
60
0
100
AcDbLine
10
61.75006
20
3.8
30
0
11
62.168057
21
0.625002
31
0
39
0
210
0
220
0
230
1
0
LINE
5
15C
100
AcDbEntity
8
2
62
256
6
ByLayer
370
13
48
1
60
0
100
AcDbLine
10
61.75006
20
3.8
30
0
11
61.332063
21
0.624998
31
0
39
0
210
0
220
0
230
1
0
LINE
5
15D
100
AcDbEntity
8
2
62
256
6
ByLayer
370
13
48
1
60
0
100
AcDbLine
10
62.168057
20
0.625002
30
0
11
61.332063
21
0.624998
31
0
39
0
210
0
220
0
230
1
0
ENDBLK
5
15F
100
AcDbEntity
8
0
100
AcDbBlockEnd
0
BLOCK
5
164
100
AcDbEntity
8
0
100
AcDbBlockBegin
2
*D6
70
1
10
0
20
0
30
0
3
*D6
0
LINE
5
166
100
AcDbEntity
8
0
62
256
6
ByLayer
370
-2
48
1
60
0
100
AcDbLine
10
-37.5875
20
4
30
0
11
-42.42494
21
4
31
0
39
0
210
0
220
0
230
1
0
LINE
5
167
100
AcDbEntity
8
0
62
256
6
ByLayer
370
-2
48
1
60
0
100
AcDbLine
10
-37.5875
20
-4
30
0
11
-42.42494
21
-4
31
0
39
0
210
0
220
0
230
1
0
LINE
5
168
100
AcDbEntity
8
0
62
256
6
ByLayer
370
-2
48
1
60
0
100
AcDbLine
10
-39.24994
20
4
30
0
11
-39.24994
21
24.830487
31
0
39
0
210
0
220
0
230
1
0
LINE
5
169
100
AcDbEntity
8
0
62
256
6
ByLayer
370
-2
48
1
60
0
100
AcDbLine
10
-39.24994
20
7.175
30
0
11
-39.24994
21
10.35
31
0
39
0
210
0
220
0
230
1
0
LINE
5
16A
100
AcDbEntity
8
0
62
256
6
ByLayer
370
-2
48
1
60
0
100
AcDbLine
10
-39.24994
20
-7.175
30
0
11
-39.24994
21
-10.35
31
0
39
0
210
0
220
0
230
1
0
SOLID
5
16B
100
AcDbEntity
8
0
62
256
6
ByLayer
370
-1
48
1
60
0
100
AcDbTrace
10
-39.779107
20
7.175
30
0
11
-38.720773
21
7.175
31
0
12
-39.24994
22
4
32
0
13
-39.24994
23
4
33
0
39
0
210
0
220
0
230
1
0
SOLID
5
16C
100
AcDbEntity
8
0
62
256
6
ByLayer
370
-1
48
1
60
0
100
AcDbTrace
10
-38.720773
20
-7.175
30
0
11
-39.779107
21
-7.175
31
0
12
-39.24994
22
-4
32
0
13
-39.24994
23
-4
33
0
39
0
210
0
220
0
230
1
0
MTEXT
5
16D
100
AcDbEntity
8
0
62
256
6
ByLayer
370
18
48
1
60
0
100
AcDbMText
10
-46.556441
20
18.10734
30
0
210
0
220
0
230
1
1
\A1;8
40
3.50012
41
0
44
1
50
90
71
5
72
5
7
iso_b_vert
0
POINT
5
16E
100
AcDbEntity
8
Defpoints
62
0
6
ByLayer
370
-1
48
1
60
0
100
AcDbPoint
10
-36
20
4
30
0
39
0
210
0
220
0
230
1
50
360
0
POINT
5
16F
100
AcDbEntity
8
Defpoints
62
0
6
ByLayer
370
-1
48
1
60
0
100
AcDbPoint
10
-36
20
-4
30
0
39
0
210
0
220
0
230
1
50
360
0
POINT
5
170
100
AcDbEntity
8
Defpoints
62
0
6
ByLayer
370
-1
48
1
60
0
100
AcDbPoint
10
-39.24994
20
-4
30
0
39
0
210
0
220
0
230
1
50
360
0
ENDBLK
5
165
100
AcDbEntity
8
0
100
AcDbBlockEnd
0
BLOCK
5
17C
100
AcDbEntity
8
0
100
AcDbBlockBegin
2
_U2
70
0
10
0
20
0
30
0
3
_U2
0
MTEXT
5
172
100
AcDbEntity
8
SK2
62
256
6
ByLayer
370
18
48
1
60
0
100
AcDbMText
10
-39.939597
20
14.157505
30
0
210
0
220
0
230
1
1
\W0.7346;8.00
40
3.50012
41
0
44
1.084337
50
90
71
7
72
5
7
iso_b_vert
0
LINE
5
173
100
AcDbEntity
8
SK2
62
256
6
ByLayer
370
13
48
1
60
0
100
AcDbLine
10
-37.5875
20
4
30
0
11
-42.42494
21
4
31
0
39
0
210
0
220
0
230
1
0
LINE
5
174
100
AcDbEntity
8
SK2
62
256
6
ByLayer
370
13
48
1
60
0
100
AcDbLine
10
-37.5875
20
-4
30
0
11
-42.42494
21
-4
31
0
39
0
210
0
220
0
230
1
0
LINE
5
175
100
AcDbEntity
8
SK2
62
256
6
ByLayer
370
13
48
1
60
0
100
AcDbLine
10
-39.24994
20
-4
30
0
11
-39.24994
21
22.21468
31
0
39
0
210
0
220
0
230
1
0
LINE
5
176
100
AcDbEntity
8
SK2
62
256
6
ByLayer
370
13
48
1
60
0
100
AcDbLine
10
-39.24994
20
4
30
0
11
-38.831943
21
0.825002
31
0
39
0
210
0
220
0
230
1
0
LINE
5
177
100
AcDbEntity
8
SK2
62
256
6
ByLayer
370
13
48
1
60
0
100
AcDbLine
10
-39.24994
20
4
30
0
11
-39.667937
21
0.824998
31
0
39
0
210
0
220
0
230
1
0
LINE
5
178
100
AcDbEntity
8
SK2
62
256
6
ByLayer
370
13
48
1
60
0
100
AcDbLine
10
-38.831943
20
0.825002
30
0
11
-39.667937
21
0.824998
31
0
39
0
210
0
220
0
230
1
0
LINE
5
179
100
AcDbEntity
8
SK2
62
256
6
ByLayer
370
13
48
1
60
0
100
AcDbLine
10
-39.24994
20
-4
30
0
11
-39.667937
21
-0.825002
31
0
39
0
210
0
220
0
230
1
0
LINE
5
17A
100
AcDbEntity
8
SK2
62
256
6
ByLayer
370
13
48
1
60
0
100
AcDbLine
10
-39.24994
20
-4
30
0
11
-38.831943
21
-0.824998
31
0
39
0
210
0
220
0
230
1
0
LINE
5
17B
100
AcDbEntity
8
SK2
62
256
6
ByLayer
370
13
48
1
60
0
100
AcDbLine
10
-39.667937
20
-0.825002
30
0
11
-38.831943
21
-0.824998
31
0
39
0
210
0
220
0
230
1
0
ENDBLK
5
17D
100
AcDbEntity
8
0
100
AcDbBlockEnd
0
BLOCK
5
182
100
AcDbEntity
8
0
100
AcDbBlockBegin
2
*D8
70
1
10
0
20
0
30
0
3
*D8
0
LINE
5
184
100
AcDbEntity
8
0
62
256
6
ByLayer
370
-2
48
1
60
0
100
AcDbLine
10
-36
20
-5.5875
30
0
11
-36
21
-30.67512
31
0
39
0
210
0
220
0
230
1
0
LINE
5
185
100
AcDbEntity
8
0
62
256
6
ByLayer
370
-2
48
1
60
0
100
AcDbLine
10
0
20
-5.5875
30
0
11
0
21
-30.67512
31
0
39
0
210
0
220
0
230
1
0
LINE
5
186
100
AcDbEntity
8
0
62
256
6
ByLayer
370
-2
48
1
60
0
100
AcDbLine
10
-32.825
20
-27.50012
30
0
11
-3.175
21
-27.50012
31
0
39
0
210
0
220
0
230
1
0
SOLID
5
187
100
AcDbEntity
8
0
62
256
6
ByLayer
370
-1
48
1
60
0
100
AcDbTrace
10
-32.825
20
-26.970953
30
0
11
-32.825
21
-28.029287
31
0
12
-36
22
-27.50012
32
0
13
-36
23
-27.50012
33
0
39
0
210
0
220
0
230
1
0
SOLID
5
188
100
AcDbEntity
8
0
62
256
6
ByLayer
370
-1
48
1
60
0
100
AcDbTrace
10
-3.175
20
-28.029287
30
0
11
-3.175
21
-26.970953
31
0
12
0
22
-27.50012
32
0
13
0
23
-27.50012
33
0
39
0
210
0
220
0
230
1
0
MTEXT
5
189
100
AcDbEntity
8
0
62
256
6
ByLayer
370
18
48
1
60
0
100
AcDbMText
10
-18
20
-20.193619
30
0
210
0
220
0
230
1
1
\A1;36
40
3.50012
41
0
44
1
50
0
71
5
72
5
7
iso_b_vert
0
POINT
5
18A
100
AcDbEntity
8
Defpoints
62
0
6
ByLayer
370
-1
48
1
60
0
100
AcDbPoint
10
-36
20
-4
30
0
39
0
210
0
220
0
230
1
50
360
0
POINT
5
18B
100
AcDbEntity
8
Defpoints
62
0
6
ByLayer
370
-1
48
1
60
0
100
AcDbPoint
10
0
20
-4
30
0
39
0
210
0
220
0
230
1
50
360
0
POINT
5
18C
100
AcDbEntity
8
Defpoints
62
0
6
ByLayer
370
-1
48
1
60
0
100
AcDbPoint
10
0
20
-27.50012
30
0
39
0
210
0
220
0
230
1
50
360
0
ENDBLK
5
183
100
AcDbEntity
8
0
100
AcDbBlockEnd
0
BLOCK
5
198
100
AcDbEntity
8
0
100
AcDbBlockBegin
2
_U3
70
0
10
0
20
0
30
0
3
_U3
0
MTEXT
5
18E
100
AcDbEntity
8
SK2
62
256
6
ByLayer
370
18
48
1
60
0
100
AcDbMText
10
-23.229611
20
-26.467451
30
0
210
0
220
0
230
1
1
\W0.7468;36.00
40
3.50012
41
0
44
1.084337
50
0
71
7
72
5
7
iso_b_vert
0
LINE
5
18F
100
AcDbEntity
8
SK2
62
256
6
ByLayer
370
13
48
1
60
0
100
AcDbLine
10
-36
20
-5.5875
30
0
11
-36
21
-30.67512
31
0
39
0
210
0
220
0
230
1
0
LINE
5
190
100
AcDbEntity
8
SK2
62
256
6
ByLayer
370
13
48
1
60
0
100
AcDbLine
10
0
20
-5.5875
30
0
11
0
21
-30.67512
31
0
39
0
210
0
220
0
230
1
0
LINE
5
191
100
AcDbEntity
8
SK2
62
256
6
ByLayer
370
13
48
1
60
0
100
AcDbLine
10
-36
20
-27.50012
30
0
11
0
21
-27.50012
31
0
39
0
210
0
220
0
230
1
0
LINE
5
192
100
AcDbEntity
8
SK2
62
256
6
ByLayer
370
13
48
1
60
0
100
AcDbLine
10
-36
20
-27.50012
30
0
11
-32.825002
21
-27.082123
31
0
39
0
210
0
220
0
230
1
0
LINE
5
193
100
AcDbEntity
8
SK2
62
256
6
ByLayer
370
13
48
1
60
0
100
AcDbLine
10
-36
20
-27.50012
30
0
11
-32.824998
21
-27.918117
31
0
39
0
210
0
220
0
230
1
0
LINE
5
194
100
AcDbEntity
8
SK2
62
256
6
ByLayer
370
13
48
1
60
0
100
AcDbLine
10
-32.825002
20
-27.082123
30
0
11
-32.824998
21
-27.918117
31
0
39
0
210
0
220
0
230
1
0
LINE
5
195
100
AcDbEntity
8
SK2
62
256
6
ByLayer
370
13
48
1
60
0
100
AcDbLine
10
0
20
-27.50012
30
0
11
-3.174998
21
-27.918117
31
0
39
0
210
0
220
0
230
1
0
LINE
5
196
100
AcDbEntity
8
SK2
62
256
6
ByLayer
370
13
48
1
60
0
100
AcDbLine
10
0
20
-27.50012
30
0
11
-3.175002
21
-27.082123
31
0
39
0
210
0
220
0
230
1
0
LINE
5
197
100
AcDbEntity
8
SK2
62
256
6
ByLayer
370
13
48
1
60
0
100
AcDbLine
10
-3.174998
20
-27.918117
30
0
11
-3.175002
21
-27.082123
31
0
39
0
210
0
220
0
230
1
0
ENDBLK
5
199
100
AcDbEntity
8
0
100
AcDbBlockEnd
0
BLOCK
5
19E
100
AcDbEntity
8
0
100
AcDbBlockBegin
2
*D10
70
1
10
0
20
0
30
0
3
*D10
0
LINE
5
1A0
100
AcDbEntity
8
0
62
256
6
ByLayer
370
-2
48
1
60
0
100
AcDbLine
10
2
20
2.7125
30
0
11
2
21
-21.92482
31
0
39
0
210
0
220
0
230
1
0
LINE
5
1A1
100
AcDbEntity
8
0
62
256
6
ByLayer
370
-2
48
1
60
0
100
AcDbLine
10
55
20
-1.5875
30
0
11
55
21
-21.92482
31
0
39
0
210
0
220
0
230
1
0
LINE
5
1A2
100
AcDbEntity
8
0
62
256
6
ByLayer
370
-2
48
1
60
0
100
AcDbLine
10
5.175
20
-18.74982
30
0
11
51.825
21
-18.74982
31
0
39
0
210
0
220
0
230
1
0
SOLID
5
1A3
100
AcDbEntity
8
0
62
256
6
ByLayer
370
-1
48
1
60
0
100
AcDbTrace
10
5.175
20
-18.220653
30
0
11
5.175
21
-19.278987
31
0
12
2
22
-18.74982
32
0
13
2
23
-18.74982
33
0
39
0
210
0
220
0
230
1
0
SOLID
5
1A4
100
AcDbEntity
8
0
62
256
6
ByLayer
370
-1
48
1
60
0
100
AcDbTrace
10
51.825
20
-19.278987
30
0
11
51.825
21
-18.220653
31
0
12
55
22
-18.74982
32
0
13
55
23
-18.74982
33
0
39
0
210
0
220
0
230
1
0
MTEXT
5
1A5
100
AcDbEntity
8
0
62
256
6
ByLayer
370
18
48
1
60
0
100
AcDbMText
10
28.5
20
-11.443319
30
0
210
0
220
0
230
1
1
\A1;53
40
3.50012
41
0
44
1
50
0
71
5
72
5
7
iso_b_vert
0
POINT
5
1A6
100
AcDbEntity
8
Defpoints
62
0
6
ByLayer
370
-1
48
1
60
0
100
AcDbPoint
10
2
20
4.3
30
0
39
0
210
0
220
0
230
1
50
360
0
POINT
5
1A7
100
AcDbEntity
8
Defpoints
62
0
6
ByLayer
370
-1
48
1
60
0
100
AcDbPoint
10
55
20
0
30
0
39
0
210
0
220
0
230
1
50
360
0
POINT
5
1A8
100
AcDbEntity
8
Defpoints
62
0
6
ByLayer
370
-1
48
1
60
0
100
AcDbPoint
10
55
20
-18.74982
30
0
39
0
210
0
220
0
230
1
50
360
0
ENDBLK
5
19F
100
AcDbEntity
8
0
100
AcDbBlockEnd
0
BLOCK
5
1B4
100
AcDbEntity
8
0
100
AcDbBlockBegin
2
_U4
70
0
10
0
20
0
30
0
3
_U4
0
MTEXT
5
1AA
100
AcDbEntity
8
SK2
62
256
6
ByLayer
370
18
48
1
60
0
100
AcDbMText
10
23.270389
20
-17.717151
30
0
210
0
220
0
230
1
1
\W0.7468;53.00
40
3.50012
41
0
44
1.084337
50
0
71
7
72
5
7
iso_b_vert
0
LINE
5
1AB
100
AcDbEntity
8
SK2
62
256
6
ByLayer
370
13
48
1
60
0
100
AcDbLine
10
2
20
2.7125
30
0
11
2
21
-21.92482
31
0
39
0
210
0
220
0
230
1
0
LINE
5
1AC
100
AcDbEntity
8
SK2
62
256
6
ByLayer
370
13
48
1
60
0
100
AcDbLine
10
55
20
-1.5875
30
0
11
55
21
-21.92482
31
0
39
0
210
0
220
0
230
1
0
LINE
5
1AD
100
AcDbEntity
8
SK2
62
256
6
ByLayer
370
13
48
1
60
0
100
AcDbLine
10
2
20
-18.74982
30
0
11
55
21
-18.74982
31
0
39
0
210
0
220
0
230
1
0
LINE
5
1AE
100
AcDbEntity
8
SK2
62
256
6
ByLayer
370
13
48
1
60
0
100
AcDbLine
10
2
20
-18.74982
30
0
11
5.174998
21
-18.331823
31
0
39
0
210
0
220
0
230
1
0
LINE
5
1AF
100
AcDbEntity
8
SK2
62
256
6
ByLayer
370
13
48
1
60
0
100
AcDbLine
10
2
20
-18.74982
30
0
11
5.175002
21
-19.167817
31
0
39
0
210
0
220
0
230
1
0
LINE
5
1B0
100
AcDbEntity
8
SK2
62
256
6
ByLayer
370
13
48
1
60
0
100
AcDbLine
10
5.174998
20
-18.331823
30
0
11
5.175002
21
-19.167817
31
0
39
0
210
0
220
0
230
1
0
LINE
5
1B1
100
AcDbEntity
8
SK2
62
256
6
ByLayer
370
13
48
1
60
0
100
AcDbLine
10
55
20
-18.74982
30
0
11
51.825002
21
-19.167817
31
0
39
0
210
0
220
0
230
1
0
LINE
5
1B2
100
AcDbEntity
8
SK2
62
256
6
ByLayer
370
13
48
1
60
0
100
AcDbLine
10
55
20
-18.74982
30
0
11
51.824998
21
-18.331823
31
0
39
0
210
0
220
0
230
1
0
LINE
5
1B3
100
AcDbEntity
8
SK2
62
256
6
ByLayer
370
13
48
1
60
0
100
AcDbLine
10
51.825002
20
-19.167817
30
0
11
51.824998
21
-18.331823
31
0
39
0
210
0
220
0
230
1
0
ENDBLK
5
1B5
100
AcDbEntity
8
0
100
AcDbBlockEnd
0
BLOCK
5
1BA
100
AcDbEntity
8
0
100
AcDbBlockBegin
2
*D12
70
1
10
0
20
0
30
0
3
*D12
0
LINE
5
1BC
100
AcDbEntity
8
0
62
256
6
ByLayer
370
-2
48
1
60
0
100
AcDbLine
10
15.7
20
-5.3875
30
0
11
15.7
21
-11.32
31
0
39
0
210
0
220
0
230
1
0
LINE
5
1BD
100
AcDbEntity
8
0
62
256
6
ByLayer
370
-2
48
1
60
0
100
AcDbLine
10
55
20
-1.5875
30
0
11
55
21
-11.32
31
0
39
0
210
0
220
0
230
1
0
LINE
5
1BE
100
AcDbEntity
8
0
62
256
6
ByLayer
370
-2
48
1
60
0
100
AcDbLine
10
18.875
20
-10.82
30
0
11
51.825
21
-10.82
31
0
39
0
210
0
220
0
230
1
0
SOLID
5
1BF
100
AcDbEntity
8
0
62
256
6
ByLayer
370
-1
48
1
60
0
100
AcDbTrace
10
18.875
20
-10.290833
30
0
11
18.875
21
-11.349167
31
0
12
15.7
22
-10.82
32
0
13
15.7
23
-10.82
33
0
39
0
210
0
220
0
230
1
0
SOLID
5
1C0
100
AcDbEntity
8
0
62
256
6
ByLayer
370
-1
48
1
60
0
100
AcDbTrace
10
51.825
20
-11.349167
30
0
11
51.825
21
-10.290833
31
0
12
55
22
-10.82
32
0
13
55
23
-10.82
33
0
39
0
210
0
220
0
230
1
0
MTEXT
5
1C1
100
AcDbEntity
8
0
62
256
6
ByLayer
370
18
48
1
60
0
100
AcDbMText
10
35.35
20
-4.975
30
0
210
0
220
0
230
1
1
\A1;39.3
40
2.8
41
0
44
1
50
0
71
5
72
5
7
iso_b_vert
0
POINT
5
1C2
100
AcDbEntity
8
Defpoints
62
0
6
ByLayer
370
-1
48
1
60
0
100
AcDbPoint
10
15.7
20
-3.8
30
0
39
0
210
0
220
0
230
1
50
360
0
POINT
5
1C3
100
AcDbEntity
8
Defpoints
62
0
6
ByLayer
370
-1
48
1
60
0
100
AcDbPoint
10
55
20
0
30
0
39
0
210
0
220
0
230
1
50
360
0
POINT
5
1C4
100
AcDbEntity
8
Defpoints
62
0
6
ByLayer
370
-1
48
1
60
0
100
AcDbPoint
10
55
20
-10.82
30
0
39
0
210
0
220
0
230
1
50
360
0
ENDBLK
5
1BB
100
AcDbEntity
8
0
100
AcDbBlockEnd
0
BLOCK
5
1D0
100
AcDbEntity
8
0
100
AcDbBlockBegin
2
_U5
70
0
10
0
20
0
30
0
3
_U5
0
MTEXT
5
1C6
100
AcDbEntity
8
SK2
62
256
6
ByLayer
370
18
48
1
60
0
100
AcDbMText
10
31.166454
20
-10.973893
30
0
210
0
220
0
230
1
1
\W0.7468;39.30
40
2.8
41
0
44
1.084337
50
0
71
7
72
5
7
iso_b_vert
0
LINE
5
1C7
100
AcDbEntity
8
SK2
62
256
6
ByLayer
370
13
48
1
60
0
100
AcDbLine
10
15.7
20
-5.3875
30
0
11
15.7
21
-11.32
31
0
39
0
210
0
220
0
230
1
0
LINE
5
1C8
100
AcDbEntity
8
SK2
62
256
6
ByLayer
370
13
48
1
60
0
100
AcDbLine
10
55
20
-1.5875
30
0
11
55
21
-11.32
31
0
39
0
210
0
220
0
230
1
0
LINE
5
1C9
100
AcDbEntity
8
SK2
62
256
6
ByLayer
370
13
48
1
60
0
100
AcDbLine
10
15.7
20
-10.82
30
0
11
55
21
-10.82
31
0
39
0
210
0
220
0
230
1
0
LINE
5
1CA
100
AcDbEntity
8
SK2
62
256
6
ByLayer
370
13
48
1
60
0
100
AcDbLine
10
15.7
20
-10.82
30
0
11
18.874998
21
-10.402003
31
0
39
0
210
0
220
0
230
1
0
LINE
5
1CB
100
AcDbEntity
8
SK2
62
256
6
ByLayer
370
13
48
1
60
0
100
AcDbLine
10
15.7
20
-10.82
30
0
11
18.875002
21
-11.237997
31
0
39
0
210
0
220
0
230
1
0
LINE
5
1CC
100
AcDbEntity
8
SK2
62
256
6
ByLayer
370
13
48
1
60
0
100
AcDbLine
10
18.874998
20
-10.402003
30
0
11
18.875002
21
-11.237997
31
0
39
0
210
0
220
0
230
1
0
LINE
5
1CD
100
AcDbEntity
8
SK2
62
256
6
ByLayer
370
13
48
1
60
0
100
AcDbLine
10
55
20
-10.82
30
0
11
51.825002
21
-11.237997
31
0
39
0
210
0
220
0
230
1
0
LINE
5
1CE
100
AcDbEntity
8
SK2
62
256
6
ByLayer
370
13
48
1
60
0
100
AcDbLine
10
55
20
-10.82
30
0
11
51.824998
21
-10.402003
31
0
39
0
210
0
220
0
230
1
0
LINE
5
1CF
100
AcDbEntity
8
SK2
62
256
6
ByLayer
370
13
48
1
60
0
100
AcDbLine
10
51.825002
20
-11.237997
30
0
11
51.824998
21
-10.402003
31
0
39
0
210
0
220
0
230
1
0
ENDBLK
5
1D1
100
AcDbEntity
8
0
100
AcDbBlockEnd
0
BLOCK
5
1D6
100
AcDbEntity
8
0
100
AcDbBlockBegin
2
*D14
70
1
10
0
20
0
30
0
3
*D14
0
LINE
5
1D8
100
AcDbEntity
8
0
62
256
6
ByLayer
370
-2
48
1
60
0
100
AcDbLine
10
-36
20
-1.5875
30
0
11
-36
21
-40.67512
31
0
39
0
210
0
220
0
230
1
0
LINE
5
1D9
100
AcDbEntity
8
0
62
256
6
ByLayer
370
-2
48
1
60
0
100
AcDbLine
10
55
20
-1.5875
30
0
11
55
21
-40.67512
31
0
39
0
210
0
220
0
230
1
0
LINE
5
1DA
100
AcDbEntity
8
0
62
256
6
ByLayer
370
-2
48
1
60
0
100
AcDbLine
10
-32.825
20
-37.50012
30
0
11
51.825
21
-37.50012
31
0
39
0
210
0
220
0
230
1
0
SOLID
5
1DB
100
AcDbEntity
8
0
62
256
6
ByLayer
370
-1
48
1
60
0
100
AcDbTrace
10
-32.825
20
-36.970953
30
0
11
-32.825
21
-38.029287
31
0
12
-36
22
-37.50012
32
0
13
-36
23
-37.50012
33
0
39
0
210
0
220
0
230
1
0
SOLID
5
1DC
100
AcDbEntity
8
0
62
256
6
ByLayer
370
-1
48
1
60
0
100
AcDbTrace
10
51.825
20
-38.029287
30
0
11
51.825
21
-36.970953
31
0
12
55
22
-37.50012
32
0
13
55
23
-37.50012
33
0
39
0
210
0
220
0
230
1
0
MTEXT
5
1DD
100
AcDbEntity
8
0
62
256
6
ByLayer
370
18
48
1
60
0
100
AcDbMText
10
9.5
20
-30.193619
30
0
210
0
220
0
230
1
1
\A1;91
40
3.50012
41
0
44
1
50
0
71
5
72
5
7
iso_b_vert
0
POINT
5
1DE
100
AcDbEntity
8
Defpoints
62
0
6
ByLayer
370
-1
48
1
60
0
100
AcDbPoint
10
-36
20
0
30
0
39
0
210
0
220
0
230
1
50
360
0
POINT
5
1DF
100
AcDbEntity
8
Defpoints
62
0
6
ByLayer
370
-1
48
1
60
0
100
AcDbPoint
10
55
20
0
30
0
39
0
210
0
220
0
230
1
50
360
0
POINT
5
1E0
100
AcDbEntity
8
Defpoints
62
0
6
ByLayer
370
-1
48
1
60
0
100
AcDbPoint
10
55
20
-37.50012
30
0
39
0
210
0
220
0
230
1
50
360
0
ENDBLK
5
1D7
100
AcDbEntity
8
0
100
AcDbBlockEnd
0
BLOCK
5
1EC
100
AcDbEntity
8
0
100
AcDbBlockBegin
2
_U6
70
0
10
0
20
0
30
0
3
_U6
0
MTEXT
5
1E2
100
AcDbEntity
8
SK2
62
256
6
ByLayer
370
18
48
1
60
0
100
AcDbMText
10
4.707837
20
-36.467451
30
0
210
0
220
0
230
1
1
\W0.6864;91.00
40
3.50012
41
0
44
1.084337
50
0
71
7
72
5
7
iso_b_vert
0
LINE
5
1E3
100
AcDbEntity
8
SK2
62
256
6
ByLayer
370
13
48
1
60
0
100
AcDbLine
10
-36
20
-1.5875
30
0
11
-36
21
-40.67512
31
0
39
0
210
0
220
0
230
1
0
LINE
5
1E4
100
AcDbEntity
8
SK2
62
256
6
ByLayer
370
13
48
1
60
0
100
AcDbLine
10
55
20
-1.5875
30
0
11
55
21
-40.67512
31
0
39
0
210
0
220
0
230
1
0
LINE
5
1E5
100
AcDbEntity
8
SK2
62
256
6
ByLayer
370
13
48
1
60
0
100
AcDbLine
10
-36
20
-37.50012
30
0
11
55
21
-37.50012
31
0
39
0
210
0
220
0
230
1
0
LINE
5
1E6
100
AcDbEntity
8
SK2
62
256
6
ByLayer
370
13
48
1
60
0
100
AcDbLine
10
-36
20
-37.50012
30
0
11
-32.825002
21
-37.082123
31
0
39
0
210
0
220
0
230
1
0
LINE
5
1E7
100
AcDbEntity
8
SK2
62
256
6
ByLayer
370
13
48
1
60
0
100
AcDbLine
10
-36
20
-37.50012
30
0
11
-32.824998
21
-37.918117
31
0
39
0
210
0
220
0
230
1
0
LINE
5
1E8
100
AcDbEntity
8
SK2
62
256
6
ByLayer
370
13
48
1
60
0
100
AcDbLine
10
-32.825002
20
-37.082123
30
0
11
-32.824998
21
-37.918117
31
0
39
0
210
0
220
0
230
1
0
LINE
5
1E9
100
AcDbEntity
8
SK2
62
256
6
ByLayer
370
13
48
1
60
0
100
AcDbLine
10
55
20
-37.50012
30
0
11
51.825002
21
-37.918117
31
0
39
0
210
0
220
0
230
1
0
LINE
5
1EA
100
AcDbEntity
8
SK2
62
256
6
ByLayer
370
13
48
1
60
0
100
AcDbLine
10
55
20
-37.50012
30
0
11
51.824998
21
-37.082123
31
0
39
0
210
0
220
0
230
1
0
LINE
5
1EB
100
AcDbEntity
8
SK2
62
256
6
ByLayer
370
13
48
1
60
0
100
AcDbLine
10
51.825002
20
-37.918117
30
0
11
51.824998
21
-37.082123
31
0
39
0
210
0
220
0
230
1
0
ENDBLK
5
1ED
100
AcDbEntity
8
0
100
AcDbBlockEnd
0
ENDSEC
0
SECTION
2
ENTITIES
0
ARC
5
B3
100
AcDbEntity
8
1
62
256
6
ByLayer
370
18
48
1
60
0
100
AcDbCircle
39
0
10
0.831438
20
4.567008
30
0
40
0.800000000000002
210
0
220
0
230
1
100
AcDbArc
50
238.691319
51
270.03581
0
ARC
5
B4
100
AcDbEntity
8
1
62
256
6
ByLayer
370
18
48
1
60
0
100
AcDbCircle
39
0
10
0.831438
20
-4.567008
30
0
40
0.800000000000002
210
0
220
0
230
1
100
AcDbArc
50
89.96419
51
121.308681
0
ARC
5
B5
100
AcDbEntity
8
1
62
256
6
ByLayer
370
18
48
1
60
0
100
AcDbCircle
39
0
10
0
20
3.2
30
0
40
0.799999999999998
210
0
220
0
230
1
100
AcDbArc
50
58.691319
51
90
0
ARC
5
B6
100
AcDbEntity
8
1
62
256
6
ByLayer
370
18
48
1
60
0
100
AcDbCircle
39
0
10
0
20
-3.2
30
0
40
0.799999999999998
210
0
220
0
230
1
100
AcDbArc
50
270
51
301.308681
0
ARC
5
B7
100
AcDbEntity
8
SK2
62
256
6
ByLayer
370
13
48
1
60
0
100
AcDbCircle
39
0
10
55
20
0
30
0
40
20
210
0
220
0
230
1
100
AcDbArc
50
9.606349
51
69.999825
0
ARC
5
B8
100
AcDbEntity
8
SK2
62
256
6
ByLayer
370
13
48
1
60
0
100
AcDbCircle
39
0
10
55
20
0
30
0
40
20
210
0
220
0
230
1
100
AcDbArc
50
290.000175
51
350.393651
0
ELLIPSE
5
B9
100
AcDbEntity
8
1
62
256
6
ByLayer
370
18
48
1
60
0
100
AcDbEllipse
10
3.602368
20
2.744239
30
0
11
-8.77584533750582E-06
21
0.00999999614922619
31
0
210
0
220
0
230
1
40
0.010345
41
-2.44103011965267
42
-0.869827739585453
0
ELLIPSE
5
BA
100
AcDbEntity
8
1
62
256
6
ByLayer
370
18
48
1
60
0
100
AcDbEllipse
10
3.560186
20
-1.6784
30
0
11
0.0021136449617179
21
0.00977407310059652
31
0
210
0
220
0
230
1
40
0.565732
41
1.25872946264355
42
2.61308326408222
0
ELLIPSE
5
BB
100
AcDbEntity
8
1
62
256
6
ByLayer
370
18
48
1
60
0
100
AcDbEllipse
10
3.643641
20
2.737774
30
0
11
-0.00317818194289537
21
-0.00948151673192922
31
0
210
0
220
0
230
1
40
0.359379
41
0.765839953781245
42
2.33116135367672
0
ELLIPSE
5
BC
100
AcDbEntity
8
1
62
256
6
ByLayer
370
18
48
1
60
0
100
AcDbEllipse
10
3.601846
20
-1.692718
30
0
11
-0.00416287861166472
21
-0.00909232872615946
31
0
210
0
220
0
230
1
40
0.215952
41
-2.01487875421502
42
-0.445625397257991
0
POINT
5
70
100
AcDbEntity
8
80
62
256
6
ByLayer
370
18
48
1
60
0
100
AcDbPoint
10
0
20
0
30
0
39
0
210
0
220
0
230
1
50
360
0
POINT
5
72
100
AcDbEntity
8
81
62
256
6
ByLayer
370
18
48
1
60
0
100
AcDbPoint
10
55
20
0
30
0
39
0
210
0
220
0
230
1
50
360
0
POINT
5
74
100
AcDbEntity
8
1
62
256
6
ByLayer
370
18
48
1
60
0
100
AcDbPoint
10
-36
20
0
30
0
39
0
210
0
220
0
230
1
50
360
0
POINT
5
76
100
AcDbEntity
8
1
62
256
6
ByLayer
370
18
48
1
60
1
100
AcDbPoint
10
0
20
-4
30
0
39
0
210
0
220
0
230
1
50
360
0
POINT
5
77
100
AcDbEntity
8
1
62
256
6
ByLayer
370
18
48
1
60
1
100
AcDbPoint
10
55
20
0
30
0
39
0
210
0
220
0
230
1
50
360
0
POINT
5
78
100
AcDbEntity
8
1
62
256
6
ByLayer
370
18
48
1
60
1
100
AcDbPoint
10
53.6169
20
-3.8
30
0
39
0
210
0
220
0
230
1
50
360
0
POINT
5
79
100
AcDbEntity
8
1
62
256
6
ByLayer
370
18
48
1
60
1
100
AcDbPoint
10
53.6169
20
3.8
30
0
39
0
210
0
220
0
230
1
50
360
0
POINT
5
7A
100
AcDbEntity
8
1
62
256
6
ByLayer
370
18
48
1
60
1
100
AcDbPoint
10
-36
20
4
30
0
39
0
210
0
220
0
230
1
50
360
0
POINT
5
7B
100
AcDbEntity
8
1
62
256
6
ByLayer
370
18
48
1
60
1
100
AcDbPoint
10
-36
20
-4
30
0
39
0
210
0
220
0
230
1
50
360
0
POINT
5
7C
100
AcDbEntity
8
1
62
256
6
ByLayer
370
18
48
1
60
1
100
AcDbPoint
10
-36
20
-4
30
0
39
0
210
0
220
0
230
1
50
360
0
POINT
5
7D
100
AcDbEntity
8
1
62
256
6
ByLayer
370
18
48
1
60
1
100
AcDbPoint
10
0
20
-4
30
0
39
0
210
0
220
0
230
1
50
360
0
POINT
5
7E
100
AcDbEntity
8
1
62
256
6
ByLayer
370
18
48
1
60
1
100
AcDbPoint
10
2
20
4.3
30
0
39
0
210
0
220
0
230
1
50
360
0
POINT
5
7F
100
AcDbEntity
8
1
62
256
6
ByLayer
370
18
48
1
60
1
100
AcDbPoint
10
55
20
0
30
0
39
0
210
0
220
0
230
1
50
360
0
POINT
5
80
100
AcDbEntity
8
1
62
256
6
ByLayer
370
18
48
1
60
1
100
AcDbPoint
10
15.7
20
-3.8
30
0
39
0
210
0
220
0
230
1
50
360
0
POINT
5
81
100
AcDbEntity
8
1
62
256
6
ByLayer
370
18
48
1
60
1
100
AcDbPoint
10
55
20
0
30
0
39
0
210
0
220
0
230
1
50
360
0
POINT
5
82
100
AcDbEntity
8
1
62
256
6
ByLayer
370
18
48
1
60
1
100
AcDbPoint
10
-36
20
0
30
0
39
0
210
0
220
0
230
1
50
360
0
POINT
5
83
100
AcDbEntity
8
1
62
256
6
ByLayer
370
18
48
1
60
1
100
AcDbPoint
10
55
20
0
30
0
39
0
210
0
220
0
230
1
50
360
0
SPLINE
5
BD
100
AcDbEntity
8
1
62
256
6
ByLayer
370
18
48
1
60
0
100
AcDbSpline
70
4
71
3
72
56
73
52
40
0
40
0
40
0
40
0
40
0.0311389714292639
40
0.0311389714292639
40
0.0634407994430087
40
0.0634407994430087
40
0.0957426274567534
40
0.0957426274567534
40
0.128044455470498
40
0.128044455470498
40
0.160346283484243
40
0.160346283484243
40
0.192648111497988
40
0.192648111497988
40
0.224949939511732
40
0.224949939511732
40
0.257251767525477
40
0.257251767525477
40
0.289553595539222
40
0.289553595539222
40
0.321855423552967
40
0.321855423552967
40
0.354157251566712
40
0.354157251566712
40
0.386459079580456
40
0.386459079580456
40
0.418760907594201
40
0.418760907594201
40
0.483364563621692
40
0.483364563621692
40
0.547968219649183
40
0.547968219649183
40
0.580270047662928
40
0.580270047662928
40
0.612571875676674
40
0.612571875676674
40
0.677175531704164
40
0.677175531704164
40
0.741779187731655
40
0.741779187731655
40
0.774081015745401
40
0.774081015745401
40
0.806382843759146
40
0.806382843759146
40
0.870986499786637
40
0.870986499786637
40
0.935590155814127
40
0.935590155814127
40
0.967891983827873
40
0.967891983827873
40
1
40
1
40
1
40
1
41
1
10
18.3639603863154
20
3.59230843965639
30
0
41
1
10
18.6114392899339
20
3.63428169679949
30
0
41
1
10
18.8592094112002
20
3.66953486174566
30
0
41
1
10
19.3661727396213
20
3.72670645535158
30
0
41
1
10
19.6257672205527
20
3.74822696388739
30
0
41
1
10
20.1445607194461
20
3.77545591145096
30
0
41
1
10
20.4032084947569
20
3.78111100487092
30
0
41
1
10
20.9210213826328
20
3.77656908995934
30
0
41
1
10
21.1798984019846
20
3.76643180177001
30
0
41
1
10
21.697593068285
20
3.73030206516449
30
0
41
1
10
21.9565357095737
20
3.7041994089376
30
0
41
1
10
22.4758658537557
20
3.63677332505739
30
0
41
1
10
22.7350883787754
20
3.59548441301493
30
0
41
1
10
23.2526814089203
20
3.4978114343408
30
0
41
1
10
23.5110518888977
20
3.44136753849057
30
0
41
1
10
24.0288615890846
20
3.31472119156109
30
0
41
1
10
24.2880284634014
20
3.24434675185043
30
0
41
1
10
24.8071177312944
20
3.08950476362207
30
-2E-16
41
1
10
25.0660965606633
20
3.00545178492419
30
-2E-16
41
1
10
25.5839158920037
20
2.82572259855621
30
-2E-16
41
1
10
25.8426776088318
20
2.72991357861002
30
-2E-16
41
1
10
26.3600847826318
20
2.52656845559326
30
-2E-16
41
1
10
26.6189129797549
20
2.41924941523993
30
-1E-16
41
1
10
27.1379956866209
20
2.19493890504938
30
-1E-16
41
1
10
27.3971059595678
20
2.07814031897621
30
-1E-16
41
1
10
27.9126368218485
20
1.83684224529441
30
-1E-16
41
1
10
28.1695954477004
20
1.71251926111037
30
-1E-16
41
1
10
28.9395635676023
20
1.33122491823784
30
-1E-16
41
1
10
29.4505150271492
20
1.06392525494007
30
-1E-16
41
1
10
30.47541740241
20
0.516875917582126
30
0
41
1
10
30.9884342621671
20
0.235419247577852
30
0
41
1
10
31.7644696574926
20
-0.188345967018762
30
0
41
1
10
32.0245612021654
20
-0.330305009851287
30
0
41
1
10
32.5410874417833
20
-0.61119312817695
30
0
41
1
10
32.7985272099768
20
-0.749876115396461
30
0
41
1
10
33.5692306119128
20
-1.15927817947363
30
1E-16
41
1
10
34.0801931745074
20
-1.4245439090306
30
1E-16
41
1
10
35.1041429357361
20
-1.92645095627634
30
1E-16
41
1
10
35.6160959075557
20
-2.16482374243895
30
1E-16
41
1
10
36.3898419065972
20
-2.49375323270047
30
2E-16
41
1
10
36.6491323190948
20
-2.59914007619676
30
2E-16
41
1
10
37.1670836672864
20
-2.79889789895449
30
2E-16
41
1
10
37.4251939243368
20
-2.89234162038429
30
2E-16
41
1
10
38.1974457668839
20
-3.15342573777971
30
2E-16
41
1
10
38.7087019383314
20
-3.3025439442587
30
0
41
1
10
39.7323490080142
20
-3.54357415072249
30
0
41
1
10
40.2433156673341
20
-3.63656921278175
30
0
41
1
10
41.0153913478445
20
-3.72992881965891
30
0
41
1
10
41.2733827161036
20
-3.75355219489367
30
0
41
1
10
41.7896506750545
20
-3.78507028278
30
0
41
1
10
42.047628363458
20
-3.79290081078145
30
0
41
1
10
42.3040381107375
20
-3.79292664060216
30
0
0
SPLINE
5
BE
100
AcDbEntity
8
1
62
256
6
ByLayer
370
18
48
1
60
0
100
AcDbSpline
70
4
71
3
72
32
73
28
40
0
40
0
40
0
40
0
40
0.497315212038941
40
0.497315212038941
40
0.672173826772911
40
0.672173826772911
40
0.786332835725887
40
0.786332835725887
40
0.860780572815511
40
0.860780572815511
40
0.909429664057538
40
0.909429664057538
40
0.94141478059542
40
0.94141478059542
40
0.962460834951264
40
0.962460834951264
40
0.976013112881489
40
0.976013112881489
40
0.984743106605194
40
0.984743106605194
40
0.990407245182501
40
0.990407245182501
40
0.994217356361986
40
0.994217356361986
40
0.998063136280253
40
0.998063136280253
40
1
40
1
40
1
40
1
41
1
10
53.4445051291879
20
-3.79913455187909
30
0
41
1
10
53.4825891624312
20
-3.77430851084469
30
0
41
1
10
53.5207423729921
20
-3.74922179637431
30
0
41
1
10
53.5723827672076
20
-3.71498915434353
30
0
41
1
10
53.585818322021
20
-3.7060575384096
30
0
41
1
10
53.6080399504742
20
-3.69124349512146
30
0
41
1
10
53.6168237684362
20
-3.68537690802344
30
0
41
1
10
53.6313626507661
20
-3.67564874514864
30
0
41
1
10
53.6371122138338
20
-3.67179699471387
30
0
41
1
10
53.6466155849291
20
-3.66542342896764
30
0
41
1
10
53.6503719326793
20
-3.66290235749204
30
0
41
1
10
53.6565621745796
20
-3.65874504175809
30
0
41
1
10
53.6590014507983
20
-3.65710617963961
30
0
41
1
10
53.6630370311262
20
-3.65439337098536
30
0
41
1
10
53.6646428936949
20
-3.65331344224651
30
0
41
1
10
53.6673153582066
20
-3.65151545827416
30
0
41
1
10
53.668370364753
20
-3.65080548136444
30
0
41
1
10
53.6701195926399
20
-3.64962805286126
30
0
41
1
10
53.6708087581353
20
-3.64916409943069
30
0
41
1
10
53.6719506922153
20
-3.64839524259989
30
0
41
1
10
53.6724013789188
20
-3.64809177606429
30
0
41
1
10
53.6731460358631
20
-3.64759036107984
30
0
41
1
10
53.6734435827136
20
-3.6473900057025
30
0
41
1
10
53.6740230342126
20
-3.64699984018867
30
0
41
1
10
53.6743144731703
20
-3.64680360640611
30
0
41
1
10
53.6746724488488
20
-3.64656263276464
30
0
41
1
10
53.6747783715432
20
-3.64649134565627
30
0
41
1
10
53.6748499009183
20
-3.64644322712144
30
0
0
SPLINE
5
BF
100
AcDbEntity
8
1
62
256
6
ByLayer
370
18
48
1
60
0
100
AcDbSpline
70
4
71
3
72
14
73
10
40
0
40
0
40
0
40
0
40
0.0899279697291291
40
0.0899279697291291
40
0.393285313152753
40
0.393285313152753
40
0.696642656576377
40
0.696642656576377
40
1
40
1
40
1
40
1
41
1
10
53.5342540557991
20
0.843396579902105
30
0
41
1
10
53.5453075568996
20
0.850944686780963
30
0
41
1
10
53.5568557444584
20
0.85857527573441
30
0
41
1
10
53.609604029794
20
0.892178321030656
30
0
41
1
10
53.654900923761
20
0.918276263029441
30
0
41
1
10
53.7533679759796
20
0.966906703619514
30
0
41
1
10
53.8073801145444
20
0.989679105240498
30
0
41
1
10
53.9187727284249
20
1.02648949622721
30
0
41
1
10
53.9772426146898
20
1.04092552467731
30
0
41
1
10
54.0369894449939
20
1.05024906728917
30
0
0
SPLINE
5
C0
100
AcDbEntity
8
1
62
256
6
ByLayer
370
18
48
1
60
0
100
AcDbSpline
70
4
71
3
72
8
73
4
40
0
40
0
40
0
40
0
40
1
40
1
40
1
40
1
41
1
10
3.64830084623858
20
2.74348088566049
30
-2E-16
41
1
10
3.63411951733377
20
2.74824073299916
30
-2E-16
41
1
10
3.61846803442126
20
2.7506933103713
30
-2E-16
41
1
10
3.6024412734657
20
2.75068823778045
30
-2E-16
0
SPLINE
5
C1
100
AcDbEntity
8
1
62
256
6
ByLayer
370
18
48
1
60
0
100
AcDbSpline
70
4
71
3
72
8
73
4
40
0
40
0
40
0
40
0
40
1
40
1
40
1
40
1
41
1
10
3.64371251621424
20
2.73014798811653
30
-2E-16
41
1
10
3.6309453884374
20
2.73441559828217
30
-2E-16
41
1
10
3.61686097489405
20
2.73660674182483
30
-2E-16
41
1
10
3.6024412734657
20
2.73659385362018
30
-2E-16
0
SPLINE
5
C2
100
AcDbEntity
8
1
62
256
6
ByLayer
370
18
48
1
60
0
100
AcDbSpline
70
4
71
3
72
12
73
8
40
0
40
0
40
0
40
0
40
0.5
40
0.5
40
0.75
40
0.75
40
1
40
1
40
1
40
1
41
1
10
3.50170732317002
20
2.75415308671242
30
-2E-16
41
1
10
3.50170732316999
20
2.7503183526145
30
-2E-16
41
1
10
3.50944978629639
20
2.74629681777188
30
-2E-16
41
1
10
3.53480645826912
20
2.74110318107864
30
-2E-16
41
1
10
3.5455726285299
20
2.7395403369591
30
-2E-16
41
1
10
3.57163163360235
20
2.7372538782511
30
-2E-16
41
1
10
3.58681027283822
20
2.73657255149334
30
-2E-16
41
1
10
3.6024412734657
20
2.73659385362018
30
-2E-16
0
SPLINE
5
C3
100
AcDbEntity
8
1
62
256
6
ByLayer
370
18
48
1
60
0
100
AcDbSpline
70
4
71
3
72
10
73
6
40
0
40
0
40
0
40
0
40
0.5
40
0.5
40
1
40
1
40
1
40
1
41
1
10
53.6806123109948
20
-3.64256089356246
30
0
41
1
10
53.6683232575734
20
-3.65084438874632
30
0
41
1
10
53.657887617468
20
-3.65441723995636
30
0
41
1
10
53.6401080081629
20
-3.65224777968598
30
0
41
1
10
53.6328192165067
20
-3.64655024986266
30
0
41
1
10
53.6266044154172
20
-3.63663699924589
30
0
0
SPLINE
5
C4
100
AcDbEntity
8
1
62
256
6
ByLayer
370
18
48
1
60
0
100
AcDbSpline
70
4
71
3
72
30
73
26
40
0
40
0
40
0
40
0
40
0.125
40
0.125
40
0.1875
40
0.1875
40
0.25
40
0.25
40
0.3125
40
0.3125
40
0.375
40
0.375
40
0.4375
40
0.4375
40
0.5
40
0.5
40
0.5625
40
0.5625
40
0.625
40
0.625
40
0.75
40
0.75
40
0.875
40
0.875
40
1
40
1
40
1
40
1
41
1
10
54.9470087489958
20
0.0457456610498355
30
0
41
1
10
54.9286143255361
20
-0.0149033246248678
30
0
41
1
10
54.9074661721091
20
-0.0741657402112423
30
0
41
1
10
54.8714578366695
20
-0.16083000949439
30
0
41
1
10
54.8586204059771
20
-0.189567241616288
30
0
41
1
10
54.8320911754427
20
-0.244746364898191
30
0
41
1
10
54.8183928740239
20
-0.271246430170749
30
0
41
1
10
54.7901489523271
20
-0.321999882585715
30
0
41
1
10
54.7756039137597
20
-0.346254744752145
30
0
41
1
10
54.745623042683
20
-0.392318857402898
30
0
41
1
10
54.7302224979045
20
-0.414023659348743
30
0
41
1
10
54.6997715458236
20
-0.453081085158885
30
0
41
1
10
54.6845670786177
20
-0.470680436131829
30
0
41
1
10
54.6541799265814
20
-0.501940362307721
30
0
41
1
10
54.6388587595343
20
-0.515686572442377
30
0
41
1
10
54.6092015202724
20
-0.538226902909656
30
0
41
1
10
54.5947941556439
20
-0.547133398313065
30
0
41
1
10
54.5667114308187
20
-0.56040415900128
30
0
41
1
10
54.5529338416398
20
-0.564769670031637
30
0
41
1
10
54.5135443201213
20
-0.570895715199129
30
0
41
1
10
54.4895531335278
20
-0.565885005251459
30
0
41
1
10
54.4459388957837
20
-0.540434552176094
30
0
41
1
10
54.426735519502
20
-0.52040455671019
30
0
41
1
10
54.3919711743431
20
-0.468329130755109
30
0
41
1
10
54.3764627124528
20
-0.43615700308149
30
0
41
1
10
54.3627494969467
20
-0.399551139354855
30
0
0
SPLINE
5
C5
100
AcDbEntity
8
1
62
256
6
ByLayer
370
18
48
1
60
0
100
AcDbSpline
70
4
71
3
72
16
73
12
40
0
40
0
40
0
40
0
40
0.125
40
0.125
40
0.249999999999999
40
0.249999999999999
40
0.5
40
0.5
40
0.75
40
0.75
40
1
40
1
40
1
40
1
41
1
10
53.859046679263
20
0.730436724758761
30
0
41
1
10
53.8278822605728
20
0.736008182178352
30
0
41
1
10
53.7964430166637
20
0.739323754894087
30
0
41
1
10
53.7333322801206
20
0.743558237688063
30
0
41
1
10
53.7016639785849
20
0.744621994366838
30
0
41
1
10
53.6063411819988
20
0.742519953908271
30
0
41
1
10
53.5423580094566
20
0.734961841943317
30
0
41
1
10
53.4149726653621
20
0.706317857307937
30
0
41
1
10
53.3522239746104
20
0.685798352079559
30
0
41
1
10
53.2292214122019
20
0.635010194991793
30
0
41
1
10
53.1690379339931
20
0.603978411711438
30
0
41
1
10
53.1107012055342
20
0.566767579659484
30
0
0
SPLINE
5
C6
100
AcDbEntity
8
1
62
256
6
ByLayer
370
18
48
1
60
0
100
AcDbSpline
70
4
71
3
72
22
73
18
40
0
40
0
40
0
40
0
40
0.078406349556103
40
0.078406349556103
40
0.156812699112206
40
0.156812699112206
40
0.313625398224412
40
0.313625398224412
40
0.392031747780514
40
0.392031747780514
40
0.470438097336615
40
0.470438097336615
40
0.627250796448818
40
0.627250796448818
40
0.940876194673227
40
0.940876194673227
40
1
40
1
40
1
40
1
41
1
10
53.6431212570863
20
-3.58870269969981
30
0
41
1
10
53.3812186279867
20
-3.57005394551291
30
0
41
1
10
53.1200562530586
20
-3.54488130730329
30
0
41
1
10
52.5989651741348
20
-3.47859296789556
30
0
41
1
10
52.3389717951503
20
-3.43799169738355
30
0
41
1
10
51.5597599418715
20
-3.29486890015537
30
0
41
1
10
51.0413252707298
20
-3.17109910177706
30
0
41
1
10
50.2608988072737
20
-2.94627103110287
30
2E-16
41
1
10
50.0003063058767
20
-2.864793428675
30
2E-16
41
1
10
49.47750538682
20
-2.68943825445362
30
2E-16
41
1
10
49.2145440190365
20
-2.59527457264122
30
2E-16
41
1
10
48.4286011038617
20
-2.29775255179754
30
1E-16
41
1
10
47.9089041446017
20
-2.07965427147894
30
1E-16
41
1
10
46.354478869321
20
-1.38096372471077
30
1E-16
41
1
10
45.3243258712389
20
-0.855414080531517
30
1E-16
41
1
10
44.0803808166806
20
-0.208665088098627
30
0
41
1
10
43.8821317989595
20
-0.105268850822228
30
0
41
1
10
43.684343152455
20
-0.0021121568509272
30
0
0
SPLINE
5
C7
100
AcDbEntity
8
1
62
256
6
ByLayer
370
18
48
1
60
0
100
AcDbSpline
70
4
71
3
72
20
73
16
40
0
40
0
40
0
40
0
40
0.0081316523308147
40
0.0081316523308147
40
0.206505321864652
40
0.206505321864652
40
0.404878991398489
40
0.404878991398489
40
0.504065826165407
40
0.504065826165407
40
0.603252660932326
40
0.603252660932326
40
0.801626330466163
40
0.801626330466163
40
1
40
1
40
1
40
1
41
1
10
11.493875339909
20
-3.58661522982621
30
0
41
1
10
11.4723949183266
20
-3.58730899518409
30
0
41
1
10
11.4509241465216
20
-3.58795043092977
30
0
41
1
10
10.9059535896784
20
-3.60290799730666
30
0
41
1
10
10.3860891532827
20
-3.58638478690949
30
0
41
1
10
9.34808941169101
20
-3.49376704426172
30
0
41
1
10
8.8299742368597
20
-3.41768155683789
30
0
41
1
10
8.04996082840285
20
-3.2609658953613
30
0
41
1
10
7.78948164363669
20
-3.20163511961783
30
0
41
1
10
7.26689575463857
20
-3.06913468338021
30
0
41
1
10
7.00453744015442
20
-2.99590001102826
30
0
41
1
10
6.2155587366596
20
-2.75677790802302
30
2E-16
41
1
10
5.6925490650263
20
-2.57280497573703
30
2E-16
41
1
10
4.64635850279706
20
-2.16496765083892
30
1E-16
41
1
10
4.12316210570154
20
-1.9409990118327
30
1E-16
41
1
10
3.59724359342948
20
-1.70053472385354
30
1E-16
0
SPLINE
5
C8
100
AcDbEntity
8
1
62
256
6
ByLayer
370
18
48
1
60
0
100
AcDbSpline
70
4
71
3
72
8
73
4
40
0
40
0
40
0
40
0
40
1
40
1
40
1
40
1
41
1
10
54.9964957692213
20
0.209795548755039
30
0
41
1
10
54.9800817746314
20
0.15508643347269
30
0
41
1
10
54.9635859984692
20
0.100403170052289
30
0
41
1
10
54.9470087489958
20
0.0457456610498355
30
0
0
SPLINE
5
C9
100
AcDbEntity
8
1
62
256
6
ByLayer
370
18
48
1
60
0
100
AcDbSpline
70
4
71
3
72
31
73
27
40
0
40
0
40
0
40
0
40
0.0774443389273825
40
0.0774443389273825
40
0.154888677854765
40
0.154888677854765
40
0.309777355709531
40
0.309777355709531
40
0.387221694636914
40
0.387221694636914
40
0.425943864100606
40
0.425943864100606
40
0.464666033564297
40
0.464666033564297
40
0.619554711419064
40
0.619554711419064
40
0.77444338927383
40
0.77444338927383
40
0.81316555873752
40
0.81316555873752
40
0.851887728201211
40
0.929332067128592
40
0.929332067128592
40
0.968054236592281
40
0.968054236592281
40
1
40
1
40
1
40
1
41
1
10
17.1999999898966
20
1.94945250675312
30
-1E-16
41
1
10
17.580740026459
20
1.77149869689001
30
-1E-16
41
1
10
17.9612384158361
20
1.58477841544604
30
-1E-16
41
1
10
18.7221513671133
20
1.19915435564127
30
-1E-16
41
1
10
19.1034546921509
20
0.999628331343644
30
-1E-16
41
1
10
20.2389761064851
20
0.394276710368217
30
0
41
1
10
20.9884377249552
20
-0.0199873395515624
30
0
41
1
10
22.1151505909209
20
-0.631525815813461
30
0
41
1
10
22.4911609844939
20
-0.833694065709665
30
1E-16
41
1
10
23.0575327704776
20
-1.13126409277837
30
1E-16
41
1
10
23.2467120572665
20
-1.22951447141202
30
1E-16
41
1
10
23.6261348043944
20
-1.42360106587884
30
1E-16
41
1
10
23.8167607121672
20
-1.51962159929482
30
1E-16
41
1
10
24.7660856229878
20
-1.98873893871965
30
1E-16
41
1
10
25.5166622363619
20
-2.33047299059885
30
1E-16
41
1
10
27.0182166783542
20
-2.92163157573165
30
2E-16
41
1
10
27.7691258194603
20
-3.17113299488909
30
2E-16
41
1
10
28.719470518513
20
-3.41005147486587
30
0
41
1
10
28.9098726396805
20
-3.45410426435603
30
0
41
1
10
29.2897390658291
20
-3.53409992984612
30
0
41
1
10
29.8589466271407
20
-3.64214628471129
30
0
41
1
10
30.4276566514314
20
-3.71366136566854
30
0
41
1
10
30.9978029827894
20
-3.75990948144082
30
0
41
1
10
31.1883017441882
20
-3.77111096590065
30
0
41
1
10
31.5344940140429
20
-3.7836985974123
30
0
41
1
10
31.6906179216818
20
-3.78647974712823
30
0
41
1
10
31.8464532040452
20
-3.78638249865671
30
0
0
SPLINE
5
CA
100
AcDbEntity
8
1
62
256
6
ByLayer
370
18
48
1
60
0
100
AcDbSpline
70
4
71
3
72
12
73
8
40
0
40
0
40
0
40
0
40
0.115826585254727
40
0.115826585254727
40
0.557913292627365
40
0.557913292627365
40
1
40
1
40
1
40
1
41
1
10
52.1585327041632
20
3.71900083520873
30
0
41
1
10
52.2079212531183
20
3.72456723963771
30
0
41
1
10
52.2573362073791
20
3.72985276553237
30
0
41
1
10
52.4954978087099
20
3.75394983167013
30
0
41
1
10
52.6846396715013
20
3.76892412659095
30
0
41
1
10
53.0640757850494
20
3.79042281125686
30
0
41
1
10
53.2544188892686
20
3.79693448824551
30
0
41
1
10
53.444505129188
20
3.79913455189302
30
0
0
SPLINE
5
CB
100
AcDbEntity
8
1
62
256
6
ByLayer
370
18
48
1
60
0
100
AcDbSpline
70
4
71
3
72
48
73
44
40
0
40
0
40
0
40
0
40
0.0027922002021309
40
0.0027922002021309
40
0.0277223951970772
40
0.0277223951970772
40
0.0526525901920236
40
0.0526525901920236
40
0.102512980181918
40
0.102512980181918
40
0.202233760161706
40
0.202233760161706
40
0.2520941501516
40
0.2520941501516
40
0.301954540141493
40
0.301954540141493
40
0.40167532012128
40
0.40167532012128
40
0.426605515116226
40
0.426605515116226
40
0.451535710111172
40
0.451535710111172
40
0.501396100101065
40
0.501396100101065
40
0.551256490090958
40
0.551256490090958
40
0.601116880080852
40
0.601116880080852
40
0.700837660060639
40
0.700837660060639
40
0.750698050050531
40
0.750698050050531
40
0.775628245045478
40
0.775628245045478
40
0.800558440040424
40
0.800558440040424
40
0.900279220020211
40
0.900279220020211
40
0.950139610010105
40
0.950139610010105
40
0.975069805005052
40
0.975069805005052
40
1
40
1
40
1
40
1
41
1
10
30.7439061982484
20
3.73915525019709
30
0
41
1
10
30.7651860025079
20
3.74098740199926
30
0
41
1
10
30.7864686026497
20
3.74276683517303
30
0
41
1
10
30.9978029827896
20
3.75990948144084
30
0
41
1
10
31.1883017441883
20
3.77111096590065
30
0
41
1
10
31.5676906748007
20
3.7849056357243
30
0
41
1
10
31.7568357957138
20
3.78752873490851
30
0
41
1
10
32.3230787057148
20
3.78273960622423
30
0
41
1
10
32.6989949649652
20
3.76266656141428
30
0
41
1
10
33.8254872260294
20
3.65328413968038
30
0
41
1
10
34.5746558287896
20
3.51473257298326
30
0
41
1
10
35.7092199819484
20
3.21473374335758
30
-2E-16
41
1
10
36.0906744688414
20
3.09879765834989
30
-2E-16
41
1
10
36.8476833037098
20
2.84180287013041
30
-2E-16
41
1
10
37.2242017806179
20
2.70061990445816
30
-2E-16
41
1
10
38.3513617256904
20
2.24431066102124
30
-1E-16
41
1
10
39.0995525117143
20
1.89633025569975
30
-1E-16
41
1
10
40.0420201948859
20
1.42389952900274
30
-1E-16
41
1
10
40.2308763566578
20
1.32754452697742
30
-1E-16
41
1
10
40.60959499152
20
1.13153085721322
30
-1E-16
41
1
10
40.7997191859964
20
1.03173263268746
30
-1E-16
41
1
10
41.3701166109855
20
0.729029180101577
30
0
41
1
10
41.7491815629049
20
0.523497610120216
30
0
41
1
10
42.5074117525546
20
0.109536108391467
30
0
41
1
10
42.8865849026276
20
-0.0988785976707902
30
0
41
1
10
43.6473833180936
20
-0.514301678575237
30
0
41
1
10
44.0256887374458
20
-0.719501526873813
30
0
41
1
10
45.1558953643899
20
-1.32048695832683
30
1E-16
41
1
10
45.9038496716581
20
-1.70223689272279
30
1E-16
41
1
10
47.0314306417307
20
-2.22291917969173
30
1E-16
41
1
10
47.4082210988983
20
-2.38785198191022
30
1E-16
41
1
10
47.976487181097
20
-2.61949001556141
30
2E-16
41
1
10
48.1668423773535
20
-2.69422348551586
30
2E-16
41
1
10
48.546443143279
20
-2.83701071044692
30
2E-16
41
1
10
48.7356647565448
20
-2.90507156424101
30
2E-16
41
1
10
49.6796397885975
20
-3.22807300365625
30
2E-16
41
1
10
50.427960971572
20
-3.43113186881104
30
0
41
1
10
51.5536001017079
20
-3.64199814197235
30
0
41
1
10
51.9293448981438
20
-3.69666677657739
30
0
41
1
10
52.4954978087103
20
-3.75394983167018
30
0
41
1
10
52.6846396715017
20
-3.76892412659097
30
0
41
1
10
53.0640757850497
20
-3.79042281125689
30
0
41
1
10
53.254418889269
20
-3.79693448824554
30
0
41
1
10
53.4445051291884
20
-3.79913455189302
30
0
0
SPLINE
5
CC
100
AcDbEntity
8
1
62
256
6
ByLayer
370
18
48
1
60
0
100
AcDbSpline
70
4
71
3
72
38
73
34
40
0
40
0
40
0
40
0
40
0.0755287451679288
40
0.0755287451679288
40
0.113293117751893
40
0.113293117751893
40
0.151057490335858
40
0.151057490335858
40
0.226586235503785
40
0.226586235503785
40
0.264350608087749
40
0.264350608087749
40
0.302114980671714
40
0.302114980671714
40
0.453172471007574
40
0.453172471007574
40
0.528701216175505
40
0.528701216175505
40
0.604229961343435
40
0.604229961343435
40
0.641994333927399
40
0.641994333927399
40
0.679758706511364
40
0.679758706511364
40
0.755287451679293
40
0.755287451679293
40
0.830816196847222
40
0.830816196847222
40
0.868580569431186
40
0.868580569431186
40
0.906344942015151
40
0.906344942015151
40
1
40
1
40
1
40
1
41
1
10
53.4303731747153
20
-3.74985523863546
30
0
41
1
10
52.9079765478321
20
-3.70307610298926
30
0
41
1
10
52.3866334095753
20
-3.62445124556709
30
0
41
1
10
51.6022554759741
20
-3.4608879066258
30
0
41
1
10
51.3406390817438
20
-3.39876933765797
30
0
41
1
10
50.819871808139
20
-3.26101653928407
30
0
41
1
10
50.5602278969254
20
-3.18528528140095
30
2E-16
41
1
10
49.7824053188756
20
-2.93887114437484
30
2E-16
41
1
10
49.2653441438648
20
-2.74894121644505
30
2E-16
41
1
10
48.4873727544125
20
-2.4312776069861
30
1E-16
41
1
10
48.2276496731355
20
-2.31993861611062
30
1E-16
41
1
10
47.7067462715966
20
-2.0871628934967
30
1E-16
41
1
10
47.4448435888047
20
-1.96536479950285
30
1E-16
41
1
10
46.1394111368717
20
-1.33880214595399
30
1E-16
41
1
10
45.1121906625821
20
-0.78314187221909
30
0
41
1
10
43.5605343065358
20
0.0651465175113231
30
0
41
1
10
43.0417054907397
20
0.350724859291631
30
0
41
1
10
41.9947175487515
20
0.916276655167763
30
-1E-16
41
1
10
41.4734032406149
20
1.19224701813769
30
-1E-16
41
1
10
40.690522378029
20
1.58797703828245
30
-1E-16
41
1
10
40.4293767697029
20
1.71683656277557
30
-1E-16
41
1
10
39.9059951206458
20
1.9672140361954
30
-1E-16
41
1
10
39.6448618569202
20
2.08817205228147
30
-1E-16
41
1
10
38.8648299150556
20
2.43543318243474
30
-1E-16
41
1
10
38.3481099144345
20
2.64674468764852
30
-2E-16
41
1
10
37.3152710802954
20
3.02164367979236
30
-2E-16
41
1
10
36.7991822118629
20
3.18527320644935
30
-2E-16
41
1
10
36.0211451920779
20
3.38977195243922
30
0
41
1
10
35.7611573611002
20
3.45112115726792
30
0
41
1
10
35.2390798421226
20
3.55926280800958
30
0
41
1
10
34.9768346091952
20
3.60601707358273
30
0
41
1
10
34.0702421112136
20
3.74068670809652
30
0
41
1
10
33.429895065291
20
3.78808542098972
30
0
41
1
10
32.789627878696
20
3.78693439569446
30
0
0
SPLINE
5
CD
100
AcDbEntity
8
1
62
256
6
ByLayer
370
18
48
1
60
0
100
AcDbSpline
70
4
71
3
72
16
73
12
40
0
40
0
40
0
40
0
40
0.0329802477835755
40
0.0329802477835755
40
0.35532016518905
40
0.35532016518905
40
0.516490123891787
40
0.516490123891787
40
0.677660082594525
40
0.677660082594525
40
1
40
1
40
1
40
1
41
1
10
13.2238567889788
20
-3.59100717960675
30
0
41
1
10
13.1167556281296
20
-3.60894122145467
30
0
41
1
10
13.0096256020671
20
-3.62559509552352
30
0
41
1
10
11.8570341263119
20
-3.79063910449418
30
0
41
1
10
10.8282940552806
20
-3.81302872125949
30
0
41
1
10
9.27515222110247
20
-3.65864073040095
30
0
41
1
10
8.75578223283412
20
-3.57587930148128
30
0
41
1
10
7.70762586460143
20
-3.34887742597846
30
0
41
1
10
7.18740566642154
20
-3.20647450248868
30
2E-16
41
1
10
5.63240060610701
20
-2.70437488996777
30
2E-16
41
1
10
4.60167104165035
20
-2.26977109956764
30
1E-16
41
1
10
3.55385716542872
20
-1.76495887947812
30
1E-16
0
SPLINE
5
CE
100
AcDbEntity
8
1
62
256
6
ByLayer
370
18
48
1
60
0
100
AcDbSpline
70
4
71
3
72
36
73
32
40
0
40
0
40
0
40
0
40
0.0249006128112393
40
0.0249006128112393
40
0.162093379905588
40
0.162093379905588
40
0.230689763452765
40
0.230689763452765
40
0.299286146999941
40
0.299286146999941
40
0.367882530547117
40
0.367882530547117
40
0.436478914094293
40
0.436478914094293
40
0.505075297641469
40
0.505075297641469
40
0.573671681188645
40
0.573671681188645
40
0.642268064735822
40
0.642268064735822
40
0.710864448282998
40
0.710864448282998
40
0.779460831830174
40
0.779460831830174
40
0.84805721537735
40
0.84805721537735
40
0.916653598924526
40
0.916653598924526
40
0.985249982471703
40
0.985249982471703
40
1
40
1
40
1
40
1
41
1
10
31.8352687015497
20
-0.226809945681794
30
0
41
1
10
31.7418687369979
20
-0.178384860547453
30
0
41
1
10
31.6485030234091
20
-0.129940988852326
30
0
41
1
10
31.04080678022
20
0.185252535225061
30
0
41
1
10
30.5277254411953
20
0.45292875157179
30
0
41
1
10
29.7548262279862
20
0.845843660809606
30
-1E-16
41
1
10
29.4968378838677
20
0.975719652968849
30
-1E-16
41
1
10
28.9792956311126
20
1.23163555532608
30
-1E-16
41
1
10
28.7192696135967
20
1.35769222729772
30
-1E-16
41
1
10
28.1986613285421
20
1.60374912786483
30
-1E-16
41
1
10
27.9389329654079
20
1.72347815237521
30
-1E-16
41
1
10
27.4196541709403
20
1.95507439992409
30
-1E-16
41
1
10
27.1599234551152
20
2.06692808871901
30
-1E-16
41
1
10
26.6399404127567
20
2.28169000546072
30
-1E-16
41
1
10
26.3793738881639
20
2.38467580361998
30
-1E-16
41
1
10
25.8602257083112
20
2.57934018977667
30
-2E-16
41
1
10
25.6012173114905
20
2.67126789359296
30
-2E-16
41
1
10
25.0842478445012
20
2.84321673394865
30
-2E-16
41
1
10
24.8264005364776
20
2.92307695616108
30
-2E-16
41
1
10
24.3107993571957
20
3.07037462704679
30
0
41
1
10
24.0529500227925
20
3.13797183016763
30
0
41
1
10
23.5369119175695
20
3.25982331668402
30
0
41
1
10
23.2789175824593
20
3.31357610697233
30
0
41
1
10
22.7614559218121
20
3.40796257026045
30
0
41
1
10
22.5019972676672
20
3.44870550749329
30
0
41
1
10
21.9814158904254
20
3.5153061738763
30
0
41
1
10
21.7219026581547
20
3.54009999822759
30
0
41
1
10
21.2046343362234
20
3.57597557991448
30
0
41
1
10
20.9465149416699
20
3.58702911922475
30
0
41
1
10
20.6336134001388
20
3.59114807926281
30
0
41
1
10
20.5782776902051
20
3.59148414266016
30
0
41
1
10
20.522972042069
20
3.59144454395772
30
0
0
SPLINE
5
CF
100
AcDbEntity
8
1
62
256
6
ByLayer
370
18
48
1
60
0
100
AcDbSpline
70
4
71
3
72
8
73
4
40
0
40
0
40
0
40
0
40
1
40
1
40
1
40
1
41
1
10
53.4303731747144
20
-3.74985523863398
30
0
41
1
10
53.4956041164401
20
-3.71290644747339
30
0
41
1
10
53.5610052992392
20
-3.67516058053576
30
0
41
1
10
53.6266044154171
20
-3.63663699924598
30
0
0
SPLINE
5
D0
100
AcDbEntity
8
1
62
256
6
ByLayer
370
18
48
1
60
0
100
AcDbSpline
70
4
71
3
72
8
73
4
40
0
40
0
40
0
40
0
40
1
40
1
40
1
40
1
41
1
10
54.0369894449939
20
1.05024906728917
30
0
41
1
10
54.2476525965003
20
1.08312322747187
30
0
41
1
10
54.4570600687548
20
1.12621870263536
30
0
41
1
10
54.6618432129929
20
1.18526446269397
30
0
0
SPLINE
5
D1
100
AcDbEntity
8
1
62
256
6
ByLayer
370
18
48
1
60
0
100
AcDbSpline
70
4
71
3
72
62
73
58
40
0
40
0
40
0
40
0
40
0.0296606093775558
40
0.0296606093775558
40
0.0943499020857169
40
0.0943499020857169
40
0.159039194793878
40
0.159039194793878
40
0.223728487502039
40
0.223728487502039
40
0.25607313385612
40
0.25607313385612
40
0.2884177802102
40
0.2884177802102
40
0.30459010338724
40
0.30459010338724
40
0.32076242656428
40
0.32076242656428
40
0.33693474974132
40
0.33693474974132
40
0.35310707291836
40
0.35310707291836
40
0.385451719272439
40
0.385451719272439
40
0.401624042449479
40
0.401624042449479
40
0.417796365626519
40
0.417796365626519
40
0.450141011980599
40
0.450141011980599
40
0.482485658334678
40
0.482485658334678
40
0.514830304688759
40
0.514830304688759
40
0.547174951042838
40
0.547174951042838
40
0.611864243750998
40
0.611864243750998
40
0.644208890105079
40
0.644208890105079
40
0.652295051693599
40
0.652295051693599
40
0.656338132487859
40
0.656338132487859
40
0.660381213282118
40
0.660381213282118
40
0.664424294076378
40
0.664424294076378
40
0.668467374870637
40
0.668467374870637
40
0.676553536459158
40
0.676553536459158
40
0.741242829167327
40
0.741242829167327
40
0.870621414583663
40
0.870621414583663
40
1
40
1
40
1
40
1
41
1
10
4.61419859348294
20
-2.90364961670963
30
2E-16
41
1
10
4.5178130018376
20
-2.9390116444624
30
2E-16
41
1
10
4.42216230314108
20
-2.97405280988895
30
2E-16
41
1
10
4.12043003426007
20
-3.0843409221639
30
2E-16
41
1
10
3.91731593187313
20
-3.15821052212215
30
2E-16
41
1
10
3.52076919999436
20
-3.30089348637472
30
0
41
1
10
3.32727344522795
20
-3.36974420304628
30
0
41
1
10
2.95405472848083
20
-3.49966790707833
30
0
41
1
10
2.777015916843
20
-3.55982193731248
30
0
41
1
10
2.53470805693749
20
-3.63816970394029
30
0
41
1
10
2.45826985048376
20
-3.66213760140229
30
0
41
1
10
2.3185413433053
20
-3.70394560790976
30
0
41
1
10
2.25490778184022
20
-3.72190193198364
30
0
41
1
10
2.17180348075388
20
-3.7430166770024
30
0
41
1
10
2.14605258881801
20
-3.74910203711644
30
0
41
1
10
2.10020020573592
20
-3.75881737074406
30
0
41
1
10
2.08008425909824
20
-3.76245805809614
30
0
41
1
10
2.04598489665256
20
-3.76709878470874
30
0
41
1
10
2.03200005556278
20
-3.76809935642103
30
0
41
1
10
2.01081323215348
20
-3.76720120960471
30
0
41
1
10
2.00363958808737
20
-3.76526566996333
30
0
41
1
10
1.9935683160281
20
-3.75503803672851
30
0
41
1
10
2.0016801105908
20
-3.74238399259255
30
0
41
1
10
2.03580973712448
20
-3.71496290664373
30
0
41
1
10
2.05088589611665
20
-3.70441295411871
30
0
41
1
10
2.08713177451816
20
-3.6812615127574
30
0
41
1
10
2.10837066303282
20
-3.66859982271038
30
0
41
1
10
2.18052672237479
20
-3.62772789987719
30
0
41
1
10
2.24028154559579
20
-3.59645624112849
30
0
41
1
10
2.3733062657567
20
-3.53029740004723
30
0
41
1
10
2.44700535650151
20
-3.49515205790809
30
0
41
1
10
2.60547719136372
20
-3.42188860204729
30
0
41
1
10
2.69071953247686
20
-3.38357194666361
30
0
41
1
10
2.866903587194
20
-3.30614360936002
30
0
41
1
10
2.95808522132705
20
-3.26691173913309
30
0
41
1
10
3.2389043221749
20
-3.14820658365983
30
2E-16
41
1
10
3.43571694107681
20
-3.0677497664129
30
2E-16
41
1
10
3.74094905204788
20
-2.94630914571124
30
2E-16
41
1
10
3.84449732411787
20
-2.90565535024416
30
2E-16
41
1
10
3.97531242734019
20
-2.85493132983984
30
2E-16
41
1
10
4.00154666100602
20
-2.84479027742876
30
2E-16
41
1
10
4.04099927695052
20
-2.82958571622041
30
2E-16
41
1
10
4.05408713729639
20
-2.82442366542932
30
2E-16
41
1
10
4.08063701873283
20
-2.8145079353661
30
2E-16
41
1
10
4.09499734141559
20
-2.81123280652531
30
2E-16
41
1
10
4.12514123798942
20
-2.80847943818282
30
2E-16
41
1
10
4.14014595864441
20
-2.80857585135053
30
2E-16
41
1
10
4.17004314151006
20
-2.8112284124918
30
2E-16
41
1
10
4.18478670138245
20
-2.81394792665066
30
2E-16
41
1
10
4.22854573748603
20
-2.82234998194161
30
2E-16
41
1
10
4.25768997479815
20
-2.82799581635123
30
2E-16
41
1
10
4.51972626072873
20
-2.87918850979858
30
2E-16
41
1
10
4.75087045192919
20
-2.92743644094807
30
2E-16
41
1
10
5.43718897572069
20
-3.07660289339321
30
2E-16
41
1
10
5.88506601472108
20
-3.18200539119076
30
2E-16
41
1
10
6.76662309737657
20
-3.38259425332342
30
0
41
1
10
7.19874276073597
20
-3.47708169867474
30
0
41
1
10
7.6251878796981
20
-3.55495001575306
30
0
0
SPLINE
5
D2
100
AcDbEntity
8
1
62
256
6
ByLayer
370
18
48
1
60
0
100
AcDbSpline
70
4
71
3
72
48
73
44
40
0
40
0
40
0
40
0
40
0.0915583927143012
40
0.0915583927143012
40
0.137337589071452
40
0.137337589071452
40
0.183116785428603
40
0.183116785428603
40
0.228895981785754
40
0.228895981785754
40
0.274675178142905
40
0.274675178142905
40
0.320454374500056
40
0.320454374500056
40
0.366233570857208
40
0.366233570857208
40
0.412012767214359
40
0.412012767214359
40
0.45779196357151
40
0.45779196357151
40
0.503571159928661
40
0.503571159928661
40
0.549350356285812
40
0.549350356285812
40
0.595129552642963
40
0.595129552642963
40
0.640908749000114
40
0.640908749000114
40
0.686687945357265
40
0.686687945357265
40
0.732467141714416
40
0.732467141714416
40
0.778246338071567
40
0.778246338071567
40
0.824025534428718
40
0.824025534428718
40
0.869804730785869
40
0.869804730785869
40
0.91558392714302
40
0.91558392714302
40
0.961363123500172
40
0.961363123500172
40
1
40
1
40
1
40
1
41
1
10
3.65009692292969
20
2.87966008545402
30
-2E-16
41
1
10
4.16750529926134
20
2.69534071405664
30
-2E-16
41
1
10
4.68504958663118
20
2.48917185169941
30
-2E-16
41
1
10
5.46380805115555
20
2.15164376518899
30
-1E-16
41
1
10
5.72417735829089
20
2.03416473836822
30
-1E-16
41
1
10
6.24224859102574
20
1.79174586603966
30
-1E-16
41
1
10
6.50013509365547
20
1.66637031662108
30
-1E-16
41
1
10
7.01508231589406
20
1.40979203948055
30
-1E-16
41
1
10
7.27237744110789
20
1.2790077555992
30
-1E-16
41
1
10
7.78653343063871
20
1.01236914660149
30
-1E-16
41
1
10
8.04336374467974
20
0.876447379173527
30
-1E-16
41
1
10
8.55781240271426
20
0.601704996973183
30
0
41
1
10
8.81547428427052
20
0.462975820988959
30
0
41
1
10
9.33176746211251
20
0.182937192797652
30
0
41
1
10
9.59034487058395
20
0.0415131142283371
30
0
41
1
10
10.1097411565923
20
-0.241589658228293
30
0
41
1
10
10.368578391154
20
-0.382025779634574
30
0
41
1
10
10.8843193758567
20
-0.660254612673015
30
0
41
1
10
11.1412242446107
20
-0.798189492214505
30
0
41
1
10
11.6543761624725
20
-1.06938407969059
30
1E-16
41
1
10
11.910689053794
20
-1.20253772386224
30
1E-16
41
1
10
12.4229560184968
20
-1.4637060857695
30
1E-16
41
1
10
12.6788434170052
20
-1.59182371593519
30
1E-16
41
1
10
13.1913709976684
20
-1.84095897085334
30
1E-16
41
1
10
13.4480781322999
20
-1.96187809890037
30
1E-16
41
1
10
13.9625803309981
20
-2.19604226284278
30
1E-16
41
1
10
14.2203097202572
20
-2.30937820718225
30
1E-16
41
1
10
14.7379818021666
20
-2.52647028103633
30
2E-16
41
1
10
14.9982637886286
20
-2.63020626557187
30
2E-16
41
1
10
15.5151450855992
20
-2.82538010572091
30
2E-16
41
1
10
15.7724443787983
20
-2.91716079561888
30
2E-16
41
1
10
16.2864102397828
20
-3.0873270782061
30
2E-16
41
1
10
16.5429593716583
20
-3.16589863687707
30
2E-16
41
1
10
17.0552322630999
20
-3.31006288208994
30
0
41
1
10
17.3109209187348
20
-3.37563663225342
30
0
41
1
10
17.823151682164
20
-3.49227683243592
30
0
41
1
10
18.0795366048873
20
-3.54351730620519
30
0
41
1
10
18.5929352756095
20
-3.63163867308901
30
0
41
1
10
18.8499168794269
20
-3.66848691839292
30
0
41
1
10
19.3661727396213
20
-3.72670645535158
30
0
41
1
10
19.6257672205527
20
-3.74822696388739
30
0
41
1
10
20.1040904905665
20
-3.77333182596723
30
0
41
1
10
20.3224835110263
20
-3.77915268567463
30
0
41
1
10
20.5409488018869
20
-3.77932405367403
30
0
0
SPLINE
5
D3
100
AcDbEntity
8
1
62
256
6
ByLayer
370
18
48
1
60
0
100
AcDbSpline
70
4
71
3
72
28
73
24
40
0
40
0
40
0
40
0
40
0.0462058763022673
40
0.0462058763022673
40
0.105818009033376
40
0.105818009033376
40
0.165430141764485
40
0.165430141764485
40
0.284654407226702
40
0.284654407226702
40
0.403878672688919
40
0.403878672688919
40
0.463490805420028
40
0.463490805420028
40
0.523102938151136
40
0.523102938151136
40
0.642327203613351
40
0.642327203613351
40
0.701939336344458
40
0.701939336344458
40
0.761551469075565
40
0.761551469075565
40
1
40
1
40
1
40
1
41
1
10
40.161012039457
20
3.6127752478485
30
0
41
1
10
40.3596344379391
20
3.64594699663542
30
0
41
1
10
40.558551956311
20
3.67468767286954
30
0
41
1
10
41.0153913478445
20
3.72992881965891
30
0
41
1
10
41.2733827161036
20
3.75355219489367
30
0
41
1
10
41.7912041463468
20
3.78516512198877
30
0
41
1
10
42.05074281896
20
3.79299505758974
30
0
41
1
10
42.8245579464223
20
3.79278865054803
30
0
41
1
10
43.3357338517869
20
3.76080469006879
30
0
41
1
10
44.359481109621
20
3.6368991244851
30
0
41
1
10
44.8712661745232
20
3.54515709306281
30
0
41
1
10
45.6411748563494
20
3.36356761514963
30
0
41
1
10
45.8981415048946
20
3.29560962927724
30
0
41
1
10
46.4141529271088
20
3.14576752055257
30
-2E-16
41
1
10
46.6738219718485
20
3.06379478256863
30
-2E-16
41
1
10
47.4509240551691
20
2.79990456156887
30
-2E-16
41
1
10
47.9673826478681
20
2.59971145479415
30
-2E-16
41
1
10
48.7437626679944
20
2.26837561521839
30
-1E-16
41
1
10
49.0033408301229
20
2.15238863757409
30
-1E-16
41
1
10
49.5207392934265
20
1.91268309516761
30
-1E-16
41
1
10
49.7784673297336
20
1.78909985401205
30
-1E-16
41
1
10
51.0638941335131
20
1.15549932597014
30
-1E-16
41
1
10
52.0819933892724
20
0.598440530489029
30
0
41
1
10
53.1129498364144
20
0.0327449365472035
30
0
0
SPLINE
5
D4
100
AcDbEntity
8
1
62
256
6
ByLayer
370
18
48
1
60
0
100
AcDbSpline
70
4
71
3
72
8
73
4
40
0
40
0
40
0
40
0
40
1
40
1
40
1
40
1
41
1
10
54.6618432129931
20
1.18526446269402
30
0
41
1
10
54.7765004533606
20
0.861219792016726
30
0
41
1
10
54.8880669121586
20
0.536069072298744
30
0
41
1
10
54.9964957692303
20
0.209795548752169
30
0
0
SPLINE
5
D5
100
AcDbEntity
8
1
62
256
6
ByLayer
370
18
48
1
60
0
100
AcDbSpline
70
4
71
3
72
10
73
6
40
0
40
0
40
0
40
0
40
0.5
40
0.5
40
1
40
1
40
1
40
1
41
1
10
3.55557236909743
20
-1.68623714737478
30
1E-16
41
1
10
3.53686494685053
20
-1.68173693197167
30
1E-16
41
1
10
3.52350551075924
20
-1.67515149614496
30
1E-16
41
1
10
3.50599733256706
20
-1.66076249544025
30
1E-16
41
1
10
3.50170732317002
20
-1.65273063000845
30
1E-16
41
1
10
3.50170732317002
20
-1.64478416976789
30
1E-16
0
SPLINE
5
D6
100
AcDbEntity
8
1
62
256
6
ByLayer
370
18
48
1
60
0
100
AcDbSpline
70
4
71
3
72
12
73
8
40
0
40
0
40
0
40
0
40
0.249999999999999
40
0.249999999999999
40
0.499999999999997
40
0.499999999999997
40
1
40
1
40
1
40
1
41
1
10
3.6024412734657
20
2.75068823778045
30
-2E-16
41
1
10
3.58680491884871
20
2.75068328875614
30
-2E-16
41
1
10
3.57162322985221
20
2.75084327498161
30
-2E-16
41
1
10
3.54556583779632
20
2.75135913305027
30
-2E-16
41
1
10
3.53480335157755
20
2.75170367211615
30
-2E-16
41
1
10
3.50945335005636
20
2.75278600236592
30
-2E-16
41
1
10
3.50170732316999
20
2.7535402670762
30
-2E-16
41
1
10
3.50170732317002
20
2.75415308671242
30
-2E-16
0
SPLINE
5
D7
100
AcDbEntity
8
1
62
256
6
ByLayer
370
18
48
1
60
0
100
AcDbSpline
70
4
71
3
72
8
73
4
40
0
40
0
40
0
40
0
40
1
40
1
40
1
40
1
41
1
10
3.55385716542872
20
-1.76495887947812
30
1E-16
41
1
10
3.52219763675288
20
-1.74970605899108
30
1E-16
41
1
10
3.50170732316999
20
-1.71912177955446
30
1E-16
41
1
10
3.50170732316999
20
-1.68688018990332
30
1E-16
0
SPLINE
5
D8
100
AcDbEntity
8
1
62
256
6
ByLayer
370
18
48
1
60
0
100
AcDbSpline
70
4
71
3
72
14
73
10
40
0
40
0
40
0
40
0
40
0.266187499821979
40
0.266187499821979
40
0.501568340536226
40
0.501568340536226
40
0.780861545205516
40
0.780861545205516
40
1
40
1
40
1
40
1
41
1
10
53.2045973444193
20
-0.0166802766938474
30
0
41
1
10
53.2053402027692
20
-0.0170614255172836
30
0
41
1
10
53.2060637858667
20
-0.017807905151642
30
0
41
1
10
53.2072765087551
20
-0.0196309429220776
30
0
41
1
10
53.2077996319371
20
-0.0206837118535645
30
0
41
1
10
53.2087779028084
20
-0.0232436723991327
30
0
41
1
10
53.2092179982061
20
-0.0248385643977826
30
0
41
1
10
53.2097571386057
20
-0.0278470380660565
30
0
41
1
10
53.209914295599
20
-0.0292604564143062
30
0
41
1
10
53.209959246224
20
-0.0306660062842354
30
0
0
SPLINE
5
D9
100
AcDbEntity
8
1
62
256
6
ByLayer
370
18
48
1
60
0
100
AcDbSpline
70
4
71
3
72
8
73
4
40
0
40
0
40
0
40
0
40
1
40
1
40
1
40
1
41
1
10
3.60186168299552
20
-1.68799970294037
30
1E-16
41
1
10
3.58580898210758
20
-1.68140225092589
30
1E-16
41
1
10
3.57009595926181
20
-1.67672026504388
30
1E-16
41
1
10
3.55557236909743
20
-1.67426070745552
30
1E-16
0
SPLINE
5
DA
100
AcDbEntity
8
1
62
256
6
ByLayer
370
18
48
1
60
0
100
AcDbSpline
70
4
71
3
72
26
73
22
40
0
40
0
40
0
40
0
40
0.0063498554427087
40
0.0063498554427087
40
0.0731903017881744
40
0.0731903017881744
40
0.340552087170036
40
0.340552087170036
40
0.407392533515503
40
0.407392533515503
40
0.474232979860969
40
0.474232979860969
40
0.541073426206435
40
0.541073426206435
40
0.607913872551901
40
0.607913872551901
40
0.741594765242835
40
0.741594765242835
40
0.875275657933767
40
0.875275657933767
40
1
40
1
40
1
40
1
41
1
10
21.5195742623784
20
0.223920710170091
30
0
41
1
10
21.5444011554262
20
0.211065640616255
30
0
41
1
10
21.5692354348702
20
0.198201195820758
30
0
41
1
10
21.8555714030138
20
0.0498201877389874
30
0
41
1
10
22.1186495558787
20
-0.0868404670461871
30
0
41
1
10
23.4308552245522
20
-0.765980997026588
30
0
41
1
10
24.4666332874165
20
-1.29448469447303
30
1E-16
41
1
10
25.7721098311909
20
-1.88478672903435
30
1E-16
41
1
10
26.033719284013
20
-1.99932935452907
30
1E-16
41
1
10
26.5587068582356
20
-2.22006368355068
30
1E-16
41
1
10
26.8217044416481
20
-2.32609767428718
30
1E-16
41
1
10
27.3464550887383
20
-2.52723965737263
30
2E-16
41
1
10
27.6085859463369
20
-2.62246414460455
30
2E-16
41
1
10
28.1331769657547
20
-2.80137818960364
30
2E-16
41
1
10
28.3958983084466
20
-2.88520817356508
30
2E-16
41
1
10
29.1840600286302
20
-3.11747531068875
30
0
41
1
10
29.705126510897
20
-3.24523238590945
30
0
41
1
10
30.7446808719004
20
-3.44418995682702
30
0
41
1
10
31.2630109458643
20
-3.5148354006954
30
0
41
1
10
32.2675330052634
20
-3.59406161268427
30
0
41
1
10
32.7535327382538
20
-3.6059402870041
30
0
41
1
10
33.2429744712933
20
-3.5910402876757
30
0
0
SPLINE
5
DB
100
AcDbEntity
8
1
62
256
6
ByLayer
370
18
48
1
60
0
100
AcDbSpline
70
4
71
3
72
8
73
4
40
0
40
0
40
0
40
0
40
1
40
1
40
1
40
1
41
1
10
17.2
20
1.90172774931642
30
-1E-16
41
1
10
17.2
20
1.89272870847469
30
-1E-16
41
1
10
17.2
20
1.88298740361924
30
-1E-16
41
1
10
17.2
20
1.87251147009258
30
-1E-16
0
SPLINE
5
DC
100
AcDbEntity
8
1
62
256
6
ByLayer
370
18
48
1
60
0
100
AcDbSpline
70
4
71
3
72
18
73
14
40
0
40
0
40
0
40
0
40
0.0311310974891585
40
0.0311310974891585
40
0.362683722147345
40
0.362683722147345
40
0.528460034476437
40
0.528460034476437
40
0.694236346805529
40
0.694236346805529
40
0.860012659134622
40
0.860012659134622
40
1
40
1
40
1
40
1
41
1
10
7.62519589865644
20
3.55495146598068
30
0
41
1
10
7.61980323932272
20
3.5380732732441
30
0
41
1
10
7.61434218909088
20
3.5211941647963
30
0
41
1
10
7.54974921450838
20
3.32461394187001
30
0
41
1
10
7.48343114600888
20
3.14329215085377
30
0
41
1
10
7.38050507296535
20
2.87601467384357
30
0
41
1
10
7.34566228955376
20
2.78744225860427
30
1E-16
41
1
10
7.27445391020922
20
2.61150943895953
30
1E-16
41
1
10
7.23710732361911
20
2.52452684283222
30
1E-16
41
1
10
7.15973683543942
20
2.35221494200778
30
1E-16
41
1
10
7.12002912676869
20
2.2667641801961
30
1E-16
41
1
10
7.04323858903371
20
2.11110437548655
30
1E-16
41
1
10
7.00659511517429
20
2.04050597662896
30
1E-16
41
1
10
6.96884840159058
20
1.97081005818475
30
1E-16
0
SPLINE
5
DD
100
AcDbEntity
8
1
62
256
6
ByLayer
370
18
48
1
60
0
100
AcDbSpline
70
4
71
3
72
8
73
4
40
0
40
0
40
0
40
0
40
1
40
1
40
1
40
1
41
1
10
54.9964957692255
20
0.20979554875683
30
0
41
1
10
55.0011671589364
20
0.0699593292036411
30
0
41
1
10
55.0011689952737
20
-0.0699043591653776
30
0
41
1
10
54.9964957692255
20
-0.209795548757199
30
0
0
SPLINE
5
DE
100
AcDbEntity
8
1
62
256
6
ByLayer
370
18
48
1
60
0
100
AcDbSpline
70
4
71
3
72
8
73
4
40
0
40
0
40
0
40
0
40
1
40
1
40
1
40
1
41
1
10
3.59724359342948
20
-1.70053472385351
30
1E-16
41
1
10
3.58281272474363
20
-1.69393653709517
30
1E-16
41
1
10
3.56867412861774
20
-1.68906413364107
30
1E-16
41
1
10
3.55557236909743
20
-1.68623714737478
30
1E-16
0
SPLINE
5
DF
100
AcDbEntity
8
1
62
256
6
ByLayer
370
18
48
1
60
0
100
AcDbSpline
70
4
71
3
72
24
73
20
40
0
40
0
40
0
40
0
40
0.175223337301542
40
0.175223337301542
40
0.350446674603084
40
0.350446674603084
40
0.525670011904626
40
0.525670011904626
40
0.700893349206169
40
0.700893349206169
40
0.788505017856941
40
0.788505017856941
40
0.876116686507714
40
0.876116686507714
40
0.919922520833099
40
0.919922520833099
40
0.963728355158484
40
0.963728355158484
40
1
40
1
40
1
40
1
41
1
10
4.95866271548425
20
2.7771022711199
30
-2E-16
41
1
10
4.74484648458665
20
2.85572941269308
30
-2E-16
41
1
10
4.53418450839644
20
2.93310684943097
30
-2E-16
41
1
10
4.12043003426024
20
3.08434092216385
30
-2E-16
41
1
10
3.91731593187333
20
3.15821052212206
30
-2E-16
41
1
10
3.52076919999468
20
3.30089348637463
30
0
41
1
10
3.32727344522829
20
3.36974420304617
30
0
41
1
10
2.9540547284812
20
3.49966790707822
30
0
41
1
10
2.7770159168434
20
3.55982193731234
30
0
41
1
10
2.53470805693792
20
3.63816970394018
30
0
41
1
10
2.45826985048419
20
3.66213760140218
30
0
41
1
10
2.3185413433057
20
3.70394560790964
30
0
41
1
10
2.25490778184059
20
3.72190193198355
30
0
41
1
10
2.17180348075422
20
3.74301667700235
30
0
41
1
10
2.14605258881835
20
3.74910203711636
30
0
41
1
10
2.1002002057362
20
3.758817370744
30
0
41
1
10
2.0800842590985
20
3.76245805809609
30
0
41
1
10
2.04891728068225
20
3.76669970415034
30
0
41
1
10
2.03690123681554
20
3.76771613824155
30
0
41
1
10
2.02717184543909
20
3.76775400803777
30
0
0
SPLINE
5
E0
100
AcDbEntity
8
1
62
256
6
ByLayer
370
18
48
1
60
0
100
AcDbSpline
70
4
71
3
72
12
73
8
40
0
40
0
40
0
40
0
40
0.114456361900715
40
0.114456361900715
40
0.557228180950358
40
0.557228180950358
40
1
40
1
40
1
40
1
41
1
10
4.62299772814313
20
2.90139713762042
30
-2E-16
41
1
10
4.74245865814888
20
2.92613999833597
30
-2E-16
41
1
10
4.86136789269787
20
2.95145227422717
30
-2E-16
41
1
10
5.43718897571966
20
3.07660289339296
30
-2E-16
41
1
10
5.88506601472028
20
3.18200539119059
30
-2E-16
41
1
10
6.76662309737625
20
3.38259425332333
30
0
41
1
10
7.19874276073577
20
3.47708169867468
30
0
41
1
10
7.62518787969813
20
3.55495001575306
30
0
0
SPLINE
5
E1
100
AcDbEntity
8
1
62
256
6
ByLayer
370
18
48
1
60
0
100
AcDbSpline
70
4
71
3
72
34
73
30
40
0
40
0
40
0
40
0
40
0.0563507161369567
40
0.0563507161369567
40
0.124489158398358
40
0.124489158398358
40
0.192627600659759
40
0.192627600659759
40
0.260766042921161
40
0.260766042921161
40
0.328904485182562
40
0.328904485182562
40
0.397042927443964
40
0.397042927443964
40
0.465181369705365
40
0.465181369705365
40
0.533319811966766
40
0.533319811966766
40
0.601458254228168
40
0.601458254228168
40
0.669596696489569
40
0.669596696489569
40
0.73773513875097
40
0.73773513875097
40
0.805873581012372
40
0.805873581012372
40
0.874012023273773
40
0.874012023273773
40
1
40
1
40
1
40
1
41
1
10
20.0525701839859
20
3.59160331042992
30
0
41
1
10
20.2648575433472
20
3.59978676250441
30
0
41
1
10
20.4772036303842
20
3.60313409622751
30
0
41
1
10
20.9475983093325
20
3.59765346617874
30
0
41
1
10
21.2056590546534
20
3.5869667379686
30
0
41
1
10
21.7228113536355
20
3.55178342397068
30
0
41
1
10
21.9822554864812
20
3.52733556641789
30
0
41
1
10
22.5027715143133
20
3.46135660885898
30
0
41
1
10
22.7621900178545
20
3.42089031759457
30
0
41
1
10
23.279561529783
20
3.32700871270251
30
0
41
1
10
23.5375087199315
20
3.27349758803598
30
0
41
1
10
24.0534475318836
20
3.15206535626157
30
0
41
1
10
24.3112428439057
20
3.08464147347988
30
0
41
1
10
24.8267341279434
20
2.93764887615291
30
-2E-16
41
1
10
25.0845259851664
20
2.8579227353477
30
-2E-16
41
1
10
25.6013844872136
20
2.68617593998485
30
-2E-16
41
1
10
25.8603370850498
20
2.59431187894239
30
-2E-16
41
1
10
26.3793750596343
20
2.39972745448796
30
-1E-16
41
1
10
26.6399014825359
20
2.29675553756036
30
-1E-16
41
1
10
27.1598035783068
20
2.08194690622889
30
-1E-16
41
1
10
27.4194894570834
20
1.97003338914948
30
-1E-16
41
1
10
27.9386753576786
20
1.73827221159468
30
-1E-16
41
1
10
28.1983562262889
20
1.61843830436885
30
-1E-16
41
1
10
28.7188680180507
20
1.37209829975646
30
-1E-16
41
1
10
28.9788712499022
20
1.24585297810583
30
-1E-16
41
1
10
29.4963355970581
20
0.989530980054582
30
-1E-16
41
1
10
29.7542811458486
20
0.859430048444921
30
-1E-16
41
1
10
30.4881411836016
20
0.485569661275804
30
0
41
1
10
30.9625329277461
20
0.237951256153849
30
0
41
1
10
31.4377759753309
20
-0.0094049009670698
30
0
0
SPLINE
5
E2
100
AcDbEntity
8
1
62
256
6
ByLayer
370
18
48
1
60
0
100
AcDbSpline
70
4
71
3
72
18
73
14
40
0
40
0
40
0
40
0
40
0.233941166846604
40
0.233941166846604
40
0.429980415631719
40
0.429980415631719
40
0.627705750409596
40
0.627705750409596
40
0.800549380701521
40
0.800549380701521
40
0.967591196107675
40
0.967591196107675
40
1
40
1
40
1
40
1
41
1
10
53.6457078953661
20
-3.57747956002782
30
0
41
1
10
53.6457911662171
20
-3.5776509654271
30
0
41
1
10
53.645816816405
20
-3.57800671578184
30
0
41
1
10
53.6457309886979
20
-3.57901669919858
30
0
41
1
10
53.6456392784974
20
-3.57962671856683
30
0
41
1
10
53.6453461634523
20
-3.58109854609879
30
0
41
1
10
53.6451383741346
20
-3.58198730884229
30
0
41
1
10
53.6446667662522
20
-3.58377976627926
30
0
41
1
10
53.6444069521112
20
-3.58469147529351
30
0
41
1
10
53.64386500411
20
-3.586472126291
30
0
41
1
10
53.6435774799413
20
-3.58736313342874
30
0
41
1
10
53.6432341592089
20
-3.58837484875352
30
0
41
1
10
53.643177713021
20
-3.58853955088878
30
0
41
1
10
53.6431212570869
20
-3.58870269969987
30
0
0
SPLINE
5
E3
100
AcDbEntity
8
1
62
256
6
ByLayer
370
18
48
1
60
0
100
AcDbSpline
70
4
71
3
72
10
73
6
40
0
40
0
40
0
40
0
40
0.5
40
0.5
40
1
40
1
40
1
40
1
41
1
10
3.55557236909743
20
-1.67426070745549
30
1E-16
41
1
10
3.53686551624781
20
-1.67109271790466
30
1E-16
41
1
10
3.52350219700446
20
-1.66644257063027
30
1E-16
41
1
10
3.505994410933
20
-1.65622039931174
30
1E-16
41
1
10
3.50170732317005
20
-1.65048595629048
30
1E-16
41
1
10
3.50170732317005
20
-1.64478416976789
30
1E-16
0
SPLINE
5
E4
100
AcDbEntity
8
1
62
256
6
ByLayer
370
18
48
1
60
0
100
AcDbSpline
70
4
71
3
72
44
73
40
40
0
40
0
40
0
40
0
40
0.0089005447022623
40
0.0089005447022623
40
0.139377177033861
40
0.139377177033861
40
0.171996335116761
40
0.171996335116761
40
0.204615493199662
40
0.204615493199662
40
0.269853809365461
40
0.269853809365461
40
0.30247296744836
40
0.30247296744836
40
0.335092125531259
40
0.335092125531259
40
0.400330441697058
40
0.400330441697058
40
0.465568757862857
40
0.465568757862857
40
0.498187915945756
40
0.498187915945756
40
0.530807074028655
40
0.530807074028655
40
0.661283706360254
40
0.661283706360254
40
0.693902864443154
40
0.693902864443154
40
0.726522022526053
40
0.726522022526053
40
0.791760338691853
40
0.791760338691853
40
0.856998654857652
40
0.856998654857652
40
0.889617812940552
40
0.889617812940552
40
0.922236971023452
40
0.922236971023452
40
1
40
1
40
1
40
1
41
1
10
34.9299002513083
20
-3.61125307319534
30
0
41
1
10
34.8586173156231
20
-3.62299696915571
30
0
41
1
10
34.787403473859
20
-3.63415609063623
30
0
41
1
10
33.6742533726377
20
-3.79950879058043
30
0
41
1
10
32.6470928486512
20
-3.82794111817253
30
0
41
1
10
31.3521421219596
20
-3.7056500154651
30
0
41
1
10
31.0926109013791
20
-3.67331031434315
30
0
41
1
10
30.5716841599514
20
-3.59293767821399
30
0
41
1
10
30.3097047024159
20
-3.54476391287594
30
0
41
1
10
29.5249549480274
20
-3.37800185459235
30
0
41
1
10
29.0037734900594
20
-3.23726622782112
30
0
41
1
10
28.2200143504981
20
-2.98649498060419
30
2E-16
41
1
10
27.9579612093931
20
-2.8960443138912
30
2E-16
41
1
10
27.4351472807669
20
-2.70353801882547
30
2E-16
41
1
10
27.174803960967
20
-2.60173851680415
30
2E-16
41
1
10
26.3958554668471
20
-2.28150479456909
30
1E-16
41
1
10
25.8794474615253
20
-2.04805138448509
30
1E-16
41
1
10
24.8461729663514
20
-1.55133261916981
30
1E-16
41
1
10
24.3294537118461
20
-1.28782999431704
30
1E-16
41
1
10
23.5496664911797
20
-0.877445397392108
30
1E-16
41
1
10
23.2889846978317
20
-0.738070311605583
30
0
41
1
10
22.765244404722
20
-0.455643631504131
30
0
41
1
10
22.5041486579887
20
-0.313532514135176
30
0
41
1
10
21.2036835899593
20
0.395675564645217
30
0
41
1
10
20.1765514157031
20
0.961773108074198
30
-1E-16
41
1
10
18.8789871150815
20
1.61247597547933
30
-1E-16
41
1
10
18.6189028634753
20
1.7399683869011
30
-1E-16
41
1
10
18.0965656256509
20
1.98780738426137
30
-1E-16
41
1
10
17.8341241081157
20
2.10819966728133
30
-1E-16
41
1
10
17.0519489860657
20
2.45277519302306
30
-2E-16
41
1
10
16.5344123210383
20
2.66208391920455
30
-2E-16
41
1
10
15.5005404127666
20
3.03195555008622
30
-2E-16
41
1
10
14.9845447931641
20
3.19294629812669
30
-2E-16
41
1
10
14.207175117997
20
3.39308617551697
30
0
41
1
10
13.9475117079354
20
3.45293715641085
30
0
41
1
10
13.4263344096036
20
3.55808281278334
30
0
41
1
10
13.164046356041
20
3.60348299349931
30
0
41
1
10
12.27946884448
20
3.73014905152968
30
0
41
1
10
11.6622860098688
20
3.77415357572559
30
0
41
1
10
11.0461082719588
20
3.77335549215394
30
0
0
SPLINE
5
E5
100
AcDbEntity
8
1
62
256
6
ByLayer
370
18
48
1
60
0
100
AcDbSpline
70
4
71
3
72
24
73
20
40
0
40
0
40
0
40
0
40
0.152988689710998
40
0.152988689710998
40
0.305977379421997
40
0.305977379421997
40
0.382471724277498
40
0.382471724277498
40
0.458966069132999
40
0.458966069132999
40
0.611954758844004
40
0.611954758844004
40
0.764943448555009
40
0.764943448555009
40
0.841437793410513
40
0.841437793410513
40
0.917932138266017
40
0.917932138266017
40
1
40
1
40
1
40
1
41
1
10
53.1107012055275
20
0.56676757965522
30
0
41
1
10
52.6085705154343
20
0.839196315624179
30
-1E-16
41
1
10
52.1094786869971
20
1.10577217838826
30
-1E-16
41
1
10
51.1118623390391
20
1.61756043577
30
-1E-16
41
1
10
50.612759955436
20
1.86182328646527
30
-1E-16
41
1
10
49.8611272269463
20
2.206347365227
30
-1E-16
41
1
10
49.6100597754079
20
2.31748304477509
30
-1E-16
41
1
10
49.105719956238
20
2.53045702219521
30
-2E-16
41
1
10
48.8522247927268
20
2.63242014278441
30
-2E-16
41
1
10
48.0966436734577
20
2.92025658319156
30
-2E-16
41
1
10
47.5968740952132
20
3.08952762196603
30
-2E-16
41
1
10
46.5982061491269
20
3.37606992522055
30
0
41
1
10
46.0996079491024
20
3.49378184369863
30
0
41
1
10
45.3494399384773
20
3.62890950403295
30
0
41
1
10
45.0988474889049
20
3.66693654459957
30
0
41
1
10
44.5959234772412
20
3.72848909260617
30
0
41
1
10
44.3431679332221
20
3.75207069083623
30
0
41
1
10
43.8191855256542
20
3.78528702431919
30
0
41
1
10
43.5493043333816
20
3.7937080012592
30
0
41
1
10
43.2801960838069
20
3.79351680395928
30
0
0
SPLINE
5
E6
100
AcDbEntity
8
1
62
256
6
ByLayer
370
18
48
1
60
0
100
AcDbSpline
70
4
71
3
72
36
73
32
40
0
40
0
40
0
40
0
40
0.0019507572965199
40
0.0019507572965199
40
0.0926825066331988
40
0.0926825066331988
40
0.138048381301539
40
0.138048381301539
40
0.183414255969879
40
0.183414255969879
40
0.27414600530656
40
0.27414600530656
40
0.364877754643241
40
0.364877754643241
40
0.410243629311581
40
0.410243629311581
40
0.455609503979921
40
0.455609503979921
40
0.546341253316601
40
0.546341253316601
40
0.63707300265328
40
0.63707300265328
40
0.68243887732162
40
0.68243887732162
40
0.72780475198996
40
0.72780475198996
40
0.81853650132664
40
0.81853650132664
40
0.90926825066332
40
0.90926825066332
40
1
40
1
40
1
40
1
41
1
10
21.5574446549867
20
-3.77996063668533
30
0
41
1
10
21.5466985045132
20
-3.77995854414607
30
0
41
1
10
21.5359519235049
20
-3.77994280478629
30
0
41
1
10
21.0253491663849
20
-3.77854656871975
30
0
41
1
10
20.5249128619405
20
-3.74747166288037
30
0
41
1
10
19.7679339389789
20
-3.65623861454765
30
0
41
1
10
19.5141120260048
20
-3.61825518278968
30
0
41
1
10
19.009558846733
20
-3.52839139701894
30
0
41
1
10
18.7584023727207
20
-3.47636471544214
30
0
41
1
10
18.0063274549076
20
-3.30071490772892
30
0
41
1
10
17.5067550788282
20
-3.1577483555879
30
2E-16
41
1
10
16.5080699076724
20
-2.82375302033367
30
2E-16
41
1
10
16.0082928559988
20
-2.63336243286187
30
2E-16
41
1
10
15.253936779699
20
-2.31745660266617
30
1E-16
41
1
10
15.00176433663
20
-2.20701819461465
30
1E-16
41
1
10
14.4954479860851
20
-1.97634455979389
30
1E-16
41
1
10
14.2430851310711
20
-1.85722511788723
30
1E-16
41
1
10
13.4884009724477
20
-1.49147446108898
30
1E-16
41
1
10
12.9883073288016
20
-1.2355159084612
30
1E-16
41
1
10
11.9894517411484
20
-0.707900862912197
30
0
41
1
10
11.4899646729227
20
-0.437568115402144
30
0
41
1
10
10.737702459053
20
-0.0276767895540786
30
0
41
1
10
10.4865728210995
20
0.109942287255222
30
0
41
1
10
9.98223750393706
20
0.384676162886421
30
0
41
1
10
9.7283588543396
20
0.522142329893654
30
0
41
1
10
8.9706443742968
20
0.928520171733538
30
-1E-16
41
1
10
8.46962358077741
20
1.19280292109414
30
-1E-16
41
1
10
7.46907003713079
20
1.69646242701424
30
-1E-16
41
1
10
6.96941484895248
20
1.93574148210772
30
-1E-16
41
1
10
5.96833644004931
20
2.38398439013784
30
-1E-16
41
1
10
5.46604465792942
20
2.5914791231119
30
-2E-16
41
1
10
4.95854688510025
20
2.77714062771267
30
-2E-16
0
SPLINE
5
E7
100
AcDbEntity
8
1
62
256
6
ByLayer
370
18
48
1
60
0
100
AcDbSpline
70
4
71
3
72
8
73
4
40
0
40
0
40
0
40
0
40
1
40
1
40
1
40
1
41
1
10
54.6618432129931
20
-1.18526446269402
30
0
41
1
10
54.7765004533606
20
-0.861219792016868
30
0
41
1
10
54.8880669121586
20
-0.536069072299
30
0
41
1
10
54.9964957692302
20
-0.209795548752567
30
0
0
SPLINE
5
E8
100
AcDbEntity
8
1
62
256
6
ByLayer
370
18
48
1
60
0
100
AcDbSpline
70
4
71
3
72
8
73
4
40
0
40
0
40
0
40
0
40
1
40
1
40
1
40
1
41
1
10
53.6748499002897
20
-3.64644322725684
30
0
41
1
10
53.6767706772585
20
-3.64514926823196
30
0
41
1
10
53.6786914807242
20
-3.64385515701363
30
0
41
1
10
53.6806123109948
20
-3.64256089356252
30
0
0
SPLINE
5
E9
100
AcDbEntity
8
1
62
256
6
ByLayer
370
18
48
1
60
0
100
AcDbSpline
70
4
71
3
72
8
73
4
40
0
40
0
40
0
40
0
40
1
40
1
40
1
40
1
41
1
10
54.3627494969468
20
-0.399551139354685
30
0
41
1
10
54.2304380752732
20
-0.0463608996824405
30
0
41
1
10
54.0622967418148
20
0.330460269079026
30
0
41
1
10
53.859046679263
20
0.730436724758732
30
0
0
SPLINE
5
EA
100
AcDbEntity
8
1
62
256
6
ByLayer
370
18
48
1
60
0
100
AcDbSpline
70
4
71
3
72
20
73
16
40
0
40
0
40
0
40
0
40
0.249999999999994
40
0.249999999999994
40
0.499999999999988
40
0.499999999999988
40
0.56249999999999
40
0.56249999999999
40
0.624999999999991
40
0.624999999999991
40
0.749999999999994
40
0.749999999999994
40
0.874999999999997
40
0.874999999999997
40
1
40
1
40
1
40
1
41
1
10
53.6806123109946
20
-3.64256089356275
30
0
41
1
10
53.7554341755033
20
-3.43229766578813
30
0
41
1
10
53.8296005565142
20
-3.22072666607781
30
0
41
1
10
53.9794689586298
20
-2.79627165502123
30
0
41
1
10
54.055156939265
20
-2.58351514852427
30
0
41
1
10
54.1513831124406
20
-2.31846959363668
30
0
41
1
10
54.1707094744266
20
-2.26549135106299
30
0
41
1
10
54.2095520865938
20
-2.15960654052788
30
0
41
1
10
54.2290583508963
20
-2.10659868478899
30
0
41
1
10
54.2889538251823
20
-1.94969958668287
30
0
41
1
10
54.3304123443556
20
-1.847353126619
30
0
41
1
10
54.41756699482
20
-1.6476059995471
30
0
41
1
10
54.4632687648723
20
-1.55021436940692
30
0
41
1
10
54.5599987938709
20
-1.36084468847818
30
0
41
1
10
54.6101374801055
20
-1.27066032807966
30
0
41
1
10
54.6618432129931
20
-1.18526446269405
30
0
0
SPLINE
5
EB
100
AcDbEntity
8
1
62
256
6
ByLayer
370
18
48
1
60
0
100
AcDbSpline
70
4
71
3
72
8
73
4
40
0
40
0
40
0
40
0
40
1
40
1
40
1
40
1
41
1
10
53.4303731747124
20
-3.74985523863634
30
0
41
1
10
53.4354238310986
20
-3.77892013106384
30
0
41
1
10
53.440105385174
20
-3.79554568046331
30
0
41
1
10
53.4445051291672
20
-3.79913455189308
30
0
0
SPLINE
5
EC
100
AcDbEntity
8
1
62
256
6
ByLayer
370
18
48
1
60
0
100
AcDbSpline
70
4
71
3
72
8
73
4
40
0
40
0
40
0
40
0
40
1
40
1
40
1
40
1
41
1
10
53.6748499003443
20
3.64644322722003
30
0
41
1
10
53.6767706772949
20
3.64514926820741
30
0
41
1
10
53.6786914807424
20
3.64385515700138
30
0
41
1
10
53.6806123109948
20
3.64256089356252
30
0
0
SPLINE
5
ED
100
AcDbEntity
8
1
62
256
6
ByLayer
370
18
48
1
60
0
100
AcDbSpline
70
4
71
3
72
8
73
4
40
0
40
0
40
0
40
0
40
1
40
1
40
1
40
1
41
1
10
53.1129498364143
20
0.0327449365472319
30
0
41
1
10
53.1050184073114
20
0.212429888791007
30
0
41
1
10
53.1036023392764
20
0.390442452265916
30
0
41
1
10
53.1107012055278
20
0.566767579661018
30
0
0
SPLINE
5
EE
100
AcDbEntity
8
1
62
256
6
ByLayer
370
18
48
1
60
0
100
AcDbSpline
70
2053
71
3
72
54
73
50
40
0
40
0
40
0
40
0
40
0.0625000000000046
40
0.0625000000000046
40
0.125000000000009
40
0.125000000000009
40
0.187500000000014
40
0.187500000000014
40
0.250000000000018
40
0.250000000000018
40
0.281250000000021
40
0.281250000000021
40
0.312500000000023
40
0.312500000000023
40
0.343750000000025
40
0.343750000000025
40
0.375000000000027
40
0.375000000000027
40
0.40625000000003
40
0.40625000000003
40
0.437500000000032
40
0.437500000000032
40
0.500000000000032
40
0.500000000000032
40
0.562500000000032
40
0.562500000000032
40
0.59375000000003
40
0.59375000000003
40
0.625000000000027
40
0.625000000000027
40
0.656250000000024
40
0.656250000000024
40
0.687500000000021
40
0.687500000000021
40
0.718750000000019
40
0.718750000000019
40
0.750000000000016
40
0.750000000000016
40
0.812500000000011
40
0.812500000000011
40
0.843750000000008
40
0.843750000000008
40
0.875000000000005
40
0.875000000000005
40
0.906250000000003
40
0.906250000000003
40
0.9375
40
0.9375
40
1
40
1
40
1
40
1
41
1
10
54.1146572306233
20
-1.3911382310626
30
1E-16
41
1
10
54.0876130047401
20
-1.42266596322554
30
1E-16
41
1
10
54.0622816225636
20
-1.44333584969996
30
1E-16
41
1
10
54.0140332197328
20
-1.46354353826209
30
1E-16
41
1
10
53.9923909590576
20
-1.46250869048927
30
1E-16
41
1
10
53.9530543237226
20
-1.43737930965258
30
1E-16
41
1
10
53.936387410402
20
-1.41395602469555
30
1E-16
41
1
10
53.9086891128266
20
-1.34385339837135
30
1E-16
41
1
10
53.8983993915713
20
-1.29910102666076
30
1E-16
41
1
10
53.8891990084347
20
-1.216480795937
30
1E-16
41
1
10
53.8873159556522
20
-1.18730825407278
30
1E-16
41
1
10
53.886069409479
20
-1.12565371827287
30
1E-16
41
1
10
53.8867393214153
20
-1.09268015105863
30
1E-16
41
1
10
53.8910182561928
20
-1.0255142991096
30
1E-16
41
1
10
53.8945666628008
20
-0.99159983450545
30
1E-16
41
1
10
53.9048042910213
20
-0.923118695269892
30
1E-16
41
1
10
53.911528075027
20
-0.888713338111472
30
1E-16
41
1
10
53.9276384492425
20
-0.823220901077121
30
1E-16
41
1
10
53.9372411468256
20
-0.791246951903474
30
0
41
1
10
53.9586714324128
20
-0.731892197796611
30
0
41
1
10
53.9704422965699
20
-0.704495627487319
30
0
41
1
10
54.008832862572
20
-0.628697862686664
30
0
41
1
10
54.0375647814317
20
-0.588829895526629
30
0
41
1
10
54.0965180088285
20
-0.530889896355774
30
0
41
1
10
54.1268984197068
20
-0.512636484327402
30
0
41
1
10
54.1704151439054
20
-0.500805023786711
30
0
41
1
10
54.184598469843
20
-0.499410210890574
30
0
41
1
10
54.2121928738154
20
-0.501708244582062
30
0
41
1
10
54.2255798453782
20
-0.505454133507186
30
0
41
1
10
54.250550962107
20
-0.517919176830588
30
0
41
1
10
54.2622543171027
20
-0.526634334671286
30
0
41
1
10
54.2838691876505
20
-0.549363926616365
30
0
41
1
10
54.2938491698224
20
-0.563556462481984
30
0
41
1
10
54.3109707772012
20
-0.596887600114826
30
0
41
1
10
54.3181976012073
20
-0.616041157221787
30
0
41
1
10
54.3295938780401
20
-0.659964321679439
30
0
41
1
10
54.3336836405749
20
-0.684710031255804
30
0
41
1
10
54.3402076346484
20
-0.764493903622963
30
0
41
1
10
54.3368183811634
20
-0.827956403294451
30
1E-16
41
1
10
54.3202692061529
20
-0.927032969273796
30
-1E-16
41
1
10
54.3127758218525
20
-0.961361231278033
30
-1E-16
41
1
10
54.2950732844781
20
-1.02828691013812
30
0
41
1
10
54.2847238248399
20
-1.0615686618865
30
0
41
1
10
54.2619751353903
20
-1.12589301985423
30
0
41
1
10
54.2497702025009
20
-1.15647381515578
30
0
41
1
10
54.2239944670457
20
-1.21478752619419
30
0
41
1
10
54.2105140105961
20
-1.24225220420067
30
0
41
1
10
54.1698248840455
20
-1.31755727626455
30
0
41
1
10
54.1417014565064
20
-1.35961049889966
30
1E-16
41
1
10
54.1146572306233
20
-1.3911382310626
30
1E-16
0
SPLINE
5
EF
100
AcDbEntity
8
1
62
256
6
ByLayer
370
18
48
1
60
0
100
AcDbSpline
70
4
71
3
72
8
73
4
40
0
40
0
40
0
40
0
40
1
40
1
40
1
40
1
41
1
10
7.62519589875259
20
-3.55495146628161
30
0
41
1
10
8.41806538272326
20
-3.69970824080028
30
0
41
1
10
9.20025843874683
20
-3.77234741432903
30
0
41
1
10
9.98210587425578
20
-3.77272700314072
30
0
0
SPLINE
5
F0
100
AcDbEntity
8
1
62
256
6
ByLayer
370
18
48
1
60
0
100
AcDbSpline
70
4
71
3
72
20
73
16
40
0
40
0
40
0
40
0
40
0.261780109082241
40
0.261780109082241
40
0.392670163623363
40
0.392670163623363
40
0.523560218164486
40
0.523560218164486
40
0.654450272705608
40
0.654450272705608
40
0.785340327246731
40
0.785340327246731
40
0.916230381787852
40
0.916230381787852
40
1
40
1
40
1
40
1
41
1
10
3.6483008462383
20
2.7434808856606
30
-2E-16
41
1
10
4.16761315399526
20
2.56992597994113
30
-2E-16
41
1
10
4.68546741782572
20
2.37329197276947
30
-1E-16
41
1
10
5.46319519154039
20
2.05122192584517
30
-1E-16
41
1
10
5.72256815944218
20
1.93933442091128
30
-1E-16
41
1
10
6.24178069102615
20
1.70747059894037
30
-1E-16
41
1
10
6.50143193929904
20
1.58738690195878
30
-1E-16
41
1
10
7.02225655283166
20
1.34033211519821
30
-1E-16
41
1
10
7.28181875882916
20
1.21439967072601
30
-1E-16
41
1
10
7.79907562974779
20
0.958553280113449
30
-1E-16
41
1
10
8.05681491843845
20
0.828557498578789
30
-1E-16
41
1
10
8.57158928108774
20
0.566467838081053
30
0
41
1
10
8.82866619204603
20
0.434449259584739
30
0
41
1
10
9.24989269579416
20
0.21665243217646
30
0
41
1
10
9.41415414945629
20
0.131291793486554
30
0
41
1
10
9.57845551206924
20
0.0458701798638685
30
0
0
SPLINE
5
F1
100
AcDbEntity
8
1
62
256
6
ByLayer
370
18
48
1
60
0
100
AcDbSpline
70
4
71
3
72
28
73
24
40
0
40
0
40
0
40
0
40
0.0376693345223362
40
0.0376693345223362
40
0.10640723919931
40
0.10640723919931
40
0.175145143876284
40
0.175145143876284
40
0.312620953230233
40
0.312620953230233
40
0.381358857907208
40
0.381358857907208
40
0.450096762584184
40
0.450096762584184
40
0.587572571938138
40
0.587572571938138
40
0.656310476615115
40
0.656310476615115
40
0.725048381292092
40
0.725048381292092
40
0.862524190646046
40
0.862524190646046
40
1
40
1
40
1
40
1
41
1
10
41.9560974453086
20
3.60802641297141
30
0
41
1
10
42.0966791696559
20
3.61157373236989
30
0
41
1
10
42.2373748450634
20
3.61281150142776
30
0
41
1
10
42.6351021832527
20
3.61022871160679
30
0
41
1
10
42.8921925841388
20
3.60185862864384
30
0
41
1
10
43.4077277153751
20
3.57053615002957
30
0
41
1
10
43.6666125702569
20
3.5466581909414
30
0
41
1
10
44.4473825188759
20
3.45124258540633
30
0
41
1
10
44.963866421277
20
3.35766262694989
30
0
41
1
10
45.7345823416482
20
3.17977925803862
30
0
41
1
10
45.9908171810698
20
3.11431816851419
30
0
41
1
10
46.5031520169233
20
2.97058537166961
30
-2E-16
41
1
10
46.7593007648084
20
2.89217048595015
30
-2E-16
41
1
10
47.5283658994074
20
2.63928159127931
30
-2E-16
41
1
10
48.0419087670317
20
2.44734804493729
30
-1E-16
41
1
10
48.8170507770595
20
2.12933316956872
30
-1E-16
41
1
10
49.0764992125771
20
2.01822947483836
30
-1E-16
41
1
10
49.5963632362459
20
1.78749881119137
30
-1E-16
41
1
10
49.8553214499806
20
1.66850937964426
30
-1E-16
41
1
10
50.6302594694382
20
1.30268780089577
30
-1E-16
41
1
10
51.144327919413
20
1.04707412674074
30
-1E-16
41
1
10
52.1730247403314
20
0.522618245574733
30
0
41
1
10
52.6873456617644
20
0.253585353542661
30
0
41
1
10
53.2045973444193
20
-0.0166802766938758
30
0
0
SPLINE
5
F2
100
AcDbEntity
8
1
62
256
6
ByLayer
370
18
48
1
60
0
100
AcDbSpline
70
4
71
3
72
22
73
18
40
0
40
0
40
0
40
0
40
0.122382220157438
40
0.122382220157438
40
0.288437066232673
40
0.288437066232673
40
0.371464489270291
40
0.371464489270291
40
0.45449191230791
40
0.45449191230791
40
0.537519335345529
40
0.537519335345529
40
0.620546758383147
40
0.620546758383147
40
0.952656450533621
40
0.952656450533621
40
1
40
1
40
1
40
1
41
1
10
31.3695584356181
20
-3.52908886990778
30
0
41
1
10
30.9869299687569
20
-3.48782627005713
30
0
41
1
10
30.6046348764749
20
-3.43051650615112
30
0
41
1
10
29.7017573365144
20
-3.25840021941539
30
0
41
1
10
29.1806783571859
20
-3.13091742253624
30
0
41
1
10
28.3924632449678
20
-2.89888927824666
30
2E-16
41
1
10
28.1297174203854
20
-2.81510452369554
30
2E-16
41
1
10
27.6050916831826
20
-2.63622001085758
30
2E-16
41
1
10
27.3429432714531
20
-2.54098258338109
30
2E-16
41
1
10
26.8181553984048
20
-2.3397557254865
30
1E-16
41
1
10
26.5551400481137
20
-2.23364545438389
30
1E-16
41
1
10
26.0301119237608
20
-2.01269690819103
30
1E-16
41
1
10
25.7684845708321
20
-1.8980233748718
30
1E-16
41
1
10
24.4629339876255
20
-1.30692976591664
30
1E-16
41
1
10
23.4271545764906
20
-0.777344592664662
30
0
41
1
10
22.2276590295481
20
-0.154931832448369
30
0
41
1
10
22.0777927827667
20
-0.0769921029123566
30
0
41
1
10
21.9281318439753
20
0.0008563091830922
30
0
0
SPLINE
5
F3
100
AcDbEntity
8
1
62
256
6
ByLayer
370
18
48
1
60
0
100
AcDbSpline
70
4
71
3
72
32
73
28
40
0
40
0
40
0
40
0
40
0.497315211872297
40
0.497315211872297
40
0.672173826539206
40
0.672173826539206
40
0.7863328354484
40
0.7863328354484
40
0.860780572509528
40
0.860780572509528
40
0.909429663732783
40
0.909429663732783
40
0.941414780258389
40
0.941414780258389
40
0.9624608346062
40
0.9624608346062
40
0.97601311253116
40
0.97601311253116
40
0.984743106251486
40
0.984743106251486
40
0.990407244826588
40
0.990407244826588
40
0.994217356004748
40
0.994217356004748
40
0.99806313592157
40
0.99806313592157
40
1
40
1
40
1
40
1
41
1
10
53.4445051291824
20
3.79913455188264
30
0
41
1
10
53.4825891624276
20
3.77430851084708
30
0
41
1
10
53.5207423729903
20
3.74922179637551
30
0
41
1
10
53.5723827672076
20
3.71498915434356
30
0
41
1
10
53.585818322021
20
3.7060575384096
30
0
41
1
10
53.6080399504742
20
3.69124349512146
30
0
41
1
10
53.6168237684362
20
3.68537690802341
30
0
41
1
10
53.6313626507661
20
3.67564874514864
30
0
41
1
10
53.6371122138338
20
3.67179699471387
30
0
41
1
10
53.6466155849291
20
3.66542342896764
30
0
41
1
10
53.6503719326793
20
3.66290235749204
30
0
41
1
10
53.6565621745796
20
3.65874504175809
30
0
41
1
10
53.6590014507983
20
3.65710617963961
30
0
41
1
10
53.6630370311262
20
3.65439337098536
30
0
41
1
10
53.6646428936949
20
3.65331344224651
30
0
41
1
10
53.6673153582066
20
3.65151545827416
30
0
41
1
10
53.668370364753
20
3.65080548136447
30
0
41
1
10
53.6701195926399
20
3.64962805286126
30
0
41
1
10
53.6708087581352
20
3.64916409943072
30
0
41
1
10
53.6719506922153
20
3.64839524259989
30
0
41
1
10
53.6724013789187
20
3.64809177606432
30
0
41
1
10
53.6731460358631
20
3.64759036107984
30
0
41
1
10
53.6734435827136
20
3.64739000570253
30
0
41
1
10
53.6740230342126
20
3.64699984018867
30
0
41
1
10
53.6743144731703
20
3.64680360640611
30
0
41
1
10
53.6746724488709
20
3.64656263274972
30
0
41
1
10
53.6747783715826
20
3.64649134562978
30
0
41
1
10
53.6748499009588
20
3.64644322709418
30
0
0
SPLINE
5
F4
100
AcDbEntity
8
1
62
256
6
ByLayer
370
18
48
1
60
0
100
AcDbSpline
70
4
71
3
72
54
73
50
40
0
40
0
40
0
40
0
40
0.0174053365585852
40
0.0174053365585852
40
0.0720592087885618
40
0.0720592087885618
40
0.126713081018538
40
0.126713081018538
40
0.154040017133526
40
0.154040017133526
40
0.181366953248514
40
0.181366953248514
40
0.236020825478489
40
0.236020825478489
40
0.290674697708465
40
0.290674697708465
40
0.34532856993844
40
0.34532856993844
40
0.372655506053428
40
0.372655506053428
40
0.399982442168416
40
0.399982442168416
40
0.45463631439839
40
0.45463631439839
40
0.509290186628364
40
0.509290186628364
40
0.536617122743351
40
0.536617122743351
40
0.563944058858338
40
0.563944058858338
40
0.618597931088314
40
0.618597931088314
40
0.673251803318289
40
0.673251803318289
40
0.700578739433277
40
0.700578739433277
40
0.727905675548265
40
0.727905675548265
40
0.78255954777824
40
0.78255954777824
40
0.837213420008215
40
0.837213420008215
40
0.864540356123203
40
0.864540356123203
40
0.891867292238191
40
0.891867292238191
40
0.946521164468166
40
0.946521164468166
40
1
40
1
40
1
40
1
41
1
10
49.0828412157182
20
-2.53809632846909
30
2E-16
41
1
10
48.9218623119795
20
-2.60370334297789
30
2E-16
41
1
10
48.7607817654
20
-2.6672550993689
30
2E-16
41
1
10
48.0966436734577
20
-2.92025658319159
30
2E-16
41
1
10
47.5968740952132
20
-3.089527621966
30
2E-16
41
1
10
46.5982061491269
20
-3.37606992522055
30
0
41
1
10
46.0996079491024
20
-3.4937818436986
30
0
41
1
10
45.3494399384773
20
-3.62890950403295
30
0
41
1
10
45.0988474889049
20
-3.66693654459957
30
0
41
1
10
44.5959234772412
20
-3.72848909260614
30
0
41
1
10
44.3431679332221
20
-3.75207069083623
30
0
41
1
10
43.5848215685082
20
-3.80014384249571
30
0
41
1
10
43.0838413618765
20
-3.80171224472613
30
0
41
1
10
42.0839728009192
20
-3.74594579413
30
0
41
1
10
41.5858642206657
20
-3.68849925400812
30
0
41
1
10
40.586892538697
20
-3.5169292304069
30
0
41
1
10
40.0858780540789
20
-3.40308542200532
30
0
41
1
10
39.3292996360643
20
-3.19092426908401
30
2E-16
41
1
10
39.0758898019704
20
-3.11330982347059
30
2E-16
41
1
10
38.5720758098038
20
-2.94727053902031
30
2E-16
41
1
10
38.3210109312727
20
-2.85859300323059
30
2E-16
41
1
10
37.5695717242515
20
-2.57678196390728
30
2E-16
41
1
10
37.0712338487739
20
-2.36741310833131
30
1E-16
41
1
10
36.072647719536
20
-1.91623939810913
30
1E-16
41
1
10
35.5730434186611
20
-1.67350981704916
30
1E-16
41
1
10
34.8189858988064
20
-1.28995139744558
30
1E-16
41
1
10
34.5663694929087
20
-1.15892777851965
30
1E-16
41
1
10
34.0603563128777
20
-0.892379704156042
30
1E-16
41
1
10
33.8083901828468
20
-0.757696708714775
30
0
41
1
10
33.0551295457568
20
-0.350312197484954
30
0
41
1
10
32.5557811540546
20
-0.0755896815886103
30
0
41
1
10
31.5571838258526
20
0.469797158629916
30
0
41
1
10
31.0585325286869
20
0.741568077417554
30
0
41
1
10
30.3062788519426
20
1.13809417218843
30
-1E-16
41
1
10
30.0548669020043
20
1.2685126023955
30
-1E-16
41
1
10
29.5502057441704
20
1.52487335844882
30
-1E-16
41
1
10
29.2966477485678
20
1.65112108759757
30
-1E-16
41
1
10
28.540746303648
20
2.01685492475093
30
-1E-16
41
1
10
28.040014403672
20
2.24400051294896
30
-1E-16
41
1
10
27.0407731651812
20
2.65974193314492
30
-2E-16
41
1
10
26.5424179174146
20
2.84842226752801
30
-2E-16
41
1
10
25.7916302664972
20
3.09596346184063
30
-2E-16
41
1
10
25.5409017158242
20
3.17268056732507
30
-2E-16
41
1
10
25.0382083070551
20
3.31399011975077
30
0
41
1
10
24.7860255806965
20
3.37851666919553
30
0
41
1
10
24.0265473317347
20
3.55152709608746
30
0
41
1
10
23.5242554740051
20
3.63804448397687
30
0
41
1
10
22.5346895279707
20
3.75188510111332
30
0
41
1
10
22.0465124668058
20
3.7800559086958
30
0
41
1
10
21.5574436556647
20
3.77996063649064
30
0
0
SPLINE
5
F5
100
AcDbEntity
8
1
62
256
6
ByLayer
370
18
48
1
60
0
100
AcDbSpline
70
4
71
3
72
20
73
16
40
0
40
0
40
0
40
0
40
0.25
40
0.25
40
0.5
40
0.5
40
0.5625
40
0.5625
40
0.625
40
0.625
40
0.75
40
0.75
40
0.875
40
0.875
40
1
40
1
40
1
40
1
41
1
10
53.6806123109947
20
3.64256089356269
30
0
41
1
10
53.7554341755032
20
3.43229766578813
30
0
41
1
10
53.8296005565142
20
3.22072666607787
30
0
41
1
10
53.9794689586297
20
2.79627165502146
30
0
41
1
10
54.0551569392649
20
2.5835151485245
30
0
41
1
10
54.1513831124404
20
2.31846959363693
30
0
41
1
10
54.1707094744265
20
2.26549135106327
30
0
41
1
10
54.2095520865937
20
2.15960654052819
30
0
41
1
10
54.2290583508961
20
2.10659868478925
30
0
41
1
10
54.2889538251823
20
1.94969958668281
30
0
41
1
10
54.3304123443557
20
1.84735312661886
30
0
41
1
10
54.4175669948201
20
1.64760599954698
30
0
41
1
10
54.4632687648723
20
1.55021436940695
30
0
41
1
10
54.5599987938707
20
1.36084468847864
30
0
41
1
10
54.6101374801055
20
1.27066032807969
30
0
41
1
10
54.6618432129931
20
1.18526446269405
30
0
0
SPLINE
5
F6
100
AcDbEntity
8
1
62
256
6
ByLayer
370
18
48
1
60
0
100
AcDbSpline
70
4
71
3
72
10
73
6
40
0
40
0
40
0
40
0
40
0.5
40
0.5
40
1
40
1
40
1
40
1
41
1
10
3.50170732317002
20
2.82235711130804
30
-2E-16
41
1
10
3.50170732317002
20
2.84550024988806
30
-2E-16
41
1
10
3.52094324612961
20
2.86730280039009
30
-2E-16
41
1
10
3.58085897683401
20
2.89014107479389
30
-2E-16
41
1
10
3.61953458880186
20
2.89054748208801
30
-2E-16
41
1
10
3.65009692292969
20
2.87966008545402
30
-2E-16
0
SPLINE
5
F7
100
AcDbEntity
8
1
62
256
6
ByLayer
370
18
48
1
60
0
100
AcDbSpline
70
4
71
3
72
8
73
4
40
0
40
0
40
0
40
0
40
1
40
1
40
1
40
1
41
1
10
3.65009692292969
20
2.87966008545402
30
-2E-16
41
1
10
3.64950799978675
20
2.83427389439621
30
-2E-16
41
1
10
3.64890932443748
20
2.78888098423758
30
-2E-16
41
1
10
3.64830084623858
20
2.74348088566052
30
-2E-16
0
SPLINE
5
F8
100
AcDbEntity
8
1
62
256
6
ByLayer
370
18
48
1
60
0
100
AcDbSpline
70
4
71
3
72
18
73
14
40
0
40
0
40
0
40
0
40
0.224366928065811
40
0.224366928065811
40
0.448733856131622
40
0.448733856131622
40
0.673100784197433
40
0.673100784197433
40
0.785284248230342
40
0.785284248230342
40
0.897467712263251
40
0.897467712263251
40
1
40
1
40
1
40
1
41
1
10
53.6748499003629
20
3.64644322728458
30
0
41
1
10
53.2935427173545
20
3.64994427767505
30
0
41
1
10
52.9132952953669
20
3.63686672582793
30
0
41
1
10
52.1522367018057
20
3.57761344612155
30
0
41
1
10
51.7712308682108
20
3.53156773716185
30
0
41
1
10
51.0075698925035
20
3.4074614626617
30
0
41
1
10
50.6257847258144
20
3.32949579066028
30
0
41
1
10
50.053233191548
20
3.19062970648162
30
0
41
1
10
49.8624549687489
20
3.14069769547371
30
0
41
1
10
49.48076311963
20
3.03379573480189
30
-2E-16
41
1
10
49.2896985153268
20
2.97678003607405
30
-2E-16
41
1
10
48.9252660021477
20
2.86154845662688
30
-2E-16
41
1
10
48.7515874467515
20
2.80389130634364
30
-2E-16
41
1
10
48.5781585911841
20
2.74374713803059
30
-2E-16
0
SPLINE
5
F9
100
AcDbEntity
8
1
62
256
6
ByLayer
370
18
48
1
60
0
100
AcDbSpline
70
4
71
3
72
14
73
10
40
0
40
0
40
0
40
0
40
0.479911543174288
40
0.479911543174288
40
0.609933657380716
40
0.609933657380716
40
0.739955771587143
40
0.739955771587143
40
1
40
1
40
1
40
1
41
1
10
21.5801776135454
20
-0.340421351220158
30
0
41
1
10
20.8851385393269
20
0.024319538794316
30
0
41
1
10
20.1890623906835
20
0.394503682710706
30
0
41
1
10
19.2945533096711
20
0.85535374056127
30
-1E-16
41
1
10
19.1035696250665
20
0.952891403400344
30
-1E-16
41
1
10
18.7225033336627
20
1.14508767408739
30
-1E-16
41
1
10
18.5321584156047
20
1.23987432530342
30
-1E-16
41
1
10
17.9613258288572
20
1.51964552169139
30
-1E-16
41
1
10
17.5811646618505
20
1.70024867163212
30
-1E-16
41
1
10
17.2000000000002
20
1.87251147009141
30
-1E-16
0
SPLINE
5
FA
100
AcDbEntity
8
1
62
256
6
ByLayer
370
18
48
1
60
0
100
AcDbSpline
70
4
71
3
72
8
73
4
40
0
40
0
40
0
40
0
40
1
40
1
40
1
40
1
41
1
10
53.1129498364143
20
0.0327449365472319
30
0
41
1
10
53.1436920465475
20
0.0153684434066008
30
0
41
1
10
53.1742292551158
20
-0.0010988922919353
30
0
41
1
10
53.2045973444193
20
-0.0166802766938474
30
0
0
SPLINE
5
FB
100
AcDbEntity
8
1
62
256
6
ByLayer
370
18
48
1
60
0
100
AcDbSpline
70
4
71
3
72
8
73
4
40
0
40
0
40
0
40
0
40
1
40
1
40
1
40
1
41
1
10
53.6431212570868
20
-3.58870269969981
30
0
41
1
10
53.6375920396608
20
-3.60468127242774
30
0
41
1
10
53.6320862748966
20
-3.62065932615312
30
0
41
1
10
53.6266044154171
20
-3.63663699924601
30
0
0
SPLINE
5
FC
100
AcDbEntity
8
1
62
256
6
ByLayer
370
18
48
1
60
0
100
AcDbSpline
70
4
71
3
72
8
73
4
40
0
40
0
40
0
40
0
40
1
40
1
40
1
40
1
41
1
10
53.8590466792627
20
0.730436724758846
30
0
41
1
10
53.8281331189662
20
0.744901226512837
30
0
41
1
10
53.7987437017005
20
0.756960581867816
30
0
41
1
10
53.7711582387539
20
0.766173239670792
30
0
0
SPLINE
5
FD
100
AcDbEntity
8
1
62
256
6
ByLayer
370
18
48
1
60
0
100
AcDbSpline
70
4
71
3
72
30
73
26
40
0
40
0
40
0
40
0
40
0.0624999999999999
40
0.0624999999999999
40
0.125
40
0.125
40
0.25
40
0.25
40
0.3125
40
0.3125
40
0.375
40
0.375
40
0.4375
40
0.4375
40
0.5
40
0.5
40
0.625
40
0.625
40
0.6875
40
0.6875
40
0.75
40
0.75
40
0.875
40
0.875
40
1
40
1
40
1
40
1
41
1
10
3.6024412734657
20
2.73659385362018
30
-2E-16
41
1
10
3.60243605432504
20
2.67065507324165
30
-2E-16
41
1
10
3.60243008122734
20
2.60154250007267
30
-2E-16
41
1
10
3.60241676134993
20
2.45699968178249
30
-2E-16
41
1
10
3.60240939426268
20
2.38138846424388
30
-1E-16
41
1
10
3.60238569372095
20
2.14802667011807
30
-1E-16
41
1
10
3.60236771677378
20
1.98301639478237
30
-1E-16
41
1
10
3.60233802770003
20
1.72162071489623
30
-1E-16
41
1
10
3.60232767196527
20
1.63216300480488
30
-1E-16
41
1
10
3.60230606884869
20
1.44848905058743
30
-1E-16
41
1
10
3.60229479496996
20
1.35406244744476
30
-1E-16
41
1
10
3.6022717045696
20
1.16321297718403
30
-1E-16
41
1
10
3.60225985163183
20
1.06647470770568
30
-1E-16
41
1
10
3.60223553030812
20
0.870377801867789
30
-1E-16
41
1
10
3.60222301984027
20
0.770688803997331
30
0
41
1
10
3.60218481408623
20
0.470029290997047
30
0
41
1
10
3.60215865005691
20
0.268941769934969
30
0
41
1
10
3.6021180340451
20
-0.0336288305006462
30
0
41
1
10
3.60210426351244
20
-0.134643119980922
30
0
41
1
10
3.60207615811049
20
-0.336991452411979
30
0
41
1
10
3.6020617585358
20
-0.438770876998802
30
0
41
1
10
3.60201800099293
20
-0.741224237987097
30
0
41
1
10
3.60198829915072
20
-0.937680570780202
30
1E-16
41
1
10
3.60192683961844
20
-1.32056805249314
30
1E-16
41
1
10
3.60189497820539
20
-1.50758716565821
30
1E-16
41
1
10
3.60186168299555
20
-1.68799970294037
30
1E-16
0
SPLINE
5
FE
100
AcDbEntity
8
1
62
256
6
ByLayer
370
18
48
1
60
0
100
AcDbSpline
70
4
71
3
72
18
73
14
40
0
40
0
40
0
40
0
40
0.209489860081628
40
0.209489860081628
40
0.418979720163255
40
0.418979720163255
40
0.52372465020407
40
0.52372465020407
40
0.628469580244884
40
0.628469580244884
40
0.837959440326516
40
0.837959440326516
40
1
40
1
40
1
40
1
41
1
10
3.60186168299555
20
-1.68799970294037
30
1E-16
41
1
10
4.12772577489983
20
-1.9280883699081
30
1E-16
41
1
10
4.65088109835372
20
-2.15180528112822
30
1E-16
41
1
10
5.69699583518855
20
-2.55937058537177
30
2E-16
41
1
10
6.21997222450759
20
-2.74332335451439
30
2E-16
41
1
10
7.00888958894777
20
-2.98259282346456
30
0
41
1
10
7.27123138019147
20
-3.05590913925278
30
0
41
1
10
7.79379179488976
20
-3.18863042659916
30
0
41
1
10
8.05426246512152
20
-3.24810005374434
30
0
41
1
10
8.83425480243309
20
-3.40531388229596
30
0
41
1
10
9.35236329606357
20
-3.48184069315877
30
0
41
1
10
10.2727912920812
20
-3.56492586131807
30
0
41
1
10
10.6747441466744
20
-3.58339946264877
30
0
41
1
10
11.0784933859682
20
-3.58359571509519
30
0
0
SPLINE
5
FF
100
AcDbEntity
8
1
62
256
6
ByLayer
370
18
48
1
60
0
100
AcDbSpline
70
4
71
3
72
24
73
20
40
0
40
0
40
0
40
0
40
0.0207893585626272
40
0.0207893585626272
40
0.0961132540578106
40
0.0961132540578106
40
0.397408836038541
40
0.397408836038541
40
0.548056627028905
40
0.548056627028905
40
0.623380522524089
40
0.623380522524089
40
0.698704418019272
40
0.698704418019272
40
0.849352209009636
40
0.849352209009636
40
0.924676104504818
40
0.924676104504818
40
1
40
1
40
1
40
1
41
1
10
43.2774618646774
20
0.220651611814674
30
0
41
1
10
43.3495362879194
20
0.183224026509066
30
0
41
1
10
43.421681487856
20
0.145728119391947
30
0
41
1
10
43.7555839248961
20
-0.0278662037848108
30
0
41
1
10
44.0188718609715
20
-0.164956108406074
30
0
41
1
10
45.3271054700064
20
-0.843419712068425
30
1E-16
41
1
10
46.3572772123826
20
-1.36797723307444
30
1E-16
41
1
10
47.9116652815641
20
-2.06584094034383
30
1E-16
41
1
10
48.4313382530523
20
-2.28377479685514
30
1E-16
41
1
10
49.2172129554551
20
-2.5812207299733
30
2E-16
41
1
10
49.4801583653307
20
-2.67539221031845
30
2E-16
41
1
10
50.0029402330038
20
-2.85082898271298
30
2E-16
41
1
10
50.263526730796
20
-2.93237900339656
30
2E-16
41
1
10
51.043941957704
20
-3.15751324119404
30
0
41
1
10
51.5623765980388
20
-3.28160485148697
30
0
41
1
10
52.3415820420814
20
-3.42537507952568
30
0
41
1
10
52.6015722062403
20
-3.46622008847953
30
0
41
1
10
53.1226540736017
20
-3.53304732701017
30
0
41
1
10
53.3837709151565
20
-3.55856055500757
30
0
41
1
10
53.6457078953752
20
-3.57747956002848
30
0
0
SPLINE
5
100
100
AcDbEntity
8
1
62
256
6
ByLayer
370
18
48
1
60
0
100
AcDbSpline
70
4
71
3
72
36
73
32
40
0
40
0
40
0
40
0
40
0.0596021503922364
40
0.0596021503922364
40
0.128947335983907
40
0.128947335983907
40
0.198292521575577
40
0.198292521575577
40
0.267637707167248
40
0.267637707167248
40
0.336982892758918
40
0.336982892758918
40
0.406328078350589
40
0.406328078350589
40
0.441000671146424
40
0.441000671146424
40
0.475673263942259
40
0.475673263942259
40
0.6143636351256
40
0.6143636351256
40
0.753054006308941
40
0.753054006308941
40
0.787726599104777
40
0.787726599104777
40
0.822399191900612
40
0.822399191900612
40
0.891744377492284
40
0.891744377492284
40
0.961089563083957
40
0.961089563083957
40
1
40
1
40
1
40
1
41
1
10
43.2501438426966
20
-0.298316563020222
30
0
41
1
10
42.9250725614899
20
-0.127722609232904
30
0
41
1
10
42.6000733359244
20
0.0438252554139069
30
0
41
1
10
41.8956527989857
20
0.414251974767922
30
0
41
1
10
41.5159686962488
20
0.612903224968932
30
0
41
1
10
40.7526506120355
20
1.00478922774136
30
-1E-16
41
1
10
40.371703908908
20
1.19702222517861
30
-1E-16
41
1
10
39.6106232599208
20
1.56803995708555
30
-1E-16
41
1
10
39.2301734026542
20
1.74705704378502
30
-1E-16
41
1
10
38.4675520066546
20
2.08892644327796
30
-1E-16
41
1
10
38.0854588459096
20
2.25160968569313
30
-1E-16
41
1
10
37.3218588639296
20
2.55419505318784
30
-2E-16
41
1
10
36.9409269745345
20
2.6939344793573
30
-2E-16
41
1
10
36.369425281581
20
2.88483322202859
30
-2E-16
41
1
10
36.1788573217503
20
2.94525143177725
30
-2E-16
41
1
10
35.7973056291992
20
3.05930732269923
30
0
41
1
10
35.6063716967077
20
3.11293722870749
30
0
41
1
10
34.6556310436417
20
3.36194041827079
30
0
41
1
10
33.9031883155423
20
3.50206167994838
30
0
41
1
10
32.396953688166
20
3.65527467595876
30
0
41
1
10
31.6436374502354
20
3.66807597344808
30
0
41
1
10
30.6901499260717
20
3.60077673128316
30
0
41
1
10
30.4991607291163
20
3.58318613224839
30
0
41
1
10
30.1181498091312
20
3.54005318321711
30
0
41
1
10
29.9278125332371
20
3.5144778866252
30
0
41
1
10
29.3569435726662
20
3.42595322119198
30
0
41
1
10
28.9765428282864
20
3.35118473288455
30
0
41
1
10
28.2140187813351
20
3.17132350064938
30
0
41
1
10
27.8318682214787
20
3.0662253245101
30
0
41
1
10
27.2358675456149
20
2.88141648920171
30
-1E-16
41
1
10
27.0216529223972
20
2.81078499852484
30
-2E-16
41
1
10
26.8076625464622
20
2.73629667902998
30
-2E-16
0
SPLINE
5
101
100
AcDbEntity
8
1
62
256
6
ByLayer
370
18
48
1
60
0
100
AcDbSpline
70
4
71
3
72
8
73
4
40
0
40
0
40
0
40
0
40
1
40
1
40
1
40
1
41
1
10
3.55557236909746
20
-1.68623714737478
30
1E-16
41
1
10
3.55499178345954
20
-1.71248622935832
30
1E-16
41
1
10
3.55442006224379
20
-1.73872661949295
30
1E-16
41
1
10
3.55385716542872
20
-1.76495887947806
30
1E-16
0
SPLINE
5
102
100
AcDbEntity
8
1
62
256
6
ByLayer
370
18
48
1
60
0
100
AcDbSpline
70
4
71
3
72
18
73
14
40
0
40
0
40
0
40
0
40
0.250000000000002
40
0.250000000000002
40
0.500000000000003
40
0.500000000000003
40
0.562500000000003
40
0.562500000000003
40
0.625000000000002
40
0.625000000000002
40
0.750000000000002
40
0.750000000000002
40
1
40
1
40
1
40
1
41
1
10
7.62519589875259
20
3.55495146628161
30
0
41
1
10
8.43090627816895
20
3.70205264507391
30
0
41
1
10
9.22559160970505
20
3.77468134975177
30
0
41
1
10
10.8145940116702
20
3.77069582180917
30
0
41
1
10
11.6086280262929
20
3.69400482188789
30
0
41
1
10
12.6145048915498
20
3.50577453860834
30
0
41
1
10
12.8158370712071
20
3.46358238118563
30
0
41
1
10
13.2166119301335
20
3.37097679239349
30
0
41
1
10
13.416445041738
20
3.32050793246461
30
0
41
1
10
14.0146869788597
20
3.1571032308822
30
-2E-16
41
1
10
14.4120423450444
20
3.03236383521488
30
-2E-16
41
1
10
15.6034455596458
20
2.61540891389518
30
-2E-16
41
1
10
16.3967456533154
20
2.28025895708382
30
-1E-16
41
1
10
17.2000000000103
20
1.90172774931079
30
-1E-16
0
SPLINE
5
103
100
AcDbEntity
8
1
62
256
6
ByLayer
370
18
48
1
60
0
100
AcDbSpline
70
4
71
3
72
28
73
24
40
0
40
0
40
0
40
0
40
0.124999999999998
40
0.124999999999998
40
0.187499999999998
40
0.187499999999998
40
0.249999999999998
40
0.249999999999998
40
0.374999999999997
40
0.374999999999997
40
0.437499999999997
40
0.437499999999997
40
0.499999999999997
40
0.499999999999997
40
0.624999999999997
40
0.624999999999997
40
0.687499999999998
40
0.687499999999998
40
0.749999999999998
40
0.749999999999998
40
0.874999999999999
40
0.874999999999999
40
1
40
1
40
1
40
1
41
1
10
53.209959246224
20
-0.0306660062841786
30
0
41
1
10
53.2169168611367
20
-0.248221929652885
30
0
41
1
10
53.2331515184413
20
-0.461572102592299
30
0
41
1
10
53.2649284372586
20
-0.776151528891035
30
0
41
1
10
53.2767832000052
20
-0.880095619287772
30
1E-16
41
1
10
53.3021645716043
20
-1.08620930572786
30
1E-16
41
1
10
53.3157620223971
20
-1.18887279853251
30
1E-16
41
1
10
53.3573362729987
20
-1.48994975213029
30
1E-16
41
1
10
53.3859494105366
20
-1.68131967772837
30
1E-16
41
1
10
53.4266457887421
20
-1.95509500071523
30
1E-16
41
1
10
53.4398591258431
20
-2.04412307806422
30
1E-16
41
1
10
53.4651802907481
20
-2.21764174446787
30
1E-16
41
1
10
53.477302504317
20
-2.30226446624979
30
1E-16
41
1
10
53.5109442505249
20
-2.54423957314532
30
2E-16
41
1
10
53.5299344426254
20
-2.69154091414799
30
2E-16
41
1
10
53.5535863295474
20
-2.89160761176964
30
2E-16
41
1
10
53.560681034886
20
-2.95479427349423
30
2E-16
41
1
10
53.573558232914
20
-3.07392177217218
30
0
41
1
10
53.579311124703
20
-3.12959395098809
30
0
41
1
10
53.5949848853821
20
-3.28240273259288
30
0
41
1
10
53.6033863823147
20
-3.36657817274539
30
0
41
1
10
53.6216387620605
20
-3.4995803023981
30
0
41
1
10
53.6315628529473
20
-3.54836328926791
30
0
41
1
10
53.6457078953664
20
-3.57747956002842
30
0
0
SPLINE
5
104
100
AcDbEntity
8
1
62
256
6
ByLayer
370
18
48
1
60
0
100
AcDbSpline
70
4
71
3
72
28
73
24
40
0
40
0
40
0
40
0
40
0.141552816399611
40
0.141552816399611
40
0.283105632799222
40
0.283105632799222
40
0.353882040999027
40
0.353882040999027
40
0.424658449198833
40
0.424658449198833
40
0.566211265598443
40
0.566211265598443
40
0.63698767379825
40
0.63698767379825
40
0.707764081998057
40
0.707764081998057
40
0.849316898397674
40
0.849316898397674
40
0.920093306597482
40
0.920093306597482
40
0.990869714797291
40
0.990869714797291
40
1
40
1
40
1
40
1
41
1
10
53.209959246224
20
-0.0306660062841786
30
0
41
1
10
52.6925868588868
20
0.23890433493284
30
0
41
1
10
52.178149179071
20
0.507358856136591
30
0
41
1
10
51.1492494359968
20
1.03091241684783
30
-1E-16
41
1
10
50.6350921346921
20
1.28620272410802
30
-1E-16
41
1
10
49.8600548132103
20
1.65171470751122
30
-1E-16
41
1
10
49.6010704287575
20
1.77063530159708
30
-1E-16
41
1
10
49.0811669432069
20
2.00128749569038
30
-1E-16
41
1
10
48.821611620163
20
2.11241907625188
30
-1E-16
41
1
10
48.0462615074634
20
2.43056909988445
30
-1E-16
41
1
10
47.5325811382989
20
2.62273182044214
30
-2E-16
41
1
10
46.7633281480486
20
2.87613883626284
30
-2E-16
41
1
10
46.5071197768543
20
2.95476544830376
30
-2E-16
41
1
10
45.994671516931
20
3.09897190613631
30
0
41
1
10
45.738383215125
20
3.1646839987072
30
0
41
1
10
44.9675301629051
20
3.34339539785859
30
0
41
1
10
44.4510822427513
20
3.43763547955109
30
0
41
1
10
43.6701063003013
20
3.53426151876491
30
0
41
1
10
43.4111483127656
20
3.55858236840052
30
0
41
1
10
42.8954703500916
20
3.59079720476654
30
0
41
1
10
42.6383150978924
20
3.59959626426954
30
0
41
1
10
42.3481703867682
20
3.60200537216735
30
0
41
1
10
42.3150237057691
20
3.60216205272559
30
0
41
1
10
42.2818829380554
20
3.602198015375
30
0
0
SPLINE
5
105
100
AcDbEntity
8
1
62
256
6
ByLayer
370
18
48
1
60
0
100
AcDbSpline
70
4
71
3
72
22
73
18
40
0
40
0
40
0
40
0
40
0.0348654372780734
40
0.0348654372780734
40
0.155507257618314
40
0.155507257618314
40
0.276149077958555
40
0.276149077958555
40
0.396790898298796
40
0.396790898298796
40
0.517432718639037
40
0.517432718639037
40
0.638074538979277
40
0.638074538979277
40
0.758716359319519
40
0.758716359319519
40
1
40
1
40
1
40
1
41
1
10
10.0752833685318
20
-0.222762961031265
30
0
41
1
10
10.0009645897555
20
-0.184379077641438
30
0
41
1
10
9.92667993629712
20
-0.145955685114757
30
0
41
1
10
9.59550091223957
20
0.0255825434888379
30
0
41
1
10
9.33888655847699
20
0.158946196860455
30
0
41
1
10
8.82507906946807
20
0.423925343469193
30
0
41
1
10
8.567948112544
20
0.555655944581531
30
0
41
1
10
8.05306813156986
20
0.817211209599776
30
-1E-16
41
1
10
7.7952752169208
20
0.946955894639672
30
-1E-16
41
1
10
7.27791905190696
20
1.20234155683218
30
-1E-16
41
1
10
7.01831735584216
20
1.32806886436072
30
-1E-16
41
1
10
6.49740855792061
20
1.57476691454761
30
-1E-16
41
1
10
6.23770375616061
20
1.6946847601084
30
-1E-16
41
1
10
5.71839143283171
20
1.92628578925931
30
-1E-16
41
1
10
5.45896929564083
20
2.03807315385291
30
-1E-16
41
1
10
4.68109151693415
20
2.35992539086479
30
-1E-16
41
1
10
4.16313316240604
20
2.55652359360235
30
-2E-16
41
1
10
3.64371251621427
20
2.73014798811653
30
-2E-16
0
SPLINE
5
106
100
AcDbEntity
8
SK1
62
256
6
ByLayer
370
18
48
1
60
0
100
AcDbSpline
70
4
71
3
72
10
73
6
40
0
40
0
40
0
40
0
40
0.5
40
0.5
40
1
40
1
40
1
40
1
41
1
10
-36.0000000000001
20
-0.538665585183765
30
0
41
1
10
-35.9272396278271
20
-0.45898035412921
30
0
41
1
10
-35.8568055726535
20
-0.372160671725652
30
0
41
1
10
-35.7224295033876
20
-0.179734271827158
30
0
41
1
10
-35.6578574543336
20
-0.0729531867795856
30
0
41
1
10
-35.6009618943233
20
0.0431653526338209
30
0
0
SPLINE
5
107
100
AcDbEntity
8
SK1
62
256
6
ByLayer
370
18
48
1
60
0
100
AcDbSpline
70
4
71
3
72
8
73
4
40
0
40
0
40
0
40
0
40
1
40
1
40
1
40
1
41
1
10
-35.6009618943233
20
-1.4952760795087
30
1E-16
41
1
10
-35.5673238336307
20
-1.50395614921001
30
1E-16
41
1
10
-35.5336693626316
20
-1.51263218054788
30
1E-16
41
1
10
-35.5
20
-1.52130454724829
30
1E-16
0
SPLINE
5
108
100
AcDbEntity
8
SK1
62
256
6
ByLayer
370
18
48
1
60
0
100
AcDbSpline
70
4
71
3
72
10
73
6
40
0
40
0
40
0
40
0
40
0.5
40
0.5
40
1
40
1
40
1
40
1
41
1
10
-35.6009618943233
20
-1.4952760795087
30
1E-16
41
1
10
-35.657625994603
20
-1.56965333244128
30
1E-16
41
1
10
-35.7212304684705
20
-1.6286707286651
30
1E-16
41
1
10
-35.8564778377541
20
-1.72353327567541
30
1E-16
41
1
10
-35.9271669955654
20
-1.75871476678844
30
1E-16
41
1
10
-36.0000000000001
20
-1.78471157781613
30
1E-16
0
SPLINE
5
109
100
AcDbEntity
8
SK1
62
256
6
ByLayer
370
18
48
1
60
0
100
AcDbSpline
70
4
71
3
72
10
73
6
40
0
40
0
40
0
40
0
40
0.5
40
0.5
40
1
40
1
40
1
40
1
41
1
10
-36.0000000000001
20
0.538665585183765
30
0
41
1
10
-35.9272396278271
20
0.45898035412921
30
0
41
1
10
-35.8568055726535
20
0.372160671725652
30
0
41
1
10
-35.7224295033876
20
0.179734271827158
30
0
41
1
10
-35.6578574543336
20
0.0729531867795856
30
0
41
1
10
-35.6009618943233
20
-0.0431653526338494
30
0
0
SPLINE
5
10A
100
AcDbEntity
8
SK1
62
256
6
ByLayer
370
18
48
1
60
0
100
AcDbSpline
70
4
71
3
72
12
73
8
40
0
40
0
40
0
40
0
40
0.5
40
0.5
40
0.75
40
0.75
40
1
40
1
40
1
40
1
41
1
10
-35.5
20
-1.52130454724841
30
1E-16
41
1
10
-35.4764535706457
20
-1.52736950523646
30
1E-16
41
1
10
-35.453758325367
20
-1.5259717645302
30
1E-16
41
1
10
-35.4256589034923
20
-1.51128515109238
30
1E-16
41
1
10
-35.4170915256394
20
-1.50407101059031
30
1E-16
41
1
10
-35.4042768359918
20
-1.48407118730935
30
1E-16
41
1
10
-35.4
20
-1.47086799254825
30
1E-16
41
1
10
-35.4
20
-1.4555732184439
30
1E-16
0
SPLINE
5
10B
100
AcDbEntity
8
SK1
62
256
6
ByLayer
370
18
48
1
60
0
100
AcDbSpline
70
4
71
3
72
8
73
4
40
0
40
0
40
0
40
0
40
1
40
1
40
1
40
1
41
1
10
-35.5
20
-0.0691938203734423
30
0
41
1
10
-35.5336695047209
20
-0.0605214170744546
30
0
41
1
10
-35.5673239802537
20
-0.0518453845000977
30
0
41
1
10
-35.6009618943233
20
-0.0431653526338494
30
0
0
SPLINE
5
10C
100
AcDbEntity
8
SK1
62
256
6
ByLayer
370
18
48
1
60
0
100
AcDbSpline
70
4
71
3
72
12
73
8
40
0
40
0
40
0
40
0
40
0.25
40
0.25
40
0.5
40
0.5
40
1
40
1
40
1
40
1
41
1
10
-35.4
20
-0.197077255152379
30
0
41
1
10
-35.4
20
-0.180114174059327
30
0
41
1
10
-35.4042405317345
20
-0.163241326586586
30
0
41
1
10
-35.4170629445097
20
-0.133903653618575
30
0
41
1
10
-35.4255309618335
20
-0.121273401377835
30
0
41
1
10
-35.4538111153162
20
-0.08920800818575
30
0
41
1
10
-35.4764597265186
20
-0.075257192765946
30
0
41
1
10
-35.5
20
-0.0691938203733287
30
0
0
SPLINE
5
10D
100
AcDbEntity
8
1
62
256
6
ByLayer
370
18
48
1
60
0
100
AcDbSpline
70
4
71
3
72
13
73
9
40
0
40
0
40
0
40
0
40
0.14168398654736
40
0.312960464594627
40
0.453411600363226
40
0.601208531729871
40
0.789078194836402
40
1
40
1
40
1
40
1
41
1
10
53.7730969833921
20
0.766300280133777
30
0
41
1
10
53.56044847885
20
0.836647936817144
30
-1E-16
41
1
10
53.0916618876195
20
0.994829009626613
30
-1E-16
41
1
10
52.4155841512098
20
1.23350344494241
30
-1E-16
41
1
10
51.7331341593928
20
1.48337158292515
30
-1E-16
41
1
10
51.0288294905773
20
1.75016160453597
30
-1E-16
41
1
10
50.2240749013934
20
2.06626447940406
30
-1E-16
41
1
10
49.6406530205937
20
2.30615416745314
30
-1E-16
41
1
10
49.3330832901999
20
2.43555631477898
30
-1E-16
0
SPLINE
5
10E
100
AcDbEntity
8
1
62
256
6
ByLayer
370
18
48
1
60
0
100
AcDbSpline
70
4
71
3
72
27
73
23
40
0
40
0
40
0
40
0
40
4.6968156836E-06
40
1.05174281456E-05
40
2.19585923943E-05
40
0.0001124776185547
40
0.0001722925690427
40
0.0002798906102038
40
0.0004745396365611
40
0.0008301544647475
40
0.0014909079166064
40
0.0027535123169544
40
0.0052747824970656
40
0.0106387656277667
40
0.0559721880521687
40
0.129096716165959
40
0.203958272770762
40
0.358703961264706
40
0.461876962939876
40
0.607443940576006
40
0.796245065465978
40
1
40
1
40
1
40
1
41
1
10
12.5921414611581
20
0.0478708813997457
30
0
41
1
10
12.5921395221344
20
0.0478719002603611
30
0
41
1
10
12.5921332663253
20
0.0478747397272627
30
0
41
1
10
12.5921114368132
20
0.0478831777532776
30
0
41
1
10
12.5919361592746
20
0.0479429726960063
30
0
41
1
10
12.5915698011636
20
0.0480661247265175
30
0
41
1
10
12.5910728758507
20
0.0482420471920193
30
0
41
1
10
12.5903475718194
20
0.0484948016207625
30
0
41
1
10
12.5890411277089
20
0.048949591428709
30
0
41
1
10
12.5866105117176
20
0.049786853643468
30
0
41
1
10
12.5819950820169
20
0.0513535311767725
30
0
41
1
10
12.5728419352515
20
0.0543860668369689
30
0
41
1
10
12.5535788895946
20
0.0605535919461033
30
0
41
1
10
12.4382713241228
20
0.0958379273289722
30
0
41
1
10
12.1557923062347
20
0.176657542285682
30
0
41
1
10
11.7143868850222
20
0.309022867060236
30
0
41
1
10
11.0236110472646
20
0.522097215207026
30
0
41
1
10
10.2676111671205
20
0.767370154595909
30
0
41
1
10
9.35541749706451
20
1.07879547125629
30
-1E-16
41
1
10
8.37110948639238
20
1.43126245740226
30
-1E-16
41
1
10
7.16813787056662
20
1.88768562840983
30
-1E-16
41
1
10
6.29831442949211
20
2.24156154570073
30
-1E-16
41
1
10
5.84881250975616
20
2.43076350995398
30
-1E-16
0
SPLINE
5
10F
100
AcDbEntity
8
1
62
256
6
ByLayer
370
18
48
1
60
0
100
AcDbSpline
70
4
71
3
72
29
73
25
40
0
40
0
40
0
40
0
40
2.73517524512E-05
40
4.36898563907E-05
40
5.79656585262E-05
40
7.14497547978E-05
40
8.51462352287E-05
40
0.0001149576988767
40
0.0003659010574682
40
0.0005501742397658
40
0.0008805646731869
40
0.0014747924960133
40
0.0025494502596753
40
0.0045115466823326
40
0.0667699052764802
40
0.158682306630398
40
0.259612657718561
40
0.358893294135196
40
0.454629985194887
40
0.535255168635253
40
0.603158552110448
40
0.701622713113562
40
0.841764667075715
40
1
40
1
40
1
40
1
41
1
10
34.1974966633466
20
0.0894266014510663
30
0
41
1
10
34.1975254952929
20
0.0894205779340496
30
0
41
1
10
34.1975634081251
20
0.0894134049943034
30
0
41
1
10
34.1975803991598
20
0.0894137029907256
30
0
41
1
10
34.1975648853755
20
0.0894219912856897
30
0
41
1
10
34.1975229046501
20
0.0894372064900608
30
0
41
1
10
34.1974366903471
20
0.089465442334955
30
0
41
1
10
34.1968475418999
20
0.0896452929829934
30
0
41
1
10
34.1957665481821
20
0.0899540608340885
30
0
41
1
10
34.1940899260872
20
0.0904446867276079
30
0
41
1
10
34.1916276413526
20
0.0911611589982613
30
0
41
1
10
34.1872084089886
20
0.0924495472376634
30
0
41
1
10
34.1791676984953
20
0.0947923232346568
30
0
41
1
10
34.0345824020552
20
0.136930264558913
30
0
41
1
10
33.6871647726869
20
0.238948140740717
30
0
41
1
10
33.1194630907943
20
0.411475780754188
30
0
41
1
10
32.4714601186805
20
0.616655442315448
30
0
41
1
10
31.8175942254783
20
0.832307773271282
30
-1E-16
41
1
10
31.2108955579396
20
1.0401461692841
30
-1E-16
41
1
10
30.6751008812483
20
1.22988389133235
30
-1E-16
41
1
10
30.134651526344
20
1.42652533998816
30
-1E-16
41
1
10
29.4660932461274
20
1.67704060624891
30
-1E-16
41
1
10
28.6045882968103
20
2.01264086153938
30
-1E-16
41
1
10
27.9613651188144
20
2.27644920055596
30
-1E-16
41
1
10
27.6214624689559
20
2.41949933914702
30
-1E-16
0
SPLINE
5
110
100
AcDbEntity
8
1
62
256
6
ByLayer
370
18
48
1
60
0
100
AcDbSpline
70
4
71
3
72
20
73
16
40
0
40
0
40
0
40
0
40
0.117892891393038
40
0.191261557347048
40
0.251249604389759
40
0.320319554329495
40
0.393547577671458
40
0.46794826795499
40
0.540687359507574
40
0.605761751395692
40
0.725497746779613
40
0.85040114591878
40
0.919049157507866
40
0.996148757509728
40
1
40
1
40
1
40
1
41
1
10
32.8039428194408
20
-3.59721226586925
30
0
41
1
10
33.0928644006993
20
-3.59742345673732
30
0
41
1
10
33.5616147362811
20
-3.59774371336803
30
0
41
1
10
34.1773404009458
20
-3.59809547893346
30
0
41
1
10
34.6735848663434
20
-3.59838326661907
30
0
41
1
10
35.1692402150033
20
-3.59849925562762
30
0
41
1
10
35.7003048888458
20
-3.59934612501257
30
0
41
1
10
36.2404688292138
20
-3.59933053810198
30
0
41
1
10
36.7606565085563
20
-3.59929849533105
30
0
41
1
10
37.391960387235
20
-3.60084565901767
30
0
41
1
10
38.1511354633151
20
-3.59927445417989
30
0
41
1
10
38.9190740697555
20
-3.60169447422598
30
0
41
1
10
39.582493738054
20
-3.60045518879454
30
0
41
1
10
39.9491933498629
20
-3.60171861317869
30
0
41
1
10
40.1476201945689
20
-3.60200931250799
30
0
41
1
10
40.1570603636187
20
-3.60202229013581
30
0
0
SPLINE
5
111
100
AcDbEntity
8
1
62
256
6
ByLayer
370
18
48
1
60
0
100
AcDbSpline
70
4
71
3
72
18
73
14
40
0
40
0
40
0
40
0
40
0.118808192237535
40
0.197712610346332
40
0.28206181457396
40
0.3867039353112
40
0.488480305615755
40
0.578826486890839
40
0.656834066927005
40
0.747913289431809
40
0.849055660754104
40
0.964060349386259
40
1
40
1
40
1
40
1
41
1
10
11.0515819041379
20
-3.58357508576029
30
0
41
1
10
11.3413700713374
20
-3.5837977599885
30
0
41
1
10
11.8236325855338
20
-3.58420145528797
30
0
41
1
10
12.5118089653178
20
-3.58476419109633
30
0
41
1
10
13.1651996247435
20
-3.58554085976371
30
0
41
1
10
13.8747781943057
20
-3.5857188227746
30
0
41
1
10
14.598847265487
20
-3.58678658844428
30
0
41
1
10
15.2579988672902
20
-3.58669860743063
30
0
41
1
10
15.8909546919617
20
-3.58834095171272
30
0
41
1
10
16.5503377953913
20
-3.58749233069136
30
0
41
1
10
17.299974828478
20
-3.58954923080427
30
0
41
1
10
17.9150529300767
20
-3.58876141218096
30
0
41
1
10
18.2833827300855
20
-3.58932648705806
30
0
41
1
10
18.3710765793781
20
-3.58947878524205
30
0
0
SPLINE
5
112
100
AcDbEntity
8
1
62
256
6
ByLayer
370
18
48
1
60
0
100
AcDbSpline
70
4
71
3
72
23
73
19
40
0
40
0
40
0
40
0
40
0.0954229563737914
40
0.171495144296922
40
0.257872468119121
40
0.311013409866032
40
0.363754025769754
40
0.41997179825384
40
0.481887882601928
40
0.54888357166449
40
0.620041383883987
40
0.692102758559708
40
0.781550987328763
40
0.855673982910873
40
0.927440300212532
40
0.961643691600051
40
0.994597524523868
40
1
40
1
40
1
40
1
41
1
10
42.2969157564644
20
3.60219308520874
30
0
41
1
10
42.0633551347266
20
3.60227641175842
30
0
41
1
10
41.6435155560457
20
3.60242060477043
30
0
41
1
10
41.0119563962032
20
3.60136223428327
30
0
41
1
10
40.4838406284598
20
3.60271528501301
30
0
41
1
10
40.0134062836065
20
3.60168841986155
30
0
41
1
10
39.6163078966395
20
3.60068877159648
30
0
41
1
10
39.197819242048
20
3.60111632385465
30
0
41
1
10
38.7443862774538
20
3.60132883113025
30
0
41
1
10
38.2543727326197
20
3.59979997719375
30
0
41
1
10
37.7395069505316
20
3.60026788792936
30
0
41
1
10
37.1696502483281
20
3.60046577446681
30
0
41
1
10
36.592531618559
20
3.59903658544076
30
0
41
1
10
36.0161345974478
20
3.59945399714158
30
0
41
1
10
35.5750446639617
20
3.59913843440958
30
0
41
1
10
35.2347897180726
20
3.5986694094197
30
0
41
1
10
35.0570737923237
20
3.59856042467501
30
0
41
1
10
34.9631323476556
20
3.59852256410127
30
0
41
1
10
34.9499007575399
20
3.59851754386585
30
0
0
SPLINE
5
113
100
AcDbEntity
8
1
62
256
6
ByLayer
370
18
48
1
60
0
100
AcDbSpline
70
4
71
3
72
17
73
13
40
0
40
0
40
0
40
0
40
0.143787917076735
40
0.261435647892186
40
0.403995841803214
40
0.530198714749388
40
0.640705430480419
40
0.708582903723415
40
0.785210423084755
40
0.872389720517053
40
0.963858155840042
40
1
40
1
40
1
40
1
41
1
10
20.5416313101949
20
3.59151203391556
30
0
41
1
10
20.191375962616
20
3.59079417736189
30
0
41
1
10
19.554573815432
20
3.58983284972101
30
0
41
1
10
18.5715673306015
20
3.58974425838821
30
0
41
1
10
17.6294305447961
20
3.58966806582066
30
0
41
1
10
16.7052699896057
20
3.58747370744399
30
0
41
1
10
15.9629407616148
20
3.58840942176801
30
0
41
1
10
15.3415403887989
20
3.58687200469575
30
0
41
1
10
14.7769137810609
20
3.58681153194519
30
0
41
1
10
14.1548093974532
20
3.58608872846779
30
0
41
1
10
13.6314028953615
20
3.58572835766071
30
0
41
1
10
13.3203585190384
20
3.58552504579384
30
0
41
1
10
13.2322720130662
20
3.58546311084584
30
0
0
SPLINE
5
114
100
AcDbEntity
8
1
62
256
6
ByLayer
370
18
48
1
60
0
100
AcDbSpline
70
4
71
2
72
6
73
3
40
0
40
0
40
0
40
1
40
1
40
1
41
1
10
43.6762401590574
20
0.0021152630145309
30
0
41
1
10
43.6762089761109
20
0.002128365048975
30
0
41
1
10
43.6761777936778
20
0.0021422901916139
30
0
0
LINE
5
84
100
AcDbEntity
8
1
62
256
6
ByLayer
370
18
48
1
60
0
100
AcDbLine
10
17.2
20
1.949453
30
0
11
17.2
21
1.901728
31
0
39
0
210
0
220
0
230
1
0
LINE
5
85
100
AcDbEntity
8
1
62
256
6
ByLayer
370
18
48
1
60
0
100
AcDbLine
10
3.501707
20
-1.68688
30
0
11
3.501707
21
2.822357
31
0
39
0
210
0
220
0
230
1
0
LINE
5
86
100
AcDbEntity
8
1
62
256
6
ByLayer
370
18
48
1
60
0
100
AcDbLine
10
54.947009
20
0.045746
30
0
11
54.036989
21
1.050249
31
0
39
0
210
0
220
0
230
1
0
LINE
5
87
100
AcDbEntity
8
1
62
256
6
ByLayer
370
18
48
1
60
0
100
AcDbLine
10
0.415719
20
3.883504
30
0
11
0.415719
21
0
31
0
39
0
210
0
220
0
230
1
0
LINE
5
88
100
AcDbEntity
8
1
62
256
6
ByLayer
370
18
48
1
60
0
100
AcDbLine
10
0.415719
20
0
30
0
11
0.415719
21
-3.883504
31
0
39
0
210
0
220
0
230
1
0
LINE
5
89
100
AcDbEntity
8
1
62
256
6
ByLayer
370
18
48
1
60
0
100
AcDbLine
10
0.831938
20
3.767008
30
0
11
0.831938
21
0
31
0
39
0
210
0
220
0
230
1
0
LINE
5
8A
100
AcDbEntity
8
1
62
256
6
ByLayer
370
18
48
1
60
0
100
AcDbLine
10
0.831938
20
0
30
0
11
0.831938
21
-3.767008
31
0
39
0
210
0
220
0
230
1
0
LINE
5
8B
100
AcDbEntity
8
1
62
256
6
ByLayer
370
18
48
1
60
0
100
AcDbLine
10
0
20
4
30
0
11
0
21
0
31
0
39
0
210
0
220
0
230
1
0
LINE
5
8C
100
AcDbEntity
8
1
62
256
6
ByLayer
370
18
48
1
60
0
100
AcDbLine
10
0
20
0
30
0
11
0
21
-4
31
0
39
0
210
0
220
0
230
1
0
LINE
5
8D
100
AcDbEntity
8
SK1
62
256
6
ByLayer
370
18
48
1
60
0
100
AcDbLine
10
-35.4
20
-1.455573
30
0
11
-35.4
21
-0.197077
31
0
39
0
210
0
220
0
230
1
0
LINE
5
8F
100
AcDbEntity
8
SK1
62
256
6
ByLayer
370
18
48
1
60
0
100
AcDbLine
10
-36
20
-2.76
30
0
11
-36
21
-1.784712
31
0
39
0
210
0
220
0
230
1
0
LINE
5
90
100
AcDbEntity
8
SK1
62
256
6
ByLayer
370
18
48
1
60
0
100
AcDbLine
10
-36
20
-1.784712
30
0
11
-36
21
-0.538666
31
0
39
0
210
0
220
0
230
1
0
LINE
5
91
100
AcDbEntity
8
SK1
62
256
6
ByLayer
370
18
48
1
60
0
100
AcDbLine
10
-35.600962
20
-1.495276
30
0
11
-35.600962
21
-0.04318
31
0
39
0
210
0
220
0
230
1
0
LINE
5
92
100
AcDbEntity
8
SK1
62
256
6
ByLayer
370
18
48
1
60
0
100
AcDbLine
10
0
20
4
30
0
11
0
21
-4
31
0
39
0
210
0
220
0
230
1
0
LINE
5
93
100
AcDbEntity
8
SK1
62
256
6
ByLayer
370
18
48
1
60
0
100
AcDbLine
10
-36
20
2.76
30
0
11
-36
21
0.538666
31
0
39
0
210
0
220
0
230
1
0
LINE
5
94
100
AcDbEntity
8
SK1
62
256
6
ByLayer
370
18
48
1
60
0
100
AcDbLine
10
-34.76
20
-4
30
0
11
-34.76
21
4
31
0
39
0
210
0
220
0
230
1
0
LINE
5
95
100
AcDbEntity
8
SK1
62
256
6
ByLayer
370
18
48
1
60
0
100
AcDbLine
10
-35.5
20
-1.521305
30
0
11
-35.5
21
-0.069204
31
0
39
0
210
0
220
0
230
1
0
LINE
5
96
100
AcDbEntity
8
1
62
256
6
ByLayer
370
18
48
1
60
0
100
AcDbLine
10
42.296552
20
-3.792924
30
0
11
43.28133
21
-3.793539
31
0
39
0
210
0
220
0
230
1
0
LINE
5
97
100
AcDbEntity
8
1
62
256
6
ByLayer
370
18
48
1
60
0
100
AcDbLine
10
43.28133
20
3.793539
30
0
11
42.296552
21
3.792924
31
0
39
0
210
0
220
0
230
1
0
LINE
5
98
100
AcDbEntity
8
SK1
62
256
6
ByLayer
370
18
48
1
60
0
100
AcDbLine
10
-34.76
20
-4
30
0
11
0
21
-4
31
0
39
0
210
0
220
0
230
1
0
LINE
5
99
100
AcDbEntity
8
SK1
62
256
6
ByLayer
370
18
48
1
60
0
100
AcDbLine
10
0
20
4
30
0
11
-34.76
21
4
31
0
39
0
210
0
220
0
230
1
0
LINE
5
9A
100
AcDbEntity
8
SK1
62
256
6
ByLayer
370
18
48
1
60
0
100
AcDbLine
10
-36
20
-2.76
30
0
11
-34.76
21
-4
31
0
39
0
210
0
220
0
230
1
0
LINE
5
9B
100
AcDbEntity
8
SK1
62
256
6
ByLayer
370
18
48
1
60
0
100
AcDbLine
10
-34.76
20
4
30
0
11
-36
21
2.76
31
0
39
0
210
0
220
0
230
1
0
LINE
5
9C
100
AcDbEntity
8
1
62
256
6
ByLayer
370
18
48
1
60
0
100
AcDbLine
10
0.831938
20
-3.767008
30
0
11
2.040496
21
-3.767764
31
0
39
0
210
0
220
0
230
1
0
LINE
5
9D
100
AcDbEntity
8
1
62
256
6
ByLayer
370
18
48
1
60
0
100
AcDbLine
10
9.980446
20
-3.772726
30
0
11
11.05457
21
-3.773397
31
0
39
0
210
0
220
0
230
1
0
LINE
5
9E
100
AcDbEntity
8
1
62
256
6
ByLayer
370
18
48
1
60
0
100
AcDbLine
10
20.54361
20
-3.779328
30
0
11
21.552396
21
-3.779959
31
0
39
0
210
0
220
0
230
1
0
LINE
5
9F
100
AcDbEntity
8
1
62
256
6
ByLayer
370
18
48
1
60
0
100
AcDbLine
10
31.830743
20
-3.786383
30
0
11
32.804777
21
-3.786991
31
0
39
0
210
0
220
0
230
1
0
LINE
5
A0
100
AcDbEntity
8
1
62
256
6
ByLayer
370
18
48
1
60
0
100
AcDbLine
10
32.804777
20
3.786991
30
0
11
31.830743
21
3.786383
31
0
39
0
210
0
220
0
230
1
0
LINE
5
A1
100
AcDbEntity
8
1
62
256
6
ByLayer
370
18
48
1
60
0
100
AcDbLine
10
21.552396
20
3.779959
30
0
11
20.54361
21
3.779328
31
0
39
0
210
0
220
0
230
1
0
LINE
5
A2
100
AcDbEntity
8
1
62
256
6
ByLayer
370
18
48
1
60
0
100
AcDbLine
10
11.05457
20
3.773397
30
0
11
9.980446
21
3.772726
31
0
39
0
210
0
220
0
230
1
0
LINE
5
A3
100
AcDbEntity
8
1
62
256
6
ByLayer
370
18
48
1
60
0
100
AcDbLine
10
2.040496
20
3.767764
30
0
11
0.831938
21
3.767008
31
0
39
0
210
0
220
0
230
1
0
LINE
5
A4
100
AcDbEntity
8
SK4
62
256
6
ByLayer
370
18
48
0.05
60
0
100
AcDbLine
10
60
20
0
30
0
11
-41
21
0
31
0
39
0
210
0
220
0
230
1
0
LINE
5
A6
100
AcDbEntity
8
4
62
256
6
ByLayer
370
18
48
0.05
60
0
100
AcDbLine
10
-36
20
0
30
0
11
60
21
0
31
0
39
0
210
0
220
0
230
1
0
LINE
5
A8
100
AcDbEntity
8
80
62
256
6
ByLayer
370
18
48
1
60
0
100
AcDbLine
10
0
20
0
30
0
11
-6
21
0
31
0
39
0
210
0
220
0
230
1
0
LINE
5
A9
100
AcDbEntity
8
81
62
256
6
ByLayer
370
18
48
1
60
0
100
AcDbLine
10
55
20
0
30
0
11
61
21
0
31
0
39
0
210
0
220
0
230
1
0
LINE
5
AA
100
AcDbEntity
8
SK2
62
256
6
ByLayer
370
13
48
1
60
0
100
AcDbLine
10
55.542962
20
1.49176
30
0
11
62.926383
21
21.777352
31
0
39
0
210
0
220
0
230
1
0
LINE
5
AC
100
AcDbEntity
8
SK2
62
256
6
ByLayer
370
13
48
1
60
0
100
AcDbLine
10
55.542962
20
-1.49176
30
0
11
62.926383
21
-21.777352
31
0
39
0
210
0
220
0
230
1
0
LINE
5
AD
100
AcDbEntity
8
1
62
256
6
ByLayer
370
13
48
1
60
0
100
AcDbLine
10
61.84046
20
18.793832
30
0
11
64.937048
21
17.97745
31
0
39
0
210
0
220
0
230
1
0
LINE
5
AE
100
AcDbEntity
8
1
62
256
6
ByLayer
370
13
48
1
60
0
100
AcDbLine
10
61.84046
20
18.793832
30
0
11
64.620242
21
17.20381
31
0
39
0
210
0
220
0
230
1
0
LINE
5
AF
100
AcDbEntity
8
1
62
256
6
ByLayer
370
13
48
1
60
0
100
AcDbLine
10
64.937048
20
17.97745
30
0
11
64.620242
21
17.20381
31
0
39
0
210
0
220
0
230
1
0
LINE
5
B0
100
AcDbEntity
8
1
62
256
6
ByLayer
370
13
48
1
60
0
100
AcDbLine
10
61.84046
20
-18.793832
30
0
11
64.620239
21
-17.203811
31
0
39
0
210
0
220
0
230
1
0
LINE
5
B1
100
AcDbEntity
8
1
62
256
6
ByLayer
370
13
48
1
60
0
100
AcDbLine
10
61.84046
20
-18.793832
30
0
11
64.937051
21
-17.977449
31
0
39
0
210
0
220
0
230
1
0
LINE
5
B2
100
AcDbEntity
8
1
62
256
6
ByLayer
370
13
48
1
60
0
100
AcDbLine
10
64.620239
20
-17.203811
30
0
11
64.937051
21
-17.977449
31
0
39
0
210
0
220
0
230
1
0
MTEXT
5
115
100
AcDbEntity
8
SK2
62
256
6
ByLayer
370
18
48
1
60
0
100
AcDbMText
10
68.717388
20
-2.467451
30
0
210
0
220
0
230
1
1
\W0.7237;140.00
40
3.50012
41
0
44
1.084337
50
0
71
7
72
5
7
iso_b_vert
0
MTEXT
5
118
100
AcDbEntity
8
SK6
62
256
6
ByLayer
370
18
48
1
60
0
100
AcDbMText
10
-29.831725
20
-119.15703
30
0
210
0
220
0
230
1
1
\W0.7454;860.1-0760-038A1-GM X1BM
40
3.175
41
0
44
1.084337
50
0
71
7
72
5
7
iso_b_vert
0
DIMENSION
5
11B
100
AcDbEntity
8
SK2
62
256
6
ByLayer
370
18
48
1
60
0
100
AcDbDimension
2
_U0
10
55
20
-27.50012
30
0
11
27.5
21
-27.50012
31
0
70
32
71
2
72
1
41
1
210
0
220
0
230
1
3
Standard
100
AcDbAlignedDimension
13
0
23
-4
33
0
14
55
24
0
34
0
50
0
100
AcDbRotatedDimension
1001
ACAD
1000
DSTYLE
1002
{
1070
   371
1070
    13
1070
   372
1070
    13
1070
     3
1000

1070
   170
1070
     0
1070
   144
1040
1.0
1070
   277
1070
     2
1070
   284
1070
     8
1070
   278
1070
    46
1070
   146
1040
0.999966
1070
   345
1005
16
1070
   347
1005
16
1070
   346
1005
16
1070
   344
1005
11C
1070
   343
1005
11C
1070
   172
1070
     1
1070
    76
1070
     0
1070
    75
1070
     0
1070
   282
1070
     0
1070
   281
1070
     0
1070
    71
1070
     0
1070
    74
1070
     0
1070
   279
1070
     0
1070
   173
1070
     1
1070
   340
1005
116
1070
   271
1070
     1
1070
   272
1070
     2
1070
    77
1070
     1
1070
    73
1070
     1
1070
   171
1070
     3
1070
   274
1070
     4
1070
   177
1070
   150
1070
   176
1070
     9
1070
   178
1070
    43
1070
    78
1070
     8
1070
    48
1040
-0.1
1070
    41
1040
3.175
1070
   147
1040
1.75006
1070
    42
1040
1.5875
1070
    44
1040
3.175
1070
   140
1040
3.50012
1002
}
1001
ACAD_DSTYLE_DIM_LINETYPE
1070
   380
1005
16
1001
ACAD_DSTYLE_DIM_EXT1_LINETYPE
1070
   381
1005
16
1001
ACAD_DSTYLE_DIM_EXT2_LINETYPE
1070
   382
1005
16
0
DIMENSION
5
141
100
AcDbEntity
8
2
62
256
6
ByLayer
370
18
48
1
60
0
100
AcDbDimension
2
_U1
10
61.75006
20
3.8
30
0
11
61.75006
21
19.373233
31
0
70
32
71
1
72
1
41
1
210
0
220
0
230
1
3
Standard
100
AcDbAlignedDimension
13
53.6169
23
-3.8
33
0
14
53.6169
24
3.8
34
0
50
90
100
AcDbRotatedDimension
1001
ACAD
1000
DSTYLE
1002
{
1070
   371
1070
    13
1070
   372
1070
    13
1070
     3
1000

1070
   170
1070
     0
1070
   144
1040
1.0
1070
   277
1070
     2
1070
   284
1070
     8
1070
   278
1070
    46
1070
   146
1040
0.999966
1070
   345
1005
16
1070
   347
1005
16
1070
   346
1005
16
1070
   344
1005
11C
1070
   343
1005
11C
1070
   172
1070
     1
1070
    76
1070
     0
1070
    75
1070
     0
1070
   282
1070
     0
1070
   281
1070
     0
1070
    71
1070
     0
1070
    74
1070
     0
1070
   279
1070
     0
1070
   173
1070
     1
1070
   340
1005
116
1070
   271
1070
     1
1070
   272
1070
     2
1070
    77
1070
     1
1070
    73
1070
     0
1070
   171
1070
     3
1070
   274
1070
     4
1070
   177
1070
   150
1070
   176
1070
     9
1070
   178
1070
    43
1070
    78
1070
     8
1070
    48
1040
-0.1
1070
    41
1040
3.175
1070
   147
1040
1.75006
1070
    42
1040
1.5875
1070
    44
1040
3.175
1070
   140
1040
3.50012
1002
}
1001
ACAD_DSTYLE_DIM_LINETYPE
1070
   380
1005
16
1001
ACAD_DSTYLE_DIM_EXT1_LINETYPE
1070
   381
1005
16
1001
ACAD_DSTYLE_DIM_EXT2_LINETYPE
1070
   382
1005
16
0
DIMENSION
5
160
100
AcDbEntity
8
SK2
62
256
6
ByLayer
370
18
48
1
60
0
100
AcDbDimension
2
_U2
10
-39.24994
20
-4
30
0
11
-39.24994
21
18.10734
31
0
70
32
71
1
72
1
41
1
210
0
220
0
230
1
3
Standard
100
AcDbAlignedDimension
13
-36
23
4
33
0
14
-36
24
-4
34
0
50
90
100
AcDbRotatedDimension
1001
ACAD
1000
DSTYLE
1002
{
1070
   371
1070
    13
1070
   372
1070
    13
1070
     3
1000

1070
   170
1070
     0
1070
   144
1040
1.0
1070
   277
1070
     2
1070
   284
1070
     8
1070
   278
1070
    46
1070
   146
1040
0.999966
1070
   345
1005
16
1070
   347
1005
16
1070
   346
1005
16
1070
   344
1005
11C
1070
   343
1005
11C
1070
   172
1070
     1
1070
    76
1070
     0
1070
    75
1070
     0
1070
   282
1070
     0
1070
   281
1070
     0
1070
    71
1070
     0
1070
    74
1070
     0
1070
   279
1070
     0
1070
   173
1070
     1
1070
   340
1005
116
1070
   271
1070
     1
1070
   272
1070
     2
1070
    77
1070
     1
1070
    73
1070
     0
1070
   171
1070
     3
1070
   274
1070
     4
1070
   177
1070
   150
1070
   176
1070
     9
1070
   178
1070
    43
1070
    78
1070
     8
1070
    48
1040
-0.1
1070
    41
1040
3.175
1070
   147
1040
1.75006
1070
    42
1040
1.5875
1070
    44
1040
3.175
1070
   140
1040
3.50012
1002
}
1001
ACAD_DSTYLE_DIM_LINETYPE
1070
   380
1005
16
1001
ACAD_DSTYLE_DIM_EXT1_LINETYPE
1070
   381
1005
16
1001
ACAD_DSTYLE_DIM_EXT2_LINETYPE
1070
   382
1005
16
0
DIMENSION
5
17E
100
AcDbEntity
8
SK2
62
256
6
ByLayer
370
18
48
1
60
0
100
AcDbDimension
2
_U3
10
0
20
-27.50012
30
0
11
-18
21
-27.50012
31
0
70
32
71
1
72
1
41
1
210
0
220
0
230
1
3
Standard
100
AcDbAlignedDimension
13
-36
23
-4
33
0
14
0
24
-4
34
0
50
0
100
AcDbRotatedDimension
1001
ACAD
1000
DSTYLE
1002
{
1070
   371
1070
    13
1070
   372
1070
    13
1070
     3
1000

1070
   170
1070
     0
1070
   144
1040
1.0
1070
   277
1070
     2
1070
   284
1070
     8
1070
   278
1070
    46
1070
   146
1040
0.999966
1070
   345
1005
16
1070
   347
1005
16
1070
   346
1005
16
1070
   344
1005
11C
1070
   343
1005
11C
1070
   172
1070
     1
1070
    76
1070
     0
1070
    75
1070
     0
1070
   282
1070
     0
1070
   281
1070
     0
1070
    71
1070
     0
1070
    74
1070
     0
1070
   279
1070
     0
1070
   173
1070
     1
1070
   340
1005
116
1070
   271
1070
     1
1070
   272
1070
     2
1070
    77
1070
     1
1070
    73
1070
     1
1070
   171
1070
     3
1070
   274
1070
     4
1070
   177
1070
   150
1070
   176
1070
     9
1070
   178
1070
    43
1070
    78
1070
     8
1070
    48
1040
-0.1
1070
    41
1040
3.175
1070
   147
1040
1.75006
1070
    42
1040
1.5875
1070
    44
1040
3.175
1070
   140
1040
3.50012
1002
}
1001
ACAD_DSTYLE_DIM_LINETYPE
1070
   380
1005
16
1001
ACAD_DSTYLE_DIM_EXT1_LINETYPE
1070
   381
1005
16
1001
ACAD_DSTYLE_DIM_EXT2_LINETYPE
1070
   382
1005
16
0
DIMENSION
5
19A
100
AcDbEntity
8
SK2
62
256
6
ByLayer
370
18
48
1
60
0
100
AcDbDimension
2
_U4
10
55
20
-18.74982
30
0
11
28.5
21
-18.74982
31
0
70
32
71
1
72
1
41
1
210
0
220
0
230
1
3
Standard
100
AcDbAlignedDimension
13
2
23
4.3
33
0
14
55
24
0
34
0
50
0
100
AcDbRotatedDimension
1001
ACAD
1000
DSTYLE
1002
{
1070
   371
1070
    13
1070
   372
1070
    13
1070
     3
1000

1070
   170
1070
     0
1070
   144
1040
1.0
1070
   277
1070
     2
1070
   284
1070
     8
1070
   278
1070
    46
1070
   146
1040
0.999966
1070
   345
1005
16
1070
   347
1005
16
1070
   346
1005
16
1070
   344
1005
11C
1070
   343
1005
11C
1070
   172
1070
     1
1070
    76
1070
     0
1070
    75
1070
     0
1070
   282
1070
     0
1070
   281
1070
     0
1070
    71
1070
     0
1070
    74
1070
     0
1070
   279
1070
     0
1070
   173
1070
     1
1070
   340
1005
116
1070
   271
1070
     1
1070
   272
1070
     2
1070
    77
1070
     1
1070
    73
1070
     1
1070
   171
1070
     3
1070
   274
1070
     4
1070
   177
1070
   150
1070
   176
1070
     9
1070
   178
1070
    43
1070
    78
1070
     8
1070
    48
1040
-0.1
1070
    41
1040
3.175
1070
   147
1040
1.75006
1070
    42
1040
1.5875
1070
    44
1040
3.175
1070
   140
1040
3.50012
1002
}
1001
ACAD_DSTYLE_DIM_LINETYPE
1070
   380
1005
16
1001
ACAD_DSTYLE_DIM_EXT1_LINETYPE
1070
   381
1005
16
1001
ACAD_DSTYLE_DIM_EXT2_LINETYPE
1070
   382
1005
16
0
DIMENSION
5
1B6
100
AcDbEntity
8
SK2
62
256
6
ByLayer
370
18
48
1
60
0
100
AcDbDimension
2
_U5
10
55
20
-10.82
30
0
11
35.35
21
-10.82
31
0
70
32
71
1
72
1
41
1
210
0
220
0
230
1
3
Standard
100
AcDbAlignedDimension
13
15.7
23
-3.8
33
0
14
55
24
0
34
0
50
0
100
AcDbRotatedDimension
1001
ACAD
1000
DSTYLE
1002
{
1070
   371
1070
    13
1070
   372
1070
    13
1070
     3
1000

1070
   170
1070
     0
1070
   144
1040
1.0
1070
   277
1070
     2
1070
   284
1070
     8
1070
   278
1070
    46
1070
   146
1040
1.25
1070
   345
1005
16
1070
   347
1005
16
1070
   346
1005
16
1070
   344
1005
11C
1070
   343
1005
11C
1070
   172
1070
     1
1070
    76
1070
     0
1070
    75
1070
     0
1070
   282
1070
     0
1070
   281
1070
     0
1070
    71
1070
     0
1070
    74
1070
     0
1070
   279
1070
     0
1070
   173
1070
     1
1070
   340
1005
116
1070
   271
1070
     1
1070
   272
1070
     2
1070
    77
1070
     1
1070
    73
1070
     1
1070
   171
1070
     3
1070
   274
1070
     4
1070
   177
1070
   150
1070
   176
1070
     9
1070
   178
1070
    43
1070
    78
1070
     8
1070
    48
1040
-0.1
1070
    41
1040
3.175
1070
   147
1040
0.42
1070
    42
1040
1.5875
1070
    44
1040
0.5
1070
   140
1040
2.8
1002
}
1001
ACAD_DSTYLE_DIM_LINETYPE
1070
   380
1005
16
1001
ACAD_DSTYLE_DIM_EXT1_LINETYPE
1070
   381
1005
16
1001
ACAD_DSTYLE_DIM_EXT2_LINETYPE
1070
   382
1005
16
0
DIMENSION
5
1D2
100
AcDbEntity
8
SK2
62
256
6
ByLayer
370
18
48
1
60
0
100
AcDbDimension
2
_U6
10
55
20
-37.50012
30
0
11
9.5
21
-37.50012
31
0
70
32
71
1
72
1
41
1
210
0
220
0
230
1
3
Standard
100
AcDbAlignedDimension
13
-36
23
0
33
0
14
55
24
0
34
0
50
0
100
AcDbRotatedDimension
1001
ACAD
1000
DSTYLE
1002
{
1070
   371
1070
    13
1070
   372
1070
    13
1070
     3
1000

1070
   170
1070
     0
1070
   144
1040
1.0
1070
   277
1070
     2
1070
   284
1070
     8
1070
   278
1070
    46
1070
   146
1040
0.999966
1070
   345
1005
16
1070
   347
1005
16
1070
   346
1005
16
1070
   344
1005
11C
1070
   343
1005
11C
1070
   172
1070
     1
1070
    76
1070
     0
1070
    75
1070
     0
1070
   282
1070
     0
1070
   281
1070
     0
1070
    71
1070
     0
1070
    74
1070
     0
1070
   279
1070
     0
1070
   173
1070
     1
1070
   340
1005
116
1070
   271
1070
     1
1070
   272
1070
     2
1070
    77
1070
     1
1070
    73
1070
     1
1070
   171
1070
     3
1070
   274
1070
     4
1070
   177
1070
   150
1070
   176
1070
     9
1070
   178
1070
    43
1070
    78
1070
     8
1070
    48
1040
-0.1
1070
    41
1040
3.175
1070
   147
1040
1.75006
1070
    42
1040
1.5875
1070
    44
1040
3.175
1070
   140
1040
3.50012
1002
}
1001
ACAD_DSTYLE_DIM_LINETYPE
1070
   380
1005
16
1001
ACAD_DSTYLE_DIM_EXT1_LINETYPE
1070
   381
1005
16
1001
ACAD_DSTYLE_DIM_EXT2_LINETYPE
1070
   382
1005
16
0
ENDSEC
0
SECTION
2
OBJECTS
0
DICTIONARY
5
25e
330
0
100
AcDbDictionary
280
0
281
1
3
ACAD_GROUP
350
25f
3
ACAD_MLINESTYLE
350
260
0
DICTIONARY
5
25f
330
0
100
AcDbDictionary
280
0
281
1
0
DICTIONARY
5
260
330
0
100
AcDbDictionary
280
0
281
1
3
Standard
350
18
0
MLINESTYLE
5
18
330
260
100
AcDbMlineStyle
2
Standard
70
0
3

62
256
51
90
52
90
71
2
49
-0.5
62
256
6
ByLayer
49
0.5
62
256
6
ByLayer
0
RASTERVARIABLES
5
24c
330

100
AcDbRasterVariables
90
0
70
1
71
1
72
1
0
ENDSEC
0
EOF
