0
SECTION
2
HEADER
9
$ACADVER
1
AC1015
9
$DWGCODEPAGE
3
ANSI_1252
9
$HANDSEED
5
270
9
$ANGBASE
50
0
9
$ANGDIR
70
0
9
$ATTMODE
70
1
9
$AUNITS
70
0
9
$AUPREC
70
0
9
$CECOLOR
62
256
9
$CELTSCALE
40
1
9
$CELTYPE
6
ByLayer
9
$CELWEIGHT
370
18
9
$CLAYER
8
0
9
$CMLJUST
70
0
9
$CMLSCALE
40
1
9
$CMLSTYLE
2
Standard
9
$DIMSTYLE
2
Standard
9
$TEXTSIZE
40
0.2
9
$TEXTSTYLE
7
Standard
9
$LUNITS
70
2
9
$LUPREC
70
4
9
$EXTNAMES
290
1
9
$INSUNITS
70
4
9
$LTSCALE
40
1
9
$LWDISPLAY
290
1
9
$PDMODE
70
0
9
$PDSIZE
40
0
9
$PLINEGEN
70
0
0
ENDSEC
0
SECTION
2
CLASSES
0
CLASS
1
RASTERVARIABLES
2
AcDbRasterVariables
3
ISM
90
0
280
0
281
0
0
ENDSEC
0
SECTION
2
TABLES
0
TABLE
2
VPORT
5
266
100
AcDbSymbolTable
0
VPORT
5
1
100
AcDbSymbolTableRecord
100
AcDbViewportTableRecord
2
*Active
70
0
10
0
20
0
11
1
21
1
12
-1
22
1
13
0
23
0
14
0.5
24
0.5
15
10
25
10
16
0
26
0
36
1
17
0
27
0
37
0
0
ENDTAB
0
TABLE
2
LTYPE
5
267
100
AcDbSymbolTable
0
LTYPE
5
14
100
AcDbSymbolTableRecord
100
AcDbLinetypeTableRecord
70
0
2
ByBlock
3

72
65
73
0
40
0
0
LTYPE
5
15
100
AcDbSymbolTableRecord
100
AcDbLinetypeTableRecord
70
0
2
ByLayer
3

72
65
73
0
40
0
0
LTYPE
5
16
100
AcDbSymbolTableRecord
100
AcDbLinetypeTableRecord
70
0
2
Continuous
3
Solid line
72
65
73
0
40
0
0
LTYPE
5
6E
100
AcDbSymbolTableRecord
100
AcDbLinetypeTableRecord
70
0
2
CENTER
3
____ _ ____ _ ____ _ ____
72
65
73
4
40
47.5
49
22
74
0
49
-8.5
74
0
49
8.5
74
0
49
-8.5
74
0
0
LTYPE
5
6F
100
AcDbSymbolTableRecord
100
AcDbLinetypeTableRecord
70
0
2
DASHED
3
__ __ __ __ __ __ __ __ __
72
65
73
2
40
25.72
49
12.86
74
0
49
-12.86
74
0
0
ENDTAB
0
TABLE
2
LAYER
5
268
100
AcDbSymbolTable
0
LAYER
5
10
100
AcDbSymbolTableRecord
100
AcDbLayerTableRecord
2
0
70
0
62
7
6
Continuous
290
1
370
-3
390
0
0
LAYER
5
71
100
AcDbSymbolTableRecord
100
AcDbLayerTableRecord
2
80
70
0
62
-6
6
Continuous
290
1
370
-3
390
0
0
LAYER
5
73
100
AcDbSymbolTableRecord
100
AcDbLayerTableRecord
2
81
70
0
62
-3
6
Continuous
290
1
370
-3
390
0
0
LAYER
5
75
100
AcDbSymbolTableRecord
100
AcDbLayerTableRecord
2
1
70
0
62
4
6
Continuous
290
1
370
-3
390
0
0
LAYER
5
A7
100
AcDbSymbolTableRecord
100
AcDbLayerTableRecord
2
4
70
0
62
-2
6
CENTER
290
1
370
-3
390
0
0
LAYER
5
12A
100
AcDbSymbolTableRecord
100
AcDbLayerTableRecord
2
Defpoints
70
0
62
7
6
Continuous
290
0
370
-3
390
0
0
LAYER
5
157
100
AcDbSymbolTableRecord
100
AcDbLayerTableRecord
2
2
70
0
62
7
6
Continuous
290
1
370
-3
390
0
0
LAYER
5
252
100
AcDbSymbolTableRecord
100
AcDbLayerTableRecord
2
SK1
70
0
62
4
6
Continuous
290
1
370
-3
390
0
0
LAYER
5
253
100
AcDbSymbolTableRecord
100
AcDbLayerTableRecord
2
SK4
70
0
62
2
6
CENTER
290
1
370
-3
390
0
0
LAYER
5
254
100
AcDbSymbolTableRecord
100
AcDbLayerTableRecord
2
SK2
70
0
62
7
6
Continuous
290
1
370
-3
390
0
0
LAYER
5
255
100
AcDbSymbolTableRecord
100
AcDbLayerTableRecord
2
SK6
70
0
62
5
6
Continuous
290
1
370
-3
390
0
0
ENDTAB
0
TABLE
2
STYLE
5
269
100
AcDbSymbolTable
0
STYLE
5
11
100
AcDbSymbolTableRecord
100
AcDbTextStyleTableRecord
2
Standard
3
txt
70
0
71
0
40
0
41
1
42
0
50
0
0
STYLE
5
11B
100
AcDbSymbolTableRecord
100
AcDbTextStyleTableRecord
2
iso_b_vert
3
simplex.shx
70
0
71
0
40
0
41
1
42
0
50
0
0
STYLE
5
11C
100
AcDbSymbolTableRecord
100
AcDbTextStyleTableRecord
2
DWGDirectTextStyle
3
simplex
70
0
71
0
40
0
41
1
42
0
50
0
0
ENDTAB
0
TABLE
2
DIMSTYLE
5
26a
100
AcDbSymbolTable
100
AcDbDimStyleTable
0
DIMSTYLE
105
27
100
AcDbSymbolTableRecord
100
AcDbDimStyleTableRecord
2
Standard
70
0
3
<>
41
0.18
42
0.0625
44
0.18
140
0.18
147
0.09
73
0
74
0
77
1
271
2
275
0
278
52
280
0
340
11
0
ENDTAB
0
TABLE
2
VIEW
5
26b
100
AcDbSymbolTable
0
ENDTAB
0
TABLE
2
UCS
5
26c
100
AcDbSymbolTable
0
ENDTAB
0
TABLE
2
APPID
5
26d
100
AcDbSymbolTable
0
APPID
5
12
100
AcDbSymbolTableRecord
100
AcDbRegAppTableRecord
2
ACAD
70
0
0
APPID
5
11F
100
AcDbSymbolTableRecord
100
AcDbRegAppTableRecord
2
ACAD_DSTYLE_DIMBREAK
70
0
0
APPID
5
211
100
AcDbSymbolTableRecord
100
AcDbRegAppTableRecord
2
ACAD_DSTYLE_DIM_LINETYPE
70
0
0
APPID
5
212
100
AcDbSymbolTableRecord
100
AcDbRegAppTableRecord
2
ACAD_DSTYLE_DIM_EXT1_LINETYPE
70
0
0
APPID
5
213
100
AcDbSymbolTableRecord
100
AcDbRegAppTableRecord
2
ACAD_DSTYLE_DIM_EXT2_LINETYPE
70
0
0
APPID
5
24E
100
AcDbSymbolTableRecord
100
AcDbRegAppTableRecord
2
ACAD_MLEADERVER
70
0
0
ENDTAB
0
TABLE
2
BLOCK_RECORD
5
26e
100
AcDbSymbolTable
0
BLOCK_RECORD
5
1F
100
AcDbSymbolTableRecord
100
AcDbBlockTableRecord
2
*Model_Space
340
0
70
0
0
BLOCK_RECORD
5
1B
100
AcDbSymbolTableRecord
100
AcDbBlockTableRecord
2
*Paper_Space
340
0
70
0
0
BLOCK_RECORD
5
23
100
AcDbSymbolTableRecord
100
AcDbBlockTableRecord
2
*Paper_Space0
340
0
70
0
0
BLOCK_RECORD
5
121
100
AcDbSymbolTableRecord
100
AcDbBlockTableRecord
2
_Closed
340
0
70
0
0
BLOCK_RECORD
5
12B
100
AcDbSymbolTableRecord
100
AcDbBlockTableRecord
2
*D2
340
0
70
0
0
BLOCK_RECORD
5
137
100
AcDbSymbolTableRecord
100
AcDbBlockTableRecord
2
_U0
340
0
70
0
0
BLOCK_RECORD
5
149
100
AcDbSymbolTableRecord
100
AcDbBlockTableRecord
2
*D4
340
0
70
0
0
BLOCK_RECORD
5
158
100
AcDbSymbolTableRecord
100
AcDbBlockTableRecord
2
_U1
340
0
70
0
0
BLOCK_RECORD
5
168
100
AcDbSymbolTableRecord
100
AcDbBlockTableRecord
2
*D6
340
0
70
0
0
BLOCK_RECORD
5
176
100
AcDbSymbolTableRecord
100
AcDbBlockTableRecord
2
_U2
340
0
70
0
0
BLOCK_RECORD
5
186
100
AcDbSymbolTableRecord
100
AcDbBlockTableRecord
2
*D8
340
0
70
0
0
BLOCK_RECORD
5
192
100
AcDbSymbolTableRecord
100
AcDbBlockTableRecord
2
_U3
340
0
70
0
0
BLOCK_RECORD
5
1A2
100
AcDbSymbolTableRecord
100
AcDbBlockTableRecord
2
*D10
340
0
70
0
0
BLOCK_RECORD
5
1AE
100
AcDbSymbolTableRecord
100
AcDbBlockTableRecord
2
_U4
340
0
70
0
0
BLOCK_RECORD
5
1BE
100
AcDbSymbolTableRecord
100
AcDbBlockTableRecord
2
*D12
340
0
70
0
0
BLOCK_RECORD
5
1CA
100
AcDbSymbolTableRecord
100
AcDbBlockTableRecord
2
_U5
340
0
70
0
0
BLOCK_RECORD
5
1DA
100
AcDbSymbolTableRecord
100
AcDbBlockTableRecord
2
*D14
340
0
70
0
0
BLOCK_RECORD
5
1E6
100
AcDbSymbolTableRecord
100
AcDbBlockTableRecord
2
_U6
340
0
70
0
0
ENDTAB
0
ENDSEC
0
SECTION
2
BLOCKS
0
BLOCK
5
20
100
AcDbEntity
8
0
100
AcDbBlockBegin
2
*Model_Space
70
0
10
0
20
0
30
0
3
*Model_Space
0
ENDBLK
5
21
100
AcDbEntity
8
0
100
AcDbBlockEnd
0
BLOCK
5
1C
100
AcDbEntity
8
0
100
AcDbBlockBegin
2
*Paper_Space
70
0
10
0
20
0
30
0
3
*Paper_Space
0
ENDBLK
5
1D
100
AcDbEntity
8
0
100
AcDbBlockEnd
0
BLOCK
5
24
100
AcDbEntity
8
0
100
AcDbBlockBegin
2
*Paper_Space0
70
0
10
0
20
0
30
0
3
*Paper_Space0
0
ENDBLK
5
25
100
AcDbEntity
8
0
100
AcDbBlockEnd
0
BLOCK
5
122
100
AcDbEntity
8
0
100
AcDbBlockBegin
2
_Closed
70
0
10
0
20
0
30
0
3
_Closed
0
LINE
5
124
100
AcDbEntity
8
0
62
256
6
ByLayer
370
-2
48
1
60
0
100
AcDbLine
10
-1
20
0.166667
30
0
11
0
21
0
31
0
39
0
210
0
220
0
230
1
0
LINE
5
125
100
AcDbEntity
8
0
62
256
6
ByLayer
370
-2
48
1
60
0
100
AcDbLine
10
0
20
0
30
0
11
-1
21
-0.166667
31
0
39
0
210
0
220
0
230
1
0
LINE
5
126
100
AcDbEntity
8
0
62
256
6
ByLayer
370
-2
48
1
60
0
100
AcDbLine
10
-1
20
0.166667
30
0
11
-1
21
-0.166667
31
0
39
0
210
0
220
0
230
1
0
LINE
5
127
100
AcDbEntity
8
0
62
256
6
ByLayer
370
-2
48
1
60
0
100
AcDbLine
10
0
20
0
30
0
11
-1
21
0
31
0
39
0
210
0
220
0
230
1
0
ENDBLK
5
123
100
AcDbEntity
8
0
100
AcDbBlockEnd
0
BLOCK
5
12C
100
AcDbEntity
8
0
100
AcDbBlockBegin
2
*D2
70
1
10
0
20
0
30
0
3
*D2
0
LINE
5
12E
100
AcDbEntity
8
0
62
256
6
ByLayer
370
-2
48
1
60
0
100
AcDbLine
10
0
20
-5.5875
30
0
11
0
21
-30.67512
31
0
39
0
210
0
220
0
230
1
0
LINE
5
12F
100
AcDbEntity
8
0
62
256
6
ByLayer
370
-2
48
1
60
0
100
AcDbLine
10
55
20
-1.5875
30
0
11
55
21
-30.67512
31
0
39
0
210
0
220
0
230
1
0
LINE
5
130
100
AcDbEntity
8
0
62
256
6
ByLayer
370
-2
48
1
60
0
100
AcDbLine
10
3.175
20
-27.50012
30
0
11
51.825
21
-27.50012
31
0
39
0
210
0
220
0
230
1
0
SOLID
5
131
100
AcDbEntity
8
0
62
256
6
ByLayer
370
-1
48
1
60
0
100
AcDbTrace
10
3.175
20
-26.970953
30
0
11
3.175
21
-28.029287
31
0
12
0
22
-27.50012
32
0
13
0
23
-27.50012
33
0
39
0
210
0
220
0
230
1
0
SOLID
5
132
100
AcDbEntity
8
0
62
256
6
ByLayer
370
-1
48
1
60
0
100
AcDbTrace
10
51.825
20
-28.029287
30
0
11
51.825
21
-26.970953
31
0
12
55
22
-27.50012
32
0
13
55
23
-27.50012
33
0
39
0
210
0
220
0
230
1
0
MTEXT
5
133
100
AcDbEntity
8
0
62
256
6
ByLayer
370
18
48
1
60
0
100
AcDbMText
10
27.5
20
-20.193619
30
0
210
0
220
0
230
1
1
\A1;55
40
3.50012
41
0
44
1
50
0
71
5
72
5
7
iso_b_vert
0
POINT
5
134
100
AcDbEntity
8
Defpoints
62
0
6
ByLayer
370
-1
48
1
60
0
100
AcDbPoint
10
0
20
-4
30
0
39
0
210
0
220
0
230
1
50
360
0
POINT
5
135
100
AcDbEntity
8
Defpoints
62
0
6
ByLayer
370
-1
48
1
60
0
100
AcDbPoint
10
55
20
0
30
0
39
0
210
0
220
0
230
1
50
360
0
POINT
5
136
100
AcDbEntity
8
Defpoints
62
0
6
ByLayer
370
-1
48
1
60
0
100
AcDbPoint
10
55
20
-27.50012
30
0
39
0
210
0
220
0
230
1
50
360
0
ENDBLK
5
12D
100
AcDbEntity
8
0
100
AcDbBlockEnd
0
BLOCK
5
144
100
AcDbEntity
8
0
100
AcDbBlockBegin
2
_U0
70
0
10
0
20
0
30
0
3
_U0
0
MTEXT
5
138
100
AcDbEntity
8
SK2
62
256
6
ByLayer
370
18
48
1
60
0
100
AcDbMText
10
22.270389
20
-26.467451
30
0
210
0
220
0
230
1
1
\W0.7468;55.00
40
3.50012
41
0
44
1.084337
50
0
71
7
72
5
7
iso_b_vert
0
MTEXT
5
139
100
AcDbEntity
8
SK2
62
256
6
ByLayer
370
18
48
1
60
0
100
AcDbMText
10
18.744329
20
-26.400814
30
0
210
0
220
0
230
1
1
\W0.1790;(
40
3.175
41
0
44
1.084337
50
0
71
7
72
5
7
iso_b_vert
0
MTEXT
5
13A
100
AcDbEntity
8
SK2
62
256
6
ByLayer
370
18
48
1
60
0
100
AcDbMText
10
36.258393
20
-26.400814
30
0
210
0
220
0
230
1
1
\W0.1969;)
40
3.175
41
0
44
1.084337
50
0
71
7
72
5
7
iso_b_vert
0
LINE
5
13B
100
AcDbEntity
8
SK2
62
256
6
ByLayer
370
13
48
1
60
0
100
AcDbLine
10
0
20
-5.5875
30
0
11
0
21
-30.67512
31
0
39
0
210
0
220
0
230
1
0
LINE
5
13C
100
AcDbEntity
8
SK2
62
256
6
ByLayer
370
13
48
1
60
0
100
AcDbLine
10
55
20
-1.5875
30
0
11
55
21
-30.67512
31
0
39
0
210
0
220
0
230
1
0
LINE
5
13D
100
AcDbEntity
8
SK2
62
256
6
ByLayer
370
13
48
1
60
0
100
AcDbLine
10
0
20
-27.50012
30
0
11
55
21
-27.50012
31
0
39
0
210
0
220
0
230
1
0
LINE
5
13E
100
AcDbEntity
8
SK2
62
256
6
ByLayer
370
13
48
1
60
0
100
AcDbLine
10
0
20
-27.50012
30
0
11
3.174998
21
-27.082123
31
0
39
0
210
0
220
0
230
1
0
LINE
5
13F
100
AcDbEntity
8
SK2
62
256
6
ByLayer
370
13
48
1
60
0
100
AcDbLine
10
0
20
-27.50012
30
0
11
3.175002
21
-27.918117
31
0
39
0
210
0
220
0
230
1
0
LINE
5
140
100
AcDbEntity
8
SK2
62
256
6
ByLayer
370
13
48
1
60
0
100
AcDbLine
10
3.174998
20
-27.082123
30
0
11
3.175002
21
-27.918117
31
0
39
0
210
0
220
0
230
1
0
LINE
5
141
100
AcDbEntity
8
SK2
62
256
6
ByLayer
370
13
48
1
60
0
100
AcDbLine
10
55
20
-27.50012
30
0
11
51.825002
21
-27.918117
31
0
39
0
210
0
220
0
230
1
0
LINE
5
142
100
AcDbEntity
8
SK2
62
256
6
ByLayer
370
13
48
1
60
0
100
AcDbLine
10
55
20
-27.50012
30
0
11
51.824998
21
-27.082123
31
0
39
0
210
0
220
0
230
1
0
LINE
5
143
100
AcDbEntity
8
SK2
62
256
6
ByLayer
370
13
48
1
60
0
100
AcDbLine
10
51.825002
20
-27.918117
30
0
11
51.824998
21
-27.082123
31
0
39
0
210
0
220
0
230
1
0
ENDBLK
5
145
100
AcDbEntity
8
0
100
AcDbBlockEnd
0
BLOCK
5
14A
100
AcDbEntity
8
0
100
AcDbBlockBegin
2
*D4
70
1
10
0
20
0
30
0
3
*D4
0
LINE
5
14C
100
AcDbEntity
8
0
62
256
6
ByLayer
370
-2
48
1
60
0
100
AcDbLine
10
55.441
20
-3.15
30
0
11
64.92506
21
-3.15
31
0
39
0
210
0
220
0
230
1
0
LINE
5
14D
100
AcDbEntity
8
0
62
256
6
ByLayer
370
-2
48
1
60
0
100
AcDbLine
10
55.441
20
3.15
30
0
11
64.92506
21
3.15
31
0
39
0
210
0
220
0
230
1
0
LINE
5
14E
100
AcDbEntity
8
0
62
256
6
ByLayer
370
-2
48
1
60
0
100
AcDbLine
10
61.75006
20
3.15
30
0
11
61.75006
21
27.779793
31
0
39
0
210
0
220
0
230
1
0
LINE
5
14F
100
AcDbEntity
8
0
62
256
6
ByLayer
370
-2
48
1
60
0
100
AcDbLine
10
61.75006
20
-6.325
30
0
11
61.75006
21
-9.5
31
0
39
0
210
0
220
0
230
1
0
LINE
5
150
100
AcDbEntity
8
0
62
256
6
ByLayer
370
-2
48
1
60
0
100
AcDbLine
10
61.75006
20
6.325
30
0
11
61.75006
21
9.5
31
0
39
0
210
0
220
0
230
1
0
SOLID
5
151
100
AcDbEntity
8
0
62
256
6
ByLayer
370
-1
48
1
60
0
100
AcDbTrace
10
62.279227
20
-6.325
30
0
11
61.220893
21
-6.325
31
0
12
61.75006
22
-3.15
32
0
13
61.75006
23
-3.15
33
0
39
0
210
0
220
0
230
1
0
SOLID
5
152
100
AcDbEntity
8
0
62
256
6
ByLayer
370
-1
48
1
60
0
100
AcDbTrace
10
61.220893
20
6.325
30
0
11
62.279227
21
6.325
31
0
12
61.75006
22
3.15
32
0
13
61.75006
23
3.15
33
0
39
0
210
0
220
0
230
1
0
MTEXT
5
153
100
AcDbEntity
8
0
62
256
6
ByLayer
370
18
48
1
60
0
100
AcDbMText
10
54.443559
20
18.639897
30
0
210
0
220
0
230
1
1
\A1;6.3
40
3.50012
41
0
44
1
50
90
71
5
72
5
7
iso_b_vert
0
POINT
5
154
100
AcDbEntity
8
Defpoints
62
0
6
ByLayer
370
-1
48
1
60
0
100
AcDbPoint
10
53.8535
20
-3.15
30
0
39
0
210
0
220
0
230
1
50
360
0
POINT
5
155
100
AcDbEntity
8
Defpoints
62
0
6
ByLayer
370
-1
48
1
60
0
100
AcDbPoint
10
53.8535
20
3.15
30
0
39
0
210
0
220
0
230
1
50
360
0
POINT
5
156
100
AcDbEntity
8
Defpoints
62
0
6
ByLayer
370
-1
48
1
60
0
100
AcDbPoint
10
61.75006
20
3.15
30
0
39
0
210
0
220
0
230
1
50
360
0
ENDBLK
5
14B
100
AcDbEntity
8
0
100
AcDbBlockEnd
0
BLOCK
5
163
100
AcDbEntity
8
0
100
AcDbBlockBegin
2
_U1
70
0
10
0
20
0
30
0
3
_U1
0
MTEXT
5
159
100
AcDbEntity
8
2
62
256
6
ByLayer
370
18
48
1
60
0
100
AcDbMText
10
61.060403
20
7.307505
30
0
210
0
220
0
230
1
1
\W0.7346;6.30
40
3.50012
41
0
44
1.084337
50
90
71
7
72
5
7
iso_b_vert
0
LINE
5
15A
100
AcDbEntity
8
2
62
256
6
ByLayer
370
13
48
1
60
0
100
AcDbLine
10
55.441
20
-3.15
30
0
11
64.92506
21
-3.15
31
0
39
0
210
0
220
0
230
1
0
LINE
5
15B
100
AcDbEntity
8
2
62
256
6
ByLayer
370
13
48
1
60
0
100
AcDbLine
10
55.441
20
3.15
30
0
11
64.92506
21
3.15
31
0
39
0
210
0
220
0
230
1
0
LINE
5
15C
100
AcDbEntity
8
2
62
256
6
ByLayer
370
13
48
1
60
0
100
AcDbLine
10
61.75006
20
15.36468
30
0
11
61.75006
21
-11.9003
31
0
39
0
210
0
220
0
230
1
0
LINE
5
15D
100
AcDbEntity
8
2
62
256
6
ByLayer
370
13
48
1
60
0
100
AcDbLine
10
61.75006
20
-3.15
30
0
11
62.168057
21
-6.324998
31
0
39
0
210
0
220
0
230
1
0
LINE
5
15E
100
AcDbEntity
8
2
62
256
6
ByLayer
370
13
48
1
60
0
100
AcDbLine
10
61.75006
20
-3.15
30
0
11
61.332063
21
-6.325002
31
0
39
0
210
0
220
0
230
1
0
LINE
5
15F
100
AcDbEntity
8
2
62
256
6
ByLayer
370
13
48
1
60
0
100
AcDbLine
10
62.168057
20
-6.324998
30
0
11
61.332063
21
-6.325002
31
0
39
0
210
0
220
0
230
1
0
LINE
5
160
100
AcDbEntity
8
2
62
256
6
ByLayer
370
13
48
1
60
0
100
AcDbLine
10
61.75006
20
3.15
30
0
11
61.332063
21
6.324998
31
0
39
0
210
0
220
0
230
1
0
LINE
5
161
100
AcDbEntity
8
2
62
256
6
ByLayer
370
13
48
1
60
0
100
AcDbLine
10
61.75006
20
3.15
30
0
11
62.168057
21
6.325002
31
0
39
0
210
0
220
0
230
1
0
LINE
5
162
100
AcDbEntity
8
2
62
256
6
ByLayer
370
13
48
1
60
0
100
AcDbLine
10
61.332063
20
6.324998
30
0
11
62.168057
21
6.325002
31
0
39
0
210
0
220
0
230
1
0
ENDBLK
5
164
100
AcDbEntity
8
0
100
AcDbBlockEnd
0
BLOCK
5
169
100
AcDbEntity
8
0
100
AcDbBlockBegin
2
*D6
70
1
10
0
20
0
30
0
3
*D6
0
LINE
5
16B
100
AcDbEntity
8
0
62
256
6
ByLayer
370
-2
48
1
60
0
100
AcDbLine
10
-37.5875
20
4
30
0
11
-42.42494
21
4
31
0
39
0
210
0
220
0
230
1
0
LINE
5
16C
100
AcDbEntity
8
0
62
256
6
ByLayer
370
-2
48
1
60
0
100
AcDbLine
10
-37.5875
20
-4
30
0
11
-42.42494
21
-4
31
0
39
0
210
0
220
0
230
1
0
LINE
5
16D
100
AcDbEntity
8
0
62
256
6
ByLayer
370
-2
48
1
60
0
100
AcDbLine
10
-39.24994
20
4
30
0
11
-39.24994
21
24.830487
31
0
39
0
210
0
220
0
230
1
0
LINE
5
16E
100
AcDbEntity
8
0
62
256
6
ByLayer
370
-2
48
1
60
0
100
AcDbLine
10
-39.24994
20
7.175
30
0
11
-39.24994
21
10.35
31
0
39
0
210
0
220
0
230
1
0
LINE
5
16F
100
AcDbEntity
8
0
62
256
6
ByLayer
370
-2
48
1
60
0
100
AcDbLine
10
-39.24994
20
-7.175
30
0
11
-39.24994
21
-10.35
31
0
39
0
210
0
220
0
230
1
0
SOLID
5
170
100
AcDbEntity
8
0
62
256
6
ByLayer
370
-1
48
1
60
0
100
AcDbTrace
10
-39.779107
20
7.175
30
0
11
-38.720773
21
7.175
31
0
12
-39.24994
22
4
32
0
13
-39.24994
23
4
33
0
39
0
210
0
220
0
230
1
0
SOLID
5
171
100
AcDbEntity
8
0
62
256
6
ByLayer
370
-1
48
1
60
0
100
AcDbTrace
10
-38.720773
20
-7.175
30
0
11
-39.779107
21
-7.175
31
0
12
-39.24994
22
-4
32
0
13
-39.24994
23
-4
33
0
39
0
210
0
220
0
230
1
0
MTEXT
5
172
100
AcDbEntity
8
0
62
256
6
ByLayer
370
18
48
1
60
0
100
AcDbMText
10
-46.556441
20
18.10734
30
0
210
0
220
0
230
1
1
\A1;8
40
3.50012
41
0
44
1
50
90
71
5
72
5
7
iso_b_vert
0
POINT
5
173
100
AcDbEntity
8
Defpoints
62
0
6
ByLayer
370
-1
48
1
60
0
100
AcDbPoint
10
-36
20
4
30
0
39
0
210
0
220
0
230
1
50
360
0
POINT
5
174
100
AcDbEntity
8
Defpoints
62
0
6
ByLayer
370
-1
48
1
60
0
100
AcDbPoint
10
-36
20
-4
30
0
39
0
210
0
220
0
230
1
50
360
0
POINT
5
175
100
AcDbEntity
8
Defpoints
62
0
6
ByLayer
370
-1
48
1
60
0
100
AcDbPoint
10
-39.24994
20
-4
30
0
39
0
210
0
220
0
230
1
50
360
0
ENDBLK
5
16A
100
AcDbEntity
8
0
100
AcDbBlockEnd
0
BLOCK
5
181
100
AcDbEntity
8
0
100
AcDbBlockBegin
2
_U2
70
0
10
0
20
0
30
0
3
_U2
0
MTEXT
5
177
100
AcDbEntity
8
SK2
62
256
6
ByLayer
370
18
48
1
60
0
100
AcDbMText
10
-39.939597
20
14.157505
30
0
210
0
220
0
230
1
1
\W0.7346;8.00
40
3.50012
41
0
44
1.084337
50
90
71
7
72
5
7
iso_b_vert
0
LINE
5
178
100
AcDbEntity
8
SK2
62
256
6
ByLayer
370
13
48
1
60
0
100
AcDbLine
10
-37.5875
20
4
30
0
11
-42.42494
21
4
31
0
39
0
210
0
220
0
230
1
0
LINE
5
179
100
AcDbEntity
8
SK2
62
256
6
ByLayer
370
13
48
1
60
0
100
AcDbLine
10
-37.5875
20
-4
30
0
11
-42.42494
21
-4
31
0
39
0
210
0
220
0
230
1
0
LINE
5
17A
100
AcDbEntity
8
SK2
62
256
6
ByLayer
370
13
48
1
60
0
100
AcDbLine
10
-39.24994
20
-4
30
0
11
-39.24994
21
22.21468
31
0
39
0
210
0
220
0
230
1
0
LINE
5
17B
100
AcDbEntity
8
SK2
62
256
6
ByLayer
370
13
48
1
60
0
100
AcDbLine
10
-39.24994
20
4
30
0
11
-38.831943
21
0.825002
31
0
39
0
210
0
220
0
230
1
0
LINE
5
17C
100
AcDbEntity
8
SK2
62
256
6
ByLayer
370
13
48
1
60
0
100
AcDbLine
10
-39.24994
20
4
30
0
11
-39.667937
21
0.824998
31
0
39
0
210
0
220
0
230
1
0
LINE
5
17D
100
AcDbEntity
8
SK2
62
256
6
ByLayer
370
13
48
1
60
0
100
AcDbLine
10
-38.831943
20
0.825002
30
0
11
-39.667937
21
0.824998
31
0
39
0
210
0
220
0
230
1
0
LINE
5
17E
100
AcDbEntity
8
SK2
62
256
6
ByLayer
370
13
48
1
60
0
100
AcDbLine
10
-39.24994
20
-4
30
0
11
-39.667937
21
-0.825002
31
0
39
0
210
0
220
0
230
1
0
LINE
5
17F
100
AcDbEntity
8
SK2
62
256
6
ByLayer
370
13
48
1
60
0
100
AcDbLine
10
-39.24994
20
-4
30
0
11
-38.831943
21
-0.824998
31
0
39
0
210
0
220
0
230
1
0
LINE
5
180
100
AcDbEntity
8
SK2
62
256
6
ByLayer
370
13
48
1
60
0
100
AcDbLine
10
-39.667937
20
-0.825002
30
0
11
-38.831943
21
-0.824998
31
0
39
0
210
0
220
0
230
1
0
ENDBLK
5
182
100
AcDbEntity
8
0
100
AcDbBlockEnd
0
BLOCK
5
187
100
AcDbEntity
8
0
100
AcDbBlockBegin
2
*D8
70
1
10
0
20
0
30
0
3
*D8
0
LINE
5
189
100
AcDbEntity
8
0
62
256
6
ByLayer
370
-2
48
1
60
0
100
AcDbLine
10
-36
20
-5.5875
30
0
11
-36
21
-30.67512
31
0
39
0
210
0
220
0
230
1
0
LINE
5
18A
100
AcDbEntity
8
0
62
256
6
ByLayer
370
-2
48
1
60
0
100
AcDbLine
10
0
20
-5.5875
30
0
11
0
21
-30.67512
31
0
39
0
210
0
220
0
230
1
0
LINE
5
18B
100
AcDbEntity
8
0
62
256
6
ByLayer
370
-2
48
1
60
0
100
AcDbLine
10
-32.825
20
-27.50012
30
0
11
-3.175
21
-27.50012
31
0
39
0
210
0
220
0
230
1
0
SOLID
5
18C
100
AcDbEntity
8
0
62
256
6
ByLayer
370
-1
48
1
60
0
100
AcDbTrace
10
-32.825
20
-26.970953
30
0
11
-32.825
21
-28.029287
31
0
12
-36
22
-27.50012
32
0
13
-36
23
-27.50012
33
0
39
0
210
0
220
0
230
1
0
SOLID
5
18D
100
AcDbEntity
8
0
62
256
6
ByLayer
370
-1
48
1
60
0
100
AcDbTrace
10
-3.175
20
-28.029287
30
0
11
-3.175
21
-26.970953
31
0
12
0
22
-27.50012
32
0
13
0
23
-27.50012
33
0
39
0
210
0
220
0
230
1
0
MTEXT
5
18E
100
AcDbEntity
8
0
62
256
6
ByLayer
370
18
48
1
60
0
100
AcDbMText
10
-18
20
-20.193619
30
0
210
0
220
0
230
1
1
\A1;36
40
3.50012
41
0
44
1
50
0
71
5
72
5
7
iso_b_vert
0
POINT
5
18F
100
AcDbEntity
8
Defpoints
62
0
6
ByLayer
370
-1
48
1
60
0
100
AcDbPoint
10
-36
20
-4
30
0
39
0
210
0
220
0
230
1
50
360
0
POINT
5
190
100
AcDbEntity
8
Defpoints
62
0
6
ByLayer
370
-1
48
1
60
0
100
AcDbPoint
10
0
20
-4
30
0
39
0
210
0
220
0
230
1
50
360
0
POINT
5
191
100
AcDbEntity
8
Defpoints
62
0
6
ByLayer
370
-1
48
1
60
0
100
AcDbPoint
10
0
20
-27.50012
30
0
39
0
210
0
220
0
230
1
50
360
0
ENDBLK
5
188
100
AcDbEntity
8
0
100
AcDbBlockEnd
0
BLOCK
5
19D
100
AcDbEntity
8
0
100
AcDbBlockBegin
2
_U3
70
0
10
0
20
0
30
0
3
_U3
0
MTEXT
5
193
100
AcDbEntity
8
SK2
62
256
6
ByLayer
370
18
48
1
60
0
100
AcDbMText
10
-23.229611
20
-26.467451
30
0
210
0
220
0
230
1
1
\W0.7468;36.00
40
3.50012
41
0
44
1.084337
50
0
71
7
72
5
7
iso_b_vert
0
LINE
5
194
100
AcDbEntity
8
SK2
62
256
6
ByLayer
370
13
48
1
60
0
100
AcDbLine
10
-36
20
-5.5875
30
0
11
-36
21
-30.67512
31
0
39
0
210
0
220
0
230
1
0
LINE
5
195
100
AcDbEntity
8
SK2
62
256
6
ByLayer
370
13
48
1
60
0
100
AcDbLine
10
0
20
-5.5875
30
0
11
0
21
-30.67512
31
0
39
0
210
0
220
0
230
1
0
LINE
5
196
100
AcDbEntity
8
SK2
62
256
6
ByLayer
370
13
48
1
60
0
100
AcDbLine
10
-36
20
-27.50012
30
0
11
0
21
-27.50012
31
0
39
0
210
0
220
0
230
1
0
LINE
5
197
100
AcDbEntity
8
SK2
62
256
6
ByLayer
370
13
48
1
60
0
100
AcDbLine
10
-36
20
-27.50012
30
0
11
-32.825002
21
-27.082123
31
0
39
0
210
0
220
0
230
1
0
LINE
5
198
100
AcDbEntity
8
SK2
62
256
6
ByLayer
370
13
48
1
60
0
100
AcDbLine
10
-36
20
-27.50012
30
0
11
-32.824998
21
-27.918117
31
0
39
0
210
0
220
0
230
1
0
LINE
5
199
100
AcDbEntity
8
SK2
62
256
6
ByLayer
370
13
48
1
60
0
100
AcDbLine
10
-32.825002
20
-27.082123
30
0
11
-32.824998
21
-27.918117
31
0
39
0
210
0
220
0
230
1
0
LINE
5
19A
100
AcDbEntity
8
SK2
62
256
6
ByLayer
370
13
48
1
60
0
100
AcDbLine
10
0
20
-27.50012
30
0
11
-3.174998
21
-27.918117
31
0
39
0
210
0
220
0
230
1
0
LINE
5
19B
100
AcDbEntity
8
SK2
62
256
6
ByLayer
370
13
48
1
60
0
100
AcDbLine
10
0
20
-27.50012
30
0
11
-3.175002
21
-27.082123
31
0
39
0
210
0
220
0
230
1
0
LINE
5
19C
100
AcDbEntity
8
SK2
62
256
6
ByLayer
370
13
48
1
60
0
100
AcDbLine
10
-3.174998
20
-27.918117
30
0
11
-3.175002
21
-27.082123
31
0
39
0
210
0
220
0
230
1
0
ENDBLK
5
19E
100
AcDbEntity
8
0
100
AcDbBlockEnd
0
BLOCK
5
1A3
100
AcDbEntity
8
0
100
AcDbBlockBegin
2
*D10
70
1
10
0
20
0
30
0
3
*D10
0
LINE
5
1A5
100
AcDbEntity
8
0
62
256
6
ByLayer
370
-2
48
1
60
0
100
AcDbLine
10
2
20
2.0625
30
0
11
2
21
-21.92482
31
0
39
0
210
0
220
0
230
1
0
LINE
5
1A6
100
AcDbEntity
8
0
62
256
6
ByLayer
370
-2
48
1
60
0
100
AcDbLine
10
55
20
-1.5875
30
0
11
55
21
-21.92482
31
0
39
0
210
0
220
0
230
1
0
LINE
5
1A7
100
AcDbEntity
8
0
62
256
6
ByLayer
370
-2
48
1
60
0
100
AcDbLine
10
5.175
20
-18.74982
30
0
11
51.825
21
-18.74982
31
0
39
0
210
0
220
0
230
1
0
SOLID
5
1A8
100
AcDbEntity
8
0
62
256
6
ByLayer
370
-1
48
1
60
0
100
AcDbTrace
10
5.175
20
-18.220653
30
0
11
5.175
21
-19.278987
31
0
12
2
22
-18.74982
32
0
13
2
23
-18.74982
33
0
39
0
210
0
220
0
230
1
0
SOLID
5
1A9
100
AcDbEntity
8
0
62
256
6
ByLayer
370
-1
48
1
60
0
100
AcDbTrace
10
51.825
20
-19.278987
30
0
11
51.825
21
-18.220653
31
0
12
55
22
-18.74982
32
0
13
55
23
-18.74982
33
0
39
0
210
0
220
0
230
1
0
MTEXT
5
1AA
100
AcDbEntity
8
0
62
256
6
ByLayer
370
18
48
1
60
0
100
AcDbMText
10
28.5
20
-11.443319
30
0
210
0
220
0
230
1
1
\A1;53
40
3.50012
41
0
44
1
50
0
71
5
72
5
7
iso_b_vert
0
POINT
5
1AB
100
AcDbEntity
8
Defpoints
62
0
6
ByLayer
370
-1
48
1
60
0
100
AcDbPoint
10
2
20
3.65
30
0
39
0
210
0
220
0
230
1
50
360
0
POINT
5
1AC
100
AcDbEntity
8
Defpoints
62
0
6
ByLayer
370
-1
48
1
60
0
100
AcDbPoint
10
55
20
0
30
0
39
0
210
0
220
0
230
1
50
360
0
POINT
5
1AD
100
AcDbEntity
8
Defpoints
62
0
6
ByLayer
370
-1
48
1
60
0
100
AcDbPoint
10
55
20
-18.74982
30
0
39
0
210
0
220
0
230
1
50
360
0
ENDBLK
5
1A4
100
AcDbEntity
8
0
100
AcDbBlockEnd
0
BLOCK
5
1B9
100
AcDbEntity
8
0
100
AcDbBlockBegin
2
_U4
70
0
10
0
20
0
30
0
3
_U4
0
MTEXT
5
1AF
100
AcDbEntity
8
SK2
62
256
6
ByLayer
370
18
48
1
60
0
100
AcDbMText
10
23.270389
20
-17.717151
30
0
210
0
220
0
230
1
1
\W0.7468;53.00
40
3.50012
41
0
44
1.084337
50
0
71
7
72
5
7
iso_b_vert
0
LINE
5
1B0
100
AcDbEntity
8
SK2
62
256
6
ByLayer
370
13
48
1
60
0
100
AcDbLine
10
2
20
2.0625
30
0
11
2
21
-21.92482
31
0
39
0
210
0
220
0
230
1
0
LINE
5
1B1
100
AcDbEntity
8
SK2
62
256
6
ByLayer
370
13
48
1
60
0
100
AcDbLine
10
55
20
-1.5875
30
0
11
55
21
-21.92482
31
0
39
0
210
0
220
0
230
1
0
LINE
5
1B2
100
AcDbEntity
8
SK2
62
256
6
ByLayer
370
13
48
1
60
0
100
AcDbLine
10
2
20
-18.74982
30
0
11
55
21
-18.74982
31
0
39
0
210
0
220
0
230
1
0
LINE
5
1B3
100
AcDbEntity
8
SK2
62
256
6
ByLayer
370
13
48
1
60
0
100
AcDbLine
10
2
20
-18.74982
30
0
11
5.174998
21
-18.331823
31
0
39
0
210
0
220
0
230
1
0
LINE
5
1B4
100
AcDbEntity
8
SK2
62
256
6
ByLayer
370
13
48
1
60
0
100
AcDbLine
10
2
20
-18.74982
30
0
11
5.175002
21
-19.167817
31
0
39
0
210
0
220
0
230
1
0
LINE
5
1B5
100
AcDbEntity
8
SK2
62
256
6
ByLayer
370
13
48
1
60
0
100
AcDbLine
10
5.174998
20
-18.331823
30
0
11
5.175002
21
-19.167817
31
0
39
0
210
0
220
0
230
1
0
LINE
5
1B6
100
AcDbEntity
8
SK2
62
256
6
ByLayer
370
13
48
1
60
0
100
AcDbLine
10
55
20
-18.74982
30
0
11
51.825002
21
-19.167817
31
0
39
0
210
0
220
0
230
1
0
LINE
5
1B7
100
AcDbEntity
8
SK2
62
256
6
ByLayer
370
13
48
1
60
0
100
AcDbLine
10
55
20
-18.74982
30
0
11
51.824998
21
-18.331823
31
0
39
0
210
0
220
0
230
1
0
LINE
5
1B8
100
AcDbEntity
8
SK2
62
256
6
ByLayer
370
13
48
1
60
0
100
AcDbLine
10
51.825002
20
-19.167817
30
0
11
51.824998
21
-18.331823
31
0
39
0
210
0
220
0
230
1
0
ENDBLK
5
1BA
100
AcDbEntity
8
0
100
AcDbBlockEnd
0
BLOCK
5
1BF
100
AcDbEntity
8
0
100
AcDbBlockBegin
2
*D12
70
1
10
0
20
0
30
0
3
*D12
0
LINE
5
1C1
100
AcDbEntity
8
0
62
256
6
ByLayer
370
-2
48
1
60
0
100
AcDbLine
10
22.4
20
-4.7375
30
0
11
22.4
21
-11.32
31
0
39
0
210
0
220
0
230
1
0
LINE
5
1C2
100
AcDbEntity
8
0
62
256
6
ByLayer
370
-2
48
1
60
0
100
AcDbLine
10
55
20
-1.5875
30
0
11
55
21
-11.32
31
0
39
0
210
0
220
0
230
1
0
LINE
5
1C3
100
AcDbEntity
8
0
62
256
6
ByLayer
370
-2
48
1
60
0
100
AcDbLine
10
25.575
20
-10.82
30
0
11
51.825
21
-10.82
31
0
39
0
210
0
220
0
230
1
0
SOLID
5
1C4
100
AcDbEntity
8
0
62
256
6
ByLayer
370
-1
48
1
60
0
100
AcDbTrace
10
25.575
20
-10.290833
30
0
11
25.575
21
-11.349167
31
0
12
22.4
22
-10.82
32
0
13
22.4
23
-10.82
33
0
39
0
210
0
220
0
230
1
0
SOLID
5
1C5
100
AcDbEntity
8
0
62
256
6
ByLayer
370
-1
48
1
60
0
100
AcDbTrace
10
51.825
20
-11.349167
30
0
11
51.825
21
-10.290833
31
0
12
55
22
-10.82
32
0
13
55
23
-10.82
33
0
39
0
210
0
220
0
230
1
0
MTEXT
5
1C6
100
AcDbEntity
8
0
62
256
6
ByLayer
370
18
48
1
60
0
100
AcDbMText
10
38.7
20
-4.975
30
0
210
0
220
0
230
1
1
\A1;32.6
40
2.8
41
0
44
1
50
0
71
5
72
5
7
iso_b_vert
0
POINT
5
1C7
100
AcDbEntity
8
Defpoints
62
0
6
ByLayer
370
-1
48
1
60
0
100
AcDbPoint
10
22.4
20
-3.15
30
0
39
0
210
0
220
0
230
1
50
360
0
POINT
5
1C8
100
AcDbEntity
8
Defpoints
62
0
6
ByLayer
370
-1
48
1
60
0
100
AcDbPoint
10
55
20
0
30
0
39
0
210
0
220
0
230
1
50
360
0
POINT
5
1C9
100
AcDbEntity
8
Defpoints
62
0
6
ByLayer
370
-1
48
1
60
0
100
AcDbPoint
10
55
20
-10.82
30
0
39
0
210
0
220
0
230
1
50
360
0
ENDBLK
5
1C0
100
AcDbEntity
8
0
100
AcDbBlockEnd
0
BLOCK
5
1D5
100
AcDbEntity
8
0
100
AcDbBlockBegin
2
_U5
70
0
10
0
20
0
30
0
3
_U5
0
MTEXT
5
1CB
100
AcDbEntity
8
SK2
62
256
6
ByLayer
370
18
48
1
60
0
100
AcDbMText
10
34.516454
20
-10.973893
30
0
210
0
220
0
230
1
1
\W0.7468;32.60
40
2.8
41
0
44
1.084337
50
0
71
7
72
5
7
iso_b_vert
0
LINE
5
1CC
100
AcDbEntity
8
SK2
62
256
6
ByLayer
370
13
48
1
60
0
100
AcDbLine
10
22.4
20
-4.7375
30
0
11
22.4
21
-11.32
31
0
39
0
210
0
220
0
230
1
0
LINE
5
1CD
100
AcDbEntity
8
SK2
62
256
6
ByLayer
370
13
48
1
60
0
100
AcDbLine
10
55
20
-1.5875
30
0
11
55
21
-11.32
31
0
39
0
210
0
220
0
230
1
0
LINE
5
1CE
100
AcDbEntity
8
SK2
62
256
6
ByLayer
370
13
48
1
60
0
100
AcDbLine
10
22.4
20
-10.82
30
0
11
55
21
-10.82
31
0
39
0
210
0
220
0
230
1
0
LINE
5
1CF
100
AcDbEntity
8
SK2
62
256
6
ByLayer
370
13
48
1
60
0
100
AcDbLine
10
22.4
20
-10.82
30
0
11
25.574998
21
-10.402003
31
0
39
0
210
0
220
0
230
1
0
LINE
5
1D0
100
AcDbEntity
8
SK2
62
256
6
ByLayer
370
13
48
1
60
0
100
AcDbLine
10
22.4
20
-10.82
30
0
11
25.575002
21
-11.237997
31
0
39
0
210
0
220
0
230
1
0
LINE
5
1D1
100
AcDbEntity
8
SK2
62
256
6
ByLayer
370
13
48
1
60
0
100
AcDbLine
10
25.574998
20
-10.402003
30
0
11
25.575002
21
-11.237997
31
0
39
0
210
0
220
0
230
1
0
LINE
5
1D2
100
AcDbEntity
8
SK2
62
256
6
ByLayer
370
13
48
1
60
0
100
AcDbLine
10
55
20
-10.82
30
0
11
51.825002
21
-11.237997
31
0
39
0
210
0
220
0
230
1
0
LINE
5
1D3
100
AcDbEntity
8
SK2
62
256
6
ByLayer
370
13
48
1
60
0
100
AcDbLine
10
55
20
-10.82
30
0
11
51.824998
21
-10.402003
31
0
39
0
210
0
220
0
230
1
0
LINE
5
1D4
100
AcDbEntity
8
SK2
62
256
6
ByLayer
370
13
48
1
60
0
100
AcDbLine
10
51.825002
20
-11.237997
30
0
11
51.824998
21
-10.402003
31
0
39
0
210
0
220
0
230
1
0
ENDBLK
5
1D6
100
AcDbEntity
8
0
100
AcDbBlockEnd
0
BLOCK
5
1DB
100
AcDbEntity
8
0
100
AcDbBlockBegin
2
*D14
70
1
10
0
20
0
30
0
3
*D14
0
LINE
5
1DD
100
AcDbEntity
8
0
62
256
6
ByLayer
370
-2
48
1
60
0
100
AcDbLine
10
-36
20
-1.5875
30
0
11
-36
21
-40.67512
31
0
39
0
210
0
220
0
230
1
0
LINE
5
1DE
100
AcDbEntity
8
0
62
256
6
ByLayer
370
-2
48
1
60
0
100
AcDbLine
10
55
20
-1.5875
30
0
11
55
21
-40.67512
31
0
39
0
210
0
220
0
230
1
0
LINE
5
1DF
100
AcDbEntity
8
0
62
256
6
ByLayer
370
-2
48
1
60
0
100
AcDbLine
10
-32.825
20
-37.50012
30
0
11
51.825
21
-37.50012
31
0
39
0
210
0
220
0
230
1
0
SOLID
5
1E0
100
AcDbEntity
8
0
62
256
6
ByLayer
370
-1
48
1
60
0
100
AcDbTrace
10
-32.825
20
-36.970953
30
0
11
-32.825
21
-38.029287
31
0
12
-36
22
-37.50012
32
0
13
-36
23
-37.50012
33
0
39
0
210
0
220
0
230
1
0
SOLID
5
1E1
100
AcDbEntity
8
0
62
256
6
ByLayer
370
-1
48
1
60
0
100
AcDbTrace
10
51.825
20
-38.029287
30
0
11
51.825
21
-36.970953
31
0
12
55
22
-37.50012
32
0
13
55
23
-37.50012
33
0
39
0
210
0
220
0
230
1
0
MTEXT
5
1E2
100
AcDbEntity
8
0
62
256
6
ByLayer
370
18
48
1
60
0
100
AcDbMText
10
9.5
20
-30.193619
30
0
210
0
220
0
230
1
1
\A1;91
40
3.50012
41
0
44
1
50
0
71
5
72
5
7
iso_b_vert
0
POINT
5
1E3
100
AcDbEntity
8
Defpoints
62
0
6
ByLayer
370
-1
48
1
60
0
100
AcDbPoint
10
-36
20
0
30
0
39
0
210
0
220
0
230
1
50
360
0
POINT
5
1E4
100
AcDbEntity
8
Defpoints
62
0
6
ByLayer
370
-1
48
1
60
0
100
AcDbPoint
10
55
20
0
30
0
39
0
210
0
220
0
230
1
50
360
0
POINT
5
1E5
100
AcDbEntity
8
Defpoints
62
0
6
ByLayer
370
-1
48
1
60
0
100
AcDbPoint
10
55
20
-37.50012
30
0
39
0
210
0
220
0
230
1
50
360
0
ENDBLK
5
1DC
100
AcDbEntity
8
0
100
AcDbBlockEnd
0
BLOCK
5
1F1
100
AcDbEntity
8
0
100
AcDbBlockBegin
2
_U6
70
0
10
0
20
0
30
0
3
_U6
0
MTEXT
5
1E7
100
AcDbEntity
8
SK2
62
256
6
ByLayer
370
18
48
1
60
0
100
AcDbMText
10
4.707837
20
-36.467451
30
0
210
0
220
0
230
1
1
\W0.6864;91.00
40
3.50012
41
0
44
1.084337
50
0
71
7
72
5
7
iso_b_vert
0
LINE
5
1E8
100
AcDbEntity
8
SK2
62
256
6
ByLayer
370
13
48
1
60
0
100
AcDbLine
10
-36
20
-1.5875
30
0
11
-36
21
-40.67512
31
0
39
0
210
0
220
0
230
1
0
LINE
5
1E9
100
AcDbEntity
8
SK2
62
256
6
ByLayer
370
13
48
1
60
0
100
AcDbLine
10
55
20
-1.5875
30
0
11
55
21
-40.67512
31
0
39
0
210
0
220
0
230
1
0
LINE
5
1EA
100
AcDbEntity
8
SK2
62
256
6
ByLayer
370
13
48
1
60
0
100
AcDbLine
10
-36
20
-37.50012
30
0
11
55
21
-37.50012
31
0
39
0
210
0
220
0
230
1
0
LINE
5
1EB
100
AcDbEntity
8
SK2
62
256
6
ByLayer
370
13
48
1
60
0
100
AcDbLine
10
-36
20
-37.50012
30
0
11
-32.825002
21
-37.082123
31
0
39
0
210
0
220
0
230
1
0
LINE
5
1EC
100
AcDbEntity
8
SK2
62
256
6
ByLayer
370
13
48
1
60
0
100
AcDbLine
10
-36
20
-37.50012
30
0
11
-32.824998
21
-37.918117
31
0
39
0
210
0
220
0
230
1
0
LINE
5
1ED
100
AcDbEntity
8
SK2
62
256
6
ByLayer
370
13
48
1
60
0
100
AcDbLine
10
-32.825002
20
-37.082123
30
0
11
-32.824998
21
-37.918117
31
0
39
0
210
0
220
0
230
1
0
LINE
5
1EE
100
AcDbEntity
8
SK2
62
256
6
ByLayer
370
13
48
1
60
0
100
AcDbLine
10
55
20
-37.50012
30
0
11
51.825002
21
-37.918117
31
0
39
0
210
0
220
0
230
1
0
LINE
5
1EF
100
AcDbEntity
8
SK2
62
256
6
ByLayer
370
13
48
1
60
0
100
AcDbLine
10
55
20
-37.50012
30
0
11
51.824998
21
-37.082123
31
0
39
0
210
0
220
0
230
1
0
LINE
5
1F0
100
AcDbEntity
8
SK2
62
256
6
ByLayer
370
13
48
1
60
0
100
AcDbLine
10
51.825002
20
-37.918117
30
0
11
51.824998
21
-37.082123
31
0
39
0
210
0
220
0
230
1
0
ENDBLK
5
1F2
100
AcDbEntity
8
0
100
AcDbBlockEnd
0
ENDSEC
0
SECTION
2
ENTITIES
0
ARC
5
B3
100
AcDbEntity
8
1
62
256
6
ByLayer
370
18
48
1
60
0
100
AcDbCircle
39
0
10
1.430236
20
3.917235
30
0
40
0.800000000000001
210
0
220
0
230
1
100
AcDbArc
50
206.632845
51
270.03581
0
ARC
5
B4
100
AcDbEntity
8
1
62
256
6
ByLayer
370
18
48
1
60
0
100
AcDbCircle
39
0
10
1.430236
20
-3.917235
30
0
40
0.800000000000001
210
0
220
0
230
1
100
AcDbArc
50
89.96419
51
153.367155
0
ARC
5
B5
100
AcDbEntity
8
1
62
256
6
ByLayer
370
18
48
1
60
0
100
AcDbCircle
39
0
10
0
20
3.2
30
0
40
0.799999999999999
210
0
220
0
230
1
100
AcDbArc
50
26.632845
51
64.284668
0
ARC
5
B6
100
AcDbEntity
8
1
62
256
6
ByLayer
370
18
48
1
60
0
100
AcDbCircle
39
0
10
0
20
3.2
30
0
40
0.799999999999999
210
0
220
0
230
1
100
AcDbArc
50
64.284668
51
90
0
ARC
5
B7
100
AcDbEntity
8
1
62
256
6
ByLayer
370
18
48
1
60
0
100
AcDbCircle
39
0
10
0
20
-3.2
30
0
40
0.799999999999999
210
0
220
0
230
1
100
AcDbArc
50
270
51
295.770813
0
ARC
5
B8
100
AcDbEntity
8
1
62
256
6
ByLayer
370
18
48
1
60
0
100
AcDbCircle
39
0
10
0
20
-3.2
30
0
40
0.799999999999999
210
0
220
0
230
1
100
AcDbArc
50
295.770813
51
333.367155
0
ARC
5
B9
100
AcDbEntity
8
SK2
62
256
6
ByLayer
370
13
48
1
60
0
100
AcDbCircle
39
0
10
55
20
0
30
0
40
20
210
0
220
0
230
1
100
AcDbArc
50
9.606349
51
70.0001
0
ARC
5
BA
100
AcDbEntity
8
SK2
62
256
6
ByLayer
370
13
48
1
60
0
100
AcDbCircle
39
0
10
55
20
0
30
0
40
20
210
0
220
0
230
1
100
AcDbArc
50
289.9999
51
350.393651
0
ELLIPSE
5
BB
100
AcDbEntity
8
1
62
256
6
ByLayer
370
18
48
1
60
0
100
AcDbEllipse
10
3.601862
20
-1.312546
30
0
11
-0.00359727147279665
21
-0.00933057543514886
31
0
210
0
220
0
230
1
40
0.17282
41
-1.99652230145823
42
-0.427989292785442
0
ELLIPSE
5
BC
100
AcDbEntity
8
1
62
256
6
ByLayer
370
18
48
1
60
0
100
AcDbEllipse
10
3.566152
20
-1.30201
30
0
11
0.00193744427067762
21
0.00981052035816747
31
0
210
0
220
0
230
1
40
0.490835
41
1.24759872085301
42
2.65905199327639
0
ELLIPSE
5
BD
100
AcDbEntity
8
1
62
256
6
ByLayer
370
18
48
1
60
0
100
AcDbEllipse
10
3.602427
20
2.33751
30
0
11
-1.35178684082152E-05
21
0.00999999086335751
31
0
210
0
220
0
230
1
40
0.011209
41
-2.47588369715556
42
-0.905745486600528
0
ELLIPSE
5
BE
100
AcDbEntity
8
1
62
256
6
ByLayer
370
18
48
1
60
0
100
AcDbEllipse
10
3.637729
20
2.333076
30
0
11
-0.00255730480830965
21
-0.00966748116716016
31
0
210
0
220
0
230
1
40
0.318502
41
0.712368060258318
42
2.27718788465735
0
POINT
5
70
100
AcDbEntity
8
80
62
256
6
ByLayer
370
18
48
1
60
0
100
AcDbPoint
10
0
20
0
30
0
39
0
210
0
220
0
230
1
50
360
0
POINT
5
72
100
AcDbEntity
8
81
62
256
6
ByLayer
370
18
48
1
60
0
100
AcDbPoint
10
55
20
0
30
0
39
0
210
0
220
0
230
1
50
360
0
POINT
5
74
100
AcDbEntity
8
1
62
256
6
ByLayer
370
18
48
1
60
0
100
AcDbPoint
10
-36
20
0
30
0
39
0
210
0
220
0
230
1
50
360
0
POINT
5
76
100
AcDbEntity
8
1
62
256
6
ByLayer
370
18
48
1
60
1
100
AcDbPoint
10
0
20
-4
30
0
39
0
210
0
220
0
230
1
50
360
0
POINT
5
77
100
AcDbEntity
8
1
62
256
6
ByLayer
370
18
48
1
60
1
100
AcDbPoint
10
55
20
0
30
0
39
0
210
0
220
0
230
1
50
360
0
POINT
5
78
100
AcDbEntity
8
1
62
256
6
ByLayer
370
18
48
1
60
1
100
AcDbPoint
10
53.8535
20
-3.15
30
0
39
0
210
0
220
0
230
1
50
360
0
POINT
5
79
100
AcDbEntity
8
1
62
256
6
ByLayer
370
18
48
1
60
1
100
AcDbPoint
10
53.8535
20
3.15
30
0
39
0
210
0
220
0
230
1
50
360
0
POINT
5
7A
100
AcDbEntity
8
1
62
256
6
ByLayer
370
18
48
1
60
1
100
AcDbPoint
10
-36
20
4
30
0
39
0
210
0
220
0
230
1
50
360
0
POINT
5
7B
100
AcDbEntity
8
1
62
256
6
ByLayer
370
18
48
1
60
1
100
AcDbPoint
10
-36
20
-4
30
0
39
0
210
0
220
0
230
1
50
360
0
POINT
5
7C
100
AcDbEntity
8
1
62
256
6
ByLayer
370
18
48
1
60
1
100
AcDbPoint
10
-36
20
-4
30
0
39
0
210
0
220
0
230
1
50
360
0
POINT
5
7D
100
AcDbEntity
8
1
62
256
6
ByLayer
370
18
48
1
60
1
100
AcDbPoint
10
0
20
-4
30
0
39
0
210
0
220
0
230
1
50
360
0
POINT
5
7E
100
AcDbEntity
8
1
62
256
6
ByLayer
370
18
48
1
60
1
100
AcDbPoint
10
2
20
3.65
30
0
39
0
210
0
220
0
230
1
50
360
0
POINT
5
7F
100
AcDbEntity
8
1
62
256
6
ByLayer
370
18
48
1
60
1
100
AcDbPoint
10
55
20
0
30
0
39
0
210
0
220
0
230
1
50
360
0
POINT
5
80
100
AcDbEntity
8
1
62
256
6
ByLayer
370
18
48
1
60
1
100
AcDbPoint
10
22.4
20
-3.15
30
0
39
0
210
0
220
0
230
1
50
360
0
POINT
5
81
100
AcDbEntity
8
1
62
256
6
ByLayer
370
18
48
1
60
1
100
AcDbPoint
10
55
20
0
30
0
39
0
210
0
220
0
230
1
50
360
0
POINT
5
82
100
AcDbEntity
8
1
62
256
6
ByLayer
370
18
48
1
60
1
100
AcDbPoint
10
-36
20
0
30
0
39
0
210
0
220
0
230
1
50
360
0
POINT
5
83
100
AcDbEntity
8
1
62
256
6
ByLayer
370
18
48
1
60
1
100
AcDbPoint
10
55
20
0
30
0
39
0
210
0
220
0
230
1
50
360
0
SPLINE
5
BF
100
AcDbEntity
8
1
62
256
6
ByLayer
370
18
48
1
60
0
100
AcDbSpline
70
4
71
3
72
28
73
24
40
0
40
0
40
0
40
0
40
0.0707613893437841
40
0.0707613893437841
40
0.141522778687568
40
0.141522778687568
40
0.283045557375136
40
0.283045557375136
40
0.424568336062703
40
0.424568336062703
40
0.566091114750271
40
0.566091114750271
40
0.636852504094056
40
0.636852504094056
40
0.707613893437842
40
0.707613893437842
40
0.849136672125413
40
0.849136672125413
40
0.919898061469199
40
0.919898061469199
40
0.990659450812984
40
0.990659450812984
40
1
40
1
40
1
40
1
41
1
10
53.5174093525718
20
-0.0545400005959777
30
0
41
1
10
53.2559411248581
20
0.0587664359620419
30
0
41
1
10
52.9944770517589
20
0.171975156857286
30
0
41
1
10
52.4710799805639
20
0.397095490573804
30
0
41
1
10
52.2094624207321
20
0.508849259176117
30
0
41
1
10
51.4276866975858
20
0.838601543803122
30
-1E-16
41
1
10
50.9097771888614
20
1.05202495851691
30
-1E-16
41
1
10
49.8759244690308
20
1.45692352561358
30
-1E-16
41
1
10
49.360165699415
20
1.64827784867595
30
-1E-16
41
1
10
48.326312760055
20
2.00123053702441
30
-1E-16
41
1
10
47.8083151111222
20
2.16278326574116
30
-1E-16
41
1
10
47.0270542122278
20
2.37707140116018
30
1E-16
41
1
10
46.7654727814875
20
2.44387504696064
30
1E-16
41
1
10
46.2423449368193
20
2.56602437282908
30
1E-16
41
1
10
45.9818614275109
20
2.62127541881108
30
1E-16
41
1
10
45.2015147665769
20
2.77101615553835
30
1E-16
41
1
10
44.6830587025406
20
2.84903342001636
30
0
41
1
10
43.907119906808
20
2.9285937131603
30
0
41
1
10
43.6487773300628
20
2.94876348519165
30
0
41
1
10
43.1323454710794
20
2.97524768587294
30
0
41
1
10
42.8740492602497
20
2.98217515413924
30
0
41
1
10
42.5810494786813
20
2.98387919011731
30
0
41
1
10
42.5468755123439
20
2.9839774508599
30
0
41
1
10
42.5126936903043
20
2.98397299874162
30
0
0
SPLINE
5
C0
100
AcDbEntity
8
1
62
256
6
ByLayer
370
18
48
1
60
0
100
AcDbSpline
70
4
71
3
72
22
73
18
40
0
40
0
40
0
40
0
40
0.0759991483145605
40
0.0759991483145605
40
0.191499254775241
40
0.191499254775241
40
0.306999361235921
40
0.306999361235921
40
0.422499467696601
40
0.422499467696601
40
0.53799957415728
40
0.53799957415728
40
0.65349968061796
40
0.65349968061796
40
0.768999787078641
40
0.768999787078641
40
1
40
1
40
1
40
1
41
1
10
10.3994600591078
20
-0.221121853653074
30
0
41
1
10
10.2289826377416
20
-0.148351802508842
30
0
41
1
10
10.0583375175015
20
-0.07534250641163
30
0
41
1
10
9.62787357413234
20
0.109215654923702
30
0
41
1
10
9.36778307532944
20
0.22099067252563
30
0
41
1
10
8.84588758625083
20
0.443160088432819
30
0
41
1
10
8.58348655896097
20
0.553871904192505
30
0
41
1
10
8.06010068793267
20
0.772347213427935
30
0
41
1
10
7.79928255494971
20
0.879993463555849
30
-1E-16
41
1
10
7.27837148659717
20
1.09043600964876
30
-1E-16
41
1
10
7.01830321889949
20
1.1932534948628
30
-1E-16
41
1
10
6.49906432586252
20
1.39349047534068
30
-1E-16
41
1
10
6.23972422899934
20
1.49079370742328
30
-1E-16
41
1
10
5.72052248341043
20
1.67849166062035
30
-1E-16
41
1
10
5.46081859606414
20
1.76900103893794
30
-1E-16
41
1
10
4.68115860553331
20
2.02911154387044
30
-1E-16
41
1
10
4.16068831315945
20
2.18737865811315
30
-1E-16
41
1
10
3.63780568464392
20
2.32522730709584
30
1E-16
0
SPLINE
5
C1
100
AcDbEntity
8
1
62
256
6
ByLayer
370
18
48
1
60
0
100
AcDbSpline
70
4
71
3
72
26
73
22
40
0
40
0
40
0
40
0
40
0.125000000000013
40
0.125000000000013
40
0.156250000000013
40
0.156250000000013
40
0.187500000000014
40
0.187500000000014
40
0.218750000000014
40
0.218750000000014
40
0.250000000000015
40
0.250000000000015
40
0.375000000000008
40
0.375000000000008
40
0.500000000000002
40
0.500000000000002
40
0.750000000000001
40
0.750000000000001
40
0.875
40
0.875
40
1
40
1
40
1
40
1
41
1
10
54.211524586178
20
0.28346426384752
30
0
41
1
10
54.1811299496513
20
0.297852879942525
30
0
41
1
10
54.1511970831993
20
0.316973806535401
30
0
41
1
10
54.1143644698836
20
0.345272533140189
30
0
41
1
10
54.10702952138
20
0.351154257160118
30
0
41
1
10
54.0924104273016
20
0.363333864460259
30
0
41
1
10
54.0851380144874
20
0.369690234808985
30
0
41
1
10
54.070118100627
20
0.380749612859745
30
0
41
1
10
54.06247574275
20
0.385825713769947
30
0
41
1
10
54.0472342773518
20
0.3963612240141
30
0
41
1
10
54.0395995862256
20
0.401683784505906
30
0
41
1
10
54.0009537696715
20
0.426373591598576
30
0
41
1
10
53.9689619096313
20
0.44227243876341
30
0
41
1
10
53.9029002421253
20
0.464095607572915
30
0
41
1
10
53.8692232712562
20
0.47118068077998
30
0
41
1
10
53.7682491705413
20
0.489189753162805
30
0
41
1
10
53.7002962289918
20
0.491111267446342
30
0
41
1
10
53.599082623545
20
0.478426869914898
30
0
41
1
10
53.5654675066962
20
0.471787306833846
30
0
41
1
10
53.4986390783315
20
0.455679557984041
30
0
41
1
10
53.4654334242585
20
0.44576410410852
30
0
41
1
10
53.4325599582788
20
0.433679747394251
30
0
0
SPLINE
5
C2
100
AcDbEntity
8
1
62
256
6
ByLayer
370
18
48
1
60
0
100
AcDbSpline
70
4
71
3
72
48
73
44
40
0
40
0
40
0
40
0
40
0.0117081013579366
40
0.0117081013579366
40
0.142829126448575
40
0.142829126448575
40
0.208389638993894
40
0.208389638993894
40
0.241169895266553
40
0.241169895266553
40
0.273950151539212
40
0.273950151539212
40
0.339510664084528
40
0.339510664084528
40
0.372290920357186
40
0.372290920357186
40
0.405071176629844
40
0.405071176629844
40
0.470631689175159
40
0.470631689175159
40
0.503411945447816
40
0.503411945447816
40
0.536192201720473
40
0.536192201720473
40
0.568972457993131
40
0.568972457993131
40
0.601752714265788
40
0.601752714265788
40
0.667313226811104
40
0.667313226811104
40
0.798434251901736
40
0.798434251901736
40
0.831214508174393
40
0.831214508174393
40
0.863994764447051
40
0.863994764447051
40
0.929555276992367
40
0.929555276992367
40
0.962335533265026
40
0.962335533265026
40
0.995115789537684
40
0.995115789537684
40
1
40
1
40
1
40
1
41
1
10
35.1667103572634
20
-2.9905698608172
30
0
41
1
10
35.0730257418705
20
-3.00339106660351
30
0
41
1
10
34.9793350197551
20
-3.01539184733946
30
0
41
1
10
33.8368294623277
20
-3.15156956555717
30
0
41
1
10
32.8033361833128
20
-3.16981370574001
30
0
41
1
10
31.2491003258542
20
-3.04086676287235
30
0
41
1
10
30.73058986718
20
-2.97184982428408
30
0
41
1
10
29.9485289685171
20
-2.83093260330517
30
0
41
1
10
29.6871577741146
20
-2.77771754863264
30
-1E-16
41
1
10
29.162516483293
20
-2.65908337539361
30
-1E-16
41
1
10
28.900088692683
20
-2.59389450123911
30
-1E-16
41
1
10
28.1143528375126
20
-2.38264213662154
30
1E-16
41
1
10
27.5916739773563
20
-2.22027686137935
30
1E-16
41
1
10
26.805646174392
20
-1.95004778982599
30
1E-16
41
1
10
26.5430176601313
20
-1.85532561439427
30
1E-16
41
1
10
26.0183863666991
20
-1.65851337225246
30
1E-16
41
1
10
25.7564712795261
20
-1.55654356547936
30
1E-16
41
1
10
24.9711963721455
20
-1.24141107254812
30
1E-16
41
1
10
24.4482220621781
20
-1.01917172467432
30
1E-16
41
1
10
23.6610788349909
20
-0.67480094351194
30
0
41
1
10
23.3984528882352
20
-0.557992694012569
30
0
41
1
10
22.8744067201967
20
-0.323214832755951
30
0
41
1
10
22.6126399400929
20
-0.205131889659214
30
0
41
1
10
22.0891178269726
20
0.0313058301611306
30
0
41
1
10
21.8274598996774
20
0.149877663366027
30
0
41
1
10
21.3035463610541
20
0.385937229864709
30
0
41
1
10
21.040932292616
20
0.503545116917707
30
0
41
1
10
20.2537610947318
20
0.851945233136263
30
-1E-16
41
1
10
19.7329794802447
20
1.07747478338567
30
-1E-16
41
1
10
18.1749226895612
20
1.7179377112073
30
-1E-16
41
1
10
17.1429062783148
20
2.09860592058067
30
-1E-16
41
1
10
15.8390671716376
20
2.47534339950323
30
1E-16
41
1
10
15.57761878183
20
2.54577486861766
30
1E-16
41
1
10
15.0527724724903
20
2.67581462903067
30
1E-16
41
1
10
14.7901425221124
20
2.73522354375518
30
1E-16
41
1
10
14.0040691337227
20
2.89506026678137
30
0
41
1
10
13.4810668635886
20
2.97735836574071
30
0
41
1
10
12.6947653997259
20
3.06180329473932
30
0
41
1
10
12.4318940294934
20
3.08347875155769
30
0
41
1
10
11.9074076334742
20
3.11334818924397
30
0
41
1
10
11.6460878002451
20
3.12155739728354
30
0
41
1
10
11.3465862185892
20
3.12335296672043
30
0
41
1
10
11.3077621106633
20
3.12343809839277
30
0
41
1
10
11.268951434477
20
3.12337591335961
30
0
0
SPLINE
5
C3
100
AcDbEntity
8
1
62
256
6
ByLayer
370
18
48
1
60
0
100
AcDbSpline
70
4
71
3
72
63
73
59
40
0
40
0
40
0
40
0
40
0.0750866481950991
40
0.0750866481950991
40
0.141151887609734
40
0.141151887609734
40
0.207217127024368
40
0.207217127024368
40
0.273282366439003
40
0.273282366439003
40
0.306314986146319
40
0.306314986146319
40
0.339347605853636
40
0.339347605853636
40
0.372380225560952
40
0.372380225560952
40
0.405412845268269
40
0.405412845268269
40
0.421929155121927
40
0.421929155121927
40
0.438445464975584
40
0.438445464975584
40
0.4714780846829
40
0.4714780846829
40
0.487994394536558
40
0.487994394536558
40
0.504510704390216
40
0.504510704390216
40
0.537543324097531
40
0.537543324097531
40
0.554059633951188
40
0.554059633951188
40
0.570575943804846
40
0.570575943804846
40
0.603608563512159
40
0.603608563512159
40
0.636641183219473
40
0.636641183219473
40
0.669673802926786
40
0.669673802926786
40
0.735739042341416
40
0.735739042341416
40
0.752255352195073
40
0.752255352195073
40
0.760513507121901
40
0.764642584585316
40
0.764642584585316
40
0.76877166204873
40
0.76877166204873
40
0.777029816975561
40
0.777029816975561
40
0.785287971902391
40
0.785287971902391
40
0.801804281756052
40
0.801804281756052
40
0.867869521170702
40
0.867869521170702
40
1
40
1
40
1
40
1
41
1
10
5.11143538822242
20
-2.32766925592318
30
1E-16
41
1
10
4.89884219580503
20
-2.3956331471164
30
0
41
1
10
4.68878129045694
20
-2.46213385401211
30
-1E-16
41
1
10
4.29939402041799
20
-2.58346776496515
30
-1E-16
41
1
10
4.11942683038365
20
-2.6387245609919
30
-1E-16
41
1
10
3.76509037407584
20
-2.74503885504629
30
-1E-16
41
1
10
3.59070078244218
20
-2.79611483548726
30
-1E-16
41
1
10
3.2492975438725
20
-2.89224742690928
30
0
41
1
10
3.08221889215022
20
-2.9373625507281
30
0
41
1
10
2.83985988536841
20
-2.99788685367122
30
0
41
1
10
2.76079641181676
20
-3.01675854229268
30
0
41
1
10
2.60938080858378
20
-3.05063030169089
30
0
41
1
10
2.53670207380375
20
-3.0657178706619
30
0
41
1
10
2.39916613324706
20
-3.0910783021034
30
0
41
1
10
2.3339482643392
20
-3.10138793115934
30
0
41
1
10
2.21714095359155
20
-3.11506956566075
30
0
41
1
10
2.16523906639173
20
-3.11853187783515
30
0
41
1
10
2.10041581037092
20
-3.11698091645769
30
0
41
1
10
2.08093392730754
20
-3.11530466703982
30
0
41
1
10
2.04790995155605
20
-3.10943413802326
30
0
41
1
10
2.03425568788617
20
-3.10524929338746
30
0
41
1
10
2.0026098946621
20
-3.08864512145109
30
0
41
1
10
1.99422862785269
20
-3.07176370506386
30
0
41
1
10
2.00304272567479
20
-3.03906442817529
30
0
41
1
10
2.00940434410057
20
-3.02694370932807
30
0
41
1
10
2.02878430429965
20
-3.00035718577732
30
0
41
1
10
2.0419387421166
20
-2.98577055365837
30
0
41
1
10
2.0900383739459
20
-2.93966421097505
30
0
41
1
10
2.1332595546659
20
-2.90591374080753
30
0
41
1
10
2.21105109337842
20
-2.85194760319609
30
0
41
1
10
2.23930987668587
20
-2.83330551698251
30
0
41
1
10
2.29888422305274
20
-2.79557918392308
30
-1E-16
41
1
10
2.33018962380487
20
-2.77649066036187
30
-1E-16
41
1
10
2.42796628647733
20
-2.71868558939255
30
-1E-16
41
1
10
2.49826436450451
20
-2.67943635301515
30
-1E-16
41
1
10
2.64665244148028
20
-2.59999590600339
30
-1E-16
41
1
10
2.72502036578501
20
-2.55967464356806
30
-1E-16
41
1
10
2.88654518138696
20
-2.47913966048782
30
-1E-16
41
1
10
2.96970251094146
20
-2.43891590808622
30
-1E-16
41
1
10
3.22493848940479
20
-2.31849530987705
30
1E-16
41
1
10
3.40245162949773
20
-2.23868673618787
30
1E-16
41
1
10
3.62939642956081
20
-2.14030102263246
30
1E-16
41
1
10
3.67504080149592
20
-2.12069328104846
30
1E-16
41
1
10
3.74386214378626
20
-2.09138385008029
30
1E-16
41
1
10
3.77836242206169
20
-2.07675430057188
30
1E-16
41
1
10
3.81298387364717
20
-2.0621656965169
30
1E-16
41
1
10
3.83609185953409
20
-2.05244879201413
30
1E-16
41
1
10
3.84740241438001
20
-2.04719545486461
30
1E-16
41
1
10
3.88337749735172
20
-2.03453837412565
30
1E-16
41
1
10
3.91049768852997
20
-2.03300057165137
30
1E-16
41
1
10
3.96225717421905
20
-2.03779985204045
30
1E-16
41
1
10
3.98740908657001
20
-2.04461668564181
30
1E-16
41
1
10
4.06296840739464
20
-2.06193819205842
30
1E-16
41
1
10
4.11325258035072
20
-2.07362638856327
30
1E-16
41
1
10
4.36423223984181
20
-2.13270492416674
30
1E-16
41
1
10
4.56349868406119
20
-2.18199718213089
30
1E-16
41
1
10
5.15669489964699
20
-2.33313636814881
30
1E-16
41
1
10
5.54616822881704
20
-2.43838371816537
30
-1E-16
41
1
10
5.93004900306562
20
-2.5392355893778
30
-1E-16
0
SPLINE
5
C4
100
AcDbEntity
8
1
62
256
6
ByLayer
370
18
48
1
60
0
100
AcDbSpline
70
4
71
3
72
34
73
30
40
0
40
0
40
0
40
0
40
0.336208436249242
40
0.336208436249242
40
0.562653632518015
40
0.562653632518015
40
0.712088971520769
40
0.712088971520769
40
0.810793345505695
40
0.810793345505695
40
0.876026120517019
40
0.876026120517019
40
0.919085330917616
40
0.919085330917616
40
0.947516561583876
40
0.947516561583876
40
0.966451884640975
40
0.966451884640975
40
0.979060711667876
40
0.979060711667876
40
0.987155109358683
40
0.987155109358683
40
0.992334603411711
40
0.992334603411711
40
0.995604710562869
40
0.995604710562869
40
0.998905039650195
40
0.998905039650195
40
1
40
1
40
1
40
1
41
1
10
53.7123568976322
20
-3.14959469167886
30
0
41
1
10
53.7334563565148
20
-3.13570503114542
30
0
41
1
10
53.7545751448559
20
-3.12174564931331
30
0
41
1
10
53.7899368792152
20
-3.0982801026459
30
0
41
1
10
53.804173862462
20
-3.08880778885057
30
0
41
1
10
53.8278107009176
20
-3.07304092390433
30
0
41
1
10
53.8372090321089
20
-3.06676116682081
30
0
41
1
10
53.8528159497766
20
-3.0563154366005
30
0
41
1
10
53.8590241315918
20
-3.05215568838872
30
0
41
1
10
53.8693356927804
20
-3.04523885867894
30
0
41
1
10
53.8734397182271
20
-3.04248390399812
30
0
41
1
10
53.880266269357
20
-3.0378978919249
30
0
41
1
10
53.8829857203572
20
-3.03607006704922
30
0
41
1
10
53.8875036407398
20
-3.0330320440674
30
0
41
1
10
53.8892996105732
20
-3.03182402333331
30
0
41
1
10
53.8922754098342
20
-3.02982191324762
30
0
41
1
10
53.8934571181494
20
-3.02902674672785
30
0
41
1
10
53.8954269202274
20
-3.02770095274974
30
0
41
1
10
53.8962183049781
20
-3.02716819939872
30
0
41
1
10
53.8975347830806
20
-3.02628176700529
30
0
41
1
10
53.8980541995251
20
-3.02593197771847
30
0
41
1
10
53.8989107955447
20
-3.02535506731547
30
0
41
1
10
53.8992457879676
20
-3.02512944222289
30
0
41
1
10
53.8997858082785
20
-3.02476573294112
30
0
41
1
10
53.8999935830096
20
-3.02462579587049
30
0
41
1
10
53.9003993927883
20
-3.02435249748535
30
0
41
1
10
53.9006031939198
20
-3.02421525347191
30
0
41
1
10
53.9008319283756
20
-3.02406126204625
30
0
41
1
10
53.9008853256797
20
-3.02402531530015
30
0
41
1
10
53.9009313905123
20
-3.02399431455402
30
0
0
SPLINE
5
C5
100
AcDbEntity
8
1
62
256
6
ByLayer
370
18
48
1
60
0
100
AcDbSpline
70
4
71
3
72
8
73
4
40
0
40
0
40
0
40
0
40
1
40
1
40
1
40
1
41
1
10
53.9009313905115
20
-3.02399431455461
30
0
41
1
10
53.9025191023246
20
-3.02292458063368
30
0
41
1
10
53.9041068402443
20
-3.02185476303646
30
0
41
1
10
53.9056946043119
20
-3.02078486190999
30
0
0
SPLINE
5
C6
100
AcDbEntity
8
1
62
256
6
ByLayer
370
18
48
1
60
0
100
AcDbSpline
70
4
71
3
72
8
73
4
40
0
40
0
40
0
40
0
40
1
40
1
40
1
40
1
41
1
10
54.7049971687854
20
-1.02397022229064
30
0
41
1
10
54.8052085551967
20
-0.741634675878231
30
0
41
1
10
54.9025895836256
20
-0.458286467096059
30
0
41
1
10
54.9970951771208
20
-0.173909468043519
30
0
0
SPLINE
5
C7
100
AcDbEntity
8
1
62
256
6
ByLayer
370
18
48
1
60
0
100
AcDbSpline
70
4
71
3
72
42
73
38
40
0
40
0
40
0
40
0
40
0.0757804219590043
40
0.0757804219590043
40
0.113670632938506
40
0.113670632938506
40
0.151560843918009
40
0.151560843918009
40
0.189451054897511
40
0.189451054897511
40
0.227341265877013
40
0.227341265877013
40
0.303121687836017
40
0.303121687836017
40
0.454682531754027
40
0.454682531754027
40
0.492572742733529
40
0.492572742733529
40
0.53046295371303
40
0.53046295371303
40
0.606243375672033
40
0.606243375672033
40
0.644133586651533
40
0.644133586651533
40
0.682023797631034
40
0.682023797631034
40
0.757804219590033
40
0.757804219590033
40
0.795694430569532
40
0.795694430569532
40
0.83358464154903
40
0.83358464154903
40
0.871474852528529
40
0.871474852528529
40
0.909365063508028
40
0.909365063508028
40
1
40
1
40
1
40
1
41
1
10
53.6996552623615
20
-3.11133641024799
30
0
41
1
10
53.1757184697738
20
-3.07373293015326
30
0
41
1
10
52.6525576725917
20
-3.0094750427894
30
0
41
1
10
51.8659915953408
20
-2.8751477150532
30
0
41
1
10
51.6035832432444
20
-2.82404622262126
30
0
41
1
10
51.0799779204606
20
-2.71020571378412
30
-1E-16
41
1
10
50.8184851375713
20
-2.64742029735763
30
-1E-16
41
1
10
50.2955509863239
20
-2.51081912726366
30
-1E-16
41
1
10
50.0341106412946
20
-2.43700090792663
30
-1E-16
41
1
10
49.5106806912536
20
-2.27912749343179
30
1E-16
41
1
10
49.2483546628857
20
-2.19495986936656
30
1E-16
41
1
10
48.4619500101265
20
-1.92914057756474
30
1E-16
41
1
10
47.941548737665
20
-1.73512715922078
30
1E-16
41
1
10
46.3851988302726
20
-1.11649226945124
30
1E-16
41
1
10
45.3542163018894
20
-0.654861879931161
30
0
41
1
10
44.0513503955154
20
-0.0646217058608158
30
0
41
1
10
43.7900774372918
20
0.0540874340716471
30
0
41
1
10
43.2656501540145
20
0.291766578521163
30
0
41
1
10
43.0033419481575
20
0.410341091479921
30
0
41
1
10
42.2180904162681
20
0.761815970133171
30
0
41
1
10
41.695620637021
20
0.991037280926321
30
-1E-16
41
1
10
40.909969962849
20
1.31979833048413
30
-1E-16
41
1
10
40.6474266265306
20
1.4270012543387
30
-1E-16
41
1
10
40.1230034606629
20
1.63463452600371
30
-1E-16
41
1
10
39.8612282512952
20
1.73499017628026
30
-1E-16
41
1
10
39.076290405916
20
2.02402490677352
30
-1E-16
41
1
10
38.5535823249986
20
2.20077296864369
30
-1E-16
41
1
10
37.7668802555233
20
2.43604925220134
30
1E-16
41
1
10
37.5043287354102
20
2.50947116478443
30
1E-16
41
1
10
36.9805117870756
20
2.6448918066375
30
1E-16
41
1
10
36.7188947293037
20
2.70696737376332
30
1E-16
41
1
10
36.1956802368452
20
2.81924929768204
30
0
41
1
10
35.9340929116751
20
2.86946616193396
30
0
41
1
10
35.4103912663703
20
2.95747901693792
30
0
41
1
10
35.1478934552485
20
2.99530100140646
30
0
41
1
10
34.2584569032808
20
3.10131487535128
30
0
41
1
10
33.6367253899198
20
3.13789209557373
30
0
41
1
10
33.0166319913363
20
3.13683426722935
30
0
0
SPLINE
5
C8
100
AcDbEntity
8
1
62
256
6
ByLayer
370
18
48
1
60
0
100
AcDbSpline
70
4
71
3
72
20
73
16
40
0
40
0
40
0
40
0
40
0.0433675695532016
40
0.0433675695532016
40
0.123086938757102
40
0.123086938757102
40
0.202806307961002
40
0.202806307961002
40
0.362245046368801
40
0.362245046368801
40
0.6811225231844
40
0.6811225231844
40
0.8405612615922
40
0.8405612615922
40
1
40
1
40
1
40
1
41
1
10
13.3843953068763
20
-2.98198060605103
30
0
41
1
10
13.241944062753
20
-3.001105745709
30
0
41
1
10
13.0994493182165
20
-3.01834222244784
30
0
41
1
10
12.694765399726
20
-3.06180329473929
30
0
41
1
10
12.4318940294934
20
-3.08347875155769
30
0
41
1
10
11.9074076334742
20
-3.11334818924397
30
0
41
1
10
11.6460878002451
20
-3.12155739728354
30
0
41
1
10
10.8640983455826
20
-3.12624557407705
30
0
41
1
10
10.3453525488763
20
-3.10275689920277
30
0
41
1
10
8.79039615035322
20
-2.95531775067943
30
0
41
1
10
7.75542236236285
20
-2.75397885779063
30
-1E-16
41
1
10
6.17944305412721
20
-2.31687183988092
30
1E-16
41
1
10
5.65586277932496
20
-2.15029343272553
30
1E-16
41
1
10
4.60932064742349
20
-1.78385976321584
30
1E-16
41
1
10
4.08598278549141
20
-1.58408399339433
30
1E-16
41
1
10
3.56061574255472
20
-1.37125569853961
30
1E-16
0
SPLINE
5
C9
100
AcDbEntity
8
1
62
256
6
ByLayer
370
18
48
1
60
0
100
AcDbSpline
70
4
71
3
72
8
73
4
40
0
40
0
40
0
40
0
40
1
40
1
40
1
40
1
41
1
10
54.9970951771157
20
0.173909468059122
30
0
41
1
10
54.983488750028
20
0.128558192715843
30
0
41
1
10
54.9698146190125
20
0.0832286460642138
30
0
41
1
10
54.9560730419266
20
0.0379207453483161
30
0
0
SPLINE
5
CA
100
AcDbEntity
8
1
62
256
6
ByLayer
370
18
48
1
60
0
100
AcDbSpline
70
4
71
3
72
20
73
16
40
0
40
0
40
0
40
0
40
0.249999999999995
40
0.249999999999995
40
0.374999999999995
40
0.374999999999995
40
0.437499999999996
40
0.437499999999996
40
0.499999999999996
40
0.499999999999996
40
0.624999999999997
40
0.624999999999997
40
0.749999999999998
40
0.749999999999998
40
1
40
1
40
1
40
1
41
1
10
53.9056946043119
20
3.02078486191002
30
0
41
1
10
53.966475753371
20
2.84990972515706
30
0
41
1
10
54.0264385299326
20
2.67806396291363
30
0
41
1
10
54.1162547547106
20
2.41941083987229
30
0
41
1
10
54.1461157327732
20
2.33319462457439
30
0
41
1
10
54.1909049154717
20
2.20390995996579
30
0
41
1
10
54.205775877753
20
2.16079186738182
30
0
41
1
10
54.2359319921976
20
2.07477890491578
30
0
41
1
10
54.2512112415113
20
2.03188002770904
30
0
41
1
10
54.2978444648484
20
1.90358085866694
30
0
41
1
10
54.3299877266335
20
1.81857479625629
30
0
41
1
10
54.397319442397
20
1.64996896899314
30
0
41
1
10
54.432734720567
20
1.5658168273327
30
0
41
1
10
54.5428044525187
20
1.32010109035798
30
0
41
1
10
54.6207826995507
20
1.16684583253823
30
0
41
1
10
54.704997168786
20
1.02397022228996
30
0
0
SPLINE
5
CB
100
AcDbEntity
8
1
62
256
6
ByLayer
370
18
48
1
60
0
100
AcDbSpline
70
4
71
3
72
8
73
4
40
0
40
0
40
0
40
0
40
1
40
1
40
1
40
1
41
1
10
53.9009313905195
20
3.02399431454921
30
0
41
1
10
53.90251910233
20
3.02292458063007
30
0
41
1
10
53.9041068402469
20
3.02185476303467
30
0
41
1
10
53.9056946043119
20
3.02078486191002
30
0
0
SPLINE
5
CC
100
AcDbEntity
8
1
62
256
6
ByLayer
370
18
48
1
60
0
100
AcDbSpline
70
4
71
3
72
8
73
4
40
0
40
0
40
0
40
0
40
1
40
1
40
1
40
1
41
1
10
54.9970951771157
20
0.173909468059094
30
0
41
1
10
55.0009708808956
20
0.0578917949025026
30
0
41
1
10
55.0009656711836
20
-0.0580477455818027
30
0
41
1
10
54.997095177116
20
-0.173909468048123
30
0
0
SPLINE
5
CD
100
AcDbEntity
8
1
62
256
6
ByLayer
370
18
48
1
60
0
100
AcDbSpline
70
4
71
3
72
14
73
10
40
0
40
0
40
0
40
0
40
0.186359053418326
40
0.186359053418326
40
0.372718106836653
40
0.372718106836653
40
0.745436213673305
40
0.745436213673305
40
1
40
1
40
1
40
1
41
1
10
53.9009313905186
20
3.02399431454651
30
0
41
1
10
53.5830284504722
20
3.02613115421983
30
0
41
1
10
53.2655398165966
20
3.01904035931051
30
0
41
1
10
52.6297417267543
20
2.98528607833285
30
0
41
1
10
52.3118432710065
20
2.95879579824427
30
0
41
1
10
51.3628926855768
20
2.8526241611373
30
0
41
1
10
50.7348219317748
20
2.74656686426823
30
1E-16
41
1
10
49.6785453728084
20
2.51253663002836
30
1E-16
41
1
10
49.2503333184255
20
2.40265205474097
30
1E-16
41
1
10
48.8212286980887
20
2.27936046945254
30
0
0
SPLINE
5
CE
100
AcDbEntity
8
1
62
256
6
ByLayer
370
18
48
1
60
0
100
AcDbSpline
70
4
71
3
72
10
73
6
40
0
40
0
40
0
40
0
40
0.5
40
0.5
40
1
40
1
40
1
40
1
41
1
10
3.56220144255934
20
-1.31025915071302
30
1E-16
41
1
10
3.54131692512533
20
-1.30574074431598
30
1E-16
41
1
10
3.5262421993379
20
-1.29838293449902
30
1E-16
41
1
10
3.50648665372176
20
-1.28195664638309
30
1E-16
41
1
10
3.50170838189652
20
-1.27271667239256
30
1E-16
41
1
10
3.50170838189646
20
-1.26354935783399
30
1E-16
0
SPLINE
5
CF
100
AcDbEntity
8
1
62
256
6
ByLayer
370
18
48
1
60
0
100
AcDbSpline
70
4
71
3
72
10
73
6
40
0
40
0
40
0
40
0
40
0.5
40
0.5
40
1
40
1
40
1
40
1
41
1
10
53.6996552623576
20
-3.11133641024929
30
0
41
1
10
53.7020584491351
20
-3.12293940095734
30
0
41
1
10
53.7043402953149
20
-3.13197794599793
30
0
41
1
10
53.708550179178
20
-3.14479609357659
30
0
41
1
10
53.7105012320056
20
-3.148536276675
30
0
41
1
10
53.7123568976322
20
-3.14959469167886
30
0
0
SPLINE
5
D0
100
AcDbEntity
8
1
62
256
6
ByLayer
370
18
48
1
60
0
100
AcDbSpline
70
4
71
3
72
40
73
36
40
0
40
0
40
0
40
0
40
0.0409346301256571
40
0.0409346301256571
40
0.0845285105744924
40
0.0845285105744924
40
0.128122391023328
40
0.128122391023328
40
0.215310151920997
40
0.215310151920997
40
0.258904032369831
40
0.258904032369831
40
0.302497912818666
40
0.302497912818666
40
0.3460917932675
40
0.3460917932675
40
0.389685673716335
40
0.389685673716335
40
0.476873434614002
40
0.476873434614002
40
0.564061195511669
40
0.564061195511669
40
0.651248956409337
40
0.651248956409337
40
0.738436717307004
40
0.738436717307004
40
0.782030597755837
40
0.782030597755837
40
0.82562447820467
40
0.82562447820467
40
0.869218358653503
40
0.869218358653503
40
0.912812239102336
40
0.912812239102336
40
1
40
1
40
1
40
1
41
1
10
32.0523426466494
20
3.13635981621795
30
0
41
1
10
32.3456915398192
20
3.13665650376387
30
0
41
1
10
32.6394279568501
20
3.12851636505357
30
0
41
1
10
33.2475863112104
20
3.09412663841036
30
0
41
1
10
33.5621169267025
20
3.06674536165784
30
0
41
1
10
34.1939605622197
20
2.99271168195918
30
0
41
1
10
34.5101889967456
20
2.94615962231049
30
0
41
1
10
35.4564595486522
20
2.77984297374596
30
1E-16
41
1
10
36.0860122060692
20
2.63310808490354
30
1E-16
41
1
10
37.0343459667688
20
2.36554796027042
30
-1E-16
41
1
10
37.3503656998646
20
2.26866965204633
30
-1E-16
41
1
10
37.9811302374871
20
2.06175557874028
30
-1E-16
41
1
10
38.2961985477845
20
1.95163228425042
30
-1E-16
41
1
10
38.9267307618089
20
1.71981390534111
30
-1E-16
41
1
10
39.2421964778802
20
1.59812335581742
30
-1E-16
41
1
10
39.8745135854959
20
1.34495371197104
30
-1E-16
41
1
10
40.1903814952492
20
1.21384564145723
30
-1E-16
41
1
10
41.1363792166406
20
0.81093406578313
30
0
41
1
10
41.7658629460891
20
0.529204603344226
30
0
41
1
10
43.0305983892238
20
-0.0430213316363393
30
0
41
1
10
43.6578251550538
20
-0.329894892329179
30
0
41
1
10
44.90736799991
20
-0.886851841970952
30
1E-16
41
1
10
45.530083531985
20
-1.15708424876374
30
1E-16
41
1
10
46.7792194410192
20
-1.66435852400357
30
1E-16
41
1
10
47.4055444172687
20
-1.90160528385454
30
1E-16
41
1
10
48.3534114139955
20
-2.22102096837591
30
1E-16
41
1
10
48.6691762878269
20
-2.32083945597765
30
1E-16
41
1
10
49.2994383220876
20
-2.50509476394478
30
-1E-16
41
1
10
49.6142423857378
20
-2.58963157338798
30
-1E-16
41
1
10
50.2442373158358
20
-2.74220059429578
30
-1E-16
41
1
10
50.5594324957968
20
-2.81023221760106
30
0
41
1
10
51.1911523041302
20
-2.92868297920845
30
0
41
1
10
51.5072575128788
20
-2.97898885520687
30
0
41
1
10
52.4528360889633
20
-3.10134118791004
30
0
41
1
10
53.0814613656698
20
-3.14513271188974
30
0
41
1
10
53.7123568976322
20
-3.14959469167886
30
0
0
SPLINE
5
D1
100
AcDbEntity
8
1
62
256
6
ByLayer
370
18
48
1
60
0
100
AcDbSpline
70
4
71
3
72
12
73
8
40
0
40
0
40
0
40
0
40
0.5
40
0.5
40
0.75
40
0.75
40
1
40
1
40
1
40
1
41
1
10
3.50170838189649
20
2.35169866169659
30
1E-16
41
1
10
3.50170838189644
20
2.34686454208796
30
1E-16
41
1
10
3.50948056894418
20
2.3418061652477
30
1E-16
41
1
10
3.53487551877549
20
2.33528754118456
30
1E-16
41
1
10
3.5456514133954
20
2.33332894562412
30
1E-16
41
1
10
3.57171446289721
20
2.33046676531745
30
1E-16
41
1
10
3.58688775174275
20
2.32961597176677
30
1E-16
41
1
10
3.60250698658999
20
2.32964501820794
30
1E-16
0
SPLINE
5
D2
100
AcDbEntity
8
1
62
256
6
ByLayer
370
18
48
1
60
0
100
AcDbSpline
70
4
71
3
72
26
73
22
40
0
40
0
40
0
40
0
40
0.125
40
0.125
40
0.25
40
0.25
40
0.3125
40
0.3125
40
0.375
40
0.375
40
0.4375
40
0.4375
40
0.5
40
0.5
40
0.625
40
0.625
40
0.75
40
0.75
40
0.875
40
0.875
40
1
40
1
40
1
40
1
41
1
10
54.9560730419266
20
0.0379207453483161
30
0
41
1
10
54.9408250330061
20
-0.012354071724161
30
0
41
1
10
54.9232943268759
20
-0.0614794951708291
30
0
41
1
10
54.8834956403375
20
-0.15726631911545
30
0
41
1
10
54.861163613114
20
-0.203813044070699
30
0
41
1
10
54.8260445262674
20
-0.266920955297252
30
0
41
1
10
54.8139874548235
20
-0.287026959461571
30
0
41
1
10
54.7891348906415
20
-0.325211684422129
30
0
41
1
10
54.7763686495751
20
-0.343203822877257
30
0
41
1
10
54.7511264129816
20
-0.375580373219918
30
0
41
1
10
54.7385227099031
20
-0.390169308894855
30
0
41
1
10
54.7133333601888
20
-0.416082142435385
30
0
41
1
10
54.7006329190839
20
-0.427477027152293
30
0
41
1
10
54.6637564834227
20
-0.455504148588517
30
0
41
1
10
54.6402896312488
20
-0.466471608725982
30
0
41
1
10
54.5967538443072
20
-0.473242500753059
30
0
41
1
10
54.5768664133151
20
-0.469088885927931
30
0
41
1
10
54.5407125057114
20
-0.447991799825786
30
0
41
1
10
54.5247939174779
20
-0.43138798779475
30
0
41
1
10
54.4959761050434
20
-0.388220200489712
30
0
41
1
10
54.4831204063711
20
-0.361551199918097
30
0
41
1
10
54.4717528724647
20
-0.331206865513053
30
0
0
SPLINE
5
D3
100
AcDbEntity
8
1
62
256
6
ByLayer
370
18
48
1
60
0
100
AcDbSpline
70
4
71
3
72
32
73
28
40
0
40
0
40
0
40
0
40
0.0324925522845926
40
0.0324925522845926
40
0.101877769238416
40
0.101877769238416
40
0.171262986192238
40
0.171262986192238
40
0.240648203146061
40
0.240648203146061
40
0.310033420099883
40
0.310033420099883
40
0.448803854007528
40
0.448803854007528
40
0.518189070961352
40
0.518189070961352
40
0.587574287915175
40
0.587574287915175
40
0.656959504868998
40
0.656959504868998
40
0.726344721822822
40
0.726344721822822
40
0.795729938776645
40
0.795729938776645
40
0.865115155730469
40
0.865115155730469
40
1
40
1
40
1
40
1
41
1
10
20.4229321859387
20
2.97928732017331
30
0
41
1
10
20.5454299756835
20
2.98223697196531
30
0
41
1
10
20.6680077581116
20
2.98374720087017
30
0
41
1
10
21.0520557201812
20
2.98349978230937
30
0
41
1
10
21.312770585791
20
2.97677540631295
30
0
41
1
10
21.8327066817889
20
2.95186283460606
30
0
41
1
10
22.0919417901924
20
2.93358880835075
30
0
41
1
10
22.6099741639976
20
2.88343288928098
30
0
41
1
10
22.8686523406377
20
2.85219882784776
30
0
41
1
10
23.3854568462418
20
2.77867316844385
30
1E-16
41
1
10
23.6435963045166
20
2.73634393549304
30
1E-16
41
1
10
24.4189254497653
20
2.59101641302161
30
1E-16
41
1
10
24.9359920748405
20
2.4718909107938
30
1E-16
41
1
10
25.7154414629262
20
2.26235957254278
30
1E-16
41
1
10
25.9759760423323
20
2.18730210484597
30
-1E-16
41
1
10
26.4983526841458
20
2.02793691091776
30
-1E-16
41
1
10
26.7605419354903
20
1.94341364688214
30
-1E-16
41
1
10
27.2838798936588
20
1.76668834798713
30
-1E-16
41
1
10
27.5453567086715
20
1.67442353298617
30
-1E-16
41
1
10
28.0681753910393
20
1.48303573537288
30
-1E-16
41
1
10
28.3296641869888
20
1.38393050817794
30
-1E-16
41
1
10
28.8535221724206
20
1.18003878507994
30
-1E-16
41
1
10
29.1151037320576
20
1.075448036339
30
-1E-16
41
1
10
29.6361119989159
20
0.862706441555048
30
-1E-16
41
1
10
29.8958967950676
20
0.754610214328864
30
0
41
1
10
30.6594045140105
20
0.433251135016633
30
0
41
1
10
31.1615578390211
20
0.216220689979281
30
0
41
1
10
31.6638770483585
20
-0.000441304001555
30
0
0
SPLINE
5
D4
100
AcDbEntity
8
1
62
256
6
ByLayer
370
18
48
1
60
0
100
AcDbSpline
70
4
71
3
72
8
73
4
40
0
40
0
40
0
40
0
40
1
40
1
40
1
40
1
41
1
10
53.4374603282604
20
-0.0095202463283499
30
0
41
1
10
53.4624651560561
20
-0.0207807866424616
30
0
41
1
10
53.4873233536278
20
-0.0314386204289008
30
0
41
1
10
53.5120600649194
20
-0.0415081795143522
30
0
0
SPLINE
5
D5
100
AcDbEntity
8
1
62
256
6
ByLayer
370
18
48
1
60
0
100
AcDbSpline
70
4
71
3
72
8
73
4
40
0
40
0
40
0
40
0
40
1
40
1
40
1
40
1
41
1
10
54.1636334503206
20
0.912636551383031
30
0
41
1
10
54.3457494758851
20
0.941136009710505
30
0
41
1
10
54.5272458200765
20
0.976219421650683
30
0
41
1
10
54.7049971687926
20
1.02397022229294
30
0
0
SPLINE
5
D6
100
AcDbEntity
8
1
62
256
6
ByLayer
370
18
48
1
60
0
100
AcDbSpline
70
4
71
3
72
8
73
4
40
0
40
0
40
0
40
0
40
1
40
1
40
1
40
1
41
1
10
3.56220144255934
20
-1.31025915071299
30
1E-16
41
1
10
3.56166686394082
20
-1.33059881234868
30
1E-16
41
1
10
3.56113827861984
20
-1.35093087666797
30
1E-16
41
1
10
3.56061574255472
20
-1.37125569853956
30
1E-16
0
SPLINE
5
D7
100
AcDbEntity
8
1
62
256
6
ByLayer
370
18
48
1
60
0
100
AcDbSpline
70
4
71
3
72
8
73
4
40
0
40
0
40
0
40
0
40
1
40
1
40
1
40
1
41
1
10
53.6996552623602
20
-3.11133641024594
30
0
41
1
10
53.7535121663072
20
-3.07981509587685
30
0
41
1
10
53.8074695427279
20
-3.0478139234437
30
0
41
1
10
53.8615425859028
20
-3.01534525285987
30
0
0
SPLINE
5
D8
100
AcDbEntity
8
1
62
256
6
ByLayer
370
18
48
1
60
0
100
AcDbSpline
70
4
71
3
72
50
73
46
40
0
40
0
40
0
40
0
40
0.0908141490367642
40
0.0908141490367642
40
0.136221223555146
40
0.136221223555146
40
0.181628298073527
40
0.181628298073527
40
0.227035372591909
40
0.227035372591909
40
0.27244244711029
40
0.27244244711029
40
0.317849521628672
40
0.317849521628672
40
0.363256596147054
40
0.363256596147054
40
0.408663670665435
40
0.408663670665435
40
0.454070745183817
40
0.454070745183817
40
0.499477819702198
40
0.499477819702198
40
0.54488489422058
40
0.54488489422058
40
0.590291968738962
40
0.590291968738962
40
0.635699043257343
40
0.635699043257343
40
0.681106117775725
40
0.681106117775725
40
0.726513192294106
40
0.726513192294106
40
0.771920266812488
40
0.771920266812488
40
0.817327341330869
40
0.817327341330869
40
0.862734415849251
40
0.862734415849251
40
0.908141490367633
40
0.908141490367633
40
0.953548564886014
40
0.953548564886014
40
0.998955639404396
40
0.998955639404396
40
1
40
1
40
1
40
1
41
1
10
3.64336952672039
20
2.45352958206777
30
1E-16
41
1
10
4.1631534854327
20
2.30674414687448
30
-1E-16
41
1
10
4.68316070442305
20
2.14116430360309
30
-1E-16
41
1
10
5.46494692818351
20
1.86834782736631
30
-1E-16
41
1
10
5.72609262055755
20
1.77321704969117
30
-1E-16
41
1
10
6.24703078581405
20
1.575809175871
30
-1E-16
41
1
10
6.5068319805776
20
1.47312790090129
30
-1E-16
41
1
10
7.02639085785279
20
1.26230433103382
30
-1E-16
41
1
10
7.28628622040378
20
1.15446256939509
30
-1E-16
41
1
10
7.80620275038433
20
0.933725290873412
30
-1E-16
41
1
10
8.06622872276986
20
0.820820820766158
30
-1E-16
41
1
10
8.5874345752743
20
0.592106249374268
30
0
41
1
10
8.84819851976167
20
0.476504092836336
30
0
41
1
10
9.36841869479079
20
0.243607705794943
30
0
41
1
10
9.62811099696091
20
0.126174151217725
30
0
41
1
10
10.1477537349784
20
-0.108222279800174
30
0
41
1
10
10.407721233667
20
-0.225146700460556
30
0
41
1
10
10.9279886508717
20
-0.458358480822568
30
0
41
1
10
11.1887224089393
20
-0.574883841384548
30
0
41
1
10
11.709258726545
20
-0.804006886636842
30
0
41
1
10
11.9687306140741
20
-0.916419673148454
30
1E-16
41
1
10
12.4861524576853
20
-1.13693363634619
30
1E-16
41
1
10
12.7440796730669
20
-1.24506065139801
30
1E-16
41
1
10
13.2593817186567
20
-1.45494290892384
30
1E-16
41
1
10
13.5167797832205
20
-1.55667342521943
30
1E-16
41
1
10
14.0311303890884
20
-1.75364491480735
30
1E-16
41
1
10
14.2880591936365
20
-1.84890986718776
30
1E-16
41
1
10
14.8023905884172
20
-2.03117756488103
30
1E-16
41
1
10
15.0598175701342
20
-2.11815777913193
30
1E-16
41
1
10
15.5752890645465
20
-2.28360540063304
30
1E-16
41
1
10
15.8333053753003
20
-2.36209572579432
30
1E-16
41
1
10
16.3509388187343
20
-2.50887810819054
30
-1E-16
41
1
10
16.610590066355
20
-2.57715010031899
30
-1E-16
41
1
10
17.1314474561215
20
-2.70345775157963
30
-1E-16
41
1
10
17.3918159355324
20
-2.76121359076413
30
-1E-16
41
1
10
17.9118738027417
20
-2.86410738748265
30
0
41
1
10
18.171751509093
20
-2.90948037959595
30
0
41
1
10
18.6911867661721
20
-2.98808138177677
30
0
41
1
10
18.9507649900309
20
-3.02124162986021
30
0
41
1
10
19.4709569307677
20
-3.07446462870936
30
0
41
1
10
19.7317374325754
20
-3.09466389831908
30
0
41
1
10
20.2525090320066
20
-3.1219297975301
30
0
41
1
10
20.5123079273054
20
-3.12893779690245
30
0
41
1
10
20.7781886923005
20
-3.12932648124121
30
0
41
1
10
20.7841664036206
20
-3.12933174410622
30
0
41
1
10
20.790144069331
20
-3.12933353056926
30
0
0
SPLINE
5
D9
100
AcDbEntity
8
1
62
256
6
ByLayer
370
18
48
1
60
0
100
AcDbSpline
70
4
71
3
72
32
73
28
40
0
40
0
40
0
40
0
40
0.0430059600894839
40
0.0430059600894839
40
0.102818087583889
40
0.102818087583889
40
0.162630215078294
40
0.162630215078294
40
0.222442342572699
40
0.222442342572699
40
0.282254470067104
40
0.282254470067104
40
0.401878725055917
40
0.401878725055917
40
0.461690852550324
40
0.461690852550324
40
0.521502980044732
40
0.521502980044732
40
0.64112723503355
40
0.64112723503355
40
0.760751490022367
40
0.760751490022367
40
0.820563617516776
40
0.820563617516776
40
0.880375745011185
40
0.880375745011185
40
1
40
1
40
1
40
1
41
1
10
40.4483907097551
20
2.99953532822477
30
0
41
1
10
40.6351004897541
20
3.02484459970015
30
0
41
1
10
40.821822965654
20
3.04679915739777
30
0
41
1
10
41.2682275942464
20
3.09138992328346
30
0
41
1
10
41.5277922794894
20
3.11095279117745
30
0
41
1
10
42.0476345988756
20
3.13685865506236
30
0
41
1
10
42.3084808616512
20
3.14321507881041
30
0
41
1
10
42.8283017281189
20
3.14262958723975
30
0
41
1
10
43.0870592595523
20
3.13567322035126
30
0
41
1
10
43.6032591502405
20
3.10860378324344
30
0
41
1
10
43.8609588328349
20
3.08859042476863
30
0
41
1
10
44.6333826128736
20
3.0099538221377
30
0
41
1
10
45.1472650016367
20
2.93277163838084
30
0
41
1
10
45.9178998040997
20
2.78066342072842
30
1E-16
41
1
10
46.1747058443086
20
2.72379720095367
30
1E-16
41
1
10
46.6894155569088
20
2.59893560130604
30
1E-16
41
1
10
46.9473927206465
20
2.53107039788659
30
1E-16
41
1
10
47.7235407654608
20
2.31164098309105
30
-1E-16
41
1
10
48.2454850731162
20
2.14341005861996
30
-1E-16
41
1
10
49.2841971093767
20
1.77470280641191
30
-1E-16
41
1
10
49.8021879424507
20
1.57356191780769
30
-1E-16
41
1
10
50.5812748148534
20
1.25438415779436
30
-1E-16
41
1
10
50.8414831795061
20
1.14476265442443
30
-1E-16
41
1
10
51.3618962176329
20
0.921333944015231
30
-1E-16
41
1
10
51.6216946371933
20
0.807842197327176
30
0
41
1
10
52.400380014463
20
0.463176510487472
30
0
41
1
10
52.9183415989297
20
0.227334267758806
30
0
41
1
10
53.4374603282604
20
-0.0095202463283783
30
0
0
SPLINE
5
DA
100
AcDbEntity
8
1
62
256
6
ByLayer
370
18
48
1
60
0
100
AcDbSpline
70
4
71
3
72
22
73
18
40
0
40
0
40
0
40
0
40
0.134073848425336
40
0.134073848425336
40
0.41353998676818
40
0.41353998676818
40
0.553273055939604
40
0.553273055939604
40
0.623139590525316
40
0.623139590525316
40
0.693006125111027
40
0.693006125111027
40
0.832739194282451
40
0.832739194282451
40
0.972472263453875
40
0.972472263453875
40
1
40
1
40
1
40
1
41
1
10
33.3970926527997
20
-2.98582998902381
30
0
41
1
10
32.895346373566
20
-2.99677880844206
30
0
41
1
10
32.3956583146363
20
-2.98447946550968
30
0
41
1
10
30.8546338771396
20
-2.87428937773225
30
0
41
1
10
29.8144464400991
20
-2.69970809249881
30
-1E-16
41
1
10
28.230400929556
20
-2.30294454469455
30
-1E-16
41
1
10
27.7032226409946
20
-2.14977095493975
30
1E-16
41
1
10
26.9119447188517
20
-1.89389199602098
30
1E-16
41
1
10
26.6476461268284
20
-1.80412230842552
30
1E-16
41
1
10
26.1202022136663
20
-1.61753346055667
30
1E-16
41
1
10
25.8573880162316
20
-1.52084636370864
30
1E-16
41
1
10
25.0709096178427
20
-1.22236562227758
30
1E-16
41
1
10
24.5492033592242
20
-1.01222393757439
30
1E-16
41
1
10
23.5066935563162
20
-0.5793264335326
30
0
41
1
10
22.9862340983673
20
-0.355991716204812
30
0
41
1
10
22.3611893702776
20
-0.0871678339063919
30
0
41
1
10
22.2582728012601
20
-0.042839647275855
30
0
41
1
10
22.1552895341567
20
0.0015278911059795
30
0
0
SPLINE
5
DB
100
AcDbEntity
8
1
62
256
6
ByLayer
370
18
48
1
60
0
100
AcDbSpline
70
4
71
3
72
8
73
4
40
0
40
0
40
0
40
0
40
1
40
1
40
1
40
1
41
1
10
12.5514841258908
20
2.92695258977753
30
0
41
1
10
12.4982564713584
20
2.9310806819708
30
0
41
1
10
12.4450413826337
20
2.93494778229714
30
0
41
1
10
12.3918367126301
20
2.93855371410808
30
0
0
SPLINE
5
DC
100
AcDbEntity
8
1
62
256
6
ByLayer
370
18
48
1
60
0
100
AcDbSpline
70
4
71
3
72
8
73
4
40
0
40
0
40
0
40
0
40
1
40
1
40
1
40
1
41
1
10
3.63780568464392
20
2.32522730709584
30
1E-16
41
1
10
3.6266125430115
20
2.32817817860649
30
1E-16
41
1
10
3.6147137901051
20
2.32966177457453
30
1E-16
41
1
10
3.60250698658999
20
2.32964501820794
30
1E-16
0
SPLINE
5
DD
100
AcDbEntity
8
1
62
256
6
ByLayer
370
18
48
1
60
0
100
AcDbSpline
70
4
71
3
72
16
73
12
40
0
40
0
40
0
40
0
40
0.40824670050129
40
0.40824670050129
40
0.612370050751934
40
0.612370050751934
40
0.714431725877256
40
0.714431725877256
40
0.816493401002578
40
0.816493401002578
40
1
40
1
40
1
40
1
41
1
10
3.60187866861213
20
-1.30812663161453
30
1E-16
41
1
10
4.65859989197847
20
-1.71414512041943
30
1E-16
41
1
10
5.70209684194558
20
-2.06856515542475
30
1E-16
41
1
10
7.27303095636086
20
-2.48072352183399
30
-1E-16
41
1
10
7.79759453185881
20
-2.59834851601903
30
-1E-16
41
1
10
8.58883206417164
20
-2.74033824471349
30
-1E-16
41
1
10
8.85337404058447
20
-2.78191147074597
30
-1E-16
41
1
10
9.37963597216597
20
-2.85241337091779
30
0
41
1
10
9.64195906307367
20
-2.8814577076125
30
0
41
1
10
10.374389762814
20
-2.94515965109105
30
0
41
1
10
10.8432667252396
20
-2.96567209172409
30
0
41
1
10
11.3118213264974
20
-2.96587176496698
30
0
0
SPLINE
5
DE
100
AcDbEntity
8
1
62
256
6
ByLayer
370
18
48
1
60
0
100
AcDbSpline
70
4
71
3
72
24
73
20
40
0
40
0
40
0
40
0
40
0.0948178471369217
40
0.0948178471369217
40
0.245681539280765
40
0.245681539280765
40
0.321113385352687
40
0.321113385352687
40
0.396545231424609
40
0.396545231424609
40
0.547408923568456
40
0.547408923568456
40
0.698272615712303
40
0.698272615712303
40
0.849136307856149
40
0.849136307856149
40
0.924568153928075
40
0.924568153928075
40
1
40
1
40
1
40
1
41
1
10
43.4685957230822
20
0.20084360036779
30
0
41
1
10
43.7957802622673
20
0.0600566297773639
30
0
41
1
10
44.122837624804
20
-0.0813597747849144
30
0
41
1
10
44.9712696479484
20
-0.446247292476727
30
0
41
1
10
45.4931290375547
20
-0.669056554079191
30
0
41
1
10
46.2803726309798
20
-0.993846004397795
30
1E-16
41
1
10
46.5439326804537
20
-1.10068361523253
30
1E-16
41
1
10
47.071320619328
20
-1.30915604599994
30
1E-16
41
1
10
47.3340788074445
20
-1.41038868095572
30
1E-16
41
1
10
48.1202582623224
20
-1.70365390392723
30
1E-16
41
1
10
48.6417440082288
20
-1.88526070394036
30
1E-16
41
1
10
49.6833455363064
20
-2.21321362809792
30
1E-16
41
1
10
50.2034196773324
20
-2.35963539373103
30
-1E-16
41
1
10
51.2463500560145
20
-2.61077468007136
30
-1E-16
41
1
10
51.7691896073065
20
-2.7156041856959
30
-1E-16
41
1
10
52.5585739361552
20
-2.83728050258603
30
0
41
1
10
52.8227583862835
20
-2.87190500408156
30
0
41
1
10
53.3501237659166
20
-2.92830210902287
30
0
41
1
10
53.6136632171625
20
-2.94980031876739
30
0
41
1
10
53.8773395053538
20
-2.96547115930417
30
0
0
SPLINE
5
DF
100
AcDbEntity
8
1
62
256
6
ByLayer
370
18
48
1
60
0
100
AcDbSpline
70
4
71
3
72
34
73
30
40
0
40
0
40
0
40
0
40
0.0343831934150462
40
0.0343831934150462
40
0.171915819001148
40
0.171915819001148
40
0.240682131794199
40
0.240682131794199
40
0.309448444587249
40
0.309448444587249
40
0.3782147573803
40
0.3782147573803
40
0.446981070173351
40
0.446981070173351
40
0.515747382966402
40
0.515747382966402
40
0.584513695759453
40
0.584513695759453
40
0.722046321345556
40
0.722046321345556
40
0.790812634138609
40
0.790812634138609
40
0.859578946931661
40
0.859578946931661
40
0.928345259724713
40
0.928345259724713
40
0.997111572517766
40
0.997111572517766
40
1
40
1
40
1
40
1
41
1
10
32.0961816639259
20
-0.19708269389568
30
0
41
1
10
31.9669382529914
20
-0.141582654088438
30
0
41
1
10
31.8377220468088
20
-0.0860144594063001
30
0
41
1
10
31.1915826179144
20
0.191699538897552
30
0
41
1
10
30.6749189196436
20
0.414514313818444
30
0
41
1
10
29.8967566980303
20
0.741215339191143
30
0
41
1
10
29.6369330484192
20
0.849082530686871
30
-1E-16
41
1
10
29.1158560382243
20
1.06141430490453
30
-1E-16
41
1
10
28.8542556085408
20
1.16581785915989
30
-1E-16
41
1
10
28.3303190068115
20
1.3694170426489
30
-1E-16
41
1
10
28.0687904335505
20
1.46841220634008
30
-1E-16
41
1
10
27.5458941421199
20
1.65963055542972
30
-1E-16
41
1
10
27.2843799780285
20
1.75183515017994
30
-1E-16
41
1
10
26.7609731218129
20
1.92851089426628
30
-1E-16
41
1
10
26.4987510068514
20
2.01304535296012
30
-1E-16
41
1
10
25.9762772826877
20
2.17248995715912
30
-1E-16
41
1
10
25.7156920902908
20
2.24761424246432
30
1E-16
41
1
10
24.9360823102269
20
2.457454673315
30
1E-16
41
1
10
24.4188997781859
20
2.57688906027758
30
1E-16
41
1
10
23.6434027152407
20
2.72284739363499
30
1E-16
41
1
10
23.3852080162378
20
2.7654233597753
30
1E-16
41
1
10
22.868295883012
20
2.83946489607186
30
0
41
1
10
22.6095664788502
20
2.8709808379393
30
0
41
1
10
22.0914379204958
20
2.92175586593527
30
0
41
1
10
21.8321584694425
20
2.94037282378466
30
0
41
1
10
21.312138933906
20
2.96598716750827
30
0
41
1
10
21.0513881446906
20
2.97308502851351
30
0
41
1
10
20.7788095051711
20
2.97367610452145
30
0
41
1
10
20.7678210077891
20
2.97368719617953
30
0
41
1
10
20.756831876863
20
2.97368565913016
30
0
0
SPLINE
5
E0
100
AcDbEntity
8
1
62
256
6
ByLayer
370
18
48
1
60
0
100
AcDbSpline
70
4
71
3
72
56
73
52
40
0
40
0
40
0
40
0
40
0.0229713166894653
40
0.0229713166894653
40
0.0555541446959227
40
0.0555541446959227
40
0.0881369727023802
40
0.0881369727023802
40
0.120719800708838
40
0.120719800708838
40
0.153302628715295
40
0.153302628715295
40
0.185885456721753
40
0.185885456721753
40
0.21846828472821
40
0.21846828472821
40
0.283633940741125
40
0.283633940741125
40
0.316216768747582
40
0.316216768747582
40
0.348799596754039
40
0.348799596754039
40
0.381382424760497
40
0.381382424760497
40
0.413965252766954
40
0.413965252766954
40
0.479130908779866
40
0.479130908779866
40
0.544296564792779
40
0.544296564792779
40
0.609462220805691
40
0.609462220805691
40
0.642045048812147
40
0.642045048812147
40
0.674627876818603
40
0.674627876818603
40
0.739793532831513
40
0.739793532831513
40
0.772376360837968
40
0.772376360837968
40
0.804959188844423
40
0.804959188844423
40
0.870124844857333
40
0.870124844857333
40
0.902707672863789
40
0.902707672863789
40
0.935290500870244
40
0.935290500870244
40
0.9678733288767
40
0.9678733288767
40
1
40
1
40
1
40
1
41
1
10
18.6612896015426
20
2.98194688256848
30
0
41
1
10
18.8443762322074
20
3.00707521256646
30
0
41
1
10
19.0274899250858
20
3.02909167675702
30
0
41
1
10
19.4709569307677
20
3.07446462870936
30
0
41
1
10
19.7317374325754
20
3.09466389831908
30
0
41
1
10
20.2525090320066
20
3.1219297975301
30
0
41
1
10
20.5123079273053
20
3.12893779690245
30
0
41
1
10
21.0321139431803
20
3.12969768811746
30
0
41
1
10
21.2919304905879
20
3.12350697145496
30
0
41
1
10
21.8114116426
20
3.09789615151257
30
0
41
1
10
22.0711072588839
20
3.07842322729945
30
0
41
1
10
22.5918703205707
20
3.02669859487594
30
0
41
1
10
22.8527593433897
20
2.99435823041023
30
0
41
1
10
23.3728793260205
20
2.91706500909126
30
0
41
1
10
23.6324697315869
20
2.87206064722477
30
0
41
1
10
24.4118225816266
20
2.71984354832668
30
1E-16
41
1
10
24.9310929943503
20
2.59422276003568
30
1E-16
41
1
10
25.7128321316637
20
2.37401879276067
30
-1E-16
41
1
10
25.9730116470861
20
2.29569565282304
30
-1E-16
41
1
10
26.4926048000775
20
2.12928624466539
30
-1E-16
41
1
10
26.7521709190729
20
2.04141908517786
30
-1E-16
41
1
10
27.2716897222738
20
1.85783418965522
30
-1E-16
41
1
10
27.5315219211505
20
1.76192228245483
30
-1E-16
41
1
10
28.0515949567431
20
1.56223234498398
30
-1E-16
41
1
10
28.3124469192093
20
1.45858062593754
30
-1E-16
41
1
10
29.0919026274029
20
1.14110072860612
30
-1E-16
41
1
10
29.6077005763231
20
0.918566519635107
30
-1E-16
41
1
10
30.6373588974485
20
0.464560572854879
30
0
41
1
10
31.1505926368993
20
0.231690298102308
30
0
41
1
10
32.1792471518012
20
-0.233630706257486
30
0
41
1
10
32.6941022638166
20
-0.467371356461456
30
0
41
1
10
33.4712106173524
20
-0.810391577532272
30
0
41
1
10
33.7312480902332
20
-0.92375906112278
30
1E-16
41
1
10
34.2518999510494
20
-1.14707404679382
30
1E-16
41
1
10
34.5118879718065
20
-1.25603332780594
30
1E-16
41
1
10
35.2913399068353
20
-1.57395123231333
30
1E-16
41
1
10
35.8097680459831
20
-1.77490054692225
30
1E-16
41
1
10
36.5901401047494
20
-2.05119184725845
30
1E-16
41
1
10
36.8508243153622
20
-2.13950431049002
30
1E-16
41
1
10
37.3707740444178
20
-2.30664036112023
30
1E-16
41
1
10
37.6305844268446
20
-2.38505791938897
30
1E-16
41
1
10
38.4097524673453
20
-2.60478881263066
30
-1E-16
41
1
10
38.9283538165764
20
-2.73106554279772
30
-1E-16
41
1
10
39.7096693382065
20
-2.8842824862113
30
0
41
1
10
39.9698500563765
20
-2.92946646265878
30
0
41
1
10
40.4891625043515
20
-3.00718100276339
30
0
41
1
10
40.7488557368837
20
-3.03951055775738
30
0
41
1
10
41.2682275942464
20
-3.09138992328346
30
0
41
1
10
41.5277922794894
20
-3.11095279117745
30
0
41
1
10
42.0439957242497
20
-3.13667731509204
30
0
41
1
10
42.301177390985
20
-3.14303580710217
30
0
41
1
10
42.5574745763611
20
-3.14293071875426
30
0
0
SPLINE
5
E1
100
AcDbEntity
8
1
62
256
6
ByLayer
370
18
48
1
60
0
100
AcDbSpline
70
4
71
3
72
38
73
34
40
0
40
0
40
0
40
0
40
0.0028951118192263
40
0.0028951118192263
40
0.0607972686131295
40
0.0607972686131295
40
0.118699425407033
40
0.118699425407033
40
0.176601582200936
40
0.176601582200936
40
0.292405895788742
40
0.292405895788742
40
0.408210209376548
40
0.408210209376548
40
0.466112366170452
40
0.466112366170452
40
0.524014522964355
40
0.524014522964355
40
0.581916679758258
40
0.581916679758258
40
0.639818836552162
40
0.639818836552162
40
0.755623150139968
40
0.755623150139968
40
0.813525306933872
40
0.813525306933872
40
0.871427463727776
40
0.871427463727776
40
0.929329620521681
40
0.929329620521681
40
0.987231777315585
40
0.987231777315585
40
1
40
1
40
1
40
1
41
1
10
43.5395760332479
20
-0.27422487426162
30
0
41
1
10
43.523887398041
20
-0.267405452219151
30
0
41
1
10
43.5081984070041
20
-0.260583646731732
30
0
41
1
10
43.178721677474
20
-0.117278066805369
30
0
41
1
10
42.8649294779435
20
0.0204758543358423
30
0
41
1
10
42.2357783376204
20
0.294991745901058
30
0
41
1
10
41.9205307808646
20
0.432016947404321
30
0
41
1
10
41.2876907376367
20
0.70315112412257
30
0
41
1
10
40.9698828575278
20
0.838147737074706
30
-1E-16
41
1
10
40.0157851935121
20
1.23297000165553
30
-1E-16
41
1
10
39.3800676570163
20
1.48331336572949
30
-1E-16
41
1
10
38.1080819706904
20
1.94194952085826
30
-1E-16
41
1
10
37.4719715288778
20
2.14808068200443
30
-1E-16
41
1
10
36.5187670705477
20
2.41506255032286
30
1E-16
41
1
10
36.2005831641493
20
2.49649990782964
30
1E-16
41
1
10
35.5657523580459
20
2.6427067023325
30
1E-16
41
1
10
35.2486615041266
20
2.70740871356296
30
1E-16
41
1
10
34.6148990099325
20
2.82025415494104
30
0
41
1
10
34.2979307755662
20
2.86792187561502
30
0
41
1
10
33.6629577226247
20
2.944613405366
30
0
41
1
10
33.3445716287088
20
2.97340527477408
30
0
41
1
10
32.3923433278041
20
3.0329257234504
30
0
41
1
10
31.7593507903049
20
3.03480512166158
30
0
41
1
10
30.8065518172643
20
2.97992316234837
30
0
41
1
10
30.4884810993825
20
2.95224812630366
30
0
41
1
10
29.8523660841063
20
2.87818384380859
30
0
41
1
10
29.534239170513
20
2.83178413024632
30
0
41
1
10
28.8981886210697
20
2.72161224687687
30
1E-16
41
1
10
28.5805256420032
20
2.65809598019072
30
1E-16
41
1
10
27.9444155413636
20
2.51417081124677
30
1E-16
41
1
10
27.6269010645001
20
2.43401311728493
30
1E-16
41
1
10
27.2395662542899
20
2.32717139955486
30
-1E-16
41
1
10
27.1695961078739
20
2.30751570914941
30
-1E-16
41
1
10
27.099631288398
20
2.28751469717017
30
-1E-16
0
SPLINE
5
E2
100
AcDbEntity
8
1
62
256
6
ByLayer
370
18
48
1
60
0
100
AcDbSpline
70
4
71
3
72
10
73
6
40
0
40
0
40
0
40
0
40
0.5
40
0.5
40
1
40
1
40
1
40
1
41
1
10
53.9056946043119
20
-3.02078486191005
30
0
41
1
10
53.8956150381937
20
-3.02755976360982
30
0
41
1
10
53.8870557762914
20
-3.0304451210738
30
0
41
1
10
53.8725251303308
20
-3.02848009273359
30
0
41
1
10
53.8665864658946
20
-3.02366768324481
30
0
41
1
10
53.8615425859025
20
-3.01534525286013
30
0
0
SPLINE
5
E3
100
AcDbEntity
8
1
62
256
6
ByLayer
370
18
48
1
60
0
100
AcDbSpline
70
4
71
3
72
10
73
6
40
0
40
0
40
0
40
0
40
0.558216086374908
40
0.558216086374908
40
1
40
1
40
1
40
1
41
1
10
5.9300499884545
20
2.5392359243227
30
1E-16
41
1
10
5.90625610419977
20
2.45503631601431
30
1E-16
41
1
10
5.88119409011841
20
2.3714737214747
30
1E-16
41
1
10
5.83241048638001
20
2.22448077800533
30
1E-16
41
1
10
5.80973515345167
20
2.16030800180033
30
1E-16
41
1
10
5.78615007283264
20
2.09685954096017
30
1E-16
0
SPLINE
5
E4
100
AcDbEntity
8
1
62
256
6
ByLayer
370
18
48
1
60
0
100
AcDbSpline
70
4
71
3
72
8
73
4
40
0
40
0
40
0
40
0
40
1
40
1
40
1
40
1
41
1
10
53.4374603282604
20
-0.0095202463283783
30
0
41
1
10
53.4300520195578
20
0.138776405989944
30
0
41
1
10
53.4278037181178
20
0.286504425913762
30
0
41
1
10
53.432559958271
20
0.43367974739499
30
0
0
SPLINE
5
E5
100
AcDbEntity
8
1
62
256
6
ByLayer
370
18
48
1
60
0
100
AcDbSpline
70
4
71
3
72
8
73
4
40
0
40
0
40
0
40
0
40
1
40
1
40
1
40
1
41
1
10
53.8747431274301
20
-2.97666503485812
30
0
41
1
10
53.8703265043314
20
-2.98955805610197
30
0
41
1
10
53.865926223693
20
-3.00245143802931
30
0
41
1
10
53.8615425859025
20
-3.01534525286007
30
0
0
SPLINE
5
E6
100
AcDbEntity
8
1
62
256
6
ByLayer
370
18
48
1
60
0
100
AcDbSpline
70
4
71
3
72
30
73
26
40
0
40
0
40
0
40
0
40
0.0753693063619318
40
0.0753693063619318
40
0.150738612723864
40
0.150738612723864
40
0.301477225447724
40
0.301477225447724
40
0.376846531809654
40
0.376846531809654
40
0.452215838171584
40
0.452215838171584
40
0.527585144533514
40
0.527585144533514
40
0.602954450895444
40
0.602954450895444
40
0.678323757257374
40
0.678323757257374
40
0.753693063619304
40
0.753693063619304
40
0.904431676343167
40
0.904431676343167
40
0.979800982705099
40
0.979800982705099
40
1
40
1
40
1
40
1
41
1
10
53.4325599582709
20
0.43367974739138
30
0
41
1
10
53.1824926452802
20
0.546088054117178
30
0
41
1
10
52.9329148429727
20
0.657407918113023
30
0
41
1
10
52.4349032266568
20
0.878196659726655
30
-1E-16
41
1
10
52.1861728065168
20
0.987000945831596
30
-1E-16
41
1
10
51.4392210255794
20
1.30536056882966
30
-1E-16
41
1
10
50.9408658727251
20
1.50827309851772
30
-1E-16
41
1
10
50.1916998643339
20
1.79621445181755
30
-1E-16
41
1
10
49.9413778811503
20
1.88880655208743
30
-1E-16
41
1
10
49.4388800991271
20
2.06600180821852
30
-1E-16
41
1
10
49.1884100653002
20
2.15032924316176
30
-1E-16
41
1
10
48.6890756443546
20
2.3100555929673
30
-1E-16
41
1
10
48.4404270878454
20
2.38587759504844
30
-1E-16
41
1
10
47.9437809937112
20
2.52728307932662
30
1E-16
41
1
10
47.695688653543
20
2.59277506686928
30
1E-16
41
1
10
47.1997435518051
20
2.7133184863992
30
1E-16
41
1
10
46.9519459269621
20
2.76844106446333
30
1E-16
41
1
10
46.4566075412704
20
2.86821257832671
30
0
41
1
10
46.2092372561415
20
2.91297486686267
30
0
41
1
10
45.4654618224338
20
3.02946957280656
30
0
41
1
10
44.9675036024982
20
3.0839749596833
30
0
41
1
10
44.2176875999212
20
3.13016452855291
30
0
41
1
10
43.966431346933
20
3.13944952538844
30
0
41
1
10
43.6486414452897
20
3.14325669745969
30
0
41
1
10
43.5815215224399
20
3.14361753935305
30
0
41
1
10
43.5144496558439
20
3.14353709600616
30
0
0
SPLINE
5
E7
100
AcDbEntity
8
1
62
256
6
ByLayer
370
18
48
1
60
0
100
AcDbSpline
70
4
71
3
72
58
73
54
40
0
40
0
40
0
40
0
40
0.013874000566206
40
0.013874000566206
40
0.0478783453742673
40
0.0478783453742673
40
0.0818826901823288
40
0.0818826901823288
40
0.11588703499039
40
0.11588703499039
40
0.149891379798452
40
0.149891379798452
40
0.183895724606513
40
0.183895724606513
40
0.251904414222636
40
0.251904414222636
40
0.285908759030698
40
0.285908759030698
40
0.31991310383876
40
0.31991310383876
40
0.353917448646822
40
0.353917448646822
40
0.387921793454883
40
0.387921793454883
40
0.455930483071008
40
0.455930483071008
40
0.48993482787907
40
0.48993482787907
40
0.523939172687131
40
0.523939172687131
40
0.557943517495193
40
0.557943517495193
40
0.591947862303255
40
0.591947862303255
40
0.625952207111316
40
0.625952207111316
40
0.659956551919378
40
0.659956551919378
40
0.727965241535502
40
0.727965241535502
40
0.761969586343564
40
0.761969586343564
40
0.795973931151627
40
0.795973931151627
40
0.829978275959689
40
0.829978275959689
40
0.863982620767751
40
0.863982620767751
40
0.931991310383876
40
0.931991310383876
40
0.965995655191938
40
0.965995655191938
40
1
40
1
40
1
40
1
41
1
10
27.5986894469305
20
-2.09257228391169
30
1E-16
41
1
10
27.4969126646896
20
-2.12699981923882
30
1E-16
41
1
10
27.3950129003215
20
-2.16075897290497
30
1E-16
41
1
10
27.0427622314631
20
-2.27463220767729
30
1E-16
41
1
10
26.7909710386949
20
-2.35121948705393
30
1E-16
41
1
10
26.2891855678806
20
-2.49461936857401
30
-1E-16
41
1
10
26.0391523802221
20
-2.56136036907628
30
-1E-16
41
1
10
25.540879848288
20
-2.68500982253124
30
-1E-16
41
1
10
25.292335402055
20
-2.74148320358091
30
-1E-16
41
1
10
24.7954840112207
20
-2.8429552772219
30
0
41
1
10
24.5472741065484
20
-2.88809382873768
30
0
41
1
10
24.0513281515702
20
-2.96730638892993
30
0
41
1
10
23.8036473946138
20
-3.00139955740772
30
0
41
1
10
23.0605620991567
20
-3.08622611224811
30
0
41
1
10
22.5639084283504
20
-3.11897814375314
30
0
41
1
10
21.8157847948769
20
-3.13197700193297
30
0
41
1
10
21.5661702943785
20
-3.13023588340954
30
0
41
1
10
21.0649637780466
20
-3.11428258739147
30
0
41
1
10
20.8131586503014
20
-3.10009354727922
30
0
41
1
10
20.3122012012762
20
-3.05990045294593
30
0
41
1
10
20.0624587256982
20
-3.0338846024776
30
0
41
1
10
19.5644608289832
20
-2.97005580452532
30
0
41
1
10
19.3162871802071
20
-2.93212775327072
30
0
41
1
10
18.5717935071665
20
-2.80234427041933
30
-1E-16
41
1
10
18.0756602216923
20
-2.69480293579304
30
-1E-16
41
1
10
17.33214483565
20
-2.50140593948663
30
-1E-16
41
1
10
17.084159950373
20
-2.43183986828546
30
-1E-16
41
1
10
16.5868223976416
20
-2.2840930258298
30
1E-16
41
1
10
16.3375535483776
20
-2.20582823991413
30
1E-16
41
1
10
15.8379227850703
20
-2.04024413160201
30
1E-16
41
1
10
15.5875639844224
20
-1.95290050082988
30
1E-16
41
1
10
15.0853179083402
20
-1.76952467159663
30
1E-16
41
1
10
14.8344958787642
20
-1.67445948149552
30
1E-16
41
1
10
14.334376408523
20
-1.47973852023182
30
1E-16
41
1
10
14.0849603736307
20
-1.37969640425769
30
1E-16
41
1
10
13.5871846503244
20
-1.17476776059991
30
1E-16
41
1
10
13.3390817169529
20
-1.06932524452085
30
1E-16
41
1
10
12.5951454567584
20
-0.74830933934436
30
0
41
1
10
12.0991112990383
20
-0.529376994456811
30
0
41
1
10
11.354454548833
20
-0.19476378042242
30
0
41
1
10
11.1063380024733
20
-0.081702694612602
30
0
41
1
10
10.6085720033948
20
0.143489413624508
30
0
41
1
10
10.3589397631811
20
0.255644321533254
30
0
41
1
10
9.85826727502055
20
0.479287153402538
30
0
41
1
10
9.60669238920406
20
0.590842001198837
30
0
41
1
10
9.10457428283161
20
0.812476546203897
30
0
41
1
10
8.85419952989702
20
0.921816624751557
30
-1E-16
41
1
10
8.10325399528548
20
1.24147264492228
30
-1E-16
41
1
10
7.60316667540224
20
1.44430331184563
30
-1E-16
41
1
10
6.85439709869473
20
1.73397090655433
30
-1E-16
41
1
10
6.60483777590764
20
1.82765052675148
30
-1E-16
41
1
10
6.10382487741387
20
2.00571013161817
30
-1E-16
41
1
10
5.85252331315576
20
2.09039239024409
30
-1E-16
41
1
10
5.60020388381349
20
2.17044441052573
30
-1E-16
0
SPLINE
5
E8
100
AcDbEntity
8
1
62
256
6
ByLayer
370
18
48
1
60
0
100
AcDbSpline
70
4
71
3
72
52
73
48
40
0
40
0
40
0
40
0
40
0.062500000000002
40
0.062500000000002
40
0.125000000000004
40
0.125000000000004
40
0.156250000000005
40
0.156250000000005
40
0.187500000000006
40
0.187500000000006
40
0.218750000000007
40
0.218750000000007
40
0.234375000000005
40
0.234375000000005
40
0.250000000000003
40
0.250000000000003
40
0.281250000000004
40
0.281250000000004
40
0.312500000000005
40
0.312500000000005
40
0.375000000000005
40
0.375000000000005
40
0.437500000000004
40
0.437500000000004
40
0.500000000000004
40
0.500000000000004
40
0.562500000000003
40
0.562500000000003
40
0.625000000000003
40
0.625000000000003
40
0.656250000000003
40
0.656250000000003
40
0.687500000000002
40
0.687500000000002
40
0.718750000000002
40
0.718750000000002
40
0.750000000000002
40
0.750000000000002
40
0.781250000000002
40
0.781250000000002
40
0.812500000000002
40
0.812500000000002
40
0.875000000000001
40
0.875000000000001
40
0.937500000000001
40
0.937500000000001
40
1
40
1
40
1
40
1
41
1
10
2.84E-14
20
-3.89942097713728
30
0
41
1
10
0.0037002901061101
20
-3.88388921315726
30
0
41
1
10
0.0117978041711808
20
-3.86681987778959
30
0
41
1
10
0.0381031651017167
20
-3.82909751203056
30
0
41
1
10
0.0562141840922266
20
-3.8084362164112
30
0
41
1
10
0.0948764704897371
20
-3.7733651705048
30
0
41
1
10
0.109495759043398
20
-3.76118391620258
30
0
41
1
10
0.143498749438976
20
-3.73541877222587
30
0
41
1
10
0.163033133243772
20
-3.72170787724204
30
0
41
1
10
0.209140872372274
20
-3.69251863988737
30
0
41
1
10
0.235784538916135
20
-3.67702295464889
30
0
41
1
10
0.280741230424781
20
-3.65398111976069
30
0
41
1
10
0.29679008848214
20
-3.64623969174016
30
0
41
1
10
0.32882556847926
20
-3.63188081433941
30
0
41
1
10
0.345175883085318
20
-3.62510663676466
30
0
41
1
10
0.391263991556912
20
-3.60758494932344
30
0
41
1
10
0.41850409046063
20
-3.59940836177552
30
0
41
1
10
0.463184674479123
20
-3.58884684348936
30
0
41
1
10
0.481144710593128
20
-3.58620334381419
30
0
41
1
10
0.527228689779122
20
-3.58270197482409
30
0
41
1
10
0.546984411358409
20
-3.58612050091153
30
0
41
1
10
0.577299677464254
20
-3.59807376902737
30
0
41
1
10
0.587031939992471
20
-3.60669910116923
30
0
41
1
10
0.599836154109028
20
-3.62739307262214
30
0
41
1
10
0.602805844045633
20
-3.6395073428543
30
0
41
1
10
0.602718003560824
20
-3.66693190838706
30
0
41
1
10
0.599630227719331
20
-3.68230168076866
30
0
41
1
10
0.586352889741022
20
-3.71634381594771
30
0
41
1
10
0.576229175574184
20
-3.73508333210845
30
0
41
1
10
0.552747048389563
20
-3.7667753469174
30
0
41
1
10
0.543556641594307
20
-3.7778883413589
30
0
41
1
10
0.521241335192315
20
-3.80164786477235
30
0
41
1
10
0.508060920599121
20
-3.81437249317594
30
0
41
1
10
0.475550420086137
20
-3.84187959385449
30
0
41
1
10
0.456095840556316
20
-3.85676383093843
30
0
41
1
10
0.408672277916395
20
-3.8879990284656
30
0
41
1
10
0.379481928816631
20
-3.90494819887547
30
0
41
1
10
0.316082948829603
20
-3.93558888947075
30
0
41
1
10
0.283635984215323
20
-3.94840647499839
30
0
41
1
10
0.226370135489702
20
-3.96706305312682
30
0
41
1
10
0.201714618689863
20
-3.97308913384362
30
0
41
1
10
0.136826030554488
20
-3.98531748385338
30
0
41
1
10
0.105376250932181
20
-3.98590428567132
30
0
41
1
10
0.0559479597349934
20
-3.98059958746703
30
0
41
1
10
0.0380384084709249
20
-3.97447265083289
30
0
41
1
10
0.011751466866059
20
-3.95755050004951
30
0
41
1
10
0.0036878351973542
20
-3.94683774552692
30
0
41
1
10
0
20
-3.93425373428079
30
0
0
SPLINE
5
E9
100
AcDbEntity
8
1
62
256
6
ByLayer
370
18
48
1
60
0
100
AcDbSpline
70
4
71
3
72
8
73
4
40
0
40
0
40
0
40
0
40
1
40
1
40
1
40
1
41
1
10
54.7049971687855
20
1.02397022229062
30
0
41
1
10
54.8052085551949
20
0.741634675883375
30
0
41
1
10
54.902589583622
20
0.458286467106376
30
0
41
1
10
54.9970951771157
20
0.173909468059094
30
0
0
SPLINE
5
EA
100
AcDbEntity
8
1
62
256
6
ByLayer
370
18
48
1
60
0
100
AcDbSpline
70
4
71
3
72
12
73
8
40
0
40
0
40
0
40
0
40
0.249999999999986
40
0.249999999999986
40
0.499999999999971
40
0.499999999999971
40
1
40
1
40
1
40
1
41
1
10
3.60250698658999
20
2.34368081361455
30
1E-16
41
1
10
3.58688133409987
20
2.34366950302922
30
1E-16
41
1
10
3.5717043767807
20
2.34400247328068
30
1E-16
41
1
10
3.54564326307812
20
2.34510267243726
30
1E-16
41
1
10
3.5348717930932
20
2.34584791534178
30
1E-16
41
1
10
3.50948486695142
20
2.34827024761614
30
1E-16
41
1
10
3.50170838189644
20
2.35007282260168
30
1E-16
41
1
10
3.50170838189646
20
2.35169866169659
30
1E-16
0
SPLINE
5
EB
100
AcDbEntity
8
1
62
256
6
ByLayer
370
18
48
1
60
0
100
AcDbSpline
70
4
71
3
72
14
73
10
40
0
40
0
40
0
40
0
40
0.275444750555821
40
0.275444750555821
40
0.514562004325502
40
0.514562004325502
40
0.786473797143526
40
0.786473797143526
40
1
40
1
40
1
40
1
41
1
10
53.5120600649164
20
-0.0415081795130163
30
0
41
1
10
53.5128042682155
20
-0.0418111219293849
30
0
41
1
10
53.5135381341614
20
-0.0424823932012828
30
0
41
1
10
53.5147625321087
20
-0.0441855155871167
30
0
41
1
10
53.5152894401403
20
-0.0451814730049023
30
0
41
1
10
53.5162512678524
20
-0.0475851518846468
30
0
41
1
10
53.5166791424981
20
-0.0490685913368623
30
0
41
1
10
53.5172059915721
20
-0.051884824224345
30
0
41
1
10
53.5173609454154
20
-0.0532152841642528
30
0
41
1
10
53.5174093525603
20
-0.0545400005909471
30
0
0
SPLINE
5
EC
100
AcDbEntity
8
1
62
256
6
ByLayer
370
18
48
1
60
0
100
AcDbSpline
70
4
71
3
72
8
73
4
40
0
40
0
40
0
40
0
40
1
40
1
40
1
40
1
41
1
10
12.4612104584934
20
2.92568848732463
30
0
41
1
10
12.4914691088624
20
2.92356321411049
30
0
41
1
10
12.5217313918487
20
2.92135376431608
30
0
41
1
10
12.5519976999947
20
2.91906016741586
30
0
0
SPLINE
5
ED
100
AcDbEntity
8
1
62
256
6
ByLayer
370
18
48
1
60
0
100
AcDbSpline
70
4
71
3
72
22
73
18
40
0
40
0
40
0
40
0
40
0.0666157139478015
40
0.0666157139478015
40
0.205110298955808
40
0.205110298955808
40
0.343604883963815
40
0.343604883963815
40
0.41285217646782
40
0.41285217646782
40
0.482099468971825
40
0.482099468971825
40
0.620594053979834
40
0.620594053979834
40
0.89758322399585
40
0.89758322399585
40
1
40
1
40
1
40
1
41
1
10
21.7128368758652
20
0.202249714839269
30
0
41
1
10
21.9648441580575
20
0.0942672067837123
30
0
41
1
10
22.2162865218421
20
-0.0138946600857253
30
0
41
1
10
22.9896190542093
20
-0.345436255849336
30
0
41
1
10
23.5100884012442
20
-0.568126735981394
30
0
41
1
10
24.5525946454612
20
-0.999962750083796
30
1E-16
41
1
10
25.0742994171157
20
-1.20966281099209
30
1E-16
41
1
10
25.8607496179993
20
-1.50764356515572
30
1E-16
41
1
10
26.1235495490008
20
-1.6041924789119
30
1E-16
41
1
10
26.6509574063389
20
-1.79055242922868
30
1E-16
41
1
10
26.9152373428612
20
-1.88023719948481
30
1E-16
41
1
10
27.7064614859469
20
-2.13596424805675
30
1E-16
41
1
10
28.2336045090786
20
-2.28914878858484
30
-1E-16
41
1
10
29.8175417637863
20
-2.68634450293388
30
-1E-16
41
1
10
30.8577522501795
20
-2.86169712192762
30
0
41
1
10
32.2842256286443
20
-2.96529976611634
30
0
41
1
10
32.6693318397591
20
-2.97940147880499
30
0
41
1
10
33.0553833371179
20
-2.97971811808549
30
0
0
SPLINE
5
EE
100
AcDbEntity
8
1
62
256
6
ByLayer
370
18
48
1
60
0
100
AcDbSpline
70
4
71
3
72
20
73
16
40
0
40
0
40
0
40
0
40
0.102090534710748
40
0.102090534710748
40
0.251742112258956
40
0.251742112258956
40
0.401393689807165
40
0.401393689807165
40
0.551045267355374
40
0.551045267355374
40
0.700696844903583
40
0.700696844903583
40
0.850348422451791
40
0.850348422451791
40
1
40
1
40
1
40
1
41
1
10
53.7201535150648
20
0.459023226514773
30
0
41
1
10
53.7094847800803
20
0.470777814894433
30
0
41
1
10
53.7014263630574
20
0.483423186200923
30
0
41
1
10
53.6886824541947
20
0.516633242811167
30
0
41
1
10
53.6869932614021
20
0.538550817864348
30
0
41
1
10
53.6958517353223
20
0.586852974772825
30
0
41
1
10
53.7061395494721
20
0.612587847902262
30
0
41
1
10
53.7388890376558
20
0.667409950096527
30
0
41
1
10
53.7612686444504
20
0.696303529826025
30
0
41
1
10
53.8164195638253
20
0.753437233604387
30
0
41
1
10
53.8502338053625
20
0.782361516608034
30
0
41
1
10
53.926688025103
20
0.833414651236495
30
0
41
1
10
53.9705664182588
20
0.856166226240447
30
0
41
1
10
54.063654245981
20
0.89170765852208
30
0
41
1
10
54.1130139572736
20
0.904715073148623
30
0
41
1
10
54.1636334503206
20
0.912636551383059
30
0
0
SPLINE
5
EF
100
AcDbEntity
8
1
62
256
6
ByLayer
370
18
48
1
60
0
100
AcDbSpline
70
4
71
3
72
22
73
18
40
0
40
0
40
0
40
0
40
0.290528817909202
40
0.290528817909202
40
0.435793226863805
40
0.435793226863805
40
0.581057635818409
40
0.581057635818409
40
0.726322044773012
40
0.726322044773012
40
0.798954249250315
40
0.798954249250315
40
0.871586453727618
40
0.871586453727618
40
0.944218658204922
40
0.944218658204922
40
1
40
1
40
1
40
1
41
1
10
5.60017368286623
20
2.17045417452184
30
-1E-16
41
1
10
5.21969907364172
20
2.29346195992957
30
-1E-16
41
1
10
4.84614469422957
20
2.41309907889303
30
1E-16
41
1
10
4.29939402041788
20
2.58346776496518
30
1E-16
41
1
10
4.11942683038359
20
2.63872456099193
30
1E-16
41
1
10
3.76509037407573
20
2.74503885504632
30
1E-16
41
1
10
3.59070078244204
20
2.79611483548732
30
1E-16
41
1
10
3.24929754387239
20
2.89224742690934
30
0
41
1
10
3.08221889215011
20
2.93736255072813
30
0
41
1
10
2.83985988536827
20
2.99788685367125
30
0
41
1
10
2.76079641181656
20
3.01675854229274
30
0
41
1
10
2.60938080858364
20
3.05063030169094
30
0
41
1
10
2.53670207380361
20
3.06571787066193
30
0
41
1
10
2.39916613324689
20
3.09107830210343
30
0
41
1
10
2.33394826433906
20
3.10138793115937
30
0
41
1
10
2.2306907554173
20
3.11348247804645
30
0
41
1
10
2.1896717744855
20
3.11674349796851
30
0
41
1
10
2.15347725345563
20
3.11750547538722
30
0
0
SPLINE
5
F0
100
AcDbEntity
8
1
62
256
6
ByLayer
370
18
48
1
60
0
100
AcDbSpline
70
4
71
3
72
8
73
4
40
0
40
0
40
0
40
0
40
1
40
1
40
1
40
1
41
1
10
5.11142626620901
20
2.32295445666713
30
-1E-16
41
1
10
5.38716077894856
20
2.39516158985634
30
0
41
1
10
5.65998880374178
20
2.46828627837067
30
1E-16
41
1
10
5.93004900306562
20
2.5392355893778
30
1E-16
0
SPLINE
5
F1
100
AcDbEntity
8
1
62
256
6
ByLayer
370
18
48
1
60
0
100
AcDbSpline
70
4
71
3
72
28
73
24
40
0
40
0
40
0
40
0
40
0.125000000000001
40
0.125000000000001
40
0.187500000000002
40
0.187500000000002
40
0.250000000000002
40
0.250000000000002
40
0.375000000000003
40
0.375000000000003
40
0.437500000000004
40
0.437500000000004
40
0.500000000000004
40
0.500000000000004
40
0.625000000000003
40
0.625000000000003
40
0.687500000000002
40
0.687500000000002
40
0.750000000000002
40
0.750000000000002
40
0.875000000000001
40
0.875000000000001
40
1
40
1
40
1
40
1
41
1
10
53.5174093525604
20
-0.0545400005970862
30
0
41
1
10
53.5239510095755
20
-0.233559865016133
30
0
41
1
10
53.5378678095496
20
-0.40899523903218
30
0
41
1
10
53.5645780146917
20
-0.667492916723319
30
0
41
1
10
53.5744739961833
20
-0.752876095914473
30
0
41
1
10
53.595564301621
20
-0.92212384158745
30
1E-16
41
1
10
53.6068153995434
20
-1.00638397566908
30
1E-16
41
1
10
53.6411515846234
20
-1.25364066219245
30
1E-16
41
1
10
53.6646613089936
20
-1.41070310815593
30
1E-16
41
1
10
53.6980088636601
20
-1.63524854535311
30
1E-16
41
1
10
53.708820124203
20
-1.70824163811525
30
1E-16
41
1
10
53.7295162982244
20
-1.85045570964414
30
1E-16
41
1
10
53.7394261873143
20
-1.91987624275833
30
1E-16
41
1
10
53.7669219369398
20
-2.11842031086187
30
1E-16
41
1
10
53.7824133130978
20
-2.23917986972487
30
-1E-16
41
1
10
53.8017083254467
20
-2.40308718125377
30
-1E-16
41
1
10
53.80749612754
20
-2.45483355082129
30
-1E-16
41
1
10
53.8180072708972
20
-2.55236259684636
30
-1E-16
41
1
10
53.8227217859691
20
-2.59807289712489
30
-1E-16
41
1
10
53.8355713893274
20
-2.72342657170955
30
-1E-16
41
1
10
53.8424810401427
20
-2.79242288345844
30
-1E-16
41
1
10
53.857511999879
20
-2.90144445518814
30
0
41
1
10
53.8656957194865
20
-2.94148993804643
30
0
41
1
10
53.8773395053537
20
-2.96547115930417
30
0
0
SPLINE
5
F2
100
AcDbEntity
8
1
62
256
6
ByLayer
370
18
48
1
60
0
100
AcDbSpline
70
4
71
3
72
30
73
26
40
0
40
0
40
0
40
0
40
0.0624999999999998
40
0.0624999999999998
40
0.125
40
0.125
40
0.25
40
0.25
40
0.3125
40
0.3125
40
0.375
40
0.375
40
0.4375
40
0.4375
40
0.5
40
0.5
40
0.625
40
0.625
40
0.6875
40
0.6875
40
0.75
40
0.75
40
0.875
40
0.875
40
1
40
1
40
1
40
1
41
1
10
3.60250698658999
20
2.32964501820794
30
1E-16
41
1
10
3.60250052893463
20
2.27732275033074
30
1E-16
41
1
10
3.60249326704127
20
2.22228574117591
30
1E-16
41
1
10
3.60247731040317
20
2.10680925835828
30
-1E-16
41
1
10
3.60246859075866
20
2.04621165546263
30
-1E-16
41
1
10
3.6024408446838
20
1.85866019732688
30
-1E-16
41
1
10
3.60242018041964
20
1.72540301090862
30
-1E-16
41
1
10
3.60238662263089
20
1.51342938012047
30
-1E-16
41
1
10
3.60237500349754
20
1.44074599405647
30
-1E-16
41
1
10
3.60235094103518
20
1.29123627757747
30
-1E-16
41
1
10
3.6023384667526
20
1.21422208329338
30
-1E-16
41
1
10
3.60231308277801
20
1.05828195354749
30
-1E-16
41
1
10
3.60230013342414
20
0.979107687862609
30
-1E-16
41
1
10
3.60227371704565
20
0.818357326418578
30
-1E-16
41
1
10
3.60226020527722
20
0.736511878778373
30
0
41
1
10
3.60221914673977
20
0.489264084948843
30
0
41
1
10
3.60219130189247
20
0.32340235848099
30
0
41
1
10
3.60214835314051
20
0.0731167169469416
30
0
41
1
10
3.60213383590431
20
-0.0105620572198859
30
0
41
1
10
3.60210426726968
20
-0.178427866069029
30
0
41
1
10
3.60208914790408
20
-0.262986481640354
30
0
41
1
10
3.60204324442117
20
-0.514629113232587
30
0
41
1
10
3.6020121386087
20
-0.678570747737751
30
0
41
1
10
3.60194757456139
20
-0.99905912905524
30
1E-16
41
1
10
3.6019140059287
20
-1.15610877393451
30
1E-16
41
1
10
3.60187866861202
20
-1.30812663161453
30
1E-16
0
SPLINE
5
F3
100
AcDbEntity
8
1
62
256
6
ByLayer
370
18
48
1
60
0
100
AcDbSpline
70
4
71
3
72
8
73
4
40
0
40
0
40
0
40
0
40
1
40
1
40
1
40
1
41
1
10
3.6417307379532
20
2.33873168944913
30
1E-16
41
1
10
3.62929680835157
20
2.3420269975324
30
1E-16
41
1
10
3.61607435477464
20
2.34369063431652
30
1E-16
41
1
10
3.60250698658999
20
2.34368081361455
30
1E-16
0
SPLINE
5
F4
100
AcDbEntity
8
1
62
256
6
ByLayer
370
18
48
1
60
0
100
AcDbSpline
70
4
71
3
72
22
73
18
40
0
40
0
40
0
40
0
40
0.248911028494393
40
0.248911028494393
40
0.37336654274159
40
0.37336654274159
40
0.497822056988787
40
0.497822056988787
40
0.622277571235984
40
0.622277571235984
40
0.746733085483181
40
0.746733085483181
40
0.871188599730378
40
0.871188599730378
40
0.995644113977575
40
0.995644113977575
40
1
40
1
40
1
40
1
41
1
10
3.64173073795308
20
2.33873168944913
30
1E-16
41
1
10
4.1645173336635
20
2.20099594940251
30
-1E-16
41
1
10
4.68488662686661
20
2.04273002327693
30
-1E-16
41
1
10
5.46439313858713
20
1.78246153506711
30
-1E-16
41
1
10
5.72404519440698
20
1.69187205315077
30
-1E-16
41
1
10
6.24313843614053
20
1.50395117255269
30
-1E-16
41
1
10
6.50241958927583
20
1.40650340282951
30
-1E-16
41
1
10
7.02155685891432
20
1.20595219677529
30
-1E-16
41
1
10
7.28157670477867
20
1.10294766160717
30
-1E-16
41
1
10
7.80239223849489
20
0.892068748337465
30
-1E-16
41
1
10
8.06316499605035
20
0.784178164505875
30
0
41
1
10
8.58647350695418
20
0.56516808488891
30
0
41
1
10
8.84884519773215
20
0.454159682152351
30
0
41
1
10
9.37065963175857
20
0.231353861135546
30
0
41
1
10
9.6307040875063
20
0.119240793158355
30
0
41
1
10
9.89937100018352
20
0.0036671641298938
30
0
41
1
10
9.90845569823944
20
-0.0002404298218437
30
0
41
1
10
9.91753985797493
20
-0.0041473796716502
30
0
0
SPLINE
5
F5
100
AcDbEntity
8
1
62
256
6
ByLayer
370
18
48
1
60
0
100
AcDbSpline
70
4
71
3
72
28
73
24
40
0
40
0
40
0
40
0
40
0.0217392602399493
40
0.0217392602399493
40
0.092320842394038
40
0.092320842394038
40
0.162902424548127
40
0.162902424548127
40
0.304065588856303
40
0.304065588856303
40
0.374647171010392
40
0.374647171010392
40
0.445228753164481
40
0.445228753164481
40
0.586391917472658
40
0.586391917472658
40
0.727555081780835
40
0.727555081780835
40
0.868718246089012
40
0.868718246089012
40
0.939299828243102
40
0.939299828243102
40
1
40
1
40
1
40
1
41
1
10
42.3727398534222
20
2.99311570049693
30
0
41
1
10
42.4525335688997
20
2.9939173141797
30
0
41
1
10
42.5322833791309
20
2.99414054398821
30
0
41
1
10
42.8707776217941
20
2.99275285916994
30
0
41
1
10
43.1290217700564
20
2.98624226889373
30
0
41
1
10
43.645341156233
20
2.96060391811784
30
0
41
1
10
43.9036257866988
20
2.94084417268971
30
0
41
1
10
44.6793907243421
20
2.86239991430244
30
0
41
1
10
45.1977319639399
20
2.78501921010692
30
1E-16
41
1
10
45.9779081058127
20
2.63605359592381
30
1E-16
41
1
10
46.2383325602672
20
2.58103536473567
30
1E-16
41
1
10
46.7613424532476
20
2.45932038219533
30
1E-16
41
1
10
47.0229315620003
20
2.39268973496763
30
1E-16
41
1
10
47.8041097645325
20
2.17881794640687
30
-1E-16
41
1
10
48.322025417524
20
2.01741841179307
30
-1E-16
41
1
10
49.3556834133592
20
1.66451139003706
30
-1E-16
41
1
10
49.8713252689217
20
1.47306582621863
30
-1E-16
41
1
10
50.9049396501459
20
1.06772471799124
30
-1E-16
41
1
10
51.4227199336817
20
0.853954440940498
30
-1E-16
41
1
10
52.2043169436067
20
0.523484698202708
30
0
41
1
10
52.4658681543503
20
0.411461952291973
30
0
41
1
10
52.9525685035562
20
0.201517068871226
30
0
41
1
10
53.1774255965853
20
0.103945768361143
30
0
41
1
10
53.4022590464697
20
0.0062257792364164
30
0
0
SPLINE
5
F6
100
AcDbEntity
8
1
62
256
6
ByLayer
370
18
48
1
60
0
100
AcDbSpline
70
4
71
3
72
24
73
20
40
0
40
0
40
0
40
0
40
0.0787401632728503
40
0.0787401632728503
40
0.157480326545701
40
0.157480326545701
40
0.314960653091402
40
0.314960653091402
40
0.472440979637103
40
0.472440979637103
40
0.629921306182804
40
0.629921306182804
40
0.708661469455653
40
0.708661469455653
40
0.787401632728501
40
0.787401632728501
40
0.944881959274202
40
0.944881959274202
40
1
40
1
40
1
40
1
41
1
10
53.8747431274302
20
-2.97666503485814
30
0
41
1
10
53.6110779864335
20
-2.9612816899313
30
0
41
1
10
53.3474993840244
20
-2.94010421166359
30
0
41
1
10
52.8201010246563
20
-2.8842364597225
30
0
41
1
10
52.5558952148907
20
-2.84984890256084
30
0
41
1
10
51.7664566519612
20
-2.72879720273625
30
-1E-16
41
1
10
51.2436017132979
20
-2.62427121224925
30
-1E-16
41
1
10
50.2006627407228
20
-2.37350717154715
30
-1E-16
41
1
10
49.6805939019303
20
-2.22715833847008
30
1E-16
41
1
10
48.6389975212447
20
-1.89911581770903
30
1E-16
41
1
10
48.1175108355564
20
-1.71734581077308
30
1E-16
41
1
10
47.3313112584086
20
-1.42364989967584
30
1E-16
41
1
10
47.0685421880341
20
-1.32224477594622
30
1E-16
41
1
10
46.54112416234
20
-1.11336245146683
30
1E-16
41
1
10
46.2775420121514
20
-1.00628560678064
30
1E-16
41
1
10
45.4902629496186
20
-0.680717123414325
30
0
41
1
10
44.9683952416036
20
-0.457301103890387
30
0
41
1
10
44.2650561502736
20
-0.153884446635459
30
0
41
1
10
44.0828296168657
20
-0.0750262206396144
30
0
41
1
10
43.9006345414594
20
0.0038149766247386
30
0
0
SPLINE
5
F7
100
AcDbEntity
8
1
62
256
6
ByLayer
370
18
48
1
60
0
100
AcDbSpline
70
4
71
3
72
16
73
12
40
0
40
0
40
0
40
0
40
0.195089767332532
40
0.195089767332532
40
0.295703546415967
40
0.295703546415967
40
0.396317325499401
40
0.396317325499401
40
0.597544883666267
40
0.597544883666267
40
1
40
1
40
1
40
1
41
1
10
11.4184078783917
20
-2.97535149004241
30
0
41
1
10
10.913156973526
20
-2.97926359744579
30
0
41
1
10
10.4076635308944
20
-2.95948404845191
30
0
41
1
10
9.63830951412348
20
-2.89336349720239
30
0
41
1
10
9.37597925243057
20
-2.86456422464465
30
0
41
1
10
8.84969215735197
20
-2.79449599783902
30
-1E-16
41
1
10
8.58512902608365
20
-2.7531114266115
30
-1E-16
41
1
10
7.79383819705089
20
-2.61160213208396
30
-1E-16
41
1
10
7.26925256263172
20
-2.49418567086602
30
-1E-16
41
1
10
5.69827109234819
20
-2.08228750106773
30
1E-16
41
1
10
4.65474141683467
20
-1.72758234239009
30
1E-16
41
1
10
3.59791957309605
20
-1.32077713506402
30
1E-16
0
SPLINE
5
F8
100
AcDbEntity
8
1
62
256
6
ByLayer
370
18
48
1
60
0
100
AcDbSpline
70
2053
71
3
72
54
73
50
40
0
40
0
40
0
40
0
40
0.0624999999999961
40
0.0624999999999961
40
0.124999999999992
40
0.124999999999992
40
0.187499999999988
40
0.187499999999988
40
0.218749999999988
40
0.218749999999988
40
0.249999999999987
40
0.249999999999987
40
0.281249999999987
40
0.281249999999987
40
0.312499999999986
40
0.312499999999986
40
0.343749999999985
40
0.343749999999985
40
0.374999999999985
40
0.374999999999985
40
0.406249999999984
40
0.406249999999984
40
0.437499999999983
40
0.437499999999983
40
0.499999999999986
40
0.499999999999986
40
0.562499999999988
40
0.562499999999988
40
0.624999999999991
40
0.624999999999991
40
0.656249999999992
40
0.656249999999992
40
0.687499999999993
40
0.687499999999993
40
0.749999999999992
40
0.749999999999992
40
0.781249999999992
40
0.781249999999992
40
0.812499999999991
40
0.812499999999991
40
0.843749999999991
40
0.843749999999991
40
0.87499999999999
40
0.87499999999999
40
0.937499999999993
40
0.937499999999993
40
0.968749999999996
40
0.968749999999996
40
1
40
1
40
1
40
1
41
1
10
54.1612611276016
20
-1.45536753544902
30
0
41
1
10
54.1364476701644
20
-1.49108324278541
30
1E-16
41
1
10
54.113262524478
20
-1.51606283444113
30
1E-16
41
1
10
54.0693053377159
20
-1.54481317671866
30
1E-16
41
1
10
54.0495999603693
20
-1.5478139705458
30
1E-16
41
1
10
54.0136852139243
20
-1.53038009300735
30
1E-16
41
1
10
53.998269470453
20
-1.51032019793888
30
1E-16
41
1
10
53.9784949401534
20
-1.46266460029173
30
1E-16
41
1
10
53.9726517709006
20
-1.4442371207368
30
1E-16
41
1
10
53.9623805912803
20
-1.4022822324215
30
1E-16
41
1
10
53.9579180416892
20
-1.37851064051023
30
1E-16
41
1
10
53.950740299297
20
-1.32639914119056
30
1E-16
41
1
10
53.9480626543829
20
-1.29850128551291
30
1E-16
41
1
10
53.9446867805062
20
-1.23892284012135
30
1E-16
41
1
10
53.9440041194416
20
-1.20676236993802
30
1E-16
41
1
10
53.9450817106045
20
-1.14114753731414
30
1E-16
41
1
10
53.9467999804721
20
-1.10763989702471
30
1E-16
41
1
10
53.9530043169494
20
-1.03916960011443
30
1E-16
41
1
10
53.9575147539741
20
-1.00447296911608
30
1E-16
41
1
10
53.9691868890644
20
-0.93756902407759
30
1E-16
41
1
10
53.9765087026783
20
-0.904465689100931
30
1E-16
41
1
10
53.9936307593677
20
-0.842188455544004
30
1E-16
41
1
10
54.003351809841
20
-0.813102762509374
30
0
41
1
10
54.0360183800018
20
-0.731703561279005
30
0
41
1
10
54.0617476467732
20
-0.687506020785179
30
0
41
1
10
54.1160397182245
20
-0.621570032764339
30
0
41
1
10
54.1447644007212
20
-0.599503197355517
30
0
41
1
10
54.2004901221057
20
-0.576564769468462
30
0
41
1
10
54.228039147494
20
-0.575485459221738
30
0
41
1
10
54.2651639377575
20
-0.589093340066114
30
0
41
1
10
54.276900668783
20
-0.596133390509948
30
0
41
1
10
54.2988509617265
20
-0.615571457359493
30
0
41
1
10
54.3090352774091
20
-0.628026664911346
30
0
41
1
10
54.3357211224149
20
-0.672800745338208
30
0
41
1
10
54.3489704061514
20
-0.713805508855302
30
0
41
1
10
54.3580881902718
20
-0.78948862263897
30
0
41
1
10
54.3593841734367
20
-0.817569264112194
30
1E-16
41
1
10
54.3581067833068
20
-0.876766795617897
30
1E-16
41
1
10
54.3556026121299
20
-0.907826271079671
30
-1E-16
41
1
10
54.3468615111792
20
-0.973061186781791
30
-1E-16
41
1
10
54.3406458979373
20
-1.00676223552179
30
0
41
1
10
54.3254002895645
20
-1.0735930635222
30
0
41
1
10
54.3161802347152
20
-1.10751705777588
30
0
41
1
10
54.2858241326331
20
-1.20537030792883
30
0
41
1
10
54.261588390055
20
-1.26707924214207
30
0
41
1
10
54.2242293307598
20
-1.3472667114597
30
0
41
1
10
54.2114222196937
20
-1.3723157550186
30
0
41
1
10
54.1862080533649
20
-1.41729434373522
30
0
41
1
10
54.1736678563202
20
-1.43750968178082
30
0
41
1
10
54.1612611276016
20
-1.45536753544902
30
0
0
SPLINE
5
F9
100
AcDbEntity
8
1
62
256
6
ByLayer
370
18
48
1
60
0
100
AcDbSpline
70
4
71
3
72
34
73
30
40
0
40
0
40
0
40
0
40
0.336208436234453
40
0.336208436234453
40
0.562653632492698
40
0.562653632492698
40
0.712088971488523
40
0.712088971488523
40
0.810793345468893
40
0.810793345468893
40
0.876026120477142
40
0.876026120477142
40
0.919085330875988
40
0.919085330875988
40
0.947516561540789
40
0.947516561540789
40
0.966451884597085
40
0.966451884597085
40
0.979060711623394
40
0.979060711623394
40
0.987155109313876
40
0.987155109313876
40
0.992334603366609
40
0.992334603366609
40
0.995604710517597
40
0.995604710517597
40
0.998905039604475
40
0.998905039604475
40
1
40
1
40
1
40
1
41
1
10
53.7123568976322
20
3.14959469167888
30
0
41
1
10
53.7334563565148
20
3.13570503114542
30
0
41
1
10
53.7545751448559
20
3.12174564931328
30
0
41
1
10
53.7899368792154
20
3.09828010264587
30
0
41
1
10
53.8041738624621
20
3.08880778885055
30
0
41
1
10
53.8278107009177
20
3.0730409239043
30
0
41
1
10
53.8372090321089
20
3.06676116682078
30
0
41
1
10
53.8528159497767
20
3.05631543660047
30
0
41
1
10
53.8590241315918
20
3.05215568838869
30
0
41
1
10
53.8693356927805
20
3.04523885867891
30
0
41
1
10
53.8734397182271
20
3.04248390399809
30
0
41
1
10
53.880266269357
20
3.03789789192487
30
0
41
1
10
53.8829857203572
20
3.03607006704922
30
0
41
1
10
53.8875036407399
20
3.0330320440674
30
0
41
1
10
53.8892996105733
20
3.03182402333326
30
0
41
1
10
53.8922754098343
20
3.02982191324759
30
0
41
1
10
53.8934571181494
20
3.02902674672782
30
0
41
1
10
53.8954269202275
20
3.02770095274971
30
0
41
1
10
53.8962183049781
20
3.02716819939869
30
0
41
1
10
53.8975347830807
20
3.02628176700526
30
0
41
1
10
53.8980541995252
20
3.02593197771844
30
0
41
1
10
53.8989107955448
20
3.02535506731545
30
0
41
1
10
53.8992457879677
20
3.02512944222286
30
0
41
1
10
53.8997858082785
20
3.02476573294109
30
0
41
1
10
53.8999935830097
20
3.02462579587043
30
0
41
1
10
53.9003993927883
20
3.02435249748532
30
0
41
1
10
53.9006031939198
20
3.02421525347191
30
0
41
1
10
53.900831928378
20
3.02406126204465
30
0
41
1
10
53.9008853256842
20
3.02402531529717
30
0
41
1
10
53.9009313905181
20
3.02399431455015
30
0
0
SPLINE
5
FA
100
AcDbEntity
8
1
62
256
6
ByLayer
370
18
48
1
60
0
100
AcDbSpline
70
4
71
3
72
10
73
6
40
0
40
0
40
0
40
0
40
0.5
40
0.5
40
1
40
1
40
1
40
1
41
1
10
3.56220144255934
20
-1.29799253261925
30
1E-16
41
1
10
3.54131969531744
20
-1.29469614451307
30
1E-16
41
1
10
3.52623901674451
20
-1.2893130590802
30
1E-16
41
1
10
3.50648289406703
20
-1.27721443801167
30
1E-16
41
1
10
3.50170838189655
20
-1.2703729022528
30
1E-16
41
1
10
3.50170838189649
20
-1.26354935783402
30
1E-16
0
SPLINE
5
FB
100
AcDbEntity
8
1
62
256
6
ByLayer
370
18
48
1
60
0
100
AcDbSpline
70
4
71
3
72
12
73
8
40
0
40
0
40
0
40
0
40
0.511999370871845
40
0.511999370871845
40
0.767999056307766
40
0.767999056307766
40
1
40
1
40
1
40
1
41
1
10
5.93004998845498
20
-2.53923592432449
30
-1E-16
41
1
10
6.66844172420684
20
-2.7327882710695
30
-1E-16
41
1
10
7.39942109754338
20
-2.88139805011798
30
0
41
1
10
8.49420126309408
20
-3.02919886438292
30
0
41
1
10
8.85912146841633
20
-3.06585184026534
30
0
41
1
10
9.55531832120977
20
-3.1113909673812
30
0
41
1
10
9.8865941102292
20
-3.12247170632594
30
0
41
1
10
10.2189321469768
20
-3.12272631924867
30
0
0
SPLINE
5
FC
100
AcDbEntity
8
1
62
256
6
ByLayer
370
18
48
1
60
0
100
AcDbSpline
70
4
71
3
72
38
73
34
40
0
40
0
40
0
40
0
40
0.125
40
0.125
40
0.1875
40
0.1875
40
0.250000000000001
40
0.250000000000001
40
0.281250000000001
40
0.281250000000001
40
0.312500000000001
40
0.312500000000001
40
0.375000000000001
40
0.375000000000001
40
0.437500000000001
40
0.437500000000001
40
0.500000000000001
40
0.500000000000001
40
0.562500000000001
40
0.562500000000001
40
0.593750000000001
40
0.593750000000001
40
0.625000000000001
40
0.625000000000001
40
0.750000000000001
40
0.750000000000001
40
0.875
40
0.875
40
0.90625
40
0.90625
40
0.9375
40
0.9375
40
1
40
1
40
1
40
1
41
1
10
5.93004998845498
20
2.53923592432449
30
1E-16
41
1
10
6.66844172420682
20
2.7327882710695
30
1E-16
41
1
10
7.39942109754338
20
2.88139805011798
30
0
41
1
10
8.49420126309411
20
3.02919886438292
30
0
41
1
10
8.85912146841633
20
3.06585184026534
30
0
41
1
10
9.58955567148291
20
3.11363047627864
30
0
41
1
10
9.95513322421041
20
3.1246510508773
30
0
41
1
10
10.5055843751585
20
3.12136075228423
30
0
41
1
10
10.6894519158484
20
3.11697840254055
30
0
41
1
10
11.0579263151027
20
3.10157358050486
30
0
41
1
10
11.2426139029482
20
3.09052957743216
30
0
41
1
10
11.7945864888714
20
3.04770206258593
30
0
41
1
10
12.1608468610431
20
3.00609364256067
30
0
41
1
10
12.8922748010595
20
2.89866127967827
30
0
41
1
10
13.2571884602919
20
2.83269611211728
30
0
41
1
10
13.9868279719935
20
2.67761772291595
30
1E-16
41
1
10
14.3514705158043
20
2.58836803766792
30
1E-16
41
1
10
15.0827134603669
20
2.38923286814577
30
-1E-16
41
1
10
15.4489814846429
20
2.27892025253951
30
-1E-16
41
1
10
16.00062612976
20
2.09890453695147
30
-1E-16
41
1
10
16.1851338431727
20
2.03628126755197
30
-1E-16
41
1
10
16.5535362028148
20
1.90707322343158
30
-1E-16
41
1
10
16.737351490076
20
1.84070308563346
30
-1E-16
41
1
10
17.6544767194048
20
1.50008176970908
30
-1E-16
41
1
10
18.3817431568524
20
1.19901555546713
30
-1E-16
41
1
10
19.8370832535985
20
0.568885853943357
30
0
41
1
10
20.5644137062065
20
0.238210253812326
30
0
41
1
10
21.4815053203229
20
-0.176037542701465
30
0
41
1
10
21.6652772080012
20
-0.25903018644226
30
0
41
1
10
22.0337667450674
20
-0.424756566618044
30
0
41
1
10
22.2182146085786
20
-0.507339851242961
30
0
41
1
10
22.7692590921217
20
-0.752625791750688
30
0
41
1
10
23.1351446330522
20
-0.912397556209527
30
1E-16
41
1
10
23.4999999999908
20
-1.06758420219805
30
1E-16
0
SPLINE
5
FD
100
AcDbEntity
8
1
62
256
6
ByLayer
370
18
48
1
60
0
100
AcDbSpline
70
4
71
3
72
8
73
4
40
0
40
0
40
0
40
0
40
1
40
1
40
1
40
1
41
1
10
3.64336952672034
20
2.45352958206769
30
1E-16
41
1
10
3.6428297940526
20
2.41526911828799
30
1E-16
41
1
10
3.64228351222664
20
2.37700324387214
30
1E-16
41
1
10
3.6417307379532
20
2.33873168944913
30
1E-16
0
SPLINE
5
FE
100
AcDbEntity
8
1
62
256
6
ByLayer
370
18
48
1
60
0
100
AcDbSpline
70
4
71
3
72
20
73
16
40
0
40
0
40
0
40
0
40
0.249999999999995
40
0.249999999999995
40
0.374999999999997
40
0.374999999999997
40
0.437499999999997
40
0.437499999999997
40
0.499999999999998
40
0.499999999999998
40
0.624999999999998
40
0.624999999999998
40
0.749999999999999
40
0.749999999999999
40
1
40
1
40
1
40
1
41
1
10
53.9056946043119
20
-3.02078486191005
30
0
41
1
10
53.966475753371
20
-2.84990972515709
30
0
41
1
10
54.0264385299326
20
-2.67806396291363
30
0
41
1
10
54.1162547547106
20
-2.41941083987231
30
0
41
1
10
54.1461157327732
20
-2.33319462457439
30
0
41
1
10
54.1909049154717
20
-2.20390995996581
30
0
41
1
10
54.205775877753
20
-2.16079186738185
30
0
41
1
10
54.2359319921975
20
-2.0747789049158
30
0
41
1
10
54.2512112415112
20
-2.03188002770904
30
0
41
1
10
54.2978444648484
20
-1.90358085866694
30
0
41
1
10
54.3299877266335
20
-1.81857479625631
30
0
41
1
10
54.3973194423969
20
-1.64996896899316
30
0
41
1
10
54.432734720567
20
-1.5658168273327
30
0
41
1
10
54.5428044525187
20
-1.32010109035798
30
0
41
1
10
54.6207826995506
20
-1.16684583253823
30
0
41
1
10
54.704997168786
20
-1.02397022228996
30
0
0
SPLINE
5
FF
100
AcDbEntity
8
1
62
256
6
ByLayer
370
18
48
1
60
0
100
AcDbSpline
70
4
71
3
72
10
73
6
40
0
40
0
40
0
40
0
40
0.5
40
0.5
40
1
40
1
40
1
40
1
41
1
10
3.50170838189649
20
2.39630046842794
30
1E-16
41
1
10
3.50170838189646
20
2.4178395802127
30
1E-16
41
1
10
3.51940490590215
20
2.43804915214929
30
1E-16
41
1
10
3.57593297826077
20
2.46054960950079
30
1E-16
41
1
10
3.61277245027591
20
2.46217010493552
30
1E-16
41
1
10
3.64336952672042
20
2.45352958206777
30
1E-16
0
SPLINE
5
100
100
AcDbEntity
8
1
62
256
6
ByLayer
370
18
48
1
60
0
100
AcDbSpline
70
4
71
3
72
8
73
4
40
0
40
0
40
0
40
0
40
1
40
1
40
1
40
1
41
1
10
3.59791957309645
20
-1.32077713506416
30
1E-16
41
1
10
3.58562907937704
20
-1.31604612304406
30
1E-16
41
1
10
3.57363126858507
20
-1.31251063819218
30
1E-16
41
1
10
3.56220144255934
20
-1.31025915071302
30
1E-16
0
SPLINE
5
101
100
AcDbEntity
8
1
62
256
6
ByLayer
370
18
48
1
60
0
100
AcDbSpline
70
4
71
3
72
8
73
4
40
0
40
0
40
0
40
0
40
1
40
1
40
1
40
1
41
1
10
54.471752872465
20
-0.331206865512627
30
0
41
1
10
54.3982924782058
20
-0.13511272695294
30
0
41
1
10
54.3115209774739
20
0.0697966816397866
30
0
41
1
10
54.211524586178
20
0.28346426384752
30
0
0
SPLINE
5
102
100
AcDbEntity
8
1
62
256
6
ByLayer
370
18
48
1
60
0
100
AcDbSpline
70
4
71
3
72
16
73
12
40
0
40
0
40
0
40
0
40
0.222254275807188
40
0.222254275807188
40
0.4464865992961
40
0.4464865992961
40
0.643629407596282
40
0.643629407596282
40
0.820884514146047
40
0.820884514146047
40
1
40
1
40
1
40
1
41
1
10
53.8773395053537
20
-2.96547115930417
30
0
41
1
10
53.8774175540426
20
-2.96563190623803
30
0
41
1
10
53.8774404243508
20
-2.9659688561477
30
0
41
1
10
53.877352617634
20
-2.96700132717331
30
0
41
1
10
53.8772383220009
20
-2.96771907406557
30
0
41
1
10
53.8768953517902
20
-2.96934860060296
30
0
41
1
10
53.8766765402433
20
-2.97025160309869
30
0
41
1
10
53.8761882547338
20
-2.97206879776789
30
0
41
1
10
53.8759198551567
20
-2.97299619005295
30
0
41
1
10
53.8753528282826
20
-2.97483941482542
30
0
41
1
10
53.8750471050644
20
-2.97577766230924
30
0
41
1
10
53.8747431274301
20
-2.97666503485814
30
0
0
SPLINE
5
103
100
AcDbEntity
8
1
62
256
6
ByLayer
370
18
48
1
60
0
100
AcDbSpline
70
4
71
3
72
68
73
64
40
0
40
0
40
0
40
0
40
0.0221849512020574
40
0.0221849512020574
40
0.0498474530055946
40
0.0498474530055946
40
0.0775099548091318
40
0.0775099548091318
40
0.105172456612669
40
0.105172456612669
40
0.160497460219745
40
0.160497460219745
40
0.188159962023282
40
0.188159962023282
40
0.21582246382682
40
0.21582246382682
40
0.243484965630358
40
0.243484965630358
40
0.271147467433896
40
0.271147467433896
40
0.298809969237434
40
0.298809969237434
40
0.326472471040972
40
0.326472471040972
40
0.381797474648049
40
0.381797474648049
40
0.409459976451586
40
0.409459976451586
40
0.437122478255124
40
0.437122478255124
40
0.464784980058662
40
0.464784980058662
40
0.4924474818622
40
0.4924474818622
40
0.547772485469274
40
0.547772485469274
40
0.575434987272811
40
0.575434987272811
40
0.603097489076348
40
0.603097489076348
40
0.658422492683421
40
0.658422492683421
40
0.686084994486957
40
0.686084994486957
40
0.713747496290494
40
0.713747496290494
40
0.769072499897567
40
0.769072499897567
40
0.796735001701104
40
0.796735001701104
40
0.824397503504641
40
0.824397503504641
40
0.852060005308179
40
0.852060005308179
40
0.879722507111717
40
0.879722507111717
40
0.907385008915255
40
0.907385008915255
40
0.935047510718793
40
0.935047510718793
40
0.990372514325867
40
0.990372514325867
40
1
40
1
40
1
40
1
41
1
10
48.7905448123117
20
-2.27715066821077
30
1E-16
41
1
10
48.5906168331167
20
-2.33988243988904
30
1E-16
41
1
10
48.3912557560011
20
-2.39987769708117
30
1E-16
41
1
10
47.9437809937111
20
-2.52728307932662
30
-1E-16
41
1
10
47.695688653543
20
-2.59277506686928
30
-1E-16
41
1
10
47.1997435518051
20
-2.71331848639923
30
-1E-16
41
1
10
46.951945926962
20
-2.76844106446333
30
-1E-16
41
1
10
46.4566075412703
20
-2.86821257832673
30
0
41
1
10
46.2092372561414
20
-2.9129748668627
30
0
41
1
10
45.4654618224336
20
-3.02946957280656
30
0
41
1
10
44.9675036024981
20
-3.0839749596833
30
0
41
1
10
44.2176875999212
20
-3.13016452855291
30
0
41
1
10
43.966431346933
20
-3.13944952538844
30
0
41
1
10
43.4651856718139
20
-3.14545452594157
30
0
41
1
10
43.2152191752051
20
-3.14227764323581
30
0
41
1
10
42.7166939360284
20
-3.12382950657985
30
0
41
1
10
42.468119844718
20
-3.10854373430305
30
0
41
1
10
41.972067702674
20
-3.06586879393183
30
0
41
1
10
41.7243194589
20
-3.03857822969911
30
0
41
1
10
41.2286267134692
20
-2.97277224025703
30
0
41
1
10
40.9808170639108
20
-2.93419032375311
30
0
41
1
10
40.4851290835129
20
-2.84577342226206
30
0
41
1
10
40.2374386988242
20
-2.7957349767594
30
-1E-16
41
1
10
39.4931748377839
20
-2.62944068797194
30
-1E-16
41
1
10
38.9946628340108
20
-2.49813210965212
30
-1E-16
41
1
10
38.2425407270693
20
-2.2710737682325
30
1E-16
41
1
10
37.9913660149759
20
-2.18987026346676
30
1E-16
41
1
10
37.4913128337571
20
-2.02086340527777
30
1E-16
41
1
10
37.2418032374741
20
-1.93293114114144
30
1E-16
41
1
10
36.7438290127338
20
-1.75033667264657
30
1E-16
41
1
10
36.4953133829527
20
-1.65577338728096
30
1E-16
41
1
10
35.9994585583031
20
-1.45963043903967
30
1E-16
41
1
10
35.7519512782392
20
-1.3583600089664
30
1E-16
41
1
10
35.008705975904
20
-1.04906805189194
30
1E-16
41
1
10
34.5126406588142
20
-0.834898488676714
30
1E-16
41
1
10
33.7675219524436
20
-0.501757983662401
30
0
41
1
10
33.5186569206341
20
-0.389427480865209
30
0
41
1
10
33.019104187589
20
-0.164159571952609
30
0
41
1
10
32.7685107049947
20
-0.0509520984634548
30
0
41
1
10
32.0143783212235
20
0.290211742510309
30
0
41
1
10
31.5161814612111
20
0.517401643303288
30
0
41
1
10
30.7700633460196
20
0.845023934500261
30
-1E-16
41
1
10
30.5217728578534
20
0.952571086033146
30
-1E-16
41
1
10
30.0257569557557
20
1.16377905465794
30
-1E-16
41
1
10
29.7783310473826
20
1.26805873282433
30
-1E-16
41
1
10
29.0353091080126
20
1.5716417045841
30
-1E-16
41
1
10
28.5387601731773
20
1.76147114091549
30
-1E-16
41
1
10
27.7922471372397
20
2.02743185430762
30
-1E-16
41
1
10
27.5431159136584
20
2.11288122362242
30
-1E-16
41
1
10
27.0427622314626
20
2.27463220767743
30
-1E-16
41
1
10
26.7909710386945
20
2.35121948705407
30
-1E-16
41
1
10
26.2891855678801
20
2.49461936857412
30
1E-16
41
1
10
26.0391523802215
20
2.56136036907643
30
1E-16
41
1
10
25.5408798482874
20
2.68500982253141
30
1E-16
41
1
10
25.2923354020544
20
2.74148320358105
30
1E-16
41
1
10
24.79548401122
20
2.84295527722205
30
0
41
1
10
24.5472741065477
20
2.88809382873779
30
0
41
1
10
24.0513281515694
20
2.96730638893004
30
0
41
1
10
23.8036473946131
20
3.00139955740781
30
0
41
1
10
23.0605620991559
20
3.08622611224817
30
0
41
1
10
22.5639084283497
20
3.11897814375317
30
0
41
1
10
21.9783685685386
20
3.12915206321745
30
0
41
1
10
21.891548732432
20
3.12992433999742
30
0
41
1
10
21.8046682642099
20
3.12995407303632
30
0
0
SPLINE
5
104
100
AcDbEntity
8
1
62
256
6
ByLayer
370
18
48
1
60
0
100
AcDbSpline
70
4
71
3
72
10
73
6
40
0
40
0
40
0
40
0
40
0.5
40
0.5
40
1
40
1
40
1
40
1
41
1
10
3.56061574255469
20
-1.37125569853961
30
1E-16
41
1
10
3.54303010533619
20
-1.36413168641616
30
1E-16
41
1
10
3.52811210352479
20
-1.35252271210916
30
1E-16
41
1
10
3.50740270749878
20
-1.3236123763908
30
1E-16
41
1
10
3.50170838189649
20
-1.30633773117248
30
1E-16
41
1
10
3.50170838189649
20
-1.28877248964213
30
1E-16
0
SPLINE
5
105
100
AcDbEntity
8
1
62
256
6
ByLayer
370
18
48
1
60
0
100
AcDbSpline
70
4
71
3
72
20
73
16
40
0
40
0
40
0
40
0
40
0.220726174342586
40
0.220726174342586
40
0.331089261513879
40
0.331089261513879
40
0.44145234868517
40
0.44145234868517
40
0.551815435856461
40
0.551815435856461
40
0.662178523027752
40
0.662178523027752
40
0.882904697370335
40
0.882904697370335
40
1
40
1
40
1
40
1
41
1
10
23.5
20
-1.02887955423625
30
1E-16
41
1
10
24.1322604253956
20
-1.29900645827305
30
1E-16
41
1
10
24.7627004577835
20
-1.55551447473016
30
1E-16
41
1
10
25.7115608455372
20
-1.90803581483465
30
1E-16
41
1
10
26.0276240115148
20
-2.01986292042528
30
1E-16
41
1
10
26.6585994794914
20
-2.22992411433438
30
1E-16
41
1
10
26.9737732600964
20
-2.32825950129083
30
1E-16
41
1
10
27.6045085084846
20
-2.50999468296453
30
-1E-16
41
1
10
27.9200738315943
20
-2.59338987116135
30
-1E-16
41
1
10
28.5525956162101
20
-2.74381897172856
30
-1E-16
41
1
10
28.8681458729572
20
-2.81050432895975
30
0
41
1
10
29.8106243865017
20
-2.98319679737355
30
0
41
1
10
30.4348735002041
20
-3.06211853913234
30
0
41
1
10
31.3899119497488
20
-3.12491776172746
30
0
41
1
10
31.7208799468753
20
-3.13602458243904
30
0
41
1
10
32.0523427091067
20
-3.13635981628116
30
0
0
SPLINE
5
106
100
AcDbEntity
8
1
62
256
6
ByLayer
370
18
48
1
60
0
100
AcDbSpline
70
4
71
3
72
8
73
4
40
0
40
0
40
0
40
0
40
1
40
1
40
1
40
1
41
1
10
53.3373710312133
20
3.14231580847627
30
0
41
1
10
53.4622980306237
20
3.14627978372693
30
0
41
1
10
53.5872828508438
20
3.14871011120454
30
0
41
1
10
53.7123568976322
20
3.14959469167886
30
0
0
SPLINE
5
107
100
AcDbEntity
8
1
62
256
6
ByLayer
370
18
48
1
60
0
100
AcDbSpline
70
4
71
3
72
8
73
4
40
0
40
0
40
0
40
0
40
1
40
1
40
1
40
1
41
1
10
3.60187866861205
20
-1.30812663161453
30
1E-16
41
1
10
3.58821489306558
20
-1.30340044261718
30
1E-16
41
1
10
3.57488536110583
20
-1.29999481325905
30
1E-16
41
1
10
3.56220144255951
20
-1.29799253261885
30
1E-16
0
SPLINE
5
108
100
AcDbEntity
8
SK1
62
256
6
ByLayer
370
18
48
1
60
0
100
AcDbSpline
70
4
71
3
72
10
73
6
40
0
40
0
40
0
40
0
40
0.333766923092904
40
0.666961627780307
40
1
40
1
40
1
40
1
41
1
10
-5.68E-14
20
-3.93425373428076
30
0
41
1
10
-0.0008134923981231
20
-3.9307050073424
30
0
41
1
10
-0.002439082522443
20
-3.92361363749234
30
0
41
1
10
-0.0024411553667392
20
-3.91199050867425
30
0
41
1
10
-0.0008135911522231
20
-3.90361016549681
30
0
41
1
10
0
20
-3.89942097713737
30
0
0
SPLINE
5
109
100
AcDbEntity
8
SK1
62
256
6
ByLayer
370
18
48
1
60
0
100
AcDbSpline
70
4
71
3
72
12
73
8
40
0
40
0
40
0
40
0
40
0.25
40
0.25
40
0.499999999999999
40
0.499999999999999
40
1
40
1
40
1
40
1
41
1
10
-35.4
20
-0.378607471603544
30
0
41
1
10
-35.4
20
-0.36172335621697
30
0
41
1
10
-35.4042405317345
20
-0.344691317102871
30
0
41
1
10
-35.4170629445097
20
-0.314771648587794
30
0
41
1
10
-35.4255309618335
20
-0.301725985776926
30
0
41
1
10
-35.4538111153162
20
-0.268231762325598
30
0
41
1
10
-35.4764597265186
20
-0.253088973647294
30
0
41
1
10
-35.5
20
-0.245765172398393
30
0
0
SPLINE
5
10A
100
AcDbEntity
8
SK1
62
256
6
ByLayer
370
18
48
1
60
0
100
AcDbSpline
70
4
71
3
72
10
73
6
40
0
40
0
40
0
40
0
40
0.5
40
0.5
40
1
40
1
40
1
40
1
41
1
10
-35.6009618943233
20
-1.64392028063017
30
1E-16
41
1
10
-35.657625994603
20
-1.71253487578568
30
1E-16
41
1
10
-35.7212304684705
20
-1.76545364863921
30
1E-16
41
1
10
-35.8564778377541
20
-1.84778451703943
30
1E-16
41
1
10
-35.9271669955654
20
-1.87662155271164
30
1E-16
41
1
10
-36.0000000000001
20
-1.89620986156544
30
1E-16
0
SPLINE
5
10B
100
AcDbEntity
8
SK1
62
256
6
ByLayer
370
18
48
1
60
0
100
AcDbSpline
70
4
71
3
72
12
73
8
40
0
40
0
40
0
40
0
40
0.499999999999997
40
0.499999999999997
40
0.749999999999999
40
0.749999999999999
40
1
40
1
40
1
40
1
41
1
10
-35.5
20
-1.67535943893935
30
1E-16
41
1
10
-35.4764535706458
20
-1.68268515539071
30
1E-16
41
1
10
-35.4537583253671
20
-1.68272096031799
30
1E-16
41
1
10
-35.4256589034923
20
-1.67017530248916
30
1E-16
41
1
10
-35.4170915256394
20
-1.66369110435684
30
1E-16
41
1
10
-35.4042768359917
20
-1.64503717219608
30
1E-16
41
1
10
-35.4
20
-1.63246296240953
30
1E-16
41
1
10
-35.4
20
-1.61758916927218
30
1E-16
0
SPLINE
5
10C
100
AcDbEntity
8
SK1
62
256
6
ByLayer
370
18
48
1
60
0
100
AcDbSpline
70
4
71
3
72
10
73
6
40
0
40
0
40
0
40
0
40
0.5
40
0.5
40
1
40
1
40
1
40
1
41
1
10
-36.0000000000001
20
0.391140964899876
30
0
41
1
10
-35.9272396278271
20
0.306691928544382
30
0
41
1
10
-35.8568055726535
20
0.215440495053286
30
0
41
1
10
-35.7224295033876
20
0.0150081075851745
30
0
41
1
10
-35.6578574543336
20
-0.095379820596122
30
0
41
1
10
-35.6009618943233
20
-0.214326014089437
30
0
0
SPLINE
5
10D
100
AcDbEntity
8
SK1
62
256
6
ByLayer
370
18
48
1
60
0
100
AcDbSpline
70
4
71
3
72
8
73
4
40
0
40
0
40
0
40
0
40
1
40
1
40
1
40
1
41
1
10
-35.6009618943233
20
-1.64392028063017
30
1E-16
41
1
10
-35.5673238401714
20
-1.65440472539814
30
1E-16
41
1
10
-35.53366936897
20
-1.66488429442961
30
1E-16
41
1
10
-35.5
20
-1.67535943893924
30
1E-16
0
SPLINE
5
10E
100
AcDbEntity
8
SK1
62
256
6
ByLayer
370
18
48
1
60
0
100
AcDbSpline
70
4
71
3
72
10
73
6
40
0
40
0
40
0
40
0
40
0.742855595907145
40
0.742855595907145
40
1
40
1
40
1
40
1
41
1
10
-36.0000000000001
20
-0.391140964899876
30
0
41
1
10
-35.9272396278271
20
-0.306691928544382
30
0
41
1
10
-35.8568055726535
20
-0.215440495053286
30
0
41
1
10
-35.76635995307
20
-0.0805337994771946
30
0
41
1
10
-35.7434158270896
20
-0.0446244753941016
30
0
41
1
10
-35.7209950597526
20
-0.0075632525779668
30
0
0
SPLINE
5
10F
100
AcDbEntity
8
SK1
62
256
6
ByLayer
370
18
48
1
60
0
100
AcDbSpline
70
4
71
3
72
8
73
4
40
0
40
0
40
0
40
0
40
1
40
1
40
1
40
1
41
1
10
-35.5
20
-0.245765172398478
30
0
41
1
10
-35.5336694847283
20
-0.235289991874396
30
0
41
1
10
-35.5673239596233
20
-0.224810421626159
30
0
41
1
10
-35.6009618943233
20
-0.214326014089437
30
0
0
SPLINE
5
110
100
AcDbEntity
8
1
62
256
6
ByLayer
370
18
48
1
60
0
100
AcDbSpline
70
4
71
3
72
16
73
12
40
0
40
0
40
0
40
0
40
0.020604300495266
40
0.0860663592411317
40
0.162498865623484
40
0.229506189085058
40
0.296686463825025
40
0.364115461260869
40
0.436441200887626
40
0.706982224552886
40
1
40
1
40
1
40
1
41
1
10
11.3929057417799
20
0.154929442628884
30
0
41
1
10
11.3639295873747
20
0.163891533868252
30
0
41
1
10
11.2428738458042
20
0.201351979082887
30
0
41
1
10
11.0156701955236
20
0.271560209473421
30
0
41
1
10
10.7190588435329
20
0.364225616948914
30
0
41
1
10
10.4206452966913
20
0.459486721261555
30
0
41
1
10
10.1352364582808
20
0.552181238065884
30
0
41
1
10
9.84255622942879
20
0.6489487501714
30
0
41
1
10
9.26319042523261
20
0.84396477127936
30
-1E-16
41
1
10
8.3691160838776
20
1.15725369898476
30
-1E-16
41
1
10
7.5836093691791
20
1.45313379705277
30
-1E-16
41
1
10
7.176937673411
20
1.61171440266554
30
-1E-16
0
SPLINE
5
111
100
AcDbEntity
8
1
62
256
6
ByLayer
370
18
48
1
60
0
100
AcDbSpline
70
4
71
3
72
11
73
7
40
0
40
0
40
0
40
0
40
0.171636794639582
40
0.385868203657228
40
0.676800043406841
40
1
40
1
40
1
40
1
41
1
10
53.9282658059188
20
0.455896241684712
30
0
41
1
10
53.7382270332573
20
0.51709018503729
30
0
41
1
10
53.3117286146873
20
0.656863521006358
30
0
41
1
10
52.5666334174565
20
0.911079661685761
30
-1E-16
41
1
10
51.6592185800776
20
1.2350038303675
30
-1E-16
41
1
10
50.9912546096932
20
1.48794367427303
30
-1E-16
41
1
10
50.6409858284554
20
1.62448751465809
30
-1E-16
0
SPLINE
5
112
100
AcDbEntity
8
1
62
256
6
ByLayer
370
18
48
1
60
0
100
AcDbSpline
70
4
71
1
72
4
73
2
40
0
40
0
40
1
40
1
41
1
10
50.6409858284554
20
1.62448751465809
30
-1E-16
41
1
10
50.4930446670103
20
1.68048970010668
30
-1E-16
0
SPLINE
5
113
100
AcDbEntity
8
1
62
256
6
ByLayer
370
18
48
1
60
0
100
AcDbSpline
70
4
71
3
72
23
73
19
40
0
40
0
40
0
40
0
40
0.0001408838954101
40
0.0004997579308625
40
0.0008265805971641
40
0.0011311247734986
40
0.0014264166055026
40
0.0057733722884231
40
0.0091875727272385
40
0.0152783129776372
40
0.0261353523366374
40
0.0454614192463543
40
0.0797760106101655
40
0.140425585563073
40
0.246727895773778
40
0.430163314625055
40
0.737265382923201
40
1
40
1
40
1
40
1
41
1
10
11.7887029957438
20
0.0325056879289605
30
0
41
1
10
11.7887041689866
20
0.032507406757901
30
0
41
1
10
11.7887056729018
20
0.032514273189804
30
0
41
1
10
11.7886912365008
20
0.0325304264895294
30
0
41
1
10
11.7886403408904
20
0.0325583604443977
30
0
41
1
10
11.7885621107536
20
0.0325915607535592
30
0
41
1
10
11.7879757225079
20
0.0327955099447479
30
0
41
1
10
11.786836257963
20
0.0331241712591179
30
0
41
1
10
11.7850275635297
20
0.0336911999910683
30
0
41
1
10
11.7823171016439
20
0.0345240372394073
30
0
41
1
10
11.7775203257507
20
0.0360080680774786
30
0
41
1
10
11.7689730324803
20
0.0386464275338199
30
0
41
1
10
11.7538414471199
20
0.0433213915563044
30
0
41
1
10
11.7271960528019
20
0.0515527168814742
30
0
41
1
10
11.6808380558494
20
0.0658787173930477
30
0
41
1
10
11.6019483547114
20
0.0902667242079929
30
0
41
1
10
11.5025160835592
20
0.121019047217715
30
0
41
1
10
11.4274728740089
20
0.144234162123752
30
0
41
1
10
11.3929057417799
20
0.154929442628884
30
0
0
SPLINE
5
114
100
AcDbEntity
8
1
62
256
6
ByLayer
370
18
48
1
60
0
100
AcDbSpline
70
4
71
3
72
19
73
15
40
0
40
0
40
0
40
0
40
0.106159926832303
40
0.180736057790083
40
0.248947539378657
40
0.337584536746377
40
0.429963514755221
40
0.518132032783554
40
0.594896152577545
40
0.715234529895193
40
0.843983289570721
40
0.914256886499451
40
0.991413440811597
40
1
40
1
40
1
40
1
41
1
10
33.0340933441058
20
-2.97971211168348
30
0
41
1
10
33.2959921065359
20
-2.97986153094035
30
0
41
1
10
33.7418886805565
20
-2.98011733120654
30
0
41
1
10
34.356415026058
20
-2.98054413216156
30
0
41
1
10
34.9271732321691
20
-2.98081670946715
30
0
41
1
10
35.5423860511132
20
-2.98115269861515
30
0
41
1
10
36.2066954020401
20
-2.98179195825645
30
0
41
1
10
36.8417403561103
20
-2.98145196496455
30
0
41
1
10
37.5457800093631
20
-2.98294759588899
30
0
41
1
10
38.3499612696587
20
-2.9817546186427
30
0
41
1
10
39.1381447295463
20
-2.9836221598305
30
0
41
1
10
39.8197468644804
20
-2.98272714456721
30
0
41
1
10
40.204793828141
20
-2.98392736639556
30
0
41
1
10
40.4164053872247
20
-2.98417651821498
30
0
41
1
10
40.4375967590356
20
-2.98419772978187
30
0
0
SPLINE
5
115
100
AcDbEntity
8
1
62
256
6
ByLayer
370
18
48
1
60
0
100
AcDbSpline
70
4
71
3
72
20
73
16
40
0
40
0
40
0
40
0
40
0.115938911493747
40
0.189365416664067
40
0.248923934675765
40
0.317138204208153
40
0.390038603775274
40
0.464913390088154
40
0.538833313479489
40
0.604734889716465
40
0.725005821640392
40
0.848160811334264
40
0.915831228155467
40
0.992774838194779
40
1
40
1
40
1
40
1
41
1
10
20.7837212569976
20
2.97368368849763
30
0
41
1
10
20.4981690188909
20
2.97311416233717
30
0
41
1
10
20.031775702842
20
2.97250895372758
30
0
41
1
10
19.4185549260433
20
2.97257426507488
30
0
41
1
10
18.9231288675077
20
2.97278444090006
30
0
41
1
10
18.4287908101829
20
2.97135117359676
30
0
41
1
10
17.8967685445682
20
2.97156259077781
30
0
41
1
10
17.3506793632556
20
2.97156688601626
30
0
41
1
10
16.821834438392
20
2.97021917270254
30
0
41
1
10
16.1811675207036
20
2.97054823472141
30
0
41
1
10
15.4192216523649
20
2.96923664742519
30
0
41
1
10
14.6529190231658
20
2.96913470174101
30
0
41
1
10
13.9933451953272
20
2.9682502386477
30
0
41
1
10
13.6193300769092
20
2.9680603871204
30
0
41
1
10
13.4120040177088
20
2.96790652926242
30
0
41
1
10
13.3942068751727
20
2.9678929908392
30
0
0
SPLINE
5
116
100
AcDbEntity
8
1
62
256
6
ByLayer
370
18
48
1
60
0
100
AcDbSpline
70
4
71
3
72
22
73
18
40
0
40
0
40
0
40
0
40
0.0935308818291317
40
0.168125750339542
40
0.25346874190855
40
0.306588108755537
40
0.359435923095198
40
0.416307665023563
40
0.479629561035081
40
0.548117267615904
40
0.620010480319657
40
0.691745454491568
40
0.77931988639408
40
0.852204786401269
40
0.923922584969953
40
0.974811434505034
40
1
40
1
40
1
40
1
41
1
10
11.2783704195043
20
-2.96596186741178
30
0
41
1
10
11.5085097683834
20
-2.96616556123917
30
0
41
1
10
11.9222587091975
20
-2.96654122754015
30
0
41
1
10
12.546229181085
20
-2.9669704645402
30
0
41
1
10
13.0708117381099
20
-2.96764550759681
30
0
41
1
10
13.5414239562823
20
-2.96800561363588
30
0
41
1
10
13.9422924267769
20
-2.96823742247483
30
0
41
1
10
14.3682838065577
20
-2.96872797023741
30
0
41
1
10
14.8327784612526
20
-2.96919474193797
30
0
41
1
10
15.3342414416891
20
-2.96931563679385
30
0
41
1
10
15.8564323044608
20
-2.97001409360834
30
0
41
1
10
16.4256069513619
20
-2.9704598656576
30
0
41
1
10
16.9972248515525
20
-2.97046091983737
30
0
41
1
10
17.5687989913961
20
-2.97180049073773
30
0
41
1
10
18.0500612504096
20
-2.9714321803429
30
0
41
1
10
18.4139052987986
20
-2.97153857247227
30
0
41
1
10
18.6011900818501
20
-2.97191072557919
30
0
41
1
10
18.6631982782301
20
-2.97203852913364
30
0
0
SPLINE
5
117
100
AcDbEntity
8
1
62
256
6
ByLayer
370
18
48
1
60
0
100
AcDbSpline
70
4
71
3
72
21
73
17
40
0
40
0
40
0
40
0
40
0.0952168718284322
40
0.171538934351029
40
0.259598719184308
40
0.31229311398653
40
0.364199328329899
40
0.418300277213021
40
0.476667810969279
40
0.539521968811477
40
0.607408700935047
40
0.678869175575294
40
0.782859682567014
40
0.871166196021191
40
0.957009035369649
40
1
40
1
40
1
40
1
41
1
10
42.5412837176904
20
2.98397216853317
30
0
41
1
10
42.3082834504264
20
2.98407893550711
30
0
41
1
10
41.8882384986628
20
2.98421608226906
30
0
41
1
10
41.2521939744602
20
2.98308251390336
30
0
41
1
10
40.7190051695886
20
2.98415833788855
30
0
41
1
10
40.249113177598
20
2.98399914188627
30
0
41
1
10
39.8596405325021
20
2.98294373350075
30
0
41
1
10
39.4566929405205
20
2.98313748100608
30
0
41
1
10
39.0267768585357
20
2.98339470489088
30
0
41
1
10
38.563096203556
20
2.98245657207499
30
0
41
1
10
38.067300218306
20
2.9822609083422
30
0
41
1
10
37.4706422249142
20
2.98278632183968
30
0
41
1
10
36.8239138917051
20
2.9814039102161
30
0
41
1
10
36.1419232628485
20
2.98178300130365
30
0
41
1
10
35.609491229548
20
2.98124430252187
30
0
41
1
10
35.2936069554553
20
2.98098282543612
30
0
41
1
10
35.1881993754653
20
2.98091838240401
30
0
0
SPLINE
5
118
100
AcDbEntity
8
1
62
256
6
ByLayer
370
18
48
1
60
0
100
AcDbSpline
70
4
71
3
72
28
73
24
40
0
40
0
40
0
40
0
40
2.07464082451E-05
40
6.14817908576E-05
40
7.82076851192E-05
40
9.29740027552E-05
40
0.0001065137892767
40
0.0007595358669755
40
0.0012750793192092
40
0.0022013711492612
40
0.0038735683595282
40
0.0069173471934094
40
0.0125366278284366
40
0.0231577536679425
40
0.0439973035750749
40
0.087652531014872
40
0.187676785269868
40
0.298847795227185
40
0.412692979725548
40
0.54101221157272
40
0.66820483810067
40
0.8256504743959
40
1
40
1
40
1
40
1
41
1
10
33.6909586932854
20
-0.0137438699402423
30
0
41
1
10
33.6909676626718
20
-0.0137439472119354
30
0
41
1
10
33.6909887496565
20
-0.0137425212808182
30
0
41
1
10
33.6909909626124
20
-0.0137334271151985
30
0
41
1
10
33.6909541867042
20
-0.0137148812935948
30
0
41
1
10
33.6909144742481
20
-0.0136991391665333
30
0
41
1
10
33.6899839312757
20
-0.0133955576371534
30
0
41
1
10
33.6879898814732
20
-0.0128301712706786
30
0
41
1
10
33.6847949556011
20
-0.0118629977021385
30
0
41
1
10
33.6799257920774
20
-0.0104128750401173
30
0
41
1
10
33.6711727940378
20
-0.0077920918338066
30
0
41
1
10
33.6550804810732
20
-0.0029831188076059
30
0
41
1
10
33.6250450965919
20
0.0060033337513801
30
0
41
1
10
33.5671509332657
20
0.0233608337409521
30
0
41
1
10
33.449626778048
20
0.0589472832880347
30
0
41
1
10
33.1906157519566
20
0.137565660856808
30
0
41
1
10
32.7849969894474
20
0.261563070565188
30
0
41
1
10
32.2654891548289
20
0.425777103337623
30
0
41
1
10
31.7026700565219
20
0.609637830559308
30
0
41
1
10
31.116154374932
20
0.807953148742598
30
0
41
1
10
30.4627322617797
20
1.0367896791343
30
-1E-16
41
1
10
29.7393425976076
20
1.29933844904258
30
-1E-16
41
1
10
29.2193405296761
20
1.49707491176443
30
-1E-16
41
1
10
28.9468556564612
20
1.6030821443668
30
-1E-16
0
SPLINE
5
119
100
AcDbEntity
8
1
62
256
6
ByLayer
370
18
48
1
60
0
100
AcDbSpline
70
4
71
1
72
4
73
2
40
0
40
0
40
1
40
1
41
1
10
22.1544671975404
20
0.0018162905726911
30
0
41
1
10
22.1544810848899
20
0.0018217931178697
30
0
0
LINE
5
84
100
AcDbEntity
8
1
62
256
6
ByLayer
370
18
48
1
60
0
100
AcDbLine
10
0
20
4
30
0
11
0
21
-3.899421
31
0
39
0
210
0
220
0
230
1
0
LINE
5
85
100
AcDbEntity
8
1
62
256
6
ByLayer
370
18
48
1
60
0
100
AcDbLine
10
23.5
20
-1.02888
30
0
11
23.5
21
-1.067584
31
0
39
0
210
0
220
0
230
1
0
LINE
5
86
100
AcDbEntity
8
1
62
256
6
ByLayer
370
18
48
1
60
0
100
AcDbLine
10
1.430736
20
3.117235
30
0
11
1.430736
21
0
31
0
39
0
210
0
220
0
230
1
0
LINE
5
87
100
AcDbEntity
8
1
62
256
6
ByLayer
370
18
48
1
60
0
100
AcDbLine
10
1.430736
20
0
30
0
11
1.430736
21
-3.117235
31
0
39
0
210
0
220
0
230
1
0
LINE
5
88
100
AcDbEntity
8
1
62
256
6
ByLayer
370
18
48
1
60
0
100
AcDbLine
10
0.715118
20
3.558617
30
0
11
0.715118
21
0
31
0
39
0
210
0
220
0
230
1
0
LINE
5
89
100
AcDbEntity
8
1
62
256
6
ByLayer
370
18
48
1
60
0
100
AcDbLine
10
0.715118
20
0
30
0
11
0.715118
21
-3.558617
31
0
39
0
210
0
220
0
230
1
0
LINE
5
8A
100
AcDbEntity
8
1
62
256
6
ByLayer
370
18
48
1
60
0
100
AcDbLine
10
54.956073
20
0.037921
30
0
11
54.163633
21
0.912637
31
0
39
0
210
0
220
0
230
1
0
LINE
5
8B
100
AcDbEntity
8
1
62
256
6
ByLayer
370
18
48
1
60
0
100
AcDbLine
10
3.501708
20
-1.288772
30
0
11
3.501708
21
2.3963
31
0
39
0
210
0
220
0
230
1
0
LINE
5
8C
100
AcDbEntity
8
SK1
62
256
6
ByLayer
370
18
48
1
60
0
100
AcDbLine
10
-36
20
-1.89621
30
0
11
-36
21
-0.391141
31
0
39
0
210
0
220
0
230
1
0
LINE
5
8E
100
AcDbEntity
8
SK1
62
256
6
ByLayer
370
18
48
1
60
0
100
AcDbLine
10
-36
20
-2.76
30
0
11
-36
21
-1.89621
31
0
39
0
210
0
220
0
230
1
0
LINE
5
8F
100
AcDbEntity
8
SK1
62
256
6
ByLayer
370
18
48
1
60
0
100
AcDbLine
10
0
20
-3.934254
30
0
11
0
21
-4
31
0
39
0
210
0
220
0
230
1
0
LINE
5
90
100
AcDbEntity
8
SK1
62
256
6
ByLayer
370
18
48
1
60
0
100
AcDbLine
10
-35.4
20
-1.617589
30
0
11
-35.4
21
-0.378607
31
0
39
0
210
0
220
0
230
1
0
LINE
5
91
100
AcDbEntity
8
SK1
62
256
6
ByLayer
370
18
48
1
60
0
100
AcDbLine
10
-34.76
20
-4
30
0
11
-34.76
21
4
31
0
39
0
210
0
220
0
230
1
0
LINE
5
92
100
AcDbEntity
8
SK1
62
256
6
ByLayer
370
18
48
1
60
0
100
AcDbLine
10
0
20
4
30
0
11
0
21
-3.899421
31
0
39
0
210
0
220
0
230
1
0
LINE
5
93
100
AcDbEntity
8
SK1
62
256
6
ByLayer
370
18
48
1
60
0
100
AcDbLine
10
-35.600962
20
-1.64392
30
0
11
-35.600962
21
-0.214348
31
0
39
0
210
0
220
0
230
1
0
LINE
5
94
100
AcDbEntity
8
SK1
62
256
6
ByLayer
370
18
48
1
60
0
100
AcDbLine
10
-36
20
2.76
30
0
11
-36
21
0.391141
31
0
39
0
210
0
220
0
230
1
0
LINE
5
95
100
AcDbEntity
8
SK1
62
256
6
ByLayer
370
18
48
1
60
0
100
AcDbLine
10
-35.5
20
-1.675359
30
0
11
-35.5
21
-0.245773
31
0
39
0
210
0
220
0
230
1
0
LINE
5
96
100
AcDbEntity
8
SK1
62
256
6
ByLayer
370
18
48
1
60
0
100
AcDbLine
10
-36
20
-2.76
30
0
11
-34.76
21
-4
31
0
39
0
210
0
220
0
230
1
0
LINE
5
97
100
AcDbEntity
8
SK1
62
256
6
ByLayer
370
18
48
1
60
0
100
AcDbLine
10
-34.76
20
4
30
0
11
-36
21
2.76
31
0
39
0
210
0
220
0
230
1
0
LINE
5
98
100
AcDbEntity
8
SK1
62
256
6
ByLayer
370
18
48
1
60
0
100
AcDbLine
10
-34.76
20
-4
30
0
11
0
21
-4
31
0
39
0
210
0
220
0
230
1
0
LINE
5
99
100
AcDbEntity
8
SK1
62
256
6
ByLayer
370
18
48
1
60
0
100
AcDbLine
10
0
20
4
30
0
11
-34.76
21
4
31
0
39
0
210
0
220
0
230
1
0
LINE
5
9A
100
AcDbEntity
8
1
62
256
6
ByLayer
370
18
48
1
60
0
100
AcDbLine
10
1.430736
20
-3.117235
30
0
11
2.152277
21
-3.117686
31
0
39
0
210
0
220
0
230
1
0
LINE
5
9B
100
AcDbEntity
8
1
62
256
6
ByLayer
370
18
48
1
60
0
100
AcDbLine
10
10.221206
20
-3.122729
30
0
11
11.283334
21
-3.123393
31
0
39
0
210
0
220
0
230
1
0
LINE
5
9C
100
AcDbEntity
8
1
62
256
6
ByLayer
370
18
48
1
60
0
100
AcDbLine
10
20.786264
20
-3.129332
30
0
11
21.791126
21
-3.12996
31
0
39
0
210
0
220
0
230
1
0
LINE
5
9D
100
AcDbEntity
8
1
62
256
6
ByLayer
370
18
48
1
60
0
100
AcDbLine
10
32.058424
20
-3.136377
30
0
11
33.034112
21
-3.136987
31
0
39
0
210
0
220
0
230
1
0
LINE
5
9E
100
AcDbEntity
8
1
62
256
6
ByLayer
370
18
48
1
60
0
100
AcDbLine
10
42.54036
20
-3.142928
30
0
11
43.523006
21
-3.143542
31
0
39
0
210
0
220
0
230
1
0
LINE
5
9F
100
AcDbEntity
8
1
62
256
6
ByLayer
370
18
48
1
60
0
100
AcDbLine
10
43.523006
20
3.143542
30
0
11
42.54036
21
3.142928
31
0
39
0
210
0
220
0
230
1
0
LINE
5
A0
100
AcDbEntity
8
1
62
256
6
ByLayer
370
18
48
1
60
0
100
AcDbLine
10
33.034112
20
3.136987
30
0
11
32.058424
21
3.136377
31
0
39
0
210
0
220
0
230
1
0
LINE
5
A1
100
AcDbEntity
8
1
62
256
6
ByLayer
370
18
48
1
60
0
100
AcDbLine
10
21.791126
20
3.12996
30
0
11
20.786264
21
3.129332
31
0
39
0
210
0
220
0
230
1
0
LINE
5
A2
100
AcDbEntity
8
1
62
256
6
ByLayer
370
18
48
1
60
0
100
AcDbLine
10
11.283334
20
3.123393
30
0
11
10.221206
21
3.122729
31
0
39
0
210
0
220
0
230
1
0
LINE
5
A3
100
AcDbEntity
8
1
62
256
6
ByLayer
370
18
48
1
60
0
100
AcDbLine
10
2.152277
20
3.117686
30
0
11
1.430736
21
3.117235
31
0
39
0
210
0
220
0
230
1
0
LINE
5
A4
100
AcDbEntity
8
SK4
62
256
6
ByLayer
370
18
48
0.05
60
0
100
AcDbLine
10
60
20
0
30
0
11
-41
21
0
31
0
39
0
210
0
220
0
230
1
0
LINE
5
A6
100
AcDbEntity
8
4
62
256
6
ByLayer
370
18
48
0.05
60
0
100
AcDbLine
10
-36
20
0
30
0
11
60
21
0
31
0
39
0
210
0
220
0
230
1
0
LINE
5
A8
100
AcDbEntity
8
80
62
256
6
ByLayer
370
18
48
1
60
0
100
AcDbLine
10
0
20
0
30
0
11
-6
21
0
31
0
39
0
210
0
220
0
230
1
0
LINE
5
A9
100
AcDbEntity
8
81
62
256
6
ByLayer
370
18
48
1
60
0
100
AcDbLine
10
55
20
0
30
0
11
61
21
0
31
0
39
0
210
0
220
0
230
1
0
LINE
5
AA
100
AcDbEntity
8
SK2
62
256
6
ByLayer
370
13
48
1
60
0
100
AcDbLine
10
55.542954
20
1.491763
30
0
11
62.926279
21
21.77739
31
0
39
0
210
0
220
0
230
1
0
LINE
5
AC
100
AcDbEntity
8
SK2
62
256
6
ByLayer
370
13
48
1
60
0
100
AcDbLine
10
55.542954
20
-1.491763
30
0
11
62.926279
21
-21.77739
31
0
39
0
210
0
220
0
230
1
0
LINE
5
AD
100
AcDbEntity
8
1
62
256
6
ByLayer
370
13
48
1
60
0
100
AcDbLine
10
61.84037
20
18.793864
30
0
11
64.936962
21
17.977498
31
0
39
0
210
0
220
0
230
1
0
LINE
5
AE
100
AcDbEntity
8
1
62
256
6
ByLayer
370
13
48
1
60
0
100
AcDbLine
10
61.84037
20
18.793864
30
0
11
64.62016
21
17.203856
31
0
39
0
210
0
220
0
230
1
0
LINE
5
AF
100
AcDbEntity
8
1
62
256
6
ByLayer
370
13
48
1
60
0
100
AcDbLine
10
64.936962
20
17.977498
30
0
11
64.62016
21
17.203856
31
0
39
0
210
0
220
0
230
1
0
LINE
5
B0
100
AcDbEntity
8
1
62
256
6
ByLayer
370
13
48
1
60
0
100
AcDbLine
10
61.84037
20
-18.793864
30
0
11
64.620157
21
-17.203858
31
0
39
0
210
0
220
0
230
1
0
LINE
5
B1
100
AcDbEntity
8
1
62
256
6
ByLayer
370
13
48
1
60
0
100
AcDbLine
10
61.84037
20
-18.793864
30
0
11
64.936965
21
-17.977497
31
0
39
0
210
0
220
0
230
1
0
LINE
5
B2
100
AcDbEntity
8
1
62
256
6
ByLayer
370
13
48
1
60
0
100
AcDbLine
10
64.620157
20
-17.203858
30
0
11
64.936965
21
-17.977497
31
0
39
0
210
0
220
0
230
1
0
MTEXT
5
11A
100
AcDbEntity
8
SK2
62
256
6
ByLayer
370
18
48
1
60
0
100
AcDbMText
10
68.717388
20
-2.467451
30
0
210
0
220
0
230
1
1
\W0.7237;140.00
40
3.50012
41
0
44
1.084337
50
0
71
7
72
5
7
iso_b_vert
0
MTEXT
5
11D
100
AcDbEntity
8
SK6
62
256
6
ByLayer
370
18
48
1
60
0
100
AcDbMText
10
-29.831725
20
-121.548113
30
0
210
0
220
0
230
1
1
\W0.7454;860.1-0630-032A1-GM X1BM
40
3.175
41
0
44
1.084337
50
0
71
7
72
5
7
iso_b_vert
0
DIMENSION
5
120
100
AcDbEntity
8
SK2
62
256
6
ByLayer
370
18
48
1
60
0
100
AcDbDimension
2
_U0
10
55
20
-27.50012
30
0
11
27.5
21
-27.50012
31
0
70
32
71
2
72
1
41
1
210
0
220
0
230
1
3
Standard
100
AcDbAlignedDimension
13
0
23
-4
33
0
14
55
24
0
34
0
50
0
100
AcDbRotatedDimension
1001
ACAD
1000
DSTYLE
1002
{
1070
   371
1070
    13
1070
   372
1070
    13
1070
     3
1000

1070
   170
1070
     0
1070
   144
1040
1.0
1070
   277
1070
     2
1070
   284
1070
     8
1070
   278
1070
    46
1070
   146
1040
0.999966
1070
   345
1005
16
1070
   347
1005
16
1070
   346
1005
16
1070
   344
1005
121
1070
   343
1005
121
1070
   172
1070
     1
1070
    76
1070
     0
1070
    75
1070
     0
1070
   282
1070
     0
1070
   281
1070
     0
1070
    71
1070
     0
1070
    74
1070
     0
1070
   279
1070
     0
1070
   173
1070
     1
1070
   340
1005
11B
1070
   271
1070
     1
1070
   272
1070
     2
1070
    77
1070
     1
1070
    73
1070
     1
1070
   171
1070
     3
1070
   274
1070
     4
1070
   177
1070
   150
1070
   176
1070
     9
1070
   178
1070
    43
1070
    78
1070
     8
1070
    48
1040
-0.1
1070
    41
1040
3.175
1070
   147
1040
1.75006
1070
    42
1040
1.5875
1070
    44
1040
3.175
1070
   140
1040
3.50012
1002
}
1001
ACAD_DSTYLE_DIM_LINETYPE
1070
   380
1005
16
1001
ACAD_DSTYLE_DIM_EXT1_LINETYPE
1070
   381
1005
16
1001
ACAD_DSTYLE_DIM_EXT2_LINETYPE
1070
   382
1005
16
0
DIMENSION
5
146
100
AcDbEntity
8
2
62
256
6
ByLayer
370
18
48
1
60
0
100
AcDbDimension
2
_U1
10
61.75006
20
3.15
30
0
11
61.75006
21
18.639897
31
0
70
32
71
1
72
1
41
1
210
0
220
0
230
1
3
Standard
100
AcDbAlignedDimension
13
53.8535
23
-3.15
33
0
14
53.8535
24
3.15
34
0
50
90
100
AcDbRotatedDimension
1001
ACAD
1000
DSTYLE
1002
{
1070
   371
1070
    13
1070
   372
1070
    13
1070
     3
1000

1070
   170
1070
     0
1070
   144
1040
1.0
1070
   277
1070
     2
1070
   284
1070
     8
1070
   278
1070
    46
1070
   146
1040
0.999966
1070
   345
1005
16
1070
   347
1005
16
1070
   346
1005
16
1070
   344
1005
121
1070
   343
1005
121
1070
   172
1070
     1
1070
    76
1070
     0
1070
    75
1070
     0
1070
   282
1070
     0
1070
   281
1070
     0
1070
    71
1070
     0
1070
    74
1070
     0
1070
   279
1070
     0
1070
   173
1070
     1
1070
   340
1005
11B
1070
   271
1070
     1
1070
   272
1070
     2
1070
    77
1070
     1
1070
    73
1070
     0
1070
   171
1070
     3
1070
   274
1070
     4
1070
   177
1070
   150
1070
   176
1070
     9
1070
   178
1070
    43
1070
    78
1070
     8
1070
    48
1040
-0.1
1070
    41
1040
3.175
1070
   147
1040
1.75006
1070
    42
1040
1.5875
1070
    44
1040
3.175
1070
   140
1040
3.50012
1002
}
1001
ACAD_DSTYLE_DIM_LINETYPE
1070
   380
1005
16
1001
ACAD_DSTYLE_DIM_EXT1_LINETYPE
1070
   381
1005
16
1001
ACAD_DSTYLE_DIM_EXT2_LINETYPE
1070
   382
1005
16
0
DIMENSION
5
165
100
AcDbEntity
8
SK2
62
256
6
ByLayer
370
18
48
1
60
0
100
AcDbDimension
2
_U2
10
-39.24994
20
-4
30
0
11
-39.24994
21
18.10734
31
0
70
32
71
1
72
1
41
1
210
0
220
0
230
1
3
Standard
100
AcDbAlignedDimension
13
-36
23
4
33
0
14
-36
24
-4
34
0
50
90
100
AcDbRotatedDimension
1001
ACAD
1000
DSTYLE
1002
{
1070
   371
1070
    13
1070
   372
1070
    13
1070
     3
1000

1070
   170
1070
     0
1070
   144
1040
1.0
1070
   277
1070
     2
1070
   284
1070
     8
1070
   278
1070
    46
1070
   146
1040
0.999966
1070
   345
1005
16
1070
   347
1005
16
1070
   346
1005
16
1070
   344
1005
121
1070
   343
1005
121
1070
   172
1070
     1
1070
    76
1070
     0
1070
    75
1070
     0
1070
   282
1070
     0
1070
   281
1070
     0
1070
    71
1070
     0
1070
    74
1070
     0
1070
   279
1070
     0
1070
   173
1070
     1
1070
   340
1005
11B
1070
   271
1070
     1
1070
   272
1070
     2
1070
    77
1070
     1
1070
    73
1070
     0
1070
   171
1070
     3
1070
   274
1070
     4
1070
   177
1070
   150
1070
   176
1070
     9
1070
   178
1070
    43
1070
    78
1070
     8
1070
    48
1040
-0.1
1070
    41
1040
3.175
1070
   147
1040
1.75006
1070
    42
1040
1.5875
1070
    44
1040
3.175
1070
   140
1040
3.50012
1002
}
1001
ACAD_DSTYLE_DIM_LINETYPE
1070
   380
1005
16
1001
ACAD_DSTYLE_DIM_EXT1_LINETYPE
1070
   381
1005
16
1001
ACAD_DSTYLE_DIM_EXT2_LINETYPE
1070
   382
1005
16
0
DIMENSION
5
183
100
AcDbEntity
8
SK2
62
256
6
ByLayer
370
18
48
1
60
0
100
AcDbDimension
2
_U3
10
0
20
-27.50012
30
0
11
-18
21
-27.50012
31
0
70
32
71
1
72
1
41
1
210
0
220
0
230
1
3
Standard
100
AcDbAlignedDimension
13
-36
23
-4
33
0
14
0
24
-4
34
0
50
0
100
AcDbRotatedDimension
1001
ACAD
1000
DSTYLE
1002
{
1070
   371
1070
    13
1070
   372
1070
    13
1070
     3
1000

1070
   170
1070
     0
1070
   144
1040
1.0
1070
   277
1070
     2
1070
   284
1070
     8
1070
   278
1070
    46
1070
   146
1040
0.999966
1070
   345
1005
16
1070
   347
1005
16
1070
   346
1005
16
1070
   344
1005
121
1070
   343
1005
121
1070
   172
1070
     1
1070
    76
1070
     0
1070
    75
1070
     0
1070
   282
1070
     0
1070
   281
1070
     0
1070
    71
1070
     0
1070
    74
1070
     0
1070
   279
1070
     0
1070
   173
1070
     1
1070
   340
1005
11B
1070
   271
1070
     1
1070
   272
1070
     2
1070
    77
1070
     1
1070
    73
1070
     1
1070
   171
1070
     3
1070
   274
1070
     4
1070
   177
1070
   150
1070
   176
1070
     9
1070
   178
1070
    43
1070
    78
1070
     8
1070
    48
1040
-0.1
1070
    41
1040
3.175
1070
   147
1040
1.75006
1070
    42
1040
1.5875
1070
    44
1040
3.175
1070
   140
1040
3.50012
1002
}
1001
ACAD_DSTYLE_DIM_LINETYPE
1070
   380
1005
16
1001
ACAD_DSTYLE_DIM_EXT1_LINETYPE
1070
   381
1005
16
1001
ACAD_DSTYLE_DIM_EXT2_LINETYPE
1070
   382
1005
16
0
DIMENSION
5
19F
100
AcDbEntity
8
SK2
62
256
6
ByLayer
370
18
48
1
60
0
100
AcDbDimension
2
_U4
10
55
20
-18.74982
30
0
11
28.5
21
-18.74982
31
0
70
32
71
1
72
1
41
1
210
0
220
0
230
1
3
Standard
100
AcDbAlignedDimension
13
2
23
3.65
33
0
14
55
24
0
34
0
50
0
100
AcDbRotatedDimension
1001
ACAD
1000
DSTYLE
1002
{
1070
   371
1070
    13
1070
   372
1070
    13
1070
     3
1000

1070
   170
1070
     0
1070
   144
1040
1.0
1070
   277
1070
     2
1070
   284
1070
     8
1070
   278
1070
    46
1070
   146
1040
0.999966
1070
   345
1005
16
1070
   347
1005
16
1070
   346
1005
16
1070
   344
1005
121
1070
   343
1005
121
1070
   172
1070
     1
1070
    76
1070
     0
1070
    75
1070
     0
1070
   282
1070
     0
1070
   281
1070
     0
1070
    71
1070
     0
1070
    74
1070
     0
1070
   279
1070
     0
1070
   173
1070
     1
1070
   340
1005
11B
1070
   271
1070
     1
1070
   272
1070
     2
1070
    77
1070
     1
1070
    73
1070
     1
1070
   171
1070
     3
1070
   274
1070
     4
1070
   177
1070
   150
1070
   176
1070
     9
1070
   178
1070
    43
1070
    78
1070
     8
1070
    48
1040
-0.1
1070
    41
1040
3.175
1070
   147
1040
1.75006
1070
    42
1040
1.5875
1070
    44
1040
3.175
1070
   140
1040
3.50012
1002
}
1001
ACAD_DSTYLE_DIM_LINETYPE
1070
   380
1005
16
1001
ACAD_DSTYLE_DIM_EXT1_LINETYPE
1070
   381
1005
16
1001
ACAD_DSTYLE_DIM_EXT2_LINETYPE
1070
   382
1005
16
0
DIMENSION
5
1BB
100
AcDbEntity
8
SK2
62
256
6
ByLayer
370
18
48
1
60
0
100
AcDbDimension
2
_U5
10
55
20
-10.82
30
0
11
38.7
21
-10.82
31
0
70
32
71
1
72
1
41
1
210
0
220
0
230
1
3
Standard
100
AcDbAlignedDimension
13
22.4
23
-3.15
33
0
14
55
24
0
34
0
50
0
100
AcDbRotatedDimension
1001
ACAD
1000
DSTYLE
1002
{
1070
   371
1070
    13
1070
   372
1070
    13
1070
     3
1000

1070
   170
1070
     0
1070
   144
1040
1.0
1070
   277
1070
     2
1070
   284
1070
     8
1070
   278
1070
    46
1070
   146
1040
1.25
1070
   345
1005
16
1070
   347
1005
16
1070
   346
1005
16
1070
   344
1005
121
1070
   343
1005
121
1070
   172
1070
     1
1070
    76
1070
     0
1070
    75
1070
     0
1070
   282
1070
     0
1070
   281
1070
     0
1070
    71
1070
     0
1070
    74
1070
     0
1070
   279
1070
     0
1070
   173
1070
     1
1070
   340
1005
11B
1070
   271
1070
     1
1070
   272
1070
     2
1070
    77
1070
     1
1070
    73
1070
     1
1070
   171
1070
     3
1070
   274
1070
     4
1070
   177
1070
   150
1070
   176
1070
     9
1070
   178
1070
    43
1070
    78
1070
     8
1070
    48
1040
-0.1
1070
    41
1040
3.175
1070
   147
1040
0.42
1070
    42
1040
1.5875
1070
    44
1040
0.5
1070
   140
1040
2.8
1002
}
1001
ACAD_DSTYLE_DIM_LINETYPE
1070
   380
1005
16
1001
ACAD_DSTYLE_DIM_EXT1_LINETYPE
1070
   381
1005
16
1001
ACAD_DSTYLE_DIM_EXT2_LINETYPE
1070
   382
1005
16
0
DIMENSION
5
1D7
100
AcDbEntity
8
SK2
62
256
6
ByLayer
370
18
48
1
60
0
100
AcDbDimension
2
_U6
10
55
20
-37.50012
30
0
11
9.5
21
-37.50012
31
0
70
32
71
1
72
1
41
1
210
0
220
0
230
1
3
Standard
100
AcDbAlignedDimension
13
-36
23
0
33
0
14
55
24
0
34
0
50
0
100
AcDbRotatedDimension
1001
ACAD
1000
DSTYLE
1002
{
1070
   371
1070
    13
1070
   372
1070
    13
1070
     3
1000

1070
   170
1070
     0
1070
   144
1040
1.0
1070
   277
1070
     2
1070
   284
1070
     8
1070
   278
1070
    46
1070
   146
1040
0.999966
1070
   345
1005
16
1070
   347
1005
16
1070
   346
1005
16
1070
   344
1005
121
1070
   343
1005
121
1070
   172
1070
     1
1070
    76
1070
     0
1070
    75
1070
     0
1070
   282
1070
     0
1070
   281
1070
     0
1070
    71
1070
     0
1070
    74
1070
     0
1070
   279
1070
     0
1070
   173
1070
     1
1070
   340
1005
11B
1070
   271
1070
     1
1070
   272
1070
     2
1070
    77
1070
     1
1070
    73
1070
     1
1070
   171
1070
     3
1070
   274
1070
     4
1070
   177
1070
   150
1070
   176
1070
     9
1070
   178
1070
    43
1070
    78
1070
     8
1070
    48
1040
-0.1
1070
    41
1040
3.175
1070
   147
1040
1.75006
1070
    42
1040
1.5875
1070
    44
1040
3.175
1070
   140
1040
3.50012
1002
}
1001
ACAD_DSTYLE_DIM_LINETYPE
1070
   380
1005
16
1001
ACAD_DSTYLE_DIM_EXT1_LINETYPE
1070
   381
1005
16
1001
ACAD_DSTYLE_DIM_EXT2_LINETYPE
1070
   382
1005
16
0
ENDSEC
0
SECTION
2
OBJECTS
0
DICTIONARY
5
263
330
0
100
AcDbDictionary
280
0
281
1
3
ACAD_GROUP
350
264
3
ACAD_MLINESTYLE
350
265
0
DICTIONARY
5
264
330
0
100
AcDbDictionary
280
0
281
1
0
DICTIONARY
5
265
330
0
100
AcDbDictionary
280
0
281
1
3
Standard
350
18
0
MLINESTYLE
5
18
330
265
100
AcDbMlineStyle
2
Standard
70
0
3

62
256
51
90
52
90
71
2
49
-0.5
62
256
6
ByLayer
49
0.5
62
256
6
ByLayer
0
RASTERVARIABLES
5
251
330

100
AcDbRasterVariables
90
0
70
1
71
1
72
1
0
ENDSEC
0
EOF
