0
SECTION
2
HEADER
9
$ACADVER
1
AC1015
9
$DWGCODEPAGE
3
ANSI_1252
9
$HANDSEED
5
26d
9
$ANGBASE
50
0
9
$ANGDIR
70
0
9
$ATTMODE
70
1
9
$AUNITS
70
0
9
$AUPREC
70
0
9
$CECOLOR
62
256
9
$CELTSCALE
40
1
9
$CELTYPE
6
ByLayer
9
$CELWEIGHT
370
18
9
$CLAYER
8
0
9
$CMLJUST
70
0
9
$CMLSCALE
40
1
9
$CMLSTYLE
2
Standard
9
$DIMSTYLE
2
Standard
9
$TEXTSIZE
40
0.2
9
$TEXTSTYLE
7
Standard
9
$LUNITS
70
2
9
$LUPREC
70
4
9
$EXTNAMES
290
1
9
$INSUNITS
70
4
9
$LTSCALE
40
1
9
$LWDISPLAY
290
1
9
$PDMODE
70
0
9
$PDSIZE
40
0
9
$PLINEGEN
70
0
0
ENDSEC
0
SECTION
2
CLASSES
0
CLASS
1
RASTERVARIABLES
2
AcDbRasterVariables
3
ISM
90
0
280
0
281
0
0
ENDSEC
0
SECTION
2
TABLES
0
TABLE
2
VPORT
5
263
100
AcDbSymbolTable
0
VPORT
5
1
100
AcDbSymbolTableRecord
100
AcDbViewportTableRecord
2
*Active
70
0
10
0
20
0
11
1
21
1
12
-1
22
1
13
0
23
0
14
0.5
24
0.5
15
10
25
10
16
0
26
0
36
1
17
0
27
0
37
0
0
ENDTAB
0
TABLE
2
LTYPE
5
264
100
AcDbSymbolTable
0
LTYPE
5
14
100
AcDbSymbolTableRecord
100
AcDbLinetypeTableRecord
70
0
2
ByBlock
3

72
65
73
0
40
0
0
LTYPE
5
15
100
AcDbSymbolTableRecord
100
AcDbLinetypeTableRecord
70
0
2
ByLayer
3

72
65
73
0
40
0
0
LTYPE
5
16
100
AcDbSymbolTableRecord
100
AcDbLinetypeTableRecord
70
0
2
Continuous
3
Solid line
72
65
73
0
40
0
0
LTYPE
5
6E
100
AcDbSymbolTableRecord
100
AcDbLinetypeTableRecord
70
0
2
CENTER
3
____ _ ____ _ ____ _ ____
72
65
73
4
40
47.5
49
22
74
0
49
-8.5
74
0
49
8.5
74
0
49
-8.5
74
0
0
LTYPE
5
6F
100
AcDbSymbolTableRecord
100
AcDbLinetypeTableRecord
70
0
2
DASHED
3
__ __ __ __ __ __ __ __ __
72
65
73
2
40
25.72
49
12.86
74
0
49
-12.86
74
0
0
ENDTAB
0
TABLE
2
LAYER
5
265
100
AcDbSymbolTable
0
LAYER
5
10
100
AcDbSymbolTableRecord
100
AcDbLayerTableRecord
2
0
70
0
62
7
6
Continuous
290
1
370
-3
390
0
0
LAYER
5
71
100
AcDbSymbolTableRecord
100
AcDbLayerTableRecord
2
80
70
0
62
-6
6
Continuous
290
1
370
-3
390
0
0
LAYER
5
73
100
AcDbSymbolTableRecord
100
AcDbLayerTableRecord
2
81
70
0
62
-3
6
Continuous
290
1
370
-3
390
0
0
LAYER
5
75
100
AcDbSymbolTableRecord
100
AcDbLayerTableRecord
2
1
70
0
62
4
6
Continuous
290
1
370
-3
390
0
0
LAYER
5
A7
100
AcDbSymbolTableRecord
100
AcDbLayerTableRecord
2
4
70
0
62
-2
6
CENTER
290
1
370
-3
390
0
0
LAYER
5
127
100
AcDbSymbolTableRecord
100
AcDbLayerTableRecord
2
Defpoints
70
0
62
7
6
Continuous
290
0
370
-3
390
0
0
LAYER
5
154
100
AcDbSymbolTableRecord
100
AcDbLayerTableRecord
2
2
70
0
62
7
6
Continuous
290
1
370
-3
390
0
0
LAYER
5
24f
100
AcDbSymbolTableRecord
100
AcDbLayerTableRecord
2
SK1
70
0
62
4
6
Continuous
290
1
370
-3
390
0
0
LAYER
5
250
100
AcDbSymbolTableRecord
100
AcDbLayerTableRecord
2
SK4
70
0
62
2
6
CENTER
290
1
370
-3
390
0
0
LAYER
5
251
100
AcDbSymbolTableRecord
100
AcDbLayerTableRecord
2
SK2
70
0
62
7
6
Continuous
290
1
370
-3
390
0
0
LAYER
5
252
100
AcDbSymbolTableRecord
100
AcDbLayerTableRecord
2
SK6
70
0
62
5
6
Continuous
290
1
370
-3
390
0
0
ENDTAB
0
TABLE
2
STYLE
5
266
100
AcDbSymbolTable
0
STYLE
5
11
100
AcDbSymbolTableRecord
100
AcDbTextStyleTableRecord
2
Standard
3
txt
70
0
71
0
40
0
41
1
42
0
50
0
0
STYLE
5
118
100
AcDbSymbolTableRecord
100
AcDbTextStyleTableRecord
2
iso_b_vert
3
simplex.shx
70
0
71
0
40
0
41
1
42
0
50
0
0
STYLE
5
119
100
AcDbSymbolTableRecord
100
AcDbTextStyleTableRecord
2
DWGDirectTextStyle
3
simplex
70
0
71
0
40
0
41
1
42
0
50
0
0
ENDTAB
0
TABLE
2
DIMSTYLE
5
267
100
AcDbSymbolTable
100
AcDbDimStyleTable
0
DIMSTYLE
105
27
100
AcDbSymbolTableRecord
100
AcDbDimStyleTableRecord
2
Standard
70
0
3
<>
41
0.18
42
0.0625
44
0.18
140
0.18
147
0.09
73
0
74
0
77
1
271
2
275
0
278
52
280
0
340
11
0
ENDTAB
0
TABLE
2
VIEW
5
268
100
AcDbSymbolTable
0
ENDTAB
0
TABLE
2
UCS
5
269
100
AcDbSymbolTable
0
ENDTAB
0
TABLE
2
APPID
5
26a
100
AcDbSymbolTable
0
APPID
5
12
100
AcDbSymbolTableRecord
100
AcDbRegAppTableRecord
2
ACAD
70
0
0
APPID
5
11C
100
AcDbSymbolTableRecord
100
AcDbRegAppTableRecord
2
ACAD_DSTYLE_DIMBREAK
70
0
0
APPID
5
20E
100
AcDbSymbolTableRecord
100
AcDbRegAppTableRecord
2
ACAD_DSTYLE_DIM_LINETYPE
70
0
0
APPID
5
20F
100
AcDbSymbolTableRecord
100
AcDbRegAppTableRecord
2
ACAD_DSTYLE_DIM_EXT1_LINETYPE
70
0
0
APPID
5
210
100
AcDbSymbolTableRecord
100
AcDbRegAppTableRecord
2
ACAD_DSTYLE_DIM_EXT2_LINETYPE
70
0
0
APPID
5
24B
100
AcDbSymbolTableRecord
100
AcDbRegAppTableRecord
2
ACAD_MLEADERVER
70
0
0
ENDTAB
0
TABLE
2
BLOCK_RECORD
5
26b
100
AcDbSymbolTable
0
BLOCK_RECORD
5
1F
100
AcDbSymbolTableRecord
100
AcDbBlockTableRecord
2
*Model_Space
340
0
70
0
0
BLOCK_RECORD
5
1B
100
AcDbSymbolTableRecord
100
AcDbBlockTableRecord
2
*Paper_Space
340
0
70
0
0
BLOCK_RECORD
5
23
100
AcDbSymbolTableRecord
100
AcDbBlockTableRecord
2
*Paper_Space0
340
0
70
0
0
BLOCK_RECORD
5
11E
100
AcDbSymbolTableRecord
100
AcDbBlockTableRecord
2
_Closed
340
0
70
0
0
BLOCK_RECORD
5
128
100
AcDbSymbolTableRecord
100
AcDbBlockTableRecord
2
*D2
340
0
70
0
0
BLOCK_RECORD
5
134
100
AcDbSymbolTableRecord
100
AcDbBlockTableRecord
2
_U0
340
0
70
0
0
BLOCK_RECORD
5
146
100
AcDbSymbolTableRecord
100
AcDbBlockTableRecord
2
*D4
340
0
70
0
0
BLOCK_RECORD
5
155
100
AcDbSymbolTableRecord
100
AcDbBlockTableRecord
2
_U1
340
0
70
0
0
BLOCK_RECORD
5
165
100
AcDbSymbolTableRecord
100
AcDbBlockTableRecord
2
*D6
340
0
70
0
0
BLOCK_RECORD
5
173
100
AcDbSymbolTableRecord
100
AcDbBlockTableRecord
2
_U2
340
0
70
0
0
BLOCK_RECORD
5
183
100
AcDbSymbolTableRecord
100
AcDbBlockTableRecord
2
*D8
340
0
70
0
0
BLOCK_RECORD
5
18F
100
AcDbSymbolTableRecord
100
AcDbBlockTableRecord
2
_U3
340
0
70
0
0
BLOCK_RECORD
5
19F
100
AcDbSymbolTableRecord
100
AcDbBlockTableRecord
2
*D10
340
0
70
0
0
BLOCK_RECORD
5
1AB
100
AcDbSymbolTableRecord
100
AcDbBlockTableRecord
2
_U4
340
0
70
0
0
BLOCK_RECORD
5
1BB
100
AcDbSymbolTableRecord
100
AcDbBlockTableRecord
2
*D12
340
0
70
0
0
BLOCK_RECORD
5
1C7
100
AcDbSymbolTableRecord
100
AcDbBlockTableRecord
2
_U5
340
0
70
0
0
BLOCK_RECORD
5
1D7
100
AcDbSymbolTableRecord
100
AcDbBlockTableRecord
2
*D14
340
0
70
0
0
BLOCK_RECORD
5
1E3
100
AcDbSymbolTableRecord
100
AcDbBlockTableRecord
2
_U6
340
0
70
0
0
ENDTAB
0
ENDSEC
0
SECTION
2
BLOCKS
0
BLOCK
5
20
100
AcDbEntity
8
0
100
AcDbBlockBegin
2
*Model_Space
70
0
10
0
20
0
30
0
3
*Model_Space
0
ENDBLK
5
21
100
AcDbEntity
8
0
100
AcDbBlockEnd
0
BLOCK
5
1C
100
AcDbEntity
8
0
100
AcDbBlockBegin
2
*Paper_Space
70
0
10
0
20
0
30
0
3
*Paper_Space
0
ENDBLK
5
1D
100
AcDbEntity
8
0
100
AcDbBlockEnd
0
BLOCK
5
24
100
AcDbEntity
8
0
100
AcDbBlockBegin
2
*Paper_Space0
70
0
10
0
20
0
30
0
3
*Paper_Space0
0
ENDBLK
5
25
100
AcDbEntity
8
0
100
AcDbBlockEnd
0
BLOCK
5
11F
100
AcDbEntity
8
0
100
AcDbBlockBegin
2
_Closed
70
0
10
0
20
0
30
0
3
_Closed
0
LINE
5
121
100
AcDbEntity
8
0
62
256
6
ByLayer
370
-2
48
1
60
0
100
AcDbLine
10
-1
20
0.166667
30
0
11
0
21
0
31
0
39
0
210
0
220
0
230
1
0
LINE
5
122
100
AcDbEntity
8
0
62
256
6
ByLayer
370
-2
48
1
60
0
100
AcDbLine
10
0
20
0
30
0
11
-1
21
-0.166667
31
0
39
0
210
0
220
0
230
1
0
LINE
5
123
100
AcDbEntity
8
0
62
256
6
ByLayer
370
-2
48
1
60
0
100
AcDbLine
10
-1
20
0.166667
30
0
11
-1
21
-0.166667
31
0
39
0
210
0
220
0
230
1
0
LINE
5
124
100
AcDbEntity
8
0
62
256
6
ByLayer
370
-2
48
1
60
0
100
AcDbLine
10
0
20
0
30
0
11
-1
21
0
31
0
39
0
210
0
220
0
230
1
0
ENDBLK
5
120
100
AcDbEntity
8
0
100
AcDbBlockEnd
0
BLOCK
5
129
100
AcDbEntity
8
0
100
AcDbBlockBegin
2
*D2
70
1
10
0
20
0
30
0
3
*D2
0
LINE
5
12B
100
AcDbEntity
8
0
62
256
6
ByLayer
370
-2
48
1
60
0
100
AcDbLine
10
0
20
-5.5875
30
0
11
0
21
-30.67512
31
0
39
0
210
0
220
0
230
1
0
LINE
5
12C
100
AcDbEntity
8
0
62
256
6
ByLayer
370
-2
48
1
60
0
100
AcDbLine
10
55
20
-1.5875
30
0
11
55
21
-30.67512
31
0
39
0
210
0
220
0
230
1
0
LINE
5
12D
100
AcDbEntity
8
0
62
256
6
ByLayer
370
-2
48
1
60
0
100
AcDbLine
10
3.175
20
-27.50012
30
0
11
51.825
21
-27.50012
31
0
39
0
210
0
220
0
230
1
0
SOLID
5
12E
100
AcDbEntity
8
0
62
256
6
ByLayer
370
-1
48
1
60
0
100
AcDbTrace
10
3.175
20
-26.970953
30
0
11
3.175
21
-28.029287
31
0
12
0
22
-27.50012
32
0
13
0
23
-27.50012
33
0
39
0
210
0
220
0
230
1
0
SOLID
5
12F
100
AcDbEntity
8
0
62
256
6
ByLayer
370
-1
48
1
60
0
100
AcDbTrace
10
51.825
20
-28.029287
30
0
11
51.825
21
-26.970953
31
0
12
55
22
-27.50012
32
0
13
55
23
-27.50012
33
0
39
0
210
0
220
0
230
1
0
MTEXT
5
130
100
AcDbEntity
8
0
62
256
6
ByLayer
370
18
48
1
60
0
100
AcDbMText
10
27.5
20
-20.193619
30
0
210
0
220
0
230
1
1
\A1;55
40
3.50012
41
0
44
1
50
0
71
5
72
5
7
iso_b_vert
0
POINT
5
131
100
AcDbEntity
8
Defpoints
62
0
6
ByLayer
370
-1
48
1
60
0
100
AcDbPoint
10
0
20
-4
30
0
39
0
210
0
220
0
230
1
50
360
0
POINT
5
132
100
AcDbEntity
8
Defpoints
62
0
6
ByLayer
370
-1
48
1
60
0
100
AcDbPoint
10
55
20
0
30
0
39
0
210
0
220
0
230
1
50
360
0
POINT
5
133
100
AcDbEntity
8
Defpoints
62
0
6
ByLayer
370
-1
48
1
60
0
100
AcDbPoint
10
55
20
-27.50012
30
0
39
0
210
0
220
0
230
1
50
360
0
ENDBLK
5
12A
100
AcDbEntity
8
0
100
AcDbBlockEnd
0
BLOCK
5
141
100
AcDbEntity
8
0
100
AcDbBlockBegin
2
_U0
70
0
10
0
20
0
30
0
3
_U0
0
MTEXT
5
135
100
AcDbEntity
8
SK2
62
256
6
ByLayer
370
18
48
1
60
0
100
AcDbMText
10
22.270389
20
-26.467451
30
0
210
0
220
0
230
1
1
\W0.7468;55.00
40
3.50012
41
0
44
1.084337
50
0
71
7
72
5
7
iso_b_vert
0
MTEXT
5
136
100
AcDbEntity
8
SK2
62
256
6
ByLayer
370
18
48
1
60
0
100
AcDbMText
10
18.744329
20
-26.400814
30
0
210
0
220
0
230
1
1
\W0.1790;(
40
3.175
41
0
44
1.084337
50
0
71
7
72
5
7
iso_b_vert
0
MTEXT
5
137
100
AcDbEntity
8
SK2
62
256
6
ByLayer
370
18
48
1
60
0
100
AcDbMText
10
36.258393
20
-26.400814
30
0
210
0
220
0
230
1
1
\W0.1969;)
40
3.175
41
0
44
1.084337
50
0
71
7
72
5
7
iso_b_vert
0
LINE
5
138
100
AcDbEntity
8
SK2
62
256
6
ByLayer
370
13
48
1
60
0
100
AcDbLine
10
0
20
-5.5875
30
0
11
0
21
-30.67512
31
0
39
0
210
0
220
0
230
1
0
LINE
5
139
100
AcDbEntity
8
SK2
62
256
6
ByLayer
370
13
48
1
60
0
100
AcDbLine
10
55
20
-1.5875
30
0
11
55
21
-30.67512
31
0
39
0
210
0
220
0
230
1
0
LINE
5
13A
100
AcDbEntity
8
SK2
62
256
6
ByLayer
370
13
48
1
60
0
100
AcDbLine
10
0
20
-27.50012
30
0
11
55
21
-27.50012
31
0
39
0
210
0
220
0
230
1
0
LINE
5
13B
100
AcDbEntity
8
SK2
62
256
6
ByLayer
370
13
48
1
60
0
100
AcDbLine
10
0
20
-27.50012
30
0
11
3.174998
21
-27.082123
31
0
39
0
210
0
220
0
230
1
0
LINE
5
13C
100
AcDbEntity
8
SK2
62
256
6
ByLayer
370
13
48
1
60
0
100
AcDbLine
10
0
20
-27.50012
30
0
11
3.175002
21
-27.918117
31
0
39
0
210
0
220
0
230
1
0
LINE
5
13D
100
AcDbEntity
8
SK2
62
256
6
ByLayer
370
13
48
1
60
0
100
AcDbLine
10
3.174998
20
-27.082123
30
0
11
3.175002
21
-27.918117
31
0
39
0
210
0
220
0
230
1
0
LINE
5
13E
100
AcDbEntity
8
SK2
62
256
6
ByLayer
370
13
48
1
60
0
100
AcDbLine
10
55
20
-27.50012
30
0
11
51.825002
21
-27.918117
31
0
39
0
210
0
220
0
230
1
0
LINE
5
13F
100
AcDbEntity
8
SK2
62
256
6
ByLayer
370
13
48
1
60
0
100
AcDbLine
10
55
20
-27.50012
30
0
11
51.824998
21
-27.082123
31
0
39
0
210
0
220
0
230
1
0
LINE
5
140
100
AcDbEntity
8
SK2
62
256
6
ByLayer
370
13
48
1
60
0
100
AcDbLine
10
51.825002
20
-27.918117
30
0
11
51.824998
21
-27.082123
31
0
39
0
210
0
220
0
230
1
0
ENDBLK
5
142
100
AcDbEntity
8
0
100
AcDbBlockEnd
0
BLOCK
5
147
100
AcDbEntity
8
0
100
AcDbBlockBegin
2
*D4
70
1
10
0
20
0
30
0
3
*D4
0
LINE
5
149
100
AcDbEntity
8
0
62
256
6
ByLayer
370
-2
48
1
60
0
100
AcDbLine
10
55.35
20
-3.4
30
0
11
64.92506
21
-3.4
31
0
39
0
210
0
220
0
230
1
0
LINE
5
14A
100
AcDbEntity
8
0
62
256
6
ByLayer
370
-2
48
1
60
0
100
AcDbLine
10
55.35
20
3.4
30
0
11
64.92506
21
3.4
31
0
39
0
210
0
220
0
230
1
0
LINE
5
14B
100
AcDbEntity
8
0
62
256
6
ByLayer
370
-2
48
1
60
0
100
AcDbLine
10
61.75006
20
3.4
30
0
11
61.75006
21
28.029793
31
0
39
0
210
0
220
0
230
1
0
LINE
5
14C
100
AcDbEntity
8
0
62
256
6
ByLayer
370
-2
48
1
60
0
100
AcDbLine
10
61.75006
20
-6.575
30
0
11
61.75006
21
-9.75
31
0
39
0
210
0
220
0
230
1
0
LINE
5
14D
100
AcDbEntity
8
0
62
256
6
ByLayer
370
-2
48
1
60
0
100
AcDbLine
10
61.75006
20
6.575
30
0
11
61.75006
21
9.75
31
0
39
0
210
0
220
0
230
1
0
SOLID
5
14E
100
AcDbEntity
8
0
62
256
6
ByLayer
370
-1
48
1
60
0
100
AcDbTrace
10
62.279227
20
-6.575
30
0
11
61.220893
21
-6.575
31
0
12
61.75006
22
-3.4
32
0
13
61.75006
23
-3.4
33
0
39
0
210
0
220
0
230
1
0
SOLID
5
14F
100
AcDbEntity
8
0
62
256
6
ByLayer
370
-1
48
1
60
0
100
AcDbTrace
10
61.220893
20
6.575
30
0
11
62.279227
21
6.575
31
0
12
61.75006
22
3.4
32
0
13
61.75006
23
3.4
33
0
39
0
210
0
220
0
230
1
0
MTEXT
5
150
100
AcDbEntity
8
0
62
256
6
ByLayer
370
18
48
1
60
0
100
AcDbMText
10
54.443559
20
18.889897
30
0
210
0
220
0
230
1
1
\A1;6.8
40
3.50012
41
0
44
1
50
90
71
5
72
5
7
iso_b_vert
0
POINT
5
151
100
AcDbEntity
8
Defpoints
62
0
6
ByLayer
370
-1
48
1
60
0
100
AcDbPoint
10
53.7625
20
-3.4
30
0
39
0
210
0
220
0
230
1
50
360
0
POINT
5
152
100
AcDbEntity
8
Defpoints
62
0
6
ByLayer
370
-1
48
1
60
0
100
AcDbPoint
10
53.7625
20
3.4
30
0
39
0
210
0
220
0
230
1
50
360
0
POINT
5
153
100
AcDbEntity
8
Defpoints
62
0
6
ByLayer
370
-1
48
1
60
0
100
AcDbPoint
10
61.75006
20
3.4
30
0
39
0
210
0
220
0
230
1
50
360
0
ENDBLK
5
148
100
AcDbEntity
8
0
100
AcDbBlockEnd
0
BLOCK
5
160
100
AcDbEntity
8
0
100
AcDbBlockBegin
2
_U1
70
0
10
0
20
0
30
0
3
_U1
0
MTEXT
5
156
100
AcDbEntity
8
2
62
256
6
ByLayer
370
18
48
1
60
0
100
AcDbMText
10
61.060403
20
7.557505
30
0
210
0
220
0
230
1
1
\W0.7346;6.80
40
3.50012
41
0
44
1.084337
50
90
71
7
72
5
7
iso_b_vert
0
LINE
5
157
100
AcDbEntity
8
2
62
256
6
ByLayer
370
13
48
1
60
0
100
AcDbLine
10
55.35
20
-3.4
30
0
11
64.92506
21
-3.4
31
0
39
0
210
0
220
0
230
1
0
LINE
5
158
100
AcDbEntity
8
2
62
256
6
ByLayer
370
13
48
1
60
0
100
AcDbLine
10
55.35
20
3.4
30
0
11
64.92506
21
3.4
31
0
39
0
210
0
220
0
230
1
0
LINE
5
159
100
AcDbEntity
8
2
62
256
6
ByLayer
370
13
48
1
60
0
100
AcDbLine
10
61.75006
20
-3.4
30
0
11
61.75006
21
15.61468
31
0
39
0
210
0
220
0
230
1
0
LINE
5
15A
100
AcDbEntity
8
2
62
256
6
ByLayer
370
13
48
1
60
0
100
AcDbLine
10
61.75006
20
-3.4
30
0
11
61.332063
21
-0.225002
31
0
39
0
210
0
220
0
230
1
0
LINE
5
15B
100
AcDbEntity
8
2
62
256
6
ByLayer
370
13
48
1
60
0
100
AcDbLine
10
61.75006
20
-3.4
30
0
11
62.168057
21
-0.224998
31
0
39
0
210
0
220
0
230
1
0
LINE
5
15C
100
AcDbEntity
8
2
62
256
6
ByLayer
370
13
48
1
60
0
100
AcDbLine
10
61.332063
20
-0.225002
30
0
11
62.168057
21
-0.224998
31
0
39
0
210
0
220
0
230
1
0
LINE
5
15D
100
AcDbEntity
8
2
62
256
6
ByLayer
370
13
48
1
60
0
100
AcDbLine
10
61.75006
20
3.4
30
0
11
62.168057
21
0.225002
31
0
39
0
210
0
220
0
230
1
0
LINE
5
15E
100
AcDbEntity
8
2
62
256
6
ByLayer
370
13
48
1
60
0
100
AcDbLine
10
61.75006
20
3.4
30
0
11
61.332063
21
0.224998
31
0
39
0
210
0
220
0
230
1
0
LINE
5
15F
100
AcDbEntity
8
2
62
256
6
ByLayer
370
13
48
1
60
0
100
AcDbLine
10
62.168057
20
0.225002
30
0
11
61.332063
21
0.224998
31
0
39
0
210
0
220
0
230
1
0
ENDBLK
5
161
100
AcDbEntity
8
0
100
AcDbBlockEnd
0
BLOCK
5
166
100
AcDbEntity
8
0
100
AcDbBlockBegin
2
*D6
70
1
10
0
20
0
30
0
3
*D6
0
LINE
5
168
100
AcDbEntity
8
0
62
256
6
ByLayer
370
-2
48
1
60
0
100
AcDbLine
10
-37.5875
20
4
30
0
11
-42.42494
21
4
31
0
39
0
210
0
220
0
230
1
0
LINE
5
169
100
AcDbEntity
8
0
62
256
6
ByLayer
370
-2
48
1
60
0
100
AcDbLine
10
-37.5875
20
-4
30
0
11
-42.42494
21
-4
31
0
39
0
210
0
220
0
230
1
0
LINE
5
16A
100
AcDbEntity
8
0
62
256
6
ByLayer
370
-2
48
1
60
0
100
AcDbLine
10
-39.24994
20
4
30
0
11
-39.24994
21
24.830487
31
0
39
0
210
0
220
0
230
1
0
LINE
5
16B
100
AcDbEntity
8
0
62
256
6
ByLayer
370
-2
48
1
60
0
100
AcDbLine
10
-39.24994
20
7.175
30
0
11
-39.24994
21
10.35
31
0
39
0
210
0
220
0
230
1
0
LINE
5
16C
100
AcDbEntity
8
0
62
256
6
ByLayer
370
-2
48
1
60
0
100
AcDbLine
10
-39.24994
20
-7.175
30
0
11
-39.24994
21
-10.35
31
0
39
0
210
0
220
0
230
1
0
SOLID
5
16D
100
AcDbEntity
8
0
62
256
6
ByLayer
370
-1
48
1
60
0
100
AcDbTrace
10
-39.779107
20
7.175
30
0
11
-38.720773
21
7.175
31
0
12
-39.24994
22
4
32
0
13
-39.24994
23
4
33
0
39
0
210
0
220
0
230
1
0
SOLID
5
16E
100
AcDbEntity
8
0
62
256
6
ByLayer
370
-1
48
1
60
0
100
AcDbTrace
10
-38.720773
20
-7.175
30
0
11
-39.779107
21
-7.175
31
0
12
-39.24994
22
-4
32
0
13
-39.24994
23
-4
33
0
39
0
210
0
220
0
230
1
0
MTEXT
5
16F
100
AcDbEntity
8
0
62
256
6
ByLayer
370
18
48
1
60
0
100
AcDbMText
10
-46.556441
20
18.10734
30
0
210
0
220
0
230
1
1
\A1;8
40
3.50012
41
0
44
1
50
90
71
5
72
5
7
iso_b_vert
0
POINT
5
170
100
AcDbEntity
8
Defpoints
62
0
6
ByLayer
370
-1
48
1
60
0
100
AcDbPoint
10
-36
20
4
30
0
39
0
210
0
220
0
230
1
50
360
0
POINT
5
171
100
AcDbEntity
8
Defpoints
62
0
6
ByLayer
370
-1
48
1
60
0
100
AcDbPoint
10
-36
20
-4
30
0
39
0
210
0
220
0
230
1
50
360
0
POINT
5
172
100
AcDbEntity
8
Defpoints
62
0
6
ByLayer
370
-1
48
1
60
0
100
AcDbPoint
10
-39.24994
20
-4
30
0
39
0
210
0
220
0
230
1
50
360
0
ENDBLK
5
167
100
AcDbEntity
8
0
100
AcDbBlockEnd
0
BLOCK
5
17E
100
AcDbEntity
8
0
100
AcDbBlockBegin
2
_U2
70
0
10
0
20
0
30
0
3
_U2
0
MTEXT
5
174
100
AcDbEntity
8
SK2
62
256
6
ByLayer
370
18
48
1
60
0
100
AcDbMText
10
-39.939597
20
14.157505
30
0
210
0
220
0
230
1
1
\W0.7346;8.00
40
3.50012
41
0
44
1.084337
50
90
71
7
72
5
7
iso_b_vert
0
LINE
5
175
100
AcDbEntity
8
SK2
62
256
6
ByLayer
370
13
48
1
60
0
100
AcDbLine
10
-37.5875
20
4
30
0
11
-42.42494
21
4
31
0
39
0
210
0
220
0
230
1
0
LINE
5
176
100
AcDbEntity
8
SK2
62
256
6
ByLayer
370
13
48
1
60
0
100
AcDbLine
10
-37.5875
20
-4
30
0
11
-42.42494
21
-4
31
0
39
0
210
0
220
0
230
1
0
LINE
5
177
100
AcDbEntity
8
SK2
62
256
6
ByLayer
370
13
48
1
60
0
100
AcDbLine
10
-39.24994
20
-4
30
0
11
-39.24994
21
22.21468
31
0
39
0
210
0
220
0
230
1
0
LINE
5
178
100
AcDbEntity
8
SK2
62
256
6
ByLayer
370
13
48
1
60
0
100
AcDbLine
10
-39.24994
20
4
30
0
11
-38.831943
21
0.825002
31
0
39
0
210
0
220
0
230
1
0
LINE
5
179
100
AcDbEntity
8
SK2
62
256
6
ByLayer
370
13
48
1
60
0
100
AcDbLine
10
-39.24994
20
4
30
0
11
-39.667937
21
0.824998
31
0
39
0
210
0
220
0
230
1
0
LINE
5
17A
100
AcDbEntity
8
SK2
62
256
6
ByLayer
370
13
48
1
60
0
100
AcDbLine
10
-38.831943
20
0.825002
30
0
11
-39.667937
21
0.824998
31
0
39
0
210
0
220
0
230
1
0
LINE
5
17B
100
AcDbEntity
8
SK2
62
256
6
ByLayer
370
13
48
1
60
0
100
AcDbLine
10
-39.24994
20
-4
30
0
11
-39.667937
21
-0.825002
31
0
39
0
210
0
220
0
230
1
0
LINE
5
17C
100
AcDbEntity
8
SK2
62
256
6
ByLayer
370
13
48
1
60
0
100
AcDbLine
10
-39.24994
20
-4
30
0
11
-38.831943
21
-0.824998
31
0
39
0
210
0
220
0
230
1
0
LINE
5
17D
100
AcDbEntity
8
SK2
62
256
6
ByLayer
370
13
48
1
60
0
100
AcDbLine
10
-39.667937
20
-0.825002
30
0
11
-38.831943
21
-0.824998
31
0
39
0
210
0
220
0
230
1
0
ENDBLK
5
17F
100
AcDbEntity
8
0
100
AcDbBlockEnd
0
BLOCK
5
184
100
AcDbEntity
8
0
100
AcDbBlockBegin
2
*D8
70
1
10
0
20
0
30
0
3
*D8
0
LINE
5
186
100
AcDbEntity
8
0
62
256
6
ByLayer
370
-2
48
1
60
0
100
AcDbLine
10
-36
20
-5.5875
30
0
11
-36
21
-30.67512
31
0
39
0
210
0
220
0
230
1
0
LINE
5
187
100
AcDbEntity
8
0
62
256
6
ByLayer
370
-2
48
1
60
0
100
AcDbLine
10
0
20
-5.5875
30
0
11
0
21
-30.67512
31
0
39
0
210
0
220
0
230
1
0
LINE
5
188
100
AcDbEntity
8
0
62
256
6
ByLayer
370
-2
48
1
60
0
100
AcDbLine
10
-32.825
20
-27.50012
30
0
11
-3.175
21
-27.50012
31
0
39
0
210
0
220
0
230
1
0
SOLID
5
189
100
AcDbEntity
8
0
62
256
6
ByLayer
370
-1
48
1
60
0
100
AcDbTrace
10
-32.825
20
-26.970953
30
0
11
-32.825
21
-28.029287
31
0
12
-36
22
-27.50012
32
0
13
-36
23
-27.50012
33
0
39
0
210
0
220
0
230
1
0
SOLID
5
18A
100
AcDbEntity
8
0
62
256
6
ByLayer
370
-1
48
1
60
0
100
AcDbTrace
10
-3.175
20
-28.029287
30
0
11
-3.175
21
-26.970953
31
0
12
0
22
-27.50012
32
0
13
0
23
-27.50012
33
0
39
0
210
0
220
0
230
1
0
MTEXT
5
18B
100
AcDbEntity
8
0
62
256
6
ByLayer
370
18
48
1
60
0
100
AcDbMText
10
-18
20
-20.193619
30
0
210
0
220
0
230
1
1
\A1;36
40
3.50012
41
0
44
1
50
0
71
5
72
5
7
iso_b_vert
0
POINT
5
18C
100
AcDbEntity
8
Defpoints
62
0
6
ByLayer
370
-1
48
1
60
0
100
AcDbPoint
10
-36
20
-4
30
0
39
0
210
0
220
0
230
1
50
360
0
POINT
5
18D
100
AcDbEntity
8
Defpoints
62
0
6
ByLayer
370
-1
48
1
60
0
100
AcDbPoint
10
0
20
-4
30
0
39
0
210
0
220
0
230
1
50
360
0
POINT
5
18E
100
AcDbEntity
8
Defpoints
62
0
6
ByLayer
370
-1
48
1
60
0
100
AcDbPoint
10
0
20
-27.50012
30
0
39
0
210
0
220
0
230
1
50
360
0
ENDBLK
5
185
100
AcDbEntity
8
0
100
AcDbBlockEnd
0
BLOCK
5
19A
100
AcDbEntity
8
0
100
AcDbBlockBegin
2
_U3
70
0
10
0
20
0
30
0
3
_U3
0
MTEXT
5
190
100
AcDbEntity
8
SK2
62
256
6
ByLayer
370
18
48
1
60
0
100
AcDbMText
10
-23.229611
20
-26.467451
30
0
210
0
220
0
230
1
1
\W0.7468;36.00
40
3.50012
41
0
44
1.084337
50
0
71
7
72
5
7
iso_b_vert
0
LINE
5
191
100
AcDbEntity
8
SK2
62
256
6
ByLayer
370
13
48
1
60
0
100
AcDbLine
10
-36
20
-5.5875
30
0
11
-36
21
-30.67512
31
0
39
0
210
0
220
0
230
1
0
LINE
5
192
100
AcDbEntity
8
SK2
62
256
6
ByLayer
370
13
48
1
60
0
100
AcDbLine
10
0
20
-5.5875
30
0
11
0
21
-30.67512
31
0
39
0
210
0
220
0
230
1
0
LINE
5
193
100
AcDbEntity
8
SK2
62
256
6
ByLayer
370
13
48
1
60
0
100
AcDbLine
10
-36
20
-27.50012
30
0
11
0
21
-27.50012
31
0
39
0
210
0
220
0
230
1
0
LINE
5
194
100
AcDbEntity
8
SK2
62
256
6
ByLayer
370
13
48
1
60
0
100
AcDbLine
10
-36
20
-27.50012
30
0
11
-32.825002
21
-27.082123
31
0
39
0
210
0
220
0
230
1
0
LINE
5
195
100
AcDbEntity
8
SK2
62
256
6
ByLayer
370
13
48
1
60
0
100
AcDbLine
10
-36
20
-27.50012
30
0
11
-32.824998
21
-27.918117
31
0
39
0
210
0
220
0
230
1
0
LINE
5
196
100
AcDbEntity
8
SK2
62
256
6
ByLayer
370
13
48
1
60
0
100
AcDbLine
10
-32.825002
20
-27.082123
30
0
11
-32.824998
21
-27.918117
31
0
39
0
210
0
220
0
230
1
0
LINE
5
197
100
AcDbEntity
8
SK2
62
256
6
ByLayer
370
13
48
1
60
0
100
AcDbLine
10
0
20
-27.50012
30
0
11
-3.174998
21
-27.918117
31
0
39
0
210
0
220
0
230
1
0
LINE
5
198
100
AcDbEntity
8
SK2
62
256
6
ByLayer
370
13
48
1
60
0
100
AcDbLine
10
0
20
-27.50012
30
0
11
-3.175002
21
-27.082123
31
0
39
0
210
0
220
0
230
1
0
LINE
5
199
100
AcDbEntity
8
SK2
62
256
6
ByLayer
370
13
48
1
60
0
100
AcDbLine
10
-3.174998
20
-27.918117
30
0
11
-3.175002
21
-27.082123
31
0
39
0
210
0
220
0
230
1
0
ENDBLK
5
19B
100
AcDbEntity
8
0
100
AcDbBlockEnd
0
BLOCK
5
1A0
100
AcDbEntity
8
0
100
AcDbBlockBegin
2
*D10
70
1
10
0
20
0
30
0
3
*D10
0
LINE
5
1A2
100
AcDbEntity
8
0
62
256
6
ByLayer
370
-2
48
1
60
0
100
AcDbLine
10
2
20
2.3125
30
0
11
2
21
-21.92482
31
0
39
0
210
0
220
0
230
1
0
LINE
5
1A3
100
AcDbEntity
8
0
62
256
6
ByLayer
370
-2
48
1
60
0
100
AcDbLine
10
55
20
-1.5875
30
0
11
55
21
-21.92482
31
0
39
0
210
0
220
0
230
1
0
LINE
5
1A4
100
AcDbEntity
8
0
62
256
6
ByLayer
370
-2
48
1
60
0
100
AcDbLine
10
5.175
20
-18.74982
30
0
11
51.825
21
-18.74982
31
0
39
0
210
0
220
0
230
1
0
SOLID
5
1A5
100
AcDbEntity
8
0
62
256
6
ByLayer
370
-1
48
1
60
0
100
AcDbTrace
10
5.175
20
-18.220653
30
0
11
5.175
21
-19.278987
31
0
12
2
22
-18.74982
32
0
13
2
23
-18.74982
33
0
39
0
210
0
220
0
230
1
0
SOLID
5
1A6
100
AcDbEntity
8
0
62
256
6
ByLayer
370
-1
48
1
60
0
100
AcDbTrace
10
51.825
20
-19.278987
30
0
11
51.825
21
-18.220653
31
0
12
55
22
-18.74982
32
0
13
55
23
-18.74982
33
0
39
0
210
0
220
0
230
1
0
MTEXT
5
1A7
100
AcDbEntity
8
0
62
256
6
ByLayer
370
18
48
1
60
0
100
AcDbMText
10
28.5
20
-11.443319
30
0
210
0
220
0
230
1
1
\A1;53
40
3.50012
41
0
44
1
50
0
71
5
72
5
7
iso_b_vert
0
POINT
5
1A8
100
AcDbEntity
8
Defpoints
62
0
6
ByLayer
370
-1
48
1
60
0
100
AcDbPoint
10
2
20
3.9
30
0
39
0
210
0
220
0
230
1
50
360
0
POINT
5
1A9
100
AcDbEntity
8
Defpoints
62
0
6
ByLayer
370
-1
48
1
60
0
100
AcDbPoint
10
55
20
0
30
0
39
0
210
0
220
0
230
1
50
360
0
POINT
5
1AA
100
AcDbEntity
8
Defpoints
62
0
6
ByLayer
370
-1
48
1
60
0
100
AcDbPoint
10
55
20
-18.74982
30
0
39
0
210
0
220
0
230
1
50
360
0
ENDBLK
5
1A1
100
AcDbEntity
8
0
100
AcDbBlockEnd
0
BLOCK
5
1B6
100
AcDbEntity
8
0
100
AcDbBlockBegin
2
_U4
70
0
10
0
20
0
30
0
3
_U4
0
MTEXT
5
1AC
100
AcDbEntity
8
SK2
62
256
6
ByLayer
370
18
48
1
60
0
100
AcDbMText
10
23.270389
20
-17.717151
30
0
210
0
220
0
230
1
1
\W0.7468;53.00
40
3.50012
41
0
44
1.084337
50
0
71
7
72
5
7
iso_b_vert
0
LINE
5
1AD
100
AcDbEntity
8
SK2
62
256
6
ByLayer
370
13
48
1
60
0
100
AcDbLine
10
2
20
2.3125
30
0
11
2
21
-21.92482
31
0
39
0
210
0
220
0
230
1
0
LINE
5
1AE
100
AcDbEntity
8
SK2
62
256
6
ByLayer
370
13
48
1
60
0
100
AcDbLine
10
55
20
-1.5875
30
0
11
55
21
-21.92482
31
0
39
0
210
0
220
0
230
1
0
LINE
5
1AF
100
AcDbEntity
8
SK2
62
256
6
ByLayer
370
13
48
1
60
0
100
AcDbLine
10
2
20
-18.74982
30
0
11
55
21
-18.74982
31
0
39
0
210
0
220
0
230
1
0
LINE
5
1B0
100
AcDbEntity
8
SK2
62
256
6
ByLayer
370
13
48
1
60
0
100
AcDbLine
10
2
20
-18.74982
30
0
11
5.174998
21
-18.331823
31
0
39
0
210
0
220
0
230
1
0
LINE
5
1B1
100
AcDbEntity
8
SK2
62
256
6
ByLayer
370
13
48
1
60
0
100
AcDbLine
10
2
20
-18.74982
30
0
11
5.175002
21
-19.167817
31
0
39
0
210
0
220
0
230
1
0
LINE
5
1B2
100
AcDbEntity
8
SK2
62
256
6
ByLayer
370
13
48
1
60
0
100
AcDbLine
10
5.174998
20
-18.331823
30
0
11
5.175002
21
-19.167817
31
0
39
0
210
0
220
0
230
1
0
LINE
5
1B3
100
AcDbEntity
8
SK2
62
256
6
ByLayer
370
13
48
1
60
0
100
AcDbLine
10
55
20
-18.74982
30
0
11
51.825002
21
-19.167817
31
0
39
0
210
0
220
0
230
1
0
LINE
5
1B4
100
AcDbEntity
8
SK2
62
256
6
ByLayer
370
13
48
1
60
0
100
AcDbLine
10
55
20
-18.74982
30
0
11
51.824998
21
-18.331823
31
0
39
0
210
0
220
0
230
1
0
LINE
5
1B5
100
AcDbEntity
8
SK2
62
256
6
ByLayer
370
13
48
1
60
0
100
AcDbLine
10
51.825002
20
-19.167817
30
0
11
51.824998
21
-18.331823
31
0
39
0
210
0
220
0
230
1
0
ENDBLK
5
1B7
100
AcDbEntity
8
0
100
AcDbBlockEnd
0
BLOCK
5
1BC
100
AcDbEntity
8
0
100
AcDbBlockBegin
2
*D12
70
1
10
0
20
0
30
0
3
*D12
0
LINE
5
1BE
100
AcDbEntity
8
0
62
256
6
ByLayer
370
-2
48
1
60
0
100
AcDbLine
10
19.8
20
-4.9875
30
0
11
19.8
21
-11.32
31
0
39
0
210
0
220
0
230
1
0
LINE
5
1BF
100
AcDbEntity
8
0
62
256
6
ByLayer
370
-2
48
1
60
0
100
AcDbLine
10
55
20
-1.5875
30
0
11
55
21
-11.32
31
0
39
0
210
0
220
0
230
1
0
LINE
5
1C0
100
AcDbEntity
8
0
62
256
6
ByLayer
370
-2
48
1
60
0
100
AcDbLine
10
22.975
20
-10.82
30
0
11
51.825
21
-10.82
31
0
39
0
210
0
220
0
230
1
0
SOLID
5
1C1
100
AcDbEntity
8
0
62
256
6
ByLayer
370
-1
48
1
60
0
100
AcDbTrace
10
22.975
20
-10.290833
30
0
11
22.975
21
-11.349167
31
0
12
19.8
22
-10.82
32
0
13
19.8
23
-10.82
33
0
39
0
210
0
220
0
230
1
0
SOLID
5
1C2
100
AcDbEntity
8
0
62
256
6
ByLayer
370
-1
48
1
60
0
100
AcDbTrace
10
51.825
20
-11.349167
30
0
11
51.825
21
-10.290833
31
0
12
55
22
-10.82
32
0
13
55
23
-10.82
33
0
39
0
210
0
220
0
230
1
0
MTEXT
5
1C3
100
AcDbEntity
8
0
62
256
6
ByLayer
370
18
48
1
60
0
100
AcDbMText
10
37.4
20
-4.975
30
0
210
0
220
0
230
1
1
\A1;35.2
40
2.8
41
0
44
1
50
0
71
5
72
5
7
iso_b_vert
0
POINT
5
1C4
100
AcDbEntity
8
Defpoints
62
0
6
ByLayer
370
-1
48
1
60
0
100
AcDbPoint
10
19.8
20
-3.4
30
0
39
0
210
0
220
0
230
1
50
360
0
POINT
5
1C5
100
AcDbEntity
8
Defpoints
62
0
6
ByLayer
370
-1
48
1
60
0
100
AcDbPoint
10
55
20
0
30
0
39
0
210
0
220
0
230
1
50
360
0
POINT
5
1C6
100
AcDbEntity
8
Defpoints
62
0
6
ByLayer
370
-1
48
1
60
0
100
AcDbPoint
10
55
20
-10.82
30
0
39
0
210
0
220
0
230
1
50
360
0
ENDBLK
5
1BD
100
AcDbEntity
8
0
100
AcDbBlockEnd
0
BLOCK
5
1D2
100
AcDbEntity
8
0
100
AcDbBlockBegin
2
_U5
70
0
10
0
20
0
30
0
3
_U5
0
MTEXT
5
1C8
100
AcDbEntity
8
SK2
62
256
6
ByLayer
370
18
48
1
60
0
100
AcDbMText
10
33.216454
20
-10.973893
30
0
210
0
220
0
230
1
1
\W0.7468;35.20
40
2.8
41
0
44
1.084337
50
0
71
7
72
5
7
iso_b_vert
0
LINE
5
1C9
100
AcDbEntity
8
SK2
62
256
6
ByLayer
370
13
48
1
60
0
100
AcDbLine
10
19.8
20
-4.9875
30
0
11
19.8
21
-11.32
31
0
39
0
210
0
220
0
230
1
0
LINE
5
1CA
100
AcDbEntity
8
SK2
62
256
6
ByLayer
370
13
48
1
60
0
100
AcDbLine
10
55
20
-1.5875
30
0
11
55
21
-11.32
31
0
39
0
210
0
220
0
230
1
0
LINE
5
1CB
100
AcDbEntity
8
SK2
62
256
6
ByLayer
370
13
48
1
60
0
100
AcDbLine
10
19.8
20
-10.82
30
0
11
55
21
-10.82
31
0
39
0
210
0
220
0
230
1
0
LINE
5
1CC
100
AcDbEntity
8
SK2
62
256
6
ByLayer
370
13
48
1
60
0
100
AcDbLine
10
19.8
20
-10.82
30
0
11
22.974998
21
-10.402003
31
0
39
0
210
0
220
0
230
1
0
LINE
5
1CD
100
AcDbEntity
8
SK2
62
256
6
ByLayer
370
13
48
1
60
0
100
AcDbLine
10
19.8
20
-10.82
30
0
11
22.975002
21
-11.237997
31
0
39
0
210
0
220
0
230
1
0
LINE
5
1CE
100
AcDbEntity
8
SK2
62
256
6
ByLayer
370
13
48
1
60
0
100
AcDbLine
10
22.974998
20
-10.402003
30
0
11
22.975002
21
-11.237997
31
0
39
0
210
0
220
0
230
1
0
LINE
5
1CF
100
AcDbEntity
8
SK2
62
256
6
ByLayer
370
13
48
1
60
0
100
AcDbLine
10
55
20
-10.82
30
0
11
51.825002
21
-11.237997
31
0
39
0
210
0
220
0
230
1
0
LINE
5
1D0
100
AcDbEntity
8
SK2
62
256
6
ByLayer
370
13
48
1
60
0
100
AcDbLine
10
55
20
-10.82
30
0
11
51.824998
21
-10.402003
31
0
39
0
210
0
220
0
230
1
0
LINE
5
1D1
100
AcDbEntity
8
SK2
62
256
6
ByLayer
370
13
48
1
60
0
100
AcDbLine
10
51.825002
20
-11.237997
30
0
11
51.824998
21
-10.402003
31
0
39
0
210
0
220
0
230
1
0
ENDBLK
5
1D3
100
AcDbEntity
8
0
100
AcDbBlockEnd
0
BLOCK
5
1D8
100
AcDbEntity
8
0
100
AcDbBlockBegin
2
*D14
70
1
10
0
20
0
30
0
3
*D14
0
LINE
5
1DA
100
AcDbEntity
8
0
62
256
6
ByLayer
370
-2
48
1
60
0
100
AcDbLine
10
-36
20
-1.5875
30
0
11
-36
21
-40.67512
31
0
39
0
210
0
220
0
230
1
0
LINE
5
1DB
100
AcDbEntity
8
0
62
256
6
ByLayer
370
-2
48
1
60
0
100
AcDbLine
10
55
20
-1.5875
30
0
11
55
21
-40.67512
31
0
39
0
210
0
220
0
230
1
0
LINE
5
1DC
100
AcDbEntity
8
0
62
256
6
ByLayer
370
-2
48
1
60
0
100
AcDbLine
10
-32.825
20
-37.50012
30
0
11
51.825
21
-37.50012
31
0
39
0
210
0
220
0
230
1
0
SOLID
5
1DD
100
AcDbEntity
8
0
62
256
6
ByLayer
370
-1
48
1
60
0
100
AcDbTrace
10
-32.825
20
-36.970953
30
0
11
-32.825
21
-38.029287
31
0
12
-36
22
-37.50012
32
0
13
-36
23
-37.50012
33
0
39
0
210
0
220
0
230
1
0
SOLID
5
1DE
100
AcDbEntity
8
0
62
256
6
ByLayer
370
-1
48
1
60
0
100
AcDbTrace
10
51.825
20
-38.029287
30
0
11
51.825
21
-36.970953
31
0
12
55
22
-37.50012
32
0
13
55
23
-37.50012
33
0
39
0
210
0
220
0
230
1
0
MTEXT
5
1DF
100
AcDbEntity
8
0
62
256
6
ByLayer
370
18
48
1
60
0
100
AcDbMText
10
9.5
20
-30.193619
30
0
210
0
220
0
230
1
1
\A1;91
40
3.50012
41
0
44
1
50
0
71
5
72
5
7
iso_b_vert
0
POINT
5
1E0
100
AcDbEntity
8
Defpoints
62
0
6
ByLayer
370
-1
48
1
60
0
100
AcDbPoint
10
-36
20
0
30
0
39
0
210
0
220
0
230
1
50
360
0
POINT
5
1E1
100
AcDbEntity
8
Defpoints
62
0
6
ByLayer
370
-1
48
1
60
0
100
AcDbPoint
10
55
20
0
30
0
39
0
210
0
220
0
230
1
50
360
0
POINT
5
1E2
100
AcDbEntity
8
Defpoints
62
0
6
ByLayer
370
-1
48
1
60
0
100
AcDbPoint
10
55
20
-37.50012
30
0
39
0
210
0
220
0
230
1
50
360
0
ENDBLK
5
1D9
100
AcDbEntity
8
0
100
AcDbBlockEnd
0
BLOCK
5
1EE
100
AcDbEntity
8
0
100
AcDbBlockBegin
2
_U6
70
0
10
0
20
0
30
0
3
_U6
0
MTEXT
5
1E4
100
AcDbEntity
8
SK2
62
256
6
ByLayer
370
18
48
1
60
0
100
AcDbMText
10
4.707837
20
-36.467451
30
0
210
0
220
0
230
1
1
\W0.6864;91.00
40
3.50012
41
0
44
1.084337
50
0
71
7
72
5
7
iso_b_vert
0
LINE
5
1E5
100
AcDbEntity
8
SK2
62
256
6
ByLayer
370
13
48
1
60
0
100
AcDbLine
10
-36
20
-1.5875
30
0
11
-36
21
-40.67512
31
0
39
0
210
0
220
0
230
1
0
LINE
5
1E6
100
AcDbEntity
8
SK2
62
256
6
ByLayer
370
13
48
1
60
0
100
AcDbLine
10
55
20
-1.5875
30
0
11
55
21
-40.67512
31
0
39
0
210
0
220
0
230
1
0
LINE
5
1E7
100
AcDbEntity
8
SK2
62
256
6
ByLayer
370
13
48
1
60
0
100
AcDbLine
10
-36
20
-37.50012
30
0
11
55
21
-37.50012
31
0
39
0
210
0
220
0
230
1
0
LINE
5
1E8
100
AcDbEntity
8
SK2
62
256
6
ByLayer
370
13
48
1
60
0
100
AcDbLine
10
-36
20
-37.50012
30
0
11
-32.825002
21
-37.082123
31
0
39
0
210
0
220
0
230
1
0
LINE
5
1E9
100
AcDbEntity
8
SK2
62
256
6
ByLayer
370
13
48
1
60
0
100
AcDbLine
10
-36
20
-37.50012
30
0
11
-32.824998
21
-37.918117
31
0
39
0
210
0
220
0
230
1
0
LINE
5
1EA
100
AcDbEntity
8
SK2
62
256
6
ByLayer
370
13
48
1
60
0
100
AcDbLine
10
-32.825002
20
-37.082123
30
0
11
-32.824998
21
-37.918117
31
0
39
0
210
0
220
0
230
1
0
LINE
5
1EB
100
AcDbEntity
8
SK2
62
256
6
ByLayer
370
13
48
1
60
0
100
AcDbLine
10
55
20
-37.50012
30
0
11
51.825002
21
-37.918117
31
0
39
0
210
0
220
0
230
1
0
LINE
5
1EC
100
AcDbEntity
8
SK2
62
256
6
ByLayer
370
13
48
1
60
0
100
AcDbLine
10
55
20
-37.50012
30
0
11
51.824998
21
-37.082123
31
0
39
0
210
0
220
0
230
1
0
LINE
5
1ED
100
AcDbEntity
8
SK2
62
256
6
ByLayer
370
13
48
1
60
0
100
AcDbLine
10
51.825002
20
-37.918117
30
0
11
51.824998
21
-37.082123
31
0
39
0
210
0
220
0
230
1
0
ENDBLK
5
1EF
100
AcDbEntity
8
0
100
AcDbBlockEnd
0
ENDSEC
0
SECTION
2
ENTITIES
0
ARC
5
B3
100
AcDbEntity
8
1
62
256
6
ByLayer
370
18
48
1
60
0
100
AcDbCircle
39
0
10
1.274573
20
4.167194
30
0
40
0.800000000000002
210
0
220
0
230
1
100
AcDbArc
50
217.192607
51
270.03581
0
ARC
5
B4
100
AcDbEntity
8
1
62
256
6
ByLayer
370
18
48
1
60
0
100
AcDbCircle
39
0
10
1.274573
20
-4.167194
30
0
40
0.800000000000002
210
0
220
0
230
1
100
AcDbArc
50
89.96419
51
142.807393
0
ARC
5
B5
100
AcDbEntity
8
1
62
256
6
ByLayer
370
18
48
1
60
0
100
AcDbCircle
39
0
10
0
20
3.2
30
0
40
0.800000000000003
210
0
220
0
230
1
100
AcDbArc
50
37.192607
51
90
0
ARC
5
B6
100
AcDbEntity
8
1
62
256
6
ByLayer
370
18
48
1
60
0
100
AcDbCircle
39
0
10
0
20
-3.2
30
0
40
0.800000000000003
210
0
220
0
230
1
100
AcDbArc
50
270
51
322.807393
0
ARC
5
B7
100
AcDbEntity
8
SK2
62
256
6
ByLayer
370
13
48
1
60
0
100
AcDbCircle
39
0
10
55
20
0
30
0
40
20
210
0
220
0
230
1
100
AcDbArc
50
9.606349
51
69.999982
0
ARC
5
B8
100
AcDbEntity
8
SK2
62
256
6
ByLayer
370
13
48
1
60
0
100
AcDbCircle
39
0
10
55
20
0
30
0
40
20
210
0
220
0
230
1
100
AcDbArc
50
290.000018
51
350.393651
0
ELLIPSE
5
B9
100
AcDbEntity
8
1
62
256
6
ByLayer
370
18
48
1
60
0
100
AcDbEllipse
10
3.640073
20
2.503057
30
0
11
-0.00277765252524172
21
-0.009606489808927
31
0
210
0
220
0
230
1
40
0.336793
41
0.727353141210538
42
2.2922737129838
0
ELLIPSE
5
BA
100
AcDbEntity
8
1
62
256
6
ByLayer
370
18
48
1
60
0
100
AcDbEllipse
10
3.602411
20
2.508195
30
0
11
-1.24852290798663E-05
21
0.00999999220594971
31
0
210
0
220
0
230
1
40
0.011131
41
-2.4677714106047
42
-0.897224394528375
0
ELLIPSE
5
BB
100
AcDbEntity
8
1
62
256
6
ByLayer
370
18
48
1
60
0
100
AcDbEllipse
10
3.601858
20
-1.454522
30
0
11
-0.00382246926340644
21
-0.00924060218439865
31
0
210
0
220
0
230
1
40
0.189161
41
-2.00392427105139
42
-0.435051163442081
0
ELLIPSE
5
BC
100
AcDbEntity
8
1
62
256
6
ByLayer
370
18
48
1
60
0
100
AcDbEllipse
10
3.563784
20
-1.442559
30
0
11
0.00201397839066878
21
0.0097950952543566
31
0
210
0
220
0
230
1
40
0.520844
41
1.25176270602843
42
2.64180082461544
0
POINT
5
70
100
AcDbEntity
8
80
62
256
6
ByLayer
370
18
48
1
60
0
100
AcDbPoint
10
0
20
0
30
0
39
0
210
0
220
0
230
1
50
360
0
POINT
5
72
100
AcDbEntity
8
81
62
256
6
ByLayer
370
18
48
1
60
0
100
AcDbPoint
10
55
20
0
30
0
39
0
210
0
220
0
230
1
50
360
0
POINT
5
74
100
AcDbEntity
8
1
62
256
6
ByLayer
370
18
48
1
60
0
100
AcDbPoint
10
-36
20
0
30
0
39
0
210
0
220
0
230
1
50
360
0
POINT
5
76
100
AcDbEntity
8
1
62
256
6
ByLayer
370
18
48
1
60
1
100
AcDbPoint
10
0
20
-4
30
0
39
0
210
0
220
0
230
1
50
360
0
POINT
5
77
100
AcDbEntity
8
1
62
256
6
ByLayer
370
18
48
1
60
1
100
AcDbPoint
10
55
20
0
30
0
39
0
210
0
220
0
230
1
50
360
0
POINT
5
78
100
AcDbEntity
8
1
62
256
6
ByLayer
370
18
48
1
60
1
100
AcDbPoint
10
53.7625
20
-3.4
30
0
39
0
210
0
220
0
230
1
50
360
0
POINT
5
79
100
AcDbEntity
8
1
62
256
6
ByLayer
370
18
48
1
60
1
100
AcDbPoint
10
53.7625
20
3.4
30
0
39
0
210
0
220
0
230
1
50
360
0
POINT
5
7A
100
AcDbEntity
8
1
62
256
6
ByLayer
370
18
48
1
60
1
100
AcDbPoint
10
-36
20
4
30
0
39
0
210
0
220
0
230
1
50
360
0
POINT
5
7B
100
AcDbEntity
8
1
62
256
6
ByLayer
370
18
48
1
60
1
100
AcDbPoint
10
-36
20
-4
30
0
39
0
210
0
220
0
230
1
50
360
0
POINT
5
7C
100
AcDbEntity
8
1
62
256
6
ByLayer
370
18
48
1
60
1
100
AcDbPoint
10
-36
20
-4
30
0
39
0
210
0
220
0
230
1
50
360
0
POINT
5
7D
100
AcDbEntity
8
1
62
256
6
ByLayer
370
18
48
1
60
1
100
AcDbPoint
10
0
20
-4
30
0
39
0
210
0
220
0
230
1
50
360
0
POINT
5
7E
100
AcDbEntity
8
1
62
256
6
ByLayer
370
18
48
1
60
1
100
AcDbPoint
10
2
20
3.9
30
0
39
0
210
0
220
0
230
1
50
360
0
POINT
5
7F
100
AcDbEntity
8
1
62
256
6
ByLayer
370
18
48
1
60
1
100
AcDbPoint
10
55
20
0
30
0
39
0
210
0
220
0
230
1
50
360
0
POINT
5
80
100
AcDbEntity
8
1
62
256
6
ByLayer
370
18
48
1
60
1
100
AcDbPoint
10
19.8
20
-3.4
30
0
39
0
210
0
220
0
230
1
50
360
0
POINT
5
81
100
AcDbEntity
8
1
62
256
6
ByLayer
370
18
48
1
60
1
100
AcDbPoint
10
55
20
0
30
0
39
0
210
0
220
0
230
1
50
360
0
POINT
5
82
100
AcDbEntity
8
1
62
256
6
ByLayer
370
18
48
1
60
1
100
AcDbPoint
10
-36
20
0
30
0
39
0
210
0
220
0
230
1
50
360
0
POINT
5
83
100
AcDbEntity
8
1
62
256
6
ByLayer
370
18
48
1
60
1
100
AcDbPoint
10
55
20
0
30
0
39
0
210
0
220
0
230
1
50
360
0
SPLINE
5
BD
100
AcDbEntity
8
1
62
256
6
ByLayer
370
18
48
1
60
0
100
AcDbSpline
70
4
71
3
72
14
73
10
40
0
40
0
40
0
40
0
40
0.271998807340811
40
0.271998807340811
40
0.510238947924128
40
0.510238947924128
40
0.785120578673484
40
0.785120578673484
40
1
40
1
40
1
40
1
41
1
10
53.3933126788744
20
-0.0158829517855281
30
0
41
1
10
53.3940584377857
20
-0.0162251436510417
30
0
41
1
10
53.3947894886265
20
-0.0169333874199253
30
0
41
1
10
53.3960111717918
20
-0.0186967980312147
30
0
41
1
10
53.396537262591
20
-0.0197219407842795
30
0
41
1
10
53.3975037316762
20
-0.0221973618658069
30
0
41
1
10
53.3979341072049
20
-0.0237276767250592
30
0
41
1
10
53.3984586539561
20
-0.0266170845318925
30
0
41
1
10
53.3986106703074
20
-0.027974686180869
30
0
41
1
10
53.3986540867471
20
-0.0293243242239782
30
0
0
SPLINE
5
BE
100
AcDbEntity
8
1
62
256
6
ByLayer
370
18
48
1
60
0
100
AcDbSpline
70
4
71
3
72
20
73
16
40
0
40
0
40
0
40
0
40
0.250689412554476
40
0.250689412554476
40
0.376034118831715
40
0.376034118831715
40
0.501378825108954
40
0.501378825108954
40
0.626723531386194
40
0.626723531386194
40
0.752068237663433
40
0.752068237663433
40
0.877412943940672
40
0.877412943940672
40
1
40
1
40
1
40
1
41
1
10
3.64433642193987
20
2.50869917694291
30
-2E-16
41
1
10
4.16636486234373
20
2.35830127648771
30
-1E-16
41
1
10
4.68921839499481
20
2.18522439753187
30
-1E-16
41
1
10
5.47353078157351
20
1.90037968903042
30
-1E-16
41
1
10
5.73516772421397
20
1.80114868905005
30
-1E-16
41
1
10
6.25881890235755
20
1.59512676200228
30
-1E-16
41
1
10
6.51975097118844
20
1.48856511418018
30
-1E-16
41
1
10
7.04095552725192
20
1.26999105717837
30
-1E-16
41
1
10
7.3013481141343
20
1.15809105909625
30
-1E-16
41
1
10
7.82174132639491
20
0.929673936083333
30
-1E-16
41
1
10
8.08172849159729
20
0.813143533567228
30
0
41
1
10
8.60235020232716
20
0.5772947492664
30
0
41
1
10
8.86301031975432
20
0.458007954777031
30
0
41
1
10
9.37925973873624
20
0.219710752696756
30
0
41
1
10
9.63536533413739
20
0.100438354250798
30
0
41
1
10
9.89068795146773
20
-0.018170408048519
30
0
0
SPLINE
5
BF
100
AcDbEntity
8
1
62
256
6
ByLayer
370
18
48
1
60
0
100
AcDbSpline
70
4
71
3
72
28
73
24
40
0
40
0
40
0
40
0
40
0.0230287388481939
40
0.0230287388481939
40
0.0928124003590373
40
0.0928124003590373
40
0.162596061869881
40
0.162596061869881
40
0.302163384891564
40
0.302163384891564
40
0.371947046402408
40
0.371947046402408
40
0.441730707913252
40
0.441730707913252
40
0.511514369424095
40
0.511514369424095
40
0.581298030934939
40
0.581298030934939
40
0.720865353956626
40
0.720865353956626
40
0.860432676978313
40
0.860432676978313
40
1
40
1
40
1
40
1
41
1
10
42.3033500329558
20
3.23065290319588
30
0
41
1
10
42.388552404028
20
3.23164269793403
30
0
41
1
10
42.4736787771262
20
3.23191135367941
30
0
41
1
10
42.8164639016471
20
3.23026431597913
30
0
41
1
10
43.0734199753553
20
3.22317927951948
30
0
41
1
10
43.5867586353029
20
3.19554562729769
30
0
41
1
10
43.8433406807791
20
3.17434956870838
30
0
41
1
10
44.613412049228
20
3.09060203886472
30
0
41
1
10
45.1272085106622
20
3.00821235365231
30
0
41
1
10
45.8998083929083
20
2.84983219977988
30
0
41
1
10
46.1575932606091
20
2.79134959958776
30
1E-16
41
1
10
46.6751204116307
20
2.66205498051642
30
1E-16
41
1
10
46.9349474969569
20
2.59108533136589
30
1E-16
41
1
10
47.4568979370389
20
2.4376768762634
30
-1E-16
41
1
10
47.7189263189159
20
2.35528491877821
30
-1E-16
41
1
10
48.2394187656418
20
2.18202629299211
30
-1E-16
41
1
10
48.4986882236686
20
2.0909162964046
30
-1E-16
41
1
10
49.2742306092731
20
1.80589178322526
30
-1E-16
41
1
10
49.7882941521272
20
1.60030651131285
30
-1E-16
41
1
10
50.8153607874498
20
1.16644406695437
30
-1E-16
41
1
10
51.328245699401
20
0.938285650065097
30
-1E-16
41
1
10
52.3576386949567
20
0.469038788774924
30
0
41
1
10
52.8737151785546
20
0.227660015818174
30
0
41
1
10
53.3933126788745
20
-0.0158829517855565
30
0
0
SPLINE
5
C0
100
AcDbEntity
8
1
62
256
6
ByLayer
370
18
48
1
60
0
100
AcDbSpline
70
4
71
3
72
50
73
46
40
0
40
0
40
0
40
0
40
0.0909049603212691
40
0.0909049603212691
40
0.136357440481904
40
0.136357440481904
40
0.181809920642538
40
0.181809920642538
40
0.227262400803173
40
0.227262400803173
40
0.272714880963807
40
0.272714880963807
40
0.318167361124442
40
0.318167361124442
40
0.363619841285077
40
0.363619841285077
40
0.409072321445711
40
0.409072321445711
40
0.454524801606346
40
0.454524801606346
40
0.49997728176698
40
0.49997728176698
40
0.545429761927615
40
0.545429761927615
40
0.590882242088249
40
0.590882242088249
40
0.636334722248884
40
0.636334722248884
40
0.681787202409519
40
0.681787202409519
40
0.727239682570153
40
0.727239682570153
40
0.772692162730788
40
0.772692162730788
40
0.818144642891422
40
0.818144642891422
40
0.863597123052057
40
0.863597123052057
40
0.909049603212691
40
0.909049603212691
40
0.954502083373326
40
0.954502083373326
40
0.99995456353396
40
0.99995456353396
40
1
40
1
40
1
40
1
41
1
10
3.64604282281914
20
2.63242342602706
30
-2E-16
41
1
10
4.16549302894146
20
2.47231377422793
30
-2E-16
41
1
10
4.68514479649303
20
2.29204074713033
30
-1E-16
41
1
10
5.46665383655554
20
1.99542947375434
30
-1E-16
41
1
10
5.72776439641041
20
1.8920558674896
30
-1E-16
41
1
10
6.24851194417627
20
1.67773523057778
30
-1E-16
41
1
10
6.50817816264549
20
1.56637606104536
30
-1E-16
41
1
10
7.02751838166344
20
1.33780795320698
30
-1E-16
41
1
10
7.28736166676913
20
1.22093940809131
30
-1E-16
41
1
10
7.80727435283796
20
0.981825501101156
30
-1E-16
41
1
10
8.06753600337956
20
0.859463868794194
30
-1E-16
41
1
10
8.58862198777825
20
0.611983826742659
30
0
41
1
10
8.84827115122096
20
0.487472328268609
30
0
41
1
10
9.3658438791939
20
0.236995044701871
30
0
41
1
10
9.62374397719267
20
0.110985882235184
30
0
41
1
10
10.1389524586477
20
-0.140060772047548
30
0
41
1
10
10.3962905483681
20
-0.265041977815258
30
0
41
1
10
10.9105022980115
20
-0.513794178962939
30
0
41
1
10
11.1673427897857
20
-0.637628151461769
30
0
41
1
10
11.6816058332033
20
-0.881897069718519
30
1E-16
41
1
10
11.9390657007218
20
-1.00226162629605
30
1E-16
41
1
10
12.4547294119766
20
-1.23925947864819
30
1E-16
41
1
10
12.7128944248444
20
-1.35596463674491
30
1E-16
41
1
10
13.2310180182035
20
-1.5834944928053
30
1E-16
41
1
10
13.4914053482556
20
-1.69441153795316
30
1E-16
41
1
10
14.0123670154954
20
-1.9091811510869
30
1E-16
41
1
10
14.2722081602499
20
-2.01280544147667
30
1E-16
41
1
10
14.79176060033
20
-2.21064129520906
30
1E-16
41
1
10
15.0515114861566
20
-2.30481884446868
30
1E-16
41
1
10
15.5709675130754
20
-2.48368039237167
30
2E-16
41
1
10
15.8306836487945
20
-2.56831236504681
30
2E-16
41
1
10
16.3514774178125
20
-2.72603599474653
30
-1E-16
41
1
10
16.6121794058787
20
-2.79918817346711
30
-1E-16
41
1
10
17.1305259524482
20
-2.93321525274658
30
0
41
1
10
17.3887017356767
20
-2.99415651983736
30
0
41
1
10
17.9045077999011
20
-3.10265496003945
30
0
41
1
10
18.1620056712464
20
-3.15039026551398
30
0
41
1
10
18.6761904619232
20
-3.23289044710847
30
0
41
1
10
18.9329058701343
20
-3.26758160210781
30
0
41
1
10
19.4470072613574
20
-3.32310150755609
30
0
41
1
10
19.704229796864
20
-3.34405813731615
30
0
41
1
10
20.219063786041
20
-3.37219869438556
30
0
41
1
10
20.4766989912231
20
-3.37931922144884
30
0
41
1
10
20.7355773706528
20
-3.3793553078628
30
0
41
1
10
20.7358359001487
20
-3.37935533688096
30
0
41
1
10
20.7360944304086
20
-3.37935535887942
30
0
0
SPLINE
5
C1
100
AcDbEntity
8
1
62
256
6
ByLayer
370
18
48
1
60
0
100
AcDbSpline
70
4
71
3
72
26
73
22
40
0
40
0
40
0
40
0
40
0.0473877351891902
40
0.0473877351891902
40
0.166464268290543
40
0.166464268290543
40
0.285540801391897
40
0.285540801391897
40
0.40461733449325
40
0.40461733449325
40
0.464155601043926
40
0.464155601043926
40
0.523693867594601
40
0.523693867594601
40
0.583232134145277
40
0.583232134145277
40
0.642770400695952
40
0.642770400695952
40
0.761846933797301
40
0.761846933797301
40
1
40
1
40
1
40
1
41
1
10
40.307200567044
20
3.22569832128215
30
0
41
1
10
40.5141856013174
20
3.25718067210093
30
0
41
1
10
40.7211585774798
20
3.28420660030247
30
0
41
1
10
41.445429514228
20
3.3634455876369
30
0
41
1
10
41.9599721753777
20
3.39223627076859
30
0
41
1
10
42.987709711626
20
3.39364295479689
30
0
41
1
10
43.4997238841926
20
3.36597481917698
30
0
41
1
10
44.5294914459491
20
3.25601744117449
30
0
41
1
10
45.0464149623869
20
3.17390545265977
30
0
41
1
10
45.8267433219301
20
3.00947424466304
30
0
41
1
10
46.0865260009664
20
2.94790124339505
30
0
41
1
10
46.6053738849122
20
2.81297194365186
30
0
41
1
10
46.8647507213688
20
2.73968599095096
30
-2E-16
41
1
10
47.3837102689629
20
2.58197978133143
30
-2E-16
41
1
10
47.6432525671844
20
2.49749664598414
30
-2E-16
41
1
10
48.1631287803564
20
2.31812367669389
30
-1E-16
41
1
10
48.4238748006632
20
2.22311349674723
30
-1E-16
41
1
10
49.2017032246911
20
1.92581186975593
30
-1E-16
41
1
10
49.7161624831201
20
1.71070167801892
30
-1E-16
41
1
10
51.2560139305931
20
1.03136321190763
30
-1E-16
41
1
10
52.2774081307199
20
0.532331911647134
30
0
41
1
10
53.311849685731
20
0.0234000519358517
30
0
0
SPLINE
5
C2
100
AcDbEntity
8
1
62
256
6
ByLayer
370
18
48
1
60
0
100
AcDbSpline
70
4
71
3
72
12
73
8
40
0
40
0
40
0
40
0
40
0.25
40
0.25
40
0.5
40
0.5
40
1
40
1
40
1
40
1
41
1
10
3.60248993318484
20
2.51443324813559
30
1E-16
41
1
10
3.5868581197214
20
2.51442340592485
30
1E-16
41
1
10
3.57167617540776
20
2.51471585629776
30
1E-16
41
1
10
3.54561063239907
20
2.51568025065012
30
-2E-16
41
1
10
3.53484009963771
20
2.51633277393697
30
-2E-16
41
1
10
3.5094634702416
20
2.51844784236002
30
-2E-16
41
1
10
3.50169783347013
20
2.5200141741449
30
-2E-16
41
1
10
3.50169783347016
20
2.5214169037815
30
-2E-16
0
SPLINE
5
C3
100
AcDbEntity
8
1
62
256
6
ByLayer
370
18
48
1
60
0
100
AcDbSpline
70
4
71
3
72
18
73
14
40
0
40
0
40
0
40
0
40
0.205973631591999
40
0.205973631591999
40
0.411947263183999
40
0.411947263183999
40
0.617920894775999
40
0.617920894775999
40
0.720907710572
40
0.720907710572
40
0.823894526368002
40
0.823894526368002
40
1
40
1
40
1
40
1
41
1
10
3.60187565821258
20
-1.44998778562626
30
1E-16
41
1
10
4.13044063511677
20
-1.66794722738169
30
1E-16
41
1
10
4.66004075024262
20
-1.87312965344091
30
1E-16
41
1
10
5.71133828747102
20
-2.24531129324595
30
1E-16
41
1
10
6.23410858922472
20
-2.412895709852
30
1E-16
41
1
10
7.2787737979564
20
-2.70357387955721
30
-1E-16
41
1
10
7.80060028800557
20
-2.82703401681081
30
0
41
1
10
8.58594978285055
20
-2.97500263316056
30
0
41
1
10
8.84817866950937
20
-3.01813635439203
30
0
41
1
10
9.37411571561063
20
-3.09140755834019
30
0
41
1
10
9.6384650518512
20
-3.1215907523044
30
0
41
1
10
10.3530741730853
20
-3.18457803807053
30
0
41
1
10
10.8011640650902
20
-3.20395854675658
30
0
41
1
10
11.2478775452277
20
-3.20338241504368
30
0
0
SPLINE
5
C4
100
AcDbEntity
8
1
62
256
6
ByLayer
370
18
48
1
60
0
100
AcDbSpline
70
4
71
3
72
22
73
18
40
0
40
0
40
0
40
0
40
0.100584383859992
40
0.100584383859992
40
0.25048698654999
40
0.25048698654999
40
0.32543828789499
40
0.32543828789499
40
0.40038958923999
40
0.40038958923999
40
0.700194794619993
40
0.700194794619993
40
0.850097397309995
40
0.850097397309995
40
0.925048698654997
40
0.925048698654997
40
1
40
1
40
1
40
1
41
1
10
43.3706359957383
20
0.220845886608487
30
0
41
1
10
43.7182768818107
20
0.0593921921768015
30
0
41
1
10
44.065511817968
20
-0.102733147403995
30
0
41
1
10
44.9309483418434
20
-0.504303405385741
30
0
41
1
10
45.4493895587293
20
-0.742927861512726
30
0
41
1
10
46.2313389256185
20
-1.09052215662282
30
1E-16
41
1
10
46.4927109374359
20
-1.20464696698636
30
1E-16
41
1
10
47.0175161238601
20
-1.42804613028414
30
1E-16
41
1
10
47.2817622196631
20
-1.53766318465915
30
1E-16
41
1
10
48.5973865167264
20
-2.0657212451319
30
1E-16
41
1
10
49.6319116121081
20
-2.42346425139337
30
1E-16
41
1
10
51.1837209222134
20
-2.82407624674846
30
0
41
1
10
51.700974840245
20
-2.93508444101153
30
0
41
1
10
52.4803266432457
20
-3.06402507389743
30
0
41
1
10
52.7406901233674
20
-3.10073177894216
30
0
41
1
10
53.2630827340175
20
-3.1608496408503
30
0
41
1
10
53.5251528876429
20
-3.18388275967109
30
0
41
1
10
53.7882427403595
20
-3.20084834410778
30
0
0
SPLINE
5
C5
100
AcDbEntity
8
1
62
256
6
ByLayer
370
18
48
1
60
0
100
AcDbSpline
70
4
71
3
72
28
73
24
40
0
40
0
40
0
40
0
40
0.124999999999998
40
0.124999999999998
40
0.187499999999998
40
0.187499999999998
40
0.249999999999998
40
0.249999999999998
40
0.374999999999997
40
0.374999999999997
40
0.437499999999997
40
0.437499999999997
40
0.499999999999997
40
0.499999999999997
40
0.624999999999997
40
0.624999999999997
40
0.687499999999998
40
0.687499999999998
40
0.749999999999998
40
0.749999999999998
40
0.874999999999999
40
0.874999999999999
40
1
40
1
40
1
40
1
41
1
10
53.3986540867471
20
-0.0293243242224719
30
0
41
1
10
53.4049121640367
20
-0.223862135575729
30
0
41
1
10
53.4194468621065
20
-0.414640768047519
30
0
41
1
10
53.447873682442
20
-0.695938217909173
30
0
41
1
10
53.4584756368364
20
-0.788885084793776
30
0
41
1
10
53.4811708421882
20
-0.973191487226472
30
1E-16
41
1
10
53.4933274260352
20
-1.06499267261182
30
1E-16
41
1
10
53.5304914955839
20
-1.33420477595206
30
1E-16
41
1
10
53.556065152436
20
-1.50532107460634
30
1E-16
41
1
10
53.5924363798312
20
-1.75011899105155
30
1E-16
41
1
10
53.6042450291451
20
-1.82972360653494
30
1E-16
41
1
10
53.6268739734281
20
-1.98487460419633
30
1E-16
41
1
10
53.6377073966953
20
-2.06054100567872
30
1E-16
41
1
10
53.6677725779509
20
-2.27690566825584
30
1E-16
41
1
10
53.6847437855735
20
-2.40861436109981
30
1E-16
41
1
10
53.7058824450618
20
-2.58750119859172
30
-1E-16
41
1
10
53.712223539578
20
-2.643998377804
30
-1E-16
41
1
10
53.7237335708197
20
-2.75051410595876
30
-1E-16
41
1
10
53.7288765484162
20
-2.80029722284266
30
-1E-16
41
1
10
53.7428892237218
20
-2.93694002555037
30
0
41
1
10
53.7504018685938
20
-3.01221260095454
30
0
41
1
10
53.7667224926115
20
-3.13115911354336
30
0
41
1
10
53.775595891814
20
-3.17479641852637
30
0
41
1
10
53.7882427403594
20
-3.20084834410778
30
0
0
SPLINE
5
C6
100
AcDbEntity
8
1
62
256
6
ByLayer
370
18
48
1
60
0
100
AcDbSpline
70
4
71
3
72
8
73
4
40
0
40
0
40
0
40
0
40
1
40
1
40
1
40
1
41
1
10
53.8135163407799
20
-3.26404221115215
30
0
41
1
10
53.8152979390566
20
-3.26284192108915
30
0
41
1
10
53.8170795620516
20
-3.26164151637971
30
0
41
1
10
53.8188612098043
20
-3.26044099717293
30
0
0
SPLINE
5
C7
100
AcDbEntity
8
1
62
256
6
ByLayer
370
18
48
1
60
0
100
AcDbSpline
70
4
71
3
72
16
73
12
40
0
40
0
40
0
40
0
40
0.226354328288792
40
0.226354328288792
40
0.454978731283725
40
0.454978731283725
40
0.652377414251921
40
0.652377414251921
40
0.826754597360061
40
0.826754597360061
40
1
40
1
40
1
40
1
41
1
10
53.7882427403594
20
-3.20084834410778
30
0
41
1
10
53.7883226261863
20
-3.20101290523232
30
0
41
1
10
53.7883465066066
20
-3.20135643459037
30
0
41
1
10
53.7882567554508
20
-3.20241327726566
30
0
41
1
10
53.7881390880831
20
-3.20315064313448
30
0
41
1
10
53.7877862705874
20
-3.20481627066468
30
0
41
1
10
53.787563369144
20
-3.20573105691406
30
0
41
1
10
53.7870705889652
20
-3.20755373865254
30
0
41
1
10
53.7868028782615
20
-3.20847364340312
30
0
41
1
10
53.786243550319
20
-3.21028211580651
30
0
41
1
10
53.7859455515016
20
-3.21119252771652
30
0
41
1
10
53.7856496529804
20
-3.21205302840866
30
0
0
SPLINE
5
C8
100
AcDbEntity
8
1
62
256
6
ByLayer
370
18
48
1
60
0
100
AcDbSpline
70
4
71
3
72
8
73
4
40
0
40
0
40
0
40
0
40
1
40
1
40
1
40
1
41
1
10
53.3118496857311
20
0.0234000519358801
30
0
41
1
10
53.3046577679654
20
0.183156115899408
30
0
41
1
10
53.303169397888
20
0.341944216763295
30
0
41
1
10
53.3092846054765
20
0.499761176117517
30
0
0
SPLINE
5
C9
100
AcDbEntity
8
1
62
256
6
ByLayer
370
18
48
1
60
0
100
AcDbSpline
70
4
71
3
72
8
73
4
40
0
40
0
40
0
40
0
40
1
40
1
40
1
40
1
41
1
10
54.1146177149677
20
0.965902767730938
30
0
41
1
10
54.3077307640532
20
0.996616725028161
30
0
41
1
10
54.5006448705786
20
1.03235940986818
30
0
41
1
10
54.6891066935622
20
1.08402829479078
30
0
0
SPLINE
5
CA
100
AcDbEntity
8
1
62
256
6
ByLayer
370
18
48
1
60
0
100
AcDbSpline
70
4
71
3
72
34
73
30
40
0
40
0
40
0
40
0
40
0.0541120613850074
40
0.0541120613850074
40
0.116417292120453
40
0.116417292120453
40
0.241027753591347
40
0.241027753591347
40
0.36563821506224
40
0.36563821506224
40
0.490248676533133
40
0.490248676533133
40
0.521401291900858
40
0.521401291900858
40
0.552553907268582
40
0.552553907268582
40
0.614859138004032
40
0.614859138004032
40
0.739469599474931
40
0.739469599474931
40
0.80177483021038
40
0.80177483021038
40
0.864080060945829
40
0.864080060945829
40
0.926385291681278
40
0.926385291681278
40
0.988690522416726
40
0.988690522416726
40
1
40
1
40
1
40
1
41
1
10
43.4147954805917
20
-0.278136796329278
30
0
41
1
10
43.1180294026528
20
-0.138672654280754
30
0
41
1
10
42.8212144850525
20
0.0015260517030242
30
0
41
1
10
42.1815869863299
20
0.302685885839452
30
0
41
1
10
41.8384165148521
20
0.463793024174492
30
0
41
1
10
40.8122625297935
20
0.939206493586397
30
-1E-16
41
1
10
40.129907546545
20
1.24519266070374
30
-1E-16
41
1
10
38.7587281442558
20
1.81694895265153
30
-1E-16
41
1
10
38.0717877498244
20
2.07938932487286
30
-1E-16
41
1
10
36.7032549352712
20
2.53698305071413
30
-2E-16
41
1
10
36.0212170371275
20
2.72931709387373
30
1E-16
41
1
10
35.1652341343091
20
2.91966774037562
30
0
41
1
10
34.9936274890744
20
2.95500463584199
30
0
41
1
10
34.6515576875164
20
3.02005160341903
30
0
41
1
10
34.4809257951822
20
3.04973843695689
30
0
41
1
10
33.9699695209582
20
3.13006497391007
30
0
41
1
10
33.6305810529127
20
3.17218401908409
30
0
41
1
10
32.6143852651341
20
3.2656714012883
30
0
41
1
10
31.9391605740037
20
3.27973543597565
30
0
41
1
10
30.9227439302111
20
3.23257489117131
30
0
41
1
10
30.5831711776481
20
3.20480265191523
30
0
41
1
10
29.9012987592735
20
3.12603217211691
30
0
41
1
10
29.5580867785945
20
3.07476273515073
30
0
41
1
10
28.8734966118843
20
2.95129225875661
30
0
41
1
10
28.5318090364298
20
2.87848154456444
30
0
41
1
10
27.8484137984743
20
2.71205430642436
30
1E-16
41
1
10
27.5066461565224
20
2.61835993816854
30
1E-16
41
1
10
27.1021942029448
20
2.49688653564095
30
-1E-16
41
1
10
27.0400353214351
20
2.47790654260365
30
-1E-16
41
1
10
26.9778640162083
20
2.45862056995046
30
-1E-16
0
SPLINE
5
CB
100
AcDbEntity
8
1
62
256
6
ByLayer
370
18
48
1
60
0
100
AcDbSpline
70
4
71
3
72
8
73
4
40
0
40
0
40
0
40
0
40
1
40
1
40
1
40
1
41
1
10
54.9968646356221
20
0.187711806792436
30
0
41
1
10
54.9821783748703
20
0.138761362211056
30
0
41
1
10
54.9674189957205
20
0.0898342321837049
30
0
41
1
10
54.9525867754169
20
0.0409303283081783
30
0
0
SPLINE
5
CC
100
AcDbEntity
8
1
62
256
6
ByLayer
370
18
48
1
60
0
100
AcDbSpline
70
4
71
3
72
8
73
4
40
0
40
0
40
0
40
0
40
1
40
1
40
1
40
1
41
1
10
3.64014902979722
20
2.49525909236323
30
-2E-16
41
1
10
3.62831767399015
20
2.49866937254731
30
1E-16
41
1
10
3.61556180546035
20
2.50039757021071
30
1E-16
41
1
10
3.60248993318484
20
2.50038098930082
30
1E-16
0
SPLINE
5
CD
100
AcDbEntity
8
1
62
256
6
ByLayer
370
18
48
1
60
0
100
AcDbSpline
70
4
71
3
72
8
73
4
40
0
40
0
40
0
40
0
40
1
40
1
40
1
40
1
41
1
10
3.60187565821258
20
-1.44998778562626
30
1E-16
41
1
10
3.58726951325065
20
-1.44456574063008
30
1E-16
41
1
10
3.57299893828903
20
-1.44068190454922
30
1E-16
41
1
10
3.55957190719153
20
-1.43849109569987
30
1E-16
0
SPLINE
5
CE
100
AcDbEntity
8
1
62
256
6
ByLayer
370
18
48
1
60
0
100
AcDbSpline
70
4
71
3
72
26
73
22
40
0
40
0
40
0
40
0
40
0.0929239422823424
40
0.0929239422823424
40
0.185847884564685
40
0.185847884564685
40
0.278771826847027
40
0.278771826847027
40
0.37169576912937
40
0.37169576912937
40
0.464619711411712
40
0.464619711411712
40
0.557543653694054
40
0.557543653694054
40
0.650467595976397
40
0.650467595976397
40
0.743391538258739
40
0.743391538258739
40
0.929239422823427
40
0.929239422823427
40
1
40
1
40
1
40
1
41
1
10
21
20
0.0462338178468826
30
0
41
1
10
21.3417818036456
20
-0.120641217604856
30
0
41
1
10
21.6837717944605
20
-0.287793585641339
30
0
41
1
10
22.36683325535
20
-0.618309077324597
30
0
41
1
10
22.7079836725099
20
-0.781738213468543
30
0
41
1
10
23.390939533509
20
-1.10209507533961
30
1E-16
41
1
10
23.7330508018094
20
-1.25913566345048
30
1E-16
41
1
10
24.4152901933701
20
-1.562058956096
30
1E-16
41
1
10
24.7558759401185
20
-1.70817935216957
30
1E-16
41
1
10
25.4373857418348
20
-1.98722656477889
30
1E-16
41
1
10
25.7783131911664
20
-2.12014692214566
30
1E-16
41
1
10
26.4619500893776
20
-2.37028133084962
30
1E-16
41
1
10
26.8030203765368
20
-2.48689710150353
30
2E-16
41
1
10
27.4845039368683
20
-2.70107206291331
30
2E-16
41
1
10
27.8250233190722
20
-2.79866334416241
30
-1E-16
41
1
10
28.5070822769413
20
-2.9730644104105
30
0
41
1
10
28.8494894364556
20
-3.05002927946129
30
0
41
1
10
29.8710551642222
20
-3.2457775815441
30
0
41
1
10
30.5459029410313
20
-3.32990783745009
30
0
41
1
10
31.4767742966903
20
-3.37977313027864
30
0
41
1
10
31.7333804044586
20
-3.38656236827458
30
0
41
1
10
31.9902016119414
20
-3.38636550467058
30
0
0
SPLINE
5
CF
100
AcDbEntity
8
1
62
256
6
ByLayer
370
18
48
1
60
0
100
AcDbSpline
70
4
71
3
72
8
73
4
40
0
40
0
40
0
40
0
40
1
40
1
40
1
40
1
41
1
10
53.309828728234
20
3.39365247838018
30
0
41
1
10
53.4097620492965
20
3.39664505686579
30
0
41
1
10
53.5097672846824
20
3.39857932869472
30
0
41
1
10
53.6098621191456
20
3.39944722347775
30
0
0
SPLINE
5
D0
100
AcDbEntity
8
1
62
256
6
ByLayer
370
18
48
1
60
0
100
AcDbSpline
70
4
71
3
72
16
73
12
40
0
40
0
40
0
40
0
40
0.0966915015140749
40
0.0966915015140749
40
0.322518626135556
40
0.322518626135556
40
0.548345750757037
40
0.548345750757037
40
0.774172875378519
40
0.774172875378519
40
1
40
1
40
1
40
1
41
1
10
53.5992072843811
20
0.6656269235624
30
0
41
1
10
53.6062956963693
20
0.676077171873374
30
0
41
1
10
53.6145109628856
20
0.686902434627001
30
0
41
1
10
53.6456915425799
20
0.724227502535541
30
0
41
1
10
53.672805448127
20
0.751369229702959
30
0
41
1
10
53.7383529486798
20
0.806340538641138
30
0
41
1
10
53.7767569910413
20
0.833807770453575
30
0
41
1
10
53.8615221077987
20
0.883675388465377
30
0
41
1
10
53.9090167585859
20
0.906815700742129
30
0
41
1
10
54.0081611461014
20
0.943443259572689
30
0
41
1
10
54.0607842725093
20
0.957340746362206
30
0
41
1
10
54.1146177149677
20
0.965902767730853
30
0
0
SPLINE
5
D1
100
AcDbEntity
8
1
62
256
6
ByLayer
370
18
48
1
60
0
100
AcDbSpline
70
4
71
3
72
38
73
34
40
0
40
0
40
0
40
0
40
0.0756858652181894
40
0.0756858652181894
40
0.113528797827284
40
0.113528797827284
40
0.151371730436379
40
0.151371730436379
40
0.189214663045473
40
0.189214663045473
40
0.227057595654568
40
0.227057595654568
40
0.302743460872757
40
0.302743460872757
40
0.454115191309136
40
0.454115191309136
40
0.49195812391823
40
0.49195812391823
40
0.529801056527324
40
0.529801056527324
40
0.567643989136418
40
0.567643989136418
40
0.605486921745512
40
0.605486921745512
40
0.756858652181882
40
0.756858652181882
40
0.832544517400067
40
0.832544517400067
40
0.870387450009158
40
0.870387450009158
40
0.90823038261825
40
0.90823038261825
40
1
40
1
40
1
40
1
41
1
10
53.5961018014279
20
-3.35705573533306
30
0
41
1
10
53.0721097767954
20
-3.31593415349639
30
0
41
1
10
52.5490190300573
20
-3.24609245932274
30
0
41
1
10
51.7623890724678
20
-3.10028853150038
30
0
41
1
10
51.4999639457136
20
-3.04484226476333
30
0
41
1
10
50.9763495755881
20
-2.92143579401161
30
0
41
1
10
50.71484275558
20
-2.85342045275465
30
0
41
1
10
50.1918081382529
20
-2.70548225062723
30
2E-16
41
1
10
49.9302810368424
20
-2.62555677679566
30
2E-16
41
1
10
49.4065288163768
20
-2.45461120315693
30
2E-16
41
1
10
49.1437666891892
20
-2.36338860988442
30
1E-16
41
1
10
48.3586252244941
20
-2.07632630153481
30
1E-16
41
1
10
47.8390309972879
20
-1.86692610854067
30
1E-16
41
1
10
46.2840952180921
20
-1.19900733017809
30
1E-16
41
1
10
45.2527602833137
20
-0.700285673926288
30
0
41
1
10
43.9446193343013
20
-0.0604605222441421
30
0
41
1
10
43.6817355328959
20
0.0684759237747414
30
0
41
1
10
43.1577320238919
20
0.324814959020188
30
0
41
1
10
42.8961322784109
20
0.452440164464179
30
0
41
1
10
42.3729809265151
20
0.705067129484974
30
0
41
1
10
42.1114299501809
20
0.830071226398445
30
-1E-16
41
1
10
41.5877684573553
20
1.07623693843931
30
-1E-16
41
1
10
41.3252360118899
20
1.19759065573464
30
-1E-16
41
1
10
40.0144826004982
20
1.78912934931125
30
-1E-16
41
1
10
38.9820578331678
20
2.20901725464924
30
-1E-16
41
1
10
37.427474686508
20
2.71138686522548
30
-2E-16
41
1
10
36.9083551056698
20
2.85775580038157
30
0
41
1
10
36.1244334697058
20
3.04021688395696
30
0
41
1
10
35.8615424173815
20
3.0949871575437
30
0
41
1
10
35.3378699754583
20
3.19054862628738
30
0
41
1
10
35.0769906270559
20
3.23139162978722
30
0
41
1
10
34.1857116874115
20
3.3472820782855
30
0
41
1
10
33.5584676627881
20
3.38793397434438
30
0
41
1
10
32.9305884840527
20
3.38688257669702
30
0
0
SPLINE
5
D2
100
AcDbEntity
8
1
62
256
6
ByLayer
370
18
48
1
60
0
100
AcDbSpline
70
4
71
3
72
18
73
14
40
0
40
0
40
0
40
0
40
0.0416104092799332
40
0.0416104092799332
40
0.36107360618662
40
0.36107360618662
40
0.440939405413293
40
0.440939405413293
40
0.520805204639965
40
0.520805204639965
40
0.68053680309331
40
0.68053680309331
40
1
40
1
40
1
40
1
41
1
10
13.3275744888067
20
-3.21604738416636
30
0
41
1
10
13.191988737546
20
-3.23599524695459
30
0
41
1
10
13.0565670318873
20
-3.25406804001764
30
0
41
1
10
11.8824882032831
20
-3.39448948485085
30
0
41
1
10
10.8507255204298
20
-3.40689587269989
30
0
41
1
10
9.54516934464533
20
-3.27927496812032
30
0
41
1
10
9.28287741404554
20
-3.24656003442135
30
0
41
1
10
8.75771942335197
20
-3.16718184548213
30
0
41
1
10
8.4962181562569
20
-3.12074703883684
30
0
41
1
10
7.7140248175528
20
-2.962326517393
30
0
41
1
10
7.19555762522089
20
-2.83129634113894
30
0
41
1
10
5.64201913182484
20
-2.37122032966292
30
1E-16
41
1
10
4.60860526674836
20
-1.97518389414009
30
1E-16
41
1
10
3.55792547192351
20
-1.51827441820601
30
1E-16
0
SPLINE
5
D3
100
AcDbEntity
8
1
62
256
6
ByLayer
370
18
48
1
60
0
100
AcDbSpline
70
4
71
3
72
10
73
6
40
0
40
0
40
0
40
0
40
0.5
40
0.5
40
1
40
1
40
1
40
1
41
1
10
3.55792547192348
20
-1.51827441820601
30
1E-16
41
1
10
3.54102754662986
20
-1.51092601174733
30
1E-16
41
1
10
3.52679220284284
20
-1.49940642027184
30
1E-16
41
1
10
3.50709914594367
20
-1.47117495645227
30
1E-16
41
1
10
3.50169783347016
20
-1.45445366368045
30
1E-16
41
1
10
3.50169783347016
20
-1.437456662465
30
1E-16
0
SPLINE
5
D4
100
AcDbEntity
8
1
62
256
6
ByLayer
370
18
48
1
60
0
100
AcDbSpline
70
4
71
3
72
26
73
22
40
0
40
0
40
0
40
0
40
0.0761377916326324
40
0.0761377916326324
40
0.152275583265265
40
0.152275583265265
40
0.30455116653053
40
0.30455116653053
40
0.456826749795794
40
0.456826749795794
40
0.609102333061059
40
0.609102333061059
40
0.685240124693692
40
0.685240124693692
40
0.761377916326324
40
0.761377916326324
40
0.913653499591592
40
0.913653499591592
40
0.989791291224226
40
0.989791291224226
40
1
40
1
40
1
40
1
41
1
10
53.3092846054763
20
0.499761176110411
30
0
41
1
10
53.0586721085674
20
0.621276292136173
30
0
41
1
10
52.8087177423011
20
0.741378799978094
30
0
41
1
10
52.3100818104819
20
0.978692725175875
30
-1E-16
41
1
10
52.0613877266897
20
1.09585665241576
30
-1E-16
41
1
10
51.315021987704
20
1.43863197784489
30
-1E-16
41
1
10
50.8172808070427
20
1.65609686092887
30
-1E-16
41
1
10
49.8204636135421
20
2.06678528676011
30
-1E-16
41
1
10
49.3199060229766
20
2.25731563721254
30
-1E-16
41
1
10
48.3110388674158
20
2.6025187940246
30
-2E-16
41
1
10
47.810608523672
20
2.75547729561535
30
-2E-16
41
1
10
47.0619130285735
20
2.94869943715955
30
0
41
1
10
46.8127549486789
20
3.0073574161614
30
0
41
1
10
46.3148606624137
20
3.11284697815603
30
0
41
1
10
46.0663799956941
20
3.15987359379105
30
0
41
1
10
45.3201700760425
20
3.28190713141783
30
0
41
1
10
44.8213764543297
20
3.33798212544801
30
0
41
1
10
44.0701532003483
20
3.38311621876355
30
0
41
1
10
43.8193009882338
20
3.39159321353253
30
0
41
1
10
43.5334472611345
20
3.39348209453183
30
0
41
1
10
43.4996533460119
20
3.39358354995636
30
0
41
1
10
43.4658642345551
20
3.39356358915779
30
0
0
SPLINE
5
D5
100
AcDbEntity
8
1
62
256
6
ByLayer
370
18
48
1
60
0
100
AcDbSpline
70
4
71
3
72
42
73
38
40
0
40
0
40
0
40
0
40
0.0402627470516627
40
0.0402627470516627
40
0.0859645210015829
40
0.0859645210015829
40
0.131666294951503
40
0.131666294951503
40
0.177368068901423
40
0.177368068901423
40
0.268771616801263
40
0.268771616801263
40
0.314473390751184
40
0.314473390751184
40
0.360175164701104
40
0.360175164701104
40
0.451578712600946
40
0.451578712600946
40
0.497280486550868
40
0.497280486550868
40
0.542982260500789
40
0.542982260500789
40
0.634385808400632
40
0.634385808400632
40
0.680087582350553
40
0.680087582350553
40
0.725789356300475
40
0.725789356300475
40
0.771491130250395
40
0.771491130250395
40
0.817192904200317
40
0.817192904200317
40
0.908596452100158
40
0.908596452100158
40
0.954298226050079
40
0.954298226050079
40
1
40
1
40
1
40
1
41
1
10
21.7252596007221
20
-3.37997255063311
30
0
41
1
10
21.50342098876
20
-3.3797089880577
30
0
41
1
10
21.2824614091133
20
-3.37422469898849
30
0
41
1
10
20.8116297859824
20
-3.35154223909976
30
0
41
1
10
20.5617913007778
20
-3.33291884885688
30
0
41
1
10
20.0627188578891
20
-3.28297199505462
30
0
41
1
10
19.8135268351339
20
-3.25163398375068
30
0
41
1
10
19.31562487057
20
-3.17633356419381
30
0
41
1
10
19.0670588535106
20
-3.13222859983523
30
0
41
1
10
18.3201136102846
20
-2.98229421747368
30
0
41
1
10
17.8205928974401
20
-2.85915165683207
30
0
41
1
10
17.0683959065804
20
-2.63932803601355
30
2E-16
41
1
10
16.8167646100691
20
-2.56030075641516
30
2E-16
41
1
10
16.3119139646335
20
-2.39261886642828
30
1E-16
41
1
10
16.0603229674866
20
-2.30441157400489
30
1E-16
41
1
10
15.30790916191
20
-2.0271305255429
30
1E-16
41
1
10
14.8098296595717
20
-1.82461908742798
30
1E-16
41
1
10
14.062415365753
20
-1.50452458577112
30
1E-16
41
1
10
13.81337326399
20
-1.39486671428887
30
1E-16
41
1
10
13.3151492220991
20
-1.17026074510051
30
1E-16
41
1
10
13.0661799300364
20
-1.0548841613963
30
1E-16
41
1
10
12.3178476890318
20
-0.703090114462071
30
0
41
1
10
11.816551562198
20
-0.462173139794345
30
0
41
1
10
11.0596069165904
20
-0.0937578564545731
30
0
41
1
10
10.8077459661074
20
0.0300394608182728
30
0
41
1
10
10.306111119567
20
0.274731860068528
30
0
41
1
10
10.0559212114744
20
0.395888785518167
30
0
41
1
10
9.55671966169126
20
0.635789894447726
30
0
41
1
10
9.30764470785965
20
0.7543998070187
30
0
41
1
10
8.81062542645321
20
0.98909052221569
30
-1E-16
41
1
10
8.56246521289862
20
1.10471023987105
30
-1E-16
41
1
10
7.81734568361861
20
1.4430831285602
30
-1E-16
41
1
10
7.32001317125346
20
1.65800563142736
30
-1E-16
41
1
10
6.57268961059364
20
1.96316327919851
30
-1E-16
41
1
10
6.3231952323421
20
2.06166922209616
30
-1E-16
41
1
10
5.82171060264068
20
2.24922584145728
30
-1E-16
41
1
10
5.56984944599702
20
2.33851595183756
30
-1E-16
41
1
10
5.31663178611322
20
2.42295206152914
30
-1E-16
0
SPLINE
5
D6
100
AcDbEntity
8
1
62
256
6
ByLayer
370
18
48
1
60
0
100
AcDbSpline
70
4
71
3
72
8
73
4
40
0
40
0
40
0
40
0
40
1
40
1
40
1
40
1
41
1
10
3.59765478343462
20
-1.46259755681507
30
1E-16
41
1
10
3.58451928140204
20
-1.45717193743039
30
1E-16
41
1
10
3.57167591354983
20
-1.45313634680446
30
1E-16
41
1
10
3.55957190719101
20
-1.45065362609961
30
1E-16
0
SPLINE
5
D7
100
AcDbEntity
8
1
62
256
6
ByLayer
370
18
48
1
60
0
100
AcDbSpline
70
4
71
3
72
42
73
38
40
0
40
0
40
0
40
0
40
0.008947624454611
40
0.008947624454611
40
0.140047849924664
40
0.140047849924664
40
0.172822906292177
40
0.172822906292177
40
0.20559796265969
40
0.20559796265969
40
0.271148075394717
40
0.271148075394717
40
0.303923131762232
40
0.303923131762232
40
0.336698188129746
40
0.336698188129746
40
0.402248300864773
40
0.402248300864773
40
0.467798413599801
40
0.467798413599801
40
0.500573469967314
40
0.500573469967314
40
0.533348526334827
40
0.533348526334827
40
0.598898639069854
40
0.598898639069854
40
0.631673695437368
40
0.631673695437368
40
0.664448751804882
40
0.664448751804882
40
0.795548977274936
40
0.795548977274936
40
0.861099090009963
40
0.861099090009963
40
0.926649202744991
40
0.926649202744991
40
1
40
1
40
1
40
1
41
1
10
35.0300426311615
20
-3.23595075322049
30
0
41
1
10
34.958897039973
20
-3.24623113626385
30
0
41
1
10
34.8878062959286
20
-3.25599072666697
30
0
41
1
10
33.7758585664936
20
-3.40057410605462
30
0
41
1
10
32.7453149756173
20
-3.42327464330055
30
0
41
1
10
31.4451600204141
20
-3.3091536327415
30
0
41
1
10
31.1845668998603
20
-3.27921818816387
30
0
41
1
10
30.6615600855982
20
-3.20520063200436
30
0
41
1
10
30.3986480127981
20
-3.16102833902991
30
0
41
1
10
29.612006159373
20
-3.00882139607773
30
0
41
1
10
29.0892991107476
20
-2.8807774764594
30
0
41
1
10
28.3035654414857
20
-2.65332969081632
30
2E-16
41
1
10
28.0412101289795
20
-2.57149269209248
30
2E-16
41
1
10
27.5162974732093
20
-2.39698577164876
30
1E-16
41
1
10
27.2548595850631
20
-2.3047796474624
30
1E-16
41
1
10
26.4726787363207
20
-2.01499765385492
30
1E-16
41
1
10
25.9542181933225
20
-1.80398793267935
30
1E-16
41
1
10
24.9179516378455
20
-1.35615521060569
30
1E-16
41
1
10
24.400303977036
20
-1.11903848947529
30
1E-16
41
1
10
23.6205889538875
20
-0.751191915781817
30
0
41
1
10
23.3602400362618
20
-0.626349983101647
30
0
41
1
10
22.8378065467027
20
-0.373898420057742
30
0
41
1
10
22.5752154150728
20
-0.246066712113219
30
0
41
1
10
21.7877862033612
20
0.137900031865456
30
0
41
1
10
21.2649106439792
20
0.394350146254226
30
0
41
1
10
20.4791879547339
20
0.770463767789494
30
0
41
1
10
20.2171922779121
20
0.894707152139347
30
-1E-16
41
1
10
19.6921103559787
20
1.1390798382611
30
-1E-16
41
1
10
19.429826346411
20
1.25881190749675
30
-1E-16
41
1
10
18.1241564519699
20
1.84009452021786
30
-1E-16
41
1
10
17.0925775001162
20
2.25240872933708
30
-1E-16
41
1
10
15.53398195775
20
2.74206151217913
30
1E-16
41
1
10
15.0126468322014
20
2.88422682240755
30
0
41
1
10
13.9618095655573
20
3.11815265860702
30
0
41
1
10
13.4406537805221
20
3.2081307359197
30
0
41
1
10
12.3400677425366
20
3.33976234178121
30
0
41
1
10
11.7610660232475
20
3.37426599279525
30
0
41
1
10
11.1808102799907
20
3.37329356944133
30
0
0
SPLINE
5
D8
100
AcDbEntity
8
1
62
256
6
ByLayer
370
18
48
1
60
0
100
AcDbSpline
70
4
71
3
72
10
73
6
40
0
40
0
40
0
40
0
40
0.506681770499254
40
0.506681770499254
40
1
40
1
40
1
40
1
41
1
10
6.57107723696896
20
-2.93451188461174
30
0
41
1
10
7.17797206747372
20
-3.08016365191833
30
0
41
1
10
7.77941694067147
20
-3.19068422909513
30
0
41
1
10
8.9630733007815
20
-3.33588213289278
30
0
41
1
10
9.54567826331481
20
-3.37235094710869
30
0
41
1
10
10.1302097954498
20
-3.37272876066757
30
0
0
SPLINE
5
D9
100
AcDbEntity
8
1
62
256
6
ByLayer
370
18
48
1
60
0
100
AcDbSpline
70
4
71
3
72
8
73
4
40
0
40
0
40
0
40
0
40
1
40
1
40
1
40
1
41
1
10
3.55957190719101
20
-1.45065362609961
30
1E-16
41
1
10
3.55901599280008
20
-1.47320187406857
30
1E-16
41
1
10
3.55846717132056
20
-1.49574199330041
30
1E-16
41
1
10
3.55792547192348
20
-1.51827441820595
30
1E-16
0
SPLINE
5
DA
100
AcDbEntity
8
1
62
256
6
ByLayer
370
18
48
1
60
0
100
AcDbSpline
70
4
71
3
72
10
73
6
40
0
40
0
40
0
40
0
40
0.24060986146874
40
0.24060986146874
40
1
40
1
40
1
40
1
41
1
10
4.96950358580744
20
-2.53529224217013
30
1E-16
41
1
10
5.10085734162394
20
-2.56733463511463
30
1E-16
41
1
10
5.23146281181246
20
-2.5997718960609
30
1E-16
41
1
10
5.77093913255106
20
-2.73505895079037
30
-1E-16
41
1
10
6.17329567890255
20
-2.83892435746705
30
0
41
1
10
6.57108199225297
20
-2.93451240280484
30
0
0
SPLINE
5
DB
100
AcDbEntity
8
1
62
256
6
ByLayer
370
18
48
1
60
0
100
AcDbSpline
70
4
71
3
72
8
73
4
40
0
40
0
40
0
40
0
40
1
40
1
40
1
40
1
41
1
10
53.8135163407795
20
3.26404221115243
30
0
41
1
10
53.8152979390563
20
3.26284192108935
30
0
41
1
10
53.8170795620515
20
3.26164151637977
30
0
41
1
10
53.8188612098043
20
3.26044099717288
30
0
0
SPLINE
5
DC
100
AcDbEntity
8
1
62
256
6
ByLayer
370
18
48
1
60
0
100
AcDbSpline
70
4
71
3
72
8
73
4
40
0
40
0
40
0
40
0
40
1
40
1
40
1
40
1
41
1
10
54.4298284972673
20
-0.357493124684481
30
0
41
1
10
54.3285851127926
20
-0.0872354645713358
30
0
41
1
10
54.2039027855479
20
0.198517070520751
30
0
41
1
10
54.056088354842
20
0.499561637112066
30
0
0
SPLINE
5
DD
100
AcDbEntity
8
1
62
256
6
ByLayer
370
18
48
1
60
0
100
AcDbSpline
70
4
71
3
72
8
73
4
40
0
40
0
40
0
40
0
40
1
40
1
40
1
40
1
41
1
10
54.9968646356221
20
0.187711806792436
30
0
41
1
10
55.0010463711122
20
0.0625331943722642
30
0
41
1
10
55.0010438725514
20
-0.0626079878011865
30
0
41
1
10
54.9968646356224
20
-0.187711806780811
30
0
0
SPLINE
5
DE
100
AcDbEntity
8
1
62
256
6
ByLayer
370
18
48
1
60
0
100
AcDbSpline
70
2053
71
3
72
52
73
48
40
0
40
0
40
0
40
0
40
0.0625000000000012
40
0.0625000000000012
40
0.125000000000002
40
0.125000000000002
40
0.187500000000004
40
0.187500000000004
40
0.250000000000005
40
0.250000000000005
40
0.281250000000006
40
0.281250000000006
40
0.312500000000007
40
0.312500000000007
40
0.343750000000008
40
0.343750000000008
40
0.37500000000001
40
0.37500000000001
40
0.406250000000011
40
0.406250000000011
40
0.437500000000012
40
0.437500000000012
40
0.50000000000001
40
0.50000000000001
40
0.562500000000008
40
0.562500000000008
40
0.625000000000007
40
0.625000000000007
40
0.656250000000006
40
0.656250000000006
40
0.687500000000005
40
0.687500000000005
40
0.718750000000004
40
0.718750000000004
40
0.750000000000003
40
0.750000000000003
40
0.781250000000002
40
0.781250000000002
40
0.812500000000001
40
0.812500000000001
40
0.874999999999999
40
0.874999999999999
40
0.937499999999997
40
0.937499999999997
40
0.968749999999999
40
0.968749999999999
40
1
40
1
40
1
40
1
41
1
10
54.1414449763277
20
-1.4287014137221
30
1E-16
41
1
10
54.1156586564575
20
-1.46265137657673
30
1E-16
41
1
10
54.0915328820011
20
-1.48578952600013
30
1E-16
41
1
10
54.0456323095907
20
-1.51089554943692
30
1E-16
41
1
10
54.0250623366472
20
-1.5121617846809
30
1E-16
41
1
10
53.987516018734
20
-1.49140905226858
30
1E-16
41
1
10
53.9715192035496
20
-1.46996276768888
30
1E-16
41
1
10
53.9443583339447
20
-1.40351894457376
30
1E-16
41
1
10
53.9339293513909
20
-1.36026682078651
30
1E-16
41
1
10
53.923668423671
20
-1.28021434835108
30
1E-16
41
1
10
53.9212746733247
20
-1.25177327733908
30
1E-16
41
1
10
53.9186987611027
20
-1.19130120540299
30
1E-16
41
1
10
53.91853903697
20
-1.15877215190233
30
1E-16
41
1
10
53.9208793573769
20
-1.09244362909399
30
1E-16
41
1
10
53.9233328263687
20
-1.05873127040022
30
1E-16
41
1
10
53.9311835307184
20
-0.99018800676771
30
1E-16
41
1
10
53.9366125193391
20
-0.955550950674308
30
1E-16
41
1
10
53.9501499397842
20
-0.889148867265646
30
1E-16
41
1
10
53.958442037893
20
-0.8564828462072
30
1E-16
41
1
10
53.9774240642367
20
-0.795365719687027
30
0
41
1
10
53.9880388393483
20
-0.766969894684365
30
0
41
1
10
54.0232206593025
20
-0.687898846179195
30
0
41
1
10
54.0503026296606
20
-0.645545087900672
30
0
41
1
10
54.106708627306
20
-0.583037043983808
30
0
41
1
10
54.1362007359126
20
-0.562612360722085
30
0
41
1
10
54.1930168196605
20
-0.542747624374897
30
0
41
1
10
54.2208923138156
20
-0.543140227848681
30
0
41
1
10
54.2582383837308
20
-0.558909954283024
30
0
41
1
10
54.2699884581947
20
-0.56666040658871
30
0
41
1
10
54.2918531521733
20
-0.587492588946702
30
0
41
1
10
54.3019910471977
20
-0.600693924912065
30
0
41
1
10
54.3195585806736
20
-0.632010272450287
30
0
41
1
10
54.3270992708041
20
-0.650186601204723
30
0
41
1
10
54.33928860423
20
-0.692267420233549
30
0
41
1
10
54.3438334475612
20
-0.715997898946853
30
0
41
1
10
54.3492514335648
20
-0.767744020055289
30
0
41
1
10
54.3501611621803
20
-0.796400483748869
30
0
41
1
10
54.3480384687371
20
-0.856689821070859
30
1E-16
41
1
10
54.3450766033465
20
-0.888175517992636
30
1E-16
41
1
10
54.3305234157358
20
-0.986893631139026
30
-1E-16
41
1
10
54.3132930400412
20
-1.05621402402898
30
0
41
1
10
54.2708358806471
20
-1.18571862331149
30
0
41
1
10
54.2456323805866
20
-1.24642424542853
30
0
41
1
10
54.2068336487677
20
-1.32464134353094
30
0
41
1
10
54.1935433781741
20
-1.34894380920983
30
0
41
1
10
54.1673652950856
20
-1.39234680210237
30
0
41
1
10
54.1543381362628
20
-1.41172643229478
30
1E-16
41
1
10
54.1414449763277
20
-1.4287014137221
30
1E-16
0
SPLINE
5
DF
100
AcDbEntity
8
1
62
256
6
ByLayer
370
18
48
1
60
0
100
AcDbSpline
70
4
71
3
72
10
73
6
40
0
40
0
40
0
40
0
40
0.5
40
0.5
40
1
40
1
40
1
40
1
41
1
10
3.55957190719101
20
-1.45065362609961
30
1E-16
41
1
10
3.53951872301525
20
-1.4461115522885
30
1E-16
41
1
10
3.5251188591011
20
-1.43903826365408
30
1E-16
41
1
10
3.50626300409772
20
-1.42339556915337
30
1E-16
41
1
10
3.50169783347019
20
-1.4146633109975
30
1E-16
41
1
10
3.50169783347019
20
-1.40596913073014
30
1E-16
0
SPLINE
5
E0
100
AcDbEntity
8
1
62
256
6
ByLayer
370
18
48
1
60
0
100
AcDbSpline
70
4
71
3
72
8
73
4
40
0
40
0
40
0
40
0
40
1
40
1
40
1
40
1
41
1
10
54.6891066935619
20
1.08402829479132
30
0
41
1
10
54.7946237303144
20
0.786304919709039
30
0
41
1
10
54.897224832516
20
0.487538167808225
30
0
41
1
10
54.9968646356221
20
0.187711806792436
30
0
0
SPLINE
5
E1
100
AcDbEntity
8
1
62
256
6
ByLayer
370
18
48
1
60
0
100
AcDbSpline
70
4
71
3
72
22
73
18
40
0
40
0
40
0
40
0
40
0.249999999999989
40
0.249999999999989
40
0.374999999999986
40
0.374999999999986
40
0.437499999999988
40
0.437499999999988
40
0.499999999999989
40
0.499999999999989
40
0.624999999999992
40
0.624999999999992
40
0.749999999999995
40
0.749999999999995
40
0.874999999999997
40
0.874999999999997
40
1
40
1
40
1
40
1
41
1
10
53.8188612098043
20
3.26044099717291
30
0
41
1
10
53.8852727132675
20
3.07390072099526
30
0
41
1
10
53.9510026214278
20
2.88615351157168
30
0
41
1
10
54.0499079401954
20
2.60380789419423
30
0
41
1
10
54.0829159431678
20
2.50959386360327
30
0
41
1
10
54.1325722233238
20
2.36824552366343
30
0
41
1
10
54.1491460590052
20
2.32113129469636
30
0
41
1
10
54.1823557105523
20
2.22691400053805
30
0
41
1
10
54.1989132197059
20
2.17978997356673
30
0
41
1
10
54.2493163229499
20
2.03860846610917
30
0
41
1
10
54.2843039571686
20
1.94447282657004
30
0
41
1
10
54.3565362702783
20
1.76059405329926
30
0
41
1
10
54.3939077943585
20
1.67053618834316
30
0
41
1
10
54.47210810405
20
1.49462275101544
30
0
41
1
10
54.5129382279179
20
1.40876521188514
30
0
41
1
10
54.5987266649009
20
1.24138708110419
30
0
41
1
10
54.6433458882012
20
1.16064043752886
30
0
41
1
10
54.6891066935619
20
1.08402829479129
30
0
0
SPLINE
5
E2
100
AcDbEntity
8
1
62
256
6
ByLayer
370
18
48
1
60
0
100
AcDbSpline
70
4
71
3
72
22
73
18
40
0
40
0
40
0
40
0
40
0.0786287250935423
40
0.0786287250935423
40
0.157257450187084
40
0.157257450187084
40
0.314514900374172
40
0.314514900374172
40
0.629029800748347
40
0.629029800748347
40
0.70765852584189
40
0.70765852584189
40
0.786287250935434
40
0.786287250935434
40
0.943544701122522
40
0.943544701122522
40
1
40
1
40
1
40
1
41
1
10
53.7856496529804
20
-3.21205302840866
30
0
41
1
10
53.5225225490293
20
-3.19536543637801
30
0
41
1
10
53.2603592220755
20
-3.17265322731458
30
0
41
1
10
52.7378465192163
20
-3.11304934868914
30
0
41
1
10
52.477426621126
20
-3.0765705439363
30
0
41
1
10
51.6979142885513
20
-2.94822343093566
30
0
41
1
10
51.1805648669044
20
-2.83749210634824
30
0
41
1
10
49.6284668457575
20
-2.43734635164566
30
1E-16
41
1
10
48.5937435494952
20
-2.07942847917624
30
1E-16
41
1
10
47.2777305875959
20
-1.55046984281771
30
1E-16
41
1
10
47.0133977446329
20
-1.44063968515323
30
1E-16
41
1
10
46.4884420336177
20
-1.21676658649332
30
1E-16
41
1
10
46.2270017941181
20
-1.10237748268193
30
1E-16
41
1
10
45.4448590687217
20
-0.753922296718741
30
0
41
1
10
44.9263012807132
20
-0.51463859800046
30
0
41
1
10
44.2222978503071
20
-0.187045490666577
30
0
41
1
10
44.0364077240272
20
-0.100246146808587
30
0
41
1
10
43.8504934426819
20
-0.0134233396398713
30
0
0
SPLINE
5
E3
100
AcDbEntity
8
1
62
256
6
ByLayer
370
18
48
1
60
0
100
AcDbSpline
70
4
71
3
72
20
73
16
40
0
40
0
40
0
40
0
40
0.190609399859403
40
0.190609399859403
40
0.291783224876978
40
0.291783224876978
40
0.392957049894553
40
0.392957049894553
40
0.595304699929702
40
0.595304699929702
40
0.797652349964851
40
0.797652349964851
40
0.898826174982425
40
0.898826174982425
40
1
40
1
40
1
40
1
41
1
10
11.3706324735655
20
-3.21243993468545
30
0
41
1
10
10.878609371852
20
-3.21789929325524
30
0
41
1
10
10.3850733979056
20
-3.19909607730179
30
0
41
1
10
9.6242753800596
20
-3.13231615921939
30
0
41
1
10
9.35989035287707
20
-3.10219824665111
30
0
41
1
10
8.83407427846583
20
-3.02903998452459
30
0
41
1
10
8.57198556002368
20
-2.9859531704243
30
0
41
1
10
7.78729731206494
20
-2.83813296737452
30
0
41
1
10
7.26622922347704
20
-2.71478545966261
30
-1E-16
41
1
10
6.22373390322639
20
-2.42449541602173
30
1E-16
41
1
10
5.70237158549685
20
-2.25719079124116
30
1E-16
41
1
10
4.91651413088076
20
-1.97867644657222
30
1E-16
41
1
10
4.65389253457144
20
-1.88120777926957
30
1E-16
41
1
10
4.12673851642785
20
-1.67781013835753
30
1E-16
41
1
10
3.86203642732247
20
-1.57180040025529
30
1E-16
41
1
10
3.59765478343465
20
-1.4625975568151
30
1E-16
0
SPLINE
5
E4
100
AcDbEntity
8
1
62
256
6
ByLayer
370
18
48
1
60
0
100
AcDbSpline
70
4
71
3
72
66
73
62
40
0
40
0
40
0
40
0
40
0.0159389604643283
40
0.0159389604643283
40
0.0704288816748534
40
0.0704288816748534
40
0.0976738422801153
40
0.0976738422801153
40
0.124918802885377
40
0.124918802885377
40
0.179408724095901
40
0.179408724095901
40
0.206653684701163
40
0.206653684701163
40
0.233898645306425
40
0.233898645306425
40
0.261143605911687
40
0.261143605911687
40
0.288388566516949
40
0.288388566516949
40
0.342878487727472
40
0.342878487727472
40
0.397368408937994
40
0.397368408937994
40
0.424613369543256
40
0.424613369543256
40
0.451858330148517
40
0.451858330148517
40
0.479103290753779
40
0.479103290753779
40
0.50634825135904
40
0.50634825135904
40
0.560838172569563
40
0.560838172569563
40
0.588083133174823
40
0.588083133174823
40
0.615328093780084
40
0.615328093780084
40
0.669818014990605
40
0.669818014990605
40
0.697062975595866
40
0.697062975595866
40
0.724307936201127
40
0.724307936201127
40
0.778797857411648
40
0.778797857411648
40
0.806042818016909
40
0.806042818016909
40
0.83328777862217
40
0.83328777862217
40
0.860532739227431
40
0.860532739227431
40
0.887777699832692
40
0.887777699832692
40
0.942267621043213
40
0.942267621043213
40
0.969512581648473
40
0.969512581648473
40
0.996757542253734
40
0.996757542253734
40
1
40
1
40
1
40
1
41
1
10
49.2571794946414
20
-2.2739288980365
30
1E-16
41
1
10
49.110246638015
20
-2.32740707521634
30
1E-16
41
1
10
48.9630253627725
20
-2.37942916804619
30
1E-16
41
1
10
48.3110388674157
20
-2.60251879402466
30
2E-16
41
1
10
47.8106085236719
20
-2.75547729561538
30
2E-16
41
1
10
47.0619130285735
20
-2.94869943715958
30
0
41
1
10
46.8127549486788
20
-3.00735741616143
30
0
41
1
10
46.3148606624136
20
-3.11284697815603
30
0
41
1
10
46.0663799956941
20
-3.15987359379105
30
0
41
1
10
45.3201700760424
20
-3.28190713141785
30
0
41
1
10
44.8213764543296
20
-3.33798212544801
30
0
41
1
10
44.0701532003481
20
-3.38311621876355
30
0
41
1
10
43.8193009882336
20
-3.39159321353253
30
0
41
1
10
43.315186254959
20
-3.39492433239118
30
0
41
1
10
43.0632649068425
20
-3.38981126076104
30
0
41
1
10
42.5616509389153
20
-3.36640115363016
30
0
41
1
10
42.311577257305
20
-3.34811893957951
30
0
41
1
10
41.8128771554331
20
-3.29842131372814
30
0
41
1
10
41.5639958276977
20
-3.2670803981452
30
0
41
1
10
40.8172677204293
20
-3.15472239429855
30
0
41
1
10
40.3198711584071
20
-3.05521108624544
30
0
41
1
10
39.3235236415026
20
-2.80833910990097
30
-1E-16
41
1
10
38.8232289768068
20
-2.66238148067157
30
2E-16
41
1
10
38.0675082915245
20
-2.41163578369398
30
1E-16
41
1
10
37.8153268711603
20
-2.3224315385489
30
1E-16
41
1
10
37.313578701279
20
-2.13653814555133
30
1E-16
41
1
10
37.0633086245964
20
-2.03978613557823
30
1E-16
41
1
10
36.5636784389849
20
-1.83933243738014
30
1E-16
41
1
10
36.3143349454041
20
-1.73560348414017
30
1E-16
41
1
10
35.8164569847432
20
-1.52139032616037
30
1E-16
41
1
10
35.5680015942776
20
-1.41073919486732
30
1E-16
41
1
10
34.8217760825383
20
-1.07252669226634
30
1E-16
41
1
10
34.323303469701
20
-0.838563587466155
30
1E-16
41
1
10
33.5734819376975
20
-0.475841775869384
30
0
41
1
10
33.322966096131
20
-0.35340980933168
30
0
41
1
10
32.8197343102767
20
-0.107726393321428
30
0
41
1
10
32.5667990269285
20
0.0158351694362864
30
0
41
1
10
31.8126362970944
20
0.384123409212918
30
0
41
1
10
31.3139244947657
20
0.628388044155457
30
0
41
1
10
30.5663317514377
20
0.981372602289298
30
-1E-16
41
1
10
30.3173718217809
20
1.09714710836818
30
-1E-16
41
1
10
29.8195597553848
20
1.32419973860186
30
-1E-16
41
1
10
29.5709448838704
20
1.43592930009208
30
-1E-16
41
1
10
28.8239756694501
20
1.76180523913266
30
-1E-16
41
1
10
28.3240850995692
20
1.96597977413811
30
-1E-16
41
1
10
27.5701291812993
20
2.25008723675941
30
-1E-16
41
1
10
27.3176076964989
20
2.34147017444764
30
-1E-16
41
1
10
26.8144184263051
20
2.51291330507414
30
-2E-16
41
1
10
26.5634997784539
20
2.59318891363185
30
-2E-16
41
1
10
26.0629418592574
20
2.74308226451802
30
1E-16
41
1
10
25.8132392627921
20
2.81261808283816
30
0
41
1
10
25.3150311688556
20
2.94089660340248
30
0
41
1
10
25.0662865070444
20
2.99933454956604
30
0
41
1
10
24.3195267822867
20
3.15618342804237
30
0
41
1
10
23.8214835508948
20
3.23679281610569
30
0
41
1
10
23.0725361657986
20
3.31994485050191
30
0
41
1
10
22.8222984142933
20
3.34119092918763
30
0
41
1
10
22.319922110285
20
3.37044102113541
30
0
41
1
10
22.0672973431675
20
3.37848976468757
30
0
41
1
10
21.7852112538316
20
3.37994848680395
30
0
41
1
10
21.7552274074029
20
3.38000815485682
30
0
41
1
10
21.7252596023066
20
3.37997255063502
30
0
0
SPLINE
5
E5
100
AcDbEntity
8
1
62
256
6
ByLayer
370
18
48
1
60
0
100
AcDbSpline
70
4
71
3
72
8
73
4
40
0
40
0
40
0
40
0
40
1
40
1
40
1
40
1
41
1
10
3.64604282281914
20
2.63242342602703
30
-2E-16
41
1
10
3.64548175375057
20
2.59118803313154
30
-2E-16
41
1
10
3.64491294447163
20
2.54994672936579
30
-2E-16
41
1
10
3.64433642193976
20
2.50869917694297
30
-2E-16
0
SPLINE
5
E6
100
AcDbEntity
8
1
62
256
6
ByLayer
370
18
48
1
60
0
100
AcDbSpline
70
4
71
3
72
22
73
18
40
0
40
0
40
0
40
0
40
0.250000000000005
40
0.250000000000005
40
0.375000000000005
40
0.375000000000005
40
0.437500000000005
40
0.437500000000005
40
0.500000000000005
40
0.500000000000005
40
0.625000000000004
40
0.625000000000004
40
0.750000000000003
40
0.750000000000003
40
0.875000000000001
40
0.875000000000001
40
1
40
1
40
1
40
1
41
1
10
53.8188612098043
20
-3.26044099717296
30
0
41
1
10
53.8852727132675
20
-3.07390072099526
30
0
41
1
10
53.9510026214278
20
-2.88615351157159
30
0
41
1
10
54.0499079401955
20
-2.60380789419406
30
0
41
1
10
54.0829159431679
20
-2.50959386360304
30
0
41
1
10
54.1325722233239
20
-2.36824552366318
30
0
41
1
10
54.1491460590053
20
-2.32113129469613
30
0
41
1
10
54.1823557105524
20
-2.22691400053776
30
0
41
1
10
54.198913219706
20
-2.17978997356644
30
0
41
1
10
54.24931632295
20
-2.03860846610883
30
0
41
1
10
54.2843039571686
20
-1.94447282656975
30
0
41
1
10
54.3565362702782
20
-1.76059405329931
30
0
41
1
10
54.3939077943584
20
-1.67053618834328
30
0
41
1
10
54.47210810405
20
-1.49462275101553
30
0
41
1
10
54.5129382279179
20
-1.40876521188511
30
0
41
1
10
54.5987266649011
20
-1.2413870811038
30
0
41
1
10
54.6433458882013
20
-1.16064043752883
30
0
41
1
10
54.6891066935619
20
-1.08402829479132
30
0
0
SPLINE
5
E7
100
AcDbEntity
8
1
62
256
6
ByLayer
370
18
48
1
60
0
100
AcDbSpline
70
4
71
3
72
10
73
6
40
0
40
0
40
0
40
0
40
0.5
40
0.5
40
1
40
1
40
1
40
1
41
1
10
3.50169783347019
20
2.5754938565631
30
-2E-16
41
1
10
3.50169783347016
20
2.59751534479722
30
-2E-16
41
1
10
3.51993976339827
20
2.61818479255399
30
-2E-16
41
1
10
3.57795950244878
20
2.64073008367288
30
-2E-16
41
1
10
3.61542006499039
20
2.64186225006699
30
-2E-16
41
1
10
3.64604282281914
20
2.63242342602706
30
-2E-16
0
SPLINE
5
E8
100
AcDbEntity
8
1
62
256
6
ByLayer
370
18
48
1
60
0
100
AcDbSpline
70
4
71
3
72
16
73
12
40
0
40
0
40
0
40
0
40
0.201856994812849
40
0.201856994812849
40
0.403713989625699
40
0.403713989625699
40
0.605570984438549
40
0.605570984438549
40
0.807427979251398
40
0.807427979251398
40
1
40
1
40
1
40
1
41
1
10
53.8135163407796
20
3.26404221115163
30
0
41
1
10
53.4711760796678
20
3.26673909845684
30
0
41
1
10
53.1284685689398
20
3.25736706754663
30
0
41
1
10
52.4431459574962
20
3.21465021437703
30
0
41
1
10
52.1013474309726
20
3.18174840710387
30
0
41
1
10
51.4179586718607
20
3.09291151203632
30
0
41
1
10
51.0763764601072
20
3.03693360472704
30
0
41
1
10
50.3920072180101
20
2.90266414714003
30
0
41
1
10
50.0488694979405
20
2.82461276476457
30
0
41
1
10
49.3803617514728
20
2.65280249753968
30
-1E-16
41
1
10
49.0544514716466
20
2.55982319374607
30
-1E-16
41
1
10
48.7284581463938
20
2.45864548283601
30
-1E-16
0
SPLINE
5
E9
100
AcDbEntity
8
1
62
256
6
ByLayer
370
18
48
1
60
0
100
AcDbSpline
70
4
71
3
72
8
73
4
40
0
40
0
40
0
40
0
40
1
40
1
40
1
40
1
41
1
10
21.7311371329142
20
-0.309410859978243
30
0
41
1
10
21.4873939748288
20
-0.195030323686439
30
0
41
1
10
21.2436446958344
20
-0.0800770430240334
30
0
41
1
10
21
20
0.0349297988938133
30
0
0
SPLINE
5
EA
100
AcDbEntity
8
1
62
256
6
ByLayer
370
18
48
1
60
0
100
AcDbSpline
70
4
71
3
72
8
73
4
40
0
40
0
40
0
40
0
40
1
40
1
40
1
40
1
41
1
10
53.596101801427
20
-3.3570557353315
30
0
41
1
10
53.6543154145794
20
-3.32343490196916
30
0
41
1
10
53.7126532742488
20
-3.2892217417303
30
0
41
1
10
53.7711349404082
20
-3.25443068723197
30
0
0
SPLINE
5
EB
100
AcDbEntity
8
1
62
256
6
ByLayer
370
18
48
1
60
0
100
AcDbSpline
70
4
71
3
72
8
73
4
40
0
40
0
40
0
40
0
40
1
40
1
40
1
40
1
41
1
10
54.6891066935619
20
-1.08402829479129
30
0
41
1
10
54.7946237303164
20
-0.786304919703554
30
0
41
1
10
54.8972248325197
20
-0.487538167797254
30
0
41
1
10
54.9968646356276
20
-0.187711806775894
30
0
0
SPLINE
5
EC
100
AcDbEntity
8
1
62
256
6
ByLayer
370
18
48
1
60
0
100
AcDbSpline
70
4
71
3
72
26
73
22
40
0
40
0
40
0
40
0
40
0.124999999999993
40
0.124999999999993
40
0.249999999999986
40
0.249999999999986
40
0.312499999999982
40
0.312499999999982
40
0.374999999999978
40
0.374999999999978
40
0.437499999999975
40
0.437499999999975
40
0.499999999999971
40
0.499999999999971
40
0.624999999999978
40
0.624999999999978
40
0.749999999999986
40
0.749999999999986
40
0.874999999999993
40
0.874999999999993
40
1
40
1
40
1
40
1
41
1
10
54.9525867754169
20
0.0409303283081499
30
0
41
1
10
54.9361286070583
20
-0.0133345536113154
30
0
41
1
10
54.9172065750446
20
-0.0663588201886398
30
0
41
1
10
54.8742492625903
20
-0.16974777301769
30
0
41
1
10
54.8501448522537
20
-0.219988682493153
30
0
41
1
10
54.8122385362922
20
-0.288105158102695
30
0
41
1
10
54.7992245544162
20
-0.309806876883186
30
0
41
1
10
54.7723995645054
20
-0.351022135570702
30
0
41
1
10
54.7586201297035
20
-0.370442221522239
30
0
41
1
10
54.7313745409995
20
-0.405388339352356
30
0
41
1
10
54.7177705440258
20
-0.421135127065014
30
0
41
1
10
54.6905820395722
20
-0.449104534696033
30
0
41
1
10
54.6768736269511
20
-0.461403775342831
30
0
41
1
10
54.6370704900469
20
-0.491655271496199
30
0
41
1
10
54.6117411892878
20
-0.503493164977868
30
0
41
1
10
54.5647501811604
20
-0.510801429388067
30
0
41
1
10
54.5432843826293
20
-0.506318162592748
30
0
41
1
10
54.5042611172792
20
-0.483546704577833
30
0
41
1
10
54.4870791490272
20
-0.465625129687254
30
0
41
1
10
54.4559742086218
20
-0.419031327516819
30
0
41
1
10
54.442098216404
20
-0.390245739598271
30
0
41
1
10
54.429828497267
20
-0.357493124684908
30
0
0
SPLINE
5
ED
100
AcDbEntity
8
1
62
256
6
ByLayer
370
18
48
1
60
0
100
AcDbSpline
70
4
71
3
72
8
73
4
40
0
40
0
40
0
40
0
40
1
40
1
40
1
40
1
41
1
10
53.7856496529805
20
-3.21205302840863
30
0
41
1
10
53.7807922485811
20
-3.22617881663462
30
0
41
1
10
53.7759538908634
20
-3.24030467134011
30
0
41
1
10
53.7711349404078
20
-3.25443068723223
30
0
0
SPLINE
5
EE
100
AcDbEntity
8
1
62
256
6
ByLayer
370
18
48
1
60
0
100
AcDbSpline
70
4
71
3
72
8
73
4
40
0
40
0
40
0
40
0
40
1
40
1
40
1
40
1
41
1
10
3.64433642193976
20
2.50869917694294
30
-2E-16
41
1
10
3.63119389109704
20
2.51250570612092
30
1E-16
41
1
10
3.61701878526475
20
2.51444239589216
30
1E-16
41
1
10
3.60248993318484
20
2.51443324813559
30
1E-16
0
SPLINE
5
EF
100
AcDbEntity
8
1
62
256
6
ByLayer
370
18
48
1
60
0
100
AcDbSpline
70
4
71
3
72
30
73
26
40
0
40
0
40
0
40
0
40
0.49994849137645
40
0.49994849137645
40
0.673235152485174
40
0.673235152485174
40
0.787206944589222
40
0.787206944589222
40
0.86216575598584
40
0.86216575598584
40
0.911499260537384
40
0.911499260537384
40
0.943983221776691
40
0.943983221776691
40
0.965379305131808
40
0.965379305131808
40
0.979467263281603
40
0.979467263281603
40
0.988663282652268
40
0.988663282652268
40
0.994741360510967
40
0.994741360510967
40
0.998877796673745
40
0.998877796673745
40
1
40
1
40
1
40
1
41
1
10
53.6098621191456
20
-3.39944722347778
30
0
41
1
10
53.6437073111425
20
-3.37724810978389
30
0
41
1
10
53.6775993251316
20
-3.35486155519828
30
0
41
1
10
53.7232988439933
20
-3.32447405626061
30
0
41
1
10
53.7350673977829
20
-3.31663068059174
30
0
41
1
10
53.7545852077033
20
-3.30359334245821
30
0
41
1
10
53.7623314217361
20
-3.29841144478203
30
0
41
1
10
53.7751761889182
20
-3.28980628278913
30
0
41
1
10
53.7802734188439
20
-3.28638819701274
30
0
41
1
10
53.7887270352682
20
-3.28071400883678
30
0
41
1
10
53.7920828478692
20
-3.278460132665
30
0
41
1
10
53.797649048349
20
-3.27471936393999
30
0
41
1
10
53.7998591872383
20
-3.27323343168013
30
0
41
1
10
53.8035253868944
20
-3.27076754938921
30
0
41
1
10
53.8049803880069
20
-3.26978866053443
30
0
41
1
10
53.8073971457743
20
-3.26816226898154
30
0
41
1
10
53.8083592847218
20
-3.26751465415447
30
0
41
1
10
53.8099614929605
20
-3.26643598203322
30
0
41
1
10
53.810598669878
20
-3.26600694727884
30
0
41
1
10
53.8116501999234
20
-3.26529887369995
30
0
41
1
10
53.8120670931374
20
-3.26501813767419
30
0
41
1
10
53.8127560383375
20
-3.2645541985614
30
0
41
1
10
53.8130322365421
20
-3.26436820430652
30
0
41
1
10
53.8133729837318
20
-3.26413874634957
30
0
41
1
10
53.8134450870534
20
-3.26409019248735
30
0
41
1
10
53.8135163407798
20
-3.2640422111522
30
0
0
SPLINE
5
F0
100
AcDbEntity
8
1
62
256
6
ByLayer
370
18
48
1
60
0
100
AcDbSpline
70
4
71
3
72
10
73
6
40
0
40
0
40
0
40
0
40
0.5
40
0.5
40
1
40
1
40
1
40
1
41
1
10
53.8188612098042
20
-3.26044099717296
30
0
41
1
10
53.8079591089381
20
-3.26776486185767
30
0
41
1
10
53.7987056417004
20
-3.27087265150121
30
0
41
1
10
53.7829990946751
20
-3.2687044359229
30
0
41
1
10
53.7765829170116
20
-3.26346946350799
30
0
41
1
10
53.7711349404078
20
-3.25443068723223
30
0
0
SPLINE
5
F1
100
AcDbEntity
8
1
62
256
6
ByLayer
370
18
48
1
60
0
100
AcDbSpline
70
4
71
3
72
36
73
32
40
0
40
0
40
0
40
0
40
0.0332663900983288
40
0.0332663900983288
40
0.166866463078443
40
0.166866463078443
40
0.233666499568501
40
0.233666499568501
40
0.300466536058559
40
0.300466536058559
40
0.367266572548616
40
0.367266572548616
40
0.434066609038674
40
0.434066609038674
40
0.500866645528731
40
0.500866645528731
40
0.567666682018789
40
0.567666682018789
40
0.634466718508846
40
0.634466718508846
40
0.701266754998904
40
0.701266754998904
40
0.768066791488961
40
0.768066791488961
40
0.834866827979019
40
0.834866827979019
40
0.901666864469076
40
0.901666864469076
40
0.968466900959134
40
0.968466900959134
40
1
40
1
40
1
40
1
41
1
10
32.0669631615584
20
-0.224855459093277
30
0
41
1
10
31.9382359839639
20
-0.165181983607681
30
0
41
1
10
31.8095533860721
20
-0.10545088242813
30
0
41
1
10
31.1640521415647
20
0.193917566102016
30
0
41
1
10
30.6479736140985
20
0.434521817926083
30
0
41
1
10
29.8705961845318
20
0.78725985134642
30
0
41
1
10
29.6110480317473
20
0.903731577888919
30
-1E-16
41
1
10
29.0904989039524
20
1.13312063927009
30
-1E-16
41
1
10
28.8291542109291
20
1.24596732763106
30
-1E-16
41
1
10
28.3054669900307
20
1.46617504511772
30
-1E-16
41
1
10
28.044117340298
20
1.57325289221532
30
-1E-16
41
1
10
27.5216372708827
20
1.78015533049836
30
-1E-16
41
1
10
27.2603368133134
20
1.87996033901922
30
-1E-16
41
1
10
26.7372909195003
20
2.0712993927601
30
-1E-16
41
1
10
26.4751906129943
20
2.16292050306063
30
-1E-16
41
1
10
25.9530442157889
20
2.33578598742304
30
-1E-16
41
1
10
25.6926844443275
20
2.41723078976528
30
-1E-16
41
1
10
25.1733248813449
20
2.56916003478199
30
1E-16
41
1
10
24.9144282157175
20
2.63951260934468
30
1E-16
41
1
10
24.3972163614762
20
2.76879270665543
30
1E-16
41
1
10
24.1388123371013
20
2.82786004292584
30
0
41
1
10
23.6221664994328
20
2.93394448956027
30
0
41
1
10
23.3641355519338
20
2.98045034813663
30
0
41
1
10
22.8473628607748
20
3.06150326471831
30
0
41
1
10
22.588608231604
20
3.09611360599865
30
0
41
1
10
22.070201037052
20
3.15216151778134
30
0
41
1
10
21.8106847684105
20
3.17288906197567
30
0
41
1
10
21.2898791456626
20
3.20173943868869
30
0
41
1
10
21.0280283904583
20
3.20999510436525
30
0
41
1
10
20.6429413793375
20
3.21174568209756
30
0
41
1
10
20.5197506266538
20
3.21057926042249
30
0
41
1
10
20.3967689251842
20
3.20784635881583
30
0
0
SPLINE
5
F2
100
AcDbEntity
8
1
62
256
6
ByLayer
370
18
48
1
60
0
100
AcDbSpline
70
4
71
3
72
8
73
4
40
0
40
0
40
0
40
0
40
1
40
1
40
1
40
1
41
1
10
53.596101801425
20
-3.357055735334
30
0
41
1
10
53.601307245608
20
-3.38248594379772
30
0
41
1
10
53.6058502751885
20
-3.39680688004859
30
0
41
1
10
53.6098621191457
20
-3.39944722347775
30
0
0
SPLINE
5
F3
100
AcDbEntity
8
1
62
256
6
ByLayer
370
18
48
1
60
0
100
AcDbSpline
70
4
71
3
72
8
73
4
40
0
40
0
40
0
40
0
40
1
40
1
40
1
40
1
41
1
10
53.311849685731
20
0.0234000519358517
30
0
41
1
10
53.3391658608884
20
0.0095955024117131
30
0
41
1
10
53.3663105157057
20
-0.0034929951283402
30
0
41
1
10
53.3933126788744
20
-0.0158829517855281
30
0
0
SPLINE
5
F4
100
AcDbEntity
8
1
62
256
6
ByLayer
370
18
48
1
60
0
100
AcDbSpline
70
4
71
3
72
56
73
52
40
0
40
0
40
0
40
0
40
0.0239182684117213
40
0.0239182684117213
40
0.0564153296331746
40
0.0564153296331746
40
0.0889123908546277
40
0.0889123908546277
40
0.121409452076081
40
0.121409452076081
40
0.153906513297534
40
0.153906513297534
40
0.186403574518988
40
0.186403574518988
40
0.218900635740441
40
0.218900635740441
40
0.251397696961894
40
0.251397696961894
40
0.283894758183347
40
0.283894758183347
40
0.316391819404801
40
0.316391819404801
40
0.348888880626254
40
0.348888880626254
40
0.41388300306916
40
0.41388300306916
40
0.478877125512067
40
0.478877125512067
40
0.543871247954973
40
0.543871247954973
40
0.576368309176427
40
0.576368309176427
40
0.60886537039788
40
0.60886537039788
40
0.673859492840788
40
0.673859492840788
40
0.738853615283696
40
0.738853615283696
40
0.771350676505149
40
0.771350676505149
40
0.803847737726603
40
0.803847737726603
40
0.868841860169508
40
0.868841860169508
40
0.901338921390961
40
0.901338921390961
40
0.933835982612413
40
0.933835982612413
40
0.998830105055319
40
0.998830105055319
40
1
40
1
40
1
40
1
41
1
10
18.622639294208
20
3.22293068016975
30
0
41
1
10
18.8117527482283
20
3.25072342749772
30
0
41
1
10
19.0007638417897
20
3.27490986115268
30
0
41
1
10
19.4470072613574
20
3.32310150755609
30
0
41
1
10
19.704229796864
20
3.34405813731613
30
0
41
1
10
20.219063786041
20
3.37219869438556
30
0
41
1
10
20.4766989912231
20
3.37931922144884
30
0
41
1
10
20.9939386926185
20
3.3793913222014
30
0
41
1
10
21.2533229735707
20
3.37240291141555
30
0
41
1
10
21.7736900650748
20
3.34400069287639
30
0
41
1
10
22.0339793457919
20
3.32254076006322
30
0
41
1
10
22.5539117024873
20
3.26606626705504
30
0
41
1
10
22.8136672726409
20
3.23096307553283
30
0
41
1
10
23.3328681199046
20
3.14703402200829
30
0
41
1
10
23.5923240364623
20
3.09816139271712
30
0
41
1
10
24.1125309828839
20
2.98786506189586
30
0
41
1
10
24.3733432969299
20
2.92615176968101
30
0
41
1
10
24.893512763144
20
2.79051987759726
30
1E-16
41
1
10
25.1531483116834
20
2.71667215862206
30
-2E-16
41
1
10
25.6725532455145
20
2.55826547378885
30
-2E-16
41
1
10
25.9322220645215
20
2.47360178522862
30
-2E-16
41
1
10
26.4516713012209
20
2.29351248497002
30
-1E-16
41
1
10
26.7117721570159
20
2.19824741748607
30
-1E-16
41
1
10
27.4931864014655
20
1.89950345112936
30
-1E-16
41
1
10
28.0095489315058
20
1.68333773837404
30
-1E-16
41
1
10
29.0397816234419
20
1.22987094630804
30
-1E-16
41
1
10
29.5527790623804
20
0.990901130575224
30
-1E-16
41
1
10
30.58099833023
20
0.501372496262519
30
0
41
1
10
31.0954264781162
20
0.24918570145789
30
0
41
1
10
31.872419657125
20
-0.130179073649771
30
0
41
1
10
32.1326966643617
20
-0.257350104221843
30
0
41
1
10
32.6527669785555
20
-0.510628760642589
30
0
41
1
10
32.9119084582655
20
-0.635681073784184
30
0
41
1
10
33.6873165274159
20
-1.0049269350657
30
1E-16
41
1
10
34.2010132515104
20
-1.24428836280899
30
1E-16
41
1
10
35.2284940042538
20
-1.6967559036168
30
1E-16
41
1
10
35.7413874444744
20
-1.91154383624888
30
1E-16
41
1
10
36.5143899439372
20
-2.20756810261301
30
1E-16
41
1
10
36.7724910563282
20
-2.3021995999182
30
1E-16
41
1
10
37.2900588143319
20
-2.48239626661822
30
2E-16
41
1
10
37.5503193780821
20
-2.56755871645649
30
2E-16
41
1
10
38.3312843104138
20
-2.80626968675833
30
-1E-16
41
1
10
38.8494557233563
20
-2.94307088748386
30
0
41
1
10
39.6283565187602
20
-3.10908977533487
30
0
41
1
10
39.8879937075226
20
-3.15817782573964
30
0
41
1
10
40.4079949473734
20
-3.24302761724806
30
0
41
1
10
40.6682927173073
20
-3.27842280170984
30
0
41
1
10
41.445429514228
20
-3.3634455876369
30
0
41
1
10
41.9599721753777
20
-3.39223627076859
30
0
41
1
10
42.4830905871845
20
-3.39295227294701
30
0
41
1
10
42.4923396299774
20
-3.39295574074086
30
0
41
1
10
42.5015880994321
20
-3.39295002235164
30
0
0
SPLINE
5
F5
100
AcDbEntity
8
1
62
256
6
ByLayer
370
18
48
1
60
0
100
AcDbSpline
70
4
71
3
72
28
73
24
40
0
40
0
40
0
40
0
40
0.142035368184885
40
0.142035368184885
40
0.284070736369769
40
0.284070736369769
40
0.426106104554654
40
0.426106104554654
40
0.497123788647096
40
0.497123788647096
40
0.568141472739539
40
0.568141472739539
40
0.639159156831981
40
0.639159156831981
40
0.710176840924423
40
0.710176840924423
40
0.852212209109305
40
0.852212209109305
40
0.923229893201746
40
0.923229893201746
40
0.994247577294186
40
0.994247577294186
40
1
40
1
40
1
40
1
41
1
10
53.3986540867472
20
-0.0293243242225003
30
0
41
1
10
52.8785750835283
20
0.21368682488125
30
0
41
1
10
52.362017301062
20
0.454649220272358
30
0
41
1
10
51.3316693411223
20
0.923291995032685
30
-1E-16
41
1
10
50.8183086594764
20
1.15126515792332
30
-1E-16
41
1
10
49.7903103383288
20
1.58494952035557
30
-1E-16
41
1
10
49.27578903125
20
1.79055191422231
30
-1E-16
41
1
10
48.4995817036986
20
2.07572588487324
30
-1E-16
41
1
10
48.2400953444477
20
2.16691112520513
30
-1E-16
41
1
10
47.7191785996198
20
2.34036754409109
30
-1E-16
41
1
10
47.4569462404334
20
2.42287926404364
30
-1E-16
41
1
10
46.9345293132276
20
2.57659125872883
30
1E-16
41
1
10
46.6744668359795
20
2.6477408360256
30
1E-16
41
1
10
46.1564625303563
20
2.77742949279309
30
1E-16
41
1
10
45.8984354126143
20
2.83611964205414
30
0
41
1
10
45.125111120704
20
2.9951699925478
30
0
41
1
10
44.6108352515807
20
3.0780802279287
30
0
41
1
10
43.8400461884624
20
3.16268455471783
30
0
41
1
10
43.5832273182179
20
3.18418090113624
30
0
41
1
10
43.0694100530532
20
3.21243608832458
30
0
41
1
10
42.8122082136963
20
3.21983936773827
30
0
41
1
10
42.5333408914414
20
3.22153363354107
30
0
41
1
10
42.5124408115668
20
3.22161983508235
30
0
41
1
10
42.4915362880465
20
3.22166463785686
30
0
0
SPLINE
5
F6
100
AcDbEntity
8
1
62
256
6
ByLayer
370
18
48
1
60
0
100
AcDbSpline
70
4
71
3
72
24
73
20
40
0
40
0
40
0
40
0
40
0.0649837364834596
40
0.0649837364834596
40
0.181860769423027
40
0.181860769423027
40
0.298737802362595
40
0.298737802362595
40
0.415614835302162
40
0.415614835302162
40
0.53249186824173
40
0.53249186824173
40
0.649368901181297
40
0.649368901181297
40
0.766245934120865
40
0.766245934120865
40
0.883122967060432
40
0.883122967060432
40
1
40
1
40
1
40
1
41
1
10
10.3093312449596
20
-0.222576066234552
30
0
41
1
10
10.1645459257226
20
-0.155800341208504
30
0
41
1
10
10.0195196979377
20
-0.0887653530940611
30
0
41
1
10
9.61291171749929
20
0.099553385905665
30
0
41
1
10
9.35088100418369
20
0.221205201035303
30
0
41
1
10
8.82943277985223
20
0.461064036738407
30
0
41
1
10
8.56938291162462
20
0.579679276404988
30
0
41
1
10
8.05069878389776
20
0.813896040243037
30
0
41
1
10
7.7920149216977
20
0.929440440438327
30
-1E-16
41
1
10
7.27488440781036
20
1.15564319030781
30
-1E-16
41
1
10
7.01647200139087
20
1.26633495212218
30
-1E-16
41
1
10
6.50001317948676
20
1.48230198896709
30
-1E-16
41
1
10
6.24178828143695
20
1.58743409274655
30
-1E-16
41
1
10
5.72425374595758
20
1.79058382747795
30
-1E-16
41
1
10
5.46509053162487
20
1.88872439479508
30
-1E-16
41
1
10
4.94573542781336
20
2.07713075197293
30
-1E-16
41
1
10
4.68555240287077
20
2.16740991138892
30
-1E-16
41
1
10
4.16365396847766
20
2.33875146386697
30
-1E-16
41
1
10
3.90158391152821
20
2.41990287696956
30
-1E-16
41
1
10
3.64014902979744
20
2.49525909236314
30
-2E-16
0
SPLINE
5
F7
100
AcDbEntity
8
1
62
256
6
ByLayer
370
18
48
1
60
0
100
AcDbSpline
70
4
71
3
72
10
73
6
40
0
40
0
40
0
40
0
40
0.5
40
0.5
40
1
40
1
40
1
40
1
41
1
10
3.55957190719101
20
-1.43849109570127
30
1E-16
41
1
10
3.53952040129499
20
-1.43521941067729
30
1E-16
41
1
10
3.52511543934205
20
-1.430109558444
30
1E-16
41
1
10
3.50625948951426
20
-1.4187364607956
30
1E-16
41
1
10
3.50169783347022
20
-1.41235525364254
30
1E-16
41
1
10
3.50169783347022
20
-1.40596913073014
30
1E-16
0
SPLINE
5
F8
100
AcDbEntity
8
1
62
256
6
ByLayer
370
18
48
1
60
0
100
AcDbSpline
70
4
71
3
72
42
73
38
40
0
40
0
40
0
40
0
40
0.0583143837609564
40
0.0583143837609564
40
0.0818565241669331
40
0.0818565241669331
40
0.10539866457291
40
0.10539866457291
40
0.152482945384865
40
0.152482945384865
40
0.246651507008774
40
0.246651507008774
40
0.340820068632682
40
0.340820068632682
40
0.36436220903866
40
0.36436220903866
40
0.387904349444637
40
0.387904349444637
40
0.43498863025659
40
0.43498863025659
40
0.482072911068542
40
0.482072911068542
40
0.529157191880495
40
0.529157191880495
40
0.576241472692448
40
0.576241472692448
40
0.599783613098424
40
0.599783613098424
40
0.623325753504401
40
0.623325753504401
40
0.811662876752201
40
0.811662876752201
40
0.858747157564151
40
0.858747157564151
40
0.905831438376101
40
0.905831438376101
40
1
40
1
40
1
40
1
41
1
10
31.9902017664452
20
3.38636550455215
30
0
41
1
10
32.4079040915869
20
3.38604531465717
30
0
41
1
10
32.8261754163444
20
3.36724491417408
30
0
41
1
10
33.4159157196079
20
3.31476376117143
30
0
41
1
10
33.5858287687418
20
3.29664438299014
30
0
41
1
10
33.9264374899875
20
3.25435938300024
30
0
41
1
10
34.0974360079769
20
3.23014286602742
30
0
41
1
10
34.6093150564308
20
3.14887238450089
30
0
41
1
10
34.9488354430667
20
3.0832934637703
30
0
41
1
10
35.9642657967306
20
2.85484042022515
30
0
41
1
10
36.6370191599199
20
2.66014872761548
30
-2E-16
41
1
10
37.9853610553611
20
2.20065393523126
30
-1E-16
41
1
10
38.6608970046005
20
1.93581142095766
30
-1E-16
41
1
10
39.5138509717574
20
1.57077673610604
30
-1E-16
41
1
10
39.684839150089
20
1.49608669903822
30
-1E-16
41
1
10
40.0259986596515
20
1.34443168905418
30
-1E-16
41
1
10
40.1963997023825
20
1.2673681050338
30
-1E-16
41
1
10
40.7073449900765
20
1.03300867230058
30
-1E-16
41
1
10
41.0476328155759
20
0.872545028240154
30
-1E-16
41
1
10
41.7290170190626
20
0.546107911861867
30
0
41
1
10
42.0706935947768
20
0.379857148933184
30
0
41
1
10
42.7532576547717
20
0.0461144107212874
30
0
41
1
10
43.0937938693806
20
-0.121195108067894
30
0
41
1
10
43.7747959593713
20
-0.453777948362614
30
0
41
1
10
44.1152552087893
20
-0.619064731724109
30
0
41
1
10
44.6269628610407
20
-0.863279317030447
30
1E-16
41
1
10
44.7979300778537
20
-0.944167828752853
30
1E-16
41
1
10
45.1389360945481
20
-1.1036435675411
30
1E-16
41
1
10
45.3090165732842
20
-1.18225274217971
30
1E-16
41
1
10
46.8367537477006
20
-1.87813107789839
30
1E-16
41
1
10
48.1733755914657
20
-2.41366250671828
30
1E-16
41
1
10
49.8722553275081
20
-2.88890593378437
30
0
41
1
10
50.2143987245539
20
-2.97444731149813
30
0
41
1
10
50.8954135099763
20
-3.12247674670527
30
0
41
1
10
51.2348687491706
20
-3.1851960495907
30
0
41
1
10
52.2521640181364
20
-3.33828956937003
30
0
41
1
10
52.9289398491322
20
-3.39354313373158
30
0
41
1
10
53.6098621191456
20
-3.39944722347775
30
0
0
SPLINE
5
F9
100
AcDbEntity
8
1
62
256
6
ByLayer
370
18
48
1
60
0
100
AcDbSpline
70
4
71
3
72
24
73
20
40
0
40
0
40
0
40
0
40
0.315295841257822
40
0.315295841257822
40
0.472943761886731
40
0.472943761886731
40
0.63059168251564
40
0.63059168251564
40
0.709415642830095
40
0.709415642830095
40
0.788239603144549
40
0.788239603144549
40
0.867063563459004
40
0.867063563459004
40
0.945887523773459
40
0.945887523773459
40
0.985299503930687
40
0.985299503930687
40
1
40
1
40
1
40
1
41
1
10
5.31642737557493
20
2.42302022240475
30
-1E-16
41
1
10
4.91790785039703
20
2.55765439756121
30
-2E-16
41
1
10
4.52732438531439
20
2.68855864583608
30
-2E-16
41
1
10
3.95820200648225
20
2.87403418147233
30
0
41
1
10
3.77131629396848
20
2.9340206654735
30
0
41
1
10
3.40494078228321
20
3.04864419424072
30
0
41
1
10
3.22570907503132
20
3.10319967532999
30
0
41
1
10
2.96951063350264
20
3.17752132227443
30
0
41
1
10
2.88607625695801
20
3.20108261244093
30
0
41
1
10
2.72408353808385
20
3.24513932010601
30
0
41
1
10
2.64560583167832
20
3.26560362625102
30
0
41
1
10
2.49760661565568
20
3.30190601168627
30
0
41
1
10
2.42774223777684
20
3.31784351484984
30
0
41
1
10
2.29859120007734
20
3.34403229112624
30
0
41
1
10
2.23926049841305
20
3.3543061760686
30
0
41
1
10
2.16115032531661
20
3.36387570351965
30
0
41
1
10
2.13705363696317
20
3.36605698794713
30
0
41
1
10
2.10765416837506
20
3.36743534676594
30
0
41
1
10
2.1000205958569
20
3.3676487527423
30
0
41
1
10
2.09275544962708
20
3.36769452207181
30
0
0
SPLINE
5
FA
100
AcDbEntity
8
1
62
256
6
ByLayer
370
18
48
1
60
0
100
AcDbSpline
70
4
71
3
72
10
73
6
40
0
40
0
40
0
40
0
40
0.234303078853794
40
0.234303078853794
40
1
40
1
40
1
40
1
41
1
10
4.98299062181877
20
2.5385842845709
30
-1E-16
41
1
10
5.10979828292341
20
2.56955558042236
30
-1E-16
41
1
10
5.23590629302143
20
2.60088620907589
30
-1E-16
41
1
10
5.77093913255112
20
2.73505895079037
30
1E-16
41
1
10
6.1732956789026
20
2.83892435746705
30
0
41
1
10
6.57108199225297
20
2.93451240280484
30
0
0
SPLINE
5
FB
100
AcDbEntity
8
1
62
256
6
ByLayer
370
18
48
1
60
0
100
AcDbSpline
70
4
71
3
72
30
73
26
40
0
40
0
40
0
40
0
40
0.0326374562418059
40
0.0326374562418059
40
0.10192284194077
40
0.10192284194077
40
0.171208227639735
40
0.171208227639735
40
0.240493613338699
40
0.240493613338699
40
0.309778999037664
40
0.309778999037664
40
0.379064384736628
40
0.379064384736628
40
0.448349770435593
40
0.448349770435593
40
0.517635156134557
40
0.517635156134557
40
0.586920541833522
40
0.586920541833522
40
0.725491313231448
40
0.725491313231448
40
0.864062084629373
40
0.864062084629373
40
1
40
1
40
1
40
1
41
1
10
20.4217557209012
20
3.21787526419627
30
0
41
1
10
20.544398648401
20
3.22058768148511
30
0
41
1
10
20.6672542429645
20
3.22173311421952
30
0
41
1
10
21.0518394421255
20
3.21995438101621
30
0
41
1
10
21.3133667397733
20
3.21169702865356
30
0
41
1
10
21.8336281965281
20
3.18285517807905
30
0
41
1
10
22.0928986383242
20
3.1620550742133
30
0
41
1
10
22.6108039078166
20
3.10591304755488
30
0
41
1
10
22.8693057257731
20
3.07126713170132
30
0
41
1
10
23.3855729530868
20
2.990133547483
30
0
41
1
10
23.6433793008917
20
2.94354294899205
30
0
41
1
10
24.159568438377
20
2.83729741548396
30
0
41
1
10
24.4177368689357
20
2.77815401056105
30
1E-16
41
1
10
24.9345037949112
20
2.64868537294765
30
1E-16
41
1
10
25.1931965381623
20
2.57821923124365
30
1E-16
41
1
10
25.7121574978401
20
2.42604121223104
30
-1E-16
41
1
10
25.972309879845
20
2.34446309820632
30
-1E-16
41
1
10
26.4940747330753
20
2.17129891858576
30
-1E-16
41
1
10
26.7559584962023
20
2.07952871718848
30
-1E-16
41
1
10
27.5398475974587
20
1.79204839103406
30
-1E-16
41
1
10
28.0611666746689
20
1.58367940746228
30
-1E-16
41
1
10
29.1077168997591
20
1.14243844207272
30
-1E-16
41
1
10
29.6276098381676
20
0.911036817599495
30
-1E-16
41
1
10
30.6532947969877
20
0.444290109977686
30
0
41
1
10
31.1591383008973
20
0.207883629747982
30
0
41
1
10
31.6656528539811
20
-0.0278023352764762
30
0
0
SPLINE
5
FC
100
AcDbEntity
8
1
62
256
6
ByLayer
370
18
48
1
60
0
100
AcDbSpline
70
4
71
3
72
30
73
26
40
0
40
0
40
0
40
0
40
0.0625000000000001
40
0.0625000000000001
40
0.125
40
0.125
40
0.25
40
0.25
40
0.3125
40
0.3125
40
0.375
40
0.375
40
0.4375
40
0.4375
40
0.5
40
0.5
40
0.625
40
0.625
40
0.6875
40
0.6875
40
0.75
40
0.75
40
0.875
40
0.875
40
1
40
1
40
1
40
1
41
1
10
3.60248993318484
20
2.50038098930082
30
1E-16
41
1
10
3.60248274911618
20
2.44308162461635
30
-1E-16
41
1
10
3.60247476420352
20
2.38285577411645
30
-1E-16
41
1
10
3.60245741105712
20
2.25658310249327
30
-1E-16
41
1
10
3.60244801249834
20
2.190333852479
30
-1E-16
41
1
10
3.60241837524637
20
1.98534977565174
30
-1E-16
41
1
10
3.60239665474828
20
1.83989582656338
30
-1E-16
41
1
10
3.60236199151885
20
1.60880429411659
30
-1E-16
41
1
10
3.60235008319796
20
1.52961028938506
30
-1E-16
41
1
10
3.6023256247498
20
1.366799990494
30
-1E-16
41
1
10
3.60231303916868
20
1.28294518938262
30
-1E-16
41
1
10
3.60228762628145
20
1.11319385920956
30
-1E-16
41
1
10
3.6022747616519
20
1.02704983720994
30
-1E-16
41
1
10
3.60224871724159
20
0.852232866380433
30
-1E-16
41
1
10
3.60223549401616
20
0.763266947270978
30
0
41
1
10
3.60219559654354
20
0.494637294715773
30
0
41
1
10
3.60216891147513
20
0.314594630081558
30
0
41
1
10
3.60212817468624
20
0.0431442150408259
30
0
41
1
10
3.60211447314117
20
-0.0475716206404968
30
0
41
1
10
3.60208666978681
20
-0.229475396654323
30
0
41
1
10
3.6020725026097
20
-0.321077544831923
30
0
41
1
10
3.6020296060891
20
-0.59340641744032
30
0
41
1
10
3.60200066062049
20
-0.770648294133366
30
0
41
1
10
3.60194041736113
20
-1.11678162928871
30
1E-16
41
1
10
3.60190900740955
20
-1.28626219466395
30
1E-16
41
1
10
3.60187565821258
20
-1.44998778562626
30
1E-16
0
SPLINE
5
FD
100
AcDbEntity
8
1
62
256
6
ByLayer
370
18
48
1
60
0
100
AcDbSpline
70
4
71
3
72
28
73
24
40
0
40
0
40
0
40
0
40
0.0012450391565502
40
0.0012450391565502
40
0.0704156892049388
40
0.0704156892049388
40
0.208756989301713
40
0.208756989301713
40
0.347098289398488
40
0.347098289398488
40
0.416268939446876
40
0.416268939446876
40
0.485439589495264
40
0.485439589495264
40
0.554610239543652
40
0.554610239543652
40
0.623780889592039
40
0.623780889592039
40
0.762122189688814
40
0.762122189688814
40
0.90046348978559
40
0.90046348978559
40
1
40
1
40
1
40
1
41
1
10
21.6672228736545
20
0.198173154208092
30
0
41
1
10
21.6719462665439
20
0.195985472388656
30
0
41
1
10
21.676669311323
20
0.193797768000479
30
0
41
1
10
21.9437707297764
20
0.0700668184094013
30
0
41
1
10
22.2054620293921
20
-0.051422038828207
30
0
41
1
10
22.9891933081861
20
-0.414086725161667
30
0
41
1
10
23.5095668201765
20
-0.653934064036662
30
0
41
1
10
24.5515472627808
20
-1.11853411309249
30
1E-16
41
1
10
25.072848964577
20
-1.34367518254837
30
1E-16
41
1
10
25.859013367925
20
-1.66301084239635
30
1E-16
41
1
10
26.1217390844998
20
-1.7664092724481
30
1E-16
41
1
10
26.6491627895755
20
-1.96584348579751
30
1E-16
41
1
10
26.9133175452608
20
-2.06167109204799
30
1E-16
41
1
10
27.4405477201026
20
-2.24362049841338
30
1E-16
41
1
10
27.7039515081125
20
-2.32982496101849
30
1E-16
41
1
10
28.2310571055882
20
-2.49185362242102
30
2E-16
41
1
10
28.4950769626446
20
-2.56782156258038
30
-1E-16
41
1
10
29.2865110247075
20
-2.77826730527232
30
-1E-16
41
1
10
29.8101400352282
20
-2.89441225324717
30
0
41
1
10
30.8545032630631
20
-3.07560127682919
30
0
41
1
10
31.3749797487758
20
-3.1400513261874
30
0
41
1
10
32.2714849493925
20
-3.20524313681747
30
0
41
1
10
32.6469683104816
20
-3.2183130182338
30
0
41
1
10
33.0237171077356
20
-3.21717721158987
30
0
0
SPLINE
5
FE
100
AcDbEntity
8
1
62
256
6
ByLayer
370
18
48
1
60
0
100
AcDbSpline
70
4
71
3
72
12
73
8
40
0
40
0
40
0
40
0
40
0.5
40
0.5
40
0.75
40
0.75
40
1
40
1
40
1
40
1
41
1
10
3.50169783347019
20
2.5214169037815
30
-2E-16
41
1
10
3.50169783347013
20
2.5168014286659
30
-2E-16
41
1
10
3.50945948957559
20
2.51197584128931
30
-2E-16
41
1
10
3.53484356479717
20
2.50576044592711
30
-2E-16
41
1
10
3.54561820695429
20
2.50389318573514
30
-2E-16
41
1
10
3.57168554417134
20
2.50116460201929
30
-2E-16
41
1
10
3.58686408115307
20
2.50035354180764
30
1E-16
41
1
10
3.60248993318484
20
2.50038098930082
30
1E-16
0
SPLINE
5
FF
100
AcDbEntity
8
1
62
256
6
ByLayer
370
18
48
1
60
0
100
AcDbSpline
70
4
71
3
72
26
73
22
40
0
40
0
40
0
40
0
40
0.108167988511511
40
0.108167988511511
40
0.251342113686283
40
0.251342113686283
40
0.394516238861054
40
0.394516238861054
40
0.466103301448438
40
0.466103301448438
40
0.537690364035822
40
0.537690364035822
40
0.609277426623206
40
0.609277426623206
40
0.680864489210592
40
0.680864489210592
40
0.824038614385363
40
0.824038614385363
40
0.967212739560134
40
0.967212739560134
40
1
40
1
40
1
40
1
41
1
10
33.0726191794299
20
-3.22675268694201
30
0
41
1
10
32.6767827948564
20
-3.22987418363348
30
0
41
1
10
32.2823983958031
20
-3.21727521973827
30
0
41
1
10
31.3668941090179
20
-3.15145767692533
30
0
41
1
10
30.846292516868
20
-3.08731841818047
30
0
41
1
10
29.8016341052365
20
-2.90652232380447
30
0
41
1
10
29.2778509325678
20
-2.7904536597369
30
-1E-16
41
1
10
28.4861292700141
20
-2.57993210965412
30
-1E-16
41
1
10
28.2220403343728
20
-2.50391600379771
30
2E-16
41
1
10
27.6947775092306
20
-2.34172179037483
30
1E-16
41
1
10
27.4312916523506
20
-2.25540567974417
30
1E-16
41
1
10
26.9038907608058
20
-2.07317946260758
30
1E-16
41
1
10
26.6396390413877
20
-1.97717775734964
30
1E-16
41
1
10
26.1120794813369
20
-1.77736037305465
30
1E-16
41
1
10
25.8492874669725
20
-1.6737489864185
30
1E-16
41
1
10
25.0629303947898
20
-1.35370612980265
30
1E-16
41
1
10
24.5415124880694
20
-1.12799306071676
30
1E-16
41
1
10
23.4992736498446
20
-0.662111953614698
30
0
41
1
10
22.9787746135403
20
-0.421524320175507
30
0
41
1
10
22.3364432226122
20
-0.123411300441831
30
0
41
1
10
22.2166631553348
20
-0.067730136378799
30
0
41
1
10
22.0967653080858
20
-0.0119712526297633
30
0
0
SPLINE
5
100
100
AcDbEntity
8
1
62
256
6
ByLayer
370
18
48
1
60
0
100
AcDbSpline
70
4
71
3
72
28
73
24
40
0
40
0
40
0
40
0
40
0.124999999999997
40
0.124999999999997
40
0.249999999999995
40
0.249999999999995
40
0.312499999999994
40
0.312499999999994
40
0.374999999999993
40
0.374999999999993
40
0.499999999999993
40
0.499999999999993
40
0.624999999999993
40
0.624999999999993
40
0.687499999999993
40
0.687499999999993
40
0.718749999999993
40
0.718749999999993
40
0.749999999999993
40
0.749999999999993
40
0.874999999999997
40
0.874999999999997
40
1
40
1
40
1
40
1
41
1
10
6.57107723696896
20
2.93451188461174
30
0
41
1
10
7.17797206747363
20
3.0801636519183
30
0
41
1
10
7.77941694067141
20
3.1906842290951
30
0
41
1
10
8.97889114107795
20
3.33782249103311
30
0
41
1
10
9.57724177321705
20
3.3743009599188
30
0
41
1
10
10.477955182957
20
3.37186950996232
30
0
41
1
10
10.7786316259313
20
3.36150134521759
30
0
41
1
10
11.3824131652101
20
3.32160954147801
30
0
41
1
10
11.686265271045
20
3.29193609905792
30
0
41
1
10
12.5935115880446
20
3.17514157787346
30
0
41
1
10
13.1935776665794
20
3.06052009033027
30
0
41
1
10
14.3921503934267
20
2.76616484086131
30
1E-16
41
1
10
14.9903773457868
20
2.58608729228209
30
-2E-16
41
1
10
15.8925104956561
20
2.27435244069304
30
-1E-16
41
1
10
16.1939088072627
20
2.16335509950054
30
-1E-16
41
1
10
16.6478583383499
20
1.98730088169862
30
-1E-16
41
1
10
16.7996404015561
20
1.9268875527269
30
-1E-16
41
1
10
17.1022195537609
20
1.80376954879949
30
-1E-16
41
1
10
17.2532112905464
20
1.74106695079243
30
-1E-16
41
1
10
18.0069312281328
20
1.4223573440849
30
-1E-16
41
1
10
18.6053799493373
20
1.14966239983326
30
-1E-16
41
1
10
19.8014555261891
20
0.58537642402564
30
0
41
1
10
20.3992474837295
20
0.2941582261912
30
0
41
1
10
21.0000000000094
20
0.0004278550681533
30
0
0
SPLINE
5
101
100
AcDbEntity
8
1
62
256
6
ByLayer
370
18
48
1
60
0
100
AcDbSpline
70
4
71
3
72
14
73
10
40
0
40
0
40
0
40
0
40
0.22984372655837
40
0.22984372655837
40
0.542455728421276
40
0.542455728421276
40
0.85506773028418
40
0.85506773028418
40
1
40
1
40
1
40
1
41
1
10
6.5710772369838
20
2.93451188466301
30
0
41
1
10
6.55132143633395
20
2.8664212714944
30
0
41
1
10
6.53067238188206
20
2.79864472179523
30
1E-16
41
1
10
6.48040389899836
20
2.63929476239983
30
1E-16
41
1
10
6.45060589756315
20
2.5478554404776
30
1E-16
41
1
10
6.38601231151603
20
2.36654505683822
30
1E-16
41
1
10
6.35154671977938
20
2.27698082075844
30
1E-16
41
1
10
6.29908248192979
20
2.14822216441064
30
1E-16
41
1
10
6.28214334441063
20
2.10773790728959
30
1E-16
41
1
10
6.26479030127865
20
2.06758072341611
30
1E-16
0
SPLINE
5
102
100
AcDbEntity
8
1
62
256
6
ByLayer
370
18
48
1
60
0
100
AcDbSpline
70
4
71
3
72
30
73
26
40
0
40
0
40
0
40
0
40
0.499948491377145
40
0.499948491377145
40
0.673235152487951
40
0.673235152487951
40
0.787206944590381
40
0.787206944590381
40
0.862165755985909
40
0.862165755985909
40
0.911499260537541
40
0.911499260537541
40
0.943983221776785
40
0.943983221776785
40
0.965379305132641
40
0.965379305132641
40
0.97946726328265
40
0.97946726328265
40
0.98866328265349
40
0.98866328265349
40
0.994741360512476
40
0.994741360512476
40
0.99887779667512
40
0.99887779667512
40
1
40
1
40
1
40
1
41
1
10
53.6098621191457
20
3.39944722347778
30
0
41
1
10
53.6437073111425
20
3.37724810978389
30
0
41
1
10
53.6775993251315
20
3.35486155519828
30
0
41
1
10
53.7232988439933
20
3.32447405626056
30
0
41
1
10
53.7350673977831
20
3.31663068059157
30
0
41
1
10
53.7545852077035
20
3.30359334245804
30
0
41
1
10
53.7623314217362
20
3.29841144478198
30
0
41
1
10
53.7751761889181
20
3.28980628278922
30
0
41
1
10
53.7802734188438
20
3.28638819701288
30
0
41
1
10
53.7887270352679
20
3.28071400883698
30
0
41
1
10
53.7920828478689
20
3.27846013266517
30
0
41
1
10
53.7976490483487
20
3.27471936394019
30
0
41
1
10
53.7998591872381
20
3.27323343168033
30
0
41
1
10
53.8035253868942
20
3.27076754938938
30
0
41
1
10
53.8049803880067
20
3.26978866053457
30
0
41
1
10
53.8073971457741
20
3.26816226898163
30
0
41
1
10
53.8083592847217
20
3.26751465415455
30
0
41
1
10
53.8099614929604
20
3.26643598203327
30
0
41
1
10
53.8105986698779
20
3.26600694727893
30
0
41
1
10
53.8116501999233
20
3.2652988737
30
0
41
1
10
53.8120670931373
20
3.26501813767425
30
0
41
1
10
53.8127560383375
20
3.26455419856146
30
0
41
1
10
53.813032236542
20
3.26436820430658
30
0
41
1
10
53.8133729837316
20
3.26413874634969
30
0
41
1
10
53.8134450870531
20
3.26409019248749
30
0
41
1
10
53.8135163407795
20
3.2640422111524
30
0
0
SPLINE
5
103
100
AcDbEntity
8
1
62
256
6
ByLayer
370
18
48
1
60
0
100
AcDbSpline
70
4
71
3
72
16
73
12
40
0
40
0
40
0
40
0
40
0.125
40
0.125
40
0.25
40
0.25
40
0.5
40
0.5
40
0.75
40
0.75
40
1
40
1
40
1
40
1
41
1
10
54.056088354842
20
0.499561637112066
30
0
41
1
10
54.0271783631772
20
0.517354197858538
30
0
41
1
10
53.9976964850656
20
0.533634196484087
30
0
41
1
10
53.9372442068188
20
0.55866360933652
30
0
41
1
10
53.9062899385433
20
0.56749097543721
30
0
41
1
10
53.8122118185038
20
0.586861631236673
30
0
41
1
10
53.7480088299655
20
0.593540677700986
30
0
41
1
10
53.6204384579152
20
0.591124146567381
30
0
41
1
10
53.5569244357227
20
0.581382870888973
30
0
41
1
10
53.4316090769452
20
0.549462384633301
30
0
41
1
10
53.3697159323855
20
0.528175657592669
30
0
41
1
10
53.3092846054876
20
0.499761176115896
30
0
0
SPLINE
5
104
100
AcDbEntity
8
SK1
62
256
6
ByLayer
370
18
48
1
60
0
100
AcDbSpline
70
4
71
3
72
8
73
4
40
0
40
0
40
0
40
0
40
1
40
1
40
1
40
1
41
1
10
-35.5
20
-0.170843914929861
30
0
41
1
10
-35.5336694872381
20
-0.161130811960078
30
0
41
1
10
-35.5673239622132
20
-0.151413639321873
30
0
41
1
10
-35.6009618943233
20
-0.141691982084978
30
0
0
SPLINE
5
105
100
AcDbEntity
8
SK1
62
256
6
ByLayer
370
18
48
1
60
0
100
AcDbSpline
70
4
71
3
72
10
73
6
40
0
40
0
40
0
40
0
40
0.5
40
0.5
40
1
40
1
40
1
40
1
41
1
10
-36.0000000000001
20
0.453951739526673
30
0
41
1
10
-35.9272396278271
20
0.371496071868989
30
0
41
1
10
-35.8568055726535
20
0.282094501687595
30
0
41
1
10
-35.7224295033876
20
0.0849911144912312
30
0
41
1
10
-35.6578574543336
20
-0.0239042588375469
30
0
41
1
10
-35.6009618943233
20
-0.141691982084978
30
0
0
SPLINE
5
106
100
AcDbEntity
8
SK1
62
256
6
ByLayer
370
18
48
1
60
0
100
AcDbSpline
70
4
71
3
72
10
73
6
40
0
40
0
40
0
40
0
40
0.632303860667486
40
0.632303860667486
40
1
40
1
40
1
40
1
41
1
10
-36.0000000000001
20
-0.453951739526673
30
0
41
1
10
-35.9272396278271
20
-0.371496071868989
30
0
41
1
10
-35.8568055726535
20
-0.282094501687595
30
0
41
1
10
-35.7505464798148
20
-0.126233214530259
30
0
41
1
10
-35.7123600519252
20
-0.0654257680993453
30
0
41
1
10
-35.6760533926394
20
-0.0014058700169528
30
0
0
SPLINE
5
107
100
AcDbEntity
8
SK1
62
256
6
ByLayer
370
18
48
1
60
0
100
AcDbSpline
70
4
71
3
72
12
73
8
40
0
40
0
40
0
40
0
40
0.25
40
0.25
40
0.500000000000001
40
0.500000000000001
40
1
40
1
40
1
40
1
41
1
10
-35.4
20
-0.301627375059411
30
0
41
1
10
-35.4
20
-0.284703645787459
30
0
41
1
10
-35.4042405317342
20
-0.26773311166761
30
0
41
1
10
-35.4170629445098
20
-0.238049928273057
30
0
41
1
10
-35.4255309618331
20
-0.225176048016323
30
0
41
1
10
-35.4538111153163
20
-0.192276770304204
30
0
41
1
10
-35.4764597265186
20
-0.177634903418664
30
0
41
1
10
-35.5
20
-0.170843914929748
30
0
0
SPLINE
5
108
100
AcDbEntity
8
SK1
62
256
6
ByLayer
370
18
48
1
60
0
100
AcDbSpline
70
4
71
3
72
10
73
6
40
0
40
0
40
0
40
0
40
0.5
40
0.5
40
1
40
1
40
1
40
1
41
1
10
-35.6009618943233
20
-1.58136531672693
30
1E-16
41
1
10
-35.657625994603
20
-1.65245261750073
30
1E-16
41
1
10
-35.7212304684705
20
-1.70798117687059
30
1E-16
41
1
10
-35.8564778377541
20
-1.79566524035636
30
1E-16
41
1
10
-35.9271669955654
20
-1.82720783967832
30
1E-16
41
1
10
-36.0000000000001
20
-1.84952559590056
30
1E-16
0
SPLINE
5
109
100
AcDbEntity
8
SK1
62
256
6
ByLayer
370
18
48
1
60
0
100
AcDbSpline
70
4
71
3
72
12
73
8
40
0
40
0
40
0
40
0
40
0.499999999999997
40
0.499999999999997
40
0.749999999999999
40
0.749999999999999
40
1
40
1
40
1
40
1
41
1
10
-35.5
20
-1.61051724957193
30
1E-16
41
1
10
-35.4764535706457
20
-1.61731001393071
30
1E-16
41
1
10
-35.453758325367
20
-1.61673684467351
30
1E-16
41
1
10
-35.4256589034923
20
-1.60327717467237
30
1E-16
41
1
10
-35.4170915256394
20
-1.59648055794528
30
1E-16
41
1
10
-35.4042768359918
20
-1.57724817098602
30
1E-16
41
1
10
-35.4
20
-1.56440224168156
30
1E-16
41
1
10
-35.4
20
-1.54934426508242
30
1E-16
0
SPLINE
5
10A
100
AcDbEntity
8
SK1
62
256
6
ByLayer
370
18
48
1
60
0
100
AcDbSpline
70
4
71
3
72
8
73
4
40
0
40
0
40
0
40
0
40
1
40
1
40
1
40
1
41
1
10
-35.6009618943233
20
-1.58136531672693
30
1E-16
41
1
10
-35.5673238373263
20
-1.59108701005721
30
1E-16
41
1
10
-35.5336693662129
20
-1.60080418151583
30
1E-16
41
1
10
-35.5
20
-1.61051724957181
30
1E-16
0
SPLINE
5
10B
100
AcDbEntity
8
1
62
256
6
ByLayer
370
18
48
1
60
0
100
AcDbSpline
70
4
71
3
72
15
73
11
40
0
40
0
40
0
40
0
40
0.106435619739909
40
0.305034484046355
40
0.443478487182641
40
0.552135890542035
40
0.603676725163751
40
0.698511254730387
40
0.842343671475478
40
1
40
1
40
1
40
1
41
1
10
11.8044344992864
20
0.134624968570876
30
0
41
1
10
11.618405451346
20
0.1898500647969
30
0
41
1
10
11.0860803016366
20
0.350875687983802
30
0
41
1
10
10.3155604429159
20
0.597040932211598
30
0
41
1
10
9.54494913448258
20
0.856210716341423
30
-1E-16
41
1
10
9.03115326414002
20
1.03553385408847
30
-1E-16
41
1
10
8.59426266563847
20
1.19147882045954
30
-1E-16
41
1
10
8.09732190981561
20
1.37261496358448
30
-1E-16
41
1
10
7.42113586689283
20
1.62684846115181
30
-1E-16
41
1
10
6.90955425570948
20
1.82810907404885
30
-1E-16
41
1
10
6.64276278334114
20
1.93539150327487
30
-1E-16
0
SPLINE
5
10C
100
AcDbEntity
8
1
62
256
6
ByLayer
370
18
48
1
60
0
100
AcDbSpline
70
4
71
3
72
11
73
7
40
0
40
0
40
0
40
0
40
0.184116263393373
40
0.383429487257545
40
0.666325732743537
40
1
40
1
40
1
40
1
41
1
10
53.9402499117015
20
0.557207784545056
30
0
41
1
10
53.705365255292
20
0.633279726696799
30
0
41
1
10
53.2173140813851
20
0.794865687207874
30
0
41
1
10
52.3734329975958
20
1.08779186145128
30
-1E-16
41
1
10
51.3455445329824
20
1.46209742967076
30
-1E-16
41
1
10
50.5751567528361
20
1.76183394983738
30
-1E-16
41
1
10
50.1600050985724
20
1.92882294284487
30
-1E-16
0
SPLINE
5
10D
100
AcDbEntity
8
1
62
256
6
ByLayer
370
18
48
1
60
0
100
AcDbSpline
70
4
71
1
72
4
73
2
40
0
40
0
40
1
40
1
41
1
10
50.1600050985724
20
1.92882294284487
30
-1E-16
41
1
10
49.9857892836374
20
1.99657695981031
30
-1E-16
0
SPLINE
5
10E
100
AcDbEntity
8
1
62
256
6
ByLayer
370
18
48
1
60
0
100
AcDbSpline
70
4
71
3
72
20
73
16
40
0
40
0
40
0
40
0
40
0.112436598924685
40
0.184729897419565
40
0.245230652664794
40
0.315969161658775
40
0.390385724909098
40
0.464020127679554
40
0.535176310734517
40
0.599791739196371
40
0.719808673792756
40
0.849076978901322
40
0.92004469051955
40
0.997971208826251
40
1
40
1
40
1
40
1
41
1
10
20.7270697229391
20
3.21132766926189
30
0
41
1
10
20.4508002224128
20
3.21071006579928
30
0
41
1
10
19.9968974596605
20
3.21005687804629
30
0
41
1
10
19.3940556720566
20
3.21014991188906
30
0
41
1
10
18.8941463074939
20
3.21043585374045
30
0
41
1
10
18.3886139351202
20
3.20884825664797
30
0
41
1
10
17.8508934134439
20
3.20916851778216
30
0
41
1
10
17.3121203897617
20
3.2091710797452
30
0
41
1
10
16.7974444408856
20
3.20770105559171
30
0
41
1
10
16.1687668345093
20
3.20814279537518
30
0
41
1
10
15.3972599287475
20
3.20687605067863
30
0
41
1
10
14.6101416603886
20
3.20663048234965
30
0
41
1
10
13.9264764351781
20
3.20572734750789
30
0
41
1
10
13.5555372786276
20
3.20556796598879
30
0
41
1
10
13.3590241294834
20
3.20542900050384
30
0
41
1
10
13.3540377930117
20
3.20542544004638
30
0
0
SPLINE
5
10F
100
AcDbEntity
8
1
62
256
6
ByLayer
370
18
48
1
60
0
100
AcDbSpline
70
4
71
3
72
19
73
15
40
0
40
0
40
0
40
0
40
7.10410152376E-05
40
0.0002425618903018
40
0.0004117915604539
40
0.0005845848574981
40
0.0022175076349509
40
0.0033833341830228
40
0.0054758234784225
40
0.0092463838473275
40
0.0160878823427956
40
0.0286506074209191
40
0.849048594803542
40
1
40
1
40
1
40
1
41
1
10
12.3195641334293
20
-0.0180044304378555
30
0
41
1
10
12.3195630256301
20
-0.0180031946276245
30
0
41
1
10
12.3195568429156
20
-0.0179984029961417
30
0
41
1
10
12.3195338765296
20
-0.017989699015061
30
0
41
1
10
12.3194816183073
20
-0.0179713710285512
30
0
41
1
10
12.3192224582046
20
-0.017886667796148
30
0
41
1
10
12.3186807122775
20
-0.0177248205552587
30
0
41
1
10
12.3178792886742
20
-0.0174792833781225
30
0
41
1
10
12.3166982953819
20
-0.0171199176223809
30
0
41
1
10
12.3145800341252
20
-0.01647481744061
30
0
41
1
10
12.310700525535
20
-0.0152965520007342
30
0
41
1
10
12.1699214739361
20
0.0272964362835353
30
0
41
1
10
11.9981308177545
20
0.0758046840902864
30
0
41
1
10
11.8305397749701
20
0.126694884614068
30
0
41
1
10
11.8044344992864
20
0.134624968570876
30
0
0
SPLINE
5
110
100
AcDbEntity
8
1
62
256
6
ByLayer
370
18
48
1
60
0
100
AcDbSpline
70
4
71
3
72
28
73
24
40
0
40
0
40
0
40
0
40
1.63395053062E-05
40
3.93334743143E-05
40
6.00237046464E-05
40
8.07818645151E-05
40
0.0001259278218701
40
0.0004734833973439
40
0.0007395501940106
40
0.0012202717988874
40
0.0020965691511801
40
0.0037183688443019
40
0.0067962075497935
40
0.012872269887022
40
0.0255730251361258
40
0.116338144295094
40
0.223503195710403
40
0.332193488225371
40
0.443308099500171
40
0.559209957977912
40
0.680043695872698
40
0.826542044328056
40
1
40
1
40
1
40
1
41
1
10
34.1819200246981
20
-0.0543115778513936
30
0
41
1
10
34.1819327686094
20
-0.0543145985305671
30
0
41
1
10
34.1819582287946
20
-0.0543203557214724
30
0
41
1
10
34.1819688973866
20
-0.0543210379128425
30
0
41
1
10
34.1819315861234
20
-0.0543081113213759
30
0
41
1
10
34.1818291526886
20
-0.0542765214976271
30
0
41
1
10
34.1811182575049
20
-0.0540677504074552
30
0
41
1
10
34.179772592947
20
-0.0536886793133817
30
0
41
1
10
34.1776801556993
20
-0.0530908726710777
30
0
41
1
10
34.1745270571475
20
-0.0521928839222596
30
0
41
1
10
34.1687690978113
20
-0.0505505712421552
30
0
41
1
10
34.1579650359446
20
-0.0474681600923077
30
0
41
1
10
34.1370801735156
20
-0.0415015531277731
30
0
41
1
10
34.0946590884129
20
-0.0293546440665864
30
0
41
1
10
33.881699235175
20
0.0319093545925
30
0
41
1
10
33.4711505945581
20
0.152776656901295
30
0
41
1
10
32.8755580814288
20
0.334962392209888
30
0
41
1
10
32.2419091375592
20
0.536654707678281
30
0
41
1
10
31.5929575415977
20
0.751440602200148
30
0
41
1
10
30.9231574012608
20
0.981811123398558
30
-1E-16
41
1
10
30.1881087199439
20
1.24457125030204
30
-1E-16
41
1
10
29.3464763552025
20
1.55772466627147
30
-1E-16
41
1
10
28.7395176261443
20
1.7954489402089
30
-1E-16
41
1
10
28.4115702527588
20
1.92730274509213
30
-1E-16
0
SPLINE
5
111
100
AcDbEntity
8
1
62
256
6
ByLayer
370
18
48
1
60
0
100
AcDbSpline
70
4
71
3
72
23
73
19
40
0
40
0
40
0
40
0
40
0.0987547053921212
40
0.176884300289281
40
0.264458232080866
40
0.317211936497888
40
0.369647416996205
40
0.424902187501172
40
0.484733504164223
40
0.549503276276254
40
0.619702880833489
40
0.691654046173631
40
0.782386457917249
40
0.858397563488139
40
0.929754995362798
40
0.962905883898751
40
0.994306298534287
40
1
40
1
40
1
40
1
41
1
10
11.191507795336
20
-3.20346197021101
30
0
41
1
10
11.4353941854348
20
-3.20367612810591
30
0
41
1
10
11.8723046563202
20
-3.2040702529483
30
0
41
1
10
12.5257565085926
20
-3.20449990108875
30
0
41
1
10
13.0656394048914
20
-3.20520570323808
30
0
41
1
10
13.541535476763
20
-3.20555673668866
30
0
41
1
10
13.9379358487
20
-3.20577446052874
30
0
41
1
10
14.3518748657592
20
-3.20625223805439
30
0
41
1
10
14.7962862838147
20
-3.20670968940425
30
0
41
1
10
15.2775994917578
20
-3.20676255933736
30
0
41
1
10
15.7888970336347
20
-3.20789153773939
30
0
41
1
10
16.3643402399673
20
-3.20791972818478
30
0
41
1
10
16.9541460334869
20
-3.20793368671548
30
0
41
1
10
17.5424824459167
20
-3.20946121007157
30
0
41
1
10
17.988539554155
20
-3.20901605484602
30
0
41
1
10
18.3243637544213
20
-3.20908825659842
30
0
41
1
10
18.4979366482169
20
-3.20931520588613
30
0
41
1
10
18.5895927947707
20
-3.20950264259238
30
0
41
1
10
18.6036613673816
20
-3.20953248240434
30
0
0
SPLINE
5
112
100
AcDbEntity
8
1
62
256
6
ByLayer
370
18
48
1
60
0
100
AcDbSpline
70
4
71
3
72
19
73
15
40
0
40
0
40
0
40
0
40
0.113164772521956
40
0.185480785921742
40
0.246688381861233
40
0.318596149369374
40
0.393720258174487
40
0.467414383928696
40
0.538158675116388
40
0.602690862098054
40
0.723413699218704
40
0.853590178676876
40
0.924827666448782
40
1
40
1
40
1
40
1
41
1
10
32.9455511115143
20
-3.21717942364347
30
0
41
1
10
33.2224458621603
20
-3.21736256505764
30
0
41
1
10
33.6762942049383
20
-3.2176586048173
30
0
41
1
10
34.2802076264013
20
-3.21807997788386
30
0
41
1
10
34.7827034200359
20
-3.21836911347074
30
0
41
1
10
35.2924696205991
20
-3.21845303586829
30
0
41
1
10
35.8327059314403
20
-3.21921338026968
30
0
41
1
10
36.3701172373183
20
-3.21919568437227
30
0
41
1
10
36.8815994933209
20
-3.21922715553563
30
0
41
1
10
37.5081830193755
20
-3.22056044501213
30
0
41
1
10
38.2802298605385
20
-3.21923459614078
30
0
41
1
10
39.0687078764534
20
-3.22131374402306
30
0
41
1
10
39.7456855808161
20
-3.22028297415773
30
0
41
1
10
40.1040429575961
20
-3.22148040480167
30
0
41
1
10
40.2880361660928
20
-3.22177299800111
30
0
0
SPLINE
5
113
100
AcDbEntity
8
1
62
256
6
ByLayer
370
18
48
1
60
0
100
AcDbSpline
70
4
71
3
72
8
73
4
40
0
40
0
40
0
40
0
40
1
40
1
40
1
40
1
41
1
10
22.4744640777554
20
-0.178894956584799
30
0
41
1
10
22.4565463035417
20
-0.174585958424046
30
0
41
1
10
22.4386281939923
20
-0.170258313852258
30
0
41
1
10
22.420709688578
20
-0.165912095893532
30
0
0
SPLINE
5
114
100
AcDbEntity
8
1
62
256
6
ByLayer
370
18
48
1
60
0
100
AcDbSpline
70
4
71
3
72
8
73
4
40
0
40
0
40
0
40
0
40
1
40
1
40
1
40
1
41
1
10
18.81918738947
20
1.04477421432094
30
-1E-16
41
1
10
18.7989381219919
20
1.05521798652904
30
-1E-16
41
1
10
18.779079955731
20
1.06561205819949
30
-1E-16
41
1
10
18.7596407377006
20
1.0759617183362
30
-1E-16
0
SPLINE
5
115
100
AcDbEntity
8
1
62
256
6
ByLayer
370
18
48
1
60
0
100
AcDbSpline
70
4
71
3
72
23
73
19
40
0
40
0
40
0
40
0
40
0.0977682300802878
40
0.175429340253634
40
0.262937572248591
40
0.315898175264256
40
0.368317578718969
40
0.423348903514821
40
0.482714705948489
40
0.546882373876302
40
0.616544691132585
40
0.688435275239355
40
0.780171133798173
40
0.856952579447029
40
0.928387421828827
40
0.961406060750838
40
0.992525301513853
40
1
40
1
40
1
40
1
41
1
10
42.4840353225463
20
3.22169745678917
30
0
41
1
10
42.2424240291865
20
3.22174585830683
30
0
41
1
10
41.8085490389469
20
3.22183212513042
30
0
41
1
10
41.1577202404284
20
3.22050256946335
30
0
41
1
10
40.61638560397
20
3.22196955398221
30
0
41
1
10
40.1415022868519
20
3.22150798784696
30
0
41
1
10
39.7436531268293
20
3.22049134050536
30
0
41
1
10
39.3305441195122
20
3.22081175619064
30
0
41
1
10
38.8881573012674
20
3.22102892230285
30
0
41
1
10
38.4095794946355
20
3.21977633611843
30
0
41
1
10
37.8999581794792
20
3.21998318321337
30
0
41
1
10
37.3220487446846
20
3.22030824685848
30
0
41
1
10
36.7265028137448
20
3.21896513673863
30
0
41
1
10
36.1320852605845
20
3.21930899438277
30
0
41
1
10
35.683123633152
20
3.2190107037479
30
0
41
1
10
35.3472793052916
20
3.21859158363611
30
0
41
1
10
35.1698779600036
20
3.21847811147964
30
0
41
1
10
35.0742737783377
20
3.21843611872592
30
0
41
1
10
35.0557576551555
20
3.21842851585677
30
0
0
SPLINE
5
116
100
AcDbEntity
8
1
62
256
6
ByLayer
370
18
48
1
60
0
100
AcDbSpline
70
4
71
2
72
6
73
3
40
0
40
0
40
0
40
1
40
1
40
1
41
1
10
43.8182341604084
20
0.0015384477108
30
0
41
1
10
43.8182097178147
20
0.0015474853086062
30
0
41
1
10
43.818185275488
20
0.0015570896331667
30
0
0
LINE
5
84
100
AcDbEntity
8
1
62
256
6
ByLayer
370
18
48
1
60
0
100
AcDbLine
10
3.501698
20
-1.437457
30
0
11
3.501698
21
2.575494
31
0
39
0
210
0
220
0
230
1
0
LINE
5
85
100
AcDbEntity
8
1
62
256
6
ByLayer
370
18
48
1
60
0
100
AcDbLine
10
54.952587
20
0.04093
30
0
11
54.114618
21
0.965903
31
0
39
0
210
0
220
0
230
1
0
LINE
5
86
100
AcDbEntity
8
1
62
256
6
ByLayer
370
18
48
1
60
0
100
AcDbLine
10
0.637286
20
3.683597
30
0
11
0.637286
21
0
31
0
39
0
210
0
220
0
230
1
0
LINE
5
87
100
AcDbEntity
8
1
62
256
6
ByLayer
370
18
48
1
60
0
100
AcDbLine
10
0.637286
20
0
30
0
11
0.637286
21
-3.683597
31
0
39
0
210
0
220
0
230
1
0
LINE
5
88
100
AcDbEntity
8
1
62
256
6
ByLayer
370
18
48
1
60
0
100
AcDbLine
10
1.275073
20
3.367194
30
0
11
1.275073
21
0
31
0
39
0
210
0
220
0
230
1
0
LINE
5
89
100
AcDbEntity
8
1
62
256
6
ByLayer
370
18
48
1
60
0
100
AcDbLine
10
1.275073
20
0
30
0
11
1.275073
21
-3.367194
31
0
39
0
210
0
220
0
230
1
0
LINE
5
8A
100
AcDbEntity
8
1
62
256
6
ByLayer
370
18
48
1
60
0
100
AcDbLine
10
0
20
4
30
0
11
0
21
0
31
0
39
0
210
0
220
0
230
1
0
LINE
5
8B
100
AcDbEntity
8
1
62
256
6
ByLayer
370
18
48
1
60
0
100
AcDbLine
10
0
20
0
30
0
11
0
21
-4
31
0
39
0
210
0
220
0
230
1
0
LINE
5
8C
100
AcDbEntity
8
1
62
256
6
ByLayer
370
18
48
1
60
0
100
AcDbLine
10
21
20
0.046234
30
0
11
21
21
0.000428
31
0
39
0
210
0
220
0
230
1
0
LINE
5
8D
100
AcDbEntity
8
SK1
62
256
6
ByLayer
370
18
48
1
60
0
100
AcDbLine
10
-34.76
20
-4
30
0
11
-34.76
21
4
31
0
39
0
210
0
220
0
230
1
0
LINE
5
8F
100
AcDbEntity
8
SK1
62
256
6
ByLayer
370
18
48
1
60
0
100
AcDbLine
10
-35.600962
20
-1.581365
30
0
11
-35.600962
21
-0.141697
31
0
39
0
210
0
220
0
230
1
0
LINE
5
90
100
AcDbEntity
8
SK1
62
256
6
ByLayer
370
18
48
1
60
0
100
AcDbLine
10
-35.5
20
-1.610517
30
0
11
-35.5
21
-0.170871
31
0
39
0
210
0
220
0
230
1
0
LINE
5
91
100
AcDbEntity
8
SK1
62
256
6
ByLayer
370
18
48
1
60
0
100
AcDbLine
10
-36
20
-2.76
30
0
11
-36
21
-1.849526
31
0
39
0
210
0
220
0
230
1
0
LINE
5
92
100
AcDbEntity
8
SK1
62
256
6
ByLayer
370
18
48
1
60
0
100
AcDbLine
10
-36
20
-1.849526
30
0
11
-36
21
-0.453952
31
0
39
0
210
0
220
0
230
1
0
LINE
5
93
100
AcDbEntity
8
SK1
62
256
6
ByLayer
370
18
48
1
60
0
100
AcDbLine
10
-36
20
2.76
30
0
11
-36
21
0.453952
31
0
39
0
210
0
220
0
230
1
0
LINE
5
94
100
AcDbEntity
8
SK1
62
256
6
ByLayer
370
18
48
1
60
0
100
AcDbLine
10
0
20
4
30
0
11
0
21
-4
31
0
39
0
210
0
220
0
230
1
0
LINE
5
95
100
AcDbEntity
8
SK1
62
256
6
ByLayer
370
18
48
1
60
0
100
AcDbLine
10
-35.4
20
-1.549344
30
0
11
-35.4
21
-0.301627
31
0
39
0
210
0
220
0
230
1
0
LINE
5
96
100
AcDbEntity
8
1
62
256
6
ByLayer
370
18
48
1
60
0
100
AcDbLine
10
20.72844
20
-3.379353
30
0
11
21.733956
21
-3.379981
31
0
39
0
210
0
220
0
230
1
0
LINE
5
97
100
AcDbEntity
8
1
62
256
6
ByLayer
370
18
48
1
60
0
100
AcDbLine
10
21.733956
20
3.379981
30
0
11
20.72844
21
3.379353
31
0
39
0
210
0
220
0
230
1
0
LINE
5
98
100
AcDbEntity
8
SK1
62
256
6
ByLayer
370
18
48
1
60
0
100
AcDbLine
10
-36
20
-2.76
30
0
11
-34.76
21
-4
31
0
39
0
210
0
220
0
230
1
0
LINE
5
99
100
AcDbEntity
8
SK1
62
256
6
ByLayer
370
18
48
1
60
0
100
AcDbLine
10
-34.76
20
4
30
0
11
-36
21
2.76
31
0
39
0
210
0
220
0
230
1
0
LINE
5
9A
100
AcDbEntity
8
SK1
62
256
6
ByLayer
370
18
48
1
60
0
100
AcDbLine
10
-34.76
20
-4
30
0
11
0
21
-4
31
0
39
0
210
0
220
0
230
1
0
LINE
5
9B
100
AcDbEntity
8
SK1
62
256
6
ByLayer
370
18
48
1
60
0
100
AcDbLine
10
0
20
4
30
0
11
-34.76
21
4
31
0
39
0
210
0
220
0
230
1
0
LINE
5
9C
100
AcDbEntity
8
1
62
256
6
ByLayer
370
18
48
1
60
0
100
AcDbLine
10
1.275073
20
-3.367194
30
0
11
2.106318
21
-3.367714
31
0
39
0
210
0
220
0
230
1
0
LINE
5
9D
100
AcDbEntity
8
1
62
256
6
ByLayer
370
18
48
1
60
0
100
AcDbLine
10
10.130712
20
-3.372729
30
0
11
11.196085
21
-3.373395
31
0
39
0
210
0
220
0
230
1
0
LINE
5
9E
100
AcDbEntity
8
1
62
256
6
ByLayer
370
18
48
1
60
0
100
AcDbLine
10
31.970476
20
-3.386379
30
0
11
32.94645
21
-3.386989
31
0
39
0
210
0
220
0
230
1
0
LINE
5
9F
100
AcDbEntity
8
1
62
256
6
ByLayer
370
18
48
1
60
0
100
AcDbLine
10
42.483804
20
-3.39295
30
0
11
43.465431
21
-3.393563
31
0
39
0
210
0
220
0
230
1
0
LINE
5
A0
100
AcDbEntity
8
1
62
256
6
ByLayer
370
18
48
1
60
0
100
AcDbLine
10
43.465431
20
3.393563
30
0
11
42.483804
21
3.39295
31
0
39
0
210
0
220
0
230
1
0
LINE
5
A1
100
AcDbEntity
8
1
62
256
6
ByLayer
370
18
48
1
60
0
100
AcDbLine
10
32.94645
20
3.386989
30
0
11
31.970476
21
3.386379
31
0
39
0
210
0
220
0
230
1
0
LINE
5
A2
100
AcDbEntity
8
1
62
256
6
ByLayer
370
18
48
1
60
0
100
AcDbLine
10
11.196085
20
3.373395
30
0
11
10.130712
21
3.372729
31
0
39
0
210
0
220
0
230
1
0
LINE
5
A3
100
AcDbEntity
8
1
62
256
6
ByLayer
370
18
48
1
60
0
100
AcDbLine
10
2.106318
20
3.367714
30
0
11
1.275073
21
3.367194
31
0
39
0
210
0
220
0
230
1
0
LINE
5
A4
100
AcDbEntity
8
SK4
62
256
6
ByLayer
370
18
48
0.05
60
0
100
AcDbLine
10
60
20
0
30
0
11
-41
21
0
31
0
39
0
210
0
220
0
230
1
0
LINE
5
A6
100
AcDbEntity
8
4
62
256
6
ByLayer
370
18
48
0.05
60
0
100
AcDbLine
10
-36
20
0
30
0
11
60
21
0
31
0
39
0
210
0
220
0
230
1
0
LINE
5
A8
100
AcDbEntity
8
80
62
256
6
ByLayer
370
18
48
1
60
0
100
AcDbLine
10
0
20
0
30
0
11
-6
21
0
31
0
39
0
210
0
220
0
230
1
0
LINE
5
A9
100
AcDbEntity
8
81
62
256
6
ByLayer
370
18
48
1
60
0
100
AcDbLine
10
55
20
0
30
0
11
61
21
0
31
0
39
0
210
0
220
0
230
1
0
LINE
5
AA
100
AcDbEntity
8
SK2
62
256
6
ByLayer
370
13
48
1
60
0
100
AcDbLine
10
55.542957
20
1.491762
30
0
11
62.926324
21
21.777374
31
0
39
0
210
0
220
0
230
1
0
LINE
5
AC
100
AcDbEntity
8
SK2
62
256
6
ByLayer
370
13
48
1
60
0
100
AcDbLine
10
55.542957
20
-1.491762
30
0
11
62.926324
21
-21.777374
31
0
39
0
210
0
220
0
230
1
0
LINE
5
AD
100
AcDbEntity
8
1
62
256
6
ByLayer
370
13
48
1
60
0
100
AcDbLine
10
61.840409
20
18.79385
30
0
11
64.936999
21
17.977477
31
0
39
0
210
0
220
0
230
1
0
LINE
5
AE
100
AcDbEntity
8
1
62
256
6
ByLayer
370
13
48
1
60
0
100
AcDbLine
10
61.840409
20
18.79385
30
0
11
64.620195
21
17.203837
31
0
39
0
210
0
220
0
230
1
0
LINE
5
AF
100
AcDbEntity
8
1
62
256
6
ByLayer
370
13
48
1
60
0
100
AcDbLine
10
64.936999
20
17.977477
30
0
11
64.620195
21
17.203837
31
0
39
0
210
0
220
0
230
1
0
LINE
5
B0
100
AcDbEntity
8
1
62
256
6
ByLayer
370
13
48
1
60
0
100
AcDbLine
10
61.840409
20
-18.79385
30
0
11
64.620192
21
-17.203838
31
0
39
0
210
0
220
0
230
1
0
LINE
5
B1
100
AcDbEntity
8
1
62
256
6
ByLayer
370
13
48
1
60
0
100
AcDbLine
10
61.840409
20
-18.79385
30
0
11
64.937002
21
-17.977476
31
0
39
0
210
0
220
0
230
1
0
LINE
5
B2
100
AcDbEntity
8
1
62
256
6
ByLayer
370
13
48
1
60
0
100
AcDbLine
10
64.620192
20
-17.203838
30
0
11
64.937002
21
-17.977476
31
0
39
0
210
0
220
0
230
1
0
MTEXT
5
117
100
AcDbEntity
8
SK2
62
256
6
ByLayer
370
18
48
1
60
0
100
AcDbMText
10
68.717388
20
-2.467451
30
0
210
0
220
0
230
1
1
\W0.7237;140.00
40
3.50012
41
0
44
1.084337
50
0
71
7
72
5
7
iso_b_vert
0
MTEXT
5
11A
100
AcDbEntity
8
SK6
62
256
6
ByLayer
370
18
48
1
60
0
100
AcDbMText
10
-29.831725
20
-120.708433
30
0
210
0
220
0
230
1
1
\W0.7454;860.1-0680-035A1-GM X1BM
40
3.175
41
0
44
1.084337
50
0
71
7
72
5
7
iso_b_vert
0
DIMENSION
5
11D
100
AcDbEntity
8
SK2
62
256
6
ByLayer
370
18
48
1
60
0
100
AcDbDimension
2
_U0
10
55
20
-27.50012
30
0
11
27.5
21
-27.50012
31
0
70
32
71
2
72
1
41
1
210
0
220
0
230
1
3
Standard
100
AcDbAlignedDimension
13
0
23
-4
33
0
14
55
24
0
34
0
50
0
100
AcDbRotatedDimension
1001
ACAD
1000
DSTYLE
1002
{
1070
   371
1070
    13
1070
   372
1070
    13
1070
     3
1000

1070
   170
1070
     0
1070
   144
1040
1.0
1070
   277
1070
     2
1070
   284
1070
     8
1070
   278
1070
    46
1070
   146
1040
0.999966
1070
   345
1005
16
1070
   347
1005
16
1070
   346
1005
16
1070
   344
1005
11E
1070
   343
1005
11E
1070
   172
1070
     1
1070
    76
1070
     0
1070
    75
1070
     0
1070
   282
1070
     0
1070
   281
1070
     0
1070
    71
1070
     0
1070
    74
1070
     0
1070
   279
1070
     0
1070
   173
1070
     1
1070
   340
1005
118
1070
   271
1070
     1
1070
   272
1070
     2
1070
    77
1070
     1
1070
    73
1070
     1
1070
   171
1070
     3
1070
   274
1070
     4
1070
   177
1070
   150
1070
   176
1070
     9
1070
   178
1070
    43
1070
    78
1070
     8
1070
    48
1040
-0.1
1070
    41
1040
3.175
1070
   147
1040
1.75006
1070
    42
1040
1.5875
1070
    44
1040
3.175
1070
   140
1040
3.50012
1002
}
1001
ACAD_DSTYLE_DIM_LINETYPE
1070
   380
1005
16
1001
ACAD_DSTYLE_DIM_EXT1_LINETYPE
1070
   381
1005
16
1001
ACAD_DSTYLE_DIM_EXT2_LINETYPE
1070
   382
1005
16
0
DIMENSION
5
143
100
AcDbEntity
8
2
62
256
6
ByLayer
370
18
48
1
60
0
100
AcDbDimension
2
_U1
10
61.75006
20
3.4
30
0
11
61.75006
21
18.889897
31
0
70
32
71
1
72
1
41
1
210
0
220
0
230
1
3
Standard
100
AcDbAlignedDimension
13
53.7625
23
-3.4
33
0
14
53.7625
24
3.4
34
0
50
90
100
AcDbRotatedDimension
1001
ACAD
1000
DSTYLE
1002
{
1070
   371
1070
    13
1070
   372
1070
    13
1070
     3
1000

1070
   170
1070
     0
1070
   144
1040
1.0
1070
   277
1070
     2
1070
   284
1070
     8
1070
   278
1070
    46
1070
   146
1040
0.999966
1070
   345
1005
16
1070
   347
1005
16
1070
   346
1005
16
1070
   344
1005
11E
1070
   343
1005
11E
1070
   172
1070
     1
1070
    76
1070
     0
1070
    75
1070
     0
1070
   282
1070
     0
1070
   281
1070
     0
1070
    71
1070
     0
1070
    74
1070
     0
1070
   279
1070
     0
1070
   173
1070
     1
1070
   340
1005
118
1070
   271
1070
     1
1070
   272
1070
     2
1070
    77
1070
     1
1070
    73
1070
     0
1070
   171
1070
     3
1070
   274
1070
     4
1070
   177
1070
   150
1070
   176
1070
     9
1070
   178
1070
    43
1070
    78
1070
     8
1070
    48
1040
-0.1
1070
    41
1040
3.175
1070
   147
1040
1.75006
1070
    42
1040
1.5875
1070
    44
1040
3.175
1070
   140
1040
3.50012
1002
}
1001
ACAD_DSTYLE_DIM_LINETYPE
1070
   380
1005
16
1001
ACAD_DSTYLE_DIM_EXT1_LINETYPE
1070
   381
1005
16
1001
ACAD_DSTYLE_DIM_EXT2_LINETYPE
1070
   382
1005
16
0
DIMENSION
5
162
100
AcDbEntity
8
SK2
62
256
6
ByLayer
370
18
48
1
60
0
100
AcDbDimension
2
_U2
10
-39.24994
20
-4
30
0
11
-39.24994
21
18.10734
31
0
70
32
71
1
72
1
41
1
210
0
220
0
230
1
3
Standard
100
AcDbAlignedDimension
13
-36
23
4
33
0
14
-36
24
-4
34
0
50
90
100
AcDbRotatedDimension
1001
ACAD
1000
DSTYLE
1002
{
1070
   371
1070
    13
1070
   372
1070
    13
1070
     3
1000

1070
   170
1070
     0
1070
   144
1040
1.0
1070
   277
1070
     2
1070
   284
1070
     8
1070
   278
1070
    46
1070
   146
1040
0.999966
1070
   345
1005
16
1070
   347
1005
16
1070
   346
1005
16
1070
   344
1005
11E
1070
   343
1005
11E
1070
   172
1070
     1
1070
    76
1070
     0
1070
    75
1070
     0
1070
   282
1070
     0
1070
   281
1070
     0
1070
    71
1070
     0
1070
    74
1070
     0
1070
   279
1070
     0
1070
   173
1070
     1
1070
   340
1005
118
1070
   271
1070
     1
1070
   272
1070
     2
1070
    77
1070
     1
1070
    73
1070
     0
1070
   171
1070
     3
1070
   274
1070
     4
1070
   177
1070
   150
1070
   176
1070
     9
1070
   178
1070
    43
1070
    78
1070
     8
1070
    48
1040
-0.1
1070
    41
1040
3.175
1070
   147
1040
1.75006
1070
    42
1040
1.5875
1070
    44
1040
3.175
1070
   140
1040
3.50012
1002
}
1001
ACAD_DSTYLE_DIM_LINETYPE
1070
   380
1005
16
1001
ACAD_DSTYLE_DIM_EXT1_LINETYPE
1070
   381
1005
16
1001
ACAD_DSTYLE_DIM_EXT2_LINETYPE
1070
   382
1005
16
0
DIMENSION
5
180
100
AcDbEntity
8
SK2
62
256
6
ByLayer
370
18
48
1
60
0
100
AcDbDimension
2
_U3
10
0
20
-27.50012
30
0
11
-18
21
-27.50012
31
0
70
32
71
1
72
1
41
1
210
0
220
0
230
1
3
Standard
100
AcDbAlignedDimension
13
-36
23
-4
33
0
14
0
24
-4
34
0
50
0
100
AcDbRotatedDimension
1001
ACAD
1000
DSTYLE
1002
{
1070
   371
1070
    13
1070
   372
1070
    13
1070
     3
1000

1070
   170
1070
     0
1070
   144
1040
1.0
1070
   277
1070
     2
1070
   284
1070
     8
1070
   278
1070
    46
1070
   146
1040
0.999966
1070
   345
1005
16
1070
   347
1005
16
1070
   346
1005
16
1070
   344
1005
11E
1070
   343
1005
11E
1070
   172
1070
     1
1070
    76
1070
     0
1070
    75
1070
     0
1070
   282
1070
     0
1070
   281
1070
     0
1070
    71
1070
     0
1070
    74
1070
     0
1070
   279
1070
     0
1070
   173
1070
     1
1070
   340
1005
118
1070
   271
1070
     1
1070
   272
1070
     2
1070
    77
1070
     1
1070
    73
1070
     1
1070
   171
1070
     3
1070
   274
1070
     4
1070
   177
1070
   150
1070
   176
1070
     9
1070
   178
1070
    43
1070
    78
1070
     8
1070
    48
1040
-0.1
1070
    41
1040
3.175
1070
   147
1040
1.75006
1070
    42
1040
1.5875
1070
    44
1040
3.175
1070
   140
1040
3.50012
1002
}
1001
ACAD_DSTYLE_DIM_LINETYPE
1070
   380
1005
16
1001
ACAD_DSTYLE_DIM_EXT1_LINETYPE
1070
   381
1005
16
1001
ACAD_DSTYLE_DIM_EXT2_LINETYPE
1070
   382
1005
16
0
DIMENSION
5
19C
100
AcDbEntity
8
SK2
62
256
6
ByLayer
370
18
48
1
60
0
100
AcDbDimension
2
_U4
10
55
20
-18.74982
30
0
11
28.5
21
-18.74982
31
0
70
32
71
1
72
1
41
1
210
0
220
0
230
1
3
Standard
100
AcDbAlignedDimension
13
2
23
3.9
33
0
14
55
24
0
34
0
50
0
100
AcDbRotatedDimension
1001
ACAD
1000
DSTYLE
1002
{
1070
   371
1070
    13
1070
   372
1070
    13
1070
     3
1000

1070
   170
1070
     0
1070
   144
1040
1.0
1070
   277
1070
     2
1070
   284
1070
     8
1070
   278
1070
    46
1070
   146
1040
0.999966
1070
   345
1005
16
1070
   347
1005
16
1070
   346
1005
16
1070
   344
1005
11E
1070
   343
1005
11E
1070
   172
1070
     1
1070
    76
1070
     0
1070
    75
1070
     0
1070
   282
1070
     0
1070
   281
1070
     0
1070
    71
1070
     0
1070
    74
1070
     0
1070
   279
1070
     0
1070
   173
1070
     1
1070
   340
1005
118
1070
   271
1070
     1
1070
   272
1070
     2
1070
    77
1070
     1
1070
    73
1070
     1
1070
   171
1070
     3
1070
   274
1070
     4
1070
   177
1070
   150
1070
   176
1070
     9
1070
   178
1070
    43
1070
    78
1070
     8
1070
    48
1040
-0.1
1070
    41
1040
3.175
1070
   147
1040
1.75006
1070
    42
1040
1.5875
1070
    44
1040
3.175
1070
   140
1040
3.50012
1002
}
1001
ACAD_DSTYLE_DIM_LINETYPE
1070
   380
1005
16
1001
ACAD_DSTYLE_DIM_EXT1_LINETYPE
1070
   381
1005
16
1001
ACAD_DSTYLE_DIM_EXT2_LINETYPE
1070
   382
1005
16
0
DIMENSION
5
1B8
100
AcDbEntity
8
SK2
62
256
6
ByLayer
370
18
48
1
60
0
100
AcDbDimension
2
_U5
10
55
20
-10.82
30
0
11
37.4
21
-10.82
31
0
70
32
71
1
72
1
41
1
210
0
220
0
230
1
3
Standard
100
AcDbAlignedDimension
13
19.8
23
-3.4
33
0
14
55
24
0
34
0
50
0
100
AcDbRotatedDimension
1001
ACAD
1000
DSTYLE
1002
{
1070
   371
1070
    13
1070
   372
1070
    13
1070
     3
1000

1070
   170
1070
     0
1070
   144
1040
1.0
1070
   277
1070
     2
1070
   284
1070
     8
1070
   278
1070
    46
1070
   146
1040
1.25
1070
   345
1005
16
1070
   347
1005
16
1070
   346
1005
16
1070
   344
1005
11E
1070
   343
1005
11E
1070
   172
1070
     1
1070
    76
1070
     0
1070
    75
1070
     0
1070
   282
1070
     0
1070
   281
1070
     0
1070
    71
1070
     0
1070
    74
1070
     0
1070
   279
1070
     0
1070
   173
1070
     1
1070
   340
1005
118
1070
   271
1070
     1
1070
   272
1070
     2
1070
    77
1070
     1
1070
    73
1070
     1
1070
   171
1070
     3
1070
   274
1070
     4
1070
   177
1070
   150
1070
   176
1070
     9
1070
   178
1070
    43
1070
    78
1070
     8
1070
    48
1040
-0.1
1070
    41
1040
3.175
1070
   147
1040
0.42
1070
    42
1040
1.5875
1070
    44
1040
0.5
1070
   140
1040
2.8
1002
}
1001
ACAD_DSTYLE_DIM_LINETYPE
1070
   380
1005
16
1001
ACAD_DSTYLE_DIM_EXT1_LINETYPE
1070
   381
1005
16
1001
ACAD_DSTYLE_DIM_EXT2_LINETYPE
1070
   382
1005
16
0
DIMENSION
5
1D4
100
AcDbEntity
8
SK2
62
256
6
ByLayer
370
18
48
1
60
0
100
AcDbDimension
2
_U6
10
55
20
-37.50012
30
0
11
9.5
21
-37.50012
31
0
70
32
71
1
72
1
41
1
210
0
220
0
230
1
3
Standard
100
AcDbAlignedDimension
13
-36
23
0
33
0
14
55
24
0
34
0
50
0
100
AcDbRotatedDimension
1001
ACAD
1000
DSTYLE
1002
{
1070
   371
1070
    13
1070
   372
1070
    13
1070
     3
1000

1070
   170
1070
     0
1070
   144
1040
1.0
1070
   277
1070
     2
1070
   284
1070
     8
1070
   278
1070
    46
1070
   146
1040
0.999966
1070
   345
1005
16
1070
   347
1005
16
1070
   346
1005
16
1070
   344
1005
11E
1070
   343
1005
11E
1070
   172
1070
     1
1070
    76
1070
     0
1070
    75
1070
     0
1070
   282
1070
     0
1070
   281
1070
     0
1070
    71
1070
     0
1070
    74
1070
     0
1070
   279
1070
     0
1070
   173
1070
     1
1070
   340
1005
118
1070
   271
1070
     1
1070
   272
1070
     2
1070
    77
1070
     1
1070
    73
1070
     1
1070
   171
1070
     3
1070
   274
1070
     4
1070
   177
1070
   150
1070
   176
1070
     9
1070
   178
1070
    43
1070
    78
1070
     8
1070
    48
1040
-0.1
1070
    41
1040
3.175
1070
   147
1040
1.75006
1070
    42
1040
1.5875
1070
    44
1040
3.175
1070
   140
1040
3.50012
1002
}
1001
ACAD_DSTYLE_DIM_LINETYPE
1070
   380
1005
16
1001
ACAD_DSTYLE_DIM_EXT1_LINETYPE
1070
   381
1005
16
1001
ACAD_DSTYLE_DIM_EXT2_LINETYPE
1070
   382
1005
16
0
ENDSEC
0
SECTION
2
OBJECTS
0
DICTIONARY
5
260
330
0
100
AcDbDictionary
280
0
281
1
3
ACAD_GROUP
350
261
3
ACAD_MLINESTYLE
350
262
0
DICTIONARY
5
261
330
0
100
AcDbDictionary
280
0
281
1
0
DICTIONARY
5
262
330
0
100
AcDbDictionary
280
0
281
1
3
Standard
350
18
0
MLINESTYLE
5
18
330
262
100
AcDbMlineStyle
2
Standard
70
0
3

62
256
51
90
52
90
71
2
49
-0.5
62
256
6
ByLayer
49
0.5
62
256
6
ByLayer
0
RASTERVARIABLES
5
24e
330

100
AcDbRasterVariables
90
0
70
1
71
1
72
1
0
ENDSEC
0
EOF
