0
SECTION
2
HEADER
9
$ACADVER
1
AC1015
9
$DWGCODEPAGE
3
ANSI_1252
9
$HANDSEED
5
263
9
$ANGBASE
50
0
9
$ANGDIR
70
0
9
$ATTMODE
70
1
9
$AUNITS
70
0
9
$AUPREC
70
0
9
$CECOLOR
62
256
9
$CELTSCALE
40
1
9
$CELTYPE
6
ByLayer
9
$CELWEIGHT
370
18
9
$CLAYER
8
0
9
$CMLJUST
70
0
9
$CMLSCALE
40
1
9
$CMLSTYLE
2
Standard
9
$DIMSTYLE
2
Standard
9
$TEXTSIZE
40
0.2
9
$TEXTSTYLE
7
Standard
9
$LUNITS
70
2
9
$LUPREC
70
4
9
$EXTNAMES
290
1
9
$INSUNITS
70
4
9
$LTSCALE
40
1
9
$LWDISPLAY
290
1
9
$PDMODE
70
0
9
$PDSIZE
40
0
9
$PLINEGEN
70
0
0
ENDSEC
0
SECTION
2
CLASSES
0
CLASS
1
RASTERVARIABLES
2
AcDbRasterVariables
3
ISM
90
0
280
0
281
0
0
ENDSEC
0
SECTION
2
TABLES
0
TABLE
2
VPORT
5
259
100
AcDbSymbolTable
0
VPORT
5
1
100
AcDbSymbolTableRecord
100
AcDbViewportTableRecord
2
*Active
70
0
10
0
20
0
11
1
21
1
12
-1
22
1
13
0
23
0
14
0.5
24
0.5
15
10
25
10
16
0
26
0
36
1
17
0
27
0
37
0
0
ENDTAB
0
TABLE
2
LTYPE
5
25a
100
AcDbSymbolTable
0
LTYPE
5
14
100
AcDbSymbolTableRecord
100
AcDbLinetypeTableRecord
70
0
2
ByBlock
3

72
65
73
0
40
0
0
LTYPE
5
15
100
AcDbSymbolTableRecord
100
AcDbLinetypeTableRecord
70
0
2
ByLayer
3

72
65
73
0
40
0
0
LTYPE
5
16
100
AcDbSymbolTableRecord
100
AcDbLinetypeTableRecord
70
0
2
Continuous
3
Solid line
72
65
73
0
40
0
0
LTYPE
5
6E
100
AcDbSymbolTableRecord
100
AcDbLinetypeTableRecord
70
0
2
CENTER
3
____ _ ____ _ ____ _ ____
72
65
73
4
40
47.5
49
22
74
0
49
-8.5
74
0
49
8.5
74
0
49
-8.5
74
0
0
LTYPE
5
6F
100
AcDbSymbolTableRecord
100
AcDbLinetypeTableRecord
70
0
2
DASHED
3
__ __ __ __ __ __ __ __ __
72
65
73
2
40
25.72
49
12.86
74
0
49
-12.86
74
0
0
ENDTAB
0
TABLE
2
LAYER
5
25b
100
AcDbSymbolTable
0
LAYER
5
10
100
AcDbSymbolTableRecord
100
AcDbLayerTableRecord
2
0
70
0
62
7
6
Continuous
290
1
370
-3
390
0
0
LAYER
5
71
100
AcDbSymbolTableRecord
100
AcDbLayerTableRecord
2
80
70
0
62
-6
6
Continuous
290
1
370
-3
390
0
0
LAYER
5
73
100
AcDbSymbolTableRecord
100
AcDbLayerTableRecord
2
81
70
0
62
-3
6
Continuous
290
1
370
-3
390
0
0
LAYER
5
75
100
AcDbSymbolTableRecord
100
AcDbLayerTableRecord
2
1
70
0
62
4
6
Continuous
290
1
370
-3
390
0
0
LAYER
5
A6
100
AcDbSymbolTableRecord
100
AcDbLayerTableRecord
2
4
70
0
62
-2
6
CENTER
290
1
370
-3
390
0
0
LAYER
5
11D
100
AcDbSymbolTableRecord
100
AcDbLayerTableRecord
2
Defpoints
70
0
62
7
6
Continuous
290
0
370
-3
390
0
0
LAYER
5
14A
100
AcDbSymbolTableRecord
100
AcDbLayerTableRecord
2
2
70
0
62
7
6
Continuous
290
1
370
-3
390
0
0
LAYER
5
245
100
AcDbSymbolTableRecord
100
AcDbLayerTableRecord
2
SK1
70
0
62
4
6
Continuous
290
1
370
-3
390
0
0
LAYER
5
246
100
AcDbSymbolTableRecord
100
AcDbLayerTableRecord
2
SK4
70
0
62
2
6
CENTER
290
1
370
-3
390
0
0
LAYER
5
247
100
AcDbSymbolTableRecord
100
AcDbLayerTableRecord
2
SK2
70
0
62
7
6
Continuous
290
1
370
-3
390
0
0
LAYER
5
248
100
AcDbSymbolTableRecord
100
AcDbLayerTableRecord
2
SK6
70
0
62
5
6
Continuous
290
1
370
-3
390
0
0
ENDTAB
0
TABLE
2
STYLE
5
25c
100
AcDbSymbolTable
0
STYLE
5
11
100
AcDbSymbolTableRecord
100
AcDbTextStyleTableRecord
2
Standard
3
txt
70
0
71
0
40
0
41
1
42
0
50
0
0
STYLE
5
10E
100
AcDbSymbolTableRecord
100
AcDbTextStyleTableRecord
2
iso_b_vert
3
simplex.shx
70
0
71
0
40
0
41
1
42
0
50
0
0
STYLE
5
10F
100
AcDbSymbolTableRecord
100
AcDbTextStyleTableRecord
2
DWGDirectTextStyle
3
simplex
70
0
71
0
40
0
41
1
42
0
50
0
0
ENDTAB
0
TABLE
2
DIMSTYLE
5
25d
100
AcDbSymbolTable
100
AcDbDimStyleTable
0
DIMSTYLE
105
27
100
AcDbSymbolTableRecord
100
AcDbDimStyleTableRecord
2
Standard
70
0
3
<>
41
0.18
42
0.0625
44
0.18
140
0.18
147
0.09
73
0
74
0
77
1
271
2
275
0
278
52
280
0
340
11
0
ENDTAB
0
TABLE
2
VIEW
5
25e
100
AcDbSymbolTable
0
ENDTAB
0
TABLE
2
UCS
5
25f
100
AcDbSymbolTable
0
ENDTAB
0
TABLE
2
APPID
5
260
100
AcDbSymbolTable
0
APPID
5
12
100
AcDbSymbolTableRecord
100
AcDbRegAppTableRecord
2
ACAD
70
0
0
APPID
5
112
100
AcDbSymbolTableRecord
100
AcDbRegAppTableRecord
2
ACAD_DSTYLE_DIMBREAK
70
0
0
APPID
5
204
100
AcDbSymbolTableRecord
100
AcDbRegAppTableRecord
2
ACAD_DSTYLE_DIM_LINETYPE
70
0
0
APPID
5
205
100
AcDbSymbolTableRecord
100
AcDbRegAppTableRecord
2
ACAD_DSTYLE_DIM_EXT1_LINETYPE
70
0
0
APPID
5
206
100
AcDbSymbolTableRecord
100
AcDbRegAppTableRecord
2
ACAD_DSTYLE_DIM_EXT2_LINETYPE
70
0
0
APPID
5
241
100
AcDbSymbolTableRecord
100
AcDbRegAppTableRecord
2
ACAD_MLEADERVER
70
0
0
ENDTAB
0
TABLE
2
BLOCK_RECORD
5
261
100
AcDbSymbolTable
0
BLOCK_RECORD
5
1F
100
AcDbSymbolTableRecord
100
AcDbBlockTableRecord
2
*Model_Space
340
0
70
0
0
BLOCK_RECORD
5
1B
100
AcDbSymbolTableRecord
100
AcDbBlockTableRecord
2
*Paper_Space
340
0
70
0
0
BLOCK_RECORD
5
23
100
AcDbSymbolTableRecord
100
AcDbBlockTableRecord
2
*Paper_Space0
340
0
70
0
0
BLOCK_RECORD
5
114
100
AcDbSymbolTableRecord
100
AcDbBlockTableRecord
2
_Closed
340
0
70
0
0
BLOCK_RECORD
5
11E
100
AcDbSymbolTableRecord
100
AcDbBlockTableRecord
2
*D2
340
0
70
0
0
BLOCK_RECORD
5
12A
100
AcDbSymbolTableRecord
100
AcDbBlockTableRecord
2
_U0
340
0
70
0
0
BLOCK_RECORD
5
13C
100
AcDbSymbolTableRecord
100
AcDbBlockTableRecord
2
*D4
340
0
70
0
0
BLOCK_RECORD
5
14B
100
AcDbSymbolTableRecord
100
AcDbBlockTableRecord
2
_U1
340
0
70
0
0
BLOCK_RECORD
5
15B
100
AcDbSymbolTableRecord
100
AcDbBlockTableRecord
2
*D6
340
0
70
0
0
BLOCK_RECORD
5
169
100
AcDbSymbolTableRecord
100
AcDbBlockTableRecord
2
_U2
340
0
70
0
0
BLOCK_RECORD
5
179
100
AcDbSymbolTableRecord
100
AcDbBlockTableRecord
2
*D8
340
0
70
0
0
BLOCK_RECORD
5
185
100
AcDbSymbolTableRecord
100
AcDbBlockTableRecord
2
_U3
340
0
70
0
0
BLOCK_RECORD
5
195
100
AcDbSymbolTableRecord
100
AcDbBlockTableRecord
2
*D10
340
0
70
0
0
BLOCK_RECORD
5
1A1
100
AcDbSymbolTableRecord
100
AcDbBlockTableRecord
2
_U4
340
0
70
0
0
BLOCK_RECORD
5
1B1
100
AcDbSymbolTableRecord
100
AcDbBlockTableRecord
2
*D12
340
0
70
0
0
BLOCK_RECORD
5
1BD
100
AcDbSymbolTableRecord
100
AcDbBlockTableRecord
2
_U5
340
0
70
0
0
BLOCK_RECORD
5
1CD
100
AcDbSymbolTableRecord
100
AcDbBlockTableRecord
2
*D14
340
0
70
0
0
BLOCK_RECORD
5
1D9
100
AcDbSymbolTableRecord
100
AcDbBlockTableRecord
2
_U6
340
0
70
0
0
ENDTAB
0
ENDSEC
0
SECTION
2
BLOCKS
0
BLOCK
5
20
100
AcDbEntity
8
0
100
AcDbBlockBegin
2
*Model_Space
70
0
10
0
20
0
30
0
3
*Model_Space
0
ENDBLK
5
21
100
AcDbEntity
8
0
100
AcDbBlockEnd
0
BLOCK
5
1C
100
AcDbEntity
8
0
100
AcDbBlockBegin
2
*Paper_Space
70
0
10
0
20
0
30
0
3
*Paper_Space
0
ENDBLK
5
1D
100
AcDbEntity
8
0
100
AcDbBlockEnd
0
BLOCK
5
24
100
AcDbEntity
8
0
100
AcDbBlockBegin
2
*Paper_Space0
70
0
10
0
20
0
30
0
3
*Paper_Space0
0
ENDBLK
5
25
100
AcDbEntity
8
0
100
AcDbBlockEnd
0
BLOCK
5
115
100
AcDbEntity
8
0
100
AcDbBlockBegin
2
_Closed
70
0
10
0
20
0
30
0
3
_Closed
0
LINE
5
117
100
AcDbEntity
8
0
62
256
6
ByLayer
370
-2
48
1
60
0
100
AcDbLine
10
-1
20
0.166667
30
0
11
0
21
0
31
0
39
0
210
0
220
0
230
1
0
LINE
5
118
100
AcDbEntity
8
0
62
256
6
ByLayer
370
-2
48
1
60
0
100
AcDbLine
10
0
20
0
30
0
11
-1
21
-0.166667
31
0
39
0
210
0
220
0
230
1
0
LINE
5
119
100
AcDbEntity
8
0
62
256
6
ByLayer
370
-2
48
1
60
0
100
AcDbLine
10
-1
20
0.166667
30
0
11
-1
21
-0.166667
31
0
39
0
210
0
220
0
230
1
0
LINE
5
11A
100
AcDbEntity
8
0
62
256
6
ByLayer
370
-2
48
1
60
0
100
AcDbLine
10
0
20
0
30
0
11
-1
21
0
31
0
39
0
210
0
220
0
230
1
0
ENDBLK
5
116
100
AcDbEntity
8
0
100
AcDbBlockEnd
0
BLOCK
5
11F
100
AcDbEntity
8
0
100
AcDbBlockBegin
2
*D2
70
1
10
0
20
0
30
0
3
*D2
0
LINE
5
121
100
AcDbEntity
8
0
62
256
6
ByLayer
370
-2
48
1
60
0
100
AcDbLine
10
0
20
-4.5875
30
0
11
0
21
-29.67512
31
0
39
0
210
0
220
0
230
1
0
LINE
5
122
100
AcDbEntity
8
0
62
256
6
ByLayer
370
-2
48
1
60
0
100
AcDbLine
10
46
20
-1.5875
30
0
11
46
21
-29.67512
31
0
39
0
210
0
220
0
230
1
0
LINE
5
123
100
AcDbEntity
8
0
62
256
6
ByLayer
370
-2
48
1
60
0
100
AcDbLine
10
3.175
20
-26.50012
30
0
11
42.825
21
-26.50012
31
0
39
0
210
0
220
0
230
1
0
SOLID
5
124
100
AcDbEntity
8
0
62
256
6
ByLayer
370
-1
48
1
60
0
100
AcDbTrace
10
3.175
20
-25.970953
30
0
11
3.175
21
-27.029287
31
0
12
0
22
-26.50012
32
0
13
0
23
-26.50012
33
0
39
0
210
0
220
0
230
1
0
SOLID
5
125
100
AcDbEntity
8
0
62
256
6
ByLayer
370
-1
48
1
60
0
100
AcDbTrace
10
42.825
20
-27.029287
30
0
11
42.825
21
-25.970953
31
0
12
46
22
-26.50012
32
0
13
46
23
-26.50012
33
0
39
0
210
0
220
0
230
1
0
MTEXT
5
126
100
AcDbEntity
8
0
62
256
6
ByLayer
370
18
48
1
60
0
100
AcDbMText
10
23
20
-19.193619
30
0
210
0
220
0
230
1
1
\A1;46
40
3.50012
41
0
44
1
50
0
71
5
72
5
7
iso_b_vert
0
POINT
5
127
100
AcDbEntity
8
Defpoints
62
0
6
ByLayer
370
-1
48
1
60
0
100
AcDbPoint
10
0
20
-3
30
0
39
0
210
0
220
0
230
1
50
360
0
POINT
5
128
100
AcDbEntity
8
Defpoints
62
0
6
ByLayer
370
-1
48
1
60
0
100
AcDbPoint
10
46
20
0
30
0
39
0
210
0
220
0
230
1
50
360
0
POINT
5
129
100
AcDbEntity
8
Defpoints
62
0
6
ByLayer
370
-1
48
1
60
0
100
AcDbPoint
10
46
20
-26.50012
30
0
39
0
210
0
220
0
230
1
50
360
0
ENDBLK
5
120
100
AcDbEntity
8
0
100
AcDbBlockEnd
0
BLOCK
5
137
100
AcDbEntity
8
0
100
AcDbBlockBegin
2
_U0
70
0
10
0
20
0
30
0
3
_U0
0
MTEXT
5
12B
100
AcDbEntity
8
SK2
62
256
6
ByLayer
370
18
48
1
60
0
100
AcDbMText
10
17.586116
20
-25.467451
30
0
210
0
220
0
230
1
1
\W0.7694;46.00
40
3.50012
41
0
44
1.084337
50
0
71
7
72
5
7
iso_b_vert
0
MTEXT
5
12C
100
AcDbEntity
8
SK2
62
256
6
ByLayer
370
18
48
1
60
0
100
AcDbMText
10
14.060056
20
-25.400814
30
0
210
0
220
0
230
1
1
\W0.1790;(
40
3.175
41
0
44
1.084337
50
0
71
7
72
5
7
iso_b_vert
0
MTEXT
5
12D
100
AcDbEntity
8
SK2
62
256
6
ByLayer
370
18
48
1
60
0
100
AcDbMText
10
31.942666
20
-25.400814
30
0
210
0
220
0
230
1
1
\W0.1969;)
40
3.175
41
0
44
1.084337
50
0
71
7
72
5
7
iso_b_vert
0
LINE
5
12E
100
AcDbEntity
8
SK2
62
256
6
ByLayer
370
13
48
1
60
0
100
AcDbLine
10
0
20
-4.5875
30
0
11
0
21
-29.67512
31
0
39
0
210
0
220
0
230
1
0
LINE
5
12F
100
AcDbEntity
8
SK2
62
256
6
ByLayer
370
13
48
1
60
0
100
AcDbLine
10
46
20
-1.5875
30
0
11
46
21
-29.67512
31
0
39
0
210
0
220
0
230
1
0
LINE
5
130
100
AcDbEntity
8
SK2
62
256
6
ByLayer
370
13
48
1
60
0
100
AcDbLine
10
0
20
-26.50012
30
0
11
46
21
-26.50012
31
0
39
0
210
0
220
0
230
1
0
LINE
5
131
100
AcDbEntity
8
SK2
62
256
6
ByLayer
370
13
48
1
60
0
100
AcDbLine
10
0
20
-26.50012
30
0
11
3.174998
21
-26.082123
31
0
39
0
210
0
220
0
230
1
0
LINE
5
132
100
AcDbEntity
8
SK2
62
256
6
ByLayer
370
13
48
1
60
0
100
AcDbLine
10
0
20
-26.50012
30
0
11
3.175002
21
-26.918117
31
0
39
0
210
0
220
0
230
1
0
LINE
5
133
100
AcDbEntity
8
SK2
62
256
6
ByLayer
370
13
48
1
60
0
100
AcDbLine
10
3.174998
20
-26.082123
30
0
11
3.175002
21
-26.918117
31
0
39
0
210
0
220
0
230
1
0
LINE
5
134
100
AcDbEntity
8
SK2
62
256
6
ByLayer
370
13
48
1
60
0
100
AcDbLine
10
46
20
-26.50012
30
0
11
42.825002
21
-26.918117
31
0
39
0
210
0
220
0
230
1
0
LINE
5
135
100
AcDbEntity
8
SK2
62
256
6
ByLayer
370
13
48
1
60
0
100
AcDbLine
10
46
20
-26.50012
30
0
11
42.824998
21
-26.082123
31
0
39
0
210
0
220
0
230
1
0
LINE
5
136
100
AcDbEntity
8
SK2
62
256
6
ByLayer
370
13
48
1
60
0
100
AcDbLine
10
42.825002
20
-26.918117
30
0
11
42.824998
21
-26.082123
31
0
39
0
210
0
220
0
230
1
0
ENDBLK
5
138
100
AcDbEntity
8
0
100
AcDbBlockEnd
0
BLOCK
5
13D
100
AcDbEntity
8
0
100
AcDbBlockBegin
2
*D4
70
1
10
0
20
0
30
0
3
*D4
0
LINE
5
13F
100
AcDbEntity
8
0
62
256
6
ByLayer
370
-2
48
1
60
0
100
AcDbLine
10
46.4956
20
-3
30
0
11
55.92506
21
-3
31
0
39
0
210
0
220
0
230
1
0
LINE
5
140
100
AcDbEntity
8
0
62
256
6
ByLayer
370
-2
48
1
60
0
100
AcDbLine
10
46.4956
20
3
30
0
11
55.92506
21
3
31
0
39
0
210
0
220
0
230
1
0
LINE
5
141
100
AcDbEntity
8
0
62
256
6
ByLayer
370
-2
48
1
60
0
100
AcDbLine
10
52.75006
20
3
30
0
11
52.75006
21
22.629622
31
0
39
0
210
0
220
0
230
1
0
LINE
5
142
100
AcDbEntity
8
0
62
256
6
ByLayer
370
-2
48
1
60
0
100
AcDbLine
10
52.75006
20
-6.175
30
0
11
52.75006
21
-9.35
31
0
39
0
210
0
220
0
230
1
0
LINE
5
143
100
AcDbEntity
8
0
62
256
6
ByLayer
370
-2
48
1
60
0
100
AcDbLine
10
52.75006
20
6.175
30
0
11
52.75006
21
9.35
31
0
39
0
210
0
220
0
230
1
0
SOLID
5
144
100
AcDbEntity
8
0
62
256
6
ByLayer
370
-1
48
1
60
0
100
AcDbTrace
10
53.279227
20
-6.175
30
0
11
52.220893
21
-6.175
31
0
12
52.75006
22
-3
32
0
13
52.75006
23
-3
33
0
39
0
210
0
220
0
230
1
0
SOLID
5
145
100
AcDbEntity
8
0
62
256
6
ByLayer
370
-1
48
1
60
0
100
AcDbTrace
10
52.220893
20
6.175
30
0
11
53.279227
21
6.175
31
0
12
52.75006
22
3
32
0
13
52.75006
23
3
33
0
39
0
210
0
220
0
230
1
0
MTEXT
5
146
100
AcDbEntity
8
0
62
256
6
ByLayer
370
18
48
1
60
0
100
AcDbMText
10
45.443559
20
15.989811
30
0
210
0
220
0
230
1
1
\A1;6
40
3.50012
41
0
44
1
50
90
71
5
72
5
7
iso_b_vert
0
POINT
5
147
100
AcDbEntity
8
Defpoints
62
0
6
ByLayer
370
-1
48
1
60
0
100
AcDbPoint
10
44.9081
20
-3
30
0
39
0
210
0
220
0
230
1
50
360
0
POINT
5
148
100
AcDbEntity
8
Defpoints
62
0
6
ByLayer
370
-1
48
1
60
0
100
AcDbPoint
10
44.9081
20
3
30
0
39
0
210
0
220
0
230
1
50
360
0
POINT
5
149
100
AcDbEntity
8
Defpoints
62
0
6
ByLayer
370
-1
48
1
60
0
100
AcDbPoint
10
52.75006
20
3
30
0
39
0
210
0
220
0
230
1
50
360
0
ENDBLK
5
13E
100
AcDbEntity
8
0
100
AcDbBlockEnd
0
BLOCK
5
156
100
AcDbEntity
8
0
100
AcDbBlockBegin
2
_U1
70
0
10
0
20
0
30
0
3
_U1
0
MTEXT
5
14C
100
AcDbEntity
8
2
62
256
6
ByLayer
370
18
48
1
60
0
100
AcDbMText
10
52.060403
20
7.157505
30
0
210
0
220
0
230
1
1
\W0.7346;6.00
40
3.50012
41
0
44
1.084337
50
90
71
7
72
5
7
iso_b_vert
0
LINE
5
14D
100
AcDbEntity
8
2
62
256
6
ByLayer
370
13
48
1
60
0
100
AcDbLine
10
46.4956
20
-3
30
0
11
55.92506
21
-3
31
0
39
0
210
0
220
0
230
1
0
LINE
5
14E
100
AcDbEntity
8
2
62
256
6
ByLayer
370
13
48
1
60
0
100
AcDbLine
10
46.4956
20
3
30
0
11
55.92506
21
3
31
0
39
0
210
0
220
0
230
1
0
LINE
5
14F
100
AcDbEntity
8
2
62
256
6
ByLayer
370
13
48
1
60
0
100
AcDbLine
10
52.75006
20
15.21468
30
0
11
52.75006
21
-11.7503
31
0
39
0
210
0
220
0
230
1
0
LINE
5
150
100
AcDbEntity
8
2
62
256
6
ByLayer
370
13
48
1
60
0
100
AcDbLine
10
52.75006
20
-3
30
0
11
53.168057
21
-6.174998
31
0
39
0
210
0
220
0
230
1
0
LINE
5
151
100
AcDbEntity
8
2
62
256
6
ByLayer
370
13
48
1
60
0
100
AcDbLine
10
52.75006
20
-3
30
0
11
52.332063
21
-6.175002
31
0
39
0
210
0
220
0
230
1
0
LINE
5
152
100
AcDbEntity
8
2
62
256
6
ByLayer
370
13
48
1
60
0
100
AcDbLine
10
53.168057
20
-6.174998
30
0
11
52.332063
21
-6.175002
31
0
39
0
210
0
220
0
230
1
0
LINE
5
153
100
AcDbEntity
8
2
62
256
6
ByLayer
370
13
48
1
60
0
100
AcDbLine
10
52.75006
20
3
30
0
11
52.332063
21
6.174998
31
0
39
0
210
0
220
0
230
1
0
LINE
5
154
100
AcDbEntity
8
2
62
256
6
ByLayer
370
13
48
1
60
0
100
AcDbLine
10
52.75006
20
3
30
0
11
53.168057
21
6.175002
31
0
39
0
210
0
220
0
230
1
0
LINE
5
155
100
AcDbEntity
8
2
62
256
6
ByLayer
370
13
48
1
60
0
100
AcDbLine
10
52.332063
20
6.174998
30
0
11
53.168057
21
6.175002
31
0
39
0
210
0
220
0
230
1
0
ENDBLK
5
157
100
AcDbEntity
8
0
100
AcDbBlockEnd
0
BLOCK
5
15C
100
AcDbEntity
8
0
100
AcDbBlockBegin
2
*D6
70
1
10
0
20
0
30
0
3
*D6
0
LINE
5
15E
100
AcDbEntity
8
0
62
256
6
ByLayer
370
-2
48
1
60
0
100
AcDbLine
10
-37.5875
20
3
30
0
11
-42.42494
21
3
31
0
39
0
210
0
220
0
230
1
0
LINE
5
15F
100
AcDbEntity
8
0
62
256
6
ByLayer
370
-2
48
1
60
0
100
AcDbLine
10
-37.5875
20
-3
30
0
11
-42.42494
21
-3
31
0
39
0
210
0
220
0
230
1
0
LINE
5
160
100
AcDbEntity
8
0
62
256
6
ByLayer
370
-2
48
1
60
0
100
AcDbLine
10
-39.24994
20
3
30
0
11
-39.24994
21
23.747151
31
0
39
0
210
0
220
0
230
1
0
LINE
5
161
100
AcDbEntity
8
0
62
256
6
ByLayer
370
-2
48
1
60
0
100
AcDbLine
10
-39.24994
20
6.175
30
0
11
-39.24994
21
9.35
31
0
39
0
210
0
220
0
230
1
0
LINE
5
162
100
AcDbEntity
8
0
62
256
6
ByLayer
370
-2
48
1
60
0
100
AcDbLine
10
-39.24994
20
-6.175
30
0
11
-39.24994
21
-9.35
31
0
39
0
210
0
220
0
230
1
0
SOLID
5
163
100
AcDbEntity
8
0
62
256
6
ByLayer
370
-1
48
1
60
0
100
AcDbTrace
10
-39.779107
20
6.175
30
0
11
-38.720773
21
6.175
31
0
12
-39.24994
22
3
32
0
13
-39.24994
23
3
33
0
39
0
210
0
220
0
230
1
0
SOLID
5
164
100
AcDbEntity
8
0
62
256
6
ByLayer
370
-1
48
1
60
0
100
AcDbTrace
10
-38.720773
20
-6.175
30
0
11
-39.779107
21
-6.175
31
0
12
-39.24994
22
-3
32
0
13
-39.24994
23
-3
33
0
39
0
210
0
220
0
230
1
0
MTEXT
5
165
100
AcDbEntity
8
0
62
256
6
ByLayer
370
18
48
1
60
0
100
AcDbMText
10
-46.556441
20
17.10734
30
0
210
0
220
0
230
1
1
\A1;6
40
3.50012
41
0
44
1
50
90
71
5
72
5
7
iso_b_vert
0
POINT
5
166
100
AcDbEntity
8
Defpoints
62
0
6
ByLayer
370
-1
48
1
60
0
100
AcDbPoint
10
-36
20
3
30
0
39
0
210
0
220
0
230
1
50
360
0
POINT
5
167
100
AcDbEntity
8
Defpoints
62
0
6
ByLayer
370
-1
48
1
60
0
100
AcDbPoint
10
-36
20
-3
30
0
39
0
210
0
220
0
230
1
50
360
0
POINT
5
168
100
AcDbEntity
8
Defpoints
62
0
6
ByLayer
370
-1
48
1
60
0
100
AcDbPoint
10
-39.24994
20
-3
30
0
39
0
210
0
220
0
230
1
50
360
0
ENDBLK
5
15D
100
AcDbEntity
8
0
100
AcDbBlockEnd
0
BLOCK
5
174
100
AcDbEntity
8
0
100
AcDbBlockBegin
2
_U2
70
0
10
0
20
0
30
0
3
_U2
0
MTEXT
5
16A
100
AcDbEntity
8
SK2
62
256
6
ByLayer
370
18
48
1
60
0
100
AcDbMText
10
-39.939597
20
13.157505
30
0
210
0
220
0
230
1
1
\W0.7346;6.00
40
3.50012
41
0
44
1.084337
50
90
71
7
72
5
7
iso_b_vert
0
LINE
5
16B
100
AcDbEntity
8
SK2
62
256
6
ByLayer
370
13
48
1
60
0
100
AcDbLine
10
-37.5875
20
3
30
0
11
-42.42494
21
3
31
0
39
0
210
0
220
0
230
1
0
LINE
5
16C
100
AcDbEntity
8
SK2
62
256
6
ByLayer
370
13
48
1
60
0
100
AcDbLine
10
-37.5875
20
-3
30
0
11
-42.42494
21
-3
31
0
39
0
210
0
220
0
230
1
0
LINE
5
16D
100
AcDbEntity
8
SK2
62
256
6
ByLayer
370
13
48
1
60
0
100
AcDbLine
10
-39.24994
20
-11.7503
30
0
11
-39.24994
21
21.21468
31
0
39
0
210
0
220
0
230
1
0
LINE
5
16E
100
AcDbEntity
8
SK2
62
256
6
ByLayer
370
13
48
1
60
0
100
AcDbLine
10
-39.24994
20
3
30
0
11
-39.667937
21
6.174998
31
0
39
0
210
0
220
0
230
1
0
LINE
5
16F
100
AcDbEntity
8
SK2
62
256
6
ByLayer
370
13
48
1
60
0
100
AcDbLine
10
-39.24994
20
3
30
0
11
-38.831943
21
6.175002
31
0
39
0
210
0
220
0
230
1
0
LINE
5
170
100
AcDbEntity
8
SK2
62
256
6
ByLayer
370
13
48
1
60
0
100
AcDbLine
10
-39.667937
20
6.174998
30
0
11
-38.831943
21
6.175002
31
0
39
0
210
0
220
0
230
1
0
LINE
5
171
100
AcDbEntity
8
SK2
62
256
6
ByLayer
370
13
48
1
60
0
100
AcDbLine
10
-39.24994
20
-3
30
0
11
-38.831943
21
-6.174998
31
0
39
0
210
0
220
0
230
1
0
LINE
5
172
100
AcDbEntity
8
SK2
62
256
6
ByLayer
370
13
48
1
60
0
100
AcDbLine
10
-39.24994
20
-3
30
0
11
-39.667937
21
-6.175002
31
0
39
0
210
0
220
0
230
1
0
LINE
5
173
100
AcDbEntity
8
SK2
62
256
6
ByLayer
370
13
48
1
60
0
100
AcDbLine
10
-38.831943
20
-6.174998
30
0
11
-39.667937
21
-6.175002
31
0
39
0
210
0
220
0
230
1
0
ENDBLK
5
175
100
AcDbEntity
8
0
100
AcDbBlockEnd
0
BLOCK
5
17A
100
AcDbEntity
8
0
100
AcDbBlockBegin
2
*D8
70
1
10
0
20
0
30
0
3
*D8
0
LINE
5
17C
100
AcDbEntity
8
0
62
256
6
ByLayer
370
-2
48
1
60
0
100
AcDbLine
10
-36
20
-4.5875
30
0
11
-36
21
-29.67512
31
0
39
0
210
0
220
0
230
1
0
LINE
5
17D
100
AcDbEntity
8
0
62
256
6
ByLayer
370
-2
48
1
60
0
100
AcDbLine
10
0
20
-4.5875
30
0
11
0
21
-29.67512
31
0
39
0
210
0
220
0
230
1
0
LINE
5
17E
100
AcDbEntity
8
0
62
256
6
ByLayer
370
-2
48
1
60
0
100
AcDbLine
10
-32.825
20
-26.50012
30
0
11
-3.175
21
-26.50012
31
0
39
0
210
0
220
0
230
1
0
SOLID
5
17F
100
AcDbEntity
8
0
62
256
6
ByLayer
370
-1
48
1
60
0
100
AcDbTrace
10
-32.825
20
-25.970953
30
0
11
-32.825
21
-27.029287
31
0
12
-36
22
-26.50012
32
0
13
-36
23
-26.50012
33
0
39
0
210
0
220
0
230
1
0
SOLID
5
180
100
AcDbEntity
8
0
62
256
6
ByLayer
370
-1
48
1
60
0
100
AcDbTrace
10
-3.175
20
-27.029287
30
0
11
-3.175
21
-25.970953
31
0
12
0
22
-26.50012
32
0
13
0
23
-26.50012
33
0
39
0
210
0
220
0
230
1
0
MTEXT
5
181
100
AcDbEntity
8
0
62
256
6
ByLayer
370
18
48
1
60
0
100
AcDbMText
10
-18
20
-19.193619
30
0
210
0
220
0
230
1
1
\A1;36
40
3.50012
41
0
44
1
50
0
71
5
72
5
7
iso_b_vert
0
POINT
5
182
100
AcDbEntity
8
Defpoints
62
0
6
ByLayer
370
-1
48
1
60
0
100
AcDbPoint
10
-36
20
-3
30
0
39
0
210
0
220
0
230
1
50
360
0
POINT
5
183
100
AcDbEntity
8
Defpoints
62
0
6
ByLayer
370
-1
48
1
60
0
100
AcDbPoint
10
0
20
-3
30
0
39
0
210
0
220
0
230
1
50
360
0
POINT
5
184
100
AcDbEntity
8
Defpoints
62
0
6
ByLayer
370
-1
48
1
60
0
100
AcDbPoint
10
0
20
-26.50012
30
0
39
0
210
0
220
0
230
1
50
360
0
ENDBLK
5
17B
100
AcDbEntity
8
0
100
AcDbBlockEnd
0
BLOCK
5
190
100
AcDbEntity
8
0
100
AcDbBlockBegin
2
_U3
70
0
10
0
20
0
30
0
3
_U3
0
MTEXT
5
186
100
AcDbEntity
8
SK2
62
256
6
ByLayer
370
18
48
1
60
0
100
AcDbMText
10
-23.229611
20
-25.467451
30
0
210
0
220
0
230
1
1
\W0.7468;36.00
40
3.50012
41
0
44
1.084337
50
0
71
7
72
5
7
iso_b_vert
0
LINE
5
187
100
AcDbEntity
8
SK2
62
256
6
ByLayer
370
13
48
1
60
0
100
AcDbLine
10
-36
20
-4.5875
30
0
11
-36
21
-29.67512
31
0
39
0
210
0
220
0
230
1
0
LINE
5
188
100
AcDbEntity
8
SK2
62
256
6
ByLayer
370
13
48
1
60
0
100
AcDbLine
10
0
20
-4.5875
30
0
11
0
21
-29.67512
31
0
39
0
210
0
220
0
230
1
0
LINE
5
189
100
AcDbEntity
8
SK2
62
256
6
ByLayer
370
13
48
1
60
0
100
AcDbLine
10
-36
20
-26.50012
30
0
11
0
21
-26.50012
31
0
39
0
210
0
220
0
230
1
0
LINE
5
18A
100
AcDbEntity
8
SK2
62
256
6
ByLayer
370
13
48
1
60
0
100
AcDbLine
10
-36
20
-26.50012
30
0
11
-32.825002
21
-26.082123
31
0
39
0
210
0
220
0
230
1
0
LINE
5
18B
100
AcDbEntity
8
SK2
62
256
6
ByLayer
370
13
48
1
60
0
100
AcDbLine
10
-36
20
-26.50012
30
0
11
-32.824998
21
-26.918117
31
0
39
0
210
0
220
0
230
1
0
LINE
5
18C
100
AcDbEntity
8
SK2
62
256
6
ByLayer
370
13
48
1
60
0
100
AcDbLine
10
-32.825002
20
-26.082123
30
0
11
-32.824998
21
-26.918117
31
0
39
0
210
0
220
0
230
1
0
LINE
5
18D
100
AcDbEntity
8
SK2
62
256
6
ByLayer
370
13
48
1
60
0
100
AcDbLine
10
0
20
-26.50012
30
0
11
-3.174998
21
-26.918117
31
0
39
0
210
0
220
0
230
1
0
LINE
5
18E
100
AcDbEntity
8
SK2
62
256
6
ByLayer
370
13
48
1
60
0
100
AcDbLine
10
0
20
-26.50012
30
0
11
-3.175002
21
-26.082123
31
0
39
0
210
0
220
0
230
1
0
LINE
5
18F
100
AcDbEntity
8
SK2
62
256
6
ByLayer
370
13
48
1
60
0
100
AcDbLine
10
-3.174998
20
-26.918117
30
0
11
-3.175002
21
-26.082123
31
0
39
0
210
0
220
0
230
1
0
ENDBLK
5
191
100
AcDbEntity
8
0
100
AcDbBlockEnd
0
BLOCK
5
196
100
AcDbEntity
8
0
100
AcDbBlockBegin
2
*D10
70
1
10
0
20
0
30
0
3
*D10
0
LINE
5
198
100
AcDbEntity
8
0
62
256
6
ByLayer
370
-2
48
1
60
0
100
AcDbLine
10
2
20
1.9125
30
0
11
2
21
-20.92482
31
0
39
0
210
0
220
0
230
1
0
LINE
5
199
100
AcDbEntity
8
0
62
256
6
ByLayer
370
-2
48
1
60
0
100
AcDbLine
10
46
20
-1.5875
30
0
11
46
21
-20.92482
31
0
39
0
210
0
220
0
230
1
0
LINE
5
19A
100
AcDbEntity
8
0
62
256
6
ByLayer
370
-2
48
1
60
0
100
AcDbLine
10
5.175
20
-17.74982
30
0
11
42.825
21
-17.74982
31
0
39
0
210
0
220
0
230
1
0
SOLID
5
19B
100
AcDbEntity
8
0
62
256
6
ByLayer
370
-1
48
1
60
0
100
AcDbTrace
10
5.175
20
-17.220653
30
0
11
5.175
21
-18.278987
31
0
12
2
22
-17.74982
32
0
13
2
23
-17.74982
33
0
39
0
210
0
220
0
230
1
0
SOLID
5
19C
100
AcDbEntity
8
0
62
256
6
ByLayer
370
-1
48
1
60
0
100
AcDbTrace
10
42.825
20
-18.278987
30
0
11
42.825
21
-17.220653
31
0
12
46
22
-17.74982
32
0
13
46
23
-17.74982
33
0
39
0
210
0
220
0
230
1
0
MTEXT
5
19D
100
AcDbEntity
8
0
62
256
6
ByLayer
370
18
48
1
60
0
100
AcDbMText
10
24
20
-10.443319
30
0
210
0
220
0
230
1
1
\A1;44
40
3.50012
41
0
44
1
50
0
71
5
72
5
7
iso_b_vert
0
POINT
5
19E
100
AcDbEntity
8
Defpoints
62
0
6
ByLayer
370
-1
48
1
60
0
100
AcDbPoint
10
2
20
3.5
30
0
39
0
210
0
220
0
230
1
50
360
0
POINT
5
19F
100
AcDbEntity
8
Defpoints
62
0
6
ByLayer
370
-1
48
1
60
0
100
AcDbPoint
10
46
20
0
30
0
39
0
210
0
220
0
230
1
50
360
0
POINT
5
1A0
100
AcDbEntity
8
Defpoints
62
0
6
ByLayer
370
-1
48
1
60
0
100
AcDbPoint
10
46
20
-17.74982
30
0
39
0
210
0
220
0
230
1
50
360
0
ENDBLK
5
197
100
AcDbEntity
8
0
100
AcDbBlockEnd
0
BLOCK
5
1AC
100
AcDbEntity
8
0
100
AcDbBlockBegin
2
_U4
70
0
10
0
20
0
30
0
3
_U4
0
MTEXT
5
1A2
100
AcDbEntity
8
SK2
62
256
6
ByLayer
370
18
48
1
60
0
100
AcDbMText
10
18.401842
20
-16.717151
30
0
210
0
220
0
230
1
1
\W0.7958;44.00
40
3.50012
41
0
44
1.084337
50
0
71
7
72
5
7
iso_b_vert
0
LINE
5
1A3
100
AcDbEntity
8
SK2
62
256
6
ByLayer
370
13
48
1
60
0
100
AcDbLine
10
2
20
1.9125
30
0
11
2
21
-20.92482
31
0
39
0
210
0
220
0
230
1
0
LINE
5
1A4
100
AcDbEntity
8
SK2
62
256
6
ByLayer
370
13
48
1
60
0
100
AcDbLine
10
46
20
-1.5875
30
0
11
46
21
-20.92482
31
0
39
0
210
0
220
0
230
1
0
LINE
5
1A5
100
AcDbEntity
8
SK2
62
256
6
ByLayer
370
13
48
1
60
0
100
AcDbLine
10
2
20
-17.74982
30
0
11
46
21
-17.74982
31
0
39
0
210
0
220
0
230
1
0
LINE
5
1A6
100
AcDbEntity
8
SK2
62
256
6
ByLayer
370
13
48
1
60
0
100
AcDbLine
10
2
20
-17.74982
30
0
11
5.174998
21
-17.331823
31
0
39
0
210
0
220
0
230
1
0
LINE
5
1A7
100
AcDbEntity
8
SK2
62
256
6
ByLayer
370
13
48
1
60
0
100
AcDbLine
10
2
20
-17.74982
30
0
11
5.175002
21
-18.167817
31
0
39
0
210
0
220
0
230
1
0
LINE
5
1A8
100
AcDbEntity
8
SK2
62
256
6
ByLayer
370
13
48
1
60
0
100
AcDbLine
10
5.174998
20
-17.331823
30
0
11
5.175002
21
-18.167817
31
0
39
0
210
0
220
0
230
1
0
LINE
5
1A9
100
AcDbEntity
8
SK2
62
256
6
ByLayer
370
13
48
1
60
0
100
AcDbLine
10
46
20
-17.74982
30
0
11
42.825002
21
-18.167817
31
0
39
0
210
0
220
0
230
1
0
LINE
5
1AA
100
AcDbEntity
8
SK2
62
256
6
ByLayer
370
13
48
1
60
0
100
AcDbLine
10
46
20
-17.74982
30
0
11
42.824998
21
-17.331823
31
0
39
0
210
0
220
0
230
1
0
LINE
5
1AB
100
AcDbEntity
8
SK2
62
256
6
ByLayer
370
13
48
1
60
0
100
AcDbLine
10
42.825002
20
-18.167817
30
0
11
42.824998
21
-17.331823
31
0
39
0
210
0
220
0
230
1
0
ENDBLK
5
1AD
100
AcDbEntity
8
0
100
AcDbBlockEnd
0
BLOCK
5
1B2
100
AcDbEntity
8
0
100
AcDbBlockBegin
2
*D12
70
1
10
0
20
0
30
0
3
*D12
0
LINE
5
1B4
100
AcDbEntity
8
0
62
256
6
ByLayer
370
-2
48
1
60
0
100
AcDbLine
10
15
20
-4.5875
30
0
11
15
21
-10.32
31
0
39
0
210
0
220
0
230
1
0
LINE
5
1B5
100
AcDbEntity
8
0
62
256
6
ByLayer
370
-2
48
1
60
0
100
AcDbLine
10
46
20
-1.5875
30
0
11
46
21
-10.32
31
0
39
0
210
0
220
0
230
1
0
LINE
5
1B6
100
AcDbEntity
8
0
62
256
6
ByLayer
370
-2
48
1
60
0
100
AcDbLine
10
18.175
20
-9.82
30
0
11
42.825
21
-9.82
31
0
39
0
210
0
220
0
230
1
0
SOLID
5
1B7
100
AcDbEntity
8
0
62
256
6
ByLayer
370
-1
48
1
60
0
100
AcDbTrace
10
18.175
20
-9.290833
30
0
11
18.175
21
-10.349167
31
0
12
15
22
-9.82
32
0
13
15
23
-9.82
33
0
39
0
210
0
220
0
230
1
0
SOLID
5
1B8
100
AcDbEntity
8
0
62
256
6
ByLayer
370
-1
48
1
60
0
100
AcDbTrace
10
42.825
20
-10.349167
30
0
11
42.825
21
-9.290833
31
0
12
46
22
-9.82
32
0
13
46
23
-9.82
33
0
39
0
210
0
220
0
230
1
0
MTEXT
5
1B9
100
AcDbEntity
8
0
62
256
6
ByLayer
370
18
48
1
60
0
100
AcDbMText
10
30.5
20
-3.975
30
0
210
0
220
0
230
1
1
\A1;31
40
2.8
41
0
44
1
50
0
71
5
72
5
7
iso_b_vert
0
POINT
5
1BA
100
AcDbEntity
8
Defpoints
62
0
6
ByLayer
370
-1
48
1
60
0
100
AcDbPoint
10
15
20
-3
30
0
39
0
210
0
220
0
230
1
50
360
0
POINT
5
1BB
100
AcDbEntity
8
Defpoints
62
0
6
ByLayer
370
-1
48
1
60
0
100
AcDbPoint
10
46
20
0
30
0
39
0
210
0
220
0
230
1
50
360
0
POINT
5
1BC
100
AcDbEntity
8
Defpoints
62
0
6
ByLayer
370
-1
48
1
60
0
100
AcDbPoint
10
46
20
-9.82
30
0
39
0
210
0
220
0
230
1
50
360
0
ENDBLK
5
1B3
100
AcDbEntity
8
0
100
AcDbBlockEnd
0
BLOCK
5
1C8
100
AcDbEntity
8
0
100
AcDbBlockBegin
2
_U5
70
0
10
0
20
0
30
0
3
_U5
0
MTEXT
5
1BE
100
AcDbEntity
8
SK2
62
256
6
ByLayer
370
18
48
1
60
0
100
AcDbMText
10
26.666401
20
-9.973893
30
0
210
0
220
0
230
1
1
\W0.6864;31.00
40
2.8
41
0
44
1.084337
50
0
71
7
72
5
7
iso_b_vert
0
LINE
5
1BF
100
AcDbEntity
8
SK2
62
256
6
ByLayer
370
13
48
1
60
0
100
AcDbLine
10
15
20
-4.5875
30
0
11
15
21
-10.32
31
0
39
0
210
0
220
0
230
1
0
LINE
5
1C0
100
AcDbEntity
8
SK2
62
256
6
ByLayer
370
13
48
1
60
0
100
AcDbLine
10
46
20
-1.5875
30
0
11
46
21
-10.32
31
0
39
0
210
0
220
0
230
1
0
LINE
5
1C1
100
AcDbEntity
8
SK2
62
256
6
ByLayer
370
13
48
1
60
0
100
AcDbLine
10
15
20
-9.82
30
0
11
46
21
-9.82
31
0
39
0
210
0
220
0
230
1
0
LINE
5
1C2
100
AcDbEntity
8
SK2
62
256
6
ByLayer
370
13
48
1
60
0
100
AcDbLine
10
15
20
-9.82
30
0
11
18.174998
21
-9.402003
31
0
39
0
210
0
220
0
230
1
0
LINE
5
1C3
100
AcDbEntity
8
SK2
62
256
6
ByLayer
370
13
48
1
60
0
100
AcDbLine
10
15
20
-9.82
30
0
11
18.175002
21
-10.237997
31
0
39
0
210
0
220
0
230
1
0
LINE
5
1C4
100
AcDbEntity
8
SK2
62
256
6
ByLayer
370
13
48
1
60
0
100
AcDbLine
10
18.174998
20
-9.402003
30
0
11
18.175002
21
-10.237997
31
0
39
0
210
0
220
0
230
1
0
LINE
5
1C5
100
AcDbEntity
8
SK2
62
256
6
ByLayer
370
13
48
1
60
0
100
AcDbLine
10
46
20
-9.82
30
0
11
42.825002
21
-10.237997
31
0
39
0
210
0
220
0
230
1
0
LINE
5
1C6
100
AcDbEntity
8
SK2
62
256
6
ByLayer
370
13
48
1
60
0
100
AcDbLine
10
46
20
-9.82
30
0
11
42.824998
21
-9.402003
31
0
39
0
210
0
220
0
230
1
0
LINE
5
1C7
100
AcDbEntity
8
SK2
62
256
6
ByLayer
370
13
48
1
60
0
100
AcDbLine
10
42.825002
20
-10.237997
30
0
11
42.824998
21
-9.402003
31
0
39
0
210
0
220
0
230
1
0
ENDBLK
5
1C9
100
AcDbEntity
8
0
100
AcDbBlockEnd
0
BLOCK
5
1CE
100
AcDbEntity
8
0
100
AcDbBlockBegin
2
*D14
70
1
10
0
20
0
30
0
3
*D14
0
LINE
5
1D0
100
AcDbEntity
8
0
62
256
6
ByLayer
370
-2
48
1
60
0
100
AcDbLine
10
-36
20
-1.5875
30
0
11
-36
21
-39.67512
31
0
39
0
210
0
220
0
230
1
0
LINE
5
1D1
100
AcDbEntity
8
0
62
256
6
ByLayer
370
-2
48
1
60
0
100
AcDbLine
10
46
20
-1.5875
30
0
11
46
21
-39.67512
31
0
39
0
210
0
220
0
230
1
0
LINE
5
1D2
100
AcDbEntity
8
0
62
256
6
ByLayer
370
-2
48
1
60
0
100
AcDbLine
10
-32.825
20
-36.50012
30
0
11
42.825
21
-36.50012
31
0
39
0
210
0
220
0
230
1
0
SOLID
5
1D3
100
AcDbEntity
8
0
62
256
6
ByLayer
370
-1
48
1
60
0
100
AcDbTrace
10
-32.825
20
-35.970953
30
0
11
-32.825
21
-37.029287
31
0
12
-36
22
-36.50012
32
0
13
-36
23
-36.50012
33
0
39
0
210
0
220
0
230
1
0
SOLID
5
1D4
100
AcDbEntity
8
0
62
256
6
ByLayer
370
-1
48
1
60
0
100
AcDbTrace
10
42.825
20
-37.029287
30
0
11
42.825
21
-35.970953
31
0
12
46
22
-36.50012
32
0
13
46
23
-36.50012
33
0
39
0
210
0
220
0
230
1
0
MTEXT
5
1D5
100
AcDbEntity
8
0
62
256
6
ByLayer
370
18
48
1
60
0
100
AcDbMText
10
5
20
-29.19362
30
0
210
0
220
0
230
1
1
\A1;82
40
3.50012
41
0
44
1
50
0
71
5
72
5
7
iso_b_vert
0
POINT
5
1D6
100
AcDbEntity
8
Defpoints
62
0
6
ByLayer
370
-1
48
1
60
0
100
AcDbPoint
10
-36
20
0
30
0
39
0
210
0
220
0
230
1
50
360
0
POINT
5
1D7
100
AcDbEntity
8
Defpoints
62
0
6
ByLayer
370
-1
48
1
60
0
100
AcDbPoint
10
46
20
0
30
0
39
0
210
0
220
0
230
1
50
360
0
POINT
5
1D8
100
AcDbEntity
8
Defpoints
62
0
6
ByLayer
370
-1
48
1
60
0
100
AcDbPoint
10
46
20
-36.50012
30
0
39
0
210
0
220
0
230
1
50
360
0
ENDBLK
5
1CF
100
AcDbEntity
8
0
100
AcDbBlockEnd
0
BLOCK
5
1E4
100
AcDbEntity
8
0
100
AcDbBlockBegin
2
_U6
70
0
10
0
20
0
30
0
3
_U6
0
MTEXT
5
1DA
100
AcDbEntity
8
SK2
62
256
6
ByLayer
370
18
48
1
60
0
100
AcDbMText
10
-0.229611
20
-35.467451
30
0
210
0
220
0
230
1
1
\W0.7468;82.00
40
3.50012
41
0
44
1.084337
50
0
71
7
72
5
7
iso_b_vert
0
LINE
5
1DB
100
AcDbEntity
8
SK2
62
256
6
ByLayer
370
13
48
1
60
0
100
AcDbLine
10
-36
20
-1.5875
30
0
11
-36
21
-39.67512
31
0
39
0
210
0
220
0
230
1
0
LINE
5
1DC
100
AcDbEntity
8
SK2
62
256
6
ByLayer
370
13
48
1
60
0
100
AcDbLine
10
46
20
-1.5875
30
0
11
46
21
-39.67512
31
0
39
0
210
0
220
0
230
1
0
LINE
5
1DD
100
AcDbEntity
8
SK2
62
256
6
ByLayer
370
13
48
1
60
0
100
AcDbLine
10
-36
20
-36.50012
30
0
11
46
21
-36.50012
31
0
39
0
210
0
220
0
230
1
0
LINE
5
1DE
100
AcDbEntity
8
SK2
62
256
6
ByLayer
370
13
48
1
60
0
100
AcDbLine
10
-36
20
-36.50012
30
0
11
-32.825002
21
-36.082123
31
0
39
0
210
0
220
0
230
1
0
LINE
5
1DF
100
AcDbEntity
8
SK2
62
256
6
ByLayer
370
13
48
1
60
0
100
AcDbLine
10
-36
20
-36.50012
30
0
11
-32.824998
21
-36.918117
31
0
39
0
210
0
220
0
230
1
0
LINE
5
1E0
100
AcDbEntity
8
SK2
62
256
6
ByLayer
370
13
48
1
60
0
100
AcDbLine
10
-32.825002
20
-36.082123
30
0
11
-32.824998
21
-36.918117
31
0
39
0
210
0
220
0
230
1
0
LINE
5
1E1
100
AcDbEntity
8
SK2
62
256
6
ByLayer
370
13
48
1
60
0
100
AcDbLine
10
46
20
-36.50012
30
0
11
42.825002
21
-36.918117
31
0
39
0
210
0
220
0
230
1
0
LINE
5
1E2
100
AcDbEntity
8
SK2
62
256
6
ByLayer
370
13
48
1
60
0
100
AcDbLine
10
46
20
-36.50012
30
0
11
42.824998
21
-36.082123
31
0
39
0
210
0
220
0
230
1
0
LINE
5
1E3
100
AcDbEntity
8
SK2
62
256
6
ByLayer
370
13
48
1
60
0
100
AcDbLine
10
42.825002
20
-36.918117
30
0
11
42.824998
21
-36.082123
31
0
39
0
210
0
220
0
230
1
0
ENDBLK
5
1E5
100
AcDbEntity
8
0
100
AcDbBlockEnd
0
ENDSEC
0
SECTION
2
ENTITIES
0
ARC
5
B2
100
AcDbEntity
8
SK2
62
256
6
ByLayer
370
13
48
1
60
0
100
AcDbCircle
39
0
10
46
20
0
30
0
40
20
210
0
220
0
230
1
100
AcDbArc
50
9.606349
51
70.00018
0
ARC
5
B3
100
AcDbEntity
8
SK2
62
256
6
ByLayer
370
13
48
1
60
0
100
AcDbCircle
39
0
10
46
20
0
30
0
40
20
210
0
220
0
230
1
100
AcDbArc
50
289.99982
51
350.393651
0
ELLIPSE
5
B4
100
AcDbEntity
8
1
62
256
6
ByLayer
370
18
48
1
60
0
100
AcDbEllipse
10
3.645654
20
2.833155
30
0
11
-0.000139722185411577
21
-0.00999902383790057
31
0
210
0
220
0
230
1
40
0.484146
41
0.0433393334851146
42
1.60808942322463
0
ELLIPSE
5
B5
100
AcDbEntity
8
1
62
256
6
ByLayer
370
18
48
1
60
0
100
AcDbEllipse
10
3.602721
20
2.833253
30
0
11
-6.99858740248309E-05
21
0.00999975509587295
31
0
210
0
220
0
230
1
40
0.007497
41
-3.10767563677936
42
-1.53595799508742
0
POINT
5
70
100
AcDbEntity
8
80
62
256
6
ByLayer
370
18
48
1
60
0
100
AcDbPoint
10
0
20
0
30
0
39
0
210
0
220
0
230
1
50
360
0
POINT
5
72
100
AcDbEntity
8
81
62
256
6
ByLayer
370
18
48
1
60
0
100
AcDbPoint
10
46
20
0
30
0
39
0
210
0
220
0
230
1
50
360
0
POINT
5
74
100
AcDbEntity
8
1
62
256
6
ByLayer
370
18
48
1
60
0
100
AcDbPoint
10
-36
20
0
30
0
39
0
210
0
220
0
230
1
50
360
0
POINT
5
76
100
AcDbEntity
8
1
62
256
6
ByLayer
370
18
48
1
60
1
100
AcDbPoint
10
0
20
-3
30
0
39
0
210
0
220
0
230
1
50
360
0
POINT
5
77
100
AcDbEntity
8
1
62
256
6
ByLayer
370
18
48
1
60
1
100
AcDbPoint
10
46
20
0
30
0
39
0
210
0
220
0
230
1
50
360
0
POINT
5
78
100
AcDbEntity
8
1
62
256
6
ByLayer
370
18
48
1
60
1
100
AcDbPoint
10
44.9081
20
-3
30
0
39
0
210
0
220
0
230
1
50
360
0
POINT
5
79
100
AcDbEntity
8
1
62
256
6
ByLayer
370
18
48
1
60
1
100
AcDbPoint
10
44.9081
20
3
30
0
39
0
210
0
220
0
230
1
50
360
0
POINT
5
7A
100
AcDbEntity
8
1
62
256
6
ByLayer
370
18
48
1
60
1
100
AcDbPoint
10
-36
20
3
30
0
39
0
210
0
220
0
230
1
50
360
0
POINT
5
7B
100
AcDbEntity
8
1
62
256
6
ByLayer
370
18
48
1
60
1
100
AcDbPoint
10
-36
20
-3
30
0
39
0
210
0
220
0
230
1
50
360
0
POINT
5
7C
100
AcDbEntity
8
1
62
256
6
ByLayer
370
18
48
1
60
1
100
AcDbPoint
10
-36
20
-3
30
0
39
0
210
0
220
0
230
1
50
360
0
POINT
5
7D
100
AcDbEntity
8
1
62
256
6
ByLayer
370
18
48
1
60
1
100
AcDbPoint
10
0
20
-3
30
0
39
0
210
0
220
0
230
1
50
360
0
POINT
5
7E
100
AcDbEntity
8
1
62
256
6
ByLayer
370
18
48
1
60
1
100
AcDbPoint
10
2
20
3.5
30
0
39
0
210
0
220
0
230
1
50
360
0
POINT
5
7F
100
AcDbEntity
8
1
62
256
6
ByLayer
370
18
48
1
60
1
100
AcDbPoint
10
46
20
0
30
0
39
0
210
0
220
0
230
1
50
360
0
POINT
5
80
100
AcDbEntity
8
1
62
256
6
ByLayer
370
18
48
1
60
1
100
AcDbPoint
10
15
20
-3
30
0
39
0
210
0
220
0
230
1
50
360
0
POINT
5
81
100
AcDbEntity
8
1
62
256
6
ByLayer
370
18
48
1
60
1
100
AcDbPoint
10
46
20
0
30
0
39
0
210
0
220
0
230
1
50
360
0
POINT
5
82
100
AcDbEntity
8
1
62
256
6
ByLayer
370
18
48
1
60
1
100
AcDbPoint
10
-36
20
0
30
0
39
0
210
0
220
0
230
1
50
360
0
POINT
5
83
100
AcDbEntity
8
1
62
256
6
ByLayer
370
18
48
1
60
1
100
AcDbPoint
10
46
20
0
30
0
39
0
210
0
220
0
230
1
50
360
0
SPLINE
5
B6
100
AcDbEntity
8
1
62
256
6
ByLayer
370
18
48
1
60
0
100
AcDbSpline
70
4
71
3
72
30
73
26
40
0
40
0
40
0
40
0
40
0.125000000000001
40
0.125000000000001
40
0.187500000000001
40
0.187500000000001
40
0.250000000000002
40
0.250000000000002
40
0.375000000000003
40
0.375000000000003
40
0.437500000000003
40
0.437500000000003
40
0.500000000000002
40
0.500000000000002
40
0.625000000000002
40
0.625000000000002
40
0.687500000000002
40
0.687500000000002
40
0.750000000000001
40
0.750000000000001
40
0.875000000000001
40
0.875000000000001
40
0.9375
40
0.9375
40
1
40
1
40
1
40
1
41
1
10
44.5890228833912
20
-0.14453516556614
30
0
41
1
10
44.5946627592965
20
-0.310863795447745
30
0
41
1
10
44.6065000211455
20
-0.47355480348395
30
0
41
1
10
44.6291892727334
20
-0.71275075424478
30
0
41
1
10
44.6375915732121
20
-0.791669521345369
30
0
41
1
10
44.6555068699614
20
-0.947912809143645
30
1E-16
41
1
10
44.6650596739763
20
-1.02553948503547
30
1E-16
41
1
10
44.6943614481077
20
-1.25382803737014
30
1E-16
41
1
10
44.714488554771
20
-1.39849420347466
30
1E-16
41
1
10
44.7432838250858
20
-1.60478920632025
30
1E-16
41
1
10
44.7526629346946
20
-1.67175749283655
30
1E-16
41
1
10
44.7707433402593
20
-1.80205144659999
30
1E-16
41
1
10
44.7794836887169
20
-1.8656716192526
30
1E-16
41
1
10
44.8040913944839
20
-2.04809273880224
30
-1E-16
41
1
10
44.8183361269365
20
-2.15874207436369
30
-1E-16
41
1
10
44.8368808771743
20
-2.30860655849472
30
-1E-16
41
1
10
44.8426033724264
20
-2.35586074526051
30
-1E-16
41
1
10
44.853344392303
20
-2.44483605253669
30
-1E-16
41
1
10
44.8583835911244
20
-2.48672262369584
30
-1E-16
41
1
10
44.8726951106911
20
-2.60179847448305
30
-1E-16
41
1
10
44.8811876880566
20
-2.66499029847927
30
-1E-16
41
1
10
44.8952595608743
20
-2.73989620008507
30
-1E-16
41
1
10
44.9001808047254
20
-2.76153339984981
30
-1E-16
41
1
10
44.9110954858211
20
-2.79799889272533
30
-1E-16
41
1
10
44.9171047638113
20
-2.81283055663587
30
0
41
1
10
44.9239240711927
20
-2.82402768344127
30
0
0
SPLINE
5
B7
100
AcDbEntity
8
1
62
256
6
ByLayer
370
18
48
1
60
0
100
AcDbSpline
70
4
71
3
72
56
73
52
40
0
40
0
40
0
40
0
40
0.0790412048322798
40
0.0790412048322798
40
0.118561807248419
40
0.118561807248419
40
0.158082409664559
40
0.158082409664559
40
0.197603012080698
40
0.197603012080698
40
0.237123614496838
40
0.237123614496838
40
0.276644216912977
40
0.276644216912977
40
0.316164819329116
40
0.316164819329116
40
0.355685421745256
40
0.355685421745256
40
0.395206024161395
40
0.395206024161395
40
0.434726626577535
40
0.434726626577535
40
0.474247228993674
40
0.474247228993674
40
0.513767831409814
40
0.513767831409814
40
0.553288433825953
40
0.553288433825953
40
0.592809036242092
40
0.592809036242092
40
0.632329638658232
40
0.632329638658232
40
0.671850241074371
40
0.671850241074371
40
0.711370843490511
40
0.711370843490511
40
0.75089144590665
40
0.75089144590665
40
0.79041204832279
40
0.79041204832279
40
0.829932650738929
40
0.829932650738929
40
0.869453253155069
40
0.869453253155069
40
0.908973855571208
40
0.908973855571208
40
0.948494457987348
40
0.948494457987348
40
0.988015060403487
40
0.988015060403487
40
1
40
1
40
1
40
1
41
1
10
3.65229231827931
20
2.97238443072098
30
0
41
1
10
4.08017919345846
20
2.96393660805762
30
0
41
1
10
4.50765930973918
20
2.92472863848178
30
0
41
1
10
5.15103519647539
20
2.82291626428227
30
0
41
1
10
5.3661054109246
20
2.78169968585428
30
1E-16
41
1
10
5.79600351243158
20
2.68504555603275
30
1E-16
41
1
10
6.00957586531115
20
2.62972331890714
30
1E-16
41
1
10
6.43556959745132
20
2.50657488063854
30
1E-16
41
1
10
6.64818074624776
20
2.43896882190199
30
1E-16
41
1
10
7.07263392301863
20
2.29191028533197
30
1E-16
41
1
10
7.28445207591079
20
2.2123952851469
30
1E-16
41
1
10
7.70859879808563
20
2.0429566834072
30
-1E-16
41
1
10
7.92096747895155
20
1.95311556844277
30
-1E-16
41
1
10
8.34642594311222
20
1.76327542880742
30
-1E-16
41
1
10
8.55946341005563
20
1.66316671899966
30
-1E-16
41
1
10
8.98760601708588
20
1.45447496269455
30
-1E-16
41
1
10
9.20320959475322
20
1.34577408609241
30
-1E-16
41
1
10
9.63114676060309
20
1.12323314647284
30
-1E-16
41
1
10
9.84405446525133
20
1.00898144803909
30
-1E-16
41
1
10
10.2691199185547
20
0.77688873608335
30
0
41
1
10
10.4813420502834
20
0.659165066757708
30
0
41
1
10
10.9053583062399
20
0.420722678207966
30
0
41
1
10
11.11708633896
20
0.299881497467481
30
0
41
1
10
11.5413612889646
20
0.0573879177970298
30
0
41
1
10
11.7539821560252
20
-0.0641248570174184
30
0
41
1
10
12.1802326691102
20
-0.307635496562995
30
0
41
1
10
12.393822270024
20
-0.429715822009257
30
0
41
1
10
12.8236411855511
20
-0.671437538375301
30
0
41
1
10
13.0379574028798
20
-0.790287043309121
30
0
41
1
10
13.4643931630976
20
-1.02307737686118
30
1E-16
41
1
10
13.6767069334554
20
-1.13710828490315
30
1E-16
41
1
10
14.1012075499721
20
-1.35775269842097
30
1E-16
41
1
10
14.3132416357553
20
-1.46464277908376
30
1E-16
41
1
10
14.7370252539823
20
-1.67132388793058
30
1E-16
41
1
10
14.9487831589188
20
-1.77107348721577
30
1E-16
41
1
10
15.3737368885093
20
-1.96087470981163
30
1E-16
41
1
10
15.5867511221137
20
-2.05120934058905
30
1E-16
41
1
10
16.0140871884688
20
-2.22225975192239
30
-1E-16
41
1
10
16.2291668082425
20
-2.3031504219025
30
-1E-16
41
1
10
16.6577013650504
20
-2.45141000600651
30
-1E-16
41
1
10
16.8710723802079
20
-2.51914113703819
30
-1E-16
41
1
10
17.296291370236
20
-2.64174361712293
30
-1E-16
41
1
10
17.5081827874087
20
-2.6965208999427
30
-1E-16
41
1
10
17.9323584985458
20
-2.79183028429716
30
-1E-16
41
1
10
18.1443348726272
20
-2.83263526319456
30
0
41
1
10
18.5681805905286
20
-2.90033439992484
30
0
41
1
10
18.7800634241787
20
-2.92715017663076
30
0
41
1
10
19.2059532888551
20
-2.96581161064398
30
0
41
1
10
19.4195801308094
20
-2.97784062501788
30
0
41
1
10
19.6989693125281
20
-2.98369263186672
30
0
41
1
10
19.7640049720411
20
-2.98434857360874
30
0
41
1
10
19.8290256690525
20
-2.98430487485569
30
0
0
SPLINE
5
B8
100
AcDbEntity
8
1
62
256
6
ByLayer
370
18
48
1
60
0
100
AcDbSpline
70
4
71
3
72
28
73
24
40
0
40
0
40
0
40
0
40
0.0197331366174308
40
0.0197331366174308
40
0.085084260842939
40
0.085084260842939
40
0.215786509293951
40
0.215786509293951
40
0.281137633519457
40
0.281137633519457
40
0.346488757744964
40
0.346488757744964
40
0.477191006195973
40
0.477191006195973
40
0.607893254646982
40
0.607893254646982
40
0.673244378872485
40
0.673244378872485
40
0.738595503097988
40
0.738595503097988
40
0.869297751548994
40
0.869297751548994
40
1
40
1
40
1
40
1
41
1
10
34.7664252480359
20
2.88549439000872
30
0
41
1
10
34.830652777964
20
2.89537901834609
30
0
41
1
10
34.894810245554
20
2.90460088685774
30
0
41
1
10
35.171187760969
20
2.94148730053581
30
0
41
1
10
35.3832418172833
20
2.96236093102078
30
0
41
1
10
36.0187199768108
20
3.00300395161753
30
0
41
1
10
36.4406495407355
20
3.00048742665294
30
0
41
1
10
37.0792497950606
20
2.95182785571643
30
0
41
1
10
37.2928804761808
20
2.92818483382459
30
0
41
1
10
37.7221124489145
20
2.8658771414616
30
0
41
1
10
37.9364840498751
20
2.82735207747237
30
0
41
1
10
38.5755108920697
20
2.6910800838094
30
1E-16
41
1
10
38.9981548622063
20
2.57246903012216
30
1E-16
41
1
10
39.8448481733516
20
2.28789806701332
30
1E-16
41
1
10
40.2684261598781
20
2.12159481315209
30
-1E-16
41
1
10
40.9084094898622
20
1.8403568835632
30
-1E-16
41
1
10
41.1232452313873
20
1.74088949575128
30
-1E-16
41
1
10
41.5511662282021
20
1.53447290583307
30
-1E-16
41
1
10
41.7640686789973
20
1.42766374469727
30
-1E-16
41
1
10
42.4007265143311
20
1.09838375144653
30
-1E-16
41
1
10
42.8224970748816
20
0.867166891582968
30
-1E-16
41
1
10
43.6666925324865
20
0.391676782968375
30
0
41
1
10
44.0889044254806
20
0.147002915529868
30
0
41
1
10
44.5151021500837
20
-0.0978147745867943
30
0
0
SPLINE
5
B9
100
AcDbEntity
8
1
62
256
6
ByLayer
370
18
48
1
60
0
100
AcDbSpline
70
4
71
3
72
10
73
6
40
0
40
0
40
0
40
0
40
0.5
40
0.5
40
1
40
1
40
1
40
1
41
1
10
44.761270459114
20
-2.9603895371902
30
0
41
1
10
44.7635835499069
20
-2.97187709901382
30
0
41
1
10
44.7657934066421
20
-2.98089830218845
30
0
41
1
10
44.7698647070775
20
-2.9939238017827
30
0
41
1
10
44.7717582067982
20
-2.99793012246269
30
0
41
1
10
44.7735639770611
20
-2.99933825912549
30
0
0
SPLINE
5
BA
100
AcDbEntity
8
1
62
256
6
ByLayer
370
18
48
1
60
0
100
AcDbSpline
70
4
71
3
72
50
73
46
40
0
40
0
40
0
40
0
40
0.0170735329093745
40
0.0170735329093745
40
0.0787106011733341
40
0.0787106011733341
40
0.140347669437294
40
0.140347669437294
40
0.171166203569273
40
0.171166203569273
40
0.201984737701252
40
0.201984737701252
40
0.26362180596521
40
0.26362180596521
40
0.29444034009719
40
0.29444034009719
40
0.325258874229169
40
0.325258874229169
40
0.386895942493129
40
0.386895942493129
40
0.448533010757089
40
0.448533010757089
40
0.479351544889069
40
0.479351544889069
40
0.51017007902105
40
0.51017007902105
40
0.571807147285011
40
0.571807147285011
40
0.633444215548972
40
0.633444215548972
40
0.664262749680953
40
0.664262749680953
40
0.695081283812933
40
0.695081283812933
40
0.756718352076893
40
0.756718352076893
40
0.818355420340852
40
0.818355420340852
40
0.849173954472832
40
0.849173954472832
40
0.879992488604812
40
0.879992488604812
40
0.941629556868771
40
0.941629556868771
40
1
40
1
40
1
40
1
41
1
10
41.0743164898105
20
-2.08746980372493
30
1E-16
41
1
10
40.9576266872927
20
-2.13573561375151
30
1E-16
41
1
10
40.8411365482718
20
-2.18231585564161
30
1E-16
41
1
10
40.3046843251423
20
-2.38895764892112
30
-1E-16
41
1
10
39.8864749393252
20
-2.52820682729882
30
-1E-16
41
1
10
39.0481473806898
20
-2.75595127901695
30
-1E-16
41
1
10
38.6275952575083
20
-2.84411717222085
30
0
41
1
10
37.9907220419192
20
-2.93389932396172
30
0
41
1
10
37.7791838733558
20
-2.95648953764157
30
0
41
1
10
37.3577841120111
20
-2.9867746641014
30
0
41
1
10
37.1477140604328
20
-2.99452599787662
30
0
41
1
10
36.5185136399294
20
-2.99589394399013
30
0
41
1
10
36.1005761550851
20
-2.96753527713227
30
0
41
1
10
35.4707937122456
20
-2.88200036895554
30
0
41
1
10
35.2603957276555
20
-2.84633919019248
30
0
41
1
10
34.8380065916105
20
-2.76081697201141
30
-1E-16
41
1
10
34.6253211226781
20
-2.71072387442223
30
-1E-16
41
1
10
33.9901326378217
20
-2.54106494785415
30
-1E-16
41
1
10
33.5702237239006
20
-2.40278460674094
30
-1E-16
41
1
10
32.7319237759103
20
-2.08310949703741
30
1E-16
41
1
10
32.3137603061339
20
-1.90136009922688
30
1E-16
41
1
10
31.6826330878063
20
-1.60266518091646
30
1E-16
41
1
10
31.4716488983701
20
-1.49871990862479
30
1E-16
41
1
10
31.0479501800354
20
-1.28260415309137
30
1E-16
41
1
10
30.8353770471561
20
-1.17055816833295
30
1E-16
41
1
10
30.2019175698101
20
-0.829444365383239
30
1E-16
41
1
10
29.7825608894796
20
-0.593774366390392
30
0
41
1
10
28.9447880993945
20
-0.114665106060613
30
0
41
1
10
28.525851250992
20
0.127862928394194
30
0
41
1
10
27.8931346426793
20
0.48863013466962
30
0
41
1
10
27.6812720880806
20
0.608727446785707
30
0
41
1
10
27.2566947717183
20
0.845677614596781
30
-1E-16
41
1
10
27.0453904928493
20
0.961619852845814
30
-1E-16
41
1
10
26.4133359100377
20
1.30028357819339
30
-1E-16
41
1
10
25.9946880356187
20
1.51423783264121
30
-1E-16
41
1
10
25.1565178479516
20
1.90899110545252
30
-1E-16
41
1
10
24.736692976423
20
2.08941671098412
30
-1E-16
41
1
10
24.1023196520592
20
2.32922953274746
30
1E-16
41
1
10
23.8893945428751
20
2.40407681614951
30
1E-16
41
1
10
23.4660828069658
20
2.54029024989347
30
1E-16
41
1
10
23.2552757753936
20
2.60191626218526
30
1E-16
41
1
10
22.6244271600794
20
2.76690433737693
30
1E-16
41
1
10
22.2061597480571
20
2.850443166719
30
0
41
1
10
21.3892978409096
20
2.95773873402874
30
0
41
1
10
20.9911580988257
20
2.98463741737592
30
0
41
1
10
20.5895996774478
20
2.98479502597897
30
0
0
SPLINE
5
BB
100
AcDbEntity
8
1
62
256
6
ByLayer
370
18
48
1
60
0
100
AcDbSpline
70
4
71
3
72
16
73
12
40
0
40
0
40
0
40
0
40
0.0753617777175414
40
0.0753617777175414
40
0.383574518478365
40
0.383574518478365
40
0.537680888858774
40
0.537680888858774
40
0.691787259239183
40
0.691787259239183
40
1
40
1
40
1
40
1
41
1
10
8.18998603224051
20
-2.16138644870571
30
1E-16
41
1
10
8.08741216387338
20
-2.20174955888317
30
1E-16
41
1
10
7.98486021504715
20
-2.24082333379621
30
1E-16
41
1
10
7.46273618679339
20
-2.43281724339082
30
-1E-16
41
1
10
7.0432067590707
20
-2.56510928344903
30
-1E-16
41
1
10
6.40890014559983
20
-2.72477795105897
30
-1E-16
41
1
10
6.19601380243228
20
-2.77161588957662
30
-1E-16
41
1
10
5.77114885053925
20
-2.85100692820146
30
0
41
1
10
5.55922051315741
20
-2.88357173271555
30
0
41
1
10
4.92430122616821
20
-2.95964111217151
30
0
41
1
10
4.50149606720041
20
-2.98114010027155
30
0
41
1
10
4.07551718241956
20
-2.97285394321699
30
0
0
SPLINE
5
BC
100
AcDbEntity
8
1
62
256
6
ByLayer
370
18
48
1
60
0
100
AcDbSpline
70
4
71
3
72
30
73
26
40
0
40
0
40
0
40
0
40
0.160217858194445
40
0.160217858194445
40
0.240326787291668
40
0.240326787291668
40
0.320435716388892
40
0.320435716388892
40
0.400544645486115
40
0.400544645486115
40
0.480653574583339
40
0.480653574583339
40
0.560762503680562
40
0.560762503680562
40
0.640871432777786
40
0.640871432777786
40
0.720980361875009
40
0.720980361875009
40
0.801089290972233
40
0.801089290972233
40
0.881198220069456
40
0.881198220069456
40
0.96130714916668
40
0.96130714916668
40
1
40
1
40
1
40
1
41
1
10
3.650497028269
20
2.83346004524461
30
0
41
1
10
4.07961082470047
20
2.82820055130324
30
0
41
1
10
4.50553887332063
20
2.79132106091268
30
1E-16
41
1
10
5.1433143735369
20
2.69429717390295
30
-1E-16
41
1
10
5.35569451434742
20
2.65505153183102
30
1E-16
41
1
10
5.78030926246549
20
2.56397949718684
30
1E-16
41
1
10
5.99239804630514
20
2.5122985952481
30
1E-16
41
1
10
6.4174641960648
20
2.39638710504221
30
1E-16
41
1
10
6.63069710325902
20
2.33186886622573
30
1E-16
41
1
10
7.05854174869245
20
2.19092631584184
30
1E-16
41
1
10
7.27351955662851
20
2.11439873933082
30
1E-16
41
1
10
7.70416107908616
20
1.95060192687711
30
-1E-16
41
1
10
7.91856479697918
20
1.86382418984127
30
-1E-16
41
1
10
8.34589725487345
20
1.68182892891289
30
-1E-16
41
1
10
8.55877237836327
20
1.58661840287681
30
-1E-16
41
1
10
8.98413434343763
20
1.38906820563821
30
-1E-16
41
1
10
9.19669167625608
20
1.28673637160293
30
-1E-16
41
1
10
9.62178209886108
20
1.07593327986865
30
-1E-16
41
1
10
9.83423175970381
20
0.967423205559214
30
-1E-16
41
1
10
10.2601911859114
20
0.745788488740089
30
0
41
1
10
10.4738007680601
20
0.632727750371117
30
0
41
1
10
10.9024255898888
20
0.402850321508907
30
0
41
1
10
11.1180559255631
20
0.285534856967871
30
0
41
1
10
11.4366059655239
20
0.111896305416451
30
0
41
1
10
11.5401629639352
20
0.0554476211377448
30
0
41
1
10
11.6435441186612
20
-0.0008969508723169
30
0
0
SPLINE
5
BD
100
AcDbEntity
8
1
62
256
6
ByLayer
370
18
48
1
60
0
100
AcDbSpline
70
4
71
3
72
28
73
24
40
0
40
0
40
0
40
0
40
0.0669464218619669
40
0.0669464218619669
40
0.140676437614053
40
0.140676437614053
40
0.214406453366139
40
0.214406453366139
40
0.288136469118224
40
0.288136469118224
40
0.36186648487031
40
0.36186648487031
40
0.435596500622396
40
0.435596500622396
40
0.583056532126568
40
0.583056532126568
40
0.656786547878654
40
0.656786547878654
40
0.730516563630739
40
0.730516563630739
40
0.877976595134915
40
0.877976595134915
40
1
40
1
40
1
40
1
41
1
10
35.7094771734748
20
2.84270768392511
30
0
41
1
10
35.9021718318796
20
2.85204080083548
30
0
41
1
10
36.0949130167362
20
2.85621911674292
30
0
41
1
10
36.5009978486599
20
2.85280239985573
30
0
41
1
10
36.7148368803334
20
2.84306522578592
30
0
41
1
10
37.1449942438281
20
2.80842771621812
30
1E-16
41
1
10
37.3597818856377
20
2.78368671333996
30
1E-16
41
1
10
37.7870238087347
20
2.72078148070543
30
1E-16
41
1
10
37.9998423187604
20
2.68258714241048
30
-1E-16
41
1
10
38.4244022160438
20
2.59391225017552
30
1E-16
41
1
10
38.6361290557669
20
2.54348657742312
30
1E-16
41
1
10
39.0597019906957
20
2.42973020695979
30
1E-16
41
1
10
39.2715616221753
20
2.36633191387813
30
1E-16
41
1
10
39.9081468420851
20
2.15865734570349
30
1E-16
41
1
10
40.333957112923
20
1.99680150578948
30
-1E-16
41
1
10
40.9786775546541
20
1.72356546869611
30
-1E-16
41
1
10
41.1933600361548
20
1.62798976008315
30
-1E-16
41
1
10
41.6199706539294
20
1.43028557816334
30
-1E-16
41
1
10
41.8323696943732
20
1.32793142637732
30
-1E-16
41
1
10
42.4679585497151
20
1.01257139055068
30
-1E-16
41
1
10
42.889579444288
20
0.791273083027789
30
0
41
1
10
43.6613514881862
20
0.375599991664927
30
0
41
1
10
44.0111127419716
20
0.183124361685486
30
0
41
1
10
44.3632463798187
20
-0.0099854958590697
30
0
0
SPLINE
5
BE
100
AcDbEntity
8
1
62
256
6
ByLayer
370
18
48
1
60
0
100
AcDbSpline
70
4
71
3
72
18
73
14
40
0
40
0
40
0
40
0
40
0.240932144916988
40
0.240932144916988
40
0.43609262321181
40
0.43609262321181
40
0.633225726140603
40
0.633225726140603
40
0.802374045877524
40
0.802374045877524
40
0.963622593806115
40
0.963622593806115
40
1
40
1
40
1
40
1
41
1
10
44.9239240711927
20
-2.82402768344127
30
0
41
1
10
44.9240328932707
20
-2.82420636648607
30
0
41
1
10
44.9240823689716
20
-2.82457416232637
30
0
41
1
10
44.9240301436644
20
-2.82560856908069
30
0
41
1
10
44.923953884786
20
-2.82621876401191
30
0
41
1
10
44.923685108726
20
-2.82769442921511
30
0
41
1
10
44.9234860092863
20
-2.828588287169
30
0
41
1
10
44.9230249027476
20
-2.83037765416648
30
0
41
1
10
44.9227695519762
20
-2.83127904245214
30
0
41
1
10
44.9222353240356
20
-2.83302443696761
30
0
41
1
10
44.9219518366396
20
-2.83389027199993
30
0
41
1
10
44.9216023266229
20
-2.83489841264435
30
0
41
1
10
44.9215371458941
20
-2.83508398807626
30
0
41
1
10
44.9214718940489
20
-2.8352674354953
30
0
0
SPLINE
5
BF
100
AcDbEntity
8
1
62
256
6
ByLayer
370
18
48
1
60
0
100
AcDbSpline
70
4
71
3
72
10
73
6
40
0
40
0
40
0
40
0
40
0.5
40
0.5
40
1
40
1
40
1
40
1
41
1
10
44.9599324601704
20
2.8757027726848
30
0
41
1
10
44.9482289398904
20
2.88373732393634
30
0
41
1
10
44.9380434115935
20
2.88786760430753
30
0
41
1
10
44.9204584536661
20
2.88833775099545
30
0
41
1
10
44.9130127306419
20
2.88472771306687
30
0
41
1
10
44.9065094944959
20
2.87752022463479
30
0
0
SPLINE
5
C0
100
AcDbEntity
8
1
62
256
6
ByLayer
370
18
48
1
60
0
100
AcDbSpline
70
4
71
3
72
8
73
4
40
0
40
0
40
0
40
0
40
1
40
1
40
1
40
1
41
1
10
44.5151021500837
20
-0.0978147745868228
30
0
41
1
10
44.5381155060646
20
-0.109502003775532
30
0
41
1
10
44.5610018402381
20
-0.120491162878636
30
0
41
1
10
44.5837885418575
20
-0.130800635655476
30
0
0
SPLINE
5
C1
100
AcDbEntity
8
1
62
256
6
ByLayer
370
18
48
1
60
0
100
AcDbSpline
70
4
71
3
72
36
73
32
40
0
40
0
40
0
40
0
40
0.0596035288735661
40
0.0596035288735661
40
0.129437756667824
40
0.129437756667824
40
0.199271984462081
40
0.199271984462081
40
0.269106212256339
40
0.269106212256339
40
0.338940440050596
40
0.338940440050596
40
0.408774667844853
40
0.408774667844853
40
0.478608895639111
40
0.478608895639111
40
0.548443123433368
40
0.548443123433368
40
0.618277351227626
40
0.618277351227626
40
0.688111579021883
40
0.688111579021883
40
0.757945806816141
40
0.757945806816141
40
0.827780034610398
40
0.827780034610398
40
0.897614262404656
40
0.897614262404656
40
0.967448490198913
40
0.967448490198913
40
1
40
1
40
1
40
1
41
1
10
37.5832270451136
20
-0.496328455538332
30
0
41
1
10
37.3259022720387
20
-0.356071434647674
30
0
41
1
10
37.0689280535476
20
-0.214183878238487
30
0
41
1
10
36.5102174475948
20
0.09496557303072
30
0
41
1
10
36.2076997181208
20
0.262632535672878
30
0
41
1
10
35.6045959739319
20
0.592921394487291
30
0
41
1
10
35.3035505685472
20
0.755480047890956
30
0
41
1
10
34.7004331912762
20
1.07191343322299
30
-1E-16
41
1
10
34.3978391925855
20
1.22598185088555
30
-1E-16
41
1
10
33.7948605978463
20
1.51957478846791
30
-1E-16
41
1
10
33.4938450782329
20
1.65899162929813
30
-1E-16
41
1
10
32.8906055007608
20
1.92035747223903
30
-1E-16
41
1
10
32.5880793545572
20
2.04245687408482
30
-1E-16
41
1
10
31.9851732529044
20
2.26430400259963
30
1E-16
41
1
10
31.6841227510604
20
2.36407130141561
30
1E-16
41
1
10
31.0807114329173
20
2.53902952874048
30
1E-16
41
1
10
30.7783174567209
20
2.61441462658556
30
1E-16
41
1
10
30.1754955366136
20
2.73761836374223
30
1E-16
41
1
10
29.8744056486078
20
2.78565291311401
30
1E-16
41
1
10
29.2707134586161
20
2.8533963565103
30
0
41
1
10
28.9683793392069
20
2.87333468291749
30
0
41
1
10
28.3640737014223
20
2.88388190492287
30
0
41
1
10
28.0620017544941
20
2.87466534943357
30
0
41
1
10
27.4592764596676
20
2.82695962840765
30
0
41
1
10
27.1582366580147
20
2.78874249813057
30
1E-16
41
1
10
26.5543025813099
20
2.68416773005123
30
1E-16
41
1
10
26.2523224173552
20
2.61808701868142
30
1E-16
41
1
10
25.6496311444836
20
2.46056342396531
30
1E-16
41
1
10
25.3484947204098
20
2.36915811495785
30
1E-16
41
1
10
24.9055252454735
20
2.21799429059834
30
1E-16
41
1
10
24.7647737094819
20
2.16749390512007
30
0
41
1
10
24.6241074783117
20
2.11472496804808
30
0
0
SPLINE
5
C2
100
AcDbEntity
8
1
62
256
6
ByLayer
370
18
48
1
60
0
100
AcDbSpline
70
4
71
3
72
26
73
22
40
0
40
0
40
0
40
0
40
0.12318413783045
40
0.12318413783045
40
0.19779516500806
40
0.19779516500806
40
0.272406192185671
40
0.272406192185671
40
0.421628246540894
40
0.421628246540894
40
0.570850300896117
40
0.570850300896117
40
0.645461328073728
40
0.645461328073728
40
0.72007235525134
40
0.72007235525134
40
0.869294409606563
40
0.869294409606563
40
0.943905436784173
40
0.943905436784173
40
1
40
1
40
1
40
1
41
1
10
20.6186009166757
20
0.263264061422746
30
0
41
1
10
20.9726105864503
20
0.0712577414758755
30
0
41
1
10
21.3270075515941
20
-0.12282299116498
30
0
41
1
10
21.8993942108542
20
-0.43272383598395
30
0
41
1
10
22.1165389663689
20
-0.549534688407761
30
0
41
1
10
22.5507477193319
20
-0.779670955520771
30
0
41
1
10
22.7673712306647
20
-0.892712565405361
30
1E-16
41
1
10
23.416758260852
20
-1.22396287853843
30
1E-16
41
1
10
23.8493679897486
20
-1.4341864086114
30
1E-16
41
1
10
24.7185412669079
20
-1.82260734324601
30
1E-16
41
1
10
25.1513899148832
20
-1.99894961355673
30
1E-16
41
1
10
25.8028991637
20
-2.23081390937463
30
-1E-16
41
1
10
26.0199274081206
20
-2.30231251361715
30
-1E-16
41
1
10
26.451587948197
20
-2.43239538571189
30
-1E-16
41
1
10
26.6666422457779
20
-2.49115753897544
30
-1E-16
41
1
10
27.3105916955781
20
-2.64770869630584
30
-1E-16
41
1
10
27.7382819338644
20
-2.72542582697199
30
-1E-16
41
1
10
28.382007918098
20
-2.80053889253165
30
0
41
1
10
28.5969213813436
20
-2.8183460369703
30
0
41
1
10
28.9746640445335
20
-2.83687218369931
30
0
41
1
10
29.1373572413001
20
-2.84076778883292
30
0
41
1
10
29.3003770622533
20
-2.84052689962601
30
0
0
SPLINE
5
C3
100
AcDbEntity
8
1
62
256
6
ByLayer
370
18
48
1
60
0
100
AcDbSpline
70
4
71
3
72
14
73
10
40
0
40
0
40
0
40
0
40
0.265037594603192
40
0.265037594603192
40
0.496310597539384
40
0.496310597539384
40
0.775233896678759
40
0.775233896678759
40
1
40
1
40
1
40
1
41
1
10
44.5837885418575
20
-0.130800635655504
30
0
41
1
10
44.5845124065442
20
-0.131128136467453
30
0
41
1
10
44.5852170177981
20
-0.13183060052944
30
0
41
1
10
44.5863885492366
20
-0.133570744157993
30
0
41
1
10
44.5868902856153
20
-0.134577546213365
30
0
41
1
10
44.5878401903094
20
-0.137061278594473
30
0
41
1
10
44.5882712065439
20
-0.138629845924129
30
0
41
1
10
44.5888123478506
20
-0.141643279704169
30
0
41
1
10
44.5889738207912
20
-0.1430882338978
30
0
41
1
10
44.5890228833909
20
-0.144535165555169
30
0
0
SPLINE
5
C4
100
AcDbEntity
8
1
62
256
6
ByLayer
370
18
48
1
60
0
100
AcDbSpline
70
4
71
3
72
44
73
40
40
0
40
0
40
0
40
0
40
0.031250000000001
40
0.031250000000001
40
0.0625000000000021
40
0.0625000000000021
40
0.125000000000002
40
0.125000000000002
40
0.187500000000002
40
0.187500000000002
40
0.250000000000001
40
0.250000000000001
40
0.312500000000001
40
0.312500000000001
40
0.375000000000001
40
0.375000000000001
40
0.437500000000001
40
0.437500000000001
40
0.500000000000001
40
0.500000000000001
40
0.562500000000001
40
0.562500000000001
40
0.593750000000001
40
0.593750000000001
40
0.625000000000001
40
0.625000000000001
40
0.656250000000001
40
0.656250000000001
40
0.687500000000001
40
0.687500000000001
40
0.718750000000001
40
0.718750000000001
40
0.750000000000001
40
0.750000000000001
40
0.812500000000001
40
0.812500000000001
40
0.875
40
0.875
40
1
40
1
40
1
40
1
41
1
10
45.4711546833593
20
-0.550514061386849
30
0
41
1
10
45.4724811557251
20
-0.568385754143492
30
0
41
1
10
45.472779535519
20
-0.587381109908705
30
0
41
1
10
45.471153412438
20
-0.627863102071075
30
0
41
1
10
45.4691941463616
20
-0.649313701770126
30
0
41
1
10
45.4602132336276
20
-0.714201607862378
30
0
41
1
10
45.4497634168762
20
-0.760144753236574
30
0
41
1
10
45.4231053281094
20
-0.847995309995895
30
1E-16
41
1
10
45.4068111266688
20
-0.890528669898401
30
1E-16
41
1
10
45.3719031070596
20
-0.967121600949923
30
-1E-16
41
1
10
45.3533738029343
20
-1.00117381660172
30
0
41
1
10
45.3160326985081
20
-1.05924276039573
30
0
41
1
10
45.2972605698911
20
-1.08311236840643
30
0
41
1
10
45.2614846308126
20
-1.11880489450075
30
0
41
1
10
45.2445235137962
20
-1.13076626698719
30
0
41
1
10
45.2120102314422
20
-1.14299071795085
30
1E-16
41
1
10
45.1970492623683
20
-1.14297178686343
30
1E-16
41
1
10
45.1695886266102
20
-1.13064724665441
30
1E-16
41
1
10
45.1571330270111
20
-1.11816743339665
30
1E-16
41
1
10
45.135852303663
20
-1.08146697036946
30
1E-16
41
1
10
45.1267212724402
20
-1.05659927525062
30
1E-16
41
1
10
45.1164785859247
20
-1.01177976834035
30
1E-16
41
1
10
45.1136021473017
20
-0.995542572548374
30
1E-16
41
1
10
45.1090248383827
20
-0.96025720979253
30
1E-16
41
1
10
45.1073386523469
20
-0.941135157946519
30
1E-16
41
1
10
45.1054229010876
20
-0.901570827705854
30
1E-16
41
1
10
45.1051613136087
20
-0.880942022443918
30
1E-16
41
1
10
45.1061968596645
20
-0.83788321050011
30
1E-16
41
1
10
45.1075283121113
20
-0.815254614251614
30
0
41
1
10
45.1118368914834
20
-0.77023950309848
30
0
41
1
10
45.1148066176088
20
-0.747626326487222
30
0
41
1
10
45.1225441840799
20
-0.702196322735887
30
0
41
1
10
45.1273294391657
20
-0.679447078267174
30
0
41
1
10
45.1438698571193
20
-0.614208616011865
30
0
41
1
10
45.1582732475344
20
-0.573117560219117
30
0
41
1
10
45.1911129944344
20
-0.502547324875792
30
0
41
1
10
45.2097176270479
20
-0.472487339887124
30
0
41
1
10
45.2678096408246
20
-0.400964885534989
30
0
41
1
10
45.3097368579907
20
-0.377398569986127
30
0
41
1
10
45.3473805985994
20
-0.376078469434674
30
0
0
SPLINE
5
C5
100
AcDbEntity
8
1
62
256
6
ByLayer
370
18
48
1
60
0
100
AcDbSpline
70
4
71
3
72
28
73
24
40
0
40
0
40
0
40
0
40
0.498296114415937
40
0.498296114415937
40
0.686686954467937
40
0.686686954467937
40
0.804773423362024
40
0.804773423362024
40
0.87870739457064
40
0.87870739457064
40
0.925079176859208
40
0.925079176859208
40
0.954199601453196
40
0.954199601453196
40
0.972493291734294
40
0.972493291734294
40
0.983968160511907
40
0.983968160511907
40
0.991173806144082
40
0.991173806144082
40
0.99572194096927
40
0.99572194096927
40
1
40
1
40
1
40
1
41
1
10
44.7735639770698
20
2.99933825911924
30
0
41
1
10
44.8034814635926
20
2.97986404665613
30
0
41
1
10
44.8334537016681
20
2.96016756855235
30
0
41
1
10
44.8748288847871
20
2.93273180620597
30
0
41
1
10
44.8861879955317
20
2.92517416650179
30
0
41
1
10
44.9046792932267
20
2.91283054694068
30
0
41
1
10
44.9118070168295
20
2.90806271397358
30
0
41
1
10
44.9234021620936
20
2.90029077776666
30
0
41
1
10
44.9278678207615
20
2.89729375507659
30
0
41
1
10
44.9351362274111
20
2.89240958861697
30
0
41
1
10
44.9379382837807
20
2.89052519975797
30
0
41
1
10
44.9425007047818
20
2.88745455493293
30
0
41
1
10
44.9442604029924
20
2.88626964331363
30
0
41
1
10
44.9471275283082
20
2.88433808547003
30
0
41
1
10
44.948234482218
20
2.88359211000037
30
0
41
1
10
44.9500386227294
20
2.88237593689624
30
0
41
1
10
44.9507347525226
20
2.88190658729147
30
0
41
1
10
44.9518694920457
20
2.88114137712998
30
0
41
1
10
44.9523081191949
20
2.88084555809098
30
0
41
1
10
44.9530221201032
20
2.88036396183094
30
0
41
1
10
44.9532981548069
20
2.8801777607201
30
0
41
1
10
44.9538110895764
20
2.87983165933594
30
0
41
1
10
44.9540522001024
20
2.87966892238501
30
0
41
1
10
44.9542535923149
20
2.87953285708238
30
0
0
SPLINE
5
C6
100
AcDbEntity
8
1
62
256
6
ByLayer
370
18
48
1
60
0
100
AcDbSpline
70
4
71
3
72
10
73
6
40
0
40
0
40
0
40
0
40
0.5
40
0.5
40
1
40
1
40
1
40
1
41
1
10
44.9599324601704
20
-2.8757027726848
30
0
41
1
10
44.9482289398904
20
-2.88373732393632
30
0
41
1
10
44.9380434115935
20
-2.8878676043075
30
0
41
1
10
44.9204584536661
20
-2.88833775099542
30
0
41
1
10
44.9130127306419
20
-2.88472771306684
30
0
41
1
10
44.9065094944959
20
-2.87752022463477
30
0
0
SPLINE
5
C7
100
AcDbEntity
8
1
62
256
6
ByLayer
370
18
48
1
60
0
100
AcDbSpline
70
4
71
3
72
8
73
4
40
0
40
0
40
0
40
0
40
1
40
1
40
1
40
1
41
1
10
45.9956334009954
20
0.212972652174898
30
0
41
1
10
45.9792211053602
20
0.157471663541884
30
0
41
1
10
45.9627068708359
20
0.102003101780355
30
0
41
1
10
45.9460911712423
20
0.0465668161677115
30
0
0
SPLINE
5
C8
100
AcDbEntity
8
1
62
256
6
ByLayer
370
18
48
1
60
0
100
AcDbSpline
70
4
71
3
72
8
73
4
40
0
40
0
40
0
40
0
40
1
40
1
40
1
40
1
41
1
10
3.6504970282684
20
2.83346004524461
30
0
41
1
10
3.63586022070408
20
2.83367238212733
30
0
41
1
10
3.61952243678715
20
2.83370677716633
30
0
41
1
10
3.60279362906306
20
2.83360182442485
30
0
0
SPLINE
5
C9
100
AcDbEntity
8
1
62
256
6
ByLayer
370
18
48
1
60
0
100
AcDbSpline
70
4
71
3
72
18
73
14
40
0
40
0
40
0
40
0
40
0.249999999999996
40
0.249999999999996
40
0.499999999999993
40
0.499999999999993
40
0.624999999999995
40
0.624999999999995
40
0.749999999999996
40
0.749999999999996
40
0.874999999999998
40
0.874999999999998
40
1
40
1
40
1
40
1
41
1
10
44.9599324601702
20
2.87570277268512
30
0
41
1
10
45.01969448504
20
2.70550678155456
30
0
41
1
10
45.0791698692377
20
2.53399306823405
30
0
41
1
10
45.1999348271035
20
2.18962990729949
30
0
41
1
10
45.2611596705463
20
2.01711539590528
30
0
41
1
10
45.3549307106861
20
1.75932669103471
30
0
41
1
10
45.3860778224067
20
1.67334777492314
30
0
41
1
10
45.4522297882129
20
1.50328277461611
30
0
41
1
10
45.4867331954366
20
1.42009002070523
30
0
41
1
10
45.55891757564
20
1.25934209853014
30
0
41
1
10
45.5966919887964
20
1.18152952326164
30
0
41
1
10
45.6763586643689
20
1.03129018756619
30
0
41
1
10
45.7182705075067
20
0.958994814184905
30
0
41
1
10
45.7611061986573
20
0.891464663063999
30
0
0
SPLINE
5
CA
100
AcDbEntity
8
1
62
256
6
ByLayer
370
18
48
1
60
0
100
AcDbSpline
70
4
71
3
72
42
73
38
40
0
40
0
40
0
40
0
40
0.0839954807387063
40
0.0839954807387063
40
0.119937117729644
40
0.119937117729644
40
0.155878754720582
40
0.155878754720582
40
0.227762028702457
40
0.227762028702457
40
0.299645302684331
40
0.299645302684331
40
0.335586939675267
40
0.335586939675267
40
0.371528576666204
40
0.371528576666204
40
0.443411850648077
40
0.443411850648077
40
0.479353487639014
40
0.479353487639014
40
0.515295124629951
40
0.515295124629951
40
0.659061672593698
40
0.659061672593698
40
0.695003309584635
40
0.695003309584635
40
0.730944946575572
40
0.730944946575572
40
0.802828220557445
40
0.802828220557445
40
0.874711494539317
40
0.874711494539317
40
0.910653131530254
40
0.910653131530254
40
0.946594768521191
40
0.946594768521191
40
1
40
1
40
1
40
1
41
1
10
30.811251189235
20
-2.85872939584183
30
0
41
1
10
30.3121460622382
20
-2.94284478414321
30
0
41
1
10
29.8137129659184
20
-2.98739658870852
30
0
41
1
10
29.095686660542
20
-2.99124045403161
30
0
41
1
10
28.878990620315
20
-2.9846722341245
30
0
41
1
10
28.4468557899678
20
-2.95614282183689
30
0
41
1
10
28.2317757036889
20
-2.93427538035721
30
0
41
1
10
27.5883559463069
20
-2.84673319145119
30
0
41
1
10
27.1618835522963
20
-2.75906771500479
30
-1E-16
41
1
10
26.3072276064899
20
-2.52992833594723
30
-1E-16
41
1
10
25.8790902083082
20
-2.38843796226797
30
-1E-16
41
1
10
25.2308260266721
20
-2.1394707024829
30
1E-16
41
1
10
25.014043647609
20
-2.05041591947372
30
1E-16
41
1
10
24.5835859955905
20
-1.86348678143054
30
1E-16
41
1
10
24.3691523888004
20
-1.76539178864798
30
1E-16
41
1
10
23.7270369897164
20
-1.45913554866613
30
1E-16
41
1
10
23.3006640347968
20
-1.23880800863512
30
1E-16
41
1
10
22.6586947123282
20
-0.891983472722018
30
1E-16
41
1
10
22.4443388932492
20
-0.773595474437798
30
0
41
1
10
22.014066937971
20
-0.532577446011089
30
0
41
1
10
21.797487640397
20
-0.409661103041515
30
0
41
1
10
20.7160912222311
20
0.207720926646289
30
0
41
1
10
19.86752960462
20
0.703689477144707
30
0
41
1
10
18.7950999863206
20
1.2699811689335
30
-1E-16
41
1
10
18.580139277156
20
1.38074188639749
30
-1E-16
41
1
10
18.1481410210708
20
1.5953395163597
30
-1E-16
41
1
10
17.9310830506109
20
1.69913551304484
30
-1E-16
41
1
10
17.284647223151
20
1.99431224640821
30
-1E-16
41
1
10
16.8573126507399
20
2.17137875836292
30
-1E-16
41
1
10
16.0023996452622
20
2.47761155903854
30
1E-16
41
1
10
15.5753369439181
20
2.60736186099427
30
1E-16
41
1
10
14.9298481446692
20
2.76107342595273
30
1E-16
41
1
10
14.713567357891
20
2.80569803605926
30
1E-16
41
1
10
14.2806191441568
20
2.88007074872027
30
0
41
1
10
14.065155839199
20
2.90966069187618
30
0
41
1
10
13.5311608556913
20
2.96445818151398
30
0
41
1
10
13.2134554382958
20
2.98052252482245
30
0
41
1
10
12.8958967729951
20
2.97994890380491
30
0
0
SPLINE
5
CB
100
AcDbEntity
8
1
62
256
6
ByLayer
370
18
48
1
60
0
100
AcDbSpline
70
4
71
3
72
36
73
32
40
0
40
0
40
0
40
0
40
0.0829876490412381
40
0.0829876490412381
40
0.124481473561858
40
0.124481473561858
40
0.165975298082478
40
0.165975298082478
40
0.331950596164958
40
0.331950596164958
40
0.373444420685578
40
0.373444420685578
40
0.414938245206197
40
0.414938245206197
40
0.497925894247438
40
0.497925894247438
40
0.539419718768058
40
0.539419718768058
40
0.580913543288677
40
0.580913543288677
40
0.663901192329916
40
0.663901192329916
40
0.746888841371156
40
0.746888841371156
40
0.788382665891776
40
0.788382665891776
40
0.829876490412396
40
0.829876490412396
40
0.99585178849488
40
0.99585178849488
40
1
40
1
40
1
40
1
41
1
10
44.7612704591162
20
-2.9603895371896
30
0
41
1
10
44.3296188997376
20
-2.91976721006725
30
0
41
1
10
43.8993894064577
20
-2.84883327527206
30
0
41
1
10
43.2520545655518
20
-2.6994521469295
30
-1E-16
41
1
10
43.0353537037476
20
-2.64229402874059
30
-1E-16
41
1
10
42.6037534647061
20
-2.51512632424163
30
-1E-16
41
1
10
42.3889312396837
20
-2.44519291985642
30
-1E-16
41
1
10
41.3176591781802
20
-2.06646241476079
30
1E-16
41
1
10
40.4696272925861
20
-1.67060345445242
30
1E-16
41
1
10
39.3891117500202
20
-1.10140412212579
30
1E-16
41
1
10
39.1728272146399
20
-0.984394498512103
30
1E-16
41
1
10
38.7430131174049
20
-0.747316207909591
30
0
41
1
10
38.5289248650351
20
-0.626922501613222
30
0
41
1
10
37.8876856264367
20
-0.262703879644846
30
0
41
1
10
37.4615310550565
20
-0.0158940021273395
30
0
41
1
10
36.8196058988013
20
0.351988443693017
30
0
41
1
10
36.6051787821531
20
0.47422126794487
30
0
41
1
10
36.1747590859985
20
0.716730618016186
30
0
41
1
10
35.9580289060728
20
0.837424272558337
30
-1E-16
41
1
10
35.3104181143664
20
1.19053825924371
30
-1E-16
41
1
10
34.8825508496219
20
1.41371159173693
30
-1E-16
41
1
10
34.0282808255326
20
1.82661277706765
30
-1E-16
41
1
10
33.6018245437534
20
2.01625696878026
30
-1E-16
41
1
10
32.9584844557418
20
2.26882205536055
30
1E-16
41
1
10
32.7434086078472
20
2.34766833619236
30
1E-16
41
1
10
32.3112001934649
20
2.49353643338114
30
1E-16
41
1
10
32.0946749760865
20
2.5602968364783
30
1E-16
41
1
10
31.0192755889182
20
2.858242108257
30
0
41
1
10
30.1715437974442
20
2.9854809854576
30
0
41
1
10
29.2893470172765
20
2.99020371718208
30
0
41
1
10
29.2678207091057
20
2.99024171647699
30
0
41
1
10
29.2462813148257
20
2.99020258180892
30
0
0
SPLINE
5
CC
100
AcDbEntity
8
1
62
256
6
ByLayer
370
18
48
1
60
0
100
AcDbSpline
70
4
71
3
72
26
73
22
40
0
40
0
40
0
40
0
40
0.0031673983632771
40
0.0031673983632771
40
0.0618046102242604
40
0.0618046102242604
40
0.296353457668195
40
0.296353457668195
40
0.354990669529179
40
0.354990669529179
40
0.413627881390163
40
0.413627881390163
40
0.53090230511213
40
0.53090230511213
40
0.648176728834098
40
0.648176728834098
40
0.765451152556065
40
0.765451152556065
40
0.882725576278033
40
0.882725576278033
40
1
40
1
40
1
40
1
41
1
10
14.5321711709746
20
-2.83679334084954
30
0
41
1
10
14.5204791922094
20
-2.83884530810397
30
0
41
1
10
14.5087865036534
20
-2.84087570199606
30
0
41
1
10
14.2806191441568
20
-2.88007074872027
30
0
41
1
10
14.065155839199
20
-2.90966069187618
30
0
41
1
10
12.991102871203
20
-3.01987784410031
30
0
41
1
10
12.1425783594928
20
-2.98710402862076
30
0
41
1
10
11.0628331514946
20
-2.79621432671348
30
-1E-16
41
1
10
10.8456245462809
20
-2.75042716613035
30
-1E-16
41
1
10
10.4143493137392
20
-2.64561247902193
30
-1E-16
41
1
10
10.1995783369378
20
-2.58648029421201
30
-1E-16
41
1
10
9.55668149824345
20
-2.39027221415694
30
-1E-16
41
1
10
9.12990831447692
20
-2.23444626934125
30
-1E-16
41
1
10
8.27378403863793
20
-1.87997961268459
30
1E-16
41
1
10
7.84392299701835
20
-1.6811342779892
30
1E-16
41
1
10
6.9770527451289
20
-1.24928910443143
30
1E-16
41
1
10
6.54834748582593
20
-1.02075724023192
30
1E-16
41
1
10
5.69412254215217
20
-0.54960492613813
30
0
41
1
10
5.26874001977217
20
-0.306735809831764
30
0
41
1
10
4.41450769535979
20
0.181294837983188
30
0
41
1
10
3.98571178395096
20
0.426537038141703
30
0
41
1
10
3.55241223464844
20
0.668024568727304
30
0
0
SPLINE
5
CD
100
AcDbEntity
8
1
62
256
6
ByLayer
370
18
48
1
60
0
100
AcDbSpline
70
4
71
3
72
16
73
12
40
0
40
0
40
0
40
0
40
0.227973100317506
40
0.227973100317506
40
0.455946200635012
40
0.455946200635012
40
0.683919300952517
40
0.683919300952517
40
0.911892401270023
40
0.911892401270023
40
1
40
1
40
1
40
1
41
1
10
44.9542535923495
20
2.87953285729259
30
0
41
1
10
44.6521433084496
20
2.88260817247155
30
0
41
1
10
44.3510504299943
20
2.871328444098
30
0
41
1
10
43.7485503268957
20
2.81968569839779
30
0
41
1
10
43.4467018109737
20
2.77940313379318
30
1E-16
41
1
10
42.8427226217234
20
2.67141801617794
30
1E-16
41
1
10
42.5416605333424
20
2.60404054335302
30
1E-16
41
1
10
41.9390816453434
20
2.44338238161404
30
1E-16
41
1
10
41.6369754980334
20
2.34996630345788
30
1E-16
41
1
10
41.2184502363108
20
2.20489052712242
30
1E-16
41
1
10
41.1019130809497
20
2.1628060605328
30
1E-16
41
1
10
40.9854356340391
20
2.11914950761528
30
0
0
SPLINE
5
CE
100
AcDbEntity
8
1
62
256
6
ByLayer
370
18
48
1
60
0
100
AcDbSpline
70
4
71
3
72
16
73
12
40
0
40
0
40
0
40
0
40
0.0798674770904133
40
0.0798674770904133
40
0.263893981672331
40
0.263893981672331
40
0.447920486254248
40
0.447920486254248
40
0.631946990836166
40
0.631946990836166
40
1
40
1
40
1
40
1
41
1
10
20.913903699268
20
-0.321304928917755
30
0
41
1
10
20.7830607016555
20
-0.249388189062216
30
0
41
1
10
20.6522919623301
20
-0.177195778448578
30
0
41
1
10
20.2202192826673
20
0.0618153349491024
30
0
41
1
10
19.9183969470586
20
0.229307394377031
30
0
41
1
10
19.3142460077134
20
0.560453522640472
30
0
41
1
10
19.0130131307279
20
0.723430288256566
30
0
41
1
10
18.4103911371019
20
1.04108527140474
30
-1E-16
41
1
10
18.1082137681803
20
1.1957524707758
30
-1E-16
41
1
10
17.2026568045005
20
1.63879967526722
30
-1E-16
41
1
10
16.6033670208738
20
1.90512067966867
30
-1E-16
41
1
10
16.0000000000002
20
2.12983667982209
30
1E-16
0
SPLINE
5
CF
100
AcDbEntity
8
1
62
256
6
ByLayer
370
18
48
1
60
0
100
AcDbSpline
70
4
71
3
72
24
73
20
40
0
40
0
40
0
40
0
40
0.166085368519512
40
0.166085368519512
40
0.332170737039025
40
0.332170737039025
40
0.415213421298781
40
0.415213421298781
40
0.498256105558537
40
0.498256105558537
40
0.66434147407805
40
0.66434147407805
40
0.830426842597562
40
0.830426842597562
40
0.913469526857316
40
0.913469526857316
40
0.996512211117071
40
0.996512211117071
40
1
40
1
40
1
40
1
41
1
10
44.5113266377582
20
0.326999703603661
30
0
41
1
10
44.0905055810173
20
0.568509671936511
30
0
41
1
10
43.6718989927222
20
0.80469722001817
30
0
41
1
10
42.8343577332547
20
1.2584933205199
30
-1E-16
41
1
10
42.415076574961
20
1.47549454879794
30
-1E-16
41
1
10
41.7806880195362
20
1.77831779005348
30
-1E-16
41
1
10
41.5678635536162
20
1.87572289066401
30
-1E-16
41
1
10
41.1452681301514
20
2.05959864480644
30
-1E-16
41
1
10
40.9348156252053
20
2.14623060589216
30
-1E-16
41
1
10
40.3046843251423
20
2.38895764892109
30
1E-16
41
1
10
39.8864749393252
20
2.52820682729882
30
1E-16
41
1
10
39.0481473806898
20
2.75595127901693
30
1E-16
41
1
10
38.6275952575084
20
2.84411717222082
30
0
41
1
10
37.9907220419192
20
2.9338993239617
30
0
41
1
10
37.7791838733559
20
2.95648953764157
30
0
41
1
10
37.3577841120111
20
2.98677466410137
30
0
41
1
10
37.1477140604328
20
2.99452599787662
30
0
41
1
10
36.9291717907833
20
2.99500113113888
30
0
41
1
10
36.9203636691263
20
2.99500737404358
30
0
41
1
10
36.9115561900386
20
2.99500071424097
30
0
0
SPLINE
5
D0
100
AcDbEntity
8
1
62
256
6
ByLayer
370
18
48
1
60
0
100
AcDbSpline
70
4
71
3
72
50
73
46
40
0
40
0
40
0
40
0
40
0.0224609406413264
40
0.0224609406413264
40
0.0532709367933795
40
0.0532709367933795
40
0.0840809329454329
40
0.0840809329454329
40
0.145700925249539
40
0.145700925249539
40
0.207320917553646
40
0.207320917553646
40
0.238130913705698
40
0.238130913705698
40
0.268940909857751
40
0.268940909857751
40
0.330560902161857
40
0.330560902161857
40
0.361370898313909
40
0.361370898313909
40
0.392180894465961
40
0.392180894465961
40
0.515420879074172
40
0.515420879074172
40
0.546230875226224
40
0.546230875226224
40
0.577040871378276
40
0.577040871378276
40
0.63866086368238
40
0.63866086368238
40
0.700280855986484
40
0.700280855986484
40
0.731090852138536
40
0.731090852138536
40
0.761900848290589
40
0.761900848290589
40
0.823520840594693
40
0.823520840594693
40
0.885140832898797
40
0.885140832898797
40
0.915950829050848
40
0.915950829050848
40
0.9467608252029
40
0.9467608252029
40
1
40
1
40
1
40
1
41
1
10
24.7751268374565
20
-2.06644784677076
30
1E-16
41
1
10
24.6216784419143
20
-2.13001010081746
30
1E-16
41
1
10
24.4679332567998
20
-2.19101623332185
30
0
41
1
10
24.1023196520593
20
-2.32922953274746
30
-1E-16
41
1
10
23.8893945428751
20
-2.40407681614948
30
-1E-16
41
1
10
23.4660828069658
20
-2.54029024989345
30
-1E-16
41
1
10
23.2552757753936
20
-2.60191626218526
30
-1E-16
41
1
10
22.6244271600794
20
-2.76690433737696
30
-1E-16
41
1
10
22.2061597480571
20
-2.850443166719
30
0
41
1
10
21.3670627190841
20
-2.96065933785366
30
0
41
1
10
20.9465927759838
20
-2.9875689134459
30
0
41
1
10
20.3099271630201
20
-2.98307051125806
30
0
41
1
10
20.0975545169743
20
-2.97406503502495
30
0
41
1
10
19.6753408492552
20
-2.94157748753742
30
0
41
1
10
19.464943702062
20
-2.91810695948354
30
0
41
1
10
18.8351529206813
20
-2.82653825476314
30
0
41
1
10
18.4167358247652
20
-2.73741733479432
30
-1E-16
41
1
10
17.7865835810535
20
-2.56480496724896
30
-1E-16
41
1
10
17.57614937619
20
-2.50075808538435
30
-1E-16
41
1
10
17.153923733203
20
-2.359924509309
30
-1E-16
41
1
10
16.9413950350614
20
-2.282995577002
30
-1E-16
41
1
10
15.880283873756
20
-1.87189587829337
30
1E-16
41
1
10
15.0472325396284
20
-1.46147151453752
30
1E-16
41
1
10
13.9952263010482
20
-0.893658347069874
30
1E-16
41
1
10
13.784424480049
20
-0.777124963841487
30
0
41
1
10
13.3608043738022
20
-0.540084360442677
30
0
41
1
10
13.1476735203497
20
-0.419379480267281
30
0
41
1
10
12.5128859237043
20
-0.0575846899562578
30
0
41
1
10
12.0933205119409
20
0.185011010552586
30
0
41
1
10
11.2544526815079
20
0.660682446630346
30
0
41
1
10
10.8352250914526
20
0.893911771481299
30
-1E-16
41
1
10
10.2028018021859
20
1.229988529351
30
-1E-16
41
1
10
9.99128592510272
20
1.33952907470828
30
-1E-16
41
1
10
9.56601762631976
20
1.55221957649437
30
-1E-16
41
1
10
9.35402622768839
20
1.65457593045315
30
-1E-16
41
1
10
8.720841437655
20
1.94738131101738
30
-1E-16
41
1
10
8.30181839905057
20
2.12427240407101
30
-1E-16
41
1
10
7.46273618679336
20
2.43281724339084
30
1E-16
41
1
10
7.04320675907064
20
2.56510928344903
30
1E-16
41
1
10
6.40890014559986
20
2.72477795105897
30
1E-16
41
1
10
6.19601380243228
20
2.77161588957662
30
1E-16
41
1
10
5.77114885053925
20
2.85100692820146
30
0
41
1
10
5.55922051315741
20
2.88357173271555
30
0
41
1
10
4.98187066618235
20
2.95274374479391
30
0
41
1
10
4.61651468699634
20
2.97475162245078
30
0
41
1
10
4.24915996051107
20
2.97458341875483
30
0
0
SPLINE
5
D1
100
AcDbEntity
8
1
62
256
6
ByLayer
370
18
48
1
60
0
100
AcDbSpline
70
4
71
3
72
8
73
4
40
0
40
0
40
0
40
0
40
1
40
1
40
1
40
1
41
1
10
45.3473805985993
20
-0.376078469434845
30
0
41
1
10
45.1851866328392
20
-0.111973736755118
30
0
41
1
10
44.991435757336
20
0.180782454867966
30
0
41
1
10
44.7628097737558
20
0.505202796604181
30
0
0
SPLINE
5
D2
100
AcDbEntity
8
1
62
256
6
ByLayer
370
18
48
1
60
0
100
AcDbSpline
70
4
71
3
72
18
73
14
40
0
40
0
40
0
40
0
40
0.250000000000003
40
0.250000000000003
40
0.500000000000006
40
0.500000000000006
40
0.625000000000005
40
0.625000000000005
40
0.750000000000003
40
0.750000000000003
40
0.875000000000002
40
0.875000000000002
40
1
40
1
40
1
40
1
41
1
10
44.9599324601702
20
-2.87570277268509
30
0
41
1
10
45.01969448504
20
-2.70550678155456
30
0
41
1
10
45.0791698692376
20
-2.53399306823408
30
0
41
1
10
45.1999348271034
20
-2.18962990729952
30
0
41
1
10
45.2611596705462
20
-2.01711539590534
30
0
41
1
10
45.3549307106861
20
-1.7593266910348
30
0
41
1
10
45.3860778224067
20
-1.6733477749232
30
0
41
1
10
45.4522297882129
20
-1.5032827746162
30
0
41
1
10
45.4867331954366
20
-1.42009002070523
30
0
41
1
10
45.5589175756401
20
-1.25934209853011
30
0
41
1
10
45.5966919887964
20
-1.18152952326167
30
0
41
1
10
45.6763586643689
20
-1.03129018756624
30
0
41
1
10
45.7182705075066
20
-0.958994814184905
30
0
41
1
10
45.7611061986572
20
-0.891464663063999
30
0
0
SPLINE
5
D3
100
AcDbEntity
8
1
62
256
6
ByLayer
370
18
48
1
60
0
100
AcDbSpline
70
4
71
3
72
8
73
4
40
0
40
0
40
0
40
0
40
1
40
1
40
1
40
1
41
1
10
45.3275859676857
20
-0.37827288026304
30
0
41
1
10
45.3285425717883
20
-0.383472329214072
30
0
41
1
10
45.3317795875976
20
-0.391034252264461
30
0
41
1
10
45.3368723610342
20
-0.400370906061312
30
0
0
SPLINE
5
D4
100
AcDbEntity
8
1
62
256
6
ByLayer
370
18
48
1
60
0
100
AcDbSpline
70
4
71
3
72
10
73
6
40
0
40
0
40
0
40
0
40
0.234874511567208
40
0.234874511567208
40
1
40
1
40
1
40
1
41
1
10
7.53604622265351
20
-1.87875302718447
30
0
41
1
10
7.26230607178101
20
-1.96225794937936
30
0
41
1
10
6.98923005763598
20
-2.04638332476216
30
0
41
1
10
5.82957553253289
20
-2.40676681222959
30
0
41
1
10
4.94940733035949
20
-2.68806877254013
30
0
41
1
10
4.07551718240379
20
-2.97285394322213
30
0
0
SPLINE
5
D5
100
AcDbEntity
8
1
62
256
6
ByLayer
370
18
48
1
60
0
100
AcDbSpline
70
4
71
3
72
8
73
4
40
0
40
0
40
0
40
0
40
1
40
1
40
1
40
1
41
1
10
44.7612704591155
20
-2.96038953718843
30
0
41
1
10
44.8095543387244
20
-2.93336589365907
30
0
41
1
10
44.857961353077
20
-2.90573834078296
30
0
41
1
10
44.9065094944955
20
-2.87752022463505
30
0
0
SPLINE
5
D6
100
AcDbEntity
8
1
62
256
6
ByLayer
370
18
48
1
60
0
100
AcDbSpline
70
4
71
3
72
25
73
21
40
0
40
0
40
0
40
0
40
0.125
40
0.125
40
0.25
40
0.25
40
0.3125
40
0.3125
40
0.375
40
0.4375
40
0.4375
40
0.5
40
0.5
40
0.625
40
0.625
40
0.75
40
0.75
40
0.875
40
0.875
40
1
40
1
40
1
40
1
41
1
10
3.60279362906309
20
2.82325900954515
30
0
41
1
10
3.60278168160477
20
2.81796034500769
30
0
41
1
10
3.6027673341386
20
2.79987865214471
30
0
41
1
10
3.60273504852611
20
2.73948638504666
30
1E-16
41
1
10
3.60271710555145
20
2.69717143204665
30
-1E-16
41
1
10
3.60268790038378
20
2.61501891337568
30
1E-16
41
1
10
3.60267773160226
20
2.58434936100932
30
1E-16
41
1
10
3.60265689688543
20
2.51734258281763
30
1E-16
41
1
10
3.60263559068829
20
2.44479467685409
30
1E-16
41
1
10
3.60261338713366
20
2.36132588321371
30
1E-16
41
1
10
3.60259072051741
20
2.27236508026965
30
1E-16
41
1
10
3.60257910935769
20
2.22493957208786
30
1E-16
41
1
10
3.60254387036184
20
2.07578002274823
30
1E-16
41
1
10
3.60251994764678
20
1.96768672606385
30
-1E-16
41
1
10
3.60247066194464
20
1.73473882958663
30
-1E-16
41
1
10
3.60244519654339
20
1.60935023075251
30
-1E-16
41
1
10
3.60239221989804
20
1.34325413281599
30
-1E-16
41
1
10
3.60236522475825
20
1.20521013257172
30
-1E-16
41
1
10
3.60230907163702
20
0.919485259852621
30
-1E-16
41
1
10
3.602279894182
20
0.77167951212823
30
0
41
1
10
3.6022489661928
20
0.619088965336431
30
0
0
SPLINE
5
D7
100
AcDbEntity
8
1
62
256
6
ByLayer
370
18
48
1
60
0
100
AcDbSpline
70
4
71
3
72
16
73
12
40
0
40
0
40
0
40
0
40
0.0652688539397876
40
0.0652688539397876
40
0.298951640454841
40
0.298951640454841
40
0.532634426969894
40
0.532634426969894
40
0.766317213484947
40
0.766317213484947
40
1
40
1
40
1
40
1
41
1
10
44.6445014877306
20
0.603348828748125
30
0
41
1
10
44.6546465843928
20
0.606441546599285
30
0
41
1
10
44.6650121627997
20
0.609821183377818
30
0
41
1
10
44.7133432136778
20
0.626557228886213
30
0
41
1
10
44.7541206432248
20
0.642801904731328
30
0
41
1
10
44.8440521959618
20
0.677457721865522
30
0
41
1
10
44.8914195834486
20
0.695642501579471
30
0
41
1
10
44.9913803316113
20
0.731080712398352
30
0
41
1
10
45.0446673619742
20
0.748413043544645
30
0
41
1
10
45.1535307118965
20
0.777377240329145
30
0
41
1
10
45.2092586653603
20
0.789065651585588
30
0
41
1
10
45.2664216456932
20
0.796804036992256
30
0
0
SPLINE
5
D8
100
AcDbEntity
8
1
62
256
6
ByLayer
370
18
48
1
60
0
100
AcDbSpline
70
4
71
3
72
20
73
16
40
0
40
0
40
0
40
0
40
0.0842460036318559
40
0.0842460036318559
40
0.168492007263712
40
0.168492007263712
40
0.33698401452743
40
0.33698401452743
40
0.505476021791147
40
0.505476021791147
40
0.589722025423004
40
0.589722025423004
40
0.673968029054861
40
0.673968029054861
40
1
40
1
40
1
40
1
41
1
10
44.921471894049
20
-2.83526743549533
30
0
41
1
10
44.7055170677402
20
-2.81923516277246
30
0
41
1
10
44.490476132999
20
-2.79672582645307
30
-1E-16
41
1
10
44.061899240712
20
-2.7370263128467
30
-1E-16
41
1
10
43.8483105993698
20
-2.70015155326925
30
1E-16
41
1
10
43.2087114007677
20
-2.56970145692267
30
-1E-16
41
1
10
42.7838935695509
20
-2.45641055407572
30
-1E-16
41
1
10
41.9313678830988
20
-2.18221621418431
30
-1E-16
41
1
10
41.503718324735
20
-2.02131134679584
30
1E-16
41
1
10
40.8555649880451
20
-1.7486861667127
30
1E-16
41
1
10
40.6379894799786
20
-1.6524084629811
30
1E-16
41
1
10
40.2061461204799
20
-1.45327524364589
30
1E-16
41
1
10
39.9911570475339
20
-1.35010120136869
30
1E-16
41
1
10
38.9467527993543
20
-0.833488309811088
30
1E-16
41
1
10
38.1248090828059
20
-0.379054276081888
30
0
41
1
10
37.2886207578494
20
0.0792510960768311
30
0
0
SPLINE
5
D9
100
AcDbEntity
8
1
62
256
6
ByLayer
370
18
48
1
60
0
100
AcDbSpline
70
4
71
3
72
26
73
22
40
0
40
0
40
0
40
0
40
0.0535114947575782
40
0.0535114947575782
40
0.207939391869664
40
0.207939391869664
40
0.285153340425707
40
0.285153340425707
40
0.36236728898175
40
0.36236728898175
40
0.516795186093836
40
0.516795186093836
40
0.671223083205921
40
0.671223083205921
40
0.748437031761965
40
0.748437031761965
40
0.825650980318009
40
0.825650980318009
40
0.980078877430097
40
0.980078877430097
40
1
40
1
40
1
40
1
41
1
10
13.0904552367282
20
-2.83832294040494
30
0
41
1
10
12.9419472454273
20
-2.84112079996999
30
0
41
1
10
12.7934599557798
20
-2.84043017194077
30
0
41
1
10
12.2159839932933
20
-2.82395843661052
30
0
41
1
10
11.7866094623445
20
-2.78330907138525
30
-1E-16
41
1
10
11.136649525331
20
-2.67865600295303
30
1E-16
41
1
10
10.9189746276737
20
-2.63650503523147
30
-1E-16
41
1
10
10.4867232048859
20
-2.53936030206785
30
-1E-16
41
1
10
10.2714221678476
20
-2.48427991486068
30
-1E-16
41
1
10
9.62685400258758
20
-2.30087896355587
30
-1E-16
41
1
10
9.19892034021635
20
-2.15437222329445
30
-1E-16
41
1
10
8.34070074771438
20
-1.81995863071731
30
1E-16
41
1
10
7.91042756406682
20
-1.63204336366527
30
1E-16
41
1
10
7.25870415035462
20
-1.32482554033953
30
1E-16
41
1
10
7.04194155915505
20
-1.21893245390442
30
1E-16
41
1
10
6.61042122076373
20
-1.00249136088479
30
1E-16
41
1
10
6.39536904961625
20
-0.891807788281653
30
1E-16
41
1
10
5.75126848290421
20
-0.5543749386581
30
0
41
1
10
5.32345377594515
20
-0.321874300236345
30
0
41
1
10
4.83850108833695
20
-0.0578256421865433
30
0
41
1
10
4.78306186310559
20
-0.0276313648387543
30
0
41
1
10
4.72758806979056
20
0.0025757609190578
30
0
0
SPLINE
5
DA
100
AcDbEntity
8
1
62
256
6
ByLayer
370
18
48
1
60
0
100
AcDbSpline
70
4
71
3
72
32
73
28
40
0
40
0
40
0
40
0
40
0.0246264176834849
40
0.0246264176834849
40
0.100401253295012
40
0.100401253295012
40
0.17617608890654
40
0.17617608890654
40
0.251950924518067
40
0.251950924518067
40
0.327725760129594
40
0.327725760129594
40
0.403500595741122
40
0.403500595741122
40
0.479275431352649
40
0.479275431352649
40
0.555050266964177
40
0.555050266964177
40
0.630825102575704
40
0.630825102575704
40
0.706599938187232
40
0.706599938187232
40
0.782374773798759
40
0.782374773798759
40
0.858149609410287
40
0.858149609410287
40
1
40
1
40
1
40
1
41
1
10
19.4462223989312
20
2.83798498139154
30
0
41
1
10
19.5154104195522
20
2.84064117926681
30
0
41
1
10
19.5845330522229
20
2.84258996208919
30
0
41
1
10
19.8660926297202
20
2.84779508918621
30
0
41
1
10
20.0780359614256
20
2.84513922217209
30
0
41
1
10
20.5023744490138
20
2.82400475150885
30
0
41
1
10
20.71455249409
20
2.80628129654755
30
0
41
1
10
21.1392108829174
20
2.75765782514918
30
1E-16
41
1
10
21.3518168355812
20
2.72645081883039
30
1E-16
41
1
10
21.778811022749
20
2.64944327263399
30
1E-16
41
1
10
21.9931382671391
20
2.60394251699941
30
1E-16
41
1
10
22.4230802774855
20
2.50014326989299
30
1E-16
41
1
10
22.6374493923553
20
2.44186966853829
30
1E-16
41
1
10
23.0660425904312
20
2.31281562247008
30
1E-16
41
1
10
23.2801800751335
20
2.24227782425521
30
1E-16
41
1
10
23.7082614023381
20
2.09060790848383
30
1E-16
41
1
10
23.9225816395617
20
2.00909349143419
30
-1E-16
41
1
10
24.3525588605894
20
1.83557118634377
30
-1E-16
41
1
10
24.5675606060554
20
1.7438997178555
30
-1E-16
41
1
10
24.9966069620186
20
1.55249257932422
30
-1E-16
41
1
10
25.2110386761209
20
1.45261426850661
30
-1E-16
41
1
10
25.6406702396677
20
1.2457102762379
30
-1E-16
41
1
10
25.8560317380324
20
1.13846929797973
30
-1E-16
41
1
10
26.2840844808853
20
0.919846723805279
30
-1E-16
41
1
10
26.4973409524505
20
0.808497317318825
30
0
41
1
10
27.1083690295224
20
0.484409986940875
30
0
41
1
10
27.5046075257882
20
0.267496607275319
30
0
41
1
10
27.9017844779746
20
0.0502720670810959
30
0
0
SPLINE
5
DB
100
AcDbEntity
8
1
62
256
6
ByLayer
370
18
48
1
60
0
100
AcDbSpline
70
4
71
3
72
8
73
4
40
0
40
0
40
0
40
0
40
1
40
1
40
1
40
1
41
1
10
45.9956334009954
20
0.212972652174898
30
0
41
1
10
46.0014559538636
20
0.0709806206617714
30
0
41
1
10
46.0014551121986
20
-0.0710011459664486
30
0
41
1
10
45.995633400996
20
-0.212972652160516
30
0
0
SPLINE
5
DC
100
AcDbEntity
8
1
62
256
6
ByLayer
370
18
48
1
60
0
100
AcDbSpline
70
4
71
3
72
8
73
4
40
0
40
0
40
0
40
0
40
1
40
1
40
1
40
1
41
1
10
3.65229231827928
20
2.97238443072098
30
0
41
1
10
3.65170423027826
20
2.92607662774032
30
0
41
1
10
3.65110583158801
20
2.87976850500661
30
0
41
1
10
3.6504970282684
20
2.83346004524461
30
0
0
SPLINE
5
DD
100
AcDbEntity
8
1
62
256
6
ByLayer
370
18
48
1
60
0
100
AcDbSpline
70
4
71
3
72
8
73
4
40
0
40
0
40
0
40
0
40
1
40
1
40
1
40
1
41
1
10
16
20
2.18022620835819
30
-1E-16
41
1
10
16
20
2.16400176951586
30
-1E-16
41
1
10
16
20
2.1472021405219
30
1E-16
41
1
10
16
20
2.12983667982334
30
1E-16
0
SPLINE
5
DE
100
AcDbEntity
8
1
62
256
6
ByLayer
370
18
48
1
60
0
100
AcDbSpline
70
4
71
3
72
62
73
58
40
0
40
0
40
0
40
0
40
0.0624999999999986
40
0.0624999999999986
40
0.124999999999997
40
0.124999999999997
40
0.156249999999998
40
0.156249999999998
40
0.187499999999998
40
0.187499999999998
40
0.218749999999998
40
0.218749999999998
40
0.249999999999998
40
0.249999999999998
40
0.281249999999998
40
0.281249999999998
40
0.312499999999999
40
0.312499999999999
40
0.328124999999999
40
0.328124999999999
40
0.343749999999999
40
0.343749999999999
40
0.374999999999999
40
0.374999999999999
40
0.390624999999999
40
0.390624999999999
40
0.40625
40
0.40625
40
0.437499999999999
40
0.437499999999999
40
0.499999999999997
40
0.499999999999997
40
0.562499999999994
40
0.562499999999994
40
0.624999999999992
40
0.624999999999992
40
0.640624999999992
40
0.640624999999992
40
0.644531249999993
40
0.644531249999993
40
0.648437499999994
40
0.648437499999994
40
0.656249999999995
40
0.656249999999995
40
0.660156249999995
40
0.660156249999995
40
0.664062499999996
40
0.664062499999996
40
0.671874999999997
40
0.671874999999997
40
0.687499999999997
40
0.687499999999997
40
0.749999999999998
40
0.749999999999998
40
0.874999999999999
40
0.874999999999999
40
1
40
1
40
1
40
1
41
1
10
4.07551989380124
20
-2.97285383146465
30
0
41
1
10
3.90754844068081
20
-2.96960485378341
30
0
41
1
10
3.74248848239546
20
-2.96172798839615
30
0
41
1
10
3.41959985403758
20
-2.93407123134327
30
0
41
1
10
3.26174062725707
20
-2.91434393236483
30
0
41
1
10
3.03223794111764
20
-2.87244646344871
30
0
41
1
10
2.95696189296217
20
-2.85641142482561
30
0
41
1
10
2.80940319495042
20
-2.81923799295956
30
0
41
1
10
2.73685992489396
20
-2.79801494774347
30
-1E-16
41
1
10
2.5969960069381
20
-2.74951261954084
30
-1E-16
41
1
10
2.52975318701979
20
-2.72229808929617
30
-1E-16
41
1
10
2.40208512967092
20
-2.66033406059356
30
-1E-16
41
1
10
2.34133938707799
20
-2.62535211825403
30
-1E-16
41
1
10
2.23119117708444
20
-2.54692402929379
30
-1E-16
41
1
10
2.18161188077647
20
-2.50349287323073
30
-1E-16
41
1
10
2.09683888573301
20
-2.4056254803929
30
-1E-16
41
1
10
2.06150481013623
20
-2.35047694334315
30
-1E-16
41
1
10
2.02512828786084
20
-2.26102680255016
30
-1E-16
41
1
10
2.01565642236892
20
-2.23000508989796
30
-1E-16
41
1
10
2.00249739867257
20
-2.16534997576679
30
1E-16
41
1
10
1.99882541701459
20
-2.1314335384433
30
1E-16
41
1
10
1.99731481421975
20
-2.02810146968443
30
1E-16
41
1
10
2.00868036919823
20
-1.95698897272416
30
1E-16
41
1
10
2.04325333334543
20
-1.84728242236838
30
1E-16
41
1
10
2.05771402242624
20
-1.81031551823253
30
1E-16
41
1
10
2.09120495158044
20
-1.73748885773708
30
1E-16
41
1
10
2.11031339388359
20
-1.70136323700254
30
1E-16
41
1
10
2.17388775487836
20
-1.59377060261605
30
1E-16
41
1
10
2.22509859196236
20
-1.52248291492887
30
1E-16
41
1
10
2.39429638158782
20
-1.31667453120269
30
1E-16
41
1
10
2.52682682037295
20
-1.1896003238252
30
1E-16
41
1
10
2.81514301186027
20
-0.94784437517859
30
1E-16
41
1
10
2.96909275287408
20
-0.835114029844988
30
1E-16
41
1
10
3.28835423424874
20
-0.621586536387355
30
0
41
1
10
3.45319043392325
20
-0.521222414783466
30
0
41
1
10
3.66342873308398
20
-0.401873814663844
30
0
41
1
10
3.70568662710545
20
-0.378315615612081
30
0
41
1
10
3.75873708440992
20
-0.349240920941526
30
0
41
1
10
3.76933341510423
20
-0.343398184138863
30
0
41
1
10
3.79065546584428
20
-0.331944130752305
30
0
41
1
10
3.80190504826345
20
-0.327428739942462
30
0
41
1
10
3.83737636759832
20
-0.319751513972392
30
0
41
1
10
3.86187624581859
20
-0.32128365756634
30
0
41
1
10
3.89693433744691
20
-0.32903645025408
30
0
41
1
10
3.90834337608084
20
-0.332679106916373
30
0
41
1
10
3.93122622786905
20
-0.339715226682358
30
0
41
1
10
3.94267301316717
20
-0.3432134556341
30
0
41
1
10
3.97698118926508
20
-0.353817110149009
30
0
41
1
10
3.99982945046858
20
-0.3609595345157
30
0
41
1
10
4.06829874551909
20
-0.38260652919493
30
0
41
1
10
4.11384911103949
20
-0.397330920912992
30
0
41
1
10
4.34107353709953
20
-0.472364692302875
30
0
41
1
10
4.5210816047281
20
-0.536905412845272
30
0
41
1
10
5.05627298909982
20
-0.74229230045583
30
0
41
1
10
5.40426147769927
20
-0.894239120015811
30
1E-16
41
1
10
6.08689061405511
20
-1.21190870276422
30
1E-16
41
1
10
6.42174893184534
20
-1.37760838953057
30
1E-16
41
1
10
6.75394223397325
20
-1.54107729245862
30
1E-16
0
SPLINE
5
DF
100
AcDbEntity
8
1
62
256
6
ByLayer
370
18
48
1
60
0
100
AcDbSpline
70
4
71
3
72
12
73
8
40
0
40
0
40
0
40
0
40
0.249999999999986
40
0.249999999999986
40
0.499999999999971
40
0.499999999999971
40
1
40
1
40
1
40
1
41
1
10
3.60279362906306
20
2.83360182442485
30
0
41
1
10
3.58717058343109
20
2.83350380898366
30
0
41
1
10
3.57200218332687
20
2.83666864089668
30
0
41
1
10
3.54596199997391
20
2.84739450641331
30
0
41
1
10
3.53520254810689
20
2.85476615692198
30
0
41
1
10
3.50983934596545
20
2.87962111988182
30
0
41
1
10
3.50206874973725
20
2.89934081061662
30
0
41
1
10
3.50206874973716
20
2.91875633517432
30
0
0
SPLINE
5
E0
100
AcDbEntity
8
1
62
256
6
ByLayer
370
18
48
1
60
0
100
AcDbSpline
70
4
71
3
72
20
73
16
40
0
40
0
40
0
40
0
40
0.51659435568891
40
0.51659435568891
40
0.71190321287609
40
0.71190321287609
40
0.834326008391007
40
0.834326008391007
40
0.910974954912722
40
0.910974954912722
40
0.959049584242953
40
0.959049584242953
40
0.989239358048955
40
0.989239358048955
40
1
40
1
40
1
40
1
41
1
10
44.7735639770822
20
-2.99933825911114
30
0
41
1
10
44.8034814636009
20
-2.97986404665067
30
0
41
1
10
44.8334537016723
20
-2.96016756854959
30
0
41
1
10
44.874828884787
20
-2.93273180620602
30
0
41
1
10
44.8861879955316
20
-2.92517416650188
30
0
41
1
10
44.9046792932264
20
-2.91283054694091
30
0
41
1
10
44.911807016829
20
-2.90806271397389
30
0
41
1
10
44.923402162093
20
-2.90029077776705
30
0
41
1
10
44.927867820761
20
-2.89729375507696
30
0
41
1
10
44.9351362274107
20
-2.89240958861728
30
0
41
1
10
44.9379382837803
20
-2.89052519975823
30
0
41
1
10
44.9425007047815
20
-2.88745455493316
30
0
41
1
10
44.944260402992
20
-2.88626964331382
30
0
41
1
10
44.946648958148
20
-2.8846604941005
30
0
41
1
10
44.9472768414999
20
-2.88423742038253
30
0
41
1
10
44.9479051463855
20
-2.88381398970759
30
0
0
SPLINE
5
E1
100
AcDbEntity
8
1
62
256
6
ByLayer
370
18
48
1
60
0
100
AcDbSpline
70
4
71
3
72
22
73
18
40
0
40
0
40
0
40
0
40
0.113521321473616
40
0.113521321473616
40
0.261267767894677
40
0.261267767894677
40
0.33514099110521
40
0.33514099110521
40
0.409014214315742
40
0.409014214315742
40
0.704507107157872
40
0.704507107157872
40
0.778380330368403
40
0.778380330368403
40
0.852253553578935
40
0.852253553578935
40
1
40
1
40
1
40
1
41
1
10
8.17957307490315
20
2.17332458136229
30
-1E-16
41
1
10
8.47447818465491
20
2.28878005978697
30
-1E-16
41
1
10
8.76897200487713
20
2.39361443713355
30
-1E-16
41
1
10
9.44819593194035
20
2.60774232804101
30
1E-16
41
1
10
9.8332976116742
20
2.70891755656959
30
1E-16
41
1
10
10.4159933463289
20
2.82679973137363
30
0
41
1
10
10.6102458234593
20
2.86020370546248
30
0
41
1
10
10.9966213438632
20
2.91474684717963
30
0
41
1
10
11.1891525088203
20
2.93596496159256
30
0
41
1
10
12.1500088704686
20
3.01172554220273
30
0
41
1
10
12.9130115843057
20
2.97524635174997
30
0
41
1
10
13.8825770577323
20
2.80813940650955
30
1E-16
41
1
10
14.077274802382
20
2.76864511188853
30
1E-16
41
1
10
14.4640383152216
20
2.6788567606794
30
1E-16
41
1
10
14.6567118845976
20
2.62847024606353
30
1E-16
41
1
10
15.2335062965885
20
2.46181445770352
30
1E-16
41
1
10
15.6163827386198
20
2.33002189892611
30
1E-16
41
1
10
16.0000000000111
20
2.18022620835336
30
-1E-16
0
SPLINE
5
E2
100
AcDbEntity
8
1
62
256
6
ByLayer
370
18
48
1
60
0
100
AcDbSpline
70
4
71
3
72
28
73
24
40
0
40
0
40
0
40
0
40
0.151492596829027
40
0.151492596829027
40
0.302985193658054
40
0.302985193658054
40
0.378731492072567
40
0.378731492072567
40
0.454477790487081
40
0.454477790487081
40
0.605970387316108
40
0.605970387316108
40
0.681716685730621
40
0.681716685730621
40
0.757462984145135
40
0.757462984145135
40
0.833209282559649
40
0.833209282559649
40
0.908955580974163
40
0.908955580974163
40
0.984701879388676
40
0.984701879388676
40
1
40
1
40
1
40
1
41
1
10
44.5890228834083
20
-0.144535165564605
30
0
41
1
10
44.1621043642816
20
0.0881155107955465
30
0
41
1
10
43.7392816227299
20
0.321087021532776
30
0
41
1
10
42.8945471744056
20
0.77491007899684
30
0
41
1
10
42.4728865181331
20
0.995829382036902
30
-1E-16
41
1
10
41.8372733754517
20
1.31082491147228
30
-1E-16
41
1
10
41.6248748327278
20
1.41309954604535
30
-1E-16
41
1
10
41.1982837184144
20
1.61072389367075
30
-1E-16
41
1
10
40.9836633256412
20
1.70627380695626
30
-1E-16
41
1
10
40.338815436116
20
1.97969578386616
30
-1E-16
41
1
10
39.9129200628206
20
2.14186268767401
30
1E-16
41
1
10
39.2762277929975
20
2.3502128899656
30
1E-16
41
1
10
39.0643363051941
20
2.41388260199383
30
1E-16
41
1
10
38.640708354451
20
2.52825987172864
30
1E-16
41
1
10
38.4289577046863
20
2.57901542044826
30
1E-16
41
1
10
38.004370183358
20
2.66840187254644
30
-1E-16
41
1
10
37.7915471231233
20
2.7069913310385
30
-1E-16
41
1
10
37.364315025078
20
2.77076299128973
30
1E-16
41
1
10
37.1495932336759
20
2.79597155822242
30
1E-16
41
1
10
36.7193470531148
20
2.83163789201825
30
0
41
1
10
36.5054599671747
20
2.84193311870192
30
0
41
1
10
36.2495860243626
20
2.84477070350496
30
0
41
1
10
36.2066174617857
20
2.84495885298082
30
0
41
1
10
36.1636694312965
20
2.84486619531222
30
0
0
SPLINE
5
E3
100
AcDbEntity
8
1
62
256
6
ByLayer
370
18
48
1
60
0
100
AcDbSpline
70
4
71
3
72
30
73
26
40
0
40
0
40
0
40
0
40
0.0759990566353052
40
0.0759990566353052
40
0.15299913524903
40
0.15299913524903
40
0.229999213862754
40
0.229999213862754
40
0.306999292476479
40
0.306999292476479
40
0.383999371090204
40
0.383999371090204
40
0.460999449703928
40
0.460999449703928
40
0.537999528317653
40
0.537999528317653
40
0.614999606931377
40
0.614999606931377
40
0.691999685545102
40
0.691999685545102
40
0.768999764158827
40
0.768999764158827
40
0.845999842772551
40
0.845999842772551
40
1
40
1
40
1
40
1
41
1
10
11.9686746285998
20
-0.188757995143362
30
0
41
1
10
11.7581232742523
20
-0.0744925667205223
30
0
41
1
10
11.5469193430438
20
0.0402314995331494
30
0
41
1
10
11.1201246890982
20
0.272112867071485
30
0
41
1
10
10.9044635925893
20
0.38909149682263
30
0
41
1
10
10.4757753787431
20
0.618379804273019
30
0
41
1
10
10.2621333896201
20
0.73118675948524
30
0
41
1
10
9.83610768849613
20
0.952380977554498
30
-1E-16
41
1
10
9.62362600315424
20
1.06070189005388
30
-1E-16
41
1
10
9.1984829447083
20
1.27120471479074
30
-1E-16
41
1
10
8.98590365864871
20
1.37342870722159
30
-1E-16
41
1
10
8.56050286210325
20
1.57083029652202
30
-1E-16
41
1
10
8.34761166530146
20
1.66599554848386
30
-1E-16
41
1
10
7.92026670650921
20
1.84797744814401
30
-1E-16
41
1
10
7.70586611612313
20
1.93479189305438
30
-1E-16
41
1
10
7.2752451972751
20
2.09873589480779
30
1E-16
41
1
10
7.06017447497226
20
2.17540898191427
30
1E-16
41
1
10
6.63206481434494
20
2.3167317591826
30
1E-16
41
1
10
6.41864213901124
20
2.38150019955967
30
1E-16
41
1
10
5.99307086062134
20
2.49798911987205
30
1E-16
41
1
10
5.78067383770627
20
2.54997419662436
30
1E-16
41
1
10
5.35534264328916
20
2.64171892280615
30
1E-16
41
1
10
5.1425529273817
20
2.68133062557524
30
-1E-16
41
1
10
4.50337103565892
20
2.77949125112556
30
1E-16
41
1
10
4.07587683465914
20
2.81718294276845
30
0
41
1
10
3.64572434879147
20
2.8231622704283
30
0
0
SPLINE
5
E4
100
AcDbEntity
8
1
62
256
6
ByLayer
370
18
48
1
60
0
100
AcDbSpline
70
4
71
3
72
26
73
22
40
0
40
0
40
0
40
0
40
0.0665466254282038
40
0.0665466254282038
40
0.216764215917134
40
0.216764215917134
40
0.291873011161598
40
0.291873011161598
40
0.366981806406063
40
0.366981806406063
40
0.517199396894994
40
0.517199396894994
40
0.667416987383924
40
0.667416987383924
40
0.74252578262839
40
0.74252578262839
40
0.817634577872855
40
0.817634577872855
40
0.967852168361784
40
0.967852168361784
40
1
40
1
40
1
40
1
41
1
10
4.32449397928991
20
0.232304532649522
30
0
41
1
10
4.51518260768867
20
0.129257155300564
30
0
41
1
10
4.70534583181183
20
0.0259938197256133
30
0
41
1
10
5.32384265657089
20
-0.30962265468736
30
0
41
1
10
5.75099317485649
20
-0.541089369234243
30
0
41
1
10
6.39443712519233
20
-0.877383909499827
30
1E-16
41
1
10
6.60932548531804
20
-0.987758215059159
30
1E-16
41
1
10
7.04062563710093
20
-1.20371768275234
30
1E-16
41
1
10
7.25730686599547
20
-1.3094243093557
30
1E-16
41
1
10
7.90912088481076
20
-1.61636413438723
30
1E-16
41
1
10
8.33946090654973
20
-1.80425771350869
30
1E-16
41
1
10
9.19780184243095
20
-2.13892618178929
30
-1E-16
41
1
10
9.62578699476336
20
-2.28571003251832
30
-1E-16
41
1
10
10.2704006456801
20
-2.46973931681362
30
-1E-16
41
1
10
10.4857103458081
20
-2.52506428441606
30
-1E-16
41
1
10
10.9179641109816
20
-2.62277007159099
30
-1E-16
41
1
10
11.1356305280027
20
-2.66523935641166
30
1E-16
41
1
10
11.7856813350209
20
-2.77095973730243
30
-1E-16
41
1
10
12.2151237770621
20
-2.81243545745488
30
0
41
1
10
12.7358394900287
20
-2.82841995723325
30
0
41
1
10
12.8275861276867
20
-2.8298884699058
30
0
41
1
10
12.9193195368355
20
-2.83002176158004
30
0
0
SPLINE
5
E5
100
AcDbEntity
8
1
62
256
6
ByLayer
370
18
48
1
60
0
100
AcDbSpline
70
4
71
3
72
22
73
18
40
0
40
0
40
0
40
0
40
0.0353070903245345
40
0.0353070903245345
40
0.356871393549683
40
0.356871393549683
40
0.437262469355973
40
0.437262469355973
40
0.517653545162263
40
0.517653545162263
40
0.678435696774844
40
0.678435696774844
40
0.839217848387424
40
0.839217848387424
40
0.919608924193712
40
0.919608924193712
40
1
40
1
40
1
40
1
41
1
10
36.9201665913266
20
0.291074354765925
30
0
41
1
10
37.0154230597566
20
0.23934383311942
30
0
41
1
10
37.1106818208556
20
0.187454860025696
30
0
41
1
10
38.0710854118018
20
-0.336643938971179
30
0
41
1
10
38.9205150586238
20
-0.806655284367338
30
0
41
1
10
39.9928953488899
20
-1.33618204898542
30
1E-16
41
1
10
40.2078990629493
20
-1.43921232223511
30
1E-16
41
1
10
40.639756592836
20
-1.63812665786349
30
1E-16
41
1
10
40.8573341348642
20
-1.7343293150696
30
1E-16
41
1
10
41.5055684753999
20
-2.0068671256204
30
1E-16
41
1
10
41.9332928501174
20
-2.1678670074495
30
-1E-16
41
1
10
42.7859799258531
20
-2.44251989921216
30
-1E-16
41
1
10
43.2108833925369
20
-2.55617273734907
30
-1E-16
41
1
10
43.8505979149302
20
-2.68735026665692
30
1E-16
41
1
10
44.0642225935176
20
-2.72449913509072
30
-1E-16
41
1
10
44.4928670976071
20
-2.78480275602496
30
-1E-16
41
1
10
44.7078877224096
20
-2.80770311689398
30
-1E-16
41
1
10
44.9239240711927
20
-2.82402768344127
30
0
0
SPLINE
5
E6
100
AcDbEntity
8
1
62
256
6
ByLayer
370
18
48
1
60
0
100
AcDbSpline
70
4
71
3
72
36
73
32
40
0
40
0
40
0
40
0
40
0.0357602626091839
40
0.0357602626091839
40
0.0715205252183677
40
0.0715205252183677
40
0.143041050436737
40
0.143041050436737
40
0.286082100873473
40
0.286082100873473
40
0.321842363482657
40
0.321842363482657
40
0.357602626091842
40
0.357602626091842
40
0.42912315131021
40
0.42912315131021
40
0.500643676528578
40
0.500643676528578
40
0.572164201746947
40
0.572164201746947
40
0.643684726965315
40
0.643684726965315
40
0.715205252183683
40
0.715205252183683
40
0.786725777402052
40
0.786725777402052
40
0.85824630262042
40
0.85824630262042
40
0.92976682783879
40
0.92976682783879
40
1
40
1
40
1
40
1
41
1
10
16
20
2.2114289350537
30
-1E-16
41
1
10
16.1503089818907
20
2.15373972830241
30
-1E-16
41
1
10
16.300553726541
20
2.09330005479367
30
-1E-16
41
1
10
16.6012009084542
20
1.96726761630072
30
-1E-16
41
1
10
16.7517283206609
20
1.90161399237911
30
-1E-16
41
1
10
17.2013180894016
20
1.69865025765287
30
-1E-16
41
1
10
17.49919712839
20
1.55501623476036
30
-1E-16
41
1
10
18.3905722168294
20
1.10454112939163
30
-1E-16
41
1
10
18.9818125872097
20
0.778133055664824
30
0
41
1
10
19.7277291364363
20
0.355118746933897
30
0
41
1
10
19.8772594860123
20
0.269772456856458
30
0
41
1
10
20.1772985430457
20
0.0980685179321483
30
0
41
1
10
20.327851332042
20
0.0116867141145178
30
0
41
1
10
20.7781785449355
20
-0.246412857531936
30
0
41
1
10
21.0776765374261
20
-0.417716146308635
30
0
41
1
10
21.6773980488867
20
-0.755034401742876
30
0
41
1
10
21.9783303066938
20
-0.921405525292414
30
1E-16
41
1
10
22.5784871296494
20
-1.24246724241055
30
1E-16
41
1
10
22.8778868045625
20
-1.39731721685936
30
1E-16
41
1
10
23.4775920660416
20
-1.69211188364454
30
1E-16
41
1
10
23.7785554577441
20
-1.83227550849133
30
1E-16
41
1
10
24.3785673951741
20
-2.09205174986457
30
1E-16
41
1
10
24.6779916464457
20
-2.21193676393773
30
1E-16
41
1
10
25.2778541179051
20
-2.42904835720282
30
-1E-16
41
1
10
25.5788167028743
20
-2.5263657043254
30
-1E-16
41
1
10
26.1785873004
20
-2.69427070755833
30
-1E-16
41
1
10
26.4779345728682
20
-2.76511787178623
30
-1E-16
41
1
10
27.0777732310375
20
-2.87893920850215
30
0
41
1
10
27.3786209462775
20
-2.92186483650377
30
0
41
1
10
27.9728095643696
20
-2.97741299957679
30
0
41
1
10
28.266822427725
20
-2.99073695348034
30
0
41
1
10
28.5614413513376
20
-2.98970480401306
30
0
0
SPLINE
5
E7
100
AcDbEntity
8
1
62
256
6
ByLayer
370
18
48
1
60
0
100
AcDbSpline
70
4
71
3
72
10
73
6
40
0
40
0
40
0
40
0
40
0.344109604895898
40
0.344109604895898
40
1
40
1
40
1
40
1
41
1
10
43.4020069388147
20
2.87964597046147
30
0
41
1
10
43.5595325843314
20
2.90509980339544
30
0
41
1
10
43.7170298007011
20
2.92660161988044
30
0
41
1
10
44.1744818802967
20
2.97727958797938
30
0
41
1
10
44.4738244122154
20
2.99576479486564
30
0
41
1
10
44.773563977073
20
2.99933825912532
30
0
0
SPLINE
5
E8
100
AcDbEntity
8
1
62
256
6
ByLayer
370
18
48
1
60
0
100
AcDbSpline
70
4
71
3
72
8
73
4
40
0
40
0
40
0
40
0
40
1
40
1
40
1
40
1
41
1
10
44.7628097737558
20
0.505202796604181
30
0
41
1
10
44.674206583811
20
0.463013609433972
30
0
41
1
10
44.5895067192144
20
0.404465175003452
30
0
41
1
10
44.5113266377658
20
0.326999703611165
30
0
0
SPLINE
5
E9
100
AcDbEntity
8
1
62
256
6
ByLayer
370
18
48
1
60
0
100
AcDbSpline
70
4
71
3
72
8
73
4
40
0
40
0
40
0
40
0
40
1
40
1
40
1
40
1
41
1
10
44.9214718940489
20
-2.83526743549527
30
0
41
1
10
44.9164615895063
20
-2.84935328142069
30
0
41
1
10
44.9114739478485
20
-2.86343746946292
30
0
41
1
10
44.9065094944958
20
-2.87752022463522
30
0
0
SPLINE
5
EA
100
AcDbEntity
8
1
62
256
6
ByLayer
370
18
48
1
60
0
100
AcDbSpline
70
4
71
3
72
10
73
6
40
0
40
0
40
0
40
0
40
0.5
40
0.5
40
1
40
1
40
1
40
1
41
1
10
3.50206874973716
20
2.96800153905548
30
0
41
1
10
3.50206874973716
20
2.9702630871229
30
0
41
1
10
3.52176713043585
20
2.97169665071377
30
0
41
1
10
3.58256884436855
20
2.97296021467696
30
0
41
1
10
3.62178832522264
20
2.97298667476915
30
0
41
1
10
3.65229231827928
20
2.97238443072098
30
0
0
SPLINE
5
EB
100
AcDbEntity
8
1
62
256
6
ByLayer
370
18
48
1
60
0
100
AcDbSpline
70
4
71
3
72
8
73
4
40
0
40
0
40
0
40
0
40
1
40
1
40
1
40
1
41
1
10
3.6457243487915
20
2.8231622704283
30
0
41
1
10
3.6325452725311
20
2.82334546596431
30
0
41
1
10
3.61784370039263
20
2.82336435812943
30
0
41
1
10
3.60279362906306
20
2.82325900954515
30
0
0
SPLINE
5
EC
100
AcDbEntity
8
1
62
256
6
ByLayer
370
18
48
1
60
0
100
AcDbSpline
70
4
71
3
72
8
73
4
40
0
40
0
40
0
40
0
40
1
40
1
40
1
40
1
41
1
10
3.55241223464833
20
0.668024568727361
30
0
41
1
10
3.52171419239798
20
0.685133274307077
30
0
41
1
10
3.50206874973713
20
0.718099053725297
30
0
41
1
10
3.50206874973713
20
0.752315242701314
30
0
0
SPLINE
5
ED
100
AcDbEntity
8
1
62
256
6
ByLayer
370
18
48
1
60
0
100
AcDbSpline
70
4
71
3
72
16
73
12
40
0
40
0
40
0
40
0
40
0.433009365940664
40
0.433009365940664
40
0.649514048910996
40
0.649514048910996
40
0.757766390396163
40
0.757766390396163
40
0.866018731881331
40
0.866018731881331
40
1
40
1
40
1
40
1
41
1
10
6.75393834261101
20
-1.54107209322427
30
1E-16
41
1
10
7.53196646625139
20
-1.92237820620178
30
1E-16
41
1
10
8.29589625460289
20
-2.24447553226045
30
1E-16
41
1
10
9.44819593193725
20
-2.60774232804013
30
-1E-16
41
1
10
9.83329761167062
20
-2.70891755656871
30
-1E-16
41
1
10
10.4159933463246
20
-2.82679973137286
30
0
41
1
10
10.6102458234548
20
-2.86020370546177
30
0
41
1
10
10.9966213438582
20
-2.91474684717903
30
0
41
1
10
11.1891525088152
20
-2.93596496159205
30
0
41
1
10
11.6191694518196
20
-2.96987048022606
30
0
41
1
10
11.8564710916599
20
-2.97932870713268
30
0
41
1
10
12.0937717648815
20
-2.9794882417722
30
0
0
SPLINE
5
EE
100
AcDbEntity
8
1
62
256
6
ByLayer
370
18
48
1
60
0
100
AcDbSpline
70
4
71
3
72
12
73
8
40
0
40
0
40
0
40
0
40
0.500000000000002
40
0.500000000000002
40
0.750000000000001
40
0.750000000000001
40
1
40
1
40
1
40
1
41
1
10
3.50206874973716
20
2.91875633517435
30
0
41
1
10
3.50206874973728
20
2.89695626938482
30
0
41
1
10
3.50983480947448
20
2.87482760921628
30
0
41
1
10
3.53520642589575
20
2.84695921106268
30
0
41
1
10
3.54597052611189
20
2.83869940723156
30
0
41
1
10
3.57201277200701
20
2.82668894573382
30
0
41
1
10
3.58717733716046
20
2.8231493184357
30
0
41
1
10
3.60279362906306
20
2.82325900954515
30
0
0
SPLINE
5
EF
100
AcDbEntity
8
1
62
256
6
ByLayer
370
18
48
1
60
0
100
AcDbSpline
70
4
71
3
72
22
73
18
40
0
40
0
40
0
40
0
40
0.125
40
0.125
40
0.25
40
0.25
40
0.375
40
0.375
40
0.5
40
0.5
40
0.625
40
0.625
40
0.75
40
0.75
40
0.875
40
0.875
40
1
40
1
40
1
40
1
41
1
10
45.9460911712422
20
0.0465668161677115
30
0
41
1
10
45.9323066503237
20
0.0005764180884
30
0
41
1
10
45.9169043750941
20
-0.044606082155326
30
0
41
1
10
45.8828836528527
20
-0.133316055443117
30
0
41
1
10
45.8640204146022
20
-0.177349600385725
30
0
41
1
10
45.8240788134023
20
-0.260848557781259
30
0
41
1
10
45.8031542662088
20
-0.300125557076456
30
0
41
1
10
45.7594572657667
20
-0.37340148145276
30
0
41
1
10
45.7364082149482
20
-0.407672685272189
30
0
41
1
10
45.6910515078589
20
-0.466383542962433
30
0
41
1
10
45.6684759349649
20
-0.491371254059601
30
0
41
1
10
45.6234066126108
20
-0.531998606989816
30
0
41
1
10
45.6019283806157
20
-0.546716984474386
30
0
41
1
10
45.5606330573026
20
-0.565665131157203
30
0
41
1
10
45.5408194862667
20
-0.569722056724657
30
0
41
1
10
45.5042189445973
20
-0.567480042623544
30
0
41
1
10
45.4870134783055
20
-0.561211629458597
30
0
41
1
10
45.4711546833592
20
-0.550514061386849
30
0
0
SPLINE
5
F0
100
AcDbEntity
8
1
62
256
6
ByLayer
370
18
48
1
60
0
100
AcDbSpline
70
4
71
3
72
8
73
4
40
0
40
0
40
0
40
0
40
1
40
1
40
1
40
1
41
1
10
45.2664216456932
20
0.796804036992285
30
0
41
1
10
45.4329269527205
20
0.819344538388975
30
0
41
1
10
45.5984930820088
20
0.849844911149916
30
0
41
1
10
45.7611061986579
20
0.891464663063203
30
0
0
SPLINE
5
F1
100
AcDbEntity
8
1
62
256
6
ByLayer
370
18
48
1
60
0
100
AcDbSpline
70
4
71
3
72
32
73
28
40
0
40
0
40
0
40
0
40
0.0340499135257009
40
0.0340499135257009
40
0.185381497020721
40
0.185381497020721
40
0.261047288768234
40
0.261047288768234
40
0.336713080515746
40
0.336713080515746
40
0.412378872263258
40
0.412378872263258
40
0.48804466401077
40
0.48804466401077
40
0.563710455758283
40
0.563710455758283
40
0.639376247505795
40
0.639376247505795
40
0.715042039253308
40
0.715042039253308
40
0.79070783100082
40
0.79070783100082
40
0.866373622748333
40
0.866373622748333
40
0.942039414495846
40
0.942039414495846
40
1
40
1
40
1
40
1
41
1
10
28.2734567373586
20
-0.163853981002063
30
0
41
1
10
28.1778546864832
20
-0.111742438410516
30
0
41
1
10
28.082309772184
20
-0.0596293851439782
30
0
41
1
10
27.5622331824974
20
0.223731686184124
30
0
41
1
10
27.1389980171085
20
0.455242058179351
30
0
41
1
10
26.5007045324745
20
0.792993466148516
30
0
41
1
10
26.2874458790256
20
0.904120138956415
30
-1E-16
41
1
10
25.8594036139924
20
1.12236361678495
30
-1E-16
41
1
10
25.6440424763904
20
1.22944822035831
30
-1E-16
41
1
10
25.2143723176709
20
1.43615728278024
30
-1E-16
41
1
10
24.9999238645271
20
1.53598692858714
30
-1E-16
41
1
10
24.5708560584306
20
1.72735812889309
30
-1E-16
41
1
10
24.3558661736349
20
1.81903348125832
30
-1E-16
41
1
10
23.9258385791905
20
1.9926979970592
30
-1E-16
41
1
10
23.7114922617229
20
2.07434558262983
30
1E-16
41
1
10
23.2833707420735
20
2.22630779763409
30
1E-16
41
1
10
23.0692190543743
20
2.29701800060366
30
1E-16
41
1
10
22.6406057167924
20
2.42652764745901
30
1E-16
41
1
10
22.4262321443257
20
2.48508032376921
30
1E-16
41
1
10
21.9962958366783
20
2.58947399547489
30
1E-16
41
1
10
21.7818992189742
20
2.63531159092565
30
1E-16
41
1
10
21.3548305082092
20
2.71307686912815
30
-1E-16
41
1
10
21.1421867569968
20
2.74470437452643
30
1E-16
41
1
10
20.7174618906537
20
2.79418874715864
30
0
41
1
10
20.5052542858157
20
2.81235829641372
30
0
41
1
10
20.1305152813238
20
2.8318930222087
30
0
41
1
10
19.9681062992148
20
2.83574741048653
30
0
41
1
10
19.8054825416633
20
2.83555776830536
30
0
0
SPLINE
5
F2
100
AcDbEntity
8
1
62
256
6
ByLayer
370
18
48
1
60
0
100
AcDbSpline
70
4
71
3
72
40
73
36
40
0
40
0
40
0
40
0
40
0.004232007288747
40
0.004232007288747
40
0.114872895367775
40
0.114872895367775
40
0.170193339407289
40
0.170193339407289
40
0.225513783446803
40
0.225513783446803
40
0.280834227486317
40
0.280834227486317
40
0.336154671525831
40
0.336154671525831
40
0.391475115565345
40
0.391475115565345
40
0.446795559604859
40
0.446795559604859
40
0.502116003644373
40
0.502116003644373
40
0.557436447683887
40
0.557436447683887
40
0.612756891723401
40
0.612756891723401
40
0.668077335762915
40
0.668077335762915
40
0.723397779802429
40
0.723397779802429
40
0.778718223841942
40
0.778718223841942
40
0.889359111920972
40
0.889359111920972
40
0.944679555960486
40
0.944679555960486
40
1
40
1
40
1
40
1
41
1
10
28.5087941273179
20
2.98973645645765
30
0
41
1
10
28.5317402082318
20
2.98978925414386
30
0
41
1
10
28.5546896094659
20
2.98975498561089
30
0
41
1
10
29.1777271267872
20
2.98645946521196
30
0
41
1
10
29.7801877342876
20
2.92277178626125
30
0
41
1
10
30.6791682407896
20
2.74300920279691
30
1E-16
41
1
10
30.9784707576903
20
2.66917904175091
30
1E-16
41
1
10
31.578668764666
20
2.49528366438767
30
1E-16
41
1
10
31.8792200429625
20
2.3952757971841
30
1E-16
41
1
10
32.4785129893318
20
2.1731612752242
30
-1E-16
41
1
10
32.7778976349593
20
2.05082965125854
30
-1E-16
41
1
10
33.3782593286138
20
1.78606144931936
30
-1E-16
41
1
10
33.6785366033586
20
1.64395062623583
30
-1E-16
41
1
10
34.2776357726802
20
1.34563865327374
30
-1E-16
41
1
10
34.5770323348531
20
1.18916567733515
30
-1E-16
41
1
10
35.1776456693038
20
0.864851894408218
30
-1E-16
41
1
10
35.4777016825299
20
0.697638284313513
30
0
41
1
10
36.0766613329621
20
0.358409133012515
30
0
41
1
10
36.3760130816909
20
0.186168823298942
30
0
41
1
10
36.9767833983044
20
-0.159557024107642
30
0
41
1
10
37.2765494130208
20
-0.332066236399584
30
0
41
1
10
37.875530347144
20
-0.671877337717206
30
0
41
1
10
38.1750024682828
20
-0.839340353589108
30
1E-16
41
1
10
38.7759774757393
20
-1.16541194860568
30
1E-16
41
1
10
39.0754005665092
20
-1.32286774745452
30
1E-16
41
1
10
39.6742939726283
20
-1.62329228977151
30
1E-16
41
1
10
39.9740428154206
20
-1.76639119900119
30
1E-16
41
1
10
40.5746500602493
20
-2.0341033026773
30
1E-16
41
1
10
40.8739657890865
20
-2.15803203475224
30
1E-16
41
1
10
41.7722318703358
20
-2.49621060529503
30
-1E-16
41
1
10
42.3732715882257
20
-2.67682284017229
30
-1E-16
41
1
10
43.274063021389
20
-2.86280086200142
30
0
41
1
10
43.5744050298513
20
-2.91080120294168
30
0
41
1
10
44.1744818803058
20
-2.97727958798009
30
0
41
1
10
44.4738244122247
20
-2.99576479486603
30
0
41
1
10
44.7735639770823
20
-2.99933825912544
30
0
0
SPLINE
5
F3
100
AcDbEntity
8
1
62
256
6
ByLayer
370
18
48
1
60
0
100
AcDbSpline
70
4
71
3
72
28
73
24
40
0
40
0
40
0
40
0
40
0.0053987649420143
40
0.0053987649420143
40
0.0814385289522597
40
0.0814385289522597
40
0.157478292962506
40
0.157478292962506
40
0.309557820982996
40
0.309557820982996
40
0.385597584993241
40
0.385597584993241
40
0.461637349003487
40
0.461637349003487
40
0.613716877023977
40
0.613716877023977
40
0.765796405044468
40
0.765796405044468
40
0.841836169054712
40
0.841836169054712
40
0.917875933064957
40
0.917875933064957
40
1
40
1
40
1
40
1
41
1
10
29.5075136806717
20
-2.84744138092054
30
0
41
1
10
29.4921131757645
20
-2.84783206369684
30
0
41
1
10
29.4767074942037
20
-2.84818510858599
30
0
41
1
10
29.2442379089795
20
-2.85294136460288
30
0
41
1
10
29.0275679231024
20
-2.84998733306256
30
0
41
1
10
28.5963324502504
20
-2.82967576495554
30
0
41
1
10
28.381434605735
20
-2.81226480930596
30
0
41
1
10
27.7377636648538
20
-2.73824548653144
30
-1E-16
41
1
10
27.310135030768
20
-2.66112884307151
30
-1E-16
41
1
10
26.6662724439508
20
-2.50529303390775
30
-1E-16
41
1
10
26.4512478617222
20
-2.44673524914683
30
-1E-16
41
1
10
26.0196455709077
20
-2.31698879797517
30
-1E-16
41
1
10
25.8026515376375
20
-2.24562786847082
30
-1E-16
41
1
10
25.1511553824297
20
-2.01403397397982
30
1E-16
41
1
10
24.7183410698234
20
-1.83771198487017
30
1E-16
41
1
10
23.8492279322081
20
-1.44904938292714
30
1E-16
41
1
10
23.4166187359952
20
-1.23852300844865
30
1E-16
41
1
10
22.7672792679888
20
-0.906641421153125
30
1E-16
41
1
10
22.5506750586974
20
-0.793349750886023
30
0
41
1
10
22.1165063395338
20
-0.562643463412854
30
0
41
1
10
21.8993480500275
20
-0.445501010135047
30
0
41
1
10
21.4502584374274
20
-0.201615816884839
30
0
41
1
10
21.2179737393488
20
-0.0744877959612893
30
0
41
1
10
20.9861108710549
20
0.0522495059186099
30
0
0
SPLINE
5
F4
100
AcDbEntity
8
1
62
256
6
ByLayer
370
18
48
1
60
0
100
AcDbSpline
70
4
71
3
72
12
73
8
40
0
40
0
40
0
40
0
40
0.25000000000002
40
0.25000000000002
40
0.500000000000039
40
0.500000000000039
40
1
40
1
40
1
40
1
41
1
10
45.3368723610342
20
-0.40037090606134
30
0
41
1
10
45.3419215722722
20
-0.409627696661403
30
0
41
1
10
45.3497420981087
20
-0.420292585139322
30
0
41
1
10
45.3685842060675
20
-0.443413071319497
30
0
41
1
10
45.3797447966132
20
-0.45598285283512
30
0
41
1
10
45.4155243722751
20
-0.49465966993688
30
0
41
1
10
45.4425699112709
20
-0.521997914378886
30
0
41
1
10
45.4711546833592
20
-0.550514061386821
30
0
0
SPLINE
5
F5
100
AcDbEntity
8
1
62
256
6
ByLayer
370
18
48
1
60
0
100
AcDbSpline
70
4
71
3
72
16
73
12
40
0
40
0
40
0
40
0
40
0.451118134494127
40
0.451118134494127
40
0.676677201741191
40
0.676677201741191
40
0.789456735364722
40
0.789456735364722
40
0.902236268988253
40
0.902236268988253
40
1
40
1
40
1
40
1
41
1
10
44.7628097737558
20
0.505202796604152
30
0
41
1
10
44.6739609012205
20
0.586402323612646
30
0
41
1
10
44.5879897193963
20
0.662617256329298
30
0
41
1
10
44.4752133145115
20
0.75541284426572
30
0
41
1
10
44.4399973905492
20
0.783109763619819
30
0
41
1
10
44.3919828085684
20
0.818194821674609
30
-1E-16
41
1
10
44.3770036083858
20
0.828643528767714
30
-1E-16
41
1
10
44.3485724923111
20
0.847685091846671
30
-1E-16
41
1
10
44.3353931334379
20
0.855946755238847
30
-1E-16
41
1
10
44.3136096640665
20
0.867942810116574
30
-1E-16
41
1
10
44.3046522891045
20
0.87207859791036
30
-1E-16
41
1
10
44.297316265801
20
0.874440298394717
30
-1E-16
0
SPLINE
5
F6
100
AcDbEntity
8
1
62
256
6
ByLayer
370
18
48
1
60
0
100
AcDbSpline
70
4
71
3
72
8
73
4
40
0
40
0
40
0
40
0
40
1
40
1
40
1
40
1
41
1
10
44.5151021500837
20
-0.0978147745867943
30
0
41
1
10
44.5086454873268
20
0.0446829923936889
30
0
41
1
10
44.5068664769571
20
0.186291750654362
30
0
41
1
10
44.5113266377585
20
0.32699970361233
30
0
0
SPLINE
5
F7
100
AcDbEntity
8
1
62
256
6
ByLayer
370
18
48
1
60
0
100
AcDbSpline
70
4
71
3
72
10
73
6
40
0
40
0
40
0
40
0
40
0.5
40
0.5
40
1
40
1
40
1
40
1
41
1
10
44.761270459114
20
2.9603895371902
30
0
41
1
10
44.7635835499068
20
2.97187709901357
30
0
41
1
10
44.765793406642
20
2.98089830218808
30
0
41
1
10
44.7698647070774
20
2.99392380178225
30
0
41
1
10
44.771758206798
20
2.99793012246232
30
0
41
1
10
44.7735639770609
20
2.99933825912532
30
0
0
SPLINE
5
F8
100
AcDbEntity
8
1
62
256
6
ByLayer
370
18
48
1
60
0
100
AcDbSpline
70
4
71
3
72
8
73
4
40
0
40
0
40
0
40
0
40
1
40
1
40
1
40
1
41
1
10
45.7611061986572
20
-0.891464663064056
30
0
41
1
10
45.8410980233715
20
-0.66595400075559
30
0
41
1
10
45.9192814735128
20
-0.439792772971089
30
0
41
1
10
45.9956334010024
20
-0.212972652154292
30
0
0
SPLINE
5
F9
100
AcDbEntity
8
1
62
256
6
ByLayer
370
18
48
1
60
0
100
AcDbSpline
70
4
71
3
72
8
73
4
40
0
40
0
40
0
40
0
40
1
40
1
40
1
40
1
41
1
10
44.9542535923381
20
2.87953285699206
30
0
41
1
10
44.9561465205828
20
2.87825635805359
30
0
41
1
10
44.958039476431
20
2.87697966326988
30
0
41
1
10
44.9599324601702
20
2.87570277268492
30
0
0
SPLINE
5
FA
100
AcDbEntity
8
1
62
256
6
ByLayer
370
18
48
1
60
0
100
AcDbSpline
70
4
71
3
72
50
73
46
40
0
40
0
40
0
40
0
40
0.0007874434075709
40
0.0007874434075709
40
0.0365810372027737
40
0.0365810372027737
40
0.0723746309979767
40
0.0723746309979767
40
0.10816822479318
40
0.10816822479318
40
0.179755412383585
40
0.179755412383585
40
0.215549006178787
40
0.215549006178787
40
0.251342599973988
40
0.251342599973988
40
0.28713619376919
40
0.28713619376919
40
0.322929787564393
40
0.322929787564393
40
0.394516975154797
40
0.394516975154797
40
0.466104162745203
40
0.466104162745203
40
0.501897756540405
40
0.501897756540405
40
0.537691350335608
40
0.537691350335608
40
0.609278537926013
40
0.609278537926013
40
0.680865725516418
40
0.680865725516418
40
0.752452913106823
40
0.752452913106823
40
0.824040100697227
40
0.824040100697227
40
0.85983369449243
40
0.85983369449243
40
0.895627288287632
40
0.895627288287632
40
0.931420882082835
40
0.931420882082835
40
0.967214475878038
40
0.967214475878038
40
1
40
1
40
1
40
1
41
1
10
18.3422710226508
20
2.86424070673536
30
0
41
1
10
18.3469332852716
20
2.86499211387803
30
0
41
1
10
18.3515955213749
20
2.86574015586129
30
0
41
1
10
18.5681805905286
20
2.90033439992484
30
0
41
1
10
18.7800634241787
20
2.92715017663076
30
0
41
1
10
19.2059532888551
20
2.96581161064398
30
0
41
1
10
19.4195801308094
20
2.97784062501788
30
0
41
1
10
19.8483351089576
20
2.98682120563009
30
0
41
1
10
20.0629732054087
20
2.98363714666201
30
0
41
1
10
20.7034817500797
20
2.95172177886835
30
0
41
1
10
21.126927118318
20
2.90047826553831
30
0
41
1
10
21.7626945518692
20
2.78182734281148
30
1E-16
41
1
10
21.9746509365832
20
2.73532157125874
30
1E-16
41
1
10
22.3988988005763
20
2.62840196001107
30
1E-16
41
1
10
22.6113819982585
20
2.56810728234333
30
1E-16
41
1
10
23.0382520362956
20
2.43477395910622
30
1E-16
41
1
10
23.2531202083224
20
2.36141762629106
30
1E-16
41
1
10
23.6817634148354
20
2.20253631820222
30
-1E-16
41
1
10
23.895144782162
20
2.1177421462184
30
-1E-16
41
1
10
24.5338397503951
20
1.84944435560294
30
-1E-16
41
1
10
24.9566130815591
20
1.65049948385041
30
-1E-16
41
1
10
25.8044032633229
20
1.2247990978166
30
-1E-16
41
1
10
26.2284866740167
20
0.996606996671972
30
-1E-16
41
1
10
26.8708015988946
20
0.640436532898093
30
0
41
1
10
27.086000946375
20
0.519025450272295
30
0
41
1
10
27.5130759880461
20
0.275613316782511
30
0
41
1
10
27.7258314434427
20
0.153510837200912
30
0
41
1
10
28.3629906259061
20
-0.211821905359187
30
0
41
1
10
28.7854238492662
20
-0.455605363228699
30
0
41
1
10
29.6339009425311
20
-0.929031857224601
30
1E-16
41
1
10
30.0591666767039
20
-1.16074646270832
30
1E-16
41
1
10
30.9183101668014
20
-1.5983413260652
30
1E-16
41
1
10
31.3429540893655
20
-1.80170970861292
30
1E-16
41
1
10
32.1912455892399
20
-2.16612836885409
30
1E-16
41
1
10
32.6135137287369
20
-2.32900817279727
30
-1E-16
41
1
10
33.2507561721994
20
-2.53628392291765
30
-1E-16
41
1
10
33.4634817981107
20
-2.59957076786557
30
-1E-16
41
1
10
33.8904098331436
20
-2.7133638554856
30
-1E-16
41
1
10
34.1057497559125
20
-2.76356046435751
30
-1E-16
41
1
10
34.5337075532006
20
-2.84917723360931
30
0
41
1
10
34.7466302420088
20
-2.8848242096509
30
0
41
1
10
35.171187760969
20
-2.94148730053578
30
0
41
1
10
35.3832418172832
20
-2.96236093102078
30
0
41
1
10
35.7890922038578
20
-2.9883177406663
30
0
41
1
10
35.9827552408952
20
-2.99451590545888
30
0
41
1
10
36.1765878528157
20
-2.99447319396731
30
0
0
SPLINE
5
FB
100
AcDbEntity
8
1
62
256
6
ByLayer
370
18
48
1
60
0
100
AcDbSpline
70
4
71
3
72
8
73
4
40
0
40
0
40
0
40
0
40
1
40
1
40
1
40
1
41
1
10
45.7611061986573
20
0.891464663064056
30
0
41
1
10
45.8410980233691
20
0.66595400076244
30
0
41
1
10
45.9192814735081
20
0.439792772984788
30
0
41
1
10
45.9956334009954
20
0.212972652174898
30
0
0
SPLINE
5
FC
100
AcDbEntity
8
SK1
62
256
6
ByLayer
370
18
48
1
60
0
100
AcDbSpline
70
4
71
3
72
12
73
8
40
0
40
0
40
0
40
0
40
0.249999999999999
40
0.249999999999999
40
0.499999999999998
40
0.499999999999998
40
1
40
1
40
1
40
1
41
1
10
-35.65
20
-1.1194299771457
30
1E-16
41
1
10
-35.65
20
-1.10385455817362
30
1E-16
41
1
10
-35.6543403470552
20
-1.08641838480648
30
1E-16
41
1
10
-35.6670034572333
20
-1.05381855942426
30
1E-16
41
1
10
-35.6754069618006
20
-1.03816741644403
30
1E-16
41
1
10
-35.7033744297258
20
-0.995214839394578
30
1E-16
41
1
10
-35.7260009806425
20
-0.970972432288619
30
1E-16
41
1
10
-35.7500000000001
20
-0.953598042207176
30
1E-16
0
SPLINE
5
FD
100
AcDbEntity
8
SK1
62
256
6
ByLayer
370
18
48
1
60
0
100
AcDbSpline
70
4
71
3
72
8
73
4
40
0
40
0
40
0
40
0
40
1
40
1
40
1
40
1
41
1
10
-35.75
20
-0.953598042207204
30
1E-16
41
1
10
-35.7837020077248
20
-0.929199052397962
30
1E-16
41
1
10
-35.8173582928339
20
-0.904770828994657
30
1E-16
41
1
10
-35.8509618943233
20
-0.880308921351428
30
1E-16
0
SPLINE
5
FE
100
AcDbEntity
8
SK1
62
256
6
ByLayer
370
18
48
1
60
0
100
AcDbSpline
70
4
71
3
72
12
73
8
40
0
40
0
40
0
40
0
40
0.499999999999999
40
0.499999999999999
40
0.75
40
0.75
40
1
40
1
40
1
40
1
41
1
10
-35.75
20
-2.04653070834414
30
-1E-16
41
1
10
-35.7259913046562
20
-2.06391210347675
30
-1E-16
41
1
10
-35.7033433879313
20
-2.07623538606563
30
-1E-16
41
1
10
-35.6754686754417
20
-2.08406037375349
30
-1E-16
41
1
10
-35.667025596347
20
-2.08486964429537
30
-1E-16
41
1
10
-35.6543350076412
20
-2.08079513982239
30
-1E-16
41
1
10
-35.65
20
-2.07571935324631
30
-1E-16
41
1
10
-35.65
20
-2.06663828779756
30
-1E-16
0
SPLINE
5
FF
100
AcDbEntity
8
SK1
62
256
6
ByLayer
370
18
48
1
60
0
100
AcDbSpline
70
4
71
3
72
10
73
6
40
0
40
0
40
0
40
0
40
0.5
40
0.5
40
1
40
1
40
1
40
1
41
1
10
-35.8509618943233
20
-1.97324158748819
30
-1E-16
41
1
10
-35.8741904300927
20
-1.97572572769224
30
0
41
1
10
-35.8986222732875
20
-1.97494956457598
30
0
41
1
10
-35.9485161922248
20
-1.96784184735242
30
0
41
1
10
-35.974056478015
20
-1.96153083422541
30
0
41
1
10
-35.9999999999999
20
-1.95282866341404
30
0
0
SPLINE
5
100
100
AcDbEntity
8
SK1
62
256
6
ByLayer
370
18
48
1
60
0
100
AcDbSpline
70
4
71
3
72
8
73
4
40
0
40
0
40
0
40
0
40
1
40
1
40
1
40
1
41
1
10
-35.8509618943234
20
-1.97324158748816
30
-1E-16
41
1
10
-35.8173573411133
20
-1.99770418794117
30
-1E-16
41
1
10
-35.7837010972434
20
-2.02213237768905
30
-1E-16
41
1
10
-35.7499999999999
20
-2.04653070834399
30
-1E-16
0
SPLINE
5
101
100
AcDbEntity
8
SK1
62
256
6
ByLayer
370
18
48
1
60
0
100
AcDbSpline
70
4
71
3
72
8
73
4
40
0
40
0
40
0
40
0
40
1
40
1
40
1
40
1
41
1
10
-36.0000000000001
20
-0.549404006819884
30
0
41
1
10
-35.9478735570756
20
-0.657593625770403
30
0
41
1
10
-35.897619057052
20
-0.767534994120695
30
0
41
1
10
-35.8509618943233
20
-0.880308921351457
30
1E-16
0
SPLINE
5
102
100
AcDbEntity
8
1
62
256
6
ByLayer
370
18
48
1
60
0
100
AcDbSpline
70
4
71
2
72
6
73
3
40
0
40
0
40
0
40
1
40
1
40
1
41
1
10
37.4277420222938
20
0.0029610578893653
30
0
41
1
10
37.4277071939134
20
0.0029752326062749
30
0
41
1
10
37.4276723655915
20
0.0029902310865282
30
0
0
SPLINE
5
103
100
AcDbEntity
8
1
62
256
6
ByLayer
370
18
48
1
60
0
100
AcDbSpline
70
4
71
2
72
6
73
3
40
0
40
0
40
0
40
1
40
1
40
1
41
1
10
4.72296142685076
20
0.0050956711399124
30
0
41
1
10
4.72293659393986
20
0.0050992040467293
30
0
41
1
10
4.72291176102007
20
0.0051037255912547
30
0
0
SPLINE
5
104
100
AcDbEntity
8
1
62
256
6
ByLayer
370
18
48
1
60
0
100
AcDbSpline
70
4
71
1
72
4
73
2
40
0
40
0
40
1
40
1
41
1
10
44.9479027615758
20
-2.88381565394988
30
0
41
1
10
44.9608189792513
20
-2.87511104479293
30
0
0
SPLINE
5
105
100
AcDbEntity
8
1
62
256
6
ByLayer
370
18
48
1
60
0
100
AcDbSpline
70
4
71
3
72
11
73
7
40
0
40
0
40
0
40
0
40
0.13061202612502
40
0.337889442658301
40
0.635869320959724
40
1
40
1
40
1
40
1
41
1
10
44.3041938133123
20
0.873136038268967
30
-1E-16
41
1
10
44.1624388985221
20
0.921379338203252
30
-1E-16
41
1
10
43.7962798043675
20
1.04782208710708
30
-1E-16
41
1
10
43.1102979267493
20
1.29494917027594
30
-1E-16
41
1
10
42.1766761550999
20
1.64514990301464
30
-1E-16
41
1
10
41.4711503361826
20
1.92620655439953
30
-1E-16
41
1
10
41.0846924513041
20
2.08492201627843
30
-1E-16
0
SPLINE
5
106
100
AcDbEntity
8
1
62
256
6
ByLayer
370
18
48
1
60
0
100
AcDbSpline
70
4
71
1
72
4
73
2
40
0
40
0
40
1
40
1
41
1
10
41.0846924513041
20
2.08492201627843
30
-1E-16
41
1
10
40.9501074771034
20
2.1385082954458
30
-1E-16
0
SPLINE
5
107
100
AcDbEntity
8
1
62
256
6
ByLayer
370
18
48
1
60
0
100
AcDbSpline
70
4
71
3
72
30
73
26
40
0
40
0
40
0
40
0
40
2.67242988211E-05
40
8.51580297462E-05
40
0.0001704127999283
40
0.0002027917840609
40
0.0002317204334916
40
0.0002863888721352
40
0.000791838179189
40
0.0011904154657379
40
0.0019302342636759
40
0.0033642586795513
40
0.0062900901130243
40
0.0126979235354532
40
0.0279718546841177
40
0.0954256363629088
40
0.191530377636737
40
0.289199707382399
40
0.386585967871691
40
0.513678128442857
40
0.615099171677554
40
0.665423623763562
40
0.750946844555998
40
0.873515350174307
40
1
40
1
40
1
40
1
41
1
10
13.9826600103644
20
0.110949382980778
30
0
41
1
10
13.9826707484572
20
0.110948344506454
30
0
41
1
10
13.982693017877
20
0.110948642609401
30
0
41
1
10
13.98264949008
20
0.110975064299254
30
0
41
1
10
13.9825704276435
20
0.111012682769825
30
0
41
1
10
13.9824087559877
20
0.111070664060463
30
0
41
1
10
13.9822408875388
20
0.11112706432823
30
0
41
1
10
13.9811664719258
20
0.111463797019695
30
0
41
1
10
13.9794996079334
20
0.11199349828641
30
0
41
1
10
13.9766565186246
20
0.112899199586934
30
0
41
1
10
13.9721719793265
20
0.114318676760775
30
0
41
1
10
13.9631681007808
20
0.117140030695452
30
0
41
1
10
13.9438453596015
20
0.12311158036411
30
0
41
1
10
13.8989068355605
20
0.136782416599601
30
0
41
1
10
13.7336992776986
20
0.186414719374312
30
0
41
1
10
13.398031672224
20
0.287546765872037
30
0
41
1
10
12.9077664578506
20
0.440321272265663
30
0
41
1
10
12.3632156725428
20
0.615992210106441
30
0
41
1
10
11.7625539016452
20
0.816526902553193
30
0
41
1
10
11.1572920496952
20
1.02632840826163
30
-1E-16
41
1
10
10.6412303351572
20
1.21189790439175
30
-1E-16
41
1
10
10.2031404131986
20
1.37312517226053
30
-1E-16
41
1
10
9.72749825567422
20
1.55183287840015
30
-1E-16
41
1
10
9.11385652739125
20
1.78905520095131
30
-1E-16
41
1
10
8.65961129584682
20
1.97192776210684
30
-1E-16
41
1
10
8.42952167146325
20
2.06633180281568
30
-1E-16
0
SPLINE
5
108
100
AcDbEntity
8
1
62
256
6
ByLayer
370
18
48
1
60
0
100
AcDbSpline
70
4
71
3
72
28
73
24
40
0
40
0
40
0
40
0
40
1.901147746E-06
40
5.36449189634E-05
40
0.0001005885873456
40
0.0001889136118159
40
0.0003481979952475
40
0.0010852517556454
40
0.0016626420655169
40
0.0027115855765636
40
0.0046417487403013
40
0.0082704103478228
40
0.0153304376798301
40
0.0297883862918635
40
0.0615094267839909
40
0.131275874622458
40
0.234391267201582
40
0.343520609171585
40
0.449467159909784
40
0.549798595462765
40
0.663466101576315
40
0.823831135905126
40
1
40
1
40
1
40
1
41
1
10
30.334798651691
20
0.111098945442256
30
0
41
1
10
30.3347996512946
20
0.111098914087874
30
0
41
1
10
30.3348139062859
20
0.111098528589792
30
0
41
1
10
30.3348244700111
20
0.111102716075777
30
0
41
1
10
30.3347470910333
20
0.111138489792665
30
0
41
1
10
30.334381296809
20
0.111261336613921
30
0
41
1
10
30.3328271387862
20
0.111752476219095
30
0
41
1
10
30.3298248538494
20
0.112613566092705
30
0
41
1
10
30.3254747057362
20
0.113908055124568
30
0
41
1
10
30.318763919485
20
0.115887113811368
30
0
41
1
10
30.3063969470088
20
0.119546591801964
30
0
41
1
10
30.282702269027
20
0.126554844532052
30
0
41
1
10
30.2355056102361
20
0.140539078031281
30
0
41
1
10
30.1354861564973
20
0.170269479805682
30
0
41
1
10
29.9175931175189
20
0.23557475902291
30
0
41
1
10
29.5333674663043
20
0.352976851918129
30
0
41
1
10
29.0051989789786
20
0.519698370052708
30
0
41
1
10
28.410774526451
20
0.714773270175499
30
0
41
1
10
27.8237611024906
20
0.914733859212788
30
-1E-16
41
1
10
27.2305145037882
20
1.12385647759945
30
-1E-16
41
1
10
26.5390046817765
20
1.37612192568719
30
-1E-16
41
1
10
25.7111445954818
20
1.69034856646439
30
-1E-16
41
1
10
25.0965941789994
20
1.93629229026496
30
-1E-16
41
1
10
24.7759885222051
20
2.06797197568213
30
-1E-16
0
SPLINE
5
109
100
AcDbEntity
8
1
62
256
6
ByLayer
370
18
48
1
60
0
100
AcDbSpline
70
4
71
3
72
18
73
14
40
0
40
0
40
0
40
0
40
0.172736565159328
40
0.288149251864361
40
0.364112786530524
40
0.445978954179861
40
0.5350660751672
40
0.625368685801784
40
0.715673569236427
40
0.80495762237972
40
0.888237408029853
40
0.966881645634189
40
1
40
1
40
1
40
1
41
1
10
29.2562801467767
20
-2.84050513372344
30
0
41
1
10
29.5727823654439
20
-2.84080037242475
30
0
41
1
10
30.100758684343
20
-2.84130839088286
30
0
41
1
10
30.7679328380428
20
-2.84131464055079
30
0
41
1
10
31.2686104363736
20
-2.84216737287042
30
0
41
1
10
31.7210493389727
20
-2.84230529531476
30
0
41
1
10
32.1997639650625
20
-2.84180652284314
30
0
41
1
10
32.6939369350282
20
-2.84345298289497
30
0
41
1
10
33.1884715731155
20
-2.84251234675679
30
0
41
1
10
33.6701407168642
20
-2.84351655022752
30
0
41
1
10
34.1304426342775
20
-2.84437689756678
30
0
41
1
10
34.4878289275764
20
-2.84348884083721
30
0
41
1
10
34.6926161678956
20
-2.84355657479679
30
0
41
1
10
34.7533002031847
20
-2.84360827396367
30
0
0
SPLINE
5
10A
100
AcDbEntity
8
1
62
256
6
ByLayer
370
18
48
1
60
0
100
AcDbSpline
70
4
71
3
72
16
73
12
40
0
40
0
40
0
40
0
40
0.18575764597143
40
0.32207761378548
40
0.422137192979107
40
0.521056995585991
40
0.620626656270045
40
0.716886913280866
40
0.822465649973446
40
0.917368242368736
40
1
40
1
40
1
40
1
41
1
10
19.8172705279582
20
2.83561258260534
30
0
41
1
10
19.4906578828667
20
2.83607133963619
30
0
41
1
10
18.9243487629867
20
2.8366556257935
30
0
41
1
10
18.1820759905403
20
2.83337284356117
30
0
41
1
10
17.5924968941869
20
2.83540095730166
30
0
41
1
10
17.067541272486
20
2.83307150638359
30
0
41
1
10
16.5492636104708
20
2.83355354071702
30
0
41
1
10
16.0192764619477
20
2.83293421045502
30
0
41
1
10
15.4974968351724
20
2.83222989211274
30
0
41
1
10
14.9996791506408
20
2.83223918678988
30
0
41
1
10
14.6875088047194
20
2.83168632674969
30
0
41
1
10
14.5422128329818
20
2.83149628485782
30
0
0
SPLINE
5
10B
100
AcDbEntity
8
1
62
256
6
ByLayer
370
18
48
1
60
0
100
AcDbSpline
70
4
71
3
72
17
73
13
40
0
40
0
40
0
40
0
40
0.176962465778256
40
0.298153731069513
40
0.382159944786333
40
0.474367808627857
40
0.576948671086914
40
0.670475649094359
40
0.76721806132332
40
0.863329067985973
40
0.960547487646169
40
1
40
1
40
1
40
1
41
1
10
12.9032967731448
20
-2.83005133758761
30
0
41
1
10
13.2235426032034
20
-2.830364865695
30
0
41
1
10
13.7631113202945
20
-2.83093847019549
30
0
41
1
10
14.4547152219836
20
-2.83126531763318
30
0
41
1
10
14.9929454788786
20
-2.83223931251322
30
0
41
1
10
15.4974968351724
20
-2.83222989211274
30
0
41
1
10
16.0192764619477
20
-2.83293421045502
30
0
41
1
10
16.5492636104707
20
-2.83355354071702
30
0
41
1
10
17.067541272486
20
-2.83307150638359
30
0
41
1
10
17.5924968941869
20
-2.83540095730166
30
0
41
1
10
18.0137748766645
20
-2.83395178844526
30
0
41
1
10
18.2611157912031
20
-2.83425822431653
30
0
41
1
10
18.3325150826693
20
-2.83439976755935
30
0
0
SPLINE
5
10C
100
AcDbEntity
8
1
62
256
6
ByLayer
370
18
48
1
60
0
100
AcDbSpline
70
4
71
3
72
18
73
14
40
0
40
0
40
0
40
0
40
0.178155526515088
40
0.299029398770253
40
0.379890369669374
40
0.465517550109732
40
0.557318239427849
40
0.650168533027168
40
0.743016489763358
40
0.83461469602846
40
0.918788413030087
40
0.996893120420579
40
1
40
1
40
1
40
1
41
1
10
36.1699368594826
20
2.84485906709375
30
0
41
1
10
35.8524527680457
20
2.84478080067848
30
0
41
1
10
35.3195594611235
20
2.84476850993056
30
0
41
1
10
34.6425561501061
20
2.84310436456102
30
0
41
1
10
34.1304426342775
20
2.84437689756678
30
0
41
1
10
33.6701407168642
20
2.84351655022752
30
0
41
1
10
33.1884715731154
20
2.84251234675679
30
0
41
1
10
32.6939369350282
20
2.84345298289497
30
0
41
1
10
32.1997639650625
20
2.84180652284314
30
0
41
1
10
31.7210493389727
20
2.84230529531476
30
0
41
1
10
31.2686104363736
20
2.84216737287042
30
0
41
1
10
30.9738732337018
20
2.84166538927988
30
0
41
1
10
30.8291450103558
20
2.84152006791177
30
0
41
1
10
30.8236082012828
20
2.84151465116082
30
0
0
LINE
5
84
100
AcDbEntity
8
1
62
256
6
ByLayer
370
18
48
1
60
0
100
AcDbLine
10
45.946091
20
0.046567
30
0
11
45.266422
21
0.796804
31
0
39
0
210
0
220
0
230
1
0
LINE
5
85
100
AcDbEntity
8
1
62
256
6
ByLayer
370
18
48
1
60
0
100
AcDbLine
10
1
20
0
30
0
11
1
21
2.972556
31
0
39
0
210
0
220
0
230
1
0
LINE
5
86
100
AcDbEntity
8
1
62
256
6
ByLayer
370
18
48
1
60
0
100
AcDbLine
10
1
20
-2.972556
30
0
11
1
21
0
31
0
39
0
210
0
220
0
230
1
0
LINE
5
87
100
AcDbEntity
8
1
62
256
6
ByLayer
370
18
48
1
60
0
100
AcDbLine
10
3.502069
20
0.752315
30
0
11
3.502069
21
2.968002
31
0
39
0
210
0
220
0
230
1
0
LINE
5
88
100
AcDbEntity
8
1
62
256
6
ByLayer
370
18
48
1
60
0
100
AcDbLine
10
0
20
3
30
0
11
0
21
-3
31
0
39
0
210
0
220
0
230
1
0
LINE
5
89
100
AcDbEntity
8
1
62
256
6
ByLayer
370
18
48
1
60
0
100
AcDbLine
10
16
20
2.211429
30
0
11
16
21
2.180226
31
0
39
0
210
0
220
0
230
1
0
LINE
5
8A
100
AcDbEntity
8
SK1
62
256
6
ByLayer
370
18
48
1
60
0
100
AcDbLine
10
-36
20
2.065
30
0
11
-36
21
-0.549404
31
0
39
0
210
0
220
0
230
1
0
LINE
5
8C
100
AcDbEntity
8
SK1
62
256
6
ByLayer
370
18
48
1
60
0
100
AcDbLine
10
0
20
3
30
0
11
0
21
-3
31
0
39
0
210
0
220
0
230
1
0
LINE
5
8D
100
AcDbEntity
8
SK1
62
256
6
ByLayer
370
18
48
1
60
0
100
AcDbLine
10
-35.65
20
-2.066638
30
0
11
-35.65
21
-1.11943
31
0
39
0
210
0
220
0
230
1
0
LINE
5
8E
100
AcDbEntity
8
SK1
62
256
6
ByLayer
370
18
48
1
60
0
100
AcDbLine
10
-35.850962
20
-1.973242
30
0
11
-35.850962
21
-0.880287
31
0
39
0
210
0
220
0
230
1
0
LINE
5
8F
100
AcDbEntity
8
SK1
62
256
6
ByLayer
370
18
48
1
60
0
100
AcDbLine
10
-35.065
20
-3
30
0
11
-35.065
21
3
31
0
39
0
210
0
220
0
230
1
0
LINE
5
90
100
AcDbEntity
8
SK1
62
256
6
ByLayer
370
18
48
1
60
0
100
AcDbLine
10
-36
20
-1.952829
30
0
11
-36
21
-0.549428
31
0
39
0
210
0
220
0
230
1
0
LINE
5
91
100
AcDbEntity
8
SK1
62
256
6
ByLayer
370
18
48
1
60
0
100
AcDbLine
10
-35.75
20
-2.046531
30
0
11
-35.75
21
-0.953593
31
0
39
0
210
0
220
0
230
1
0
LINE
5
92
100
AcDbEntity
8
SK1
62
256
6
ByLayer
370
18
48
1
60
0
100
AcDbLine
10
-36
20
-2.065
30
0
11
-36
21
-1.952829
31
0
39
0
210
0
220
0
230
1
0
LINE
5
93
100
AcDbEntity
8
SK1
62
256
6
ByLayer
370
18
48
1
60
0
100
AcDbLine
10
-36
20
-2.065
30
0
11
-35.065
21
-3
31
0
39
0
210
0
220
0
230
1
0
LINE
5
94
100
AcDbEntity
8
SK1
62
256
6
ByLayer
370
18
48
1
60
0
100
AcDbLine
10
-35.065
20
3
30
0
11
-36
21
2.065
31
0
39
0
210
0
220
0
230
1
0
LINE
5
95
100
AcDbEntity
8
SK1
62
256
6
ByLayer
370
18
48
1
60
0
100
AcDbLine
10
-35.065
20
-3
30
0
11
0
21
-3
31
0
39
0
210
0
220
0
230
1
0
LINE
5
96
100
AcDbEntity
8
SK1
62
256
6
ByLayer
370
18
48
1
60
0
100
AcDbLine
10
0
20
3
30
0
11
-35.065
21
3
31
0
39
0
210
0
220
0
230
1
0
LINE
5
97
100
AcDbEntity
8
1
62
256
6
ByLayer
370
18
48
1
60
0
100
AcDbLine
10
1
20
2.972556
30
0
11
0
21
3
31
0
39
0
210
0
220
0
230
1
0
LINE
5
98
100
AcDbEntity
8
1
62
256
6
ByLayer
370
18
48
1
60
0
100
AcDbLine
10
0
20
-3
30
0
11
1
21
-2.972556
31
0
39
0
210
0
220
0
230
1
0
LINE
5
99
100
AcDbEntity
8
1
62
256
6
ByLayer
370
18
48
1
60
0
100
AcDbLine
10
1
20
-2.972556
30
0
11
4.247098
21
-2.974586
31
0
39
0
210
0
220
0
230
1
0
LINE
5
9A
100
AcDbEntity
8
1
62
256
6
ByLayer
370
18
48
1
60
0
100
AcDbLine
10
12.093713
20
-2.97949
30
0
11
12.905912
21
-2.979997
31
0
39
0
210
0
220
0
230
1
0
LINE
5
9B
100
AcDbEntity
8
1
62
256
6
ByLayer
370
18
48
1
60
0
100
AcDbLine
10
19.817665
20
-2.984317
30
0
11
20.579218
21
-2.984793
31
0
39
0
210
0
220
0
230
1
0
LINE
5
9C
100
AcDbEntity
8
1
62
256
6
ByLayer
370
18
48
1
60
0
100
AcDbLine
10
28.525526
20
-2.98976
30
0
11
29.254839
21
-2.990215
31
0
39
0
210
0
220
0
230
1
0
LINE
5
9D
100
AcDbEntity
8
1
62
256
6
ByLayer
370
18
48
1
60
0
100
AcDbLine
10
36.168593
20
-2.994537
30
0
11
36.910839
21
-2.995
31
0
39
0
210
0
220
0
230
1
0
LINE
5
9E
100
AcDbEntity
8
1
62
256
6
ByLayer
370
18
48
1
60
0
100
AcDbLine
10
36.910839
20
2.995
30
0
11
36.168593
21
2.994537
31
0
39
0
210
0
220
0
230
1
0
LINE
5
9F
100
AcDbEntity
8
1
62
256
6
ByLayer
370
18
48
1
60
0
100
AcDbLine
10
29.254839
20
2.990215
30
0
11
28.525526
21
2.98976
31
0
39
0
210
0
220
0
230
1
0
LINE
5
A0
100
AcDbEntity
8
1
62
256
6
ByLayer
370
18
48
1
60
0
100
AcDbLine
10
20.579218
20
2.984793
30
0
11
19.817665
21
2.984317
31
0
39
0
210
0
220
0
230
1
0
LINE
5
A1
100
AcDbEntity
8
1
62
256
6
ByLayer
370
18
48
1
60
0
100
AcDbLine
10
12.905912
20
2.979997
30
0
11
12.093713
21
2.97949
31
0
39
0
210
0
220
0
230
1
0
LINE
5
A2
100
AcDbEntity
8
1
62
256
6
ByLayer
370
18
48
1
60
0
100
AcDbLine
10
4.247098
20
2.974586
30
0
11
1
21
2.972556
31
0
39
0
210
0
220
0
230
1
0
LINE
5
A3
100
AcDbEntity
8
SK4
62
256
6
ByLayer
370
18
48
0.05
60
0
100
AcDbLine
10
51
20
0
30
0
11
-41
21
0
31
0
39
0
210
0
220
0
230
1
0
LINE
5
A5
100
AcDbEntity
8
4
62
256
6
ByLayer
370
18
48
0.05
60
0
100
AcDbLine
10
-36
20
0
30
0
11
51
21
0
31
0
39
0
210
0
220
0
230
1
0
LINE
5
A7
100
AcDbEntity
8
80
62
256
6
ByLayer
370
18
48
1
60
0
100
AcDbLine
10
0
20
0
30
0
11
-6
21
0
31
0
39
0
210
0
220
0
230
1
0
LINE
5
A8
100
AcDbEntity
8
81
62
256
6
ByLayer
370
18
48
1
60
0
100
AcDbLine
10
46
20
0
30
0
11
52
21
0
31
0
39
0
210
0
220
0
230
1
0
LINE
5
A9
100
AcDbEntity
8
SK2
62
256
6
ByLayer
370
13
48
1
60
0
100
AcDbLine
10
46.542952
20
1.491764
30
0
11
53.926248
21
21.777401
31
0
39
0
210
0
220
0
230
1
0
LINE
5
AB
100
AcDbEntity
8
SK2
62
256
6
ByLayer
370
13
48
1
60
0
100
AcDbLine
10
46.542952
20
-1.491764
30
0
11
53.926248
21
-21.777401
31
0
39
0
210
0
220
0
230
1
0
LINE
5
AC
100
AcDbEntity
8
1
62
256
6
ByLayer
370
13
48
1
60
0
100
AcDbLine
10
52.840344
20
18.793874
30
0
11
55.936937
21
17.977512
31
0
39
0
210
0
220
0
230
1
0
LINE
5
AD
100
AcDbEntity
8
1
62
256
6
ByLayer
370
13
48
1
60
0
100
AcDbLine
10
52.840344
20
18.793874
30
0
11
55.620136
21
17.20387
31
0
39
0
210
0
220
0
230
1
0
LINE
5
AE
100
AcDbEntity
8
1
62
256
6
ByLayer
370
13
48
1
60
0
100
AcDbLine
10
55.936937
20
17.977512
30
0
11
55.620136
21
17.20387
31
0
39
0
210
0
220
0
230
1
0
LINE
5
AF
100
AcDbEntity
8
1
62
256
6
ByLayer
370
13
48
1
60
0
100
AcDbLine
10
52.840344
20
-18.793874
30
0
11
55.620133
21
-17.203871
31
0
39
0
210
0
220
0
230
1
0
LINE
5
B0
100
AcDbEntity
8
1
62
256
6
ByLayer
370
13
48
1
60
0
100
AcDbLine
10
52.840344
20
-18.793874
30
0
11
55.93694
21
-17.977511
31
0
39
0
210
0
220
0
230
1
0
LINE
5
B1
100
AcDbEntity
8
1
62
256
6
ByLayer
370
13
48
1
60
0
100
AcDbLine
10
55.620133
20
-17.203871
30
0
11
55.93694
21
-17.977511
31
0
39
0
210
0
220
0
230
1
0
MTEXT
5
10D
100
AcDbEntity
8
SK2
62
256
6
ByLayer
370
18
48
1
60
0
100
AcDbMText
10
59.717388
20
-2.467451
30
0
210
0
220
0
230
1
1
\W0.7237;140.00
40
3.50012
41
0
44
1.084337
50
0
71
7
72
5
7
iso_b_vert
0
MTEXT
5
110
100
AcDbEntity
8
SK6
62
256
6
ByLayer
370
18
48
1
60
0
100
AcDbMText
10
-34.331725
20
-125.782397
30
0
210
0
220
0
230
1
1
\W0.7348;860.1-0600-031A1-GM X1BM
40
3.175
41
0
44
1.084337
50
0
71
7
72
5
7
iso_b_vert
0
DIMENSION
5
113
100
AcDbEntity
8
SK2
62
256
6
ByLayer
370
18
48
1
60
0
100
AcDbDimension
2
_U0
10
46
20
-26.50012
30
0
11
23
21
-26.50012
31
0
70
32
71
2
72
1
41
1
210
0
220
0
230
1
3
Standard
100
AcDbAlignedDimension
13
0
23
-3
33
0
14
46
24
0
34
0
50
0
100
AcDbRotatedDimension
1001
ACAD
1000
DSTYLE
1002
{
1070
   371
1070
    13
1070
   372
1070
    13
1070
     3
1000

1070
   170
1070
     0
1070
   144
1040
1.0
1070
   277
1070
     2
1070
   284
1070
     8
1070
   278
1070
    46
1070
   146
1040
0.999966
1070
   345
1005
16
1070
   347
1005
16
1070
   346
1005
16
1070
   344
1005
114
1070
   343
1005
114
1070
   172
1070
     1
1070
    76
1070
     0
1070
    75
1070
     0
1070
   282
1070
     0
1070
   281
1070
     0
1070
    71
1070
     0
1070
    74
1070
     0
1070
   279
1070
     0
1070
   173
1070
     1
1070
   340
1005
10E
1070
   271
1070
     1
1070
   272
1070
     2
1070
    77
1070
     1
1070
    73
1070
     1
1070
   171
1070
     3
1070
   274
1070
     4
1070
   177
1070
   150
1070
   176
1070
     9
1070
   178
1070
    43
1070
    78
1070
     8
1070
    48
1040
-0.1
1070
    41
1040
3.175
1070
   147
1040
1.75006
1070
    42
1040
1.5875
1070
    44
1040
3.175
1070
   140
1040
3.50012
1002
}
1001
ACAD_DSTYLE_DIM_LINETYPE
1070
   380
1005
16
1001
ACAD_DSTYLE_DIM_EXT1_LINETYPE
1070
   381
1005
16
1001
ACAD_DSTYLE_DIM_EXT2_LINETYPE
1070
   382
1005
16
0
DIMENSION
5
139
100
AcDbEntity
8
2
62
256
6
ByLayer
370
18
48
1
60
0
100
AcDbDimension
2
_U1
10
52.75006
20
3
30
0
11
52.75006
21
15.989811
31
0
70
32
71
1
72
1
41
1
210
0
220
0
230
1
3
Standard
100
AcDbAlignedDimension
13
44.9081
23
-3
33
0
14
44.9081
24
3
34
0
50
90
100
AcDbRotatedDimension
1001
ACAD
1000
DSTYLE
1002
{
1070
   371
1070
    13
1070
   372
1070
    13
1070
     3
1000

1070
   170
1070
     0
1070
   144
1040
1.0
1070
   277
1070
     2
1070
   284
1070
     8
1070
   278
1070
    46
1070
   146
1040
0.999966
1070
   345
1005
16
1070
   347
1005
16
1070
   346
1005
16
1070
   344
1005
114
1070
   343
1005
114
1070
   172
1070
     1
1070
    76
1070
     0
1070
    75
1070
     0
1070
   282
1070
     0
1070
   281
1070
     0
1070
    71
1070
     0
1070
    74
1070
     0
1070
   279
1070
     0
1070
   173
1070
     1
1070
   340
1005
10E
1070
   271
1070
     1
1070
   272
1070
     2
1070
    77
1070
     1
1070
    73
1070
     0
1070
   171
1070
     3
1070
   274
1070
     4
1070
   177
1070
   150
1070
   176
1070
     9
1070
   178
1070
    43
1070
    78
1070
     8
1070
    48
1040
-0.1
1070
    41
1040
3.175
1070
   147
1040
1.75006
1070
    42
1040
1.5875
1070
    44
1040
3.175
1070
   140
1040
3.50012
1002
}
1001
ACAD_DSTYLE_DIM_LINETYPE
1070
   380
1005
16
1001
ACAD_DSTYLE_DIM_EXT1_LINETYPE
1070
   381
1005
16
1001
ACAD_DSTYLE_DIM_EXT2_LINETYPE
1070
   382
1005
16
0
DIMENSION
5
158
100
AcDbEntity
8
SK2
62
256
6
ByLayer
370
18
48
1
60
0
100
AcDbDimension
2
_U2
10
-39.24994
20
-3
30
0
11
-39.24994
21
17.10734
31
0
70
32
71
1
72
1
41
1
210
0
220
0
230
1
3
Standard
100
AcDbAlignedDimension
13
-36
23
3
33
0
14
-36
24
-3
34
0
50
90
100
AcDbRotatedDimension
1001
ACAD
1000
DSTYLE
1002
{
1070
   371
1070
    13
1070
   372
1070
    13
1070
     3
1000

1070
   170
1070
     0
1070
   144
1040
1.0
1070
   277
1070
     2
1070
   284
1070
     8
1070
   278
1070
    46
1070
   146
1040
0.999966
1070
   345
1005
16
1070
   347
1005
16
1070
   346
1005
16
1070
   344
1005
114
1070
   343
1005
114
1070
   172
1070
     1
1070
    76
1070
     0
1070
    75
1070
     0
1070
   282
1070
     0
1070
   281
1070
     0
1070
    71
1070
     0
1070
    74
1070
     0
1070
   279
1070
     0
1070
   173
1070
     1
1070
   340
1005
10E
1070
   271
1070
     1
1070
   272
1070
     2
1070
    77
1070
     1
1070
    73
1070
     0
1070
   171
1070
     3
1070
   274
1070
     4
1070
   177
1070
   150
1070
   176
1070
     9
1070
   178
1070
    43
1070
    78
1070
     8
1070
    48
1040
-0.1
1070
    41
1040
3.175
1070
   147
1040
1.75006
1070
    42
1040
1.5875
1070
    44
1040
3.175
1070
   140
1040
3.50012
1002
}
1001
ACAD_DSTYLE_DIM_LINETYPE
1070
   380
1005
16
1001
ACAD_DSTYLE_DIM_EXT1_LINETYPE
1070
   381
1005
16
1001
ACAD_DSTYLE_DIM_EXT2_LINETYPE
1070
   382
1005
16
0
DIMENSION
5
176
100
AcDbEntity
8
SK2
62
256
6
ByLayer
370
18
48
1
60
0
100
AcDbDimension
2
_U3
10
0
20
-26.50012
30
0
11
-18
21
-26.50012
31
0
70
32
71
1
72
1
41
1
210
0
220
0
230
1
3
Standard
100
AcDbAlignedDimension
13
-36
23
-3
33
0
14
0
24
-3
34
0
50
0
100
AcDbRotatedDimension
1001
ACAD
1000
DSTYLE
1002
{
1070
   371
1070
    13
1070
   372
1070
    13
1070
     3
1000

1070
   170
1070
     0
1070
   144
1040
1.0
1070
   277
1070
     2
1070
   284
1070
     8
1070
   278
1070
    46
1070
   146
1040
0.999966
1070
   345
1005
16
1070
   347
1005
16
1070
   346
1005
16
1070
   344
1005
114
1070
   343
1005
114
1070
   172
1070
     1
1070
    76
1070
     0
1070
    75
1070
     0
1070
   282
1070
     0
1070
   281
1070
     0
1070
    71
1070
     0
1070
    74
1070
     0
1070
   279
1070
     0
1070
   173
1070
     1
1070
   340
1005
10E
1070
   271
1070
     1
1070
   272
1070
     2
1070
    77
1070
     1
1070
    73
1070
     1
1070
   171
1070
     3
1070
   274
1070
     4
1070
   177
1070
   150
1070
   176
1070
     9
1070
   178
1070
    43
1070
    78
1070
     8
1070
    48
1040
-0.1
1070
    41
1040
3.175
1070
   147
1040
1.75006
1070
    42
1040
1.5875
1070
    44
1040
3.175
1070
   140
1040
3.50012
1002
}
1001
ACAD_DSTYLE_DIM_LINETYPE
1070
   380
1005
16
1001
ACAD_DSTYLE_DIM_EXT1_LINETYPE
1070
   381
1005
16
1001
ACAD_DSTYLE_DIM_EXT2_LINETYPE
1070
   382
1005
16
0
DIMENSION
5
192
100
AcDbEntity
8
SK2
62
256
6
ByLayer
370
18
48
1
60
0
100
AcDbDimension
2
_U4
10
46
20
-17.74982
30
0
11
24
21
-17.74982
31
0
70
32
71
1
72
1
41
1
210
0
220
0
230
1
3
Standard
100
AcDbAlignedDimension
13
2
23
3.5
33
0
14
46
24
0
34
0
50
0
100
AcDbRotatedDimension
1001
ACAD
1000
DSTYLE
1002
{
1070
   371
1070
    13
1070
   372
1070
    13
1070
     3
1000

1070
   170
1070
     0
1070
   144
1040
1.0
1070
   277
1070
     2
1070
   284
1070
     8
1070
   278
1070
    46
1070
   146
1040
0.999966
1070
   345
1005
16
1070
   347
1005
16
1070
   346
1005
16
1070
   344
1005
114
1070
   343
1005
114
1070
   172
1070
     1
1070
    76
1070
     0
1070
    75
1070
     0
1070
   282
1070
     0
1070
   281
1070
     0
1070
    71
1070
     0
1070
    74
1070
     0
1070
   279
1070
     0
1070
   173
1070
     1
1070
   340
1005
10E
1070
   271
1070
     1
1070
   272
1070
     2
1070
    77
1070
     1
1070
    73
1070
     1
1070
   171
1070
     3
1070
   274
1070
     4
1070
   177
1070
   150
1070
   176
1070
     9
1070
   178
1070
    43
1070
    78
1070
     8
1070
    48
1040
-0.1
1070
    41
1040
3.175
1070
   147
1040
1.75006
1070
    42
1040
1.5875
1070
    44
1040
3.175
1070
   140
1040
3.50012
1002
}
1001
ACAD_DSTYLE_DIM_LINETYPE
1070
   380
1005
16
1001
ACAD_DSTYLE_DIM_EXT1_LINETYPE
1070
   381
1005
16
1001
ACAD_DSTYLE_DIM_EXT2_LINETYPE
1070
   382
1005
16
0
DIMENSION
5
1AE
100
AcDbEntity
8
SK2
62
256
6
ByLayer
370
18
48
1
60
0
100
AcDbDimension
2
_U5
10
46
20
-9.82
30
0
11
30.5
21
-9.82
31
0
70
32
71
1
72
1
41
1
210
0
220
0
230
1
3
Standard
100
AcDbAlignedDimension
13
15
23
-3
33
0
14
46
24
0
34
0
50
0
100
AcDbRotatedDimension
1001
ACAD
1000
DSTYLE
1002
{
1070
   371
1070
    13
1070
   372
1070
    13
1070
     3
1000

1070
   170
1070
     0
1070
   144
1040
1.0
1070
   277
1070
     2
1070
   284
1070
     8
1070
   278
1070
    46
1070
   146
1040
1.25
1070
   345
1005
16
1070
   347
1005
16
1070
   346
1005
16
1070
   344
1005
114
1070
   343
1005
114
1070
   172
1070
     1
1070
    76
1070
     0
1070
    75
1070
     0
1070
   282
1070
     0
1070
   281
1070
     0
1070
    71
1070
     0
1070
    74
1070
     0
1070
   279
1070
     0
1070
   173
1070
     1
1070
   340
1005
10E
1070
   271
1070
     1
1070
   272
1070
     2
1070
    77
1070
     1
1070
    73
1070
     1
1070
   171
1070
     3
1070
   274
1070
     4
1070
   177
1070
   150
1070
   176
1070
     9
1070
   178
1070
    43
1070
    78
1070
     8
1070
    48
1040
-0.1
1070
    41
1040
3.175
1070
   147
1040
0.42
1070
    42
1040
1.5875
1070
    44
1040
0.5
1070
   140
1040
2.8
1002
}
1001
ACAD_DSTYLE_DIM_LINETYPE
1070
   380
1005
16
1001
ACAD_DSTYLE_DIM_EXT1_LINETYPE
1070
   381
1005
16
1001
ACAD_DSTYLE_DIM_EXT2_LINETYPE
1070
   382
1005
16
0
DIMENSION
5
1CA
100
AcDbEntity
8
SK2
62
256
6
ByLayer
370
18
48
1
60
0
100
AcDbDimension
2
_U6
10
46
20
-36.50012
30
0
11
5
21
-36.50012
31
0
70
32
71
1
72
1
41
1
210
0
220
0
230
1
3
Standard
100
AcDbAlignedDimension
13
-36
23
0
33
0
14
46
24
0
34
0
50
0
100
AcDbRotatedDimension
1001
ACAD
1000
DSTYLE
1002
{
1070
   371
1070
    13
1070
   372
1070
    13
1070
     3
1000

1070
   170
1070
     0
1070
   144
1040
1.0
1070
   277
1070
     2
1070
   284
1070
     8
1070
   278
1070
    46
1070
   146
1040
0.999966
1070
   345
1005
16
1070
   347
1005
16
1070
   346
1005
16
1070
   344
1005
114
1070
   343
1005
114
1070
   172
1070
     1
1070
    76
1070
     0
1070
    75
1070
     0
1070
   282
1070
     0
1070
   281
1070
     0
1070
    71
1070
     0
1070
    74
1070
     0
1070
   279
1070
     0
1070
   173
1070
     1
1070
   340
1005
10E
1070
   271
1070
     1
1070
   272
1070
     2
1070
    77
1070
     1
1070
    73
1070
     1
1070
   171
1070
     3
1070
   274
1070
     4
1070
   177
1070
   150
1070
   176
1070
     9
1070
   178
1070
    43
1070
    78
1070
     8
1070
    48
1040
-0.1
1070
    41
1040
3.175
1070
   147
1040
1.75006
1070
    42
1040
1.5875
1070
    44
1040
3.175
1070
   140
1040
3.50012
1002
}
1001
ACAD_DSTYLE_DIM_LINETYPE
1070
   380
1005
16
1001
ACAD_DSTYLE_DIM_EXT1_LINETYPE
1070
   381
1005
16
1001
ACAD_DSTYLE_DIM_EXT2_LINETYPE
1070
   382
1005
16
0
ENDSEC
0
SECTION
2
OBJECTS
0
DICTIONARY
5
256
330
0
100
AcDbDictionary
280
0
281
1
3
ACAD_GROUP
350
257
3
ACAD_MLINESTYLE
350
258
0
DICTIONARY
5
257
330
0
100
AcDbDictionary
280
0
281
1
0
DICTIONARY
5
258
330
0
100
AcDbDictionary
280
0
281
1
3
Standard
350
18
0
MLINESTYLE
5
18
330
258
100
AcDbMlineStyle
2
Standard
70
0
3

62
256
51
90
52
90
71
2
49
-0.5
62
256
6
ByLayer
49
0.5
62
256
6
ByLayer
0
RASTERVARIABLES
5
244
330

100
AcDbRasterVariables
90
0
70
1
71
1
72
1
0
ENDSEC
0
EOF
