0
SECTION
2
HEADER
9
$ACADVER
1
AC1015
9
$DWGCODEPAGE
3
ANSI_1252
9
$HANDSEED
5
26d
9
$ANGBASE
50
0
9
$ANGDIR
70
0
9
$ATTMODE
70
1
9
$AUNITS
70
0
9
$AUPREC
70
0
9
$CECOLOR
62
256
9
$CELTSCALE
40
1
9
$CELTYPE
6
ByLayer
9
$CELWEIGHT
370
18
9
$CLAYER
8
0
9
$CMLJUST
70
0
9
$CMLSCALE
40
1
9
$CMLSTYLE
2
Standard
9
$DIMSTYLE
2
Standard
9
$TEXTSIZE
40
0.2
9
$TEXTSTYLE
7
Standard
9
$LUNITS
70
2
9
$LUPREC
70
4
9
$EXTNAMES
290
1
9
$INSUNITS
70
4
9
$LTSCALE
40
1
9
$LWDISPLAY
290
1
9
$PDMODE
70
0
9
$PDSIZE
40
0
9
$PLINEGEN
70
0
0
ENDSEC
0
SECTION
2
CLASSES
0
CLASS
1
RASTERVARIABLES
2
AcDbRasterVariables
3
ISM
90
0
280
0
281
0
0
ENDSEC
0
SECTION
2
TABLES
0
TABLE
2
VPORT
5
263
100
AcDbSymbolTable
0
VPORT
5
1
100
AcDbSymbolTableRecord
100
AcDbViewportTableRecord
2
*Active
70
0
10
0
20
0
11
1
21
1
12
-1
22
1
13
0
23
0
14
0.5
24
0.5
15
10
25
10
16
0
26
0
36
1
17
0
27
0
37
0
0
ENDTAB
0
TABLE
2
LTYPE
5
264
100
AcDbSymbolTable
0
LTYPE
5
14
100
AcDbSymbolTableRecord
100
AcDbLinetypeTableRecord
70
0
2
ByBlock
3

72
65
73
0
40
0
0
LTYPE
5
15
100
AcDbSymbolTableRecord
100
AcDbLinetypeTableRecord
70
0
2
ByLayer
3

72
65
73
0
40
0
0
LTYPE
5
16
100
AcDbSymbolTableRecord
100
AcDbLinetypeTableRecord
70
0
2
Continuous
3
Solid line
72
65
73
0
40
0
0
LTYPE
5
6E
100
AcDbSymbolTableRecord
100
AcDbLinetypeTableRecord
70
0
2
CENTER
3
____ _ ____ _ ____ _ ____
72
65
73
4
40
47.5
49
22
74
0
49
-8.5
74
0
49
8.5
74
0
49
-8.5
74
0
0
LTYPE
5
6F
100
AcDbSymbolTableRecord
100
AcDbLinetypeTableRecord
70
0
2
DASHED
3
__ __ __ __ __ __ __ __ __
72
65
73
2
40
25.72
49
12.86
74
0
49
-12.86
74
0
0
ENDTAB
0
TABLE
2
LAYER
5
265
100
AcDbSymbolTable
0
LAYER
5
10
100
AcDbSymbolTableRecord
100
AcDbLayerTableRecord
2
0
70
0
62
7
6
Continuous
290
1
370
-3
390
0
0
LAYER
5
71
100
AcDbSymbolTableRecord
100
AcDbLayerTableRecord
2
80
70
0
62
-6
6
Continuous
290
1
370
-3
390
0
0
LAYER
5
73
100
AcDbSymbolTableRecord
100
AcDbLayerTableRecord
2
81
70
0
62
-3
6
Continuous
290
1
370
-3
390
0
0
LAYER
5
75
100
AcDbSymbolTableRecord
100
AcDbLayerTableRecord
2
1
70
0
62
4
6
Continuous
290
1
370
-3
390
0
0
LAYER
5
A8
100
AcDbSymbolTableRecord
100
AcDbLayerTableRecord
2
4
70
0
62
-2
6
CENTER
290
1
370
-3
390
0
0
LAYER
5
127
100
AcDbSymbolTableRecord
100
AcDbLayerTableRecord
2
Defpoints
70
0
62
7
6
Continuous
290
0
370
-3
390
0
0
LAYER
5
154
100
AcDbSymbolTableRecord
100
AcDbLayerTableRecord
2
2
70
0
62
7
6
Continuous
290
1
370
-3
390
0
0
LAYER
5
24f
100
AcDbSymbolTableRecord
100
AcDbLayerTableRecord
2
SK1
70
0
62
4
6
Continuous
290
1
370
-3
390
0
0
LAYER
5
250
100
AcDbSymbolTableRecord
100
AcDbLayerTableRecord
2
SK4
70
0
62
2
6
CENTER
290
1
370
-3
390
0
0
LAYER
5
251
100
AcDbSymbolTableRecord
100
AcDbLayerTableRecord
2
SK2
70
0
62
7
6
Continuous
290
1
370
-3
390
0
0
LAYER
5
252
100
AcDbSymbolTableRecord
100
AcDbLayerTableRecord
2
SK6
70
0
62
5
6
Continuous
290
1
370
-3
390
0
0
ENDTAB
0
TABLE
2
STYLE
5
266
100
AcDbSymbolTable
0
STYLE
5
11
100
AcDbSymbolTableRecord
100
AcDbTextStyleTableRecord
2
Standard
3
txt
70
0
71
0
40
0
41
1
42
0
50
0
0
STYLE
5
118
100
AcDbSymbolTableRecord
100
AcDbTextStyleTableRecord
2
iso_b_vert
3
simplex.shx
70
0
71
0
40
0
41
1
42
0
50
0
0
STYLE
5
119
100
AcDbSymbolTableRecord
100
AcDbTextStyleTableRecord
2
DWGDirectTextStyle
3
simplex
70
0
71
0
40
0
41
1
42
0
50
0
0
ENDTAB
0
TABLE
2
DIMSTYLE
5
267
100
AcDbSymbolTable
100
AcDbDimStyleTable
0
DIMSTYLE
105
27
100
AcDbSymbolTableRecord
100
AcDbDimStyleTableRecord
2
Standard
70
0
3
<>
41
0.18
42
0.0625
44
0.18
140
0.18
147
0.09
73
0
74
0
77
1
271
2
275
0
278
52
280
0
340
11
0
ENDTAB
0
TABLE
2
VIEW
5
268
100
AcDbSymbolTable
0
ENDTAB
0
TABLE
2
UCS
5
269
100
AcDbSymbolTable
0
ENDTAB
0
TABLE
2
APPID
5
26a
100
AcDbSymbolTable
0
APPID
5
12
100
AcDbSymbolTableRecord
100
AcDbRegAppTableRecord
2
ACAD
70
0
0
APPID
5
11C
100
AcDbSymbolTableRecord
100
AcDbRegAppTableRecord
2
ACAD_DSTYLE_DIMBREAK
70
0
0
APPID
5
20E
100
AcDbSymbolTableRecord
100
AcDbRegAppTableRecord
2
ACAD_DSTYLE_DIM_LINETYPE
70
0
0
APPID
5
20F
100
AcDbSymbolTableRecord
100
AcDbRegAppTableRecord
2
ACAD_DSTYLE_DIM_EXT1_LINETYPE
70
0
0
APPID
5
210
100
AcDbSymbolTableRecord
100
AcDbRegAppTableRecord
2
ACAD_DSTYLE_DIM_EXT2_LINETYPE
70
0
0
APPID
5
24B
100
AcDbSymbolTableRecord
100
AcDbRegAppTableRecord
2
ACAD_MLEADERVER
70
0
0
ENDTAB
0
TABLE
2
BLOCK_RECORD
5
26b
100
AcDbSymbolTable
0
BLOCK_RECORD
5
1F
100
AcDbSymbolTableRecord
100
AcDbBlockTableRecord
2
*Model_Space
340
0
70
0
0
BLOCK_RECORD
5
1B
100
AcDbSymbolTableRecord
100
AcDbBlockTableRecord
2
*Paper_Space
340
0
70
0
0
BLOCK_RECORD
5
23
100
AcDbSymbolTableRecord
100
AcDbBlockTableRecord
2
*Paper_Space0
340
0
70
0
0
BLOCK_RECORD
5
11E
100
AcDbSymbolTableRecord
100
AcDbBlockTableRecord
2
_Closed
340
0
70
0
0
BLOCK_RECORD
5
128
100
AcDbSymbolTableRecord
100
AcDbBlockTableRecord
2
*D2
340
0
70
0
0
BLOCK_RECORD
5
134
100
AcDbSymbolTableRecord
100
AcDbBlockTableRecord
2
_U0
340
0
70
0
0
BLOCK_RECORD
5
146
100
AcDbSymbolTableRecord
100
AcDbBlockTableRecord
2
*D4
340
0
70
0
0
BLOCK_RECORD
5
155
100
AcDbSymbolTableRecord
100
AcDbBlockTableRecord
2
_U1
340
0
70
0
0
BLOCK_RECORD
5
165
100
AcDbSymbolTableRecord
100
AcDbBlockTableRecord
2
*D6
340
0
70
0
0
BLOCK_RECORD
5
173
100
AcDbSymbolTableRecord
100
AcDbBlockTableRecord
2
_U2
340
0
70
0
0
BLOCK_RECORD
5
183
100
AcDbSymbolTableRecord
100
AcDbBlockTableRecord
2
*D8
340
0
70
0
0
BLOCK_RECORD
5
18F
100
AcDbSymbolTableRecord
100
AcDbBlockTableRecord
2
_U3
340
0
70
0
0
BLOCK_RECORD
5
19F
100
AcDbSymbolTableRecord
100
AcDbBlockTableRecord
2
*D10
340
0
70
0
0
BLOCK_RECORD
5
1AB
100
AcDbSymbolTableRecord
100
AcDbBlockTableRecord
2
_U4
340
0
70
0
0
BLOCK_RECORD
5
1BB
100
AcDbSymbolTableRecord
100
AcDbBlockTableRecord
2
*D12
340
0
70
0
0
BLOCK_RECORD
5
1C7
100
AcDbSymbolTableRecord
100
AcDbBlockTableRecord
2
_U5
340
0
70
0
0
BLOCK_RECORD
5
1D7
100
AcDbSymbolTableRecord
100
AcDbBlockTableRecord
2
*D14
340
0
70
0
0
BLOCK_RECORD
5
1E3
100
AcDbSymbolTableRecord
100
AcDbBlockTableRecord
2
_U6
340
0
70
0
0
ENDTAB
0
ENDSEC
0
SECTION
2
BLOCKS
0
BLOCK
5
20
100
AcDbEntity
8
0
100
AcDbBlockBegin
2
*Model_Space
70
0
10
0
20
0
30
0
3
*Model_Space
0
ENDBLK
5
21
100
AcDbEntity
8
0
100
AcDbBlockEnd
0
BLOCK
5
1C
100
AcDbEntity
8
0
100
AcDbBlockBegin
2
*Paper_Space
70
0
10
0
20
0
30
0
3
*Paper_Space
0
ENDBLK
5
1D
100
AcDbEntity
8
0
100
AcDbBlockEnd
0
BLOCK
5
24
100
AcDbEntity
8
0
100
AcDbBlockBegin
2
*Paper_Space0
70
0
10
0
20
0
30
0
3
*Paper_Space0
0
ENDBLK
5
25
100
AcDbEntity
8
0
100
AcDbBlockEnd
0
BLOCK
5
11F
100
AcDbEntity
8
0
100
AcDbBlockBegin
2
_Closed
70
0
10
0
20
0
30
0
3
_Closed
0
LINE
5
121
100
AcDbEntity
8
0
62
256
6
ByLayer
370
-2
48
1
60
0
100
AcDbLine
10
-1
20
0.166667
30
0
11
0
21
0
31
0
39
0
210
0
220
0
230
1
0
LINE
5
122
100
AcDbEntity
8
0
62
256
6
ByLayer
370
-2
48
1
60
0
100
AcDbLine
10
0
20
0
30
0
11
-1
21
-0.166667
31
0
39
0
210
0
220
0
230
1
0
LINE
5
123
100
AcDbEntity
8
0
62
256
6
ByLayer
370
-2
48
1
60
0
100
AcDbLine
10
-1
20
0.166667
30
0
11
-1
21
-0.166667
31
0
39
0
210
0
220
0
230
1
0
LINE
5
124
100
AcDbEntity
8
0
62
256
6
ByLayer
370
-2
48
1
60
0
100
AcDbLine
10
0
20
0
30
0
11
-1
21
0
31
0
39
0
210
0
220
0
230
1
0
ENDBLK
5
120
100
AcDbEntity
8
0
100
AcDbBlockEnd
0
BLOCK
5
129
100
AcDbEntity
8
0
100
AcDbBlockBegin
2
*D2
70
1
10
0
20
0
30
0
3
*D2
0
LINE
5
12B
100
AcDbEntity
8
0
62
256
6
ByLayer
370
-2
48
1
60
0
100
AcDbLine
10
0
20
-5.5875
30
0
11
0
21
-30.67512
31
0
39
0
210
0
220
0
230
1
0
LINE
5
12C
100
AcDbEntity
8
0
62
256
6
ByLayer
370
-2
48
1
60
0
100
AcDbLine
10
55
20
-1.5875
30
0
11
55
21
-30.67512
31
0
39
0
210
0
220
0
230
1
0
LINE
5
12D
100
AcDbEntity
8
0
62
256
6
ByLayer
370
-2
48
1
60
0
100
AcDbLine
10
3.175
20
-27.50012
30
0
11
51.825
21
-27.50012
31
0
39
0
210
0
220
0
230
1
0
SOLID
5
12E
100
AcDbEntity
8
0
62
256
6
ByLayer
370
-1
48
1
60
0
100
AcDbTrace
10
3.175
20
-26.970953
30
0
11
3.175
21
-28.029287
31
0
12
0
22
-27.50012
32
0
13
0
23
-27.50012
33
0
39
0
210
0
220
0
230
1
0
SOLID
5
12F
100
AcDbEntity
8
0
62
256
6
ByLayer
370
-1
48
1
60
0
100
AcDbTrace
10
51.825
20
-28.029287
30
0
11
51.825
21
-26.970953
31
0
12
55
22
-27.50012
32
0
13
55
23
-27.50012
33
0
39
0
210
0
220
0
230
1
0
MTEXT
5
130
100
AcDbEntity
8
0
62
256
6
ByLayer
370
18
48
1
60
0
100
AcDbMText
10
27.5
20
-20.193619
30
0
210
0
220
0
230
1
1
\A1;55
40
3.50012
41
0
44
1
50
0
71
5
72
5
7
iso_b_vert
0
POINT
5
131
100
AcDbEntity
8
Defpoints
62
0
6
ByLayer
370
-1
48
1
60
0
100
AcDbPoint
10
0
20
-4
30
0
39
0
210
0
220
0
230
1
50
360
0
POINT
5
132
100
AcDbEntity
8
Defpoints
62
0
6
ByLayer
370
-1
48
1
60
0
100
AcDbPoint
10
55
20
0
30
0
39
0
210
0
220
0
230
1
50
360
0
POINT
5
133
100
AcDbEntity
8
Defpoints
62
0
6
ByLayer
370
-1
48
1
60
0
100
AcDbPoint
10
55
20
-27.50012
30
0
39
0
210
0
220
0
230
1
50
360
0
ENDBLK
5
12A
100
AcDbEntity
8
0
100
AcDbBlockEnd
0
BLOCK
5
141
100
AcDbEntity
8
0
100
AcDbBlockBegin
2
_U0
70
0
10
0
20
0
30
0
3
_U0
0
MTEXT
5
135
100
AcDbEntity
8
SK2
62
256
6
ByLayer
370
18
48
1
60
0
100
AcDbMText
10
22.270389
20
-26.467451
30
0
210
0
220
0
230
1
1
\W0.7468;55.00
40
3.50012
41
0
44
1.084337
50
0
71
7
72
5
7
iso_b_vert
0
MTEXT
5
136
100
AcDbEntity
8
SK2
62
256
6
ByLayer
370
18
48
1
60
0
100
AcDbMText
10
18.744329
20
-26.400814
30
0
210
0
220
0
230
1
1
\W0.1790;(
40
3.175
41
0
44
1.084337
50
0
71
7
72
5
7
iso_b_vert
0
MTEXT
5
137
100
AcDbEntity
8
SK2
62
256
6
ByLayer
370
18
48
1
60
0
100
AcDbMText
10
36.258393
20
-26.400814
30
0
210
0
220
0
230
1
1
\W0.1969;)
40
3.175
41
0
44
1.084337
50
0
71
7
72
5
7
iso_b_vert
0
LINE
5
138
100
AcDbEntity
8
SK2
62
256
6
ByLayer
370
13
48
1
60
0
100
AcDbLine
10
0
20
-5.5875
30
0
11
0
21
-30.67512
31
0
39
0
210
0
220
0
230
1
0
LINE
5
139
100
AcDbEntity
8
SK2
62
256
6
ByLayer
370
13
48
1
60
0
100
AcDbLine
10
55
20
-1.5875
30
0
11
55
21
-30.67512
31
0
39
0
210
0
220
0
230
1
0
LINE
5
13A
100
AcDbEntity
8
SK2
62
256
6
ByLayer
370
13
48
1
60
0
100
AcDbLine
10
0
20
-27.50012
30
0
11
55
21
-27.50012
31
0
39
0
210
0
220
0
230
1
0
LINE
5
13B
100
AcDbEntity
8
SK2
62
256
6
ByLayer
370
13
48
1
60
0
100
AcDbLine
10
0
20
-27.50012
30
0
11
3.174998
21
-27.082123
31
0
39
0
210
0
220
0
230
1
0
LINE
5
13C
100
AcDbEntity
8
SK2
62
256
6
ByLayer
370
13
48
1
60
0
100
AcDbLine
10
0
20
-27.50012
30
0
11
3.175002
21
-27.918117
31
0
39
0
210
0
220
0
230
1
0
LINE
5
13D
100
AcDbEntity
8
SK2
62
256
6
ByLayer
370
13
48
1
60
0
100
AcDbLine
10
3.174998
20
-27.082123
30
0
11
3.175002
21
-27.918117
31
0
39
0
210
0
220
0
230
1
0
LINE
5
13E
100
AcDbEntity
8
SK2
62
256
6
ByLayer
370
13
48
1
60
0
100
AcDbLine
10
55
20
-27.50012
30
0
11
51.825002
21
-27.918117
31
0
39
0
210
0
220
0
230
1
0
LINE
5
13F
100
AcDbEntity
8
SK2
62
256
6
ByLayer
370
13
48
1
60
0
100
AcDbLine
10
55
20
-27.50012
30
0
11
51.824998
21
-27.082123
31
0
39
0
210
0
220
0
230
1
0
LINE
5
140
100
AcDbEntity
8
SK2
62
256
6
ByLayer
370
13
48
1
60
0
100
AcDbLine
10
51.825002
20
-27.918117
30
0
11
51.824998
21
-27.082123
31
0
39
0
210
0
220
0
230
1
0
ENDBLK
5
142
100
AcDbEntity
8
0
100
AcDbBlockEnd
0
BLOCK
5
147
100
AcDbEntity
8
0
100
AcDbBlockBegin
2
*D4
70
1
10
0
20
0
30
0
3
*D4
0
LINE
5
149
100
AcDbEntity
8
0
62
256
6
ByLayer
370
-2
48
1
60
0
100
AcDbLine
10
55.2954
20
-3.55
30
0
11
64.92506
21
-3.55
31
0
39
0
210
0
220
0
230
1
0
LINE
5
14A
100
AcDbEntity
8
0
62
256
6
ByLayer
370
-2
48
1
60
0
100
AcDbLine
10
55.2954
20
3.55
30
0
11
64.92506
21
3.55
31
0
39
0
210
0
220
0
230
1
0
LINE
5
14B
100
AcDbEntity
8
0
62
256
6
ByLayer
370
-2
48
1
60
0
100
AcDbLine
10
61.75006
20
3.55
30
0
11
61.75006
21
27.346431
31
0
39
0
210
0
220
0
230
1
0
LINE
5
14C
100
AcDbEntity
8
0
62
256
6
ByLayer
370
-2
48
1
60
0
100
AcDbLine
10
61.75006
20
-6.725
30
0
11
61.75006
21
-9.9
31
0
39
0
210
0
220
0
230
1
0
LINE
5
14D
100
AcDbEntity
8
0
62
256
6
ByLayer
370
-2
48
1
60
0
100
AcDbLine
10
61.75006
20
6.725
30
0
11
61.75006
21
9.9
31
0
39
0
210
0
220
0
230
1
0
SOLID
5
14E
100
AcDbEntity
8
0
62
256
6
ByLayer
370
-1
48
1
60
0
100
AcDbTrace
10
62.279227
20
-6.725
30
0
11
61.220893
21
-6.725
31
0
12
61.75006
22
-3.55
32
0
13
61.75006
23
-3.55
33
0
39
0
210
0
220
0
230
1
0
SOLID
5
14F
100
AcDbEntity
8
0
62
256
6
ByLayer
370
-1
48
1
60
0
100
AcDbTrace
10
61.220893
20
6.725
30
0
11
62.279227
21
6.725
31
0
12
61.75006
22
3.55
32
0
13
61.75006
23
3.55
33
0
39
0
210
0
220
0
230
1
0
MTEXT
5
150
100
AcDbEntity
8
0
62
256
6
ByLayer
370
18
48
1
60
0
100
AcDbMText
10
54.443559
20
18.623216
30
0
210
0
220
0
230
1
1
\A1;7.1
40
3.50012
41
0
44
1
50
90
71
5
72
5
7
iso_b_vert
0
POINT
5
151
100
AcDbEntity
8
Defpoints
62
0
6
ByLayer
370
-1
48
1
60
0
100
AcDbPoint
10
53.7079
20
-3.55
30
0
39
0
210
0
220
0
230
1
50
360
0
POINT
5
152
100
AcDbEntity
8
Defpoints
62
0
6
ByLayer
370
-1
48
1
60
0
100
AcDbPoint
10
53.7079
20
3.55
30
0
39
0
210
0
220
0
230
1
50
360
0
POINT
5
153
100
AcDbEntity
8
Defpoints
62
0
6
ByLayer
370
-1
48
1
60
0
100
AcDbPoint
10
61.75006
20
3.55
30
0
39
0
210
0
220
0
230
1
50
360
0
ENDBLK
5
148
100
AcDbEntity
8
0
100
AcDbBlockEnd
0
BLOCK
5
160
100
AcDbEntity
8
0
100
AcDbBlockBegin
2
_U1
70
0
10
0
20
0
30
0
3
_U1
0
MTEXT
5
156
100
AcDbEntity
8
2
62
256
6
ByLayer
370
18
48
1
60
0
100
AcDbMText
10
61.060403
20
7.707505
30
0
210
0
220
0
230
1
1
\W0.6563;7.10
40
3.50012
41
0
44
1.084337
50
90
71
7
72
5
7
iso_b_vert
0
LINE
5
157
100
AcDbEntity
8
2
62
256
6
ByLayer
370
13
48
1
60
0
100
AcDbLine
10
55.2954
20
-3.55
30
0
11
64.92506
21
-3.55
31
0
39
0
210
0
220
0
230
1
0
LINE
5
158
100
AcDbEntity
8
2
62
256
6
ByLayer
370
13
48
1
60
0
100
AcDbLine
10
55.2954
20
3.55
30
0
11
64.92506
21
3.55
31
0
39
0
210
0
220
0
230
1
0
LINE
5
159
100
AcDbEntity
8
2
62
256
6
ByLayer
370
13
48
1
60
0
100
AcDbLine
10
61.75006
20
-3.55
30
0
11
61.75006
21
14.889783
31
0
39
0
210
0
220
0
230
1
0
LINE
5
15A
100
AcDbEntity
8
2
62
256
6
ByLayer
370
13
48
1
60
0
100
AcDbLine
10
61.75006
20
-3.55
30
0
11
61.332063
21
-0.375002
31
0
39
0
210
0
220
0
230
1
0
LINE
5
15B
100
AcDbEntity
8
2
62
256
6
ByLayer
370
13
48
1
60
0
100
AcDbLine
10
61.75006
20
-3.55
30
0
11
62.168057
21
-0.374998
31
0
39
0
210
0
220
0
230
1
0
LINE
5
15C
100
AcDbEntity
8
2
62
256
6
ByLayer
370
13
48
1
60
0
100
AcDbLine
10
61.332063
20
-0.375002
30
0
11
62.168057
21
-0.374998
31
0
39
0
210
0
220
0
230
1
0
LINE
5
15D
100
AcDbEntity
8
2
62
256
6
ByLayer
370
13
48
1
60
0
100
AcDbLine
10
61.75006
20
3.55
30
0
11
62.168057
21
0.375002
31
0
39
0
210
0
220
0
230
1
0
LINE
5
15E
100
AcDbEntity
8
2
62
256
6
ByLayer
370
13
48
1
60
0
100
AcDbLine
10
61.75006
20
3.55
30
0
11
61.332063
21
0.374998
31
0
39
0
210
0
220
0
230
1
0
LINE
5
15F
100
AcDbEntity
8
2
62
256
6
ByLayer
370
13
48
1
60
0
100
AcDbLine
10
62.168057
20
0.375002
30
0
11
61.332063
21
0.374998
31
0
39
0
210
0
220
0
230
1
0
ENDBLK
5
161
100
AcDbEntity
8
0
100
AcDbBlockEnd
0
BLOCK
5
166
100
AcDbEntity
8
0
100
AcDbBlockBegin
2
*D6
70
1
10
0
20
0
30
0
3
*D6
0
LINE
5
168
100
AcDbEntity
8
0
62
256
6
ByLayer
370
-2
48
1
60
0
100
AcDbLine
10
-37.5875
20
4
30
0
11
-42.42494
21
4
31
0
39
0
210
0
220
0
230
1
0
LINE
5
169
100
AcDbEntity
8
0
62
256
6
ByLayer
370
-2
48
1
60
0
100
AcDbLine
10
-37.5875
20
-4
30
0
11
-42.42494
21
-4
31
0
39
0
210
0
220
0
230
1
0
LINE
5
16A
100
AcDbEntity
8
0
62
256
6
ByLayer
370
-2
48
1
60
0
100
AcDbLine
10
-39.24994
20
4
30
0
11
-39.24994
21
24.830487
31
0
39
0
210
0
220
0
230
1
0
LINE
5
16B
100
AcDbEntity
8
0
62
256
6
ByLayer
370
-2
48
1
60
0
100
AcDbLine
10
-39.24994
20
7.175
30
0
11
-39.24994
21
10.35
31
0
39
0
210
0
220
0
230
1
0
LINE
5
16C
100
AcDbEntity
8
0
62
256
6
ByLayer
370
-2
48
1
60
0
100
AcDbLine
10
-39.24994
20
-7.175
30
0
11
-39.24994
21
-10.35
31
0
39
0
210
0
220
0
230
1
0
SOLID
5
16D
100
AcDbEntity
8
0
62
256
6
ByLayer
370
-1
48
1
60
0
100
AcDbTrace
10
-39.779107
20
7.175
30
0
11
-38.720773
21
7.175
31
0
12
-39.24994
22
4
32
0
13
-39.24994
23
4
33
0
39
0
210
0
220
0
230
1
0
SOLID
5
16E
100
AcDbEntity
8
0
62
256
6
ByLayer
370
-1
48
1
60
0
100
AcDbTrace
10
-38.720773
20
-7.175
30
0
11
-39.779107
21
-7.175
31
0
12
-39.24994
22
-4
32
0
13
-39.24994
23
-4
33
0
39
0
210
0
220
0
230
1
0
MTEXT
5
16F
100
AcDbEntity
8
0
62
256
6
ByLayer
370
18
48
1
60
0
100
AcDbMText
10
-46.556441
20
18.10734
30
0
210
0
220
0
230
1
1
\A1;8
40
3.50012
41
0
44
1
50
90
71
5
72
5
7
iso_b_vert
0
POINT
5
170
100
AcDbEntity
8
Defpoints
62
0
6
ByLayer
370
-1
48
1
60
0
100
AcDbPoint
10
-36
20
4
30
0
39
0
210
0
220
0
230
1
50
360
0
POINT
5
171
100
AcDbEntity
8
Defpoints
62
0
6
ByLayer
370
-1
48
1
60
0
100
AcDbPoint
10
-36
20
-4
30
0
39
0
210
0
220
0
230
1
50
360
0
POINT
5
172
100
AcDbEntity
8
Defpoints
62
0
6
ByLayer
370
-1
48
1
60
0
100
AcDbPoint
10
-39.24994
20
-4
30
0
39
0
210
0
220
0
230
1
50
360
0
ENDBLK
5
167
100
AcDbEntity
8
0
100
AcDbBlockEnd
0
BLOCK
5
17E
100
AcDbEntity
8
0
100
AcDbBlockBegin
2
_U2
70
0
10
0
20
0
30
0
3
_U2
0
MTEXT
5
174
100
AcDbEntity
8
SK2
62
256
6
ByLayer
370
18
48
1
60
0
100
AcDbMText
10
-39.939597
20
14.157505
30
0
210
0
220
0
230
1
1
\W0.7346;8.00
40
3.50012
41
0
44
1.084337
50
90
71
7
72
5
7
iso_b_vert
0
LINE
5
175
100
AcDbEntity
8
SK2
62
256
6
ByLayer
370
13
48
1
60
0
100
AcDbLine
10
-37.5875
20
4
30
0
11
-42.42494
21
4
31
0
39
0
210
0
220
0
230
1
0
LINE
5
176
100
AcDbEntity
8
SK2
62
256
6
ByLayer
370
13
48
1
60
0
100
AcDbLine
10
-37.5875
20
-4
30
0
11
-42.42494
21
-4
31
0
39
0
210
0
220
0
230
1
0
LINE
5
177
100
AcDbEntity
8
SK2
62
256
6
ByLayer
370
13
48
1
60
0
100
AcDbLine
10
-39.24994
20
-4
30
0
11
-39.24994
21
22.21468
31
0
39
0
210
0
220
0
230
1
0
LINE
5
178
100
AcDbEntity
8
SK2
62
256
6
ByLayer
370
13
48
1
60
0
100
AcDbLine
10
-39.24994
20
4
30
0
11
-38.831943
21
0.825002
31
0
39
0
210
0
220
0
230
1
0
LINE
5
179
100
AcDbEntity
8
SK2
62
256
6
ByLayer
370
13
48
1
60
0
100
AcDbLine
10
-39.24994
20
4
30
0
11
-39.667937
21
0.824998
31
0
39
0
210
0
220
0
230
1
0
LINE
5
17A
100
AcDbEntity
8
SK2
62
256
6
ByLayer
370
13
48
1
60
0
100
AcDbLine
10
-38.831943
20
0.825002
30
0
11
-39.667937
21
0.824998
31
0
39
0
210
0
220
0
230
1
0
LINE
5
17B
100
AcDbEntity
8
SK2
62
256
6
ByLayer
370
13
48
1
60
0
100
AcDbLine
10
-39.24994
20
-4
30
0
11
-39.667937
21
-0.825002
31
0
39
0
210
0
220
0
230
1
0
LINE
5
17C
100
AcDbEntity
8
SK2
62
256
6
ByLayer
370
13
48
1
60
0
100
AcDbLine
10
-39.24994
20
-4
30
0
11
-38.831943
21
-0.824998
31
0
39
0
210
0
220
0
230
1
0
LINE
5
17D
100
AcDbEntity
8
SK2
62
256
6
ByLayer
370
13
48
1
60
0
100
AcDbLine
10
-39.667937
20
-0.825002
30
0
11
-38.831943
21
-0.824998
31
0
39
0
210
0
220
0
230
1
0
ENDBLK
5
17F
100
AcDbEntity
8
0
100
AcDbBlockEnd
0
BLOCK
5
184
100
AcDbEntity
8
0
100
AcDbBlockBegin
2
*D8
70
1
10
0
20
0
30
0
3
*D8
0
LINE
5
186
100
AcDbEntity
8
0
62
256
6
ByLayer
370
-2
48
1
60
0
100
AcDbLine
10
-36
20
-5.5875
30
0
11
-36
21
-30.67512
31
0
39
0
210
0
220
0
230
1
0
LINE
5
187
100
AcDbEntity
8
0
62
256
6
ByLayer
370
-2
48
1
60
0
100
AcDbLine
10
0
20
-5.5875
30
0
11
0
21
-30.67512
31
0
39
0
210
0
220
0
230
1
0
LINE
5
188
100
AcDbEntity
8
0
62
256
6
ByLayer
370
-2
48
1
60
0
100
AcDbLine
10
-32.825
20
-27.50012
30
0
11
-3.175
21
-27.50012
31
0
39
0
210
0
220
0
230
1
0
SOLID
5
189
100
AcDbEntity
8
0
62
256
6
ByLayer
370
-1
48
1
60
0
100
AcDbTrace
10
-32.825
20
-26.970953
30
0
11
-32.825
21
-28.029287
31
0
12
-36
22
-27.50012
32
0
13
-36
23
-27.50012
33
0
39
0
210
0
220
0
230
1
0
SOLID
5
18A
100
AcDbEntity
8
0
62
256
6
ByLayer
370
-1
48
1
60
0
100
AcDbTrace
10
-3.175
20
-28.029287
30
0
11
-3.175
21
-26.970953
31
0
12
0
22
-27.50012
32
0
13
0
23
-27.50012
33
0
39
0
210
0
220
0
230
1
0
MTEXT
5
18B
100
AcDbEntity
8
0
62
256
6
ByLayer
370
18
48
1
60
0
100
AcDbMText
10
-18
20
-20.193619
30
0
210
0
220
0
230
1
1
\A1;36
40
3.50012
41
0
44
1
50
0
71
5
72
5
7
iso_b_vert
0
POINT
5
18C
100
AcDbEntity
8
Defpoints
62
0
6
ByLayer
370
-1
48
1
60
0
100
AcDbPoint
10
-36
20
-4
30
0
39
0
210
0
220
0
230
1
50
360
0
POINT
5
18D
100
AcDbEntity
8
Defpoints
62
0
6
ByLayer
370
-1
48
1
60
0
100
AcDbPoint
10
0
20
-4
30
0
39
0
210
0
220
0
230
1
50
360
0
POINT
5
18E
100
AcDbEntity
8
Defpoints
62
0
6
ByLayer
370
-1
48
1
60
0
100
AcDbPoint
10
0
20
-27.50012
30
0
39
0
210
0
220
0
230
1
50
360
0
ENDBLK
5
185
100
AcDbEntity
8
0
100
AcDbBlockEnd
0
BLOCK
5
19A
100
AcDbEntity
8
0
100
AcDbBlockBegin
2
_U3
70
0
10
0
20
0
30
0
3
_U3
0
MTEXT
5
190
100
AcDbEntity
8
SK2
62
256
6
ByLayer
370
18
48
1
60
0
100
AcDbMText
10
-23.229611
20
-26.467451
30
0
210
0
220
0
230
1
1
\W0.7468;36.00
40
3.50012
41
0
44
1.084337
50
0
71
7
72
5
7
iso_b_vert
0
LINE
5
191
100
AcDbEntity
8
SK2
62
256
6
ByLayer
370
13
48
1
60
0
100
AcDbLine
10
-36
20
-5.5875
30
0
11
-36
21
-30.67512
31
0
39
0
210
0
220
0
230
1
0
LINE
5
192
100
AcDbEntity
8
SK2
62
256
6
ByLayer
370
13
48
1
60
0
100
AcDbLine
10
0
20
-5.5875
30
0
11
0
21
-30.67512
31
0
39
0
210
0
220
0
230
1
0
LINE
5
193
100
AcDbEntity
8
SK2
62
256
6
ByLayer
370
13
48
1
60
0
100
AcDbLine
10
-36
20
-27.50012
30
0
11
0
21
-27.50012
31
0
39
0
210
0
220
0
230
1
0
LINE
5
194
100
AcDbEntity
8
SK2
62
256
6
ByLayer
370
13
48
1
60
0
100
AcDbLine
10
-36
20
-27.50012
30
0
11
-32.825002
21
-27.082123
31
0
39
0
210
0
220
0
230
1
0
LINE
5
195
100
AcDbEntity
8
SK2
62
256
6
ByLayer
370
13
48
1
60
0
100
AcDbLine
10
-36
20
-27.50012
30
0
11
-32.824998
21
-27.918117
31
0
39
0
210
0
220
0
230
1
0
LINE
5
196
100
AcDbEntity
8
SK2
62
256
6
ByLayer
370
13
48
1
60
0
100
AcDbLine
10
-32.825002
20
-27.082123
30
0
11
-32.824998
21
-27.918117
31
0
39
0
210
0
220
0
230
1
0
LINE
5
197
100
AcDbEntity
8
SK2
62
256
6
ByLayer
370
13
48
1
60
0
100
AcDbLine
10
0
20
-27.50012
30
0
11
-3.174998
21
-27.918117
31
0
39
0
210
0
220
0
230
1
0
LINE
5
198
100
AcDbEntity
8
SK2
62
256
6
ByLayer
370
13
48
1
60
0
100
AcDbLine
10
0
20
-27.50012
30
0
11
-3.175002
21
-27.082123
31
0
39
0
210
0
220
0
230
1
0
LINE
5
199
100
AcDbEntity
8
SK2
62
256
6
ByLayer
370
13
48
1
60
0
100
AcDbLine
10
-3.174998
20
-27.918117
30
0
11
-3.175002
21
-27.082123
31
0
39
0
210
0
220
0
230
1
0
ENDBLK
5
19B
100
AcDbEntity
8
0
100
AcDbBlockEnd
0
BLOCK
5
1A0
100
AcDbEntity
8
0
100
AcDbBlockBegin
2
*D10
70
1
10
0
20
0
30
0
3
*D10
0
LINE
5
1A2
100
AcDbEntity
8
0
62
256
6
ByLayer
370
-2
48
1
60
0
100
AcDbLine
10
2
20
2.4625
30
0
11
2
21
-21.92482
31
0
39
0
210
0
220
0
230
1
0
LINE
5
1A3
100
AcDbEntity
8
0
62
256
6
ByLayer
370
-2
48
1
60
0
100
AcDbLine
10
55
20
-1.5875
30
0
11
55
21
-21.92482
31
0
39
0
210
0
220
0
230
1
0
LINE
5
1A4
100
AcDbEntity
8
0
62
256
6
ByLayer
370
-2
48
1
60
0
100
AcDbLine
10
5.175
20
-18.74982
30
0
11
51.825
21
-18.74982
31
0
39
0
210
0
220
0
230
1
0
SOLID
5
1A5
100
AcDbEntity
8
0
62
256
6
ByLayer
370
-1
48
1
60
0
100
AcDbTrace
10
5.175
20
-18.220653
30
0
11
5.175
21
-19.278987
31
0
12
2
22
-18.74982
32
0
13
2
23
-18.74982
33
0
39
0
210
0
220
0
230
1
0
SOLID
5
1A6
100
AcDbEntity
8
0
62
256
6
ByLayer
370
-1
48
1
60
0
100
AcDbTrace
10
51.825
20
-19.278987
30
0
11
51.825
21
-18.220653
31
0
12
55
22
-18.74982
32
0
13
55
23
-18.74982
33
0
39
0
210
0
220
0
230
1
0
MTEXT
5
1A7
100
AcDbEntity
8
0
62
256
6
ByLayer
370
18
48
1
60
0
100
AcDbMText
10
28.5
20
-11.443319
30
0
210
0
220
0
230
1
1
\A1;53
40
3.50012
41
0
44
1
50
0
71
5
72
5
7
iso_b_vert
0
POINT
5
1A8
100
AcDbEntity
8
Defpoints
62
0
6
ByLayer
370
-1
48
1
60
0
100
AcDbPoint
10
2
20
4.05
30
0
39
0
210
0
220
0
230
1
50
360
0
POINT
5
1A9
100
AcDbEntity
8
Defpoints
62
0
6
ByLayer
370
-1
48
1
60
0
100
AcDbPoint
10
55
20
0
30
0
39
0
210
0
220
0
230
1
50
360
0
POINT
5
1AA
100
AcDbEntity
8
Defpoints
62
0
6
ByLayer
370
-1
48
1
60
0
100
AcDbPoint
10
55
20
-18.74982
30
0
39
0
210
0
220
0
230
1
50
360
0
ENDBLK
5
1A1
100
AcDbEntity
8
0
100
AcDbBlockEnd
0
BLOCK
5
1B6
100
AcDbEntity
8
0
100
AcDbBlockBegin
2
_U4
70
0
10
0
20
0
30
0
3
_U4
0
MTEXT
5
1AC
100
AcDbEntity
8
SK2
62
256
6
ByLayer
370
18
48
1
60
0
100
AcDbMText
10
23.270389
20
-17.717151
30
0
210
0
220
0
230
1
1
\W0.7468;53.00
40
3.50012
41
0
44
1.084337
50
0
71
7
72
5
7
iso_b_vert
0
LINE
5
1AD
100
AcDbEntity
8
SK2
62
256
6
ByLayer
370
13
48
1
60
0
100
AcDbLine
10
2
20
2.4625
30
0
11
2
21
-21.92482
31
0
39
0
210
0
220
0
230
1
0
LINE
5
1AE
100
AcDbEntity
8
SK2
62
256
6
ByLayer
370
13
48
1
60
0
100
AcDbLine
10
55
20
-1.5875
30
0
11
55
21
-21.92482
31
0
39
0
210
0
220
0
230
1
0
LINE
5
1AF
100
AcDbEntity
8
SK2
62
256
6
ByLayer
370
13
48
1
60
0
100
AcDbLine
10
2
20
-18.74982
30
0
11
55
21
-18.74982
31
0
39
0
210
0
220
0
230
1
0
LINE
5
1B0
100
AcDbEntity
8
SK2
62
256
6
ByLayer
370
13
48
1
60
0
100
AcDbLine
10
2
20
-18.74982
30
0
11
5.174998
21
-18.331823
31
0
39
0
210
0
220
0
230
1
0
LINE
5
1B1
100
AcDbEntity
8
SK2
62
256
6
ByLayer
370
13
48
1
60
0
100
AcDbLine
10
2
20
-18.74982
30
0
11
5.175002
21
-19.167817
31
0
39
0
210
0
220
0
230
1
0
LINE
5
1B2
100
AcDbEntity
8
SK2
62
256
6
ByLayer
370
13
48
1
60
0
100
AcDbLine
10
5.174998
20
-18.331823
30
0
11
5.175002
21
-19.167817
31
0
39
0
210
0
220
0
230
1
0
LINE
5
1B3
100
AcDbEntity
8
SK2
62
256
6
ByLayer
370
13
48
1
60
0
100
AcDbLine
10
55
20
-18.74982
30
0
11
51.825002
21
-19.167817
31
0
39
0
210
0
220
0
230
1
0
LINE
5
1B4
100
AcDbEntity
8
SK2
62
256
6
ByLayer
370
13
48
1
60
0
100
AcDbLine
10
55
20
-18.74982
30
0
11
51.824998
21
-18.331823
31
0
39
0
210
0
220
0
230
1
0
LINE
5
1B5
100
AcDbEntity
8
SK2
62
256
6
ByLayer
370
13
48
1
60
0
100
AcDbLine
10
51.825002
20
-19.167817
30
0
11
51.824998
21
-18.331823
31
0
39
0
210
0
220
0
230
1
0
ENDBLK
5
1B7
100
AcDbEntity
8
0
100
AcDbBlockEnd
0
BLOCK
5
1BC
100
AcDbEntity
8
0
100
AcDbBlockBegin
2
*D12
70
1
10
0
20
0
30
0
3
*D12
0
LINE
5
1BE
100
AcDbEntity
8
0
62
256
6
ByLayer
370
-2
48
1
60
0
100
AcDbLine
10
18.3
20
-5.1375
30
0
11
18.3
21
-11.32
31
0
39
0
210
0
220
0
230
1
0
LINE
5
1BF
100
AcDbEntity
8
0
62
256
6
ByLayer
370
-2
48
1
60
0
100
AcDbLine
10
55
20
-1.5875
30
0
11
55
21
-11.32
31
0
39
0
210
0
220
0
230
1
0
LINE
5
1C0
100
AcDbEntity
8
0
62
256
6
ByLayer
370
-2
48
1
60
0
100
AcDbLine
10
21.475
20
-10.82
30
0
11
51.825
21
-10.82
31
0
39
0
210
0
220
0
230
1
0
SOLID
5
1C1
100
AcDbEntity
8
0
62
256
6
ByLayer
370
-1
48
1
60
0
100
AcDbTrace
10
21.475
20
-10.290833
30
0
11
21.475
21
-11.349167
31
0
12
18.3
22
-10.82
32
0
13
18.3
23
-10.82
33
0
39
0
210
0
220
0
230
1
0
SOLID
5
1C2
100
AcDbEntity
8
0
62
256
6
ByLayer
370
-1
48
1
60
0
100
AcDbTrace
10
51.825
20
-11.349167
30
0
11
51.825
21
-10.290833
31
0
12
55
22
-10.82
32
0
13
55
23
-10.82
33
0
39
0
210
0
220
0
230
1
0
MTEXT
5
1C3
100
AcDbEntity
8
0
62
256
6
ByLayer
370
18
48
1
60
0
100
AcDbMText
10
36.65
20
-4.975
30
0
210
0
220
0
230
1
1
\A1;36.7
40
2.8
41
0
44
1
50
0
71
5
72
5
7
iso_b_vert
0
POINT
5
1C4
100
AcDbEntity
8
Defpoints
62
0
6
ByLayer
370
-1
48
1
60
0
100
AcDbPoint
10
18.3
20
-3.55
30
0
39
0
210
0
220
0
230
1
50
360
0
POINT
5
1C5
100
AcDbEntity
8
Defpoints
62
0
6
ByLayer
370
-1
48
1
60
0
100
AcDbPoint
10
55
20
0
30
0
39
0
210
0
220
0
230
1
50
360
0
POINT
5
1C6
100
AcDbEntity
8
Defpoints
62
0
6
ByLayer
370
-1
48
1
60
0
100
AcDbPoint
10
55
20
-10.82
30
0
39
0
210
0
220
0
230
1
50
360
0
ENDBLK
5
1BD
100
AcDbEntity
8
0
100
AcDbBlockEnd
0
BLOCK
5
1D2
100
AcDbEntity
8
0
100
AcDbBlockBegin
2
_U5
70
0
10
0
20
0
30
0
3
_U5
0
MTEXT
5
1C8
100
AcDbEntity
8
SK2
62
256
6
ByLayer
370
18
48
1
60
0
100
AcDbMText
10
32.466454
20
-10.973893
30
0
210
0
220
0
230
1
1
\W0.7468;36.70
40
2.8
41
0
44
1.084337
50
0
71
7
72
5
7
iso_b_vert
0
LINE
5
1C9
100
AcDbEntity
8
SK2
62
256
6
ByLayer
370
13
48
1
60
0
100
AcDbLine
10
18.3
20
-5.1375
30
0
11
18.3
21
-11.32
31
0
39
0
210
0
220
0
230
1
0
LINE
5
1CA
100
AcDbEntity
8
SK2
62
256
6
ByLayer
370
13
48
1
60
0
100
AcDbLine
10
55
20
-1.5875
30
0
11
55
21
-11.32
31
0
39
0
210
0
220
0
230
1
0
LINE
5
1CB
100
AcDbEntity
8
SK2
62
256
6
ByLayer
370
13
48
1
60
0
100
AcDbLine
10
18.3
20
-10.82
30
0
11
55
21
-10.82
31
0
39
0
210
0
220
0
230
1
0
LINE
5
1CC
100
AcDbEntity
8
SK2
62
256
6
ByLayer
370
13
48
1
60
0
100
AcDbLine
10
18.3
20
-10.82
30
0
11
21.474998
21
-10.402003
31
0
39
0
210
0
220
0
230
1
0
LINE
5
1CD
100
AcDbEntity
8
SK2
62
256
6
ByLayer
370
13
48
1
60
0
100
AcDbLine
10
18.3
20
-10.82
30
0
11
21.475002
21
-11.237997
31
0
39
0
210
0
220
0
230
1
0
LINE
5
1CE
100
AcDbEntity
8
SK2
62
256
6
ByLayer
370
13
48
1
60
0
100
AcDbLine
10
21.474998
20
-10.402003
30
0
11
21.475002
21
-11.237997
31
0
39
0
210
0
220
0
230
1
0
LINE
5
1CF
100
AcDbEntity
8
SK2
62
256
6
ByLayer
370
13
48
1
60
0
100
AcDbLine
10
55
20
-10.82
30
0
11
51.825002
21
-11.237997
31
0
39
0
210
0
220
0
230
1
0
LINE
5
1D0
100
AcDbEntity
8
SK2
62
256
6
ByLayer
370
13
48
1
60
0
100
AcDbLine
10
55
20
-10.82
30
0
11
51.824998
21
-10.402003
31
0
39
0
210
0
220
0
230
1
0
LINE
5
1D1
100
AcDbEntity
8
SK2
62
256
6
ByLayer
370
13
48
1
60
0
100
AcDbLine
10
51.825002
20
-11.237997
30
0
11
51.824998
21
-10.402003
31
0
39
0
210
0
220
0
230
1
0
ENDBLK
5
1D3
100
AcDbEntity
8
0
100
AcDbBlockEnd
0
BLOCK
5
1D8
100
AcDbEntity
8
0
100
AcDbBlockBegin
2
*D14
70
1
10
0
20
0
30
0
3
*D14
0
LINE
5
1DA
100
AcDbEntity
8
0
62
256
6
ByLayer
370
-2
48
1
60
0
100
AcDbLine
10
-36
20
-1.5875
30
0
11
-36
21
-40.67512
31
0
39
0
210
0
220
0
230
1
0
LINE
5
1DB
100
AcDbEntity
8
0
62
256
6
ByLayer
370
-2
48
1
60
0
100
AcDbLine
10
55
20
-1.5875
30
0
11
55
21
-40.67512
31
0
39
0
210
0
220
0
230
1
0
LINE
5
1DC
100
AcDbEntity
8
0
62
256
6
ByLayer
370
-2
48
1
60
0
100
AcDbLine
10
-32.825
20
-37.50012
30
0
11
51.825
21
-37.50012
31
0
39
0
210
0
220
0
230
1
0
SOLID
5
1DD
100
AcDbEntity
8
0
62
256
6
ByLayer
370
-1
48
1
60
0
100
AcDbTrace
10
-32.825
20
-36.970953
30
0
11
-32.825
21
-38.029287
31
0
12
-36
22
-37.50012
32
0
13
-36
23
-37.50012
33
0
39
0
210
0
220
0
230
1
0
SOLID
5
1DE
100
AcDbEntity
8
0
62
256
6
ByLayer
370
-1
48
1
60
0
100
AcDbTrace
10
51.825
20
-38.029287
30
0
11
51.825
21
-36.970953
31
0
12
55
22
-37.50012
32
0
13
55
23
-37.50012
33
0
39
0
210
0
220
0
230
1
0
MTEXT
5
1DF
100
AcDbEntity
8
0
62
256
6
ByLayer
370
18
48
1
60
0
100
AcDbMText
10
9.5
20
-30.193619
30
0
210
0
220
0
230
1
1
\A1;91
40
3.50012
41
0
44
1
50
0
71
5
72
5
7
iso_b_vert
0
POINT
5
1E0
100
AcDbEntity
8
Defpoints
62
0
6
ByLayer
370
-1
48
1
60
0
100
AcDbPoint
10
-36
20
0
30
0
39
0
210
0
220
0
230
1
50
360
0
POINT
5
1E1
100
AcDbEntity
8
Defpoints
62
0
6
ByLayer
370
-1
48
1
60
0
100
AcDbPoint
10
55
20
0
30
0
39
0
210
0
220
0
230
1
50
360
0
POINT
5
1E2
100
AcDbEntity
8
Defpoints
62
0
6
ByLayer
370
-1
48
1
60
0
100
AcDbPoint
10
55
20
-37.50012
30
0
39
0
210
0
220
0
230
1
50
360
0
ENDBLK
5
1D9
100
AcDbEntity
8
0
100
AcDbBlockEnd
0
BLOCK
5
1EE
100
AcDbEntity
8
0
100
AcDbBlockBegin
2
_U6
70
0
10
0
20
0
30
0
3
_U6
0
MTEXT
5
1E4
100
AcDbEntity
8
SK2
62
256
6
ByLayer
370
18
48
1
60
0
100
AcDbMText
10
4.707837
20
-36.467451
30
0
210
0
220
0
230
1
1
\W0.6864;91.00
40
3.50012
41
0
44
1.084337
50
0
71
7
72
5
7
iso_b_vert
0
LINE
5
1E5
100
AcDbEntity
8
SK2
62
256
6
ByLayer
370
13
48
1
60
0
100
AcDbLine
10
-36
20
-1.5875
30
0
11
-36
21
-40.67512
31
0
39
0
210
0
220
0
230
1
0
LINE
5
1E6
100
AcDbEntity
8
SK2
62
256
6
ByLayer
370
13
48
1
60
0
100
AcDbLine
10
55
20
-1.5875
30
0
11
55
21
-40.67512
31
0
39
0
210
0
220
0
230
1
0
LINE
5
1E7
100
AcDbEntity
8
SK2
62
256
6
ByLayer
370
13
48
1
60
0
100
AcDbLine
10
-36
20
-37.50012
30
0
11
55
21
-37.50012
31
0
39
0
210
0
220
0
230
1
0
LINE
5
1E8
100
AcDbEntity
8
SK2
62
256
6
ByLayer
370
13
48
1
60
0
100
AcDbLine
10
-36
20
-37.50012
30
0
11
-32.825002
21
-37.082123
31
0
39
0
210
0
220
0
230
1
0
LINE
5
1E9
100
AcDbEntity
8
SK2
62
256
6
ByLayer
370
13
48
1
60
0
100
AcDbLine
10
-36
20
-37.50012
30
0
11
-32.824998
21
-37.918117
31
0
39
0
210
0
220
0
230
1
0
LINE
5
1EA
100
AcDbEntity
8
SK2
62
256
6
ByLayer
370
13
48
1
60
0
100
AcDbLine
10
-32.825002
20
-37.082123
30
0
11
-32.824998
21
-37.918117
31
0
39
0
210
0
220
0
230
1
0
LINE
5
1EB
100
AcDbEntity
8
SK2
62
256
6
ByLayer
370
13
48
1
60
0
100
AcDbLine
10
55
20
-37.50012
30
0
11
51.825002
21
-37.918117
31
0
39
0
210
0
220
0
230
1
0
LINE
5
1EC
100
AcDbEntity
8
SK2
62
256
6
ByLayer
370
13
48
1
60
0
100
AcDbLine
10
55
20
-37.50012
30
0
11
51.824998
21
-37.082123
31
0
39
0
210
0
220
0
230
1
0
LINE
5
1ED
100
AcDbEntity
8
SK2
62
256
6
ByLayer
370
13
48
1
60
0
100
AcDbLine
10
51.825002
20
-37.918117
30
0
11
51.824998
21
-37.082123
31
0
39
0
210
0
220
0
230
1
0
ENDBLK
5
1EF
100
AcDbEntity
8
0
100
AcDbBlockEnd
0
ENDSEC
0
SECTION
2
ENTITIES
0
ARC
5
B4
100
AcDbEntity
8
1
62
256
6
ByLayer
370
18
48
1
60
0
100
AcDbCircle
39
0
10
1.145418
20
4.317148
30
0
40
0.799999999999998
210
0
220
0
230
1
100
AcDbArc
50
224.284145
51
270.03581
0
ARC
5
B5
100
AcDbEntity
8
1
62
256
6
ByLayer
370
18
48
1
60
0
100
AcDbCircle
39
0
10
1.145418
20
-4.317148
30
0
40
0.799999999999998
210
0
220
0
230
1
100
AcDbArc
50
89.96419
51
135.715855
0
ARC
5
B6
100
AcDbEntity
8
1
62
256
6
ByLayer
370
18
48
1
60
0
100
AcDbCircle
39
0
10
0
20
3.2
30
0
40
0.800000000000003
210
0
220
0
230
1
100
AcDbArc
50
44.284145
51
90
0
ARC
5
B7
100
AcDbEntity
8
1
62
256
6
ByLayer
370
18
48
1
60
0
100
AcDbCircle
39
0
10
0
20
-3.2
30
0
40
0.800000000000003
210
0
220
0
230
1
100
AcDbArc
50
270
51
315.715855
0
ARC
5
B8
100
AcDbEntity
8
SK2
62
256
6
ByLayer
370
13
48
1
60
0
100
AcDbCircle
39
0
10
55
20
0
30
0
40
20
210
0
220
0
230
1
100
AcDbArc
50
9.606349
51
69.999919
0
ARC
5
B9
100
AcDbEntity
8
SK2
62
256
6
ByLayer
370
13
48
1
60
0
100
AcDbCircle
39
0
10
55
20
0
30
0
40
20
210
0
220
0
230
1
100
AcDbArc
50
290.000081
51
350.393651
0
ELLIPSE
5
BA
100
AcDbEntity
8
1
62
256
6
ByLayer
370
18
48
1
60
0
100
AcDbEllipse
10
3.641425
20
2.596169
30
0
11
-0.00292259510760425
21
-0.00956339049903368
31
0
210
0
220
0
230
1
40
0.345878
41
0.740019254999474
42
2.30515844741683
0
ELLIPSE
5
BB
100
AcDbEntity
8
1
62
256
6
ByLayer
370
18
48
1
60
0
100
AcDbEllipse
10
3.562417
20
-1.529427
30
0
11
0.00205430725113383
21
0.00978671659536226
31
0
210
0
220
0
230
1
40
0.538052
41
1.25431894685213
42
2.63120286794276
0
ELLIPSE
5
BC
100
AcDbEntity
8
1
62
256
6
ByLayer
370
18
48
1
60
0
100
AcDbEllipse
10
3.601864
20
-1.542262
30
0
11
-0.0039526340094373
21
-0.00918567822141836
31
0
210
0
220
0
230
1
40
0.199038
41
-2.00817855151194
42
-0.439127705306626
0
ELLIPSE
5
BD
100
AcDbEntity
8
1
62
256
6
ByLayer
370
18
48
1
60
0
100
AcDbEllipse
10
3.602375
20
2.601781
30
0
11
-1.08916821031627E-05
21
0.00999999406856129
31
0
210
0
220
0
230
1
40
0.010523
41
-2.45932165518417
42
-0.888546984750848
0
POINT
5
70
100
AcDbEntity
8
80
62
256
6
ByLayer
370
18
48
1
60
0
100
AcDbPoint
10
0
20
0
30
0
39
0
210
0
220
0
230
1
50
360
0
POINT
5
72
100
AcDbEntity
8
81
62
256
6
ByLayer
370
18
48
1
60
0
100
AcDbPoint
10
55
20
0
30
0
39
0
210
0
220
0
230
1
50
360
0
POINT
5
74
100
AcDbEntity
8
1
62
256
6
ByLayer
370
18
48
1
60
0
100
AcDbPoint
10
-36
20
0
30
0
39
0
210
0
220
0
230
1
50
360
0
POINT
5
76
100
AcDbEntity
8
1
62
256
6
ByLayer
370
18
48
1
60
1
100
AcDbPoint
10
0
20
-4
30
0
39
0
210
0
220
0
230
1
50
360
0
POINT
5
77
100
AcDbEntity
8
1
62
256
6
ByLayer
370
18
48
1
60
1
100
AcDbPoint
10
55
20
0
30
0
39
0
210
0
220
0
230
1
50
360
0
POINT
5
78
100
AcDbEntity
8
1
62
256
6
ByLayer
370
18
48
1
60
1
100
AcDbPoint
10
53.7079
20
-3.55
30
0
39
0
210
0
220
0
230
1
50
360
0
POINT
5
79
100
AcDbEntity
8
1
62
256
6
ByLayer
370
18
48
1
60
1
100
AcDbPoint
10
53.7079
20
3.55
30
0
39
0
210
0
220
0
230
1
50
360
0
POINT
5
7A
100
AcDbEntity
8
1
62
256
6
ByLayer
370
18
48
1
60
1
100
AcDbPoint
10
-36
20
4
30
0
39
0
210
0
220
0
230
1
50
360
0
POINT
5
7B
100
AcDbEntity
8
1
62
256
6
ByLayer
370
18
48
1
60
1
100
AcDbPoint
10
-36
20
-4
30
0
39
0
210
0
220
0
230
1
50
360
0
POINT
5
7C
100
AcDbEntity
8
1
62
256
6
ByLayer
370
18
48
1
60
1
100
AcDbPoint
10
-36
20
-4
30
0
39
0
210
0
220
0
230
1
50
360
0
POINT
5
7D
100
AcDbEntity
8
1
62
256
6
ByLayer
370
18
48
1
60
1
100
AcDbPoint
10
0
20
-4
30
0
39
0
210
0
220
0
230
1
50
360
0
POINT
5
7E
100
AcDbEntity
8
1
62
256
6
ByLayer
370
18
48
1
60
1
100
AcDbPoint
10
2
20
4.05
30
0
39
0
210
0
220
0
230
1
50
360
0
POINT
5
7F
100
AcDbEntity
8
1
62
256
6
ByLayer
370
18
48
1
60
1
100
AcDbPoint
10
55
20
0
30
0
39
0
210
0
220
0
230
1
50
360
0
POINT
5
80
100
AcDbEntity
8
1
62
256
6
ByLayer
370
18
48
1
60
1
100
AcDbPoint
10
18.3
20
-3.55
30
0
39
0
210
0
220
0
230
1
50
360
0
POINT
5
81
100
AcDbEntity
8
1
62
256
6
ByLayer
370
18
48
1
60
1
100
AcDbPoint
10
55
20
0
30
0
39
0
210
0
220
0
230
1
50
360
0
POINT
5
82
100
AcDbEntity
8
1
62
256
6
ByLayer
370
18
48
1
60
1
100
AcDbPoint
10
-36
20
0
30
0
39
0
210
0
220
0
230
1
50
360
0
POINT
5
83
100
AcDbEntity
8
1
62
256
6
ByLayer
370
18
48
1
60
1
100
AcDbPoint
10
55
20
0
30
0
39
0
210
0
220
0
230
1
50
360
0
SPLINE
5
BE
100
AcDbEntity
8
1
62
256
6
ByLayer
370
18
48
1
60
0
100
AcDbSpline
70
4
71
3
72
20
73
16
40
0
40
0
40
0
40
0
40
0.249999999999995
40
0.249999999999995
40
0.499999999999991
40
0.499999999999991
40
0.562499999999989
40
0.562499999999989
40
0.624999999999988
40
0.624999999999988
40
0.749999999999992
40
0.749999999999992
40
0.874999999999996
40
0.874999999999996
40
1
40
1
40
1
40
1
41
1
10
53.7672341887001
20
3.40309560215866
30
0
41
1
10
53.8368781599069
20
3.20748542620592
30
0
41
1
10
53.9058799697201
20
3.0105269548643
30
0
41
1
10
54.0446209227372
20
2.61573416543189
30
0
41
1
10
54.1143898399064
20
2.41801942214482
30
0
41
1
10
54.2027784306575
20
2.17129047615262
30
0
41
1
10
54.2204723169746
20
2.12185278112503
30
0
41
1
10
54.256652913113
20
2.02364022711731
30
0
41
1
10
54.2750255998109
20
1.97496701114412
30
0
41
1
10
54.331221530661
20
1.83036527236538
30
0
41
1
10
54.3701398315339
20
1.73587418234101
30
0
41
1
10
54.4518632786403
20
1.55103946753238
30
0
41
1
10
54.4947849735947
20
1.46037465923206
30
0
41
1
10
54.5847807198363
20
1.28475514985041
30
0
41
1
10
54.6311611398792
20
1.20113057584712
30
0
41
1
10
54.6790924610349
20
1.1214049782979
30
0
0
SPLINE
5
BF
100
AcDbEntity
8
1
62
256
6
ByLayer
370
18
48
1
60
0
100
AcDbSpline
70
4
71
3
72
54
73
50
40
0
40
0
40
0
40
0
40
0.0256928338503103
40
0.0256928338503103
40
0.0581329725036075
40
0.0581329725036075
40
0.0905731111569046
40
0.0905731111569046
40
0.123013249810202
40
0.123013249810202
40
0.155453388463499
40
0.155453388463499
40
0.187893527116796
40
0.187893527116796
40
0.220333665770093
40
0.220333665770093
40
0.252773804423391
40
0.252773804423391
40
0.285213943076688
40
0.285213943076688
40
0.317654081729985
40
0.317654081729985
40
0.350094220383282
40
0.350094220383282
40
0.382534359036578
40
0.382534359036578
40
0.414974497689874
40
0.414974497689874
40
0.479854774996464
40
0.479854774996464
40
0.544735052303054
40
0.544735052303054
40
0.609615329609644
40
0.609615329609644
40
0.674495606916235
40
0.674495606916235
40
0.739375884222825
40
0.739375884222825
40
0.804256161529415
40
0.804256161529415
40
0.83669630018271
40
0.83669630018271
40
0.869136438836006
40
0.869136438836006
40
0.934016716142596
40
0.934016716142596
40
0.998896993449186
40
0.998896993449186
40
1
40
1
40
1
40
1
41
1
10
18.565624515334
20
3.36626980503021
30
0
41
1
10
18.7692220483235
20
3.39748440750239
30
0
41
1
10
18.9730304713487
20
3.42439135803127
30
0
41
1
10
19.435464605472
20
3.47501705319615
30
0
41
1
10
19.6942620620809
20
3.49616514509447
30
0
41
1
10
20.2134769919708
20
3.52386136391962
30
0
41
1
10
20.4735838122338
20
3.5302743740601
30
0
41
1
10
20.9913091676007
20
3.52821524213738
30
0
41
1
10
21.2493897454019
20
3.51984489883776
30
0
41
1
10
21.7640083505855
20
3.48853668760987
30
0
41
1
10
22.0205706432291
20
3.46553789934325
30
0
41
1
10
22.5340557498703
20
3.40573463212991
30
0
41
1
10
22.7906673968069
20
3.36884923415366
30
0
41
1
10
23.3036977372185
20
3.28107093044213
30
0
41
1
10
23.5601257906963
20
3.23012818783184
30
0
41
1
10
24.0744528361369
20
3.11539103695819
30
0
41
1
10
24.3321039171262
20
3.05142724107995
30
0
41
1
10
24.8486182540476
20
2.91026803917933
30
-2E-16
41
1
10
25.1075996157622
20
2.83314989952069
30
-2E-16
41
1
10
25.6280300277776
20
2.66697620858673
30
-2E-16
41
1
10
25.8877469730596
20
2.57833059070447
30
-2E-16
41
1
10
26.4063603502158
20
2.39018274997028
30
-1E-16
41
1
10
26.665420253763
20
2.29088903839315
30
-1E-16
41
1
10
27.1841026953393
20
2.08349017420849
30
-1E-16
41
1
10
27.4435804875799
20
1.9751792551034
30
-1E-16
41
1
10
27.9631017051396
20
1.74967486445263
30
-1E-16
41
1
10
28.223184282064
20
1.63284805877134
30
-1E-16
41
1
10
28.9996526817641
20
1.27549952324279
30
-1E-16
41
1
10
29.5134099050041
20
1.02523234765042
30
-1E-16
41
1
10
30.5402168191465
20
0.514459054511235
30
0
41
1
10
31.0523911189159
20
0.252239075181848
30
0
41
1
10
32.0810680721194
20
-0.272387984287945
30
0
41
1
10
32.5971562129499
20
-0.536641924050372
30
0
41
1
10
33.6373563392095
20
-1.05383785548074
30
1E-16
41
1
10
34.1526609153693
20
-1.30442001664923
30
1E-16
41
1
10
35.1807865753827
20
-1.7768591271049
30
1E-16
41
1
10
35.6926624822814
20
-2.00043835321912
30
1E-16
41
1
10
36.7190736820176
20
-2.41050934889625
30
1E-16
41
1
10
37.2326079559425
20
-2.59855629178446
30
2E-16
41
1
10
38.0090177476832
20
-2.84642671419059
30
2E-16
41
1
10
38.2693560565811
20
-2.92386740313691
30
2E-16
41
1
10
38.7878051141315
20
-3.06591256132634
30
0
41
1
10
39.0462437668191
20
-3.13010543561094
30
0
41
1
10
39.8195683142492
20
-3.30248760903305
30
0
41
1
10
40.3317230077344
20
-3.39081938717231
30
0
41
1
10
41.3576173098081
20
-3.50973082576468
30
0
41
1
10
41.8700852212719
20
-3.54102526005076
30
0
41
1
10
42.3940495973576
20
-3.54289480675459
30
0
41
1
10
42.4028088974536
20
-3.54291757405133
30
0
41
1
10
42.4115686876956
20
-3.54293184761082
30
0
0
SPLINE
5
C0
100
AcDbEntity
8
1
62
256
6
ByLayer
370
18
48
1
60
0
100
AcDbSpline
70
4
71
3
72
10
73
6
40
0
40
0
40
0
40
0
40
0.5
40
0.5
40
1
40
1
40
1
40
1
41
1
10
54.0858396087271
20
0.997165613279691
30
0
41
1
10
54.1856166257149
20
1.01329137813281
30
0
41
1
10
54.2851493959708
20
1.031472655475
30
0
41
1
10
54.4833003662326
20
1.07179951565951
30
0
41
1
10
54.5817553802675
20
1.09440355982079
30
0
41
1
10
54.6790924610347
20
1.12140497829776
30
0
0
SPLINE
5
C1
100
AcDbEntity
8
1
62
256
6
ByLayer
370
18
48
1
60
0
100
AcDbSpline
70
4
71
3
72
8
73
4
40
0
40
0
40
0
40
0
40
1
40
1
40
1
40
1
41
1
10
54.4046738721486
20
-0.373264880187492
30
0
41
1
10
54.2898552273426
20
-0.0667696119425329
30
0
41
1
10
54.1461575811285
20
0.258798580468351
30
0
41
1
10
53.9740544099437
20
0.603126993013547
30
0
0
SPLINE
5
C2
100
AcDbEntity
8
1
62
256
6
ByLayer
370
18
48
1
60
0
100
AcDbSpline
70
4
71
3
72
8
73
4
40
0
40
0
40
0
40
0
40
1
40
1
40
1
40
1
41
1
10
54.6790924610349
20
1.12140497829785
30
0
41
1
10
54.7879629318896
20
0.814005180420338
30
0
41
1
10
54.8938561480084
20
0.505540053597827
30
0
41
1
10
54.9967263107263
20
0.195993210034203
30
0
0
SPLINE
5
C3
100
AcDbEntity
8
1
62
256
6
ByLayer
370
18
48
1
60
0
100
AcDbSpline
70
4
71
3
72
8
73
4
40
0
40
0
40
0
40
0
40
1
40
1
40
1
40
1
41
1
10
3.64757998361353
20
2.73050965716507
30
-2E-16
41
1
10
3.64700786489465
20
2.68762185316234
30
-2E-16
41
1
10
3.64642728112685
20
2.64472783471385
30
-2E-16
41
1
10
3.6458382353631
20
2.60182721884837
30
-2E-16
0
SPLINE
5
C4
100
AcDbEntity
8
1
62
256
6
ByLayer
370
18
48
1
60
0
100
AcDbSpline
70
4
71
3
72
14
73
10
40
0
40
0
40
0
40
0
40
0.298069342964178
40
0.298069342964178
40
0.535099283257039
40
0.535099283257039
40
0.772129223549899
40
0.772129223549899
40
1
40
1
40
1
40
1
41
1
10
6.96119277310945
20
3.17052695158074
30
0
41
1
10
6.92704340768603
20
3.05563426098715
30
0
41
1
10
6.89026476237026
20
2.94180826863877
30
0
41
1
10
6.82140614785826
20
2.73881756162328
30
1E-16
41
1
10
6.79025540875341
20
2.64927364658107
30
1E-16
41
1
10
6.72429685564941
20
2.47163752956609
30
1E-16
41
1
10
6.6892440870767
20
2.38361743792731
30
1E-16
41
1
10
6.61727638871957
20
2.21230028636688
30
1E-16
41
1
10
6.58091928392699
20
2.12934745019166
30
1E-16
41
1
10
6.54254416785611
20
2.04789440320451
30
1E-16
0
SPLINE
5
C5
100
AcDbEntity
8
1
62
256
6
ByLayer
370
18
48
1
60
0
100
AcDbSpline
70
4
71
3
72
28
73
24
40
0
40
0
40
0
40
0
40
0.085715507708707
40
0.085715507708707
40
0.171431015417414
40
0.171431015417414
40
0.342862030834827
40
0.342862030834827
40
0.428577538543533
40
0.428577538543533
40
0.51429304625224
40
0.51429304625224
40
0.600008553960945
40
0.600008553960945
40
0.68572406166965
40
0.68572406166965
40
0.857155077087058
40
0.857155077087058
40
0.942870584795763
40
0.942870584795763
40
0.985728338650114
40
0.985728338650114
40
1
40
1
40
1
40
1
41
1
10
19.5
20
0.779820009869127
30
0
41
1
10
19.8572163188834
20
0.60247226207386
30
0
41
1
10
20.2148433130192
20
0.421662269322212
30
0
41
1
10
20.9270750581954
20
0.059376039870898
30
0
41
1
10
21.2820031725815
20
-0.122243300016578
30
0
41
1
10
22.345949254092
20
-0.663137667827556
30
0
41
1
10
23.0541849659855
20
-1.01833328908373
30
1E-16
41
1
10
24.1252294456345
20
-1.52288669839689
30
1E-16
41
1
10
24.4819640156674
20
-1.68551793456251
30
1E-16
41
1
10
25.1941314558589
20
-1.99571095988497
30
1E-16
41
1
10
25.5499521365383
20
-2.14344968288361
30
1E-16
41
1
10
26.2628180615363
20
-2.42134287214174
30
1E-16
41
1
10
26.6205411406418
20
-2.55168082755225
30
2E-16
41
1
10
27.3310300113948
20
-2.789487112834
30
2E-16
41
1
10
27.6846608207928
20
-2.89731969035972
30
2E-16
41
1
10
28.7433737161415
20
-3.18514101537085
30
0
41
1
10
29.4462531063801
20
-3.32946882583261
30
0
41
1
10
30.5059311714362
20
-3.46661407703118
30
0
41
1
10
30.8600656182504
20
-3.49910299002937
30
0
41
1
10
31.3939069558053
20
-3.5270631604993
30
0
41
1
10
31.5725529311004
20
-3.53292104466243
30
0
41
1
10
31.81034827092
20
-3.53601110429293
30
0
41
1
10
31.8697274322961
20
-3.53639210075809
30
0
41
1
10
31.929085644292
20
-3.53638300220501
30
0
0
SPLINE
5
C6
100
AcDbEntity
8
1
62
256
6
ByLayer
370
18
48
1
60
0
100
AcDbSpline
70
4
71
3
72
14
73
10
40
0
40
0
40
0
40
0
40
0.0482988210331618
40
0.0482988210331618
40
0.286224115774869
40
0.286224115774869
40
0.524149410516575
40
0.524149410516575
40
1
40
1
40
1
40
1
41
1
10
51.3026859629199
20
3.34296922778188
30
0
41
1
10
51.3386254491126
20
3.34916913045288
30
0
41
1
10
51.3745790992124
20
3.35523631488371
30
0
41
1
10
51.5877336047831
20
3.3903988936728
30
0
41
1
10
51.7652858751484
20
3.41638761388762
30
0
41
1
10
52.1213427982661
20
3.46166656683269
30
0
41
1
10
52.2999481536272
20
3.48095599046843
30
0
41
1
10
52.834716227469
20
3.52826261908297
30
0
41
1
10
53.1907313129847
20
3.54584896050116
30
0
41
1
10
53.5471049539748
20
3.54933294169396
30
0
0
SPLINE
5
C7
100
AcDbEntity
8
1
62
256
6
ByLayer
370
18
48
1
60
0
100
AcDbSpline
70
4
71
3
72
22
73
18
40
0
40
0
40
0
40
0
40
0.105794089179466
40
0.105794089179466
40
0.248855507412412
40
0.248855507412412
40
0.391916925645357
40
0.391916925645357
40
0.534978343878303
40
0.534978343878303
40
0.606509052994775
40
0.606509052994775
40
0.678039762111247
40
0.678039762111247
40
0.964162598577132
40
0.964162598577132
40
1
40
1
40
1
40
1
41
1
10
32.9744156172951
20
-3.36952244542454
30
0
41
1
10
32.5882960634952
20
-3.37148231520874
30
0
41
1
10
32.2036057498513
20
-3.35781745248897
30
0
41
1
10
31.2996454742076
20
-3.28908263475546
30
0
41
1
10
30.7807683199616
20
-3.22179002064604
30
0
41
1
10
29.7394814904888
20
-3.03292133181247
30
0
41
1
10
29.2172619036878
20
-2.91190070641423
30
0
41
1
10
28.164002773181
20
-2.61901831884637
30
2E-16
41
1
10
27.6384090702277
20
-2.44898884959054
30
1E-16
41
1
10
26.8494054037257
20
-2.16426215082865
30
1E-16
41
1
10
26.5857777220634
20
-2.06423892242901
30
1E-16
41
1
10
26.0597673878008
20
-1.85619486707068
30
1E-16
41
1
10
25.7977641818704
20
-1.74833421920528
30
1E-16
41
1
10
24.4911161547312
20
-1.19307554451859
30
1E-16
41
1
10
23.4568161092893
20
-0.697782726590503
30
0
41
1
10
22.2828245692544
20
-0.128549665511969
30
0
41
1
10
22.1520129979634
20
-0.065015978282446
30
0
41
1
10
22.0210307265712
20
-0.0013867770189222
30
0
0
SPLINE
5
C8
100
AcDbEntity
8
1
62
256
6
ByLayer
370
18
48
1
60
0
100
AcDbSpline
70
4
71
3
72
26
73
22
40
0
40
0
40
0
40
0
40
0.382940169198038
40
0.382940169198038
40
0.62358205649457
40
0.62358205649457
40
0.771243046292037
40
0.771243046292037
40
0.861713524581388
40
0.861713524581388
40
0.917282400172551
40
0.917282400172551
40
0.951470712740601
40
0.951470712740601
40
0.972526558537055
40
0.972526558537055
40
0.985420467418219
40
0.985420467418219
40
0.993268630210863
40
0.993268630210863
40
1
40
1
40
1
40
1
41
1
10
53.5471049539749
20
3.54933294169399
30
0
41
1
10
53.5742713920601
20
3.53155506493942
30
0
41
1
10
53.6014692740045
20
3.51365328456535
30
0
41
1
10
53.6458078528502
20
3.48430669051703
30
0
41
1
10
53.6629306402906
20
3.47293413028837
30
0
41
1
10
53.6905795541729
20
3.45450812699124
30
0
41
1
10
53.7010983051813
20
3.4474836282696
30
0
41
1
10
53.7180690935278
20
3.43612732744378
30
0
41
1
10
53.7245183282089
20
3.43180633778388
30
0
41
1
10
53.7349315641483
20
3.42482086897817
30
0
41
1
10
53.7388945119422
20
3.4221604121208
30
0
41
1
10
53.745296669062
20
3.41785920656403
30
0
41
1
10
53.7477354807252
20
3.41621996661903
30
0
41
1
10
53.7516766944943
20
3.41356967362788
30
0
41
1
10
53.7531758370353
20
3.41256129791657
30
0
41
1
10
53.7556078193169
20
3.41092491849119
30
0
41
1
10
53.7565395788317
20
3.41029782899122
30
0
41
1
10
53.7580381387463
20
3.40928912902319
30
0
41
1
10
53.7586043901977
20
3.40890795236234
30
0
41
1
10
53.7596276398712
20
3.40821915716427
30
0
41
1
10
53.7600956056451
20
3.40790415281035
30
0
41
1
10
53.7605084786875
20
3.40762628479464
30
0
0
SPLINE
5
C9
100
AcDbEntity
8
1
62
256
6
ByLayer
370
18
48
1
60
0
100
AcDbSpline
70
4
71
3
72
18
73
14
40
0
40
0
40
0
40
0
40
0.103691422405801
40
0.103691422405801
40
0.207382844811601
40
0.207382844811601
40
0.414765689623203
40
0.414765689623203
40
0.829531379246409
40
0.829531379246409
40
0.93322280165221
40
0.93322280165221
40
1
40
1
40
1
40
1
41
1
10
3.60188161713538
20
-1.53765895936738
30
1E-16
41
1
10
3.86549759291239
20
-1.65075352672633
30
1E-16
41
1
10
4.12889618717287
20
-1.76029715896024
30
1E-16
41
1
10
4.65583118252397
20
-1.97135177726761
30
1E-16
41
1
10
4.91978966120647
20
-2.0730100600795
30
1E-16
41
1
10
5.7080508311422
20
-2.36269856070058
30
1E-16
41
1
10
6.22975010076928
20
-2.53599906397125
30
2E-16
41
1
10
7.79136241255966
20
-2.98569905555794
30
0
41
1
10
8.82723652433063
20
-3.19285658833942
30
0
41
1
10
10.140222622424
20
-3.31107940704573
30
0
41
1
10
10.404282004628
20
-3.32769865754054
30
0
41
1
10
10.8359949277049
20
-3.34300106960879
30
0
41
1
10
11.0047252464941
20
-3.3459936511604
30
0
41
1
10
11.1731563523243
20
-3.3460165159058
30
0
0
SPLINE
5
CA
100
AcDbEntity
8
1
62
256
6
ByLayer
370
18
48
1
60
0
100
AcDbSpline
70
4
71
3
72
26
73
22
40
0
40
0
40
0
40
0
40
0.101796544519555
40
0.101796544519555
40
0.176646832476258
40
0.176646832476258
40
0.25149712043296
40
0.25149712043296
40
0.401197696346368
40
0.401197696346368
40
0.550898272259776
40
0.550898272259776
40
0.700598848173184
40
0.700598848173184
40
0.775449136129888
40
0.775449136129888
40
0.850299424086592
40
0.850299424086592
40
0.925149712043296
40
0.925149712043296
40
1
40
1
40
1
40
1
41
1
10
43.2725828331782
20
0.252054850561052
30
0
41
1
10
43.6254686768033
20
0.0810233966942917
30
0
41
1
10
43.979024361012
20
-0.0913207504500235
30
0
41
1
10
44.5950510063163
20
-0.389866595107407
30
0
41
1
10
44.8568394456494
20
-0.516248067294015
30
0
41
1
10
45.3825913564137
20
-0.767385673181849
30
0
41
1
10
45.6456386278032
20
-0.891693654827861
30
1E-16
41
1
10
46.4302465179544
20
-1.25604376447257
30
1E-16
41
1
10
46.949797501457
20
-1.48851928935517
30
1E-16
41
1
10
47.9866319751002
20
-1.9239067079796
30
1E-16
41
1
10
48.5040329626874
20
-2.12684589807458
30
1E-16
41
1
10
49.541470298433
20
-2.49478170025938
30
2E-16
41
1
10
50.0614728682665
20
-2.65985472842402
30
2E-16
41
1
10
50.8472781671508
20
-2.87292169821541
30
0
41
1
10
51.1107448109394
20
-2.93830306590127
30
0
41
1
10
51.6363425923226
20
-3.0557761590415
30
0
41
1
10
51.898675247358
20
-3.10795289581557
30
0
41
1
10
52.4230990221604
20
-3.1987360193711
30
0
41
1
10
52.6851824148953
20
-3.23732943691422
30
0
41
1
10
53.2096267709996
20
-3.30035343321356
30
0
41
1
10
53.4719875324205
20
-3.32437094575908
30
0
41
1
10
53.7347897979397
20
-3.34207961603062
30
0
0
SPLINE
5
CB
100
AcDbEntity
8
1
62
256
6
ByLayer
370
18
48
1
60
0
100
AcDbSpline
70
4
71
3
72
28
73
24
40
0
40
0
40
0
40
0
40
0.124999999999999
40
0.124999999999999
40
0.187499999999999
40
0.187499999999999
40
0.249999999999999
40
0.249999999999999
40
0.374999999999999
40
0.374999999999999
40
0.437499999999999
40
0.437499999999999
40
0.5
40
0.5
40
0.625
40
0.625
40
0.6875
40
0.6875
40
0.75
40
0.75
40
0.875
40
0.875
40
1
40
1
40
1
40
1
41
1
10
53.3277419436082
20
-0.0244555746552351
30
0
41
1
10
53.3341107865491
20
-0.227855960262161
30
0
41
1
10
53.3491888046439
20
-0.427351863702825
30
0
41
1
10
53.3787909400565
20
-0.721540071273665
30
0
41
1
10
53.3898458410969
20
-0.818752705081295
30
1E-16
41
1
10
53.4135313419369
20
-1.01153067214068
30
1E-16
41
1
10
53.426228374829
20
-1.10755928334018
30
1E-16
41
1
10
53.4650589501471
20
-1.38914097726416
30
1E-16
41
1
10
53.49180525934
20
-1.56814037513604
30
1E-16
41
1
10
53.5298634152037
20
-1.82424743403089
30
1E-16
41
1
10
53.5422231703971
20
-1.90753513556839
30
1E-16
41
1
10
53.5659128404686
20
-2.06987552930031
30
1E-16
41
1
10
53.5772533491128
20
-2.14903205593859
30
1E-16
41
1
10
53.6087283568206
20
-2.37537698811013
30
1E-16
41
1
10
53.6265016271163
20
-2.51318266288439
30
2E-16
41
1
10
53.6486391111631
20
-2.70037334908648
30
2E-16
41
1
10
53.65527982513
20
-2.75949730194941
30
-1E-16
41
1
10
53.6673324229048
20
-2.87097151748333
30
0
41
1
10
53.6727135329692
20
-2.92304088219845
30
0
41
1
10
53.6873750483443
20
-3.06599228914439
30
0
41
1
10
53.6952308798454
20
-3.14475118670779
30
0
41
1
10
53.7122931290436
20
-3.26920460552753
30
0
41
1
10
53.7215671184434
20
-3.31484721727961
30
0
41
1
10
53.7347897979395
20
-3.34207961603062
30
0
0
SPLINE
5
CC
100
AcDbEntity
8
1
62
256
6
ByLayer
370
18
48
1
60
0
100
AcDbSpline
70
4
71
3
72
30
73
26
40
0
40
0
40
0
40
0
40
0.141984949610625
40
0.141984949610625
40
0.212977424415939
40
0.212977424415939
40
0.283969899221252
40
0.283969899221252
40
0.425954848831881
40
0.425954848831881
40
0.567939798442508
40
0.567939798442508
40
0.638932273247821
40
0.638932273247821
40
0.709924748053133
40
0.709924748053133
40
0.780917222858446
40
0.780917222858446
40
0.851909697663758
40
0.851909697663758
40
0.92290217246907
40
0.92290217246907
40
0.993894647274383
40
0.993894647274383
40
1
40
1
40
1
40
1
41
1
10
53.3277419436061
20
-0.0244555746554056
30
0
41
1
10
52.8073108545684
20
0.229238049708528
30
0
41
1
10
52.2881387872613
20
0.482162739504361
30
0
41
1
10
51.5075358715101
20
0.852748921194774
30
-1E-16
41
1
10
51.2470626501506
20
0.974855433097446
30
-1E-16
41
1
10
50.7250338951582
20
1.21503482404296
30
-1E-16
41
1
10
50.4650093548342
20
1.3323691007956
30
-1E-16
41
1
10
49.6875896577253
20
1.67390231229027
30
-1E-16
41
1
10
49.1728645153004
20
1.88768563560529
30
-1E-16
41
1
10
48.1447360242123
20
2.28031197847579
30
-1E-16
41
1
10
47.6314701898119
20
2.45904826024085
30
-2E-16
41
1
10
46.8596043056462
20
2.69532462208969
30
-2E-16
41
1
10
46.6019799014241
20
2.76873073333488
30
1E-16
41
1
10
46.085602016401
20
2.9033493325033
30
0
41
1
10
45.8268139350124
20
2.96469855843876
30
0
41
1
10
45.3070516413381
20
3.07587603033176
30
0
41
1
10
45.0454489555104
20
3.12569411460731
30
0
41
1
10
44.5249201678294
20
3.21152953801646
30
0
41
1
10
44.2656006992754
20
3.24767187359035
30
0
41
1
10
43.7486459070903
20
3.30572501059808
30
0
41
1
10
43.4910423530288
20
3.32750432762802
30
0
41
1
10
42.9771347393332
20
3.35575905410045
30
0
41
1
10
42.7204887317273
20
3.36304659277755
30
0
41
1
10
42.4415759847698
20
3.36427963586507
30
0
41
1
10
42.4194887243992
20
3.36432860420371
30
0
41
1
10
42.397401229405
20
3.36432826063051
30
0
0
SPLINE
5
CD
100
AcDbEntity
8
1
62
256
6
ByLayer
370
18
48
1
60
0
100
AcDbSpline
70
4
71
3
72
24
73
20
40
0
40
0
40
0
40
0
40
0.0619206272002905
40
0.0619206272002905
40
0.179180548800254
40
0.179180548800254
40
0.296440470400218
40
0.296440470400218
40
0.413700392000181
40
0.413700392000181
40
0.530960313600146
40
0.530960313600146
40
0.648220235200109
40
0.648220235200109
40
0.765480156800073
40
0.765480156800073
40
0.882740078400036
40
0.882740078400036
40
1
40
1
40
1
40
1
41
1
10
10.2708174154307
20
-0.24168373623337
30
0
41
1
10
10.1329878896746
20
-0.175303042937827
30
0
41
1
10
9.99514047004391
20
-0.108758585860329
30
0
41
1
10
9.59753701626857
20
0.0835831772239715
30
0
41
1
10
9.33836822058655
20
0.209280005862638
30
0
41
1
10
8.82082953790908
20
0.458085783293853
30
0
41
1
10
8.56253095427297
20
0.581294900970164
30
0
41
1
10
8.04687229983494
20
0.824915411289652
30
-1E-16
41
1
10
7.78945987243159
20
0.94526061678468
30
-1E-16
41
1
10
7.27439500454335
20
1.18121614787276
30
-1E-16
41
1
10
7.01677826493022
20
1.29686628804467
30
-1E-16
41
1
10
6.50135024464223
20
1.52289631449392
30
-1E-16
41
1
10
6.24336996466423
20
1.63311503786539
30
-1E-16
41
1
10
5.72580368707202
20
1.84643287874951
30
-1E-16
41
1
10
5.46634820001779
20
1.9496606051718
30
-1E-16
41
1
10
4.94577089286037
20
2.14818604457031
30
-1E-16
41
1
10
4.68423814782366
20
2.2436290176262
30
-1E-16
41
1
10
4.16244965793999
20
2.42401462096785
30
-1E-16
41
1
10
3.90190536587332
20
2.50908129959933
30
-2E-16
41
1
10
3.64149677386604
20
2.58842521403949
30
-2E-16
0
SPLINE
5
CE
100
AcDbEntity
8
1
62
256
6
ByLayer
370
18
48
1
60
0
100
AcDbSpline
70
4
71
3
72
26
73
22
40
0
40
0
40
0
40
0
40
0.382940168999666
40
0.382940168999666
40
0.623582056175341
40
0.623582056175341
40
0.77124304589393
40
0.77124304589393
40
0.861713524135987
40
0.861713524135987
40
0.917282399697556
40
0.917282399697556
40
0.951470712247859
40
0.951470712247859
40
0.972526558033557
40
0.972526558033557
40
0.985420466907852
40
0.985420466907852
40
0.993268629696367
40
0.993268629696367
40
1
40
1
40
1
40
1
41
1
10
53.5471049539748
20
-3.54933294169399
30
0
41
1
10
53.57427139206
20
-3.53155506493942
30
0
41
1
10
53.6014692740044
20
-3.51365328456535
30
0
41
1
10
53.6458078528504
20
-3.48430669051689
30
0
41
1
10
53.6629306402911
20
-3.472934130288
30
0
41
1
10
53.6905795541736
20
-3.45450812699082
30
0
41
1
10
53.7010983051817
20
-3.44748362826925
30
0
41
1
10
53.718069093528
20
-3.43612732744359
30
0
41
1
10
53.7245183282091
20
-3.43180633778374
30
0
41
1
10
53.7349315641484
20
-3.42482086897809
30
0
41
1
10
53.7388945119422
20
-3.42216041212075
30
0
41
1
10
53.745296669062
20
-3.41785920656397
30
0
41
1
10
53.7477354807252
20
-3.416219966619
30
0
41
1
10
53.7516766944943
20
-3.41356967362788
30
0
41
1
10
53.7531758370353
20
-3.41256129791657
30
0
41
1
10
53.755607819317
20
-3.41092491849116
30
0
41
1
10
53.7565395788317
20
-3.41029782899119
30
0
41
1
10
53.7580381387463
20
-3.40928912902319
30
0
41
1
10
53.7586043901977
20
-3.40890795236234
30
0
41
1
10
53.7596276399073
20
-3.40821915713994
30
0
41
1
10
53.7600956057182
20
-3.40790415276109
30
0
41
1
10
53.7605084787833
20
-3.40762628473018
30
0
0
SPLINE
5
CF
100
AcDbEntity
8
1
62
256
6
ByLayer
370
18
48
1
60
0
100
AcDbSpline
70
4
71
3
72
12
73
8
40
0
40
0
40
0
40
0
40
0.5
40
0.5
40
0.75
40
0.75
40
1
40
1
40
1
40
1
41
1
10
3.50170133243262
20
2.61396666114271
30
-2E-16
41
1
10
3.50170133243256
20
2.60959461392855
30
-2E-16
41
1
10
3.50945336250959
20
2.60502127920367
30
-2E-16
41
1
10
3.53482152794237
20
2.59912709901909
30
-2E-16
41
1
10
3.545590022505
20
2.59735577613782
30
-2E-16
41
1
10
3.57164794214458
20
2.59476599481894
30
-2E-16
41
1
10
3.58682336548338
20
2.59399524907539
30
-2E-16
41
1
10
3.60244939206919
20
2.59401983736978
30
-2E-16
0
SPLINE
5
D0
100
AcDbEntity
8
1
62
256
6
ByLayer
370
18
48
1
60
0
100
AcDbSpline
70
4
71
3
72
8
73
4
40
0
40
0
40
0
40
0
40
1
40
1
40
1
40
1
41
1
10
53.237014931975
20
0.032476239703584
30
0
41
1
10
53.2656499962843
20
0.0172711888608319
30
0
41
1
10
53.2941002703428
20
0.0028527331589032
30
0
41
1
10
53.3223972493436
20
-0.0107986466710202
30
0
0
SPLINE
5
D1
100
AcDbEntity
8
1
62
256
6
ByLayer
370
18
48
1
60
0
100
AcDbSpline
70
4
71
3
72
16
73
12
40
0
40
0
40
0
40
0
40
0.124999999999995
40
0.124999999999995
40
0.24999999999999
40
0.24999999999999
40
0.499999999999993
40
0.499999999999993
40
0.749999999999997
40
0.749999999999997
40
1
40
1
40
1
40
1
41
1
10
53.9740544099437
20
0.603126993013603
30
0
41
1
10
53.9444488933604
20
0.615403719945874
30
0
41
1
10
53.9141955226194
20
0.624758340173088
30
0
41
1
10
53.852725339824
20
0.638226746394139
30
0
41
1
10
53.8215042248131
20
0.642486754818918
30
0
41
1
10
53.7276024638494
20
0.652740442922408
30
0
41
1
10
53.6647299132292
20
0.653099030021821
30
0
41
1
10
53.5396334640382
20
0.63940685308404
30
0
41
1
10
53.4774431720048
20
0.625099409291323
30
0
41
1
10
53.3546912056165
20
0.586366736861748
30
0
41
1
10
53.2939531758297
20
0.561498860289163
30
0
41
1
10
53.2350234238044
20
0.530130099640417
30
0
0
SPLINE
5
D2
100
AcDbEntity
8
1
62
256
6
ByLayer
370
18
48
1
60
0
100
AcDbSpline
70
4
71
3
72
22
73
18
40
0
40
0
40
0
40
0
40
0.329394289257277
40
0.329394289257277
40
0.494091433885916
40
0.494091433885916
40
0.658788578514555
40
0.658788578514555
40
0.741137150828876
40
0.741137150828876
40
0.823485723143197
40
0.823485723143197
40
0.905834295457518
40
0.905834295457518
40
0.988182867771839
40
0.988182867771839
40
1
40
1
40
1
40
1
41
1
10
5.17014572143373
20
2.56244371761122
30
-2E-16
41
1
10
4.761315720602
20
2.70476365270773
30
-2E-16
41
1
10
4.36182558594578
20
2.84297279379709
30
-2E-16
41
1
10
3.78303450660246
20
3.03802151949708
30
0
41
1
10
3.59354972296637
20
3.1009648132553
30
0
41
1
10
3.22392590357794
20
3.22066885113938
30
0
41
1
10
3.04487665874132
20
3.27708188335708
30
0
41
1
10
2.79210364571264
20
3.3527856003669
30
0
41
1
10
2.71008957158992
20
3.37663979863655
30
0
41
1
10
2.55391784828473
20
3.42017748619296
30
0
41
1
10
2.48009450126739
20
3.43977515465301
30
0
41
1
10
2.34311035122761
20
3.47351176267191
30
0
41
1
10
2.27991526109042
20
3.48766738228872
30
0
41
1
10
2.16770229012803
20
3.50872820873889
30
0
41
1
10
2.11873131777514
20
3.51554284060157
30
0
41
1
10
2.07614233333038
20
3.51752219931998
30
0
41
1
10
2.07102655649524
20
3.51766852188618
30
0
41
1
10
2.06614738009475
20
3.51770951247318
30
0
0
SPLINE
5
D3
100
AcDbEntity
8
1
62
256
6
ByLayer
370
18
48
1
60
0
100
AcDbSpline
70
4
71
3
72
10
73
6
40
0
40
0
40
0
40
0
40
0.400838884415846
40
0.400838884415846
40
1
40
1
40
1
40
1
41
1
10
4.86202385866386
20
2.66978578959026
30
-2E-16
41
1
10
5.15064973884711
20
2.73661637193982
30
-2E-16
41
1
10
5.43582413020567
20
2.80591897353907
30
-1E-16
41
1
10
6.13852244809934
20
2.97778689265434
30
0
41
1
10
6.55286614262477
20
3.07990030984368
30
0
41
1
10
6.96119296558649
20
3.1705269979621
30
0
0
SPLINE
5
D4
100
AcDbEntity
8
1
62
256
6
ByLayer
370
18
48
1
60
0
100
AcDbSpline
70
4
71
3
72
48
73
44
40
0
40
0
40
0
40
0
40
0.0910954071699538
40
0.0910954071699538
40
0.136643110754931
40
0.136643110754931
40
0.182190814339908
40
0.182190814339908
40
0.227738517924884
40
0.227738517924884
40
0.273286221509861
40
0.273286221509861
40
0.318833925094838
40
0.318833925094838
40
0.364381628679815
40
0.364381628679815
40
0.409929332264792
40
0.409929332264792
40
0.455477035849769
40
0.455477035849769
40
0.501024739434746
40
0.501024739434746
40
0.546572443019723
40
0.546572443019723
40
0.592120146604699
40
0.592120146604699
40
0.637667850189676
40
0.637667850189676
40
0.683215553774653
40
0.683215553774653
40
0.72876325735963
40
0.72876325735963
40
0.774310960944607
40
0.774310960944607
40
0.819858664529584
40
0.819858664529584
40
0.865406368114561
40
0.865406368114561
40
0.910954071699538
40
0.910954071699538
40
0.956501775284515
40
0.956501775284515
40
1
40
1
40
1
40
1
41
1
10
3.64757998361353
20
2.7305096571651
30
-2E-16
41
1
10
4.16626407283553
20
2.56184109936734
30
-2E-16
41
1
10
4.68506389587506
20
2.37225754839844
30
-1E-16
41
1
10
5.46543726878951
20
2.06079864358861
30
-1E-16
41
1
10
5.72629801709019
20
1.95227336932348
30
-1E-16
41
1
10
6.24562662289645
20
1.72785946687122
30
-1E-16
41
1
10
6.50422789599583
20
1.61154409699174
30
-1E-16
41
1
10
7.02071282594702
20
1.3732319429474
30
-1E-16
41
1
10
7.278789776785
20
1.25160530776765
30
-1E-16
41
1
10
7.7945206112139
20
1.00329117255529
30
-1E-16
41
1
10
8.05215880394738
20
0.876560072395989
30
-1E-16
41
1
10
8.56815926942468
20
0.620210671048682
30
0
41
1
10
8.82654954060536
20
0.490659447535791
30
0
41
1
10
9.34417432442623
20
0.228894074096104
30
0
41
1
10
9.6033721823801
20
0.0965921884471754
30
0
41
1
10
10.1238148241023
20
-0.16830982394967
30
0
41
1
10
10.3838127920515
20
-0.300153753666791
30
0
41
1
10
10.9029442033533
20
-0.562218442898342
30
0
41
1
10
11.1621142952834
20
-0.692565772531907
30
0
41
1
10
11.6809023619452
20
-0.949476406228342
30
1E-16
41
1
10
11.9405669512468
20
-1.07595831424166
30
1E-16
41
1
10
12.460539152519
20
-1.32476781076537
30
1E-16
41
1
10
12.7207731307717
20
-1.44714114897053
30
1E-16
41
1
10
13.2400970104753
20
-1.68420437411245
30
1E-16
41
1
10
13.4995983617432
20
-1.79901838085397
30
1E-16
41
1
10
14.018385703447
20
-2.02107025358535
30
1E-16
41
1
10
14.2776331242057
20
-2.12834967810807
30
1E-16
41
1
10
14.7970737979354
20
-2.33338533601844
30
1E-16
41
1
10
15.0578190740658
20
-2.43128415465622
30
1E-16
41
1
10
15.5765932020075
20
-2.61609514580553
30
2E-16
41
1
10
15.8348743486313
20
-2.70304269076934
30
2E-16
41
1
10
16.3506370733038
20
-2.86438715519321
30
2E-16
41
1
10
16.608011526047
20
-2.93896793346573
30
0
41
1
10
17.1217527111715
20
-3.07602389665431
30
0
41
1
10
17.3781527338497
20
-3.13841371194016
30
0
41
1
10
17.8914996519465
20
-3.24958670078294
30
0
41
1
10
18.1483020111058
20
-3.29854129527644
30
0
41
1
10
18.6622154988109
20
-3.38303954839401
30
0
41
1
10
18.9193572473614
20
-3.41851539846081
30
0
41
1
10
19.435464605472
20
-3.47501705319618
30
0
41
1
10
19.6942620620809
20
-3.49616514509449
30
0
41
1
10
20.2017956124085
20
-3.52323825001071
30
0
41
1
10
20.4501771258387
20
-3.52968219678581
30
0
41
1
10
20.697495491188
20
-3.52933858255889
30
0
0
SPLINE
5
D5
100
AcDbEntity
8
1
62
256
6
ByLayer
370
18
48
1
60
0
100
AcDbSpline
70
4
71
3
72
30
73
26
40
0
40
0
40
0
40
0
40
0.0415212368077218
40
0.0415212368077218
40
0.161331082206759
40
0.161331082206759
40
0.221236004906278
40
0.221236004906278
40
0.281140927605796
40
0.281140927605796
40
0.40095077300483
40
0.40095077300483
40
0.460855695704349
40
0.460855695704349
40
0.520760618403867
40
0.520760618403867
40
0.640570463802902
40
0.640570463802902
40
0.760380309201936
40
0.760380309201936
40
0.820285231901452
40
0.820285231901452
40
0.880190154600968
40
0.880190154600968
40
1
40
1
40
1
40
1
41
1
10
40.3114813126789
20
3.37815110023794
30
0
41
1
10
40.4892319476244
20
3.40559710624342
30
0
41
1
10
40.6669034647478
20
3.42967016375911
30
0
41
1
10
41.3576173098081
20
3.50973082576468
30
0
41
1
10
41.8700852212719
20
3.54102526005076
30
0
41
1
10
42.6428935455593
20
3.5437827018184
30
0
41
1
10
42.9009059218217
20
3.53736253101837
30
0
41
1
10
43.4185950291111
20
3.50939367736805
30
0
41
1
10
43.6788541253433
20
3.48787583734648
30
0
41
1
10
44.4575817267625
20
3.40195571656051
30
0
41
1
10
44.9758019425088
20
3.31616390404906
30
0
41
1
10
45.7537559107104
20
3.14568540109889
30
0
41
1
10
46.0136850112571
20
3.0816298811271
30
0
41
1
10
46.5319558218957
20
2.94136808458214
30
0
41
1
10
46.7902792596813
20
2.86534403944674
30
-2E-16
41
1
10
47.5634083960535
20
2.6207340881866
30
-2E-16
41
1
10
48.076296289444
20
2.43549499188001
30
-1E-16
41
1
10
49.1017518162658
20
2.0279008715174
30
-1E-16
41
1
10
49.6141587882818
20
1.80523011094073
30
-1E-16
41
1
10
50.3869236777471
20
1.45028559385818
30
-1E-16
41
1
10
50.6451137219084
20
1.32832494492609
30
-1E-16
41
1
10
51.1635127865456
20
1.07848174936552
30
-1E-16
41
1
10
51.4237790773153
20
0.950660627641724
30
-1E-16
41
1
10
52.2018037496388
20
0.563325826417554
30
0
41
1
10
52.7188200467792
20
0.298459495592766
30
0
41
1
10
53.2370149319751
20
0.0324762397035272
30
0
0
SPLINE
5
D6
100
AcDbEntity
8
1
62
256
6
ByLayer
370
18
48
1
60
0
100
AcDbSpline
70
4
71
3
72
10
73
6
40
0
40
0
40
0
40
0
40
0.5
40
0.5
40
1
40
1
40
1
40
1
41
1
10
3.55805220374327
20
-1.53742624562986
30
1E-16
41
1
10
3.5385081087062
20
-1.53289104936977
30
1E-16
41
1
10
3.52450563248624
20
-1.52599982138511
30
1E-16
41
1
10
3.50616562711926
20
-1.51083433651832
30
1E-16
41
1
10
3.50170133243262
20
-1.50236320606726
30
1E-16
41
1
10
3.50170133243262
20
-1.49395371231884
30
1E-16
0
SPLINE
5
D7
100
AcDbEntity
8
1
62
256
6
ByLayer
370
18
48
1
60
0
100
AcDbSpline
70
4
71
3
72
8
73
4
40
0
40
0
40
0
40
0
40
1
40
1
40
1
40
1
41
1
10
3.6458382353631
20
2.60182721884837
30
-2E-16
41
1
10
3.63228856803323
20
2.60597420159627
30
-2E-16
41
1
10
3.61754884216728
20
2.60809435747945
30
-2E-16
41
1
10
3.60244939206916
20
2.60808667757075
30
-2E-16
0
SPLINE
5
D8
100
AcDbEntity
8
1
62
256
6
ByLayer
370
18
48
1
60
0
100
AcDbSpline
70
4
71
3
72
40
73
36
40
0
40
0
40
0
40
0
40
0.0756315220388483
40
0.0756315220388483
40
0.113447283058272
40
0.113447283058272
40
0.151263044077695
40
0.151263044077695
40
0.22689456611654
40
0.22689456611654
40
0.264710327135963
40
0.264710327135963
40
0.302526088155385
40
0.302526088155385
40
0.378157610194231
40
0.378157610194231
40
0.453789132233076
40
0.453789132233076
40
0.529420654271921
40
0.529420654271921
40
0.567236415291344
40
0.567236415291344
40
0.605052176310766
40
0.605052176310766
40
0.756315220388456
40
0.756315220388456
40
0.794130981407879
40
0.794130981407879
40
0.831946742427302
40
0.831946742427302
40
0.907578264466148
40
0.907578264466148
40
0.983209786504995
40
0.983209786504995
40
1
40
1
40
1
40
1
41
1
10
53.533933164629
20
-3.50440263403146
30
0
41
1
10
53.0105738849164
20
-3.46117739548535
30
0
41
1
10
52.4881750637625
20
-3.38805813231622
30
0
41
1
10
51.7024499777247
20
-3.23561966535777
30
0
41
1
10
51.4403638687877
20
-3.17767795780523
30
0
41
1
10
50.9184401856074
20
-3.04905240518801
30
0
41
1
10
50.6581506645661
20
-2.97828638076607
30
0
41
1
10
49.8783095163699
20
-2.74788587616104
30
2E-16
41
1
10
49.3597859113935
20
-2.57012267679994
30
2E-16
41
1
10
48.5798659564648
20
-2.27279632835561
30
1E-16
41
1
10
48.3195378134732
20
-2.1685807176529
30
1E-16
41
1
10
47.7975728939262
20
-1.95073934116843
30
1E-16
41
1
10
47.5354563979659
20
-1.83689028770147
30
1E-16
41
1
10
46.749787222919
20
-1.48466422846462
30
1E-16
41
1
10
46.2279127997537
20
-1.23592201992045
30
1E-16
41
1
10
45.1823569715525
20
-0.720897453497969
30
0
41
1
10
44.657492485639
20
-0.454244596951185
30
0
41
1
10
43.6116280625289
20
0.0799728257711934
30
0
41
1
10
43.0895809668839
20
0.348346168368579
30
0
41
1
10
42.3036113559334
20
0.744497549599458
30
0
41
1
10
42.0416065295094
20
0.875172117975723
30
-1E-16
41
1
10
41.5202424965402
20
1.13092538444266
30
-1E-16
41
1
10
41.2604019201474
20
1.25624909022426
30
-1E-16
41
1
10
39.9636445372165
20
1.86702566306815
30
-1E-16
41
1
10
38.9342500378368
20
2.30509823060834
30
-1E-16
41
1
10
37.6307702963884
20
2.74490059666573
30
-2E-16
41
1
10
37.3686212452017
20
2.82766025884595
30
-2E-16
41
1
10
36.8449382705659
20
2.98048017885458
30
0
41
1
10
36.5841425030641
20
3.05032907348959
30
0
41
1
10
35.8038735834467
20
3.23955432675936
30
0
41
1
10
35.2865332461797
20
3.33860412094
30
0
41
1
10
34.2521712585704
20
3.47948633321124
30
0
41
1
10
33.7351675942692
20
3.52132627959136
30
0
41
1
10
33.1003248345898
20
3.53602726343618
30
0
41
1
10
32.9848731086032
20
3.53722994121253
30
0
41
1
10
32.869269974406
20
3.53695313192969
30
0
0
SPLINE
5
D9
100
AcDbEntity
8
1
62
256
6
ByLayer
370
18
48
1
60
0
100
AcDbSpline
70
4
71
3
72
20
73
16
40
0
40
0
40
0
40
0
40
0.0331157510828642
40
0.0331157510828642
40
0.355410500721909
40
0.355410500721909
40
0.43598418813167
40
0.43598418813167
40
0.516557875541432
40
0.516557875541432
40
0.677705250360955
40
0.677705250360955
40
0.838852625180478
40
0.838852625180478
40
1
40
1
40
1
40
1
41
1
10
13.2342107469147
20
-3.36516967886746
30
0
41
1
10
13.1270421876285
20
-3.38133366021074
30
0
41
1
10
13.0200108402965
20
-3.39626726273536
30
0
41
1
10
11.8725388318215
20
-3.54329086181909
30
0
41
1
10
10.8426037202643
20
-3.55921989619219
30
0
41
1
10
9.54213076095112
20
-3.43104640625535
30
0
41
1
10
9.28138313095141
20
-3.39802749641942
30
0
41
1
10
8.75787488516426
20
-3.31730120215789
30
0
41
1
10
8.49496843945852
20
-3.26951400151393
30
0
41
1
10
7.71120372359718
20
-3.10640908261237
30
0
41
1
10
7.19224181802159
20
-2.97103319283363
30
0
41
1
10
6.15625565970359
20
-2.65360158715342
30
2E-16
41
1
10
5.63929939698079
20
-2.47142930626612
30
2E-16
41
1
10
4.60178706537687
20
-2.06785995601979
30
1E-16
41
1
10
4.0811827734
20
-1.84660259648032
30
1E-16
41
1
10
3.55637591331507
20
-1.60913586935766
30
1E-16
0
SPLINE
5
DA
100
AcDbEntity
8
1
62
256
6
ByLayer
370
18
48
1
60
0
100
AcDbSpline
70
4
71
3
72
42
73
38
40
0
40
0
40
0
40
0
40
0.0093535461243031
40
0.0093535461243031
40
0.0747621926649019
40
0.0747621926649019
40
0.107466515935202
40
0.107466515935202
40
0.140170839205502
40
0.140170839205502
40
0.270988132286705
40
0.270988132286705
40
0.336396778827308
40
0.336396778827308
40
0.369101102097608
40
0.369101102097608
40
0.40180542536791
40
0.40180542536791
40
0.434509748638211
40
0.434509748638211
40
0.467214071908512
40
0.467214071908512
40
0.532622718449115
40
0.532622718449115
40
0.66344001153032
40
0.66344001153032
40
0.728848658070923
40
0.728848658070923
40
0.794257304611526
40
0.794257304611526
40
0.859665951152129
40
0.859665951152129
40
0.89237027442243
40
0.89237027442243
40
0.925074597692731
40
0.925074597692731
40
1
40
1
40
1
40
1
41
1
10
34.9912431116
20
-3.37707495065698
30
0
41
1
10
34.9172710093822
20
-3.38831380172667
30
0
41
1
10
34.8433100016332
20
-3.39897203079144
30
0
41
1
10
34.2521712585703
20
-3.47948633321124
30
0
41
1
10
33.7351675942692
20
-3.52132627959136
30
0
41
1
10
32.9559008358728
20
-3.53937167406318
30
0
41
1
10
32.6955358311244
20
-3.53793996500255
30
0
41
1
10
32.1728724835608
20
-3.51992137483273
30
0
41
1
10
31.9100772699246
20
-3.50325762943189
30
0
41
1
10
30.6039419699785
20
-3.38319788374972
30
0
41
1
10
29.5739937178983
20
-3.16934871854471
30
0
41
1
10
28.0191553016737
20
-2.70170952433344
30
2E-16
41
1
10
27.4994022250786
20
-2.52119502939519
30
2E-16
41
1
10
26.713170855322
20
-2.2182365109301
30
1E-16
41
1
10
26.4509050856197
20
-2.11213919339153
30
1E-16
41
1
10
25.9276356120982
20
-1.89188129051186
30
1E-16
41
1
10
25.6662309534224
20
-1.77763890556235
30
1E-16
41
1
10
25.143260478041
20
-1.54200201123149
30
1E-16
41
1
10
24.8817220557662
20
-1.42055700402662
30
1E-16
41
1
10
24.3577613051219
20
-1.17176298075856
30
1E-16
41
1
10
24.095118841799
20
-1.04433370654758
30
1E-16
41
1
10
23.3115406825161
20
-0.658260512572213
30
0
41
1
10
22.792802266286
20
-0.394832287280963
30
0
41
1
10
21.2391049444263
20
0.396662474420509
30
0
41
1
10
20.2073220432784
20
0.927245097478959
30
-1E-16
41
1
10
18.6326576019687
20
1.66141409843988
30
-1E-16
41
1
10
18.1122438247024
20
1.89211370987067
30
-1E-16
41
1
10
17.0747662234782
20
2.31577693541595
30
-1E-16
41
1
10
16.557950980109
20
2.50933921730325
30
-2E-16
41
1
10
15.522266013477
20
2.85149117264476
30
-2E-16
41
1
10
15.0037061337445
20
3.00049483315218
30
0
41
1
10
14.2204218132789
20
3.18504377657013
30
0
41
1
10
13.9576923811127
20
3.2402197012199
30
0
41
1
10
13.4340488395452
20
3.33599578527526
30
0
41
1
10
13.1732326877222
20
3.37663521306405
30
0
41
1
10
12.3171176009553
20
3.48632775489227
30
0
41
1
10
11.7246250697658
20
3.52417865932884
30
0
41
1
10
11.1316588612204
20
3.52331757936068
30
0
0
SPLINE
5
DB
100
AcDbEntity
8
1
62
256
6
ByLayer
370
18
48
1
60
0
100
AcDbSpline
70
4
71
3
72
22
73
18
40
0
40
0
40
0
40
0
40
0.126326427321776
40
0.126326427321776
40
0.252652854643554
40
0.252652854643554
40
0.378979281965331
40
0.378979281965331
40
0.505305709287108
40
0.505305709287108
40
0.631632136608885
40
0.631632136608885
40
0.757958563930663
40
0.757958563930663
40
0.88428499125244
40
0.88428499125244
40
1
40
1
40
1
40
1
41
1
10
3.6458382353631
20
2.60182721884837
30
-2E-16
41
1
10
3.90620136370399
20
2.52252622450666
30
-2E-16
41
1
10
4.16670269644555
20
2.4374741546784
30
-1E-16
41
1
10
4.68841115752903
20
2.25706148780543
30
-1E-16
41
1
10
4.94990878980565
20
2.16157598677569
30
-1E-16
41
1
10
5.47040464207367
20
1.96291663184408
30
-1E-16
41
1
10
5.72981510447568
20
1.85959599139173
30
-1E-16
41
1
10
6.24727912358696
20
1.64603371971651
30
-1E-16
41
1
10
6.50519988371846
20
1.53566122244499
30
-1E-16
41
1
10
7.02052114170516
20
1.30930543846762
30
-1E-16
41
1
10
7.27808376719429
20
1.19346647218867
30
-1E-16
41
1
10
7.79303380272995
20
0.957075346832397
30
-1E-16
41
1
10
8.05038779317266
20
0.836488730090338
30
-1E-16
41
1
10
8.56593705205646
20
0.592347007824543
30
0
41
1
10
8.82418308733955
20
0.468853790243458
30
0
41
1
10
9.31988336303715
20
0.229898941186889
30
0
41
1
10
9.55720315125521
20
0.114553276175116
30
0
41
1
10
9.79534944929335
20
-0.0010342662672826
30
0
0
SPLINE
5
DC
100
AcDbEntity
8
1
62
256
6
ByLayer
370
18
48
1
60
0
100
AcDbSpline
70
4
71
3
72
30
73
26
40
0
40
0
40
0
40
0
40
0.0037714471897207
40
0.0037714471897207
40
0.0749306295333119
40
0.0749306295333119
40
0.146089811876902
40
0.146089811876902
40
0.217248994220493
40
0.217248994220493
40
0.288408176564084
40
0.288408176564084
40
0.359567358907674
40
0.359567358907674
40
0.430726541251265
40
0.430726541251265
40
0.573044905938449
40
0.573044905938449
40
0.715363270625634
40
0.715363270625634
40
0.786522452969227
40
0.786522452969227
40
0.857681635312819
40
0.857681635312819
40
1
40
1
40
1
40
1
41
1
10
42.4197190023135
20
3.37431249208106
30
0
41
1
10
42.433327830377
20
3.37431385510436
30
0
41
1
10
42.4469365595633
20
3.3742964795687
30
0
41
1
10
42.7173110192617
20
3.37358183868068
30
0
41
1
10
42.9738944777652
20
3.36671805524918
30
0
41
1
10
43.4876663977263
20
3.33933619853957
30
0
41
1
10
43.7452003931291
20
3.31798795216071
30
0
41
1
10
44.2620212837322
20
3.2607189248665
30
0
41
1
10
44.5212755561551
20
3.22494139588125
30
0
41
1
10
45.0416791927993
20
3.1397828444359
30
0
41
1
10
45.3032533507468
20
3.09027007750836
30
0
41
1
10
45.8229654677836
20
2.97963033344803
30
0
41
1
10
46.0817186561077
20
2.91852310610969
30
0
41
1
10
46.5980185071889
20
2.78435789359159
30
1E-16
41
1
10
46.8555994676342
20
2.71115242360671
30
-2E-16
41
1
10
47.6273186799964
20
2.47535985870064
30
-2E-16
41
1
10
48.1404670417433
20
2.29682698877775
30
-1E-16
41
1
10
49.1683432461626
20
1.90434271976031
30
-1E-16
41
1
10
49.6829284178756
20
1.69051739103728
30
-1E-16
41
1
10
50.4601442193006
20
1.34871372738979
30
-1E-16
41
1
10
50.7200617377473
20
1.23127220136331
30
-1E-16
41
1
10
51.2420403725338
20
0.990740627476271
30
-1E-16
41
1
10
51.5024838587318
20
0.868429143738553
30
-1E-16
41
1
10
52.282981709641
20
0.497129034895977
30
0
41
1
10
52.8020637869726
20
0.243605186978755
30
0
41
1
10
53.3223972493436
20
-0.0107986466710202
30
0
0
SPLINE
5
DD
100
AcDbEntity
8
1
62
256
6
ByLayer
370
18
48
1
60
0
100
AcDbSpline
70
4
71
3
72
8
73
4
40
0
40
0
40
0
40
0
40
1
40
1
40
1
40
1
41
1
10
53.5339331646272
20
-3.50440263403203
30
0
41
1
10
53.538641371396
20
-3.53116910923123
30
0
41
1
10
53.5429988641937
20
-3.54633453493952
30
0
41
1
10
53.5471049539749
20
-3.54933294169396
30
0
0
SPLINE
5
DE
100
AcDbEntity
8
1
62
256
6
ByLayer
370
18
48
1
60
0
100
AcDbSpline
70
4
71
3
72
8
73
4
40
0
40
0
40
0
40
0
40
1
40
1
40
1
40
1
41
1
10
53.237014931975
20
0.0324762397035556
30
0
41
1
10
53.2296835145143
20
0.199587973244803
30
0
41
1
10
53.2283732995725
20
0.365476101773225
30
0
41
1
10
53.2350234238044
20
0.530130099640417
30
0
0
SPLINE
5
DF
100
AcDbEntity
8
1
62
256
6
ByLayer
370
18
48
1
60
0
100
AcDbSpline
70
4
71
3
72
8
73
4
40
0
40
0
40
0
40
0
40
1
40
1
40
1
40
1
41
1
10
53.7605084788248
20
-3.40762628470219
30
0
41
1
10
53.7627503419362
20
-3.40611624941005
30
0
41
1
10
53.7649922450893
20
-3.40460602187892
30
0
41
1
10
53.7672341887002
20
-3.40309560215866
30
0
0
SPLINE
5
E0
100
AcDbEntity
8
1
62
256
6
ByLayer
370
18
48
1
60
0
100
AcDbSpline
70
4
71
3
72
12
73
8
40
0
40
0
40
0
40
0
40
0.249999999999999
40
0.249999999999999
40
0.499999999999997
40
0.499999999999997
40
1
40
1
40
1
40
1
41
1
10
3.60244939206916
20
2.60808667757075
30
-2E-16
41
1
10
3.58681764762122
20
2.60807872692558
30
-2E-16
41
1
10
3.57163896480245
20
2.60832956777841
30
-2E-16
41
1
10
3.54558276918482
20
2.60915269557157
30
-2E-16
41
1
10
3.53481821056596
20
2.60970814344506
30
-2E-16
41
1
10
3.50945717694376
20
2.61149843174979
30
-2E-16
41
1
10
3.50170133243256
20
2.6128102060799
30
-2E-16
41
1
10
3.50170133243262
20
2.61396666114271
30
-2E-16
0
SPLINE
5
E1
100
AcDbEntity
8
1
62
256
6
ByLayer
370
18
48
1
60
0
100
AcDbSpline
70
4
71
3
72
36
73
32
40
0
40
0
40
0
40
0
40
0.0455071478326039
40
0.0455071478326039
40
0.10884443144153
40
0.10884443144153
40
0.172181715050456
40
0.172181715050456
40
0.235518998659383
40
0.235518998659383
40
0.298856282268309
40
0.298856282268309
40
0.362193565877235
40
0.362193565877235
40
0.425530849486161
40
0.425530849486161
40
0.552205416704011
40
0.552205416704011
40
0.615542700312937
40
0.615542700312937
40
0.678879983921862
40
0.678879983921862
40
0.742217267530787
40
0.742217267530787
40
0.805554551139712
40
0.805554551139712
40
0.932229118357562
40
0.932229118357562
40
0.995566401966488
40
0.995566401966488
40
1
40
1
40
1
40
1
41
1
10
43.8194538941753
20
-0.513738142327185
30
0
41
1
10
43.5624868574732
20
-0.388702438866545
30
0
41
1
10
43.3055079161174
20
-0.262683359887518
30
0
41
1
10
42.6909123966287
20
0.0393710770491396
30
0
41
1
10
42.3335698789026
20
0.215501279303226
30
0
41
1
10
41.6212151233875
20
0.564185692441242
30
0
41
1
10
41.2655968546525
20
0.736520295419211
30
0
41
1
10
40.5538473920184
20
1.07411523391335
30
-1E-16
41
1
10
40.1977298454814
20
1.23942998797995
30
-1E-16
41
1
10
39.4835779686614
20
1.56026793255671
30
-1E-16
41
1
10
39.1258654726701
20
1.71512398645967
30
-1E-16
41
1
10
38.4125722338436
20
2.00898836887202
30
-1E-16
41
1
10
38.0563528012863
20
2.14849853465537
30
-1E-16
41
1
10
37.3430686373056
20
2.40972730244658
30
-1E-16
41
1
10
36.9852604376516
20
2.53142888951285
30
-2E-16
41
1
10
35.9138242030824
20
2.86386788671408
30
0
41
1
10
35.2026606724401
20
3.04320438969643
30
0
41
1
10
34.1301213579961
20
3.23596430303851
30
0
41
1
10
33.772912163881
20
3.28793829879177
30
0
41
1
10
33.0597755289212
20
3.36467263244529
30
0
41
1
10
32.7035143706898
20
3.38962099868161
30
0
41
1
10
31.9897969711347
20
3.41201760032604
30
0
41
1
10
31.6321305141752
20
3.40998885783367
30
0
41
1
10
30.9167748812077
20
3.37818987316851
30
0
41
1
10
30.558916324299
20
3.34860682441845
30
0
41
1
10
29.4871554249742
20
3.22044809351263
30
0
41
1
10
28.7768407243425
20
3.08376393087355
30
0
41
1
10
27.7073284265933
20
2.80690515212606
30
1E-16
41
1
10
27.3496261218667
20
2.70272652298948
30
-2E-16
41
1
10
26.9674790330354
20
2.58026595374369
30
-2E-16
41
1
10
26.9424822963667
20
2.57220505627217
30
-2E-16
41
1
10
26.91748876573
20
2.56409512584426
30
-2E-16
0
SPLINE
5
E2
100
AcDbEntity
8
1
62
256
6
ByLayer
370
18
48
1
60
0
100
AcDbSpline
70
4
71
3
72
26
73
22
40
0
40
0
40
0
40
0
40
0.25
40
0.25
40
0.375
40
0.375
40
0.4375
40
0.4375
40
0.5
40
0.5
40
0.5625
40
0.5625
40
0.625
40
0.625
40
0.75
40
0.75
40
0.8125
40
0.8125
40
0.875
40
0.875
40
1
40
1
40
1
40
1
41
1
10
6.96119277310953
20
3.17052695158108
30
0
41
1
10
8.01151149323186
20
3.40343959773074
30
0
41
1
10
9.04440766080177
20
3.52260816919687
30
0
41
1
10
10.5999433603502
20
3.52279188495265
30
0
41
1
10
11.119264832838
20
3.49311525005734
30
0
41
1
10
11.9041222663076
20
3.40387648527817
30
0
41
1
10
12.1670045560358
20
3.36657506250356
30
0
41
1
10
12.6910765520849
20
3.27782503051057
30
0
41
1
10
12.9527252734323
20
3.2263485985882
30
0
41
1
10
13.4759236426587
20
3.10973799704985
30
0
41
1
10
13.7376162294112
20
3.04473770305162
30
0
41
1
10
14.2615607096093
20
2.90169935950635
30
-2E-16
41
1
10
14.5241862871157
20
2.82353405621106
30
-2E-16
41
1
10
15.3106274420033
20
2.57170910862578
30
-2E-16
41
1
10
15.8332073892062
20
2.38072196968426
30
-1E-16
41
1
10
16.6186966514185
20
2.06559404295422
30
-1E-16
41
1
10
16.8810926241752
20
1.95565069992344
30
-1E-16
41
1
10
17.4055629024997
20
1.72764479241485
30
-1E-16
41
1
10
17.6673477705226
20
1.60993048598027
30
-1E-16
41
1
10
18.4524220984453
20
1.2476157632658
30
-1E-16
41
1
10
18.975236733011
20
0.99322044051479
30
-1E-16
41
1
10
19.5
20
0.731362096284983
30
0
0
SPLINE
5
E3
100
AcDbEntity
8
1
62
256
6
ByLayer
370
18
48
1
60
0
100
AcDbSpline
70
4
71
3
72
8
73
4
40
0
40
0
40
0
40
0
40
1
40
1
40
1
40
1
41
1
10
53.7605084786888
20
3.40762628479374
30
0
41
1
10
53.7627503418456
20
3.4061162494711
30
0
41
1
10
53.764992245044
20
3.40460602190947
30
0
41
1
10
53.7672341887002
20
3.40309560215866
30
0
0
SPLINE
5
E4
100
AcDbEntity
8
1
62
256
6
ByLayer
370
18
48
1
60
0
100
AcDbSpline
70
4
71
3
72
10
73
6
40
0
40
0
40
0
40
0
40
0.5
40
0.5
40
1
40
1
40
1
40
1
41
1
10
3.55805220374327
20
-1.52533051397725
30
1E-16
41
1
10
3.53850932609504
20
-1.5220904888765
30
1E-16
41
1
10
3.52450224521624
20
-1.51715260460949
30
1E-16
41
1
10
3.50616235818336
20
-1.5062176984909
30
1E-16
41
1
10
3.50170133243265
20
-1.50007884965532
30
1E-16
41
1
10
3.50170133243265
20
-1.49395371231884
30
1E-16
0
SPLINE
5
E5
100
AcDbEntity
8
1
62
256
6
ByLayer
370
18
48
1
60
0
100
AcDbSpline
70
4
71
3
72
8
73
4
40
0
40
0
40
0
40
0
40
1
40
1
40
1
40
1
41
1
10
53.5339331646285
20
-3.50440263403056
30
0
41
1
10
53.5948060577455
20
-3.4694438511572
30
0
41
1
10
53.6558218338137
20
-3.43382317688528
30
0
41
1
10
53.7170031455449
20
-3.39755731447806
30
0
0
SPLINE
5
E6
100
AcDbEntity
8
1
62
256
6
ByLayer
370
18
48
1
60
0
100
AcDbSpline
70
4
71
3
72
8
73
4
40
0
40
0
40
0
40
0
40
1
40
1
40
1
40
1
41
1
10
3.64149677386598
20
2.58842521403952
30
-2E-16
41
1
10
3.62929865616559
20
2.59214185948386
30
-2E-16
41
1
10
3.61603470653335
20
2.59403488828716
30
-2E-16
41
1
10
3.60244939206919
20
2.59401983736978
30
-2E-16
0
SPLINE
5
E7
100
AcDbEntity
8
1
62
256
6
ByLayer
370
18
48
1
60
0
100
AcDbSpline
70
4
71
3
72
8
73
4
40
0
40
0
40
0
40
0
40
1
40
1
40
1
40
1
41
1
10
6.96119277310959
20
-3.17052695158119
30
0
41
1
10
8.00409371553258
20
-3.40179467395734
30
0
41
1
10
9.0298173267033
20
-3.52091926214263
30
0
41
1
10
10.0594604198359
20
-3.5227102400894
30
0
0
SPLINE
5
E8
100
AcDbEntity
8
1
62
256
6
ByLayer
370
18
48
1
60
0
100
AcDbSpline
70
4
71
3
72
30
73
26
40
0
40
0
40
0
40
0
40
0.0763591994050721
40
0.0763591994050721
40
0.152718398810144
40
0.152718398810144
40
0.229077598215216
40
0.229077598215216
40
0.305436797620288
40
0.305436797620288
40
0.38179599702536
40
0.38179599702536
40
0.458155196430432
40
0.458155196430432
40
0.61087359524058
40
0.61087359524058
40
0.687232794645652
40
0.687232794645652
40
0.763591994050724
40
0.763591994050724
40
0.916310392860871
40
0.916310392860871
40
0.992669592265947
40
0.992669592265947
40
1
40
1
40
1
40
1
41
1
10
53.2350234238044
20
0.530130099640388
30
0
41
1
10
52.9849396303438
20
0.656766066080678
30
0
41
1
10
52.7350300313563
20
0.782212942751471
30
0
41
1
10
52.2352367020443
20
1.03009976273273
30
-1E-16
41
1
10
51.9854852107666
20
1.15278107101008
30
-1E-16
41
1
10
51.4847499172022
20
1.3927428360858
30
-1E-16
41
1
10
51.2337795488148
20
1.51005881411575
30
-1E-16
41
1
10
50.7332033810882
20
1.73781687383254
30
-1E-16
41
1
10
50.4831953408465
20
1.8483266763192
30
-1E-16
41
1
10
49.9836731043737
20
2.06245015117275
30
-1E-16
41
1
10
49.7339655431798
20
2.16572705902578
30
-1E-16
41
1
10
49.2335569220712
20
2.36300082018567
30
-1E-16
41
1
10
48.9825828123164
20
2.45723243245402
30
-2E-16
41
1
10
48.2309176277629
20
2.72483427370707
30
-2E-16
41
1
10
47.7321283099118
20
2.88332340039875
30
-2E-16
41
1
10
46.9818250625808
20
3.08464724739667
30
0
41
1
10
46.7314939051088
20
3.14585969904272
30
0
41
1
10
46.2299387024441
20
3.2559906692959
30
0
41
1
10
45.9796548482217
20
3.30486825587272
30
0
41
1
10
45.2296984064185
20
3.43135183088833
30
0
41
1
10
44.7299454924494
20
3.48884693895448
30
0
41
1
10
43.9786969765553
20
3.53408146633618
30
0
41
1
10
43.7279776327969
20
3.54227375691107
30
0
41
1
10
43.4536837268323
20
3.54353225527939
30
0
41
1
10
43.4296596184474
20
3.54357829405558
30
0
41
1
10
43.4056368391161
20
3.54356021941879
30
0
0
SPLINE
5
E9
100
AcDbEntity
8
1
62
256
6
ByLayer
370
18
48
1
60
0
100
AcDbSpline
70
4
71
3
72
42
73
38
40
0
40
0
40
0
40
0
40
0.0439770945195878
40
0.0439770945195878
40
0.08950199478056
40
0.08950199478056
40
0.135026895041532
40
0.135026895041532
40
0.180551795302504
40
0.180551795302504
40
0.271601595824448
40
0.271601595824448
40
0.317126496085421
40
0.317126496085421
40
0.362651396346394
40
0.362651396346394
40
0.453701196868338
40
0.453701196868338
40
0.499226097129309
40
0.499226097129309
40
0.544750997390281
40
0.544750997390281
40
0.635800797912225
40
0.635800797912225
40
0.681325698173197
40
0.681325698173197
40
0.726850598434169
40
0.726850598434169
40
0.772375498695142
40
0.772375498695142
40
0.817900398956114
40
0.817900398956114
40
0.908950199478057
40
0.908950199478057
40
0.954475099739029
40
0.954475099739029
40
1
40
1
40
1
40
1
41
1
10
21.673870589209
20
-3.52997734361
30
0
41
1
10
21.4318677546676
20
-3.52978360355092
30
0
41
1
10
21.1895110977855
20
-3.52308849822779
30
0
41
1
10
20.6967525585211
20
-3.49624301994413
30
0
41
1
10
20.4463921947287
20
-3.47570365260981
30
0
41
1
10
19.9457659617865
20
-3.42123115808647
30
0
41
1
10
19.6955547416673
20
-3.38727847736249
30
0
41
1
10
19.1949802444566
20
-3.30606608404801
30
0
41
1
10
18.9447849010904
20
-3.25865990871961
30
0
41
1
10
18.1921352496898
20
-3.09752082217719
30
0
41
1
10
17.6910364907133
20
-2.96586101306704
30
0
41
1
10
16.9407715664389
20
-2.73388761063026
30
2E-16
41
1
10
16.6906812694391
20
-2.65091244456485
30
2E-16
41
1
10
16.189342105069
20
-2.47514982413807
30
2E-16
41
1
10
15.9379544046811
20
-2.38221359023837
30
1E-16
41
1
10
15.1859362057815
20
-2.09033434678989
30
1E-16
41
1
10
14.6866159857406
20
-1.8772590837745
30
1E-16
41
1
10
13.9350617198952
20
-1.53913220697015
30
1E-16
41
1
10
13.6839627683703
20
-1.42303704416759
30
1E-16
41
1
10
13.1820089820272
20
-1.18559533197256
30
1E-16
41
1
10
12.9317117775431
20
-1.06410765716223
30
1E-16
41
1
10
12.1811360122184
20
-0.694582955749212
30
0
41
1
10
11.680653902485
20
-0.442521696482885
30
0
41
1
10
10.9278416085846
20
-0.0596448146935131
30
0
41
1
10
10.6770923759529
20
0.0689262984065522
30
0
41
1
10
10.176260620612
20
0.323916795462338
30
0
41
1
10
9.92591379658373
20
0.450501066307481
30
0
41
1
10
9.42518525671673
20
0.701530003270989
30
0
41
1
10
9.17474553465368
20
0.825862450613982
30
-1E-16
41
1
10
8.67367503388991
20
1.07205558651441
30
-1E-16
41
1
10
8.42251361580895
20
1.19371619176272
30
-1E-16
41
1
10
7.67070070711071
20
1.54863657547776
30
-1E-16
41
1
10
7.17102896418777
20
1.77288962084691
30
-1E-16
41
1
10
6.42274056081521
20
2.08880894456806
30
-1E-16
41
1
10
6.17336686666832
20
2.19041236144656
30
-1E-16
41
1
10
5.67308999290441
20
2.38367417687323
30
-1E-16
41
1
10
5.42230427012663
20
2.47553297378522
30
-2E-16
41
1
10
5.17060843107015
20
2.56228423861825
30
-2E-16
0
SPLINE
5
EA
100
AcDbEntity
8
1
62
256
6
ByLayer
370
18
48
1
60
0
100
AcDbSpline
70
4
71
3
72
10
73
6
40
0
40
0
40
0
40
0
40
0.5
40
0.5
40
1
40
1
40
1
40
1
41
1
10
53.7672341887002
20
-3.40309560215863
30
0
41
1
10
53.7558161925586
20
-3.41076398707031
30
0
41
1
10
53.7461121832746
20
-3.41406678698883
30
0
41
1
10
53.7295765757263
20
-3.4120396172963
30
0
41
1
10
53.7227915836162
20
-3.4067522907572
30
0
41
1
10
53.7170031455451
20
-3.39755731447801
30
0
0
SPLINE
5
EB
100
AcDbEntity
8
1
62
256
6
ByLayer
370
18
48
1
60
0
100
AcDbSpline
70
4
71
3
72
8
73
4
40
0
40
0
40
0
40
0
40
1
40
1
40
1
40
1
41
1
10
3.55805220374324
20
-1.53742624562983
30
1E-16
41
1
10
3.55748568013553
20
-1.56133767535201
30
1E-16
41
1
10
3.55692691426538
20
-1.58524072242122
30
1E-16
41
1
10
3.55637591331507
20
-1.6091358693576
30
1E-16
0
SPLINE
5
EC
100
AcDbEntity
8
1
62
256
6
ByLayer
370
18
48
1
60
0
100
AcDbSpline
70
4
71
3
72
24
73
20
40
0
40
0
40
0
40
0
40
0.0061391395837829
40
0.0061391395837829
40
0.0751332817765203
40
0.0751332817765203
40
0.351109850547467
40
0.351109850547467
40
0.420103992740202
40
0.420103992740202
40
0.489098134932938
40
0.489098134932938
40
0.627086419318413
40
0.627086419318413
40
0.765074703703889
40
0.765074703703889
40
0.903062988089364
40
0.903062988089364
40
1
40
1
40
1
40
1
41
1
10
21.5627710892811
20
0.23153472342122
30
0
41
1
10
21.5861239622142
20
0.220247468063405
30
0
41
1
10
21.6094656065813
20
0.208960604396708
30
0
41
1
10
21.8949698206651
20
0.0708502503918851
30
0
41
1
10
22.1563283720058
20
-0.0559159465255448
30
0
41
1
10
23.4604315363611
20
-0.686474774787825
30
0
41
1
10
24.4947515682197
20
-1.1806831744226
30
1E-16
41
1
10
25.8013376798616
20
-1.73513454979172
30
1E-16
41
1
10
26.06332452528
20
-1.84286069983671
30
1E-16
41
1
10
26.5892953346111
20
-2.0506828035798
30
1E-16
41
1
10
26.8529042213328
20
-2.15062507457773
30
1E-16
41
1
10
27.6418514100861
20
-2.43521143279563
30
1E-16
41
1
10
28.167406095445
20
-2.60525809571146
30
2E-16
41
1
10
29.2205916413161
20
-2.89844246994838
30
0
41
1
10
29.7427995744803
20
-3.01973008329063
30
0
41
1
10
30.7840650069843
20
-3.20936616822891
30
0
41
1
10
31.3029425454902
20
-3.27714744478379
30
0
41
1
10
32.1876598693186
20
-3.34542187377542
30
0
41
1
10
32.5530771801226
20
-3.35960261954625
30
0
41
1
10
32.9197297850898
20
-3.35973111252417
30
0
0
SPLINE
5
ED
100
AcDbEntity
8
1
62
256
6
ByLayer
370
18
48
1
60
0
100
AcDbSpline
70
4
71
3
72
16
73
12
40
0
40
0
40
0
40
0
40
0.229019223020306
40
0.229019223020306
40
0.460504454813314
40
0.460504454813314
40
0.658027792530646
40
0.658027792530646
40
0.830592410318495
40
0.830592410318495
40
1
40
1
40
1
40
1
41
1
10
53.7347897979396
20
-3.34207961603062
30
0
41
1
10
53.7348708916436
20
-3.34224663029465
30
0
41
1
10
53.7348954183909
20
-3.34259448528999
30
0
41
1
10
53.7348043263174
20
-3.34366739545459
30
0
41
1
10
53.7346843877874
20
-3.344417750367
30
0
41
1
10
53.7343250035728
20
-3.34610708174586
30
0
41
1
10
53.7340994334812
20
-3.34702938675176
30
0
41
1
10
53.733603749889
20
-3.34885542830438
30
0
41
1
10
53.7333364753527
20
-3.34977050786111
30
0
41
1
10
53.732782313097
20
-3.35155604225062
30
0
41
1
10
53.7324895032747
20
-3.35244803957678
30
0
41
1
10
53.7321989758798
20
-3.35329094192159
30
0
0
SPLINE
5
EE
100
AcDbEntity
8
1
62
256
6
ByLayer
370
18
48
1
60
0
100
AcDbSpline
70
4
71
3
72
16
73
12
40
0
40
0
40
0
40
0
40
0.210748404795523
40
0.210748404795523
40
0.421496809591046
40
0.421496809591046
40
0.632245214386569
40
0.632245214386569
40
0.842993619182091
40
0.842993619182091
40
1
40
1
40
1
40
1
41
1
10
53.7605084787386
20
3.40762628454053
30
0
41
1
10
53.4040217962513
20
3.41051689363707
30
0
41
1
10
53.0475283402101
20
3.39969976729088
30
0
41
1
10
52.3332973580085
20
3.3512445813131
30
0
41
1
10
51.9753569574478
20
3.31354159570776
30
0
41
1
10
51.260125406065
20
3.21168812024024
30
0
41
1
10
50.9022543516611
20
3.14741702715622
30
0
41
1
10
50.1887616643861
20
2.99538910074935
30
0
41
1
10
49.8326511828554
20
2.90736244847747
30
0
41
1
10
49.2108425127335
20
2.73410227918188
30
-1E-16
41
1
10
48.9452131785272
20
2.6538375595064
30
-2E-16
41
1
10
48.6791987991617
20
2.56774486184659
30
-2E-16
0
SPLINE
5
EF
100
AcDbEntity
8
1
62
256
6
ByLayer
370
18
48
1
60
0
100
AcDbSpline
70
4
71
3
72
8
73
4
40
0
40
0
40
0
40
0
40
1
40
1
40
1
40
1
41
1
10
33.3264939154945
20
-3.3356898150835
30
0
41
1
10
33.2487713563169
20
-3.3435619470684
30
0
41
1
10
33.1710597831161
20
-3.35079503293579
30
0
41
1
10
33.0933498227924
20
-3.35738564063593
30
0
0
SPLINE
5
F0
100
AcDbEntity
8
1
62
256
6
ByLayer
370
18
48
1
60
0
100
AcDbSpline
70
4
71
3
72
10
73
6
40
0
40
0
40
0
40
0
40
0.495713487711859
40
0.495713487711859
40
1
40
1
40
1
40
1
41
1
10
21.62149042913
20
-0.295158849315101
30
0
41
1
10
21.2704931702856
20
-0.122920702894874
30
0
41
1
10
20.9203017996886
20
0.0501440899495549
30
0
41
1
10
20.2136636927883
20
0.39718209120403
30
0
41
1
10
19.8571683226226
20
0.571028877351779
30
0
41
1
10
19.4999999999999
20
0.742668760996366
30
0
0
SPLINE
5
F1
100
AcDbEntity
8
1
62
256
6
ByLayer
370
18
48
1
60
0
100
AcDbSpline
70
4
71
3
72
14
73
10
40
0
40
0
40
0
40
0
40
0.239808314170015
40
0.239808314170015
40
0.49320554278001
40
0.49320554278001
40
0.746602771390005
40
0.746602771390005
40
1
40
1
40
1
40
1
41
1
10
53.5682771246078
20
0.737476184060171
30
0
41
1
10
53.5924363924899
20
0.761318393291106
30
0
41
1
10
53.6212852562309
20
0.786246911451798
30
0
41
1
10
53.6909219306342
20
0.838563170707232
30
0
41
1
10
53.7318260816494
20
0.865552741386892
30
0
41
1
10
53.8215910826387
20
0.914919247911627
30
0
41
1
10
53.8715735283432
20
0.937642638918476
30
0
41
1
10
53.9752511897528
20
0.973980398366336
30
0
41
1
10
54.0299460061032
20
0.988132199374149
30
0
41
1
10
54.0858396087271
20
0.997165613279662
30
0
0
SPLINE
5
F2
100
AcDbEntity
8
1
62
256
6
ByLayer
370
18
48
1
60
0
100
AcDbSpline
70
4
71
3
72
70
73
66
40
0
40
0
40
0
40
0
40
0.0170516453622964
40
0.0170516453622964
40
0.071608362855553
40
0.071608362855553
40
0.0988867216021812
40
0.0988867216021812
40
0.126165080348809
40
0.126165080348809
40
0.180721797842066
40
0.180721797842066
40
0.208000156588694
40
0.208000156588694
40
0.235278515335321
40
0.235278515335321
40
0.262556874081949
40
0.262556874081949
40
0.289835232828577
40
0.289835232828577
40
0.344391950321831
40
0.344391950321831
40
0.371670309068458
40
0.371670309068458
40
0.398948667815085
40
0.398948667815085
40
0.453505385308338
40
0.453505385308338
40
0.480783744054965
40
0.480783744054965
40
0.508062102801593
40
0.508062102801593
40
0.562618820294848
40
0.562618820294848
40
0.589897179041475
40
0.589897179041475
40
0.617175537788102
40
0.617175537788102
40
0.64445389653473
40
0.64445389653473
40
0.671732255281357
40
0.671732255281357
40
0.699010614027984
40
0.699010614027984
40
0.726288972774611
40
0.726288972774611
40
0.753567331521238
40
0.753567331521238
40
0.780845690267865
40
0.780845690267865
40
0.808124049014492
40
0.808124049014492
40
0.835402407761119
40
0.835402407761119
40
0.862680766507747
40
0.862680766507747
40
0.889959125254374
40
0.889959125254374
40
0.917237484001001
40
0.917237484001001
40
0.944515842747628
40
0.944515842747628
40
0.999072560240883
40
0.999072560240883
40
1
40
1
40
1
40
1
41
1
10
49.2020929391846
20
-2.37341098040119
30
1E-16
41
1
10
49.0454343893089
20
-2.43294895999958
30
1E-16
41
1
10
48.8886491990466
20
-2.49067392792708
30
2E-16
41
1
10
48.2309176277628
20
-2.72483427370705
30
2E-16
41
1
10
47.7321283099117
20
-2.88332340039878
30
2E-16
41
1
10
46.9818250625807
20
-3.08464724739667
30
0
41
1
10
46.7314939051088
20
-3.14585969904272
30
0
41
1
10
46.2299387024441
20
-3.2559906692959
30
0
41
1
10
45.9796548482216
20
-3.30486825587269
30
0
41
1
10
45.2296984064185
20
-3.43135183088833
30
0
41
1
10
44.7299454924494
20
-3.48884693895448
30
0
41
1
10
43.9786969765553
20
-3.53408146633618
30
0
41
1
10
43.7279776327968
20
-3.5422737569111
30
0
41
1
10
43.2274408570339
20
-3.54457028884949
30
0
41
1
10
42.9773254343387
20
-3.53875295763524
30
0
41
1
10
42.4772182116496
20
-3.5133684259396
30
0
41
1
10
42.2271684619665
20
-3.49381660778297
30
0
41
1
10
41.7270173453717
20
-3.44084019982637
30
0
41
1
10
41.4764424866657
20
-3.40740517450911
30
0
41
1
10
40.7244719759531
20
-3.28753908616042
30
0
41
1
10
40.2245661454201
20
-3.18178364806335
30
0
41
1
10
39.4747982434168
20
-2.98603397832389
30
0
41
1
10
39.2246536492551
20
-2.91479757639695
30
2E-16
41
1
10
38.7231318871701
20
-2.76124788175068
30
2E-16
41
1
10
38.472287276046
20
-2.67893609793276
30
2E-16
41
1
10
37.7214404856195
20
-2.41711159237971
30
1E-16
41
1
10
37.2225528475416
20
-2.22162787323489
30
1E-16
41
1
10
36.4710169844517
20
-1.90550514594733
30
1E-16
41
1
10
36.2198473465725
20
-1.79595365450376
30
1E-16
41
1
10
35.7188993647316
20
-1.57038261004186
30
1E-16
41
1
10
35.4690597011551
20
-1.45398797261015
30
1E-16
41
1
10
34.719132142618
20
-1.09811521687678
30
1E-16
41
1
10
34.218291480027
20
-0.851793702194044
30
1E-16
41
1
10
33.4662524736825
20
-0.471769567457045
30
0
41
1
10
33.2161184022614
20
-0.344042121971825
30
0
41
1
10
32.7157954936313
20
-0.0887346069841612
30
0
41
1
10
32.4656693606304
20
0.0389688426454313
30
0
41
1
10
31.9653126725806
20
0.294131127364977
30
0
41
1
10
31.7150729415502
20
0.421571899858492
30
0
41
1
10
31.2140127324495
20
0.675272053410595
30
0
41
1
10
30.9631456963446
20
0.801036016705865
30
0
41
1
10
30.4623268800399
20
1.04769857213245
30
-1E-16
41
1
10
30.2121543655746
20
1.16897506770428
30
-1E-16
41
1
10
29.7118756410301
20
1.40667246959515
30
-1E-16
41
1
10
29.4619435084245
20
1.52340287885499
30
-1E-16
41
1
10
28.9613415954239
20
1.75049966263055
30
-1E-16
41
1
10
28.7102340099748
20
1.8608359680893
30
-1E-16
41
1
10
28.2088166527
20
2.07310343254406
30
-1E-16
41
1
10
27.9584840632511
20
2.1751700569516
30
-1E-16
41
1
10
27.458215967979
20
2.37062690653957
30
-1E-16
41
1
10
27.2084455535548
20
2.46423783392132
30
-2E-16
41
1
10
26.7080832995953
20
2.64095682481735
30
-2E-16
41
1
10
26.4574893999106
20
2.72411633339715
30
-2E-16
41
1
10
25.9553722147199
20
2.87976908173118
30
-2E-16
41
1
10
25.7047867054779
20
2.95188907782261
30
0
41
1
10
25.2045156190989
20
3.08465001493249
30
0
41
1
10
24.9546511263116
20
3.14507220046326
30
0
41
1
10
24.4543144960211
20
3.25302514515408
30
0
41
1
10
24.2039053524886
20
3.30063957528301
30
0
41
1
10
23.7024346760567
20
3.38298261291476
30
0
41
1
10
23.4513105379936
20
3.41767895325549
30
0
41
1
10
22.7003448904603
20
3.50125252885829
30
0
41
1
10
22.2004091605807
20
3.52942724702609
30
0
41
1
10
21.6909050810695
20
3.52998292775908
30
0
41
1
10
21.6823880536057
20
3.52998416243204
30
0
41
1
10
21.6738705878482
20
3.52997734360889
30
0
0
SPLINE
5
F3
100
AcDbEntity
8
1
62
256
6
ByLayer
370
18
48
1
60
0
100
AcDbSpline
70
4
71
3
72
8
73
4
40
0
40
0
40
0
40
0
40
1
40
1
40
1
40
1
41
1
10
54.6790924610349
20
-1.12140497829785
30
0
41
1
10
54.7879629318916
20
-0.814005180414256
30
0
41
1
10
54.8938561480126
20
-0.505540053585634
30
0
41
1
10
54.9967263107325
20
-0.195993210015843
30
0
0
SPLINE
5
F4
100
AcDbEntity
8
1
62
256
6
ByLayer
370
18
48
1
60
0
100
AcDbSpline
70
4
71
3
72
26
73
22
40
0
40
0
40
0
40
0
40
0.124999999999997
40
0.124999999999997
40
0.249999999999994
40
0.249999999999994
40
0.312499999999999
40
0.312499999999999
40
0.375000000000004
40
0.375000000000004
40
0.437500000000009
40
0.437500000000009
40
0.500000000000014
40
0.500000000000014
40
0.625000000000011
40
0.625000000000011
40
0.750000000000007
40
0.750000000000007
40
0.875000000000004
40
0.875000000000004
40
1
40
1
40
1
40
1
41
1
10
54.9504950155111
20
0.042736078083891
30
0
41
1
10
54.9333107514895
20
-0.0139228427437672
30
0
41
1
10
54.9135539239459
20
-0.069286415199457
30
0
41
1
10
54.8687014359421
20
-0.17723664535913
30
0
41
1
10
54.8435335957378
20
-0.229694065546681
30
0
41
1
10
54.8039549423074
20
-0.300815679786012
30
0
41
1
10
54.7903668141721
20
-0.323474827336213
30
0
41
1
10
54.762358368824
20
-0.366508406259896
30
0
41
1
10
54.7479710177809
20
-0.386785260709303
30
0
41
1
10
54.7195234178105
20
-0.423273119031848
30
0
41
1
10
54.7053192444997
20
-0.43971461796707
30
0
41
1
10
54.6769312472026
20
-0.468917970052331
30
0
41
1
10
54.6626180516718
20
-0.48175982425704
30
0
41
1
10
54.6210588940218
20
-0.513345945240616
30
0
41
1
10
54.5946121241115
20
-0.52570609872879
30
0
41
1
10
54.5455479832726
20
-0.533336786568782
30
0
41
1
10
54.523135164218
20
-0.528655728591275
30
0
41
1
10
54.4823902842202
20
-0.504879647428567
30
0
41
1
10
54.4644502879571
20
-0.486167414822205
30
0
41
1
10
54.431973070769
20
-0.437518003732464
30
0
41
1
10
54.4174849024241
20
-0.407462463405778
30
0
41
1
10
54.4046738721486
20
-0.373264880187435
30
0
0
SPLINE
5
F5
100
AcDbEntity
8
1
62
256
6
ByLayer
370
18
48
1
60
0
100
AcDbSpline
70
4
71
3
72
34
73
30
40
0
40
0
40
0
40
0
40
0.0431338225693551
40
0.0431338225693551
40
0.111815003094432
40
0.111815003094432
40
0.18049618361951
40
0.18049618361951
40
0.249177364144587
40
0.249177364144587
40
0.317858544669664
40
0.317858544669664
40
0.386539725194741
40
0.386539725194741
40
0.455220905719818
40
0.455220905719818
40
0.523902086244896
40
0.523902086244896
40
0.592583266769973
40
0.592583266769973
40
0.66126444729505
40
0.66126444729505
40
0.729945627820128
40
0.729945627820128
40
0.798626808345205
40
0.798626808345205
40
0.867307988870283
40
0.867307988870283
40
1
40
1
40
1
40
1
41
1
10
20.2357765479961
20
3.35668858316768
30
0
41
1
10
20.3984059559676
20
3.36194385939939
30
0
41
1
10
20.5613270043949
20
3.36442548535805
30
0
41
1
10
20.9850149601718
20
3.36256654370968
30
0
41
1
10
21.2466933957391
20
3.354032904561
30
0
41
1
10
21.7667381230273
20
3.32410348955787
30
0
41
1
10
22.025731224695
20
3.30273367758278
30
0
41
1
10
22.5429948860251
20
3.24449536787492
30
0
41
1
10
22.8011124710723
20
3.20843514250691
30
0
41
1
10
23.3164463711911
20
3.12414361451317
30
0
41
1
10
23.5736576984072
20
3.07583542116401
30
0
41
1
10
24.0886109428384
20
2.96559174369355
30
0
41
1
10
24.3461532798717
20
2.90413608752027
30
0
41
1
10
24.8615592047177
20
2.76967973889378
30
1E-16
41
1
10
25.1195090761881
20
2.69653733921595
30
-2E-16
41
1
10
25.6370015061765
20
2.53851845218031
30
-2E-16
41
1
10
25.896439297678
20
2.45378628397356
30
-2E-16
41
1
10
26.4167357555906
20
2.27392019454985
30
-1E-16
41
1
10
26.6780298877612
20
2.17854480067567
30
-1E-16
41
1
10
27.1994551993574
20
1.97930433921383
30
-1E-16
41
1
10
27.4599348309282
20
1.87536380249438
30
-1E-16
41
1
10
27.9807122986977
20
1.65987612605633
30
-1E-16
41
1
10
28.2411751290367
20
1.54834118730568
30
-1E-16
41
1
10
28.7631496489705
20
1.3188907690456
30
-1E-16
41
1
10
29.0238872295203
20
1.20119881464942
30
-1E-16
41
1
10
29.5429289916869
20
0.961998633685567
30
-1E-16
41
1
10
29.8016807247517
20
0.840482473829496
30
-1E-16
41
1
10
30.5592082137332
20
0.480896058569186
30
0
41
1
10
31.0562993524651
20
0.238539297930117
30
0
41
1
10
31.5541264053614
20
-0.0034254295154312
30
0
0
SPLINE
5
F6
100
AcDbEntity
8
1
62
256
6
ByLayer
370
18
48
1
60
0
100
AcDbSpline
70
4
71
3
72
8
73
4
40
0
40
0
40
0
40
0
40
1
40
1
40
1
40
1
41
1
10
3.59750866890889
20
-1.55024208898311
30
1E-16
41
1
10
3.5838793945297
20
-1.54438571990104
30
1E-16
41
1
10
3.57054198322038
20
-1.54004182904029
30
1E-16
41
1
10
3.55805220374327
20
-1.53742624562986
30
1E-16
0
SPLINE
5
F7
100
AcDbEntity
8
1
62
256
6
ByLayer
370
18
48
1
60
0
100
AcDbSpline
70
4
71
3
72
8
73
4
40
0
40
0
40
0
40
0
40
1
40
1
40
1
40
1
41
1
10
53.7321989758796
20
-3.35329094192218
30
0
41
1
10
53.7271131047256
20
-3.36804649611878
30
0
41
1
10
53.7220476981999
20
-3.38280191759472
30
0
41
1
10
53.717003145545
20
-3.39755731447809
30
0
0
SPLINE
5
F8
100
AcDbEntity
8
1
62
256
6
ByLayer
370
18
48
1
60
0
100
AcDbSpline
70
4
71
3
72
14
73
10
40
0
40
0
40
0
40
0
40
0.269863397343279
40
0.269863397343279
40
0.507212765185382
40
0.507212765185382
40
0.783800300258052
40
0.783800300258052
40
1
40
1
40
1
40
1
41
1
10
53.3223972493436
20
-0.0107986466710202
30
0
41
1
10
53.3231425007671
20
-0.0111581801127443
30
0
41
1
10
53.3238710505104
20
-0.0118831369617567
30
0
41
1
10
53.3250898506396
20
-0.013673128707012
30
0
41
1
10
53.3256149966755
20
-0.0147108383759189
30
0
41
1
10
53.326585317712
20
-0.0172214001986504
30
0
41
1
10
53.3270186263977
20
-0.0187770738299946
30
0
41
1
10
53.327546367025
20
-0.0217104859544577
30
0
41
1
10
53.3276990974553
20
-0.0230872061592322
30
0
41
1
10
53.3277419436083
20
-0.0244555746564572
30
0
0
SPLINE
5
F9
100
AcDbEntity
8
1
62
256
6
ByLayer
370
18
48
1
60
0
100
AcDbSpline
70
4
71
3
72
20
73
16
40
0
40
0
40
0
40
0
40
0.250000000000005
40
0.250000000000005
40
0.50000000000001
40
0.50000000000001
40
0.562500000000011
40
0.562500000000011
40
0.625000000000012
40
0.625000000000012
40
0.750000000000008
40
0.750000000000008
40
0.875000000000004
40
0.875000000000004
40
1
40
1
40
1
40
1
41
1
10
53.7672341887001
20
-3.40309560215866
30
0
41
1
10
53.8368781599069
20
-3.20748542620589
30
0
41
1
10
53.9058799697202
20
-3.0105269548643
30
0
41
1
10
54.0446209227372
20
-2.61573416543186
30
0
41
1
10
54.1143898399064
20
-2.41801942214479
30
0
41
1
10
54.2027784306575
20
-2.17129047615256
30
0
41
1
10
54.2204723169747
20
-2.121852781125
30
0
41
1
10
54.256652913113
20
-2.02364022711728
30
0
41
1
10
54.2750255998109
20
-1.97496701114409
30
0
41
1
10
54.331221530661
20
-1.83036527236538
30
0
41
1
10
54.3701398315339
20
-1.73587418234101
30
0
41
1
10
54.4518632786403
20
-1.55103946753241
30
0
41
1
10
54.4947849735948
20
-1.460374659232
30
0
41
1
10
54.5847807198362
20
-1.28475514985038
30
0
41
1
10
54.6311611398792
20
-1.20113057584715
30
0
41
1
10
54.6790924610349
20
-1.1214049782979
30
0
0
SPLINE
5
FA
100
AcDbEntity
8
1
62
256
6
ByLayer
370
18
48
1
60
0
100
AcDbSpline
70
4
71
3
72
36
73
32
40
0
40
0
40
0
40
0
40
0.0345040766954557
40
0.0345040766954557
40
0.17142464461595
40
0.17142464461595
40
0.239884928576197
40
0.239884928576197
40
0.308345212536444
40
0.308345212536444
40
0.376805496496691
40
0.376805496496691
40
0.445265780456938
40
0.445265780456938
40
0.513726064417185
40
0.513726064417185
40
0.582186348377432
40
0.582186348377432
40
0.650646632337679
40
0.650646632337679
40
0.719106916297927
40
0.719106916297927
40
0.787567200258173
40
0.787567200258173
40
0.85602748421842
40
0.85602748421842
40
0.924487768178668
40
0.924487768178668
40
0.992948052138915
40
0.992948052138915
40
1
40
1
40
1
40
1
41
1
10
31.9974919072128
20
-0.229315255537273
30
0
41
1
10
31.8675148991779
20
-0.166379958588124
30
0
41
1
10
31.7375973156778
20
-0.1033884084585
30
0
41
1
10
31.0921657427228
20
0.209296073089519
30
0
41
1
10
30.577544020476
20
0.459777502153798
30
0
41
1
10
29.8023099248052
20
0.826946274341282
30
-1E-16
41
1
10
29.5435172459568
20
0.948238477892716
30
-1E-16
41
1
10
29.0244018090518
20
1.18703619091192
30
-1E-16
41
1
10
28.7636429035853
20
1.30454286276324
30
-1E-16
41
1
10
28.2415793972338
20
1.53371191146107
30
-1E-16
41
1
10
27.9810722977625
20
1.64514258821282
30
-1E-16
41
1
10
27.4602084234853
20
1.86046870206238
30
-1E-16
41
1
10
27.1996871813987
20
1.96435200785047
30
-1E-16
41
1
10
26.6781861788445
20
2.16355039832661
30
-1E-16
41
1
10
26.4168543615002
20
2.25894161803353
30
-1E-16
41
1
10
25.8964500898713
20
2.43889402978417
30
-1E-16
41
1
10
25.6369567109243
20
2.5236939929473
30
-2E-16
41
1
10
25.1193503062474
20
2.6819220425036
30
-2E-16
41
1
10
24.8613420303455
20
2.75520188124474
30
1E-16
41
1
10
24.3458189707823
20
2.8899717373821
30
0
41
1
10
24.0882181185849
20
2.95160546721337
30
0
41
1
10
23.5731526746578
20
3.06227477490106
30
0
41
1
10
23.3158863063665
20
3.11082766421643
30
0
41
1
10
22.8004455949178
20
3.19563035930781
30
0
41
1
10
22.5422783530746
20
3.2319702205441
30
0
41
1
10
22.0249254571677
20
3.29082967050974
30
0
41
1
10
21.7658920791862
20
3.31254218979703
30
0
41
1
10
21.2457715609691
20
3.34316953296457
30
0
41
1
10
20.9840590582438
20
3.35207712741507
30
0
41
1
10
20.6969493805406
20
3.35377402881795
30
0
41
1
10
20.6701507179301
20
3.35384670633724
30
0
41
1
10
20.6433650246936
20
3.3538354425047
30
0
0
SPLINE
5
FB
100
AcDbEntity
8
1
62
256
6
ByLayer
370
18
48
1
60
0
100
AcDbSpline
70
4
71
3
72
10
73
6
40
0
40
0
40
0
40
0
40
0.5
40
0.5
40
1
40
1
40
1
40
1
41
1
10
3.50170133243262
20
2.67352433241032
30
-2E-16
41
1
10
3.50170133243262
20
2.69592850936209
30
-2E-16
41
1
10
3.52032955754112
20
2.71698834429296
30
-2E-16
41
1
10
3.57908598681624
20
2.73960140406365
30
-2E-16
41
1
10
3.61695971093033
20
2.74046692660937
30
-2E-16
41
1
10
3.6475799836135
20
2.7305096571651
30
-2E-16
0
SPLINE
5
FC
100
AcDbEntity
8
1
62
256
6
ByLayer
370
18
48
1
60
0
100
AcDbSpline
70
4
71
3
72
8
73
4
40
0
40
0
40
0
40
0
40
1
40
1
40
1
40
1
41
1
10
54.9967263107263
20
0.195993210034203
30
0
41
1
10
55.0010916662119
20
0.0653180050412914
30
0
41
1
10
55.0010907933984
20
-0.0653441323649986
30
0
41
1
10
54.9967263107268
20
-0.195993210021356
30
0
0
SPLINE
5
FD
100
AcDbEntity
8
1
62
256
6
ByLayer
370
18
48
1
60
0
100
AcDbSpline
70
4
71
3
72
8
73
4
40
0
40
0
40
0
40
0
40
1
40
1
40
1
40
1
41
1
10
54.9967263107264
20
0.195993210034231
30
0
41
1
10
54.9813921498255
20
0.144883264073656
30
0
41
1
10
54.9659816217954
20
0.093797584020507
30
0
41
1
10
54.9504950155111
20
0.042736078083891
30
0
0
SPLINE
5
FE
100
AcDbEntity
8
1
62
256
6
ByLayer
370
18
48
1
60
0
100
AcDbSpline
70
4
71
3
72
50
73
46
40
0
40
0
40
0
40
0
40
0.0033297854403962
40
0.0033297854403962
40
0.0486329770112847
40
0.0486329770112847
40
0.0712845727967298
40
0.0712845727967298
40
0.0939361685821747
40
0.0939361685821747
40
0.139239360153066
40
0.139239360153066
40
0.161890955938512
40
0.161890955938512
40
0.184542551723957
40
0.184542551723957
40
0.275148934865739
40
0.275148934865739
40
0.36575531800752
40
0.36575531800752
40
0.411058509578411
40
0.411058509578411
40
0.456361701149301
40
0.456361701149301
40
0.501664892720192
40
0.501664892720192
40
0.546968084291082
40
0.546968084291082
40
0.637574467432862
40
0.637574467432862
40
0.682877659003753
40
0.682877659003753
40
0.705529254789198
40
0.705529254789198
40
0.728180850574643
40
0.728180850574643
40
0.818787233716429
40
0.818787233716429
40
0.909393616858214
40
0.909393616858214
40
0.932045212643661
40
0.932045212643661
40
0.954696808429107
40
0.954696808429107
40
1
40
1
40
1
40
1
41
1
10
30.074832944428
20
3.41060475517048
30
0
41
1
10
30.1007857362472
20
3.41410743264419
30
0
41
1
10
30.1267430304521
20
3.4175389337762
30
0
41
1
10
30.5059311714362
20
3.46661407703118
30
0
41
1
10
30.8600656182504
20
3.49910299002937
30
0
41
1
10
31.3939069558052
20
3.5270631604993
30
0
41
1
10
31.5725529311003
20
3.53292104466243
30
0
41
1
10
31.9293349532957
20
3.53755729079114
30
0
41
1
10
32.1074990055204
20
3.5363499199396
30
0
41
1
10
32.6416529656977
20
3.52221998267891
30
0
41
1
10
32.9973129694642
20
3.4987881060616
30
0
41
1
10
33.5314421300073
20
3.4429790667094
30
0
41
1
10
33.7095886693241
20
3.42093224716734
30
0
41
1
10
34.0663024103857
20
3.37001501934284
30
0
41
1
10
34.2450133027642
20
3.34110971704121
30
0
41
1
10
35.1351190237493
20
3.18071043668962
30
0
41
1
10
35.8399117843884
20
3.00114543550822
30
0
41
1
10
37.2484347763466
20
2.55574075553389
30
-2E-16
41
1
10
37.9521985346887
20
2.28994350230397
30
-1E-16
41
1
10
39.0171791515795
20
1.83994180117574
30
-1E-16
41
1
10
39.3746837518752
20
1.68093478214175
30
-1E-16
41
1
10
40.0872993289234
20
1.35176677867116
30
-1E-16
41
1
10
40.4429125305784
20
1.18141531590473
30
-1E-16
41
1
10
41.1545004229513
20
0.832417807705298
30
-1E-16
41
1
10
41.5106815086378
20
0.653694040623833
30
0
41
1
10
42.2244629857555
20
0.291854329075278
30
0
41
1
10
42.5793484181644
20
0.110143984528435
30
0
41
1
10
43.6404726954777
20
-0.432465405673838
30
0
41
1
10
44.343099412333
20
-0.790987364617649
30
0
41
1
10
45.3999652045707
20
-1.30414058538239
30
1E-16
41
1
10
45.7527673130302
20
-1.47104077603748
30
1E-16
41
1
10
46.2840460492784
20
-1.71265687177043
30
1E-16
41
1
10
46.4614836931041
20
-1.79174251002036
30
1E-16
41
1
10
46.8172483641737
20
-1.94662363998626
30
1E-16
41
1
10
46.995917393219
20
-2.0225572460453
30
1E-16
41
1
10
47.886447230996
20
-2.39068166417059
30
1E-16
41
1
10
48.5911434461576
20
-2.64874903728409
30
2E-16
41
1
10
49.9989074287532
20
-3.07543263850445
30
0
41
1
10
50.7018046112364
20
-3.24425350512621
30
0
41
1
10
51.5877336047832
20
-3.3903988936728
30
0
41
1
10
51.7652858751483
20
-3.41638761388762
30
0
41
1
10
52.121342798266
20
-3.46166656683269
30
0
41
1
10
52.2999481536272
20
-3.48095599046843
30
0
41
1
10
52.8347162274689
20
-3.52826261908297
30
0
41
1
10
53.1907313129847
20
-3.54584896050116
30
0
41
1
10
53.5471049539748
20
-3.54933294169396
30
0
0
SPLINE
5
FF
100
AcDbEntity
8
1
62
256
6
ByLayer
370
18
48
1
60
0
100
AcDbSpline
70
4
71
3
72
10
73
6
40
0
40
0
40
0
40
0
40
0.5
40
0.5
40
1
40
1
40
1
40
1
41
1
10
3.55637591331507
20
-1.60913586935766
30
1E-16
41
1
10
3.53988173089442
20
-1.60167251509557
30
1E-16
41
1
10
3.52604208473551
20
-1.59021740214689
30
1E-16
41
1
10
3.50693271233953
20
-1.56239078663052
30
1E-16
41
1
10
3.5017013324325
20
-1.54599754211156
30
1E-16
41
1
10
3.50170133243248
20
-1.5293327095041
30
1E-16
0
SPLINE
5
100
100
AcDbEntity
8
1
62
256
6
ByLayer
370
18
48
1
60
0
100
AcDbSpline
70
4
71
3
72
26
73
22
40
0
40
0
40
0
40
0
40
0.0785422654955626
40
0.0785422654955626
40
0.157084530991125
40
0.157084530991125
40
0.235626796486687
40
0.235626796486687
40
0.314169061982249
40
0.314169061982249
40
0.471253592973374
40
0.471253592973374
40
0.628338123964499
40
0.628338123964499
40
0.785422654955624
40
0.785422654955624
40
0.863964920451186
40
0.863964920451186
40
0.942507185946749
40
0.942507185946749
40
1
40
1
40
1
40
1
41
1
10
53.732198975878
20
-3.35329094192147
30
0
41
1
10
53.4694200179063
20
-3.33585970003864
30
0
41
1
10
53.2070151574446
20
-3.3121747669133
30
0
41
1
10
52.6825478529513
20
-3.24968568274321
30
0
41
1
10
52.4204526892903
20
-3.2113332624655
30
0
41
1
10
51.896003770955
20
-3.12097438413088
30
0
41
1
10
51.6336576553353
20
-3.06898096314501
30
0
41
1
10
51.108028544195
20
-2.95181547047215
30
0
41
1
10
50.8445370634172
20
-2.88655623541382
30
0
41
1
10
50.0586787809105
20
-2.67376760393833
30
2E-16
41
1
10
49.5386628307999
20
-2.50876352045702
30
2E-16
41
1
10
48.5012155488143
20
-2.14073891682145
30
1E-16
41
1
10
47.9838171436733
20
-1.93764165763918
30
1E-16
41
1
10
46.9469855566502
20
-1.50170510098241
30
1E-16
41
1
10
46.4274330712281
20
-1.26884222179245
30
1E-16
41
1
10
45.6428042220079
20
-0.903729294581865
30
1E-16
41
1
10
45.3797463396107
20
-0.779139236440102
30
0
41
1
10
44.8539480967031
20
-0.527378741831569
30
0
41
1
10
44.5921420909423
20
-0.400666249855135
30
0
41
1
10
44.1400187969963
20
-0.18095815282328
30
0
41
1
10
43.9493575816179
20
-0.0880043303984621
30
0
41
1
10
43.7589958042338
20
0.004795185138164
30
0
0
SPLINE
5
101
100
AcDbEntity
8
1
62
256
6
ByLayer
370
18
48
1
60
0
100
AcDbSpline
70
4
71
3
72
20
73
16
40
0
40
0
40
0
40
0
40
0.0183566570424411
40
0.0183566570424411
40
0.116520991338197
40
0.116520991338197
40
0.214685325633954
40
0.214685325633954
40
0.607342662816975
40
0.607342662816975
40
0.803671331408486
40
0.803671331408486
40
0.901835665704243
40
0.901835665704243
40
1
40
1
40
1
40
1
41
1
10
11.5946042090322
20
-3.34913175529866
30
0
41
1
10
11.5458243719656
20
-3.35064223150152
30
0
41
1
10
11.4970251826554
20
-3.35190371170467
30
0
41
1
10
11.1871310541409
20
-3.35832436922965
30
0
41
1
10
10.9254459546838
20
-3.35659659045766
30
0
41
1
10
10.400216337905
20
-3.33861751739281
30
0
41
1
10
10.1361328962821
20
-3.32229345013067
30
0
41
1
10
8.82306244106653
20
-3.2054164694247
30
0
41
1
10
7.78719059475807
20
-2.99892284630854
30
0
41
1
10
6.22555595924746
20
-2.54952131734623
30
2E-16
41
1
10
5.70384106160122
20
-2.37620361169232
30
1E-16
41
1
10
4.9155282643427
20
-2.08630220707414
30
1E-16
41
1
10
4.6515467790727
20
-1.98454218658958
30
1E-16
41
1
10
4.12456840518115
20
-1.77322766054144
30
1E-16
41
1
10
3.86114781739468
20
-1.66352531411917
30
1E-16
41
1
10
3.59750866890886
20
-1.55024208898311
30
1E-16
0
SPLINE
5
102
100
AcDbEntity
8
1
62
256
6
ByLayer
370
18
48
1
60
0
100
AcDbSpline
70
4
71
3
72
30
73
26
40
0
40
0
40
0
40
0
40
0.0624999999999997
40
0.0624999999999997
40
0.125
40
0.125
40
0.25
40
0.25
40
0.3125
40
0.3125
40
0.375
40
0.375
40
0.4375
40
0.4375
40
0.5
40
0.5
40
0.625
40
0.625
40
0.6875
40
0.6875
40
0.75
40
0.75
40
0.875
40
0.875
40
1
40
1
40
1
40
1
41
1
10
3.60244939206919
20
2.59401983736978
30
-2E-16
41
1
10
3.60244186292005
20
2.5335675784051
30
-2E-16
41
1
10
3.60243358971309
20
2.47008411140621
30
-2E-16
41
1
10
3.60241579773395
20
2.33708727893241
30
-1E-16
41
1
10
3.602406249463
20
2.26736618535088
30
-1E-16
41
1
10
3.60237641007274
20
2.05179877108171
30
-1E-16
41
1
10
3.6023548770298
20
1.89901349656813
30
-1E-16
41
1
10
3.60232106981462
20
1.65651615639177
30
-1E-16
41
1
10
3.60230954263301
20
1.57345172755132
30
-1E-16
41
1
10
3.60228605399064
20
1.40276002690607
30
-1E-16
41
1
10
3.6022740604692
20
1.31488953084855
30
-1E-16
41
1
10
3.60225003438612
20
1.13709231876914
30
-1E-16
41
1
10
3.60223796480616
20
1.046900931603
30
-1E-16
41
1
10
3.60221371598095
20
0.863940344665792
30
-1E-16
41
1
10
3.60220149688487
20
0.770864147747062
30
0
41
1
10
3.6021648972891
20
0.489932943555146
30
0
41
1
10
3.60214077120656
20
0.301779989640124
30
0
41
1
10
3.60210434510856
20
0.0182956814002182
30
0
41
1
10
3.60209215914094
20
-0.0764094045368608
30
0
41
1
10
3.60206753210394
20
-0.266246876473531
30
0
41
1
10
3.60205503378097
20
-0.361809965006472
30
0
41
1
10
3.60201727815598
20
-0.645830472923848
30
0
41
1
10
3.60199191916345
20
-0.83055197321039
30
1E-16
41
1
10
3.60193898019767
20
-1.19103536188697
30
1E-16
41
1
10
3.6019113033102
20
-1.36740375777012
30
1E-16
41
1
10
3.60188161713535
20
-1.53765895936738
30
1E-16
0
SPLINE
5
103
100
AcDbEntity
8
1
62
256
6
ByLayer
370
18
48
1
60
0
100
AcDbSpline
70
4
71
3
72
61
73
57
40
0
40
0
40
0
40
0
40
0.0956549415601786
40
0.0956549415601786
40
0.160251017163011
40
0.160251017163011
40
0.224847092765844
40
0.224847092765844
40
0.25714513056726
40
0.25714513056726
40
0.289443168368676
40
0.289443168368676
40
0.321741206170091
40
0.321741206170091
40
0.354039243971507
40
0.354039243971507
40
0.370188262872215
40
0.370188262872215
40
0.386337281772923
40
0.386337281772923
40
0.418635319574339
40
0.418635319574339
40
0.434784338475047
40
0.434784338475047
40
0.450933357375755
40
0.450933357375755
40
0.483231395177171
40
0.483231395177171
40
0.515529432978587
40
0.515529432978587
40
0.547827470780003
40
0.547827470780003
40
0.612423546382835
40
0.612423546382835
40
0.677019621985667
40
0.677019621985667
40
0.693168640886376
40
0.693168640886376
40
0.697205895611554
40
0.697205895611554
40
0.701243150336732
40
0.701243150336732
40
0.705280405061911
40
0.705280405061911
40
0.709317659787089
40
0.709317659787089
40
0.713354914512267
40
0.713354914512267
40
0.717392169237445
40
0.725466678687803
40
0.725466678687803
40
0.741615697588521
40
0.741615697588521
40
0.87080784879426
40
0.87080784879426
40
1
40
1
40
1
40
1
41
1
10
4.85372232046248
20
-2.67237675943883
30
2E-16
41
1
10
4.55482553435735
20
-2.77596853604862
30
2E-16
41
1
10
4.26165934732319
20
-2.87672814680573
30
1E-16
41
1
10
3.78303450660309
20
-3.03802151949685
30
0
41
1
10
3.59354972296697
20
-3.1009648132551
30
0
41
1
10
3.2239259035785
20
-3.22066885113918
30
0
41
1
10
3.04487665874189
20
-3.27708188335688
30
0
41
1
10
2.79210364571321
20
-3.35278560036673
30
0
41
1
10
2.71008957159046
20
-3.3766397986364
30
0
41
1
10
2.55391784828524
20
-3.42017748619281
30
0
41
1
10
2.48009450126784
20
-3.43977515465286
30
0
41
1
10
2.34311035122806
20
-3.47351176267182
30
0
41
1
10
2.27991526109085
20
-3.48766738228864
30
0
41
1
10
2.1677022901284
20
-3.50872820873883
30
0
41
1
10
2.11873131777546
20
-3.51554284060154
30
0
41
1
10
2.06286476717099
20
-3.51813928532658
30
0
41
1
10
2.0470207671566
20
-3.51776557417659
30
0
41
1
10
2.02154562364166
20
-3.51426405596058
30
0
41
1
10
2.01190881290293
20
-3.51109248922708
30
0
41
1
10
1.99389729080335
20
-3.49739258668546
30
0
41
1
10
1.9959768351149
20
-3.48272526832801
30
0
41
1
10
2.02053086811037
20
-3.4524817938086
30
0
41
1
10
2.03236392007153
20
-3.44100057899817
30
0
41
1
10
2.0621878989111
20
-3.41610052460842
30
0
41
1
10
2.08022478820766
20
-3.40261086148689
30
0
41
1
10
2.14284002625973
20
-3.35936183324597
30
0
41
1
10
2.19633773888154
20
-3.32662433557343
30
0
41
1
10
2.31723280169479
20
-3.25797594485428
30
0
41
1
10
2.38501471685888
20
-3.22177318606683
30
0
41
1
10
2.53185970542111
20
-3.14667527553854
30
0
41
1
10
2.61122772976898
20
-3.10765291425585
30
0
41
1
10
2.85749724403826
20
-2.99016715615463
30
0
41
1
10
3.03403436453448
20
-2.91043233289625
30
0
41
1
10
3.40287326960549
20
-2.75002519934529
30
2E-16
41
1
10
3.59578020161467
20
-2.6691464120247
30
2E-16
41
1
10
3.84211811514098
20
-2.56887685687582
30
2E-16
41
1
10
3.89167326889247
20
-2.54885350928319
30
2E-16
41
1
10
3.95392000102078
20
-2.52387845474047
30
2E-16
41
1
10
3.96638473084033
20
-2.5188860541065
30
2E-16
41
1
10
3.99134401836406
20
-2.50890668417884
30
2E-16
41
1
10
4.00412421207142
20
-2.50406104456766
30
2E-16
41
1
10
4.03158855794379
20
-2.49907182278599
30
2E-16
41
1
10
4.0460743522309
20
-2.49835734999695
30
2E-16
41
1
10
4.074373481202
20
-2.4990488320544
30
2E-16
41
1
10
4.08847475004086
20
-2.50075504179839
30
2E-16
41
1
10
4.11622091833917
20
-2.50574201122956
30
2E-16
41
1
10
4.12989375636747
20
-2.50876259945881
30
2E-16
41
1
10
4.15736310452462
20
-2.51445220982453
30
2E-16
41
1
10
4.19854769451896
20
-2.5230169810884
30
2E-16
41
1
10
4.23967455405733
20
-2.5316708839004
30
2E-16
41
1
10
4.32184998621196
20
-2.54909185264964
30
2E-16
41
1
10
4.37652292066338
20
-2.56085543483795
30
2E-16
41
1
10
4.86760129366604
20
-2.66793828667051
30
2E-16
41
1
10
5.29646343196237
20
-2.77183374435373
30
2E-16
41
1
10
6.13852244809911
20
-2.97778689265431
30
0
41
1
10
6.55286614262468
20
-3.07990030984368
30
0
41
1
10
6.96119296558649
20
-3.1705269979621
30
0
0
SPLINE
5
104
100
AcDbEntity
8
1
62
256
6
ByLayer
370
18
48
1
60
0
100
AcDbSpline
70
4
71
3
72
8
73
4
40
0
40
0
40
0
40
0
40
1
40
1
40
1
40
1
41
1
10
3.60188161713535
20
-1.53765895936738
30
1E-16
41
1
10
3.5867243683285
20
-1.53180518296432
30
1E-16
41
1
10
3.57190373202536
20
-1.52762696694038
30
1E-16
41
1
10
3.55805220374396
20
-1.52533051397549
30
1E-16
0
SPLINE
5
105
100
AcDbEntity
8
1
62
256
6
ByLayer
370
18
48
1
60
0
100
AcDbSpline
70
2053
71
3
72
52
73
48
40
0
40
0
40
0
40
0
40
0.0624999999999957
40
0.0624999999999957
40
0.124999999999992
40
0.124999999999992
40
0.187499999999987
40
0.187499999999987
40
0.249999999999983
40
0.249999999999983
40
0.281249999999981
40
0.281249999999981
40
0.312499999999979
40
0.312499999999979
40
0.343749999999976
40
0.343749999999976
40
0.374999999999974
40
0.374999999999974
40
0.406249999999972
40
0.406249999999972
40
0.43749999999997
40
0.43749999999997
40
0.49999999999997
40
0.49999999999997
40
0.562499999999969
40
0.562499999999969
40
0.624999999999969
40
0.624999999999969
40
0.656249999999971
40
0.656249999999971
40
0.687499999999974
40
0.687499999999974
40
0.718749999999976
40
0.718749999999976
40
0.749999999999978
40
0.749999999999978
40
0.78124999999998
40
0.78124999999998
40
0.812499999999982
40
0.812499999999982
40
0.874999999999987
40
0.874999999999987
40
0.937499999999991
40
0.937499999999991
40
0.968749999999995
40
0.968749999999995
40
1
40
1
40
1
40
1
41
1
10
54.130738396642
20
-1.4138751045016
30
1E-16
41
1
10
54.10444164524
20
-1.44685985480029
30
1E-16
41
1
10
54.0798314933687
20
-1.46900383804822
30
1E-16
41
1
10
54.0329433181674
20
-1.49214901194705
30
1E-16
41
1
10
54.0119484884366
20
-1.49249130963935
30
1E-16
41
1
10
53.9736109944837
20
-1.46995812244617
30
1E-16
41
1
10
53.9573480556162
20
-1.44775793460468
30
1E-16
41
1
10
53.9298862088769
20
-1.37978075580017
30
1E-16
41
1
10
53.9194938026448
20
-1.33595652659517
30
1E-16
41
1
10
53.9096038912822
20
-1.2548784914753
30
1E-16
41
1
10
53.9073964480691
20
-1.2261439988381
30
1E-16
41
1
10
53.9053171189398
20
-1.16519442844358
30
1E-16
41
1
10
53.9054718870792
20
-1.1324807087544
30
1E-16
41
1
10
53.9085549888505
20
-1.06579733433733
30
1E-16
41
1
10
53.9114322884178
20
-1.03199285604583
30
1E-16
41
1
10
53.9202153535758
20
-0.963450796262663
30
1E-16
41
1
10
53.9261552813026
20
-0.928885453953058
30
1E-16
41
1
10
53.9407154453911
20
-0.862815122567213
30
1E-16
41
1
10
53.9495323330881
20
-0.83041205022144
30
1E-16
41
1
10
53.9695032967369
20
-0.769974877153999
30
0
41
1
10
53.9805877827401
20
-0.741970579093078
30
0
41
1
10
54.0170793269322
20
-0.664194563508431
30
0
41
1
10
54.044845086325
20
-0.622838465600154
30
0
41
1
10
54.1023108989726
20
-0.562170539525567
30
0
41
1
10
54.1321779970082
20
-0.542622688628512
30
0
41
1
10
54.1895117933731
20
-0.524405622904766
30
0
41
1
10
54.2175257488527
20
-0.525589800802265
30
0
41
1
10
54.2549411982047
20
-0.54253145510117
30
0
41
1
10
54.2666812760071
20
-0.55066767528055
30
0
41
1
10
54.2884641069411
20
-0.572258057906254
30
0
41
1
10
54.2985516985435
20
-0.585859081998905
30
0
41
1
10
54.3159605188556
20
-0.6179779725245
30
0
41
1
10
54.3233859779961
20
-0.636543916915059
30
0
41
1
10
54.3352794591921
20
-0.679360412661595
30
0
41
1
10
54.3396579082957
20
-0.703501789712789
30
0
41
1
10
54.3446744890574
20
-0.755943647898391
30
0
41
1
10
54.3453529766369
20
-0.784903856040273
30
0
41
1
10
54.3427296998989
20
-0.845765945529678
30
1E-16
41
1
10
54.3395001923312
20
-0.877469792751697
30
1E-16
41
1
10
54.3241121621401
20
-0.976610283730622
30
-1E-16
41
1
10
54.3062927248039
20
-1.04593342720406
30
0
41
1
10
54.2627287686133
20
-1.17482281878242
30
0
41
1
10
54.2369931809561
20
-1.23494333574698
30
0
41
1
10
54.1974150315171
20
-1.31204641550002
30
0
41
1
10
54.1838650560344
20
-1.335931896711
30
0
41
1
10
54.1571722053908
20
-1.3784626163872
30
1E-16
41
1
10
54.1438867723429
20
-1.39738272935224
30
1E-16
41
1
10
54.1307383966419
20
-1.4138751045016
30
1E-16
0
SPLINE
5
106
100
AcDbEntity
8
SK1
62
256
6
ByLayer
370
18
48
1
60
0
100
AcDbSpline
70
4
71
3
72
8
73
4
40
0
40
0
40
0
40
0
40
1
40
1
40
1
40
1
41
1
10
-35.6009618943233
20
-1.54712457834529
30
1E-16
41
1
10
-35.567323835825
20
-1.55643088149236
30
1E-16
41
1
10
-35.533669364758
20
-1.56573285555032
30
1E-16
41
1
10
-35.5
20
-1.57503090114855
30
1E-16
0
SPLINE
5
107
100
AcDbEntity
8
SK1
62
256
6
ByLayer
370
18
48
1
60
0
100
AcDbSpline
70
4
71
3
72
10
73
6
40
0
40
0
40
0
40
0
40
0.654320893338876
40
0.654320893338876
40
1
40
1
40
1
40
1
41
1
10
-36.0000000000001
20
-0.487880277284518
30
0
41
1
10
-35.9272396278271
20
-0.406522822438546
30
0
41
1
10
-35.8568055726535
20
-0.318143256365261
30
0
41
1
10
-35.7541219577531
20
-0.168938044767543
30
0
41
1
10
-35.7193565072129
20
-0.114448606820844
30
0
41
1
10
-35.6860673615047
20
-0.0572478550383551
30
0
0
SPLINE
5
108
100
AcDbEntity
8
SK1
62
256
6
ByLayer
370
18
48
1
60
0
100
AcDbSpline
70
4
71
3
72
12
73
8
40
0
40
0
40
0
40
0
40
0.499999999999997
40
0.499999999999997
40
0.749999999999999
40
0.749999999999999
40
1
40
1
40
1
40
1
41
1
10
-35.5
20
-1.57503090114869
30
1E-16
41
1
10
-35.4764535706457
20
-1.58153342281443
30
1E-16
41
1
10
-35.453758325367
20
-1.5806304557108
30
1E-16
41
1
10
-35.4256589034923
20
-1.56667858116901
30
1E-16
41
1
10
-35.4170915256394
20
-1.55971421032987
30
1E-16
41
1
10
-35.4042768359918
20
-1.54017269278546
30
1E-16
41
1
10
-35.4
20
-1.52718239879482
30
1E-16
41
1
10
-35.4
20
-1.51202797197553
30
1E-16
0
SPLINE
5
109
100
AcDbEntity
8
SK1
62
256
6
ByLayer
370
18
48
1
60
0
100
AcDbSpline
70
4
71
3
72
10
73
6
40
0
40
0
40
0
40
0
40
0.5
40
0.5
40
1
40
1
40
1
40
1
41
1
10
-35.6009618943233
20
-1.54712457834529
30
1E-16
41
1
10
-35.657625994603
20
-1.61953577554786
30
1E-16
41
1
10
-35.7212304684705
20
-1.67646594387907
30
1E-16
41
1
10
-35.8564778377541
20
-1.76703079466756
30
1E-16
41
1
10
-35.9271669955654
20
-1.800032204785
30
1E-16
41
1
10
-36.0000000000001
20
-1.82382375447989
30
1E-16
0
SPLINE
5
10A
100
AcDbEntity
8
SK1
62
256
6
ByLayer
370
18
48
1
60
0
100
AcDbSpline
70
4
71
3
72
8
73
4
40
0
40
0
40
0
40
0
40
1
40
1
40
1
40
1
41
1
10
-35.5
20
-0.130215881295868
30
0
41
1
10
-35.5336694941267
20
-0.120917799971551
30
0
41
1
10
-35.5673239693215
20
-0.111615824706575
30
0
41
1
10
-35.6009618943233
20
-0.102309558492635
30
0
0
SPLINE
5
10B
100
AcDbEntity
8
SK1
62
256
6
ByLayer
370
18
48
1
60
0
100
AcDbSpline
70
4
71
3
72
12
73
8
40
0
40
0
40
0
40
0
40
0.25
40
0.25
40
0.5
40
0.5
40
1
40
1
40
1
40
1
41
1
10
-35.4
20
-0.259854954769878
30
0
41
1
10
-35.4
20
-0.242913512175136
30
0
41
1
10
-35.4042405317345
20
-0.225980058413796
30
0
41
1
10
-35.4170629445097
20
-0.196431570265332
30
0
41
1
10
-35.4255309618335
20
-0.183653608249188
30
0
41
1
10
-35.4538111153162
20
-0.151083941808622
30
0
41
1
10
-35.4764597265186
20
-0.136716702971398
30
0
41
1
10
-35.5
20
-0.130215881295754
30
0
0
SPLINE
5
10C
100
AcDbEntity
8
SK1
62
256
6
ByLayer
370
18
48
1
60
0
100
AcDbSpline
70
4
71
3
72
10
73
6
40
0
40
0
40
0
40
0
40
0.5
40
0.5
40
1
40
1
40
1
40
1
41
1
10
-36.0000000000001
20
0.487880277284518
30
0
41
1
10
-35.9272396278271
20
0.406522822438546
30
0
41
1
10
-35.8568055726535
20
0.318143256365261
30
0
41
1
10
-35.7224295033876
20
0.122887081678357
30
0
41
1
10
-35.6578574543336
20
0.0148244505345474
30
0
41
1
10
-35.6009618943233
20
-0.102309558492635
30
0
0
SPLINE
5
10D
100
AcDbEntity
8
1
62
256
6
ByLayer
370
18
48
1
60
0
100
AcDbSpline
70
4
71
3
72
17
73
13
40
0
40
0
40
0
40
0
40
0.0339445595120626
40
0.104812939662815
40
0.200016022305636
40
0.294550609984573
40
0.386327271234108
40
0.474367937255098
40
0.565046039264011
40
0.686681395753316
40
0.842644650776762
40
1
40
1
40
1
40
1
41
1
10
12.0378334476551
20
0.122539613636889
30
0
41
1
10
11.9725117572965
20
0.141668699873549
30
0
41
1
10
11.7709157515782
20
0.201169150365217
30
0
41
1
10
11.3868984935127
20
0.317690803422266
30
0
41
1
10
10.8875252277147
20
0.47351851972644
30
0
41
1
10
10.3496736366478
20
0.647260144259462
30
0
41
1
10
9.82704259979107
20
0.821518496030336
30
-1E-16
41
1
10
9.31328503062252
20
0.997999559441013
30
-1E-16
41
1
10
8.7446119573541
20
1.19899214174978
30
-1E-16
41
1
10
8.05058140331596
20
1.45262607129979
30
-1E-16
41
1
10
7.23510163688633
20
1.76256390871455
30
-1E-16
41
1
10
6.65190693981214
20
1.99555078447594
30
-1E-16
41
1
10
6.36001390846579
20
2.11490689100137
30
-1E-16
0
SPLINE
5
10E
100
AcDbEntity
8
1
62
256
6
ByLayer
370
18
48
1
60
0
100
AcDbSpline
70
4
71
1
72
4
73
2
40
0
40
0
40
1
40
1
41
1
10
53.299871331763
20
0.0002148212028885
30
0
41
1
10
53.2998252543662
20
0.0002376355928106
30
0
0
SPLINE
5
10F
100
AcDbEntity
8
1
62
256
6
ByLayer
370
18
48
1
60
0
100
AcDbSpline
70
4
71
3
72
12
73
8
40
0
40
0
40
0
40
0
40
0.010251880264661
40
0.124941118773091
40
0.35357706139828
40
0.652485280186619
40
1
40
1
40
1
40
1
41
1
10
53.940596695601
20
0.615935215629605
30
0
41
1
10
53.9262257061594
20
0.620564041458067
30
0
41
1
10
53.7511198642574
20
0.677082827896641
30
0
41
1
10
53.2573751871699
20
0.842513424982826
30
-1E-16
41
1
10
52.3635257153658
20
1.15152585097519
30
-1E-16
41
1
10
51.154145738331
20
1.59695508349475
30
-1E-16
41
1
10
50.2687924398252
20
1.94666449619953
30
-1E-16
41
1
10
49.795122437393
20
2.14076815435988
30
-1E-16
0
SPLINE
5
110
100
AcDbEntity
8
1
62
256
6
ByLayer
370
18
48
1
60
0
100
AcDbSpline
70
4
71
3
72
20
73
16
40
0
40
0
40
0
40
0
40
0.113732868558785
40
0.18570717009311
40
0.245917219952939
40
0.316229612283397
40
0.390003576702403
40
0.463153019033118
40
0.533773433102758
40
0.597799027725468
40
0.716959533456229
40
0.844508957813836
40
0.914423290160506
40
0.991491501808808
40
1
40
1
40
1
40
1
41
1
10
32.8926527720623
20
-3.35968416344187
30
0
41
1
10
33.1738907804667
20
-3.35987398954791
30
0
41
1
10
33.633141032417
20
-3.36017719306812
30
0
41
1
10
34.2415340806655
20
-3.36055920286336
30
0
41
1
10
34.7422931363293
20
-3.36087261726726
30
0
41
1
10
35.2476216629663
20
-3.3609505775849
30
0
41
1
10
35.7849667048033
20
-3.36174379929588
30
0
41
1
10
36.3230877759474
20
-3.36172287587488
30
0
41
1
10
36.837106258136
20
-3.36172433142988
30
0
41
1
10
37.4649284698061
20
-3.36312966387354
30
0
41
1
10
38.233572748738
20
-3.36171309791425
30
0
41
1
10
39.0167985160771
20
-3.3639138787243
30
0
41
1
10
39.6958931968395
20
-3.36278658646558
30
0
41
1
10
40.0805253343523
20
-3.36413967763536
30
0
41
1
10
40.2922115960295
20
-3.36441032700279
30
0
41
1
10
40.3132585719136
20
-3.36443298632173
30
0
0
SPLINE
5
111
100
AcDbEntity
8
1
62
256
6
ByLayer
370
18
48
1
60
0
100
AcDbSpline
70
4
71
3
72
22
73
18
40
0
40
0
40
0
40
0
40
6.23100482692E-05
40
0.0001393607779233
40
0.0002134400334976
40
0.0002897350437305
40
0.0007154229236162
40
0.0010539307704471
40
0.0016668368346913
40
0.0027888070723103
40
0.0048832570919505
40
0.0089293205999553
40
0.0172007323708878
40
0.0355694493642835
40
0.158931883541588
40
0.696878083949156
40
1
40
1
40
1
40
1
41
1
10
12.5379691050873
20
-0.0235781624691356
30
0
41
1
10
12.5379586144917
20
-0.0235747246583458
30
0
41
1
10
12.5379351685899
20
-0.0235670328972049
30
0
41
1
10
12.5378994057546
20
-0.0235551966769947
30
0
41
1
10
12.5378620491018
20
-0.0235425822893376
30
0
41
1
10
12.5377874436699
20
-0.0235160424818162
30
0
41
1
10
12.5377113479871
20
-0.0234872631453413
30
0
41
1
10
12.5375601729294
20
-0.0234324339246257
30
0
41
1
10
12.5373367669127
20
-0.023351645086592
30
0
41
1
10
12.5369050980709
20
-0.0231983241246496
30
0
41
1
10
12.5360476263843
20
-0.0229010615570644
30
0
41
1
10
12.5342156471075
20
-0.0222886027919458
30
0
41
1
10
12.529956394507
20
-0.0209281013780469
30
0
41
1
10
12.5071875933709
20
-0.0140126374189151
30
0
41
1
10
12.3932919888303
20
0.0185676730328339
30
0
41
1
10
12.2305306804803
20
0.0655028075892119
30
0
41
1
10
12.0889119415809
20
0.10734699215007
30
0
41
1
10
12.0378334476551
20
0.122539613636889
30
0
0
SPLINE
5
112
100
AcDbEntity
8
1
62
256
6
ByLayer
370
18
48
1
60
0
100
AcDbSpline
70
4
71
3
72
33
73
29
40
0
40
0
40
0
40
0
40
2.04366045312E-05
40
4.20273602659E-05
40
5.94124554793E-05
40
8.83904428999E-05
40
0.000111126301087
40
0.000129114287741
40
0.0001440018280735
40
0.0001573963889828
40
0.0002337608550687
40
0.0002916921595437
40
0.0003961975574638
40
0.0005843195058134
40
0.0009251446296858
40
0.0015498760854902
40
0.0027195730346838
40
0.0049944227562546
40
0.0098550922778989
40
0.0287749571781138
40
0.0957257068682527
40
0.187725605359071
40
0.273766248058577
40
0.353308918875184
40
0.457625087013734
40
0.604389280002299
40
0.793682323827202
40
1
40
1
40
1
40
1
41
1
10
34.2804397945134
20
-0.0253939118478854
30
0
41
1
10
34.2804673482065
20
-0.0254018705319936
30
0
41
1
10
34.2805206169415
20
-0.0254178063960353
30
0
41
1
10
34.280582792036
20
-0.0254389740445049
30
0
41
1
10
34.2805781641173
20
-0.025423876147272
30
0
41
1
10
34.2805656003574
20
-0.0254234167787786
30
0
41
1
10
34.2805334476787
20
-0.0254132860620473
30
0
41
1
10
34.2804849846548
20
-0.0253991035643537
30
0
41
1
10
34.2804220782253
20
-0.0253813256603053
30
0
41
1
10
34.2802329863975
20
-0.0253289393171201
30
0
41
1
10
34.2798825637482
20
-0.0252347806148521
30
0
41
1
10
34.2794610916675
20
-0.0251177789460542
30
0
41
1
10
34.2788188028581
20
-0.0249405188390313
30
0
41
1
10
34.2776638717636
20
-0.0246210519516978
30
0
41
1
10
34.2755289917788
20
-0.0240305715055911
30
0
41
1
10
34.2715115616157
20
-0.0229175901293672
30
0
41
1
10
34.2636404353917
20
-0.0207297929927108
30
0
41
1
10
34.2469901599427
20
-0.0160687090242391
30
0
41
1
10
34.1927301271322
20
-0.0006385477117306
30
0
41
1
10
34.0032780179446
20
0.0537414692014977
30
0
41
1
10
33.631567487596
20
0.162571048345996
30
0
41
1
10
33.1209080956635
20
0.317273852772956
30
0
41
1
10
32.585633467082
20
0.485408920720062
30
0
41
1
10
32.0263529372747
20
0.66685302585293
30
0
41
1
10
31.3433496802944
20
0.896163525852927
30
-1E-16
41
1
10
30.4376719717065
20
1.2142393188353
30
-1E-16
41
1
10
29.3288411038243
20
1.62572305728739
30
-1E-16
41
1
10
28.526698313494
20
1.94366495954927
30
-1E-16
41
1
10
28.1100900987293
20
2.11424367797838
30
-1E-16
0
SPLINE
5
113
100
AcDbEntity
8
1
62
256
6
ByLayer
370
18
48
1
60
0
100
AcDbSpline
70
4
71
3
72
18
73
14
40
0
40
0
40
0
40
0
40
0.115351260093343
40
0.194208486424515
40
0.278169060504854
40
0.381415996033744
40
0.481299645837532
40
0.570338667902331
40
0.647704039858388
40
0.724638362022659
40
0.809206324087425
40
0.903532904218088
40
1
40
1
40
1
40
1
41
1
10
20.668467072219
20
3.35384785526313
30
0
41
1
10
20.383490371071
20
3.35314947440105
30
0
41
1
10
19.9036717535099
20
3.35227311246896
30
0
41
1
10
19.2161964870673
20
3.35294898824731
30
0
41
1
10
18.5589099441445
20
3.35178692719111
30
0
41
1
10
17.8492328438128
20
3.35165722669029
30
0
41
1
10
17.1271364289255
20
3.35106859109692
30
0
41
1
10
16.4689840261568
20
3.3501676044396
30
0
41
1
10
15.8675263971001
20
3.35056686655719
30
0
41
1
10
15.2772535693088
20
3.34913942246135
30
0
41
1
10
14.6448998825043
20
3.34919479748899
30
0
41
1
10
13.9643996193163
20
3.34821089200875
30
0
41
1
10
13.4927308793453
20
3.34805101926798
30
0
41
1
10
13.2543576006472
20
3.34788110538886
30
0
0
SPLINE
5
114
100
AcDbEntity
8
1
62
256
6
ByLayer
370
18
48
1
60
0
100
AcDbSpline
70
4
71
3
72
17
73
13
40
0
40
0
40
0
40
0
40
0.125078385912707
40
0.218488463706662
40
0.331438837339646
40
0.446631034523452
40
0.548250809788445
40
0.638773101558192
40
0.716269110128862
40
0.805458480548714
40
0.905510790588156
40
1
40
1
40
1
40
1
41
1
10
11.1393808653257
20
-3.34598934495406
30
0
41
1
10
11.4478124439532
20
-3.34613053556714
30
0
41
1
10
11.9866083884529
20
-3.34645817317468
30
0
41
1
10
12.8036422705125
20
-3.34757441034839
30
0
41
1
10
13.5971408777238
20
-3.34798691743387
30
0
41
1
10
14.4107621884268
20
-3.34897817185296
30
0
41
1
10
15.1691199865911
20
-3.34903054806145
30
0
41
1
10
15.8343234774239
20
-3.35054019373763
30
0
41
1
10
16.4689825242557
20
-3.35018181936138
30
0
41
1
10
17.1271369125036
20
-3.35106401421527
30
0
41
1
10
17.8271943579854
20
-3.35164042347444
30
0
41
1
10
18.3072782075265
20
-3.35174060567508
30
0
41
1
10
18.540390029242
20
-3.35195360573337
30
0
0
SPLINE
5
115
100
AcDbEntity
8
1
62
256
6
ByLayer
370
18
48
1
60
0
100
AcDbSpline
70
4
71
3
72
23
73
19
40
0
40
0
40
0
40
0
40
0.0975731939503699
40
0.175090676583708
40
0.262483703039831
40
0.315570551489262
40
0.368095586929163
40
0.423448603365743
40
0.483484576635274
40
0.548409648170765
40
0.618528007820251
40
0.690551923934966
40
0.781719273390753
40
0.85778455294016
40
0.929352524094241
40
0.962763296957489
40
0.99448809682035
40
1
40
1
40
1
40
1
41
1
10
42.4248324723186
20
3.3643212453473
30
0
41
1
10
42.1846823972103
20
3.36436926482401
30
0
41
1
10
41.7533804314308
20
3.3644529740364
30
0
41
1
10
41.1062313829471
20
3.36303258308959
30
0
41
1
10
40.5672791639959
20
3.36456738546082
30
0
41
1
10
40.0941268547674
20
3.36405600694641
30
0
41
1
10
39.6964273709621
20
3.36301528487252
30
0
41
1
10
39.2822248743024
20
3.36338031068627
30
0
41
1
10
38.837237600194
20
3.363598968894
30
0
41
1
10
38.3558726287585
20
3.36225794936834
30
0
41
1
10
37.844908207149
20
3.36254219416443
30
0
41
1
10
37.2691931503691
20
3.36284235002989
30
0
41
1
10
36.6788025960965
20
3.36146186577636
30
0
41
1
10
36.089536543193
20
3.36184332205792
30
0
41
1
10
35.642790588488
20
3.3615357230681
30
0
41
1
10
35.3054610880955
20
3.36109691374571
30
0
41
1
10
35.1311306257855
20
3.36098682789699
30
0
41
1
10
35.0392470048321
20
3.36094733338132
30
0
41
1
10
35.0256461158518
20
3.36094181325629
30
0
0
SPLINE
5
116
100
AcDbEntity
8
1
62
256
6
ByLayer
370
18
48
1
60
0
100
AcDbSpline
70
4
71
2
72
6
73
3
40
0
40
0
40
0
40
1
40
1
40
1
41
1
10
31.5448862599184
20
-0.0010658652080906
30
0
41
1
10
31.5450009303569
20
-0.0010072993704
30
0
41
1
10
31.5451156002868
20
-0.0009515929511679
30
0
0
LINE
5
84
100
AcDbEntity
8
1
62
256
6
ByLayer
370
18
48
1
60
0
100
AcDbLine
10
0.572709
20
3.758574
30
0
11
0.572709
21
0
31
0
39
0
210
0
220
0
230
1
0
LINE
5
85
100
AcDbEntity
8
1
62
256
6
ByLayer
370
18
48
1
60
0
100
AcDbLine
10
0.572709
20
0
30
0
11
0.572709
21
-3.758574
31
0
39
0
210
0
220
0
230
1
0
LINE
5
86
100
AcDbEntity
8
1
62
256
6
ByLayer
370
18
48
1
60
0
100
AcDbLine
10
0
20
4
30
0
11
0
21
0
31
0
39
0
210
0
220
0
230
1
0
LINE
5
87
100
AcDbEntity
8
1
62
256
6
ByLayer
370
18
48
1
60
0
100
AcDbLine
10
0
20
0
30
0
11
0
21
-4
31
0
39
0
210
0
220
0
230
1
0
LINE
5
88
100
AcDbEntity
8
1
62
256
6
ByLayer
370
18
48
1
60
0
100
AcDbLine
10
3.501701
20
-1.529333
30
0
11
3.501701
21
2.673524
31
0
39
0
210
0
220
0
230
1
0
LINE
5
89
100
AcDbEntity
8
1
62
256
6
ByLayer
370
18
48
1
60
0
100
AcDbLine
10
1.145918
20
3.517148
30
0
11
1.145918
21
0
31
0
39
0
210
0
220
0
230
1
0
LINE
5
8A
100
AcDbEntity
8
1
62
256
6
ByLayer
370
18
48
1
60
0
100
AcDbLine
10
1.145918
20
0
30
0
11
1.145918
21
-3.517148
31
0
39
0
210
0
220
0
230
1
0
LINE
5
8B
100
AcDbEntity
8
1
62
256
6
ByLayer
370
18
48
1
60
0
100
AcDbLine
10
19.5
20
0.77982
30
0
11
19.5
21
0.731362
31
0
39
0
210
0
220
0
230
1
0
LINE
5
8C
100
AcDbEntity
8
1
62
256
6
ByLayer
370
18
48
1
60
0
100
AcDbLine
10
54.950495
20
0.042736
30
0
11
54.08584
21
0.997166
31
0
39
0
210
0
220
0
230
1
0
LINE
5
8D
100
AcDbEntity
8
SK1
62
256
6
ByLayer
370
18
48
1
60
0
100
AcDbLine
10
-35.4
20
-1.512028
30
0
11
-35.4
21
-0.259855
31
0
39
0
210
0
220
0
230
1
0
LINE
5
8F
100
AcDbEntity
8
SK1
62
256
6
ByLayer
370
18
48
1
60
0
100
AcDbLine
10
0
20
4
30
0
11
0
21
-4
31
0
39
0
210
0
220
0
230
1
0
LINE
5
90
100
AcDbEntity
8
SK1
62
256
6
ByLayer
370
18
48
1
60
0
100
AcDbLine
10
-36
20
-1.823824
30
0
11
-36
21
-0.48788
31
0
39
0
210
0
220
0
230
1
0
LINE
5
91
100
AcDbEntity
8
SK1
62
256
6
ByLayer
370
18
48
1
60
0
100
AcDbLine
10
-36
20
2.76
30
0
11
-36
21
0.48788
31
0
39
0
210
0
220
0
230
1
0
LINE
5
92
100
AcDbEntity
8
SK1
62
256
6
ByLayer
370
18
48
1
60
0
100
AcDbLine
10
-35.600962
20
-1.547125
30
0
11
-35.600962
21
-0.102323
31
0
39
0
210
0
220
0
230
1
0
LINE
5
93
100
AcDbEntity
8
SK1
62
256
6
ByLayer
370
18
48
1
60
0
100
AcDbLine
10
-36
20
-2.76
30
0
11
-36
21
-1.823824
31
0
39
0
210
0
220
0
230
1
0
LINE
5
94
100
AcDbEntity
8
SK1
62
256
6
ByLayer
370
18
48
1
60
0
100
AcDbLine
10
-34.76
20
-4
30
0
11
-34.76
21
4
31
0
39
0
210
0
220
0
230
1
0
LINE
5
95
100
AcDbEntity
8
SK1
62
256
6
ByLayer
370
18
48
1
60
0
100
AcDbLine
10
-35.5
20
-1.575031
30
0
11
-35.5
21
-0.130234
31
0
39
0
210
0
220
0
230
1
0
LINE
5
96
100
AcDbEntity
8
1
62
256
6
ByLayer
370
18
48
1
60
0
100
AcDbLine
10
12.538179
20
-0.023656
30
0
11
12.538012
21
-0.023592
31
0
39
0
210
0
220
0
230
1
0
LINE
5
97
100
AcDbEntity
8
SK1
62
256
6
ByLayer
370
18
48
1
60
0
100
AcDbLine
10
-36
20
-2.76
30
0
11
-34.76
21
-4
31
0
39
0
210
0
220
0
230
1
0
LINE
5
98
100
AcDbEntity
8
SK1
62
256
6
ByLayer
370
18
48
1
60
0
100
AcDbLine
10
-34.76
20
4
30
0
11
-36
21
2.76
31
0
39
0
210
0
220
0
230
1
0
LINE
5
99
100
AcDbEntity
8
SK1
62
256
6
ByLayer
370
18
48
1
60
0
100
AcDbLine
10
-34.76
20
-4
30
0
11
0
21
-4
31
0
39
0
210
0
220
0
230
1
0
LINE
5
9A
100
AcDbEntity
8
SK1
62
256
6
ByLayer
370
18
48
1
60
0
100
AcDbLine
10
0
20
4
30
0
11
-34.76
21
4
31
0
39
0
210
0
220
0
230
1
0
LINE
5
9B
100
AcDbEntity
8
1
62
256
6
ByLayer
370
18
48
1
60
0
100
AcDbLine
10
1.145918
20
-3.517148
30
0
11
2.081038
21
-3.517732
31
0
39
0
210
0
220
0
230
1
0
LINE
5
9C
100
AcDbEntity
8
1
62
256
6
ByLayer
370
18
48
1
60
0
100
AcDbLine
10
10.074246
20
-3.522728
30
0
11
11.143585
21
-3.523396
31
0
39
0
210
0
220
0
230
1
0
LINE
5
9D
100
AcDbEntity
8
1
62
256
6
ByLayer
370
18
48
1
60
0
100
AcDbLine
10
20.670263
20
-3.52935
30
0
11
21.676697
21
-3.529979
31
0
39
0
210
0
220
0
230
1
0
LINE
5
9E
100
AcDbEntity
8
1
62
256
6
ByLayer
370
18
48
1
60
0
100
AcDbLine
10
31.918185
20
-3.53638
30
0
11
32.893431
21
-3.53699
31
0
39
0
210
0
220
0
230
1
0
LINE
5
9F
100
AcDbEntity
8
1
62
256
6
ByLayer
370
18
48
1
60
0
100
AcDbLine
10
42.423728
20
-3.542946
30
0
11
43.406583
21
-3.543561
31
0
39
0
210
0
220
0
230
1
0
LINE
5
A0
100
AcDbEntity
8
1
62
256
6
ByLayer
370
18
48
1
60
0
100
AcDbLine
10
43.406583
20
3.543561
30
0
11
42.423728
21
3.542946
31
0
39
0
210
0
220
0
230
1
0
LINE
5
A1
100
AcDbEntity
8
1
62
256
6
ByLayer
370
18
48
1
60
0
100
AcDbLine
10
32.893431
20
3.53699
30
0
11
31.918185
21
3.53638
31
0
39
0
210
0
220
0
230
1
0
LINE
5
A2
100
AcDbEntity
8
1
62
256
6
ByLayer
370
18
48
1
60
0
100
AcDbLine
10
21.676697
20
3.529979
30
0
11
20.670263
21
3.52935
31
0
39
0
210
0
220
0
230
1
0
LINE
5
A3
100
AcDbEntity
8
1
62
256
6
ByLayer
370
18
48
1
60
0
100
AcDbLine
10
11.143585
20
3.523396
30
0
11
10.074246
21
3.522728
31
0
39
0
210
0
220
0
230
1
0
LINE
5
A4
100
AcDbEntity
8
1
62
256
6
ByLayer
370
18
48
1
60
0
100
AcDbLine
10
2.081038
20
3.517732
30
0
11
1.145918
21
3.517148
31
0
39
0
210
0
220
0
230
1
0
LINE
5
A5
100
AcDbEntity
8
SK4
62
256
6
ByLayer
370
18
48
0.05
60
0
100
AcDbLine
10
60
20
0
30
0
11
-41
21
0
31
0
39
0
210
0
220
0
230
1
0
LINE
5
A7
100
AcDbEntity
8
4
62
256
6
ByLayer
370
18
48
0.05
60
0
100
AcDbLine
10
-36
20
0
30
0
11
60
21
0
31
0
39
0
210
0
220
0
230
1
0
LINE
5
A9
100
AcDbEntity
8
80
62
256
6
ByLayer
370
18
48
1
60
0
100
AcDbLine
10
0
20
0
30
0
11
-6
21
0
31
0
39
0
210
0
220
0
230
1
0
LINE
5
AA
100
AcDbEntity
8
81
62
256
6
ByLayer
370
18
48
1
60
0
100
AcDbLine
10
55
20
0
30
0
11
61
21
0
31
0
39
0
210
0
220
0
230
1
0
LINE
5
AB
100
AcDbEntity
8
SK2
62
256
6
ByLayer
370
13
48
1
60
0
100
AcDbLine
10
55.542959
20
1.491761
30
0
11
62.926348
21
21.777365
31
0
39
0
210
0
220
0
230
1
0
LINE
5
AD
100
AcDbEntity
8
SK2
62
256
6
ByLayer
370
13
48
1
60
0
100
AcDbLine
10
55.542959
20
-1.491761
30
0
11
62.926348
21
-21.777365
31
0
39
0
210
0
220
0
230
1
0
LINE
5
AE
100
AcDbEntity
8
1
62
256
6
ByLayer
370
13
48
1
60
0
100
AcDbLine
10
61.840429
20
18.793843
30
0
11
64.937019
21
17.977466
31
0
39
0
210
0
220
0
230
1
0
LINE
5
AF
100
AcDbEntity
8
1
62
256
6
ByLayer
370
13
48
1
60
0
100
AcDbLine
10
61.840429
20
18.793843
30
0
11
64.620214
21
17.203826
31
0
39
0
210
0
220
0
230
1
0
LINE
5
B0
100
AcDbEntity
8
1
62
256
6
ByLayer
370
13
48
1
60
0
100
AcDbLine
10
64.937019
20
17.977466
30
0
11
64.620214
21
17.203826
31
0
39
0
210
0
220
0
230
1
0
LINE
5
B1
100
AcDbEntity
8
1
62
256
6
ByLayer
370
13
48
1
60
0
100
AcDbLine
10
61.840429
20
-18.793843
30
0
11
64.620211
21
-17.203827
31
0
39
0
210
0
220
0
230
1
0
LINE
5
B2
100
AcDbEntity
8
1
62
256
6
ByLayer
370
13
48
1
60
0
100
AcDbLine
10
61.840429
20
-18.793843
30
0
11
64.937022
21
-17.977465
31
0
39
0
210
0
220
0
230
1
0
LINE
5
B3
100
AcDbEntity
8
1
62
256
6
ByLayer
370
13
48
1
60
0
100
AcDbLine
10
64.620211
20
-17.203827
30
0
11
64.937022
21
-17.977465
31
0
39
0
210
0
220
0
230
1
0
MTEXT
5
117
100
AcDbEntity
8
SK2
62
256
6
ByLayer
370
18
48
1
60
0
100
AcDbMText
10
68.717388
20
-2.467451
30
0
210
0
220
0
230
1
1
\W0.7237;140.00
40
3.50012
41
0
44
1.084337
50
0
71
7
72
5
7
iso_b_vert
0
MTEXT
5
11A
100
AcDbEntity
8
SK6
62
256
6
ByLayer
370
18
48
1
60
0
100
AcDbMText
10
-29.831725
20
-120.154897
30
0
210
0
220
0
230
1
1
\W0.7348;860.1-0710-036A1-GM X1BM
40
3.175
41
0
44
1.084337
50
0
71
7
72
5
7
iso_b_vert
0
DIMENSION
5
11D
100
AcDbEntity
8
SK2
62
256
6
ByLayer
370
18
48
1
60
0
100
AcDbDimension
2
_U0
10
55
20
-27.50012
30
0
11
27.5
21
-27.50012
31
0
70
32
71
2
72
1
41
1
210
0
220
0
230
1
3
Standard
100
AcDbAlignedDimension
13
0
23
-4
33
0
14
55
24
0
34
0
50
0
100
AcDbRotatedDimension
1001
ACAD
1000
DSTYLE
1002
{
1070
   371
1070
    13
1070
   372
1070
    13
1070
     3
1000

1070
   170
1070
     0
1070
   144
1040
1.0
1070
   277
1070
     2
1070
   284
1070
     8
1070
   278
1070
    46
1070
   146
1040
0.999966
1070
   345
1005
16
1070
   347
1005
16
1070
   346
1005
16
1070
   344
1005
11E
1070
   343
1005
11E
1070
   172
1070
     1
1070
    76
1070
     0
1070
    75
1070
     0
1070
   282
1070
     0
1070
   281
1070
     0
1070
    71
1070
     0
1070
    74
1070
     0
1070
   279
1070
     0
1070
   173
1070
     1
1070
   340
1005
118
1070
   271
1070
     1
1070
   272
1070
     2
1070
    77
1070
     1
1070
    73
1070
     1
1070
   171
1070
     3
1070
   274
1070
     4
1070
   177
1070
   150
1070
   176
1070
     9
1070
   178
1070
    43
1070
    78
1070
     8
1070
    48
1040
-0.1
1070
    41
1040
3.175
1070
   147
1040
1.75006
1070
    42
1040
1.5875
1070
    44
1040
3.175
1070
   140
1040
3.50012
1002
}
1001
ACAD_DSTYLE_DIM_LINETYPE
1070
   380
1005
16
1001
ACAD_DSTYLE_DIM_EXT1_LINETYPE
1070
   381
1005
16
1001
ACAD_DSTYLE_DIM_EXT2_LINETYPE
1070
   382
1005
16
0
DIMENSION
5
143
100
AcDbEntity
8
2
62
256
6
ByLayer
370
18
48
1
60
0
100
AcDbDimension
2
_U1
10
61.75006
20
3.55
30
0
11
61.75006
21
18.623216
31
0
70
32
71
1
72
1
41
1
210
0
220
0
230
1
3
Standard
100
AcDbAlignedDimension
13
53.7079
23
-3.55
33
0
14
53.7079
24
3.55
34
0
50
90
100
AcDbRotatedDimension
1001
ACAD
1000
DSTYLE
1002
{
1070
   371
1070
    13
1070
   372
1070
    13
1070
     3
1000

1070
   170
1070
     0
1070
   144
1040
1.0
1070
   277
1070
     2
1070
   284
1070
     8
1070
   278
1070
    46
1070
   146
1040
0.999966
1070
   345
1005
16
1070
   347
1005
16
1070
   346
1005
16
1070
   344
1005
11E
1070
   343
1005
11E
1070
   172
1070
     1
1070
    76
1070
     0
1070
    75
1070
     0
1070
   282
1070
     0
1070
   281
1070
     0
1070
    71
1070
     0
1070
    74
1070
     0
1070
   279
1070
     0
1070
   173
1070
     1
1070
   340
1005
118
1070
   271
1070
     1
1070
   272
1070
     2
1070
    77
1070
     1
1070
    73
1070
     0
1070
   171
1070
     3
1070
   274
1070
     4
1070
   177
1070
   150
1070
   176
1070
     9
1070
   178
1070
    43
1070
    78
1070
     8
1070
    48
1040
-0.1
1070
    41
1040
3.175
1070
   147
1040
1.75006
1070
    42
1040
1.5875
1070
    44
1040
3.175
1070
   140
1040
3.50012
1002
}
1001
ACAD_DSTYLE_DIM_LINETYPE
1070
   380
1005
16
1001
ACAD_DSTYLE_DIM_EXT1_LINETYPE
1070
   381
1005
16
1001
ACAD_DSTYLE_DIM_EXT2_LINETYPE
1070
   382
1005
16
0
DIMENSION
5
162
100
AcDbEntity
8
SK2
62
256
6
ByLayer
370
18
48
1
60
0
100
AcDbDimension
2
_U2
10
-39.24994
20
-4
30
0
11
-39.24994
21
18.10734
31
0
70
32
71
1
72
1
41
1
210
0
220
0
230
1
3
Standard
100
AcDbAlignedDimension
13
-36
23
4
33
0
14
-36
24
-4
34
0
50
90
100
AcDbRotatedDimension
1001
ACAD
1000
DSTYLE
1002
{
1070
   371
1070
    13
1070
   372
1070
    13
1070
     3
1000

1070
   170
1070
     0
1070
   144
1040
1.0
1070
   277
1070
     2
1070
   284
1070
     8
1070
   278
1070
    46
1070
   146
1040
0.999966
1070
   345
1005
16
1070
   347
1005
16
1070
   346
1005
16
1070
   344
1005
11E
1070
   343
1005
11E
1070
   172
1070
     1
1070
    76
1070
     0
1070
    75
1070
     0
1070
   282
1070
     0
1070
   281
1070
     0
1070
    71
1070
     0
1070
    74
1070
     0
1070
   279
1070
     0
1070
   173
1070
     1
1070
   340
1005
118
1070
   271
1070
     1
1070
   272
1070
     2
1070
    77
1070
     1
1070
    73
1070
     0
1070
   171
1070
     3
1070
   274
1070
     4
1070
   177
1070
   150
1070
   176
1070
     9
1070
   178
1070
    43
1070
    78
1070
     8
1070
    48
1040
-0.1
1070
    41
1040
3.175
1070
   147
1040
1.75006
1070
    42
1040
1.5875
1070
    44
1040
3.175
1070
   140
1040
3.50012
1002
}
1001
ACAD_DSTYLE_DIM_LINETYPE
1070
   380
1005
16
1001
ACAD_DSTYLE_DIM_EXT1_LINETYPE
1070
   381
1005
16
1001
ACAD_DSTYLE_DIM_EXT2_LINETYPE
1070
   382
1005
16
0
DIMENSION
5
180
100
AcDbEntity
8
SK2
62
256
6
ByLayer
370
18
48
1
60
0
100
AcDbDimension
2
_U3
10
0
20
-27.50012
30
0
11
-18
21
-27.50012
31
0
70
32
71
1
72
1
41
1
210
0
220
0
230
1
3
Standard
100
AcDbAlignedDimension
13
-36
23
-4
33
0
14
0
24
-4
34
0
50
0
100
AcDbRotatedDimension
1001
ACAD
1000
DSTYLE
1002
{
1070
   371
1070
    13
1070
   372
1070
    13
1070
     3
1000

1070
   170
1070
     0
1070
   144
1040
1.0
1070
   277
1070
     2
1070
   284
1070
     8
1070
   278
1070
    46
1070
   146
1040
0.999966
1070
   345
1005
16
1070
   347
1005
16
1070
   346
1005
16
1070
   344
1005
11E
1070
   343
1005
11E
1070
   172
1070
     1
1070
    76
1070
     0
1070
    75
1070
     0
1070
   282
1070
     0
1070
   281
1070
     0
1070
    71
1070
     0
1070
    74
1070
     0
1070
   279
1070
     0
1070
   173
1070
     1
1070
   340
1005
118
1070
   271
1070
     1
1070
   272
1070
     2
1070
    77
1070
     1
1070
    73
1070
     1
1070
   171
1070
     3
1070
   274
1070
     4
1070
   177
1070
   150
1070
   176
1070
     9
1070
   178
1070
    43
1070
    78
1070
     8
1070
    48
1040
-0.1
1070
    41
1040
3.175
1070
   147
1040
1.75006
1070
    42
1040
1.5875
1070
    44
1040
3.175
1070
   140
1040
3.50012
1002
}
1001
ACAD_DSTYLE_DIM_LINETYPE
1070
   380
1005
16
1001
ACAD_DSTYLE_DIM_EXT1_LINETYPE
1070
   381
1005
16
1001
ACAD_DSTYLE_DIM_EXT2_LINETYPE
1070
   382
1005
16
0
DIMENSION
5
19C
100
AcDbEntity
8
SK2
62
256
6
ByLayer
370
18
48
1
60
0
100
AcDbDimension
2
_U4
10
55
20
-18.74982
30
0
11
28.5
21
-18.74982
31
0
70
32
71
1
72
1
41
1
210
0
220
0
230
1
3
Standard
100
AcDbAlignedDimension
13
2
23
4.05
33
0
14
55
24
0
34
0
50
0
100
AcDbRotatedDimension
1001
ACAD
1000
DSTYLE
1002
{
1070
   371
1070
    13
1070
   372
1070
    13
1070
     3
1000

1070
   170
1070
     0
1070
   144
1040
1.0
1070
   277
1070
     2
1070
   284
1070
     8
1070
   278
1070
    46
1070
   146
1040
0.999966
1070
   345
1005
16
1070
   347
1005
16
1070
   346
1005
16
1070
   344
1005
11E
1070
   343
1005
11E
1070
   172
1070
     1
1070
    76
1070
     0
1070
    75
1070
     0
1070
   282
1070
     0
1070
   281
1070
     0
1070
    71
1070
     0
1070
    74
1070
     0
1070
   279
1070
     0
1070
   173
1070
     1
1070
   340
1005
118
1070
   271
1070
     1
1070
   272
1070
     2
1070
    77
1070
     1
1070
    73
1070
     1
1070
   171
1070
     3
1070
   274
1070
     4
1070
   177
1070
   150
1070
   176
1070
     9
1070
   178
1070
    43
1070
    78
1070
     8
1070
    48
1040
-0.1
1070
    41
1040
3.175
1070
   147
1040
1.75006
1070
    42
1040
1.5875
1070
    44
1040
3.175
1070
   140
1040
3.50012
1002
}
1001
ACAD_DSTYLE_DIM_LINETYPE
1070
   380
1005
16
1001
ACAD_DSTYLE_DIM_EXT1_LINETYPE
1070
   381
1005
16
1001
ACAD_DSTYLE_DIM_EXT2_LINETYPE
1070
   382
1005
16
0
DIMENSION
5
1B8
100
AcDbEntity
8
SK2
62
256
6
ByLayer
370
18
48
1
60
0
100
AcDbDimension
2
_U5
10
55
20
-10.82
30
0
11
36.65
21
-10.82
31
0
70
32
71
1
72
1
41
1
210
0
220
0
230
1
3
Standard
100
AcDbAlignedDimension
13
18.3
23
-3.55
33
0
14
55
24
0
34
0
50
0
100
AcDbRotatedDimension
1001
ACAD
1000
DSTYLE
1002
{
1070
   371
1070
    13
1070
   372
1070
    13
1070
     3
1000

1070
   170
1070
     0
1070
   144
1040
1.0
1070
   277
1070
     2
1070
   284
1070
     8
1070
   278
1070
    46
1070
   146
1040
1.25
1070
   345
1005
16
1070
   347
1005
16
1070
   346
1005
16
1070
   344
1005
11E
1070
   343
1005
11E
1070
   172
1070
     1
1070
    76
1070
     0
1070
    75
1070
     0
1070
   282
1070
     0
1070
   281
1070
     0
1070
    71
1070
     0
1070
    74
1070
     0
1070
   279
1070
     0
1070
   173
1070
     1
1070
   340
1005
118
1070
   271
1070
     1
1070
   272
1070
     2
1070
    77
1070
     1
1070
    73
1070
     1
1070
   171
1070
     3
1070
   274
1070
     4
1070
   177
1070
   150
1070
   176
1070
     9
1070
   178
1070
    43
1070
    78
1070
     8
1070
    48
1040
-0.1
1070
    41
1040
3.175
1070
   147
1040
0.42
1070
    42
1040
1.5875
1070
    44
1040
0.5
1070
   140
1040
2.8
1002
}
1001
ACAD_DSTYLE_DIM_LINETYPE
1070
   380
1005
16
1001
ACAD_DSTYLE_DIM_EXT1_LINETYPE
1070
   381
1005
16
1001
ACAD_DSTYLE_DIM_EXT2_LINETYPE
1070
   382
1005
16
0
DIMENSION
5
1D4
100
AcDbEntity
8
SK2
62
256
6
ByLayer
370
18
48
1
60
0
100
AcDbDimension
2
_U6
10
55
20
-37.50012
30
0
11
9.5
21
-37.50012
31
0
70
32
71
1
72
1
41
1
210
0
220
0
230
1
3
Standard
100
AcDbAlignedDimension
13
-36
23
0
33
0
14
55
24
0
34
0
50
0
100
AcDbRotatedDimension
1001
ACAD
1000
DSTYLE
1002
{
1070
   371
1070
    13
1070
   372
1070
    13
1070
     3
1000

1070
   170
1070
     0
1070
   144
1040
1.0
1070
   277
1070
     2
1070
   284
1070
     8
1070
   278
1070
    46
1070
   146
1040
0.999966
1070
   345
1005
16
1070
   347
1005
16
1070
   346
1005
16
1070
   344
1005
11E
1070
   343
1005
11E
1070
   172
1070
     1
1070
    76
1070
     0
1070
    75
1070
     0
1070
   282
1070
     0
1070
   281
1070
     0
1070
    71
1070
     0
1070
    74
1070
     0
1070
   279
1070
     0
1070
   173
1070
     1
1070
   340
1005
118
1070
   271
1070
     1
1070
   272
1070
     2
1070
    77
1070
     1
1070
    73
1070
     1
1070
   171
1070
     3
1070
   274
1070
     4
1070
   177
1070
   150
1070
   176
1070
     9
1070
   178
1070
    43
1070
    78
1070
     8
1070
    48
1040
-0.1
1070
    41
1040
3.175
1070
   147
1040
1.75006
1070
    42
1040
1.5875
1070
    44
1040
3.175
1070
   140
1040
3.50012
1002
}
1001
ACAD_DSTYLE_DIM_LINETYPE
1070
   380
1005
16
1001
ACAD_DSTYLE_DIM_EXT1_LINETYPE
1070
   381
1005
16
1001
ACAD_DSTYLE_DIM_EXT2_LINETYPE
1070
   382
1005
16
0
ENDSEC
0
SECTION
2
OBJECTS
0
DICTIONARY
5
260
330
0
100
AcDbDictionary
280
0
281
1
3
ACAD_GROUP
350
261
3
ACAD_MLINESTYLE
350
262
0
DICTIONARY
5
261
330
0
100
AcDbDictionary
280
0
281
1
0
DICTIONARY
5
262
330
0
100
AcDbDictionary
280
0
281
1
3
Standard
350
18
0
MLINESTYLE
5
18
330
262
100
AcDbMlineStyle
2
Standard
70
0
3

62
256
51
90
52
90
71
2
49
-0.5
62
256
6
ByLayer
49
0.5
62
256
6
ByLayer
0
RASTERVARIABLES
5
24e
330

100
AcDbRasterVariables
90
0
70
1
71
1
72
1
0
ENDSEC
0
EOF
