0
SECTION
2
HEADER
9
$ACADVER
1
AC1015
9
$DWGCODEPAGE
3
ANSI_1252
9
$HANDSEED
5
26c
9
$ANGBASE
50
0
9
$ANGDIR
70
0
9
$ATTMODE
70
1
9
$AUNITS
70
0
9
$AUPREC
70
0
9
$CECOLOR
62
256
9
$CELTSCALE
40
1
9
$CELTYPE
6
ByLayer
9
$CELWEIGHT
370
18
9
$CLAYER
8
0
9
$CMLJUST
70
0
9
$CMLSCALE
40
1
9
$CMLSTYLE
2
Standard
9
$DIMSTYLE
2
Standard
9
$TEXTSIZE
40
0.2
9
$TEXTSTYLE
7
Standard
9
$LUNITS
70
2
9
$LUPREC
70
4
9
$EXTNAMES
290
1
9
$INSUNITS
70
4
9
$LTSCALE
40
1
9
$LWDISPLAY
290
1
9
$PDMODE
70
0
9
$PDSIZE
40
0
9
$PLINEGEN
70
0
0
ENDSEC
0
SECTION
2
CLASSES
0
CLASS
1
RASTERVARIABLES
2
AcDbRasterVariables
3
ISM
90
0
280
0
281
0
0
ENDSEC
0
SECTION
2
TABLES
0
TABLE
2
VPORT
5
262
100
AcDbSymbolTable
0
VPORT
5
1
100
AcDbSymbolTableRecord
100
AcDbViewportTableRecord
2
*Active
70
0
10
0
20
0
11
1
21
1
12
-1
22
1
13
0
23
0
14
0.5
24
0.5
15
10
25
10
16
0
26
0
36
1
17
0
27
0
37
0
0
ENDTAB
0
TABLE
2
LTYPE
5
263
100
AcDbSymbolTable
0
LTYPE
5
14
100
AcDbSymbolTableRecord
100
AcDbLinetypeTableRecord
70
0
2
ByBlock
3

72
65
73
0
40
0
0
LTYPE
5
15
100
AcDbSymbolTableRecord
100
AcDbLinetypeTableRecord
70
0
2
ByLayer
3

72
65
73
0
40
0
0
LTYPE
5
16
100
AcDbSymbolTableRecord
100
AcDbLinetypeTableRecord
70
0
2
Continuous
3
Solid line
72
65
73
0
40
0
0
LTYPE
5
6E
100
AcDbSymbolTableRecord
100
AcDbLinetypeTableRecord
70
0
2
CENTER
3
____ _ ____ _ ____ _ ____
72
65
73
4
40
47.5
49
22
74
0
49
-8.5
74
0
49
8.5
74
0
49
-8.5
74
0
0
LTYPE
5
6F
100
AcDbSymbolTableRecord
100
AcDbLinetypeTableRecord
70
0
2
DASHED
3
__ __ __ __ __ __ __ __ __
72
65
73
2
40
25.72
49
12.86
74
0
49
-12.86
74
0
0
ENDTAB
0
TABLE
2
LAYER
5
264
100
AcDbSymbolTable
0
LAYER
5
10
100
AcDbSymbolTableRecord
100
AcDbLayerTableRecord
2
0
70
0
62
7
6
Continuous
290
1
370
-3
390
0
0
LAYER
5
71
100
AcDbSymbolTableRecord
100
AcDbLayerTableRecord
2
80
70
0
62
-6
6
Continuous
290
1
370
-3
390
0
0
LAYER
5
73
100
AcDbSymbolTableRecord
100
AcDbLayerTableRecord
2
81
70
0
62
-3
6
Continuous
290
1
370
-3
390
0
0
LAYER
5
75
100
AcDbSymbolTableRecord
100
AcDbLayerTableRecord
2
1
70
0
62
4
6
Continuous
290
1
370
-3
390
0
0
LAYER
5
A6
100
AcDbSymbolTableRecord
100
AcDbLayerTableRecord
2
4
70
0
62
-2
6
CENTER
290
1
370
-3
390
0
0
LAYER
5
126
100
AcDbSymbolTableRecord
100
AcDbLayerTableRecord
2
Defpoints
70
0
62
7
6
Continuous
290
0
370
-3
390
0
0
LAYER
5
153
100
AcDbSymbolTableRecord
100
AcDbLayerTableRecord
2
2
70
0
62
7
6
Continuous
290
1
370
-3
390
0
0
LAYER
5
24e
100
AcDbSymbolTableRecord
100
AcDbLayerTableRecord
2
SK1
70
0
62
4
6
Continuous
290
1
370
-3
390
0
0
LAYER
5
24f
100
AcDbSymbolTableRecord
100
AcDbLayerTableRecord
2
SK4
70
0
62
2
6
CENTER
290
1
370
-3
390
0
0
LAYER
5
250
100
AcDbSymbolTableRecord
100
AcDbLayerTableRecord
2
SK2
70
0
62
7
6
Continuous
290
1
370
-3
390
0
0
LAYER
5
251
100
AcDbSymbolTableRecord
100
AcDbLayerTableRecord
2
SK6
70
0
62
5
6
Continuous
290
1
370
-3
390
0
0
ENDTAB
0
TABLE
2
STYLE
5
265
100
AcDbSymbolTable
0
STYLE
5
11
100
AcDbSymbolTableRecord
100
AcDbTextStyleTableRecord
2
Standard
3
txt
70
0
71
0
40
0
41
1
42
0
50
0
0
STYLE
5
117
100
AcDbSymbolTableRecord
100
AcDbTextStyleTableRecord
2
iso_b_vert
3
simplex.shx
70
0
71
0
40
0
41
1
42
0
50
0
0
STYLE
5
118
100
AcDbSymbolTableRecord
100
AcDbTextStyleTableRecord
2
DWGDirectTextStyle
3
simplex
70
0
71
0
40
0
41
1
42
0
50
0
0
ENDTAB
0
TABLE
2
DIMSTYLE
5
266
100
AcDbSymbolTable
100
AcDbDimStyleTable
0
DIMSTYLE
105
27
100
AcDbSymbolTableRecord
100
AcDbDimStyleTableRecord
2
Standard
70
0
3
<>
41
0.18
42
0.0625
44
0.18
140
0.18
147
0.09
73
0
74
0
77
1
271
2
275
0
278
52
280
0
340
11
0
ENDTAB
0
TABLE
2
VIEW
5
267
100
AcDbSymbolTable
0
ENDTAB
0
TABLE
2
UCS
5
268
100
AcDbSymbolTable
0
ENDTAB
0
TABLE
2
APPID
5
269
100
AcDbSymbolTable
0
APPID
5
12
100
AcDbSymbolTableRecord
100
AcDbRegAppTableRecord
2
ACAD
70
0
0
APPID
5
11B
100
AcDbSymbolTableRecord
100
AcDbRegAppTableRecord
2
ACAD_DSTYLE_DIMBREAK
70
0
0
APPID
5
20D
100
AcDbSymbolTableRecord
100
AcDbRegAppTableRecord
2
ACAD_DSTYLE_DIM_LINETYPE
70
0
0
APPID
5
20E
100
AcDbSymbolTableRecord
100
AcDbRegAppTableRecord
2
ACAD_DSTYLE_DIM_EXT1_LINETYPE
70
0
0
APPID
5
20F
100
AcDbSymbolTableRecord
100
AcDbRegAppTableRecord
2
ACAD_DSTYLE_DIM_EXT2_LINETYPE
70
0
0
APPID
5
24A
100
AcDbSymbolTableRecord
100
AcDbRegAppTableRecord
2
ACAD_MLEADERVER
70
0
0
ENDTAB
0
TABLE
2
BLOCK_RECORD
5
26a
100
AcDbSymbolTable
0
BLOCK_RECORD
5
1F
100
AcDbSymbolTableRecord
100
AcDbBlockTableRecord
2
*Model_Space
340
0
70
0
0
BLOCK_RECORD
5
1B
100
AcDbSymbolTableRecord
100
AcDbBlockTableRecord
2
*Paper_Space
340
0
70
0
0
BLOCK_RECORD
5
23
100
AcDbSymbolTableRecord
100
AcDbBlockTableRecord
2
*Paper_Space0
340
0
70
0
0
BLOCK_RECORD
5
11D
100
AcDbSymbolTableRecord
100
AcDbBlockTableRecord
2
_Closed
340
0
70
0
0
BLOCK_RECORD
5
127
100
AcDbSymbolTableRecord
100
AcDbBlockTableRecord
2
*D2
340
0
70
0
0
BLOCK_RECORD
5
133
100
AcDbSymbolTableRecord
100
AcDbBlockTableRecord
2
_U0
340
0
70
0
0
BLOCK_RECORD
5
145
100
AcDbSymbolTableRecord
100
AcDbBlockTableRecord
2
*D4
340
0
70
0
0
BLOCK_RECORD
5
154
100
AcDbSymbolTableRecord
100
AcDbBlockTableRecord
2
_U1
340
0
70
0
0
BLOCK_RECORD
5
164
100
AcDbSymbolTableRecord
100
AcDbBlockTableRecord
2
*D6
340
0
70
0
0
BLOCK_RECORD
5
172
100
AcDbSymbolTableRecord
100
AcDbBlockTableRecord
2
_U2
340
0
70
0
0
BLOCK_RECORD
5
182
100
AcDbSymbolTableRecord
100
AcDbBlockTableRecord
2
*D8
340
0
70
0
0
BLOCK_RECORD
5
18E
100
AcDbSymbolTableRecord
100
AcDbBlockTableRecord
2
_U3
340
0
70
0
0
BLOCK_RECORD
5
19E
100
AcDbSymbolTableRecord
100
AcDbBlockTableRecord
2
*D10
340
0
70
0
0
BLOCK_RECORD
5
1AA
100
AcDbSymbolTableRecord
100
AcDbBlockTableRecord
2
_U4
340
0
70
0
0
BLOCK_RECORD
5
1BA
100
AcDbSymbolTableRecord
100
AcDbBlockTableRecord
2
*D12
340
0
70
0
0
BLOCK_RECORD
5
1C6
100
AcDbSymbolTableRecord
100
AcDbBlockTableRecord
2
_U5
340
0
70
0
0
BLOCK_RECORD
5
1D6
100
AcDbSymbolTableRecord
100
AcDbBlockTableRecord
2
*D14
340
0
70
0
0
BLOCK_RECORD
5
1E2
100
AcDbSymbolTableRecord
100
AcDbBlockTableRecord
2
_U6
340
0
70
0
0
ENDTAB
0
ENDSEC
0
SECTION
2
BLOCKS
0
BLOCK
5
20
100
AcDbEntity
8
0
100
AcDbBlockBegin
2
*Model_Space
70
0
10
0
20
0
30
0
3
*Model_Space
0
ENDBLK
5
21
100
AcDbEntity
8
0
100
AcDbBlockEnd
0
BLOCK
5
1C
100
AcDbEntity
8
0
100
AcDbBlockBegin
2
*Paper_Space
70
0
10
0
20
0
30
0
3
*Paper_Space
0
ENDBLK
5
1D
100
AcDbEntity
8
0
100
AcDbBlockEnd
0
BLOCK
5
24
100
AcDbEntity
8
0
100
AcDbBlockBegin
2
*Paper_Space0
70
0
10
0
20
0
30
0
3
*Paper_Space0
0
ENDBLK
5
25
100
AcDbEntity
8
0
100
AcDbBlockEnd
0
BLOCK
5
11E
100
AcDbEntity
8
0
100
AcDbBlockBegin
2
_Closed
70
0
10
0
20
0
30
0
3
_Closed
0
LINE
5
120
100
AcDbEntity
8
0
62
256
6
ByLayer
370
-2
48
1
60
0
100
AcDbLine
10
-1
20
0.166667
30
0
11
0
21
0
31
0
39
0
210
0
220
0
230
1
0
LINE
5
121
100
AcDbEntity
8
0
62
256
6
ByLayer
370
-2
48
1
60
0
100
AcDbLine
10
0
20
0
30
0
11
-1
21
-0.166667
31
0
39
0
210
0
220
0
230
1
0
LINE
5
122
100
AcDbEntity
8
0
62
256
6
ByLayer
370
-2
48
1
60
0
100
AcDbLine
10
-1
20
0.166667
30
0
11
-1
21
-0.166667
31
0
39
0
210
0
220
0
230
1
0
LINE
5
123
100
AcDbEntity
8
0
62
256
6
ByLayer
370
-2
48
1
60
0
100
AcDbLine
10
0
20
0
30
0
11
-1
21
0
31
0
39
0
210
0
220
0
230
1
0
ENDBLK
5
11F
100
AcDbEntity
8
0
100
AcDbBlockEnd
0
BLOCK
5
128
100
AcDbEntity
8
0
100
AcDbBlockBegin
2
*D2
70
1
10
0
20
0
30
0
3
*D2
0
LINE
5
12A
100
AcDbEntity
8
0
62
256
6
ByLayer
370
-2
48
1
60
0
100
AcDbLine
10
0
20
-5.5875
30
0
11
0
21
-30.67512
31
0
39
0
210
0
220
0
230
1
0
LINE
5
12B
100
AcDbEntity
8
0
62
256
6
ByLayer
370
-2
48
1
60
0
100
AcDbLine
10
55
20
-1.5875
30
0
11
55
21
-30.67512
31
0
39
0
210
0
220
0
230
1
0
LINE
5
12C
100
AcDbEntity
8
0
62
256
6
ByLayer
370
-2
48
1
60
0
100
AcDbLine
10
3.175
20
-27.50012
30
0
11
51.825
21
-27.50012
31
0
39
0
210
0
220
0
230
1
0
SOLID
5
12D
100
AcDbEntity
8
0
62
256
6
ByLayer
370
-1
48
1
60
0
100
AcDbTrace
10
3.175
20
-26.970953
30
0
11
3.175
21
-28.029287
31
0
12
0
22
-27.50012
32
0
13
0
23
-27.50012
33
0
39
0
210
0
220
0
230
1
0
SOLID
5
12E
100
AcDbEntity
8
0
62
256
6
ByLayer
370
-1
48
1
60
0
100
AcDbTrace
10
51.825
20
-28.029287
30
0
11
51.825
21
-26.970953
31
0
12
55
22
-27.50012
32
0
13
55
23
-27.50012
33
0
39
0
210
0
220
0
230
1
0
MTEXT
5
12F
100
AcDbEntity
8
0
62
256
6
ByLayer
370
18
48
1
60
0
100
AcDbMText
10
27.5
20
-20.193619
30
0
210
0
220
0
230
1
1
\A1;55
40
3.50012
41
0
44
1
50
0
71
5
72
5
7
iso_b_vert
0
POINT
5
130
100
AcDbEntity
8
Defpoints
62
0
6
ByLayer
370
-1
48
1
60
0
100
AcDbPoint
10
0
20
-4
30
0
39
0
210
0
220
0
230
1
50
360
0
POINT
5
131
100
AcDbEntity
8
Defpoints
62
0
6
ByLayer
370
-1
48
1
60
0
100
AcDbPoint
10
55
20
0
30
0
39
0
210
0
220
0
230
1
50
360
0
POINT
5
132
100
AcDbEntity
8
Defpoints
62
0
6
ByLayer
370
-1
48
1
60
0
100
AcDbPoint
10
55
20
-27.50012
30
0
39
0
210
0
220
0
230
1
50
360
0
ENDBLK
5
129
100
AcDbEntity
8
0
100
AcDbBlockEnd
0
BLOCK
5
140
100
AcDbEntity
8
0
100
AcDbBlockBegin
2
_U0
70
0
10
0
20
0
30
0
3
_U0
0
MTEXT
5
134
100
AcDbEntity
8
SK2
62
256
6
ByLayer
370
18
48
1
60
0
100
AcDbMText
10
22.270389
20
-26.467451
30
0
210
0
220
0
230
1
1
\W0.7468;55.00
40
3.50012
41
0
44
1.084337
50
0
71
7
72
5
7
iso_b_vert
0
MTEXT
5
135
100
AcDbEntity
8
SK2
62
256
6
ByLayer
370
18
48
1
60
0
100
AcDbMText
10
18.744329
20
-26.400814
30
0
210
0
220
0
230
1
1
\W0.1790;(
40
3.175
41
0
44
1.084337
50
0
71
7
72
5
7
iso_b_vert
0
MTEXT
5
136
100
AcDbEntity
8
SK2
62
256
6
ByLayer
370
18
48
1
60
0
100
AcDbMText
10
36.258393
20
-26.400814
30
0
210
0
220
0
230
1
1
\W0.1969;)
40
3.175
41
0
44
1.084337
50
0
71
7
72
5
7
iso_b_vert
0
LINE
5
137
100
AcDbEntity
8
SK2
62
256
6
ByLayer
370
13
48
1
60
0
100
AcDbLine
10
0
20
-5.5875
30
0
11
0
21
-30.67512
31
0
39
0
210
0
220
0
230
1
0
LINE
5
138
100
AcDbEntity
8
SK2
62
256
6
ByLayer
370
13
48
1
60
0
100
AcDbLine
10
55
20
-1.5875
30
0
11
55
21
-30.67512
31
0
39
0
210
0
220
0
230
1
0
LINE
5
139
100
AcDbEntity
8
SK2
62
256
6
ByLayer
370
13
48
1
60
0
100
AcDbLine
10
0
20
-27.50012
30
0
11
55
21
-27.50012
31
0
39
0
210
0
220
0
230
1
0
LINE
5
13A
100
AcDbEntity
8
SK2
62
256
6
ByLayer
370
13
48
1
60
0
100
AcDbLine
10
0
20
-27.50012
30
0
11
3.174998
21
-27.082123
31
0
39
0
210
0
220
0
230
1
0
LINE
5
13B
100
AcDbEntity
8
SK2
62
256
6
ByLayer
370
13
48
1
60
0
100
AcDbLine
10
0
20
-27.50012
30
0
11
3.175002
21
-27.918117
31
0
39
0
210
0
220
0
230
1
0
LINE
5
13C
100
AcDbEntity
8
SK2
62
256
6
ByLayer
370
13
48
1
60
0
100
AcDbLine
10
3.174998
20
-27.082123
30
0
11
3.175002
21
-27.918117
31
0
39
0
210
0
220
0
230
1
0
LINE
5
13D
100
AcDbEntity
8
SK2
62
256
6
ByLayer
370
13
48
1
60
0
100
AcDbLine
10
55
20
-27.50012
30
0
11
51.825002
21
-27.918117
31
0
39
0
210
0
220
0
230
1
0
LINE
5
13E
100
AcDbEntity
8
SK2
62
256
6
ByLayer
370
13
48
1
60
0
100
AcDbLine
10
55
20
-27.50012
30
0
11
51.824998
21
-27.082123
31
0
39
0
210
0
220
0
230
1
0
LINE
5
13F
100
AcDbEntity
8
SK2
62
256
6
ByLayer
370
13
48
1
60
0
100
AcDbLine
10
51.825002
20
-27.918117
30
0
11
51.824998
21
-27.082123
31
0
39
0
210
0
220
0
230
1
0
ENDBLK
5
141
100
AcDbEntity
8
0
100
AcDbBlockEnd
0
BLOCK
5
146
100
AcDbEntity
8
0
100
AcDbBlockBegin
2
*D4
70
1
10
0
20
0
30
0
3
*D4
0
LINE
5
148
100
AcDbEntity
8
0
62
256
6
ByLayer
370
-2
48
1
60
0
100
AcDbLine
10
55.4774
20
-3.05
30
0
11
64.92506
21
-3.05
31
0
39
0
210
0
220
0
230
1
0
LINE
5
149
100
AcDbEntity
8
0
62
256
6
ByLayer
370
-2
48
1
60
0
100
AcDbLine
10
55.4774
20
3.05
30
0
11
64.92506
21
3.05
31
0
39
0
210
0
220
0
230
1
0
LINE
5
14A
100
AcDbEntity
8
0
62
256
6
ByLayer
370
-2
48
1
60
0
100
AcDbLine
10
61.75006
20
3.05
30
0
11
61.75006
21
26.679759
31
0
39
0
210
0
220
0
230
1
0
LINE
5
14B
100
AcDbEntity
8
0
62
256
6
ByLayer
370
-2
48
1
60
0
100
AcDbLine
10
61.75006
20
-6.225
30
0
11
61.75006
21
-9.4
31
0
39
0
210
0
220
0
230
1
0
LINE
5
14C
100
AcDbEntity
8
0
62
256
6
ByLayer
370
-2
48
1
60
0
100
AcDbLine
10
61.75006
20
6.225
30
0
11
61.75006
21
9.4
31
0
39
0
210
0
220
0
230
1
0
SOLID
5
14D
100
AcDbEntity
8
0
62
256
6
ByLayer
370
-1
48
1
60
0
100
AcDbTrace
10
62.279227
20
-6.225
30
0
11
61.220893
21
-6.225
31
0
12
61.75006
22
-3.05
32
0
13
61.75006
23
-3.05
33
0
39
0
210
0
220
0
230
1
0
SOLID
5
14E
100
AcDbEntity
8
0
62
256
6
ByLayer
370
-1
48
1
60
0
100
AcDbTrace
10
61.220893
20
6.225
30
0
11
62.279227
21
6.225
31
0
12
61.75006
22
3.05
32
0
13
61.75006
23
3.05
33
0
39
0
210
0
220
0
230
1
0
MTEXT
5
14F
100
AcDbEntity
8
0
62
256
6
ByLayer
370
18
48
1
60
0
100
AcDbMText
10
54.443559
20
18.03988
30
0
210
0
220
0
230
1
1
\A1;6.1
40
3.50012
41
0
44
1
50
90
71
5
72
5
7
iso_b_vert
0
POINT
5
150
100
AcDbEntity
8
Defpoints
62
0
6
ByLayer
370
-1
48
1
60
0
100
AcDbPoint
10
53.8899
20
-3.05
30
0
39
0
210
0
220
0
230
1
50
360
0
POINT
5
151
100
AcDbEntity
8
Defpoints
62
0
6
ByLayer
370
-1
48
1
60
0
100
AcDbPoint
10
53.8899
20
3.05
30
0
39
0
210
0
220
0
230
1
50
360
0
POINT
5
152
100
AcDbEntity
8
Defpoints
62
0
6
ByLayer
370
-1
48
1
60
0
100
AcDbPoint
10
61.75006
20
3.05
30
0
39
0
210
0
220
0
230
1
50
360
0
ENDBLK
5
147
100
AcDbEntity
8
0
100
AcDbBlockEnd
0
BLOCK
5
15F
100
AcDbEntity
8
0
100
AcDbBlockBegin
2
_U1
70
0
10
0
20
0
30
0
3
_U1
0
MTEXT
5
155
100
AcDbEntity
8
2
62
256
6
ByLayer
370
18
48
1
60
0
100
AcDbMText
10
61.060403
20
7.207505
30
0
210
0
220
0
230
1
1
\W0.6563;6.10
40
3.50012
41
0
44
1.084337
50
90
71
7
72
5
7
iso_b_vert
0
LINE
5
156
100
AcDbEntity
8
2
62
256
6
ByLayer
370
13
48
1
60
0
100
AcDbLine
10
55.4774
20
-3.05
30
0
11
64.92506
21
-3.05
31
0
39
0
210
0
220
0
230
1
0
LINE
5
157
100
AcDbEntity
8
2
62
256
6
ByLayer
370
13
48
1
60
0
100
AcDbLine
10
55.4774
20
3.05
30
0
11
64.92506
21
3.05
31
0
39
0
210
0
220
0
230
1
0
LINE
5
158
100
AcDbEntity
8
2
62
256
6
ByLayer
370
13
48
1
60
0
100
AcDbLine
10
61.75006
20
14.389783
30
0
11
61.75006
21
-11.8003
31
0
39
0
210
0
220
0
230
1
0
LINE
5
159
100
AcDbEntity
8
2
62
256
6
ByLayer
370
13
48
1
60
0
100
AcDbLine
10
61.75006
20
-3.05
30
0
11
62.168057
21
-6.224998
31
0
39
0
210
0
220
0
230
1
0
LINE
5
15A
100
AcDbEntity
8
2
62
256
6
ByLayer
370
13
48
1
60
0
100
AcDbLine
10
61.75006
20
-3.05
30
0
11
61.332063
21
-6.225002
31
0
39
0
210
0
220
0
230
1
0
LINE
5
15B
100
AcDbEntity
8
2
62
256
6
ByLayer
370
13
48
1
60
0
100
AcDbLine
10
62.168057
20
-6.224998
30
0
11
61.332063
21
-6.225002
31
0
39
0
210
0
220
0
230
1
0
LINE
5
15C
100
AcDbEntity
8
2
62
256
6
ByLayer
370
13
48
1
60
0
100
AcDbLine
10
61.75006
20
3.05
30
0
11
61.332063
21
6.224998
31
0
39
0
210
0
220
0
230
1
0
LINE
5
15D
100
AcDbEntity
8
2
62
256
6
ByLayer
370
13
48
1
60
0
100
AcDbLine
10
61.75006
20
3.05
30
0
11
62.168057
21
6.225002
31
0
39
0
210
0
220
0
230
1
0
LINE
5
15E
100
AcDbEntity
8
2
62
256
6
ByLayer
370
13
48
1
60
0
100
AcDbLine
10
61.332063
20
6.224998
30
0
11
62.168057
21
6.225002
31
0
39
0
210
0
220
0
230
1
0
ENDBLK
5
160
100
AcDbEntity
8
0
100
AcDbBlockEnd
0
BLOCK
5
165
100
AcDbEntity
8
0
100
AcDbBlockBegin
2
*D6
70
1
10
0
20
0
30
0
3
*D6
0
LINE
5
167
100
AcDbEntity
8
0
62
256
6
ByLayer
370
-2
48
1
60
0
100
AcDbLine
10
-37.5875
20
4
30
0
11
-42.42494
21
4
31
0
39
0
210
0
220
0
230
1
0
LINE
5
168
100
AcDbEntity
8
0
62
256
6
ByLayer
370
-2
48
1
60
0
100
AcDbLine
10
-37.5875
20
-4
30
0
11
-42.42494
21
-4
31
0
39
0
210
0
220
0
230
1
0
LINE
5
169
100
AcDbEntity
8
0
62
256
6
ByLayer
370
-2
48
1
60
0
100
AcDbLine
10
-39.24994
20
4
30
0
11
-39.24994
21
24.830487
31
0
39
0
210
0
220
0
230
1
0
LINE
5
16A
100
AcDbEntity
8
0
62
256
6
ByLayer
370
-2
48
1
60
0
100
AcDbLine
10
-39.24994
20
7.175
30
0
11
-39.24994
21
10.35
31
0
39
0
210
0
220
0
230
1
0
LINE
5
16B
100
AcDbEntity
8
0
62
256
6
ByLayer
370
-2
48
1
60
0
100
AcDbLine
10
-39.24994
20
-7.175
30
0
11
-39.24994
21
-10.35
31
0
39
0
210
0
220
0
230
1
0
SOLID
5
16C
100
AcDbEntity
8
0
62
256
6
ByLayer
370
-1
48
1
60
0
100
AcDbTrace
10
-39.779107
20
7.175
30
0
11
-38.720773
21
7.175
31
0
12
-39.24994
22
4
32
0
13
-39.24994
23
4
33
0
39
0
210
0
220
0
230
1
0
SOLID
5
16D
100
AcDbEntity
8
0
62
256
6
ByLayer
370
-1
48
1
60
0
100
AcDbTrace
10
-38.720773
20
-7.175
30
0
11
-39.779107
21
-7.175
31
0
12
-39.24994
22
-4
32
0
13
-39.24994
23
-4
33
0
39
0
210
0
220
0
230
1
0
MTEXT
5
16E
100
AcDbEntity
8
0
62
256
6
ByLayer
370
18
48
1
60
0
100
AcDbMText
10
-46.556441
20
18.10734
30
0
210
0
220
0
230
1
1
\A1;8
40
3.50012
41
0
44
1
50
90
71
5
72
5
7
iso_b_vert
0
POINT
5
16F
100
AcDbEntity
8
Defpoints
62
0
6
ByLayer
370
-1
48
1
60
0
100
AcDbPoint
10
-36
20
4
30
0
39
0
210
0
220
0
230
1
50
360
0
POINT
5
170
100
AcDbEntity
8
Defpoints
62
0
6
ByLayer
370
-1
48
1
60
0
100
AcDbPoint
10
-36
20
-4
30
0
39
0
210
0
220
0
230
1
50
360
0
POINT
5
171
100
AcDbEntity
8
Defpoints
62
0
6
ByLayer
370
-1
48
1
60
0
100
AcDbPoint
10
-39.24994
20
-4
30
0
39
0
210
0
220
0
230
1
50
360
0
ENDBLK
5
166
100
AcDbEntity
8
0
100
AcDbBlockEnd
0
BLOCK
5
17D
100
AcDbEntity
8
0
100
AcDbBlockBegin
2
_U2
70
0
10
0
20
0
30
0
3
_U2
0
MTEXT
5
173
100
AcDbEntity
8
SK2
62
256
6
ByLayer
370
18
48
1
60
0
100
AcDbMText
10
-39.939597
20
14.157505
30
0
210
0
220
0
230
1
1
\W0.7346;8.00
40
3.50012
41
0
44
1.084337
50
90
71
7
72
5
7
iso_b_vert
0
LINE
5
174
100
AcDbEntity
8
SK2
62
256
6
ByLayer
370
13
48
1
60
0
100
AcDbLine
10
-37.5875
20
4
30
0
11
-42.42494
21
4
31
0
39
0
210
0
220
0
230
1
0
LINE
5
175
100
AcDbEntity
8
SK2
62
256
6
ByLayer
370
13
48
1
60
0
100
AcDbLine
10
-37.5875
20
-4
30
0
11
-42.42494
21
-4
31
0
39
0
210
0
220
0
230
1
0
LINE
5
176
100
AcDbEntity
8
SK2
62
256
6
ByLayer
370
13
48
1
60
0
100
AcDbLine
10
-39.24994
20
-4
30
0
11
-39.24994
21
22.21468
31
0
39
0
210
0
220
0
230
1
0
LINE
5
177
100
AcDbEntity
8
SK2
62
256
6
ByLayer
370
13
48
1
60
0
100
AcDbLine
10
-39.24994
20
4
30
0
11
-38.831943
21
0.825002
31
0
39
0
210
0
220
0
230
1
0
LINE
5
178
100
AcDbEntity
8
SK2
62
256
6
ByLayer
370
13
48
1
60
0
100
AcDbLine
10
-39.24994
20
4
30
0
11
-39.667937
21
0.824998
31
0
39
0
210
0
220
0
230
1
0
LINE
5
179
100
AcDbEntity
8
SK2
62
256
6
ByLayer
370
13
48
1
60
0
100
AcDbLine
10
-38.831943
20
0.825002
30
0
11
-39.667937
21
0.824998
31
0
39
0
210
0
220
0
230
1
0
LINE
5
17A
100
AcDbEntity
8
SK2
62
256
6
ByLayer
370
13
48
1
60
0
100
AcDbLine
10
-39.24994
20
-4
30
0
11
-39.667937
21
-0.825002
31
0
39
0
210
0
220
0
230
1
0
LINE
5
17B
100
AcDbEntity
8
SK2
62
256
6
ByLayer
370
13
48
1
60
0
100
AcDbLine
10
-39.24994
20
-4
30
0
11
-38.831943
21
-0.824998
31
0
39
0
210
0
220
0
230
1
0
LINE
5
17C
100
AcDbEntity
8
SK2
62
256
6
ByLayer
370
13
48
1
60
0
100
AcDbLine
10
-39.667937
20
-0.825002
30
0
11
-38.831943
21
-0.824998
31
0
39
0
210
0
220
0
230
1
0
ENDBLK
5
17E
100
AcDbEntity
8
0
100
AcDbBlockEnd
0
BLOCK
5
183
100
AcDbEntity
8
0
100
AcDbBlockBegin
2
*D8
70
1
10
0
20
0
30
0
3
*D8
0
LINE
5
185
100
AcDbEntity
8
0
62
256
6
ByLayer
370
-2
48
1
60
0
100
AcDbLine
10
-36
20
-5.5875
30
0
11
-36
21
-30.67512
31
0
39
0
210
0
220
0
230
1
0
LINE
5
186
100
AcDbEntity
8
0
62
256
6
ByLayer
370
-2
48
1
60
0
100
AcDbLine
10
0
20
-5.5875
30
0
11
0
21
-30.67512
31
0
39
0
210
0
220
0
230
1
0
LINE
5
187
100
AcDbEntity
8
0
62
256
6
ByLayer
370
-2
48
1
60
0
100
AcDbLine
10
-32.825
20
-27.50012
30
0
11
-3.175
21
-27.50012
31
0
39
0
210
0
220
0
230
1
0
SOLID
5
188
100
AcDbEntity
8
0
62
256
6
ByLayer
370
-1
48
1
60
0
100
AcDbTrace
10
-32.825
20
-26.970953
30
0
11
-32.825
21
-28.029287
31
0
12
-36
22
-27.50012
32
0
13
-36
23
-27.50012
33
0
39
0
210
0
220
0
230
1
0
SOLID
5
189
100
AcDbEntity
8
0
62
256
6
ByLayer
370
-1
48
1
60
0
100
AcDbTrace
10
-3.175
20
-28.029287
30
0
11
-3.175
21
-26.970953
31
0
12
0
22
-27.50012
32
0
13
0
23
-27.50012
33
0
39
0
210
0
220
0
230
1
0
MTEXT
5
18A
100
AcDbEntity
8
0
62
256
6
ByLayer
370
18
48
1
60
0
100
AcDbMText
10
-18
20
-20.193619
30
0
210
0
220
0
230
1
1
\A1;36
40
3.50012
41
0
44
1
50
0
71
5
72
5
7
iso_b_vert
0
POINT
5
18B
100
AcDbEntity
8
Defpoints
62
0
6
ByLayer
370
-1
48
1
60
0
100
AcDbPoint
10
-36
20
-4
30
0
39
0
210
0
220
0
230
1
50
360
0
POINT
5
18C
100
AcDbEntity
8
Defpoints
62
0
6
ByLayer
370
-1
48
1
60
0
100
AcDbPoint
10
0
20
-4
30
0
39
0
210
0
220
0
230
1
50
360
0
POINT
5
18D
100
AcDbEntity
8
Defpoints
62
0
6
ByLayer
370
-1
48
1
60
0
100
AcDbPoint
10
0
20
-27.50012
30
0
39
0
210
0
220
0
230
1
50
360
0
ENDBLK
5
184
100
AcDbEntity
8
0
100
AcDbBlockEnd
0
BLOCK
5
199
100
AcDbEntity
8
0
100
AcDbBlockBegin
2
_U3
70
0
10
0
20
0
30
0
3
_U3
0
MTEXT
5
18F
100
AcDbEntity
8
SK2
62
256
6
ByLayer
370
18
48
1
60
0
100
AcDbMText
10
-23.229611
20
-26.467451
30
0
210
0
220
0
230
1
1
\W0.7468;36.00
40
3.50012
41
0
44
1.084337
50
0
71
7
72
5
7
iso_b_vert
0
LINE
5
190
100
AcDbEntity
8
SK2
62
256
6
ByLayer
370
13
48
1
60
0
100
AcDbLine
10
-36
20
-5.5875
30
0
11
-36
21
-30.67512
31
0
39
0
210
0
220
0
230
1
0
LINE
5
191
100
AcDbEntity
8
SK2
62
256
6
ByLayer
370
13
48
1
60
0
100
AcDbLine
10
0
20
-5.5875
30
0
11
0
21
-30.67512
31
0
39
0
210
0
220
0
230
1
0
LINE
5
192
100
AcDbEntity
8
SK2
62
256
6
ByLayer
370
13
48
1
60
0
100
AcDbLine
10
-36
20
-27.50012
30
0
11
0
21
-27.50012
31
0
39
0
210
0
220
0
230
1
0
LINE
5
193
100
AcDbEntity
8
SK2
62
256
6
ByLayer
370
13
48
1
60
0
100
AcDbLine
10
-36
20
-27.50012
30
0
11
-32.825002
21
-27.082123
31
0
39
0
210
0
220
0
230
1
0
LINE
5
194
100
AcDbEntity
8
SK2
62
256
6
ByLayer
370
13
48
1
60
0
100
AcDbLine
10
-36
20
-27.50012
30
0
11
-32.824998
21
-27.918117
31
0
39
0
210
0
220
0
230
1
0
LINE
5
195
100
AcDbEntity
8
SK2
62
256
6
ByLayer
370
13
48
1
60
0
100
AcDbLine
10
-32.825002
20
-27.082123
30
0
11
-32.824998
21
-27.918117
31
0
39
0
210
0
220
0
230
1
0
LINE
5
196
100
AcDbEntity
8
SK2
62
256
6
ByLayer
370
13
48
1
60
0
100
AcDbLine
10
0
20
-27.50012
30
0
11
-3.174998
21
-27.918117
31
0
39
0
210
0
220
0
230
1
0
LINE
5
197
100
AcDbEntity
8
SK2
62
256
6
ByLayer
370
13
48
1
60
0
100
AcDbLine
10
0
20
-27.50012
30
0
11
-3.175002
21
-27.082123
31
0
39
0
210
0
220
0
230
1
0
LINE
5
198
100
AcDbEntity
8
SK2
62
256
6
ByLayer
370
13
48
1
60
0
100
AcDbLine
10
-3.174998
20
-27.918117
30
0
11
-3.175002
21
-27.082123
31
0
39
0
210
0
220
0
230
1
0
ENDBLK
5
19A
100
AcDbEntity
8
0
100
AcDbBlockEnd
0
BLOCK
5
19F
100
AcDbEntity
8
0
100
AcDbBlockBegin
2
*D10
70
1
10
0
20
0
30
0
3
*D10
0
LINE
5
1A1
100
AcDbEntity
8
0
62
256
6
ByLayer
370
-2
48
1
60
0
100
AcDbLine
10
2
20
1.9625
30
0
11
2
21
-21.92482
31
0
39
0
210
0
220
0
230
1
0
LINE
5
1A2
100
AcDbEntity
8
0
62
256
6
ByLayer
370
-2
48
1
60
0
100
AcDbLine
10
55
20
-1.5875
30
0
11
55
21
-21.92482
31
0
39
0
210
0
220
0
230
1
0
LINE
5
1A3
100
AcDbEntity
8
0
62
256
6
ByLayer
370
-2
48
1
60
0
100
AcDbLine
10
5.175
20
-18.74982
30
0
11
51.825
21
-18.74982
31
0
39
0
210
0
220
0
230
1
0
SOLID
5
1A4
100
AcDbEntity
8
0
62
256
6
ByLayer
370
-1
48
1
60
0
100
AcDbTrace
10
5.175
20
-18.220653
30
0
11
5.175
21
-19.278987
31
0
12
2
22
-18.74982
32
0
13
2
23
-18.74982
33
0
39
0
210
0
220
0
230
1
0
SOLID
5
1A5
100
AcDbEntity
8
0
62
256
6
ByLayer
370
-1
48
1
60
0
100
AcDbTrace
10
51.825
20
-19.278987
30
0
11
51.825
21
-18.220653
31
0
12
55
22
-18.74982
32
0
13
55
23
-18.74982
33
0
39
0
210
0
220
0
230
1
0
MTEXT
5
1A6
100
AcDbEntity
8
0
62
256
6
ByLayer
370
18
48
1
60
0
100
AcDbMText
10
28.5
20
-11.443319
30
0
210
0
220
0
230
1
1
\A1;53
40
3.50012
41
0
44
1
50
0
71
5
72
5
7
iso_b_vert
0
POINT
5
1A7
100
AcDbEntity
8
Defpoints
62
0
6
ByLayer
370
-1
48
1
60
0
100
AcDbPoint
10
2
20
3.55
30
0
39
0
210
0
220
0
230
1
50
360
0
POINT
5
1A8
100
AcDbEntity
8
Defpoints
62
0
6
ByLayer
370
-1
48
1
60
0
100
AcDbPoint
10
55
20
0
30
0
39
0
210
0
220
0
230
1
50
360
0
POINT
5
1A9
100
AcDbEntity
8
Defpoints
62
0
6
ByLayer
370
-1
48
1
60
0
100
AcDbPoint
10
55
20
-18.74982
30
0
39
0
210
0
220
0
230
1
50
360
0
ENDBLK
5
1A0
100
AcDbEntity
8
0
100
AcDbBlockEnd
0
BLOCK
5
1B5
100
AcDbEntity
8
0
100
AcDbBlockBegin
2
_U4
70
0
10
0
20
0
30
0
3
_U4
0
MTEXT
5
1AB
100
AcDbEntity
8
SK2
62
256
6
ByLayer
370
18
48
1
60
0
100
AcDbMText
10
23.270389
20
-17.717151
30
0
210
0
220
0
230
1
1
\W0.7468;53.00
40
3.50012
41
0
44
1.084337
50
0
71
7
72
5
7
iso_b_vert
0
LINE
5
1AC
100
AcDbEntity
8
SK2
62
256
6
ByLayer
370
13
48
1
60
0
100
AcDbLine
10
2
20
1.9625
30
0
11
2
21
-21.92482
31
0
39
0
210
0
220
0
230
1
0
LINE
5
1AD
100
AcDbEntity
8
SK2
62
256
6
ByLayer
370
13
48
1
60
0
100
AcDbLine
10
55
20
-1.5875
30
0
11
55
21
-21.92482
31
0
39
0
210
0
220
0
230
1
0
LINE
5
1AE
100
AcDbEntity
8
SK2
62
256
6
ByLayer
370
13
48
1
60
0
100
AcDbLine
10
2
20
-18.74982
30
0
11
55
21
-18.74982
31
0
39
0
210
0
220
0
230
1
0
LINE
5
1AF
100
AcDbEntity
8
SK2
62
256
6
ByLayer
370
13
48
1
60
0
100
AcDbLine
10
2
20
-18.74982
30
0
11
5.174998
21
-18.331823
31
0
39
0
210
0
220
0
230
1
0
LINE
5
1B0
100
AcDbEntity
8
SK2
62
256
6
ByLayer
370
13
48
1
60
0
100
AcDbLine
10
2
20
-18.74982
30
0
11
5.175002
21
-19.167817
31
0
39
0
210
0
220
0
230
1
0
LINE
5
1B1
100
AcDbEntity
8
SK2
62
256
6
ByLayer
370
13
48
1
60
0
100
AcDbLine
10
5.174998
20
-18.331823
30
0
11
5.175002
21
-19.167817
31
0
39
0
210
0
220
0
230
1
0
LINE
5
1B2
100
AcDbEntity
8
SK2
62
256
6
ByLayer
370
13
48
1
60
0
100
AcDbLine
10
55
20
-18.74982
30
0
11
51.825002
21
-19.167817
31
0
39
0
210
0
220
0
230
1
0
LINE
5
1B3
100
AcDbEntity
8
SK2
62
256
6
ByLayer
370
13
48
1
60
0
100
AcDbLine
10
55
20
-18.74982
30
0
11
51.824998
21
-18.331823
31
0
39
0
210
0
220
0
230
1
0
LINE
5
1B4
100
AcDbEntity
8
SK2
62
256
6
ByLayer
370
13
48
1
60
0
100
AcDbLine
10
51.825002
20
-19.167817
30
0
11
51.824998
21
-18.331823
31
0
39
0
210
0
220
0
230
1
0
ENDBLK
5
1B6
100
AcDbEntity
8
0
100
AcDbBlockEnd
0
BLOCK
5
1BB
100
AcDbEntity
8
0
100
AcDbBlockBegin
2
*D12
70
1
10
0
20
0
30
0
3
*D12
0
LINE
5
1BD
100
AcDbEntity
8
0
62
256
6
ByLayer
370
-2
48
1
60
0
100
AcDbLine
10
23.4
20
-4.6375
30
0
11
23.4
21
-11.32
31
0
39
0
210
0
220
0
230
1
0
LINE
5
1BE
100
AcDbEntity
8
0
62
256
6
ByLayer
370
-2
48
1
60
0
100
AcDbLine
10
55
20
-1.5875
30
0
11
55
21
-11.32
31
0
39
0
210
0
220
0
230
1
0
LINE
5
1BF
100
AcDbEntity
8
0
62
256
6
ByLayer
370
-2
48
1
60
0
100
AcDbLine
10
26.575
20
-10.82
30
0
11
51.825
21
-10.82
31
0
39
0
210
0
220
0
230
1
0
SOLID
5
1C0
100
AcDbEntity
8
0
62
256
6
ByLayer
370
-1
48
1
60
0
100
AcDbTrace
10
26.575
20
-10.290833
30
0
11
26.575
21
-11.349167
31
0
12
23.4
22
-10.82
32
0
13
23.4
23
-10.82
33
0
39
0
210
0
220
0
230
1
0
SOLID
5
1C1
100
AcDbEntity
8
0
62
256
6
ByLayer
370
-1
48
1
60
0
100
AcDbTrace
10
51.825
20
-11.349167
30
0
11
51.825
21
-10.290833
31
0
12
55
22
-10.82
32
0
13
55
23
-10.82
33
0
39
0
210
0
220
0
230
1
0
MTEXT
5
1C2
100
AcDbEntity
8
0
62
256
6
ByLayer
370
18
48
1
60
0
100
AcDbMText
10
39.2
20
-4.975
30
0
210
0
220
0
230
1
1
\A1;31.6
40
2.8
41
0
44
1
50
0
71
5
72
5
7
iso_b_vert
0
POINT
5
1C3
100
AcDbEntity
8
Defpoints
62
0
6
ByLayer
370
-1
48
1
60
0
100
AcDbPoint
10
23.4
20
-3.05
30
0
39
0
210
0
220
0
230
1
50
360
0
POINT
5
1C4
100
AcDbEntity
8
Defpoints
62
0
6
ByLayer
370
-1
48
1
60
0
100
AcDbPoint
10
55
20
0
30
0
39
0
210
0
220
0
230
1
50
360
0
POINT
5
1C5
100
AcDbEntity
8
Defpoints
62
0
6
ByLayer
370
-1
48
1
60
0
100
AcDbPoint
10
55
20
-10.82
30
0
39
0
210
0
220
0
230
1
50
360
0
ENDBLK
5
1BC
100
AcDbEntity
8
0
100
AcDbBlockEnd
0
BLOCK
5
1D1
100
AcDbEntity
8
0
100
AcDbBlockBegin
2
_U5
70
0
10
0
20
0
30
0
3
_U5
0
MTEXT
5
1C7
100
AcDbEntity
8
SK2
62
256
6
ByLayer
370
18
48
1
60
0
100
AcDbMText
10
35.366401
20
-10.973893
30
0
210
0
220
0
230
1
1
\W0.6864;31.60
40
2.8
41
0
44
1.084337
50
0
71
7
72
5
7
iso_b_vert
0
LINE
5
1C8
100
AcDbEntity
8
SK2
62
256
6
ByLayer
370
13
48
1
60
0
100
AcDbLine
10
23.4
20
-4.6375
30
0
11
23.4
21
-11.32
31
0
39
0
210
0
220
0
230
1
0
LINE
5
1C9
100
AcDbEntity
8
SK2
62
256
6
ByLayer
370
13
48
1
60
0
100
AcDbLine
10
55
20
-1.5875
30
0
11
55
21
-11.32
31
0
39
0
210
0
220
0
230
1
0
LINE
5
1CA
100
AcDbEntity
8
SK2
62
256
6
ByLayer
370
13
48
1
60
0
100
AcDbLine
10
23.4
20
-10.82
30
0
11
55
21
-10.82
31
0
39
0
210
0
220
0
230
1
0
LINE
5
1CB
100
AcDbEntity
8
SK2
62
256
6
ByLayer
370
13
48
1
60
0
100
AcDbLine
10
23.4
20
-10.82
30
0
11
26.574998
21
-10.402003
31
0
39
0
210
0
220
0
230
1
0
LINE
5
1CC
100
AcDbEntity
8
SK2
62
256
6
ByLayer
370
13
48
1
60
0
100
AcDbLine
10
23.4
20
-10.82
30
0
11
26.575002
21
-11.237997
31
0
39
0
210
0
220
0
230
1
0
LINE
5
1CD
100
AcDbEntity
8
SK2
62
256
6
ByLayer
370
13
48
1
60
0
100
AcDbLine
10
26.574998
20
-10.402003
30
0
11
26.575002
21
-11.237997
31
0
39
0
210
0
220
0
230
1
0
LINE
5
1CE
100
AcDbEntity
8
SK2
62
256
6
ByLayer
370
13
48
1
60
0
100
AcDbLine
10
55
20
-10.82
30
0
11
51.825002
21
-11.237997
31
0
39
0
210
0
220
0
230
1
0
LINE
5
1CF
100
AcDbEntity
8
SK2
62
256
6
ByLayer
370
13
48
1
60
0
100
AcDbLine
10
55
20
-10.82
30
0
11
51.824998
21
-10.402003
31
0
39
0
210
0
220
0
230
1
0
LINE
5
1D0
100
AcDbEntity
8
SK2
62
256
6
ByLayer
370
13
48
1
60
0
100
AcDbLine
10
51.825002
20
-11.237997
30
0
11
51.824998
21
-10.402003
31
0
39
0
210
0
220
0
230
1
0
ENDBLK
5
1D2
100
AcDbEntity
8
0
100
AcDbBlockEnd
0
BLOCK
5
1D7
100
AcDbEntity
8
0
100
AcDbBlockBegin
2
*D14
70
1
10
0
20
0
30
0
3
*D14
0
LINE
5
1D9
100
AcDbEntity
8
0
62
256
6
ByLayer
370
-2
48
1
60
0
100
AcDbLine
10
-36
20
-1.5875
30
0
11
-36
21
-40.67512
31
0
39
0
210
0
220
0
230
1
0
LINE
5
1DA
100
AcDbEntity
8
0
62
256
6
ByLayer
370
-2
48
1
60
0
100
AcDbLine
10
55
20
-1.5875
30
0
11
55
21
-40.67512
31
0
39
0
210
0
220
0
230
1
0
LINE
5
1DB
100
AcDbEntity
8
0
62
256
6
ByLayer
370
-2
48
1
60
0
100
AcDbLine
10
-32.825
20
-37.50012
30
0
11
51.825
21
-37.50012
31
0
39
0
210
0
220
0
230
1
0
SOLID
5
1DC
100
AcDbEntity
8
0
62
256
6
ByLayer
370
-1
48
1
60
0
100
AcDbTrace
10
-32.825
20
-36.970953
30
0
11
-32.825
21
-38.029287
31
0
12
-36
22
-37.50012
32
0
13
-36
23
-37.50012
33
0
39
0
210
0
220
0
230
1
0
SOLID
5
1DD
100
AcDbEntity
8
0
62
256
6
ByLayer
370
-1
48
1
60
0
100
AcDbTrace
10
51.825
20
-38.029287
30
0
11
51.825
21
-36.970953
31
0
12
55
22
-37.50012
32
0
13
55
23
-37.50012
33
0
39
0
210
0
220
0
230
1
0
MTEXT
5
1DE
100
AcDbEntity
8
0
62
256
6
ByLayer
370
18
48
1
60
0
100
AcDbMText
10
9.5
20
-30.193619
30
0
210
0
220
0
230
1
1
\A1;91
40
3.50012
41
0
44
1
50
0
71
5
72
5
7
iso_b_vert
0
POINT
5
1DF
100
AcDbEntity
8
Defpoints
62
0
6
ByLayer
370
-1
48
1
60
0
100
AcDbPoint
10
-36
20
0
30
0
39
0
210
0
220
0
230
1
50
360
0
POINT
5
1E0
100
AcDbEntity
8
Defpoints
62
0
6
ByLayer
370
-1
48
1
60
0
100
AcDbPoint
10
55
20
0
30
0
39
0
210
0
220
0
230
1
50
360
0
POINT
5
1E1
100
AcDbEntity
8
Defpoints
62
0
6
ByLayer
370
-1
48
1
60
0
100
AcDbPoint
10
55
20
-37.50012
30
0
39
0
210
0
220
0
230
1
50
360
0
ENDBLK
5
1D8
100
AcDbEntity
8
0
100
AcDbBlockEnd
0
BLOCK
5
1ED
100
AcDbEntity
8
0
100
AcDbBlockBegin
2
_U6
70
0
10
0
20
0
30
0
3
_U6
0
MTEXT
5
1E3
100
AcDbEntity
8
SK2
62
256
6
ByLayer
370
18
48
1
60
0
100
AcDbMText
10
4.707837
20
-36.467451
30
0
210
0
220
0
230
1
1
\W0.6864;91.00
40
3.50012
41
0
44
1.084337
50
0
71
7
72
5
7
iso_b_vert
0
LINE
5
1E4
100
AcDbEntity
8
SK2
62
256
6
ByLayer
370
13
48
1
60
0
100
AcDbLine
10
-36
20
-1.5875
30
0
11
-36
21
-40.67512
31
0
39
0
210
0
220
0
230
1
0
LINE
5
1E5
100
AcDbEntity
8
SK2
62
256
6
ByLayer
370
13
48
1
60
0
100
AcDbLine
10
55
20
-1.5875
30
0
11
55
21
-40.67512
31
0
39
0
210
0
220
0
230
1
0
LINE
5
1E6
100
AcDbEntity
8
SK2
62
256
6
ByLayer
370
13
48
1
60
0
100
AcDbLine
10
-36
20
-37.50012
30
0
11
55
21
-37.50012
31
0
39
0
210
0
220
0
230
1
0
LINE
5
1E7
100
AcDbEntity
8
SK2
62
256
6
ByLayer
370
13
48
1
60
0
100
AcDbLine
10
-36
20
-37.50012
30
0
11
-32.825002
21
-37.082123
31
0
39
0
210
0
220
0
230
1
0
LINE
5
1E8
100
AcDbEntity
8
SK2
62
256
6
ByLayer
370
13
48
1
60
0
100
AcDbLine
10
-36
20
-37.50012
30
0
11
-32.824998
21
-37.918117
31
0
39
0
210
0
220
0
230
1
0
LINE
5
1E9
100
AcDbEntity
8
SK2
62
256
6
ByLayer
370
13
48
1
60
0
100
AcDbLine
10
-32.825002
20
-37.082123
30
0
11
-32.824998
21
-37.918117
31
0
39
0
210
0
220
0
230
1
0
LINE
5
1EA
100
AcDbEntity
8
SK2
62
256
6
ByLayer
370
13
48
1
60
0
100
AcDbLine
10
55
20
-37.50012
30
0
11
51.825002
21
-37.918117
31
0
39
0
210
0
220
0
230
1
0
LINE
5
1EB
100
AcDbEntity
8
SK2
62
256
6
ByLayer
370
13
48
1
60
0
100
AcDbLine
10
55
20
-37.50012
30
0
11
51.824998
21
-37.082123
31
0
39
0
210
0
220
0
230
1
0
LINE
5
1EC
100
AcDbEntity
8
SK2
62
256
6
ByLayer
370
13
48
1
60
0
100
AcDbLine
10
51.825002
20
-37.918117
30
0
11
51.824998
21
-37.082123
31
0
39
0
210
0
220
0
230
1
0
ENDBLK
5
1EE
100
AcDbEntity
8
0
100
AcDbBlockEnd
0
ENDSEC
0
SECTION
2
ENTITIES
0
ARC
5
B2
100
AcDbEntity
8
1
62
256
6
ByLayer
370
18
48
1
60
0
100
AcDbCircle
39
0
10
1.476148
20
3.817241
30
0
40
0.799999999999995
210
0
220
0
230
1
100
AcDbArc
50
202.691881
51
270.03581
0
ARC
5
B3
100
AcDbEntity
8
1
62
256
6
ByLayer
370
18
48
1
60
0
100
AcDbCircle
39
0
10
1.476148
20
-3.817241
30
0
40
0.799999999999995
210
0
220
0
230
1
100
AcDbArc
50
89.96419
51
157.308119
0
ARC
5
B4
100
AcDbEntity
8
1
62
256
6
ByLayer
370
18
48
1
60
0
100
AcDbCircle
39
0
10
0
20
3.2
30
0
40
0.800000000000005
210
0
220
0
230
1
100
AcDbArc
50
22.691881
51
39.785674
0
ARC
5
B5
100
AcDbEntity
8
1
62
256
6
ByLayer
370
18
48
1
60
0
100
AcDbCircle
39
0
10
0
20
-3.2
30
0
40
0.800000000000005
210
0
220
0
230
1
100
AcDbArc
50
320.219722
51
337.308119
0
ARC
5
B6
100
AcDbEntity
8
SK2
62
256
6
ByLayer
370
13
48
1
60
0
100
AcDbCircle
39
0
10
55
20
0
30
0
40
20
210
0
220
0
230
1
100
AcDbArc
50
9.606349
51
70.000153
0
ARC
5
B7
100
AcDbEntity
8
SK2
62
256
6
ByLayer
370
13
48
1
60
0
100
AcDbCircle
39
0
10
55
20
0
30
0
40
20
210
0
220
0
230
1
100
AcDbArc
50
289.999847
51
350.393651
0
ELLIPSE
5
B8
100
AcDbEntity
8
1
62
256
6
ByLayer
370
18
48
1
60
0
100
AcDbEllipse
10
3.601845
20
-1.257257
30
0
11
-0.00350429067554756
21
-0.00936589274235353
31
0
210
0
220
0
230
1
40
0.16633
41
-1.99345974277821
42
-0.425075716089339
0
ELLIPSE
5
B9
100
AcDbEntity
8
1
62
256
6
ByLayer
370
18
48
1
60
0
100
AcDbEllipse
10
3.602413
20
2.264801
30
0
11
-1.36512258070884E-05
21
0.00999999068219736
31
0
210
0
220
0
230
1
40
0.011203
41
-2.47702767808183
42
-0.90706667233205
0
ELLIPSE
5
BA
100
AcDbEntity
8
1
62
256
6
ByLayer
370
18
48
1
60
0
100
AcDbEllipse
10
3.636746
20
2.260626
30
0
11
-0.00247562551974564
21
-0.00968871912514674
31
0
210
0
220
0
230
1
40
0.310359
41
0.70860743602191
42
2.27338864043381
0
ELLIPSE
5
BB
100
AcDbEntity
8
1
62
256
6
ByLayer
370
18
48
1
60
0
100
AcDbEllipse
10
3.567107
20
-1.24728
30
0
11
0.00190351962178726
21
0.00981715911297514
31
0
210
0
220
0
230
1
40
0.478362
41
1.24598685084431
42
2.66580153152696
0
POINT
5
70
100
AcDbEntity
8
80
62
256
6
ByLayer
370
18
48
1
60
0
100
AcDbPoint
10
0
20
0
30
0
39
0
210
0
220
0
230
1
50
360
0
POINT
5
72
100
AcDbEntity
8
81
62
256
6
ByLayer
370
18
48
1
60
0
100
AcDbPoint
10
55
20
0
30
0
39
0
210
0
220
0
230
1
50
360
0
POINT
5
74
100
AcDbEntity
8
1
62
256
6
ByLayer
370
18
48
1
60
0
100
AcDbPoint
10
-36
20
0
30
0
39
0
210
0
220
0
230
1
50
360
0
POINT
5
76
100
AcDbEntity
8
1
62
256
6
ByLayer
370
18
48
1
60
1
100
AcDbPoint
10
0
20
-4
30
0
39
0
210
0
220
0
230
1
50
360
0
POINT
5
77
100
AcDbEntity
8
1
62
256
6
ByLayer
370
18
48
1
60
1
100
AcDbPoint
10
55
20
0
30
0
39
0
210
0
220
0
230
1
50
360
0
POINT
5
78
100
AcDbEntity
8
1
62
256
6
ByLayer
370
18
48
1
60
1
100
AcDbPoint
10
53.8899
20
-3.05
30
0
39
0
210
0
220
0
230
1
50
360
0
POINT
5
79
100
AcDbEntity
8
1
62
256
6
ByLayer
370
18
48
1
60
1
100
AcDbPoint
10
53.8899
20
3.05
30
0
39
0
210
0
220
0
230
1
50
360
0
POINT
5
7A
100
AcDbEntity
8
1
62
256
6
ByLayer
370
18
48
1
60
1
100
AcDbPoint
10
-36
20
4
30
0
39
0
210
0
220
0
230
1
50
360
0
POINT
5
7B
100
AcDbEntity
8
1
62
256
6
ByLayer
370
18
48
1
60
1
100
AcDbPoint
10
-36
20
-4
30
0
39
0
210
0
220
0
230
1
50
360
0
POINT
5
7C
100
AcDbEntity
8
1
62
256
6
ByLayer
370
18
48
1
60
1
100
AcDbPoint
10
-36
20
-4
30
0
39
0
210
0
220
0
230
1
50
360
0
POINT
5
7D
100
AcDbEntity
8
1
62
256
6
ByLayer
370
18
48
1
60
1
100
AcDbPoint
10
0
20
-4
30
0
39
0
210
0
220
0
230
1
50
360
0
POINT
5
7E
100
AcDbEntity
8
1
62
256
6
ByLayer
370
18
48
1
60
1
100
AcDbPoint
10
2
20
3.55
30
0
39
0
210
0
220
0
230
1
50
360
0
POINT
5
7F
100
AcDbEntity
8
1
62
256
6
ByLayer
370
18
48
1
60
1
100
AcDbPoint
10
55
20
0
30
0
39
0
210
0
220
0
230
1
50
360
0
POINT
5
80
100
AcDbEntity
8
1
62
256
6
ByLayer
370
18
48
1
60
1
100
AcDbPoint
10
23.4
20
-3.05
30
0
39
0
210
0
220
0
230
1
50
360
0
POINT
5
81
100
AcDbEntity
8
1
62
256
6
ByLayer
370
18
48
1
60
1
100
AcDbPoint
10
55
20
0
30
0
39
0
210
0
220
0
230
1
50
360
0
POINT
5
82
100
AcDbEntity
8
1
62
256
6
ByLayer
370
18
48
1
60
1
100
AcDbPoint
10
-36
20
0
30
0
39
0
210
0
220
0
230
1
50
360
0
POINT
5
83
100
AcDbEntity
8
1
62
256
6
ByLayer
370
18
48
1
60
1
100
AcDbPoint
10
55
20
0
30
0
39
0
210
0
220
0
230
1
50
360
0
SPLINE
5
BC
100
AcDbEntity
8
1
62
256
6
ByLayer
370
18
48
1
60
0
100
AcDbSpline
70
4
71
3
72
8
73
4
40
0
40
0
40
0
40
0
40
1
40
1
40
1
40
1
41
1
10
53.9103821310894
20
-2.8825183543469
30
0
41
1
10
53.9061433554851
20
-2.89491110600429
30
0
41
1
10
53.9019198725037
20
-2.90730430330157
30
0
41
1
10
53.8977119597262
20
-2.91969801062379
30
0
0
SPLINE
5
BD
100
AcDbEntity
8
1
62
256
6
ByLayer
370
18
48
1
60
0
100
AcDbSpline
70
4
71
3
72
14
73
10
40
0
40
0
40
0
40
0
40
0.276812983765973
40
0.276812983765973
40
0.516039619511742
40
0.516039619511742
40
0.786701478855202
40
0.786701478855202
40
1
40
1
40
1
40
1
41
1
10
53.5597982110964
20
-0.0567333953684681
30
0
41
1
10
53.5605408551589
20
-0.0570170868894024
30
0
41
1
10
53.5612752574454
20
-0.0576705033128064
30
0
41
1
10
53.5624996180189
20
-0.0593441166251409
30
0
41
1
10
53.5630263265127
20
-0.0603254812935177
30
0
41
1
10
53.5639864118278
20
-0.0626956924788544
30
0
41
1
10
53.5644138444007
20
-0.0641586213004643
30
0
41
1
10
53.5649438802835
20
-0.066945325952787
30
0
41
1
10
53.5651013018185
20
-0.0682664815828389
30
0
41
1
10
53.5651529793856
20
-0.0695833027341166
30
0
0
SPLINE
5
BE
100
AcDbEntity
8
1
62
256
6
ByLayer
370
18
48
1
60
0
100
AcDbSpline
70
4
71
3
72
28
73
24
40
0
40
0
40
0
40
0
40
0.0624999999999996
40
0.0624999999999996
40
0.124999999999999
40
0.124999999999999
40
0.249999999999999
40
0.249999999999999
40
0.312499999999999
40
0.312499999999999
40
0.374999999999999
40
0.374999999999999
40
0.5
40
0.5
40
0.625
40
0.625
40
0.6875
40
0.6875
40
0.75
40
0.75
40
0.875
40
0.875
40
1
40
1
40
1
40
1
41
1
10
3.60249324594281
20
2.25692910025381
30
1E-16
41
1
10
3.60248702805018
20
2.20650645143098
30
1E-16
41
1
10
3.60248001060046
20
2.15346494934656
30
1E-16
41
1
10
3.60246453526378
20
2.04216804922916
30
-1E-16
41
1
10
3.60245605689576
20
1.98378788373915
30
-1E-16
41
1
10
3.60242899866154
20
1.80312144300086
30
-1E-16
41
1
10
3.60240873675718
20
1.67471969284961
30
-1E-16
41
1
10
3.60237562837034
20
1.47040191733686
30
-1E-16
41
1
10
3.602364133603
20
1.40033302434676
30
-1E-16
41
1
10
3.60234025978554
20
1.25617794474965
30
-1E-16
41
1
10
3.60232785469242
20
1.18194100672531
30
-1E-16
41
1
10
3.60228989287077
20
0.956477805571666
30
-1E-16
41
1
10
3.60226333550929
20
0.800879272232436
30
0
41
1
10
3.60220820581262
20
0.482949604048684
30
0
41
1
10
3.60218003810812
20
0.322950438337699
30
0
41
1
10
3.60213645070468
20
0.0814522333654963
30
0
41
1
10
3.60212169502057
20
0.0007015388547984
30
0
41
1
10
3.60209160759013
20
-0.16131016647094
30
0
41
1
10
3.6020762084475
20
-0.242920218621037
30
0
41
1
10
3.60202940736175
20
-0.485932774986452
30
0
41
1
10
3.60199765649963
20
-0.644305080648081
30
0
41
1
10
3.60193182981635
20
-0.954015048569261
30
1E-16
41
1
10
3.6018976503141
20
-1.10580255245401
30
1E-16
41
1
10
3.60186176858858
20
-1.25288324727953
30
1E-16
0
SPLINE
5
BF
100
AcDbEntity
8
1
62
256
6
ByLayer
370
18
48
1
60
0
100
AcDbSpline
70
4
71
3
72
50
73
46
40
0
40
0
40
0
40
0
40
0.0908636569462694
40
0.0908636569462694
40
0.136295485419404
40
0.136295485419404
40
0.181727313892538
40
0.181727313892538
40
0.227159142365672
40
0.227159142365672
40
0.272590970838806
40
0.272590970838806
40
0.31802279931194
40
0.31802279931194
40
0.363454627785074
40
0.363454627785074
40
0.408886456258209
40
0.408886456258209
40
0.454318284731343
40
0.454318284731343
40
0.499750113204477
40
0.499750113204477
40
0.545181941677611
40
0.545181941677611
40
0.590613770150745
40
0.590613770150745
40
0.636045598623879
40
0.636045598623879
40
0.681477427097014
40
0.681477427097014
40
0.726909255570148
40
0.726909255570148
40
0.772341084043282
40
0.772341084043282
40
0.817772912516416
40
0.817772912516416
40
0.86320474098955
40
0.86320474098955
40
0.908636569462685
40
0.908636569462685
40
0.954068397935819
40
0.954068397935819
40
0.999500226408953
40
0.999500226408953
40
1
40
1
40
1
40
1
41
1
10
3.64224917486936
20
2.37730856055077
30
1E-16
41
1
10
4.16205188958864
20
2.23544724225155
30
-1E-16
41
1
10
4.68208243095228
20
2.07539250667387
30
-1E-16
41
1
10
5.46380253462644
20
1.81164323701199
30
-1E-16
41
1
10
5.72490264182443
20
1.71967229632944
30
-1E-16
41
1
10
6.24579865424067
20
1.52878630999214
30
-1E-16
41
1
10
6.50559730232266
20
1.42947226755803
30
-1E-16
41
1
10
7.02512911360651
20
1.22556153111469
30
-1E-16
41
1
10
7.28498898900617
20
1.12125116468954
30
-1E-16
41
1
10
7.80479826667766
20
0.907736253180389
30
-1E-16
41
1
10
8.06475405737169
20
0.798527244530817
30
0
41
1
10
8.58572895510491
20
0.577320910373174
30
0
41
1
10
8.84661721476982
20
0.465398343031609
30
0
41
1
10
9.36691800439138
20
0.239962544319297
30
0
41
1
10
9.62663272540723
20
0.126290885782936
30
0
41
1
10
10.1462275778271
20
-0.100566432850684
30
0
41
1
10
10.406122861761
20
-0.213717477218324
30
0
41
1
10
10.9261421251023
20
-0.439388117880355
30
0
41
1
10
11.1863193678192
20
-0.551975023600249
30
0
41
1
10
11.707593102493
20
-0.774147874576329
30
0
41
1
10
11.9673989913894
20
-0.88313962521471
30
1E-16
41
1
10
12.4854137292842
20
-1.09693646606272
30
1E-16
41
1
10
12.7436005710201
20
-1.20176662968558
30
1E-16
41
1
10
13.259298362031
20
-1.40520583057361
30
1E-16
41
1
10
13.5168319354727
20
-1.50379067871287
30
1E-16
41
1
10
14.0313200175611
20
-1.69464847164215
30
1E-16
41
1
10
14.2882510737493
20
-1.78694549620161
30
1E-16
41
1
10
14.802410164987
20
-1.96348814362261
30
1E-16
41
1
10
15.0596628405273
20
-2.0477102485325
30
1E-16
41
1
10
15.5745932005289
20
-2.20789068729192
30
1E-16
41
1
10
15.832241912983
20
-2.2838739400197
30
-1E-16
41
1
10
16.3488925305455
20
-2.42595203761857
30
-1E-16
41
1
10
16.6079303836778
20
-2.49202285900077
30
-1E-16
41
1
10
17.1273191498015
20
-2.61425766039767
30
-1E-16
41
1
10
17.3880726389609
20
-2.67044397816213
30
-1E-16
41
1
10
17.9086187977831
20
-2.7705019634997
30
-1E-16
41
1
10
18.1686317041384
20
-2.81461628718901
30
0
41
1
10
18.688118019844
20
-2.89105926145027
30
0
41
1
10
18.9475971657516
20
-2.92333030687038
30
0
41
1
10
19.4672932748961
20
-2.9751859398196
30
0
41
1
10
19.7273820139822
20
-2.99488960531883
30
0
41
1
10
20.24806040427
20
-3.02169661735792
30
0
41
1
10
20.5085493861352
20
-3.02871389199262
30
0
41
1
10
20.7715323651199
20
-3.02928536351186
30
0
41
1
10
20.7743938092406
20
-3.0292908103759
30
0
41
1
10
20.7772552264798
20
-3.02929548600082
30
0
0
SPLINE
5
C0
100
AcDbEntity
8
1
62
256
6
ByLayer
370
18
48
1
60
0
100
AcDbSpline
70
4
71
3
72
32
73
28
40
0
40
0
40
0
40
0
40
0.0521312966281102
40
0.0521312966281102
40
0.111373090588851
40
0.111373090588851
40
0.170614884549593
40
0.170614884549593
40
0.229856678510334
40
0.229856678510334
40
0.289098472471075
40
0.289098472471075
40
0.407582060392561
40
0.407582060392561
40
0.466823854353304
40
0.466823854353304
40
0.526065648314048
40
0.526065648314048
40
0.644549236235536
40
0.644549236235536
40
0.70379103019628
40
0.70379103019628
40
0.763032824157024
40
0.763032824157024
40
0.881516412078512
40
0.881516412078512
40
1
40
1
40
1
40
1
41
1
10
40.3568107406625
20
2.89060718463355
30
0
41
1
10
40.5858059627711
20
2.92209742487901
30
0
41
1
10
40.8148928504466
20
2.94868834464336
30
0
41
1
10
41.3035109178588
20
2.99514372274382
30
0
41
1
10
41.5630320965185
20
3.01363535590031
30
0
41
1
10
42.082173103003
20
3.03782789021543
30
0
41
1
10
42.3418725422187
20
3.04354715685196
30
0
41
1
10
42.8615246959219
20
3.04217173695849
30
0
41
1
10
43.1215801174716
20
3.03500073794007
30
0
41
1
10
43.6416289738642
20
3.00768987997793
30
0
41
1
10
43.9014451291663
20
2.98766909401385
30
0
41
1
10
44.6807541293311
20
2.90923147473626
30
0
41
1
10
45.1999919727163
20
2.83250681545107
30
0
41
1
10
45.9797823533025
20
2.68120747978557
30
1E-16
41
1
10
46.2400579857161
20
2.62456584343238
30
1E-16
41
1
10
46.759642821116
20
2.50088199680781
30
1E-16
41
1
10
47.0192822803032
20
2.43392018173967
30
1E-16
41
1
10
47.7980223127413
20
2.2183201167808
30
-1E-16
41
1
10
48.3169228841291
20
2.05489842245032
30
-1E-16
41
1
10
49.0977093783447
20
1.78455367515923
30
-1E-16
41
1
10
49.3576937513691
20
1.69027915830603
30
-1E-16
41
1
10
49.8758168182285
20
1.4958006487677
30
-1E-16
41
1
10
50.1343084060349
20
1.39556653019258
30
-1E-16
41
1
10
50.9086230910066
20
1.08710840929379
30
-1E-16
41
1
10
51.4233047892462
20
0.871142172941575
30
-1E-16
41
1
10
52.4541649814959
20
0.428716447172889
30
0
41
1
10
52.9698934680929
20
0.201244371930414
30
0
41
1
10
53.4880207613687
20
-0.0277994740252723
30
0
0
SPLINE
5
C1
100
AcDbEntity
8
1
62
256
6
ByLayer
370
18
48
1
60
0
100
AcDbSpline
70
4
71
3
72
22
73
18
40
0
40
0
40
0
40
0
40
0.0788208353521525
40
0.0788208353521525
40
0.157641670704305
40
0.157641670704305
40
0.315283341408606
40
0.315283341408606
40
0.472925012112908
40
0.472925012112908
40
0.551745847465059
40
0.551745847465059
40
0.63056668281721
40
0.63056668281721
40
0.945850024225819
40
0.945850024225819
40
1
40
1
40
1
40
1
41
1
10
53.9103821310897
20
-2.88251835434693
30
0
41
1
10
53.6468916277097
20
-2.86765525348065
30
0
41
1
10
53.384041440201
20
-2.84718686788202
30
0
41
1
10
52.8594317424344
20
-2.7934508022916
30
-1E-16
41
1
10
52.5976322335783
20
-2.76052851439479
30
-1E-16
41
1
10
51.8130646885771
20
-2.64438713851845
30
-1E-16
41
1
10
51.291134969703
20
-2.54381198805908
30
-1E-16
41
1
10
50.2456301401155
20
-2.30099085081872
30
-1E-16
41
1
10
49.7220591031136
20
-2.15862471856499
30
-1E-16
41
1
10
48.932413751442
20
-1.91780261870778
30
1E-16
41
1
10
48.6678913251223
20
-1.83277643715962
30
1E-16
41
1
10
48.1411601590937
20
-1.65590597797913
30
1E-16
41
1
10
47.8786894747533
20
-1.56400376332411
30
1E-16
41
1
10
46.5695262431229
20
-1.08999244607867
30
1E-16
41
1
10
45.5325206063585
20
-0.663842754082538
30
0
41
1
10
44.3110882709523
20
-0.1536562467669
30
0
41
1
10
44.1319005966374
20
-0.0785990509157841
30
0
41
1
10
43.9524818384112
20
-0.003451408904823
30
0
0
SPLINE
5
C2
100
AcDbEntity
8
1
62
256
6
ByLayer
370
18
48
1
60
0
100
AcDbSpline
70
4
71
3
72
16
73
12
40
0
40
0
40
0
40
0
40
0.266458562865158
40
0.266458562865158
40
0.449843922148869
40
0.449843922148869
40
0.541536601790724
40
0.541536601790724
40
0.63322928143258
40
0.63322928143258
40
1
40
1
40
1
40
1
41
1
10
12.182890806662
20
-2.85896712063345
30
0
41
1
10
11.4242203351656
20
-2.89771496090259
30
0
41
1
10
10.6680744738381
20
-2.88489318860584
30
0
41
1
10
9.38587480070876
20
-2.77620145255486
30
-1E-16
41
1
10
8.86158682296764
20
-2.70760899748586
30
-1E-16
41
1
10
8.0698676675043
20
-2.56956226393908
30
-1E-16
41
1
10
7.8052179172505
20
-2.51769051897148
30
-1E-16
41
1
10
7.27808861840791
20
-2.40366630174506
30
-1E-16
41
1
10
7.0150588857818
20
-2.34142613923865
30
-1E-16
41
1
10
5.7014532414758
20
-2.00624147077153
30
1E-16
41
1
10
4.65543083945252
20
-1.66055257222794
30
1E-16
41
1
10
3.5980102103257
20
-1.26554865661282
30
1E-16
0
SPLINE
5
C3
100
AcDbEntity
8
1
62
256
6
ByLayer
370
18
48
1
60
0
100
AcDbSpline
70
4
71
3
72
8
73
4
40
0
40
0
40
0
40
0
40
1
40
1
40
1
40
1
41
1
10
3.56326353694652
20
-1.25558949610459
30
1E-16
41
1
10
3.56273855175638
20
-1.27506784188179
30
1E-16
41
1
10
3.5622191331897
20
-1.29453883164493
30
1E-16
41
1
10
3.56170534466378
20
-1.31400278973993
30
1E-16
0
SPLINE
5
C4
100
AcDbEntity
8
1
62
256
6
ByLayer
370
18
48
1
60
0
100
AcDbSpline
70
4
71
3
72
8
73
4
40
0
40
0
40
0
40
0
40
1
40
1
40
1
40
1
41
1
10
54.7111361650084
20
1.00054944604599
30
0
41
1
10
54.8093026331626
20
0.724170198781081
30
0
41
1
10
54.9046680811464
20
0.446788609103351
30
0
41
1
10
54.9971873937143
20
0.168388532564848
30
0
0
SPLINE
5
C5
100
AcDbEntity
8
1
62
256
6
ByLayer
370
18
48
1
60
0
100
AcDbSpline
70
4
71
3
72
28
73
24
40
0
40
0
40
0
40
0
40
0.141223462388628
40
0.141223462388628
40
0.282446924777256
40
0.282446924777256
40
0.423670387165885
40
0.423670387165885
40
0.494282118360199
40
0.494282118360199
40
0.564893849554513
40
0.564893849554513
40
0.635505580748827
40
0.635505580748827
40
0.706117311943141
40
0.706117311943141
40
0.847340774331772
40
0.847340774331772
40
0.91795250552609
40
0.91795250552609
40
0.988564236720408
40
0.988564236720408
40
1
40
1
40
1
40
1
41
1
10
53.5651529793855
20
-0.0695833027341166
30
0
41
1
10
53.0434818907165
20
0.149443496918082
30
0
41
1
10
52.5241079386363
20
0.367056951559363
30
0
41
1
10
51.4865784030154
20
0.791321061317262
30
0
41
1
10
50.9688269925684
20
0.998425384919727
30
-1E-16
41
1
10
49.9311432041271
20
1.39318469593755
30
-1E-16
41
1
10
49.4112938863246
20
1.58074342308296
30
-1E-16
41
1
10
48.6268513113719
20
1.84108805371915
30
-1E-16
41
1
10
48.364227657942
20
1.92445507401905
30
-1E-16
41
1
10
47.8417821756066
20
2.08176501861465
30
-1E-16
41
1
10
47.5814147253358
20
2.15591036920449
30
1E-16
41
1
10
47.0618502781008
20
2.29452172834579
30
1E-16
41
1
10
46.8026922869929
20
2.35892183403098
30
1E-16
41
1
10
46.2854834572191
20
2.47667201552443
30
1E-16
41
1
10
46.0273598604776
20
2.53016893656311
30
1E-16
41
1
10
45.2526580320834
20
2.67570018825464
30
1E-16
41
1
10
44.7359713684083
20
2.75238513973721
30
1E-16
41
1
10
43.9594492195631
20
2.83155954102338
30
0
41
1
10
43.7003557895129
20
2.85189938655591
30
0
41
1
10
43.1812383196889
20
2.87909121926572
30
0
41
1
10
42.9211473188255
20
2.88632140631591
30
0
41
1
10
42.6178007804423
20
2.88864323054381
30
0
41
1
10
42.5754799591838
20
2.88881892968706
30
0
41
1
10
42.5331303200382
20
2.88884262031343
30
0
0
SPLINE
5
C6
100
AcDbEntity
8
1
62
256
6
ByLayer
370
18
48
1
60
0
100
AcDbSpline
70
4
71
3
72
22
73
18
40
0
40
0
40
0
40
0
40
0.0748236775021747
40
0.0748236775021747
40
0.190470717814403
40
0.190470717814403
40
0.306117758126631
40
0.306117758126631
40
0.42176479843886
40
0.42176479843886
40
0.537411838751088
40
0.537411838751088
40
0.653058879063316
40
0.653058879063316
40
0.768705919375543
40
0.768705919375543
40
1
40
1
40
1
40
1
41
1
10
10.4041393113701
20
-0.212923493519298
30
0
41
1
10
10.2365117540363
20
-0.143660620615918
30
0
41
1
10
10.068779642289
20
-0.0742021560384671
30
0
41
1
10
9.64149636862197
20
0.103102109369189
30
0
41
1
10
9.38176119828208
20
0.211156933211413
30
0
41
1
10
8.86090443605377
20
0.425832205608828
30
0
41
1
10
8.59979441627175
20
0.532493532694502
30
0
41
1
10
8.07598304294578
20
0.744178207561049
30
0
41
1
10
7.81325180167187
20
0.849175008419678
30
-1E-16
41
1
10
7.28978244121464
20
1.05394106650368
30
-1E-16
41
1
10
7.02848847637847
20
1.15395311998492
30
-1E-16
41
1
10
6.50691934226953
20
1.34864507988098
30
-1E-16
41
1
10
6.24649767565126
20
1.44322666280399
30
-1E-16
41
1
10
5.72527175800178
20
1.62558893121636
30
-1E-16
41
1
10
5.46463201254545
20
1.71348689972217
30
-1E-16
41
1
10
4.68242343573397
20
1.96596250967678
30
-1E-16
41
1
10
4.160599429385
20
2.11940410113266
30
1E-16
41
1
10
3.63682326389804
20
2.25276937109419
30
1E-16
0
SPLINE
5
C7
100
AcDbEntity
8
1
62
256
6
ByLayer
370
18
48
1
60
0
100
AcDbSpline
70
4
71
3
72
44
73
40
40
0
40
0
40
0
40
0
40
0.0094076813122605
40
0.0094076813122605
40
0.140982038589186
40
0.140982038589186
40
0.173875627908418
40
0.173875627908418
40
0.20676921722765
40
0.20676921722765
40
0.272556395866115
40
0.272556395866115
40
0.338343574504579
40
0.338343574504579
40
0.37123716382381
40
0.37123716382381
40
0.404130753143041
40
0.404130753143041
40
0.469917931781502
40
0.469917931781502
40
0.502811521100731
40
0.502811521100731
40
0.535705110419961
40
0.535705110419961
40
0.601492289058421
40
0.601492289058421
40
0.667279467696881
40
0.667279467696881
40
0.733066646335341
40
0.733066646335341
40
0.765960235654572
40
0.765960235654572
40
0.798853824973802
40
0.798853824973802
40
0.930428182250721
40
0.930428182250721
40
0.99621536088918
40
0.99621536088918
40
1
40
1
40
1
40
1
41
1
10
35.1573351078317
20
-2.90108907544959
30
0
41
1
10
35.0832067796751
20
-2.9107115182683
30
0
41
1
10
35.009094472755
20
-2.91983198324237
30
0
41
1
10
33.8986057930423
20
-3.04892496358394
30
0
41
1
10
32.8644433103635
20
-3.06998898698251
30
0
41
1
10
31.5532208520879
20
-2.96573101045743
30
0
41
1
10
31.2903779473753
20
-2.93839218099214
30
0
41
1
10
30.7662786803841
20
-2.87130896282173
30
0
41
1
10
30.5045266584323
20
-2.83155412176805
30
0
41
1
10
29.719234408813
20
-2.69448961468061
30
-1E-16
41
1
10
29.1956966634575
20
-2.5790562416299
30
-1E-16
41
1
10
28.1450480748708
20
-2.30543082179261
30
-1E-16
41
1
10
27.6217444100112
20
-2.14788965512912
30
1E-16
41
1
10
26.8362717562392
20
-1.88631759821104
30
1E-16
41
1
10
26.5744076321844
20
-1.79484622131139
30
1E-16
41
1
10
26.0500295428627
20
-1.60433528654536
30
1E-16
41
1
10
25.7871614601154
20
-1.50523306884696
30
1E-16
41
1
10
25.0000677098743
20
-1.19934313169821
30
1E-16
41
1
10
24.4768750365165
20
-0.983990484177525
30
1E-16
41
1
10
23.6910473962348
20
-0.651115265518087
30
0
41
1
10
23.4290300606339
20
-0.538297070626811
30
0
41
1
10
22.9040996524505
20
-0.310597328162714
30
0
41
1
10
22.6412946265477
20
-0.195819195674744
30
0
41
1
10
21.8546840680505
20
0.148088229438116
30
0
41
1
10
21.331655367469
20
0.377920916522754
30
0
41
1
10
20.2832528960681
20
0.827018632107297
30
-1E-16
41
1
10
19.7574029324621
20
1.04744162857665
30
-1E-16
41
1
10
18.7091836396472
20
1.46411857434208
30
-1E-16
41
1
10
18.1860492515946
20
1.6615763734375
30
-1E-16
41
1
10
17.3991070393242
20
1.93408530673295
30
-1E-16
41
1
10
17.1360468553179
20
2.02130492915927
30
-1E-16
41
1
10
16.6119628592736
20
2.18589428824811
30
-1E-16
41
1
10
16.3507604021882
20
2.26333873831212
30
-1E-16
41
1
10
15.0477953740596
20
2.62492982986564
30
1E-16
41
1
10
14.0149500136657
20
2.83126133855507
30
0
41
1
10
12.4554313189179
20
2.99177313823552
30
0
41
1
10
11.9338736818498
20
3.02054794392743
30
0
41
1
10
11.3782979427319
20
3.02334622247071
30
0
41
1
10
11.348078885303
20
3.02341172700537
30
0
41
1
10
11.3178634089588
20
3.02339066541006
30
0
0
SPLINE
5
C8
100
AcDbEntity
8
1
62
256
6
ByLayer
370
18
48
1
60
0
100
AcDbSpline
70
4
71
3
72
8
73
4
40
0
40
0
40
0
40
0
40
1
40
1
40
1
40
1
41
1
10
54.7111361650085
20
-1.00054944604599
30
0
41
1
10
54.8093026331641
20
-0.724170198776847
30
0
41
1
10
54.9046680811493
20
-0.446788609094796
30
0
41
1
10
54.9971873937185
20
-0.168388532552001
30
0
0
SPLINE
5
C9
100
AcDbEntity
8
1
62
256
6
ByLayer
370
18
48
1
60
0
100
AcDbSpline
70
4
71
3
72
34
73
30
40
0
40
0
40
0
40
0
40
0.337156583949492
40
0.337156583949492
40
0.56413243283739
40
0.56413243283739
40
0.713558143549804
40
0.713558143549804
40
0.812074635369221
40
0.812074635369221
40
0.877070809949635
40
0.877070809949635
40
0.919841856561935
40
0.919841856561935
40
0.948105342523196
40
0.948105342523196
40
0.966976609111873
40
0.966976609111873
40
0.979219931548653
40
0.979219931548653
40
0.987028509385416
40
0.987028509385416
40
0.992286473946196
40
0.992286473946196
40
0.997131452443823
40
0.997131452443823
40
0.999511919840765
40
0.999511919840765
40
1
40
1
40
1
40
1
41
1
10
53.7533224937759
20
3.04964110148529
30
0
41
1
10
53.7738784608178
20
3.0360926809104
30
0
41
1
10
53.7944519278895
20
3.02247972204899
30
0
41
1
10
53.8289077650754
20
2.999595146361
30
0
41
1
10
53.842779932227
20
2.9903583843201
30
0
41
1
10
53.8658000116094
20
2.9749928716775
30
0
41
1
10
53.8749422285737
20
2.96888082921845
30
0
41
1
10
53.8901052293689
20
2.95872788530016
30
0
41
1
10
53.8961259631894
20
2.95469241044248
30
0
41
1
10
53.9061217405524
20
2.94798554039082
30
0
41
1
10
53.9100979835802
20
2.94531569203892
30
0
41
1
10
53.9167082683436
20
2.94087401702777
30
0
41
1
10
53.9193405527371
20
2.93910442836682
30
0
41
1
10
53.9236960144038
20
2.936175366024
30
0
41
1
10
53.9254242948953
20
2.93501282304206
30
0
41
1
10
53.9282788130374
20
2.93309228392394
30
0
41
1
10
53.9294147108656
20
2.93232790895948
30
0
41
1
10
53.9313263952893
20
2.9310409961881
30
0
41
1
10
53.9320889713407
20
2.93052752630612
30
0
41
1
10
53.9333489959478
20
2.92967897716616
30
0
41
1
10
53.9338415514861
20
2.92934724786912
30
0
41
1
10
53.934658661306
20
2.9287969366022
30
0
41
1
10
53.9349860747562
20
2.92857642756465
30
0
41
1
10
53.9356009397605
20
2.92816234535272
30
0
41
1
10
53.935892042409
20
2.92796631142673
30
0
41
1
10
53.9362924517571
20
2.92769670201531
30
0
41
1
10
53.9364199517871
20
2.92761085757905
30
0
41
1
10
53.9365552872886
20
2.92751975296977
30
0
41
1
10
53.9365777188721
20
2.92750465310635
30
0
41
1
10
53.9365993107538
20
2.9274901192843
30
0
0
SPLINE
5
CA
100
AcDbEntity
8
1
62
256
6
ByLayer
370
18
48
1
60
0
100
AcDbSpline
70
4
71
3
72
26
73
22
40
0
40
0
40
0
40
0
40
0.0561916632849234
40
0.0561916632849234
40
0.187022165113931
40
0.187022165113931
40
0.317852666942938
40
0.317852666942938
40
0.383267917857441
40
0.383267917857441
40
0.448683168771944
40
0.448683168771944
40
0.579513670600953
40
0.579513670600953
40
0.644928921515457
40
0.644928921515457
40
0.710344172429962
40
0.710344172429962
40
0.841174674258971
40
0.841174674258971
40
1
40
1
40
1
40
1
41
1
10
21.8088461739169
20
0.170737827365258
30
0
41
1
10
22.0337553256491
20
0.0773943640153334
30
0
41
1
10
22.2582803109586
20
-0.0160635789376897
30
0
41
1
10
23.0049225255443
20
-0.32596288794818
30
0
41
1
10
23.5257248800258
20
-0.541777884460828
30
0
41
1
10
24.5690117416834
20
-0.960446231411424
30
1E-16
41
1
10
25.0911816809374
20
-1.16385793105533
30
1E-16
41
1
10
25.8782737673189
20
-1.45296706570508
30
1E-16
41
1
10
26.1412773315989
20
-1.54665509793401
30
1E-16
41
1
10
26.6690436017508
20
-1.72751215310797
30
1E-16
41
1
10
26.9334816507946
20
-1.81455850195257
30
1E-16
41
1
10
27.7252540768837
20
-2.06284040518739
30
1E-16
41
1
10
28.2525773372372
20
-2.21159596061247
30
-1E-16
41
1
10
29.0453823183895
20
-2.40469468671572
30
-1E-16
41
1
10
29.3094495593057
20
-2.4638397925871
30
-1E-16
41
1
10
29.8378212345983
20
-2.57121162235728
30
-1E-16
41
1
10
30.1018874475984
20
-2.61944346275777
30
-1E-16
41
1
10
30.8907171389069
20
-2.74614244822328
30
-1E-16
41
1
10
31.4135017528721
20
-2.80698861740004
30
-1E-16
41
1
10
32.5686599030954
20
-2.8881892315473
30
0
41
1
10
33.2003112936149
20
-2.89633224150484
30
0
41
1
10
33.8337277427617
20
-2.86857486196689
30
0
0
SPLINE
5
CB
100
AcDbEntity
8
1
62
256
6
ByLayer
370
18
48
1
60
0
100
AcDbSpline
70
4
71
3
72
8
73
4
40
0
40
0
40
0
40
0
40
1
40
1
40
1
40
1
41
1
10
53.4880207613687
20
-0.0277994740252723
30
0
41
1
10
53.4804199004351
20
0.115794192597349
30
0
41
1
10
53.4777327360682
20
0.258972934309838
30
0
41
1
10
53.4817701808389
20
0.40176217980337
30
0
0
SPLINE
5
CC
100
AcDbEntity
8
1
62
256
6
ByLayer
370
18
48
1
60
0
100
AcDbSpline
70
4
71
3
72
44
73
40
40
0
40
0
40
0
40
0
40
0.0624999999999991
40
0.0624999999999991
40
0.124999999999998
40
0.124999999999998
40
0.187499999999997
40
0.187499999999997
40
0.249999999999996
40
0.249999999999996
40
0.281249999999996
40
0.281249999999996
40
0.312499999999996
40
0.312499999999996
40
0.374999999999996
40
0.374999999999996
40
0.437499999999996
40
0.437499999999996
40
0.499999999999996
40
0.499999999999996
40
0.531249999999996
40
0.531249999999996
40
0.562499999999996
40
0.562499999999996
40
0.624999999999997
40
0.624999999999997
40
0.687499999999998
40
0.687499999999998
40
0.749999999999999
40
0.749999999999999
40
0.8125
40
0.8125
40
0.84375
40
0.84375
40
0.875
40
0.875
40
0.9375
40
0.9375
40
1
40
1
40
1
40
1
41
1
10
5.67624349288346
20
2.38207553670247
30
1E-16
41
1
10
6.07183353772467
20
2.48818811893321
30
1E-16
41
1
10
6.46545393244779
20
2.58218471982857
30
1E-16
41
1
10
7.25026909689331
20
2.7443830639717
30
1E-16
41
1
10
7.64150674428197
20
2.81248096267501
30
0
41
1
10
8.4240091051104
20
2.92080963319043
30
0
41
1
10
8.81517892288716
20
2.96117787588216
30
0
41
1
10
9.59865810136677
20
3.01342502419286
30
0
41
1
10
9.99096249629719
20
3.02522293804552
30
0
41
1
10
10.5821968576566
20
3.02082667143287
30
0
41
1
10
10.7799578296777
20
3.01567697295033
30
0
41
1
10
11.17493446378
20
2.99801177126494
30
0
41
1
10
11.3719548012615
20
2.98552622018454
30
0
41
1
10
11.9618994961947
20
2.93731998151537
30
0
41
1
10
12.3538009558515
20
2.8908710119288
30
0
41
1
10
13.1367462357833
20
2.77107741765738
30
1E-16
41
1
10
13.5276463616709
20
2.69763018959219
30
1E-16
41
1
10
14.3099417508892
20
2.52510472359126
30
1E-16
41
1
10
14.7017730347714
20
2.42659529506281
30
1E-16
41
1
10
15.2911306354966
20
2.26110587413788
30
-1E-16
41
1
10
15.4878898436598
20
2.20303487996856
30
-1E-16
41
1
10
15.8822425311399
20
2.08134966869713
30
-1E-16
41
1
10
16.0800482021403
20
2.01748176284516
30
-1E-16
41
1
10
16.6715753011171
20
1.81999032087677
30
-1E-16
41
1
10
17.064062681129
20
1.67977364804679
30
-1E-16
41
1
10
17.8464669429441
20
1.38477517386096
30
-1E-16
41
1
10
18.2363875459357
20
1.22996949285016
30
-1E-16
41
1
10
19.0162725664586
20
0.911465586013207
30
-1E-16
41
1
10
19.405871993914
20
0.746976895580303
30
0
41
1
10
20.1862668070947
20
0.411718739847714
30
0
41
1
10
20.5770424400831
20
0.240898267298405
30
0
41
1
10
21.1656591983943
20
-0.0164140530305872
30
0
41
1
10
21.3622109172737
20
-0.102517226653333
30
0
41
1
10
21.7562732042907
20
-0.274764141627941
30
0
41
1
10
21.9541470541931
20
-0.361010191622597
30
0
41
1
10
22.545533400063
20
-0.617678545795656
30
0
41
1
10
22.938015144216
20
-0.785081756110088
30
0
41
1
10
23.7203920073838
20
-1.11061467095826
30
1E-16
41
1
10
24.1103024582096
20
-1.26866541007644
30
1E-16
41
1
10
24.5000000000142
20
-1.41973069771768
30
1E-16
0
SPLINE
5
CD
100
AcDbEntity
8
1
62
256
6
ByLayer
370
18
48
1
60
0
100
AcDbSpline
70
4
71
3
72
8
73
4
40
0
40
0
40
0
40
0
40
1
40
1
40
1
40
1
41
1
10
3.60186176858861
20
-1.25288324727956
30
1E-16
41
1
10
3.58854696739465
20
-1.24841422206532
30
1E-16
41
1
10
3.57567244750311
20
-1.24521239710273
30
1E-16
41
1
10
3.56326353694672
20
-1.24328391106923
30
1E-16
0
SPLINE
5
CE
100
AcDbEntity
8
1
62
256
6
ByLayer
370
18
48
1
60
0
100
AcDbSpline
70
4
71
3
72
68
73
64
40
0
40
0
40
0
40
0
40
0.012613241701074
40
0.012613241701074
40
0.0396805009726876
40
0.0396805009726876
40
0.0667477602443012
40
0.0667477602443012
40
0.0938150195159148
40
0.0938150195159148
40
0.120882278787528
40
0.120882278787528
40
0.175016797330757
40
0.175016797330757
40
0.20208405660237
40
0.20208405660237
40
0.229151315873984
40
0.229151315873984
40
0.28328583441721
40
0.28328583441721
40
0.310353093688823
40
0.310353093688823
40
0.337420352960436
40
0.337420352960436
40
0.391554871503663
40
0.391554871503663
40
0.418622130775277
40
0.418622130775277
40
0.44568939004689
40
0.44568939004689
40
0.472756649318504
40
0.472756649318504
40
0.499823908590117
40
0.499823908590117
40
0.553958427133346
40
0.553958427133346
40
0.608092945676574
40
0.608092945676574
40
0.635160204948189
40
0.635160204948189
40
0.662227464219804
40
0.662227464219804
40
0.689294723491419
40
0.689294723491419
40
0.716361982763034
40
0.716361982763034
40
0.770496501306266
40
0.770496501306266
40
0.797563760577882
40
0.797563760577882
40
0.824631019849498
40
0.824631019849498
40
0.851698279121114
40
0.851698279121114
40
0.878765538392729
40
0.878765538392729
40
0.905832797664345
40
0.905832797664345
40
0.93290005693596
40
0.93290005693596
40
0.987034575479192
40
0.987034575479192
40
1
40
1
40
1
40
1
41
1
10
49.3407751046172
20
-2.03372749229433
30
1E-16
41
1
10
49.2245171960995
20
-2.07169271306844
30
1E-16
41
1
10
49.1084186555216
20
-2.10876582753949
30
1E-16
41
1
10
48.7436435470358
20
-2.22254114572755
30
1E-16
41
1
10
48.4958028530898
20
-2.29644211244911
30
1E-16
41
1
10
48.0004200565767
20
-2.4341352848916
30
-1E-16
41
1
10
47.7528403014459
20
-2.4979349287114
30
-1E-16
41
1
10
47.2578917158999
20
-2.61567249868307
30
-1E-16
41
1
10
47.0105105483534
20
-2.6696012472392
30
-1E-16
41
1
10
46.5161200023401
20
-2.76764892571424
30
-1E-16
41
1
10
46.2690798123597
20
-2.8116723660022
30
0
41
1
10
45.5261289327894
20
-2.92654500544978
30
0
41
1
10
45.0286659093022
20
-2.98089087257844
30
0
41
1
10
44.2796266711956
20
-3.02815357741292
30
0
41
1
10
44.0286699306367
20
-3.03797124835233
30
0
41
1
10
43.5286356325743
20
-3.04550433375511
30
0
41
1
10
43.2792478519393
20
-3.04332531707189
30
0
41
1
10
42.5331109921463
20
-3.01927777729949
30
0
41
1
10
42.0388355936114
20
-2.97938474548317
30
0
41
1
10
41.2965699397662
20
-2.88674351602856
30
0
41
1
10
41.0492109889222
20
-2.85035162818787
30
0
41
1
10
40.5544097467247
20
-2.76668520186894
30
-1E-16
41
1
10
40.3072523222691
20
-2.71910585179677
30
-1E-16
41
1
10
39.5643615864341
20
-2.56097870687884
30
-1E-16
41
1
10
39.0667286287475
20
-2.43600484255796
30
-1E-16
41
1
10
38.316545359715
20
-2.21884517097871
30
1E-16
41
1
10
38.065720985159
20
-2.14101885417585
30
1E-16
41
1
10
37.5661583565532
20
-1.97905509985742
30
1E-16
41
1
10
37.3168837973341
20
-1.89477660452673
30
1E-16
41
1
10
36.8194825757093
20
-1.719510255534
30
1E-16
41
1
10
36.5712895206688
20
-1.62865318033673
30
1E-16
41
1
10
36.0761966402957
20
-1.43988912415699
30
1E-16
41
1
10
35.8290316723114
20
-1.34250283516167
30
1E-16
41
1
10
35.0869476077096
20
-1.04508558010656
30
1E-16
41
1
10
34.5919710025801
20
-0.83879176133479
30
1E-16
41
1
10
33.6011334267967
20
-0.410653391138027
30
0
41
1
10
33.1034624464823
20
-0.19298816455327
30
0
41
1
10
32.3523243588833
20
0.135976957858048
30
0
41
1
10
32.1014328876811
20
0.246611286379817
30
0
41
1
10
31.6022747231382
20
0.465097955069694
30
0
41
1
10
31.3532539887043
20
0.572839174611119
30
0
41
1
10
30.8559802124693
20
0.784673999390009
30
0
41
1
10
30.6078345961088
20
0.889023798738833
30
-1E-16
41
1
10
30.1123540157541
20
1.09420783336816
30
-1E-16
41
1
10
29.8652957225299
20
1.19563186849712
30
-1E-16
41
1
10
29.1235337394005
20
1.49061009220213
30
-1E-16
41
1
10
28.6281644649068
20
1.67496282455991
30
-1E-16
41
1
10
27.8844678270645
20
1.93421666695957
30
-1E-16
41
1
10
27.6363543376328
20
2.01749219040613
30
-1E-16
41
1
10
27.1383116527256
20
2.1751888175277
30
-1E-16
41
1
10
26.8884419597773
20
2.24974868763741
30
-1E-16
41
1
10
26.3872145459928
20
2.39060191086495
30
1E-16
41
1
10
26.1362274830846
20
2.45666007629998
30
1E-16
41
1
10
25.6373203227217
20
2.57895251768627
30
1E-16
41
1
10
25.3885494502178
20
2.63486976324756
30
1E-16
41
1
10
24.8915039077569
20
2.73556043768846
30
1E-16
41
1
10
24.6433410581755
20
2.7804974214003
30
1E-16
41
1
10
24.147775946813
20
2.85971192711801
30
0
41
1
10
23.9004739188053
20
2.89404310998836
30
0
41
1
10
23.1588658894085
20
2.98011877640991
30
0
41
1
10
22.6637487927973
20
3.01448072163603
30
0
41
1
10
22.0484702039265
20
3.0285243058934
30
0
41
1
10
21.9295789873928
20
3.02990421512118
30
0
41
1
10
21.8105953019368
20
3.02993365266619
30
0
0
SPLINE
5
CF
100
AcDbEntity
8
1
62
256
6
ByLayer
370
18
48
1
60
0
100
AcDbSpline
70
4
71
3
72
10
73
6
40
0
40
0
40
0
40
0
40
0.5
40
0.5
40
1
40
1
40
1
40
1
41
1
10
53.9403992752689
20
-2.92492971230624
30
0
41
1
10
53.9306193130011
20
-2.93149826877249
30
0
41
1
10
53.9223155341084
20
-2.93426561334155
30
0
41
1
10
53.9083238287196
20
-2.93235366194821
30
0
41
1
10
53.9025891473268
20
-2.92772432495022
30
0
41
1
10
53.8977119597262
20
-2.91969801062356
30
0
0
SPLINE
5
D0
100
AcDbEntity
8
1
62
256
6
ByLayer
370
18
48
1
60
0
100
AcDbSpline
70
4
71
3
72
8
73
4
40
0
40
0
40
0
40
0
40
1
40
1
40
1
40
1
41
1
10
3.5980102103257
20
-1.26554865661282
30
1E-16
41
1
10
3.58606504776031
20
-1.26108649098433
30
1E-16
41
1
10
3.57441280314598
20
-1.2577456710591
30
1E-16
41
1
10
3.56326353694647
20
-1.25558949610459
30
1E-16
0
SPLINE
5
D1
100
AcDbEntity
8
1
62
256
6
ByLayer
370
18
48
1
60
0
100
AcDbSpline
70
4
71
3
72
8
73
4
40
0
40
0
40
0
40
0
40
1
40
1
40
1
40
1
41
1
10
3.64224917486934
20
2.37730856055063
30
1E-16
41
1
10
3.64171905982883
20
2.34031106273562
30
1E-16
41
1
10
3.64118285851845
20
2.30330835480782
30
1E-16
41
1
10
3.6406406358922
20
2.26630019224459
30
1E-16
0
SPLINE
5
D2
100
AcDbEntity
8
1
62
256
6
ByLayer
370
18
48
1
60
0
100
AcDbSpline
70
4
71
3
72
8
73
4
40
0
40
0
40
0
40
0
40
1
40
1
40
1
40
1
41
1
10
3.63682326389801
20
2.25276937109419
30
1E-16
41
1
10
3.62589783943798
20
2.25555123151199
30
1E-16
41
1
10
3.61434837369097
20
2.25694553782481
30
1E-16
41
1
10
3.60249324594278
20
2.25692910025381
30
1E-16
0
SPLINE
5
D3
100
AcDbEntity
8
1
62
256
6
ByLayer
370
18
48
1
60
0
100
AcDbSpline
70
4
71
3
72
22
73
18
40
0
40
0
40
0
40
0
40
0.248818099343391
40
0.248818099343391
40
0.373227149015086
40
0.373227149015086
40
0.49763619868678
40
0.49763619868678
40
0.622045248358475
40
0.622045248358475
40
0.746454298030168
40
0.746454298030168
40
0.870863347701863
40
0.870863347701863
40
0.995272397373557
40
0.995272397373557
40
1
40
1
40
1
40
1
41
1
10
3.64064063589205
20
2.26630019224461
30
1E-16
41
1
10
4.16432595949752
20
2.13304972794751
30
1E-16
41
1
10
4.68605595506665
20
1.97960927221359
30
-1E-16
41
1
10
5.46812373776061
20
1.72697208730824
30
-1E-16
41
1
10
5.72871628812149
20
1.63899228518252
30
-1E-16
41
1
10
6.24984391658958
20
1.45640249279268
30
-1E-16
41
1
10
6.51021231667181
20
1.36167399792674
30
-1E-16
41
1
10
7.0316916924632
20
1.16666110285865
30
-1E-16
41
1
10
7.29294334379972
20
1.06645735509883
30
-1E-16
41
1
10
7.81633067669304
20
0.861245401573598
30
-1E-16
41
1
10
8.07902745753194
20
0.75599729254921
30
0
41
1
10
8.60276977689097
20
0.543772101405892
30
0
41
1
10
8.86384048751876
20
0.436818321552067
30
0
41
1
10
9.38460642668136
20
0.221509928020964
30
0
41
1
10
9.64429169641349
20
0.113118687324004
30
0
41
1
10
9.91352962946817
20
0.001010783177918
30
0
41
1
10
9.92338582594797
20
-0.0030927702873953
30
0
41
1
10
9.93324160928753
20
-0.0071956847745298
30
0
0
SPLINE
5
D4
100
AcDbEntity
8
1
62
256
6
ByLayer
370
18
48
1
60
0
100
AcDbSpline
70
4
71
3
72
28
73
24
40
0
40
0
40
0
40
0
40
0.0182681224337972
40
0.0182681224337972
40
0.0893771946378671
40
0.0893771946378671
40
0.160486266841937
40
0.160486266841937
40
0.302704411250079
40
0.302704411250079
40
0.373813483454149
40
0.373813483454149
40
0.444922555658219
40
0.444922555658219
40
0.516031627862288
40
0.516031627862288
40
0.587140700066358
40
0.587140700066358
40
0.729358844474497
40
0.729358844474497
40
0.871576988882637
40
0.871576988882637
40
1
40
1
40
1
40
1
41
1
10
42.4553205564979
20
2.89857308993078
30
0
41
1
10
42.5225395325962
20
2.89893879381353
30
0
41
1
10
42.5897034338096
20
2.89891382266819
30
0
41
1
10
42.9178044727908
20
2.89695806507086
30
0
41
1
10
43.1778589113864
20
2.89014748188663
30
0
41
1
10
43.6968956670515
20
2.86379434593977
30
0
41
1
10
43.955945208579
20
2.84385495666356
30
0
41
1
10
44.7323232885329
20
2.76577233569901
30
1E-16
41
1
10
45.2489030525166
20
2.68970472482789
30
1E-16
41
1
10
46.0234282190349
20
2.54492328032313
30
1E-16
41
1
10
46.2814882306849
20
2.49165156136584
30
1E-16
41
1
10
46.7985675451559
20
2.37432047309869
30
1E-16
41
1
10
47.0576618608706
20
2.31010383262239
30
1E-16
41
1
10
47.5771040372468
20
2.17177859044972
30
1E-16
41
1
10
47.8374115619935
20
2.09774297937153
30
-1E-16
41
1
10
48.3597404525933
20
1.94059071841534
30
-1E-16
41
1
10
48.6223245124602
20
1.85726367164631
30
-1E-16
41
1
10
49.406699142949
20
1.59691314554414
30
-1E-16
41
1
10
49.9264757284409
20
1.40923224310814
30
-1E-16
41
1
10
50.9639901753893
20
1.01397659166292
30
-1E-16
41
1
10
51.4816394645002
20
0.806500439219036
30
0
41
1
10
52.4686538483579
20
0.401872917746004
30
0
41
1
10
52.9374985340894
20
0.205303367863394
30
0
41
1
10
53.4080856663632
20
0.0071679134521787
30
0
0
SPLINE
5
D5
100
AcDbEntity
8
1
62
256
6
ByLayer
370
18
48
1
60
0
100
AcDbSpline
70
4
71
3
72
42
73
38
40
0
40
0
40
0
40
0
40
0.0718082408484423
40
0.0718082408484423
40
0.113998775355332
40
0.113998775355332
40
0.156189309862221
40
0.156189309862221
40
0.19837984436911
40
0.19837984436911
40
0.240570378876
40
0.240570378876
40
0.324951447889778
40
0.324951447889778
40
0.409332516903557
40
0.409332516903557
40
0.493713585917336
40
0.493713585917336
40
0.535904120424225
40
0.535904120424225
40
0.578094654931114
40
0.578094654931114
40
0.620285189438004
40
0.620285189438004
40
0.662475723944893
40
0.662475723944893
40
0.74685679295867
40
0.74685679295867
40
0.789047327465559
40
0.789047327465559
40
0.831237861972447
40
0.831237861972447
40
0.873428396479336
40
0.873428396479336
40
0.915618930986224
40
0.915618930986224
40
1
40
1
40
1
40
1
41
1
10
32.0919965406589
20
3.0363712616539
30
0
41
1
10
32.6078839278494
20
3.03672611068265
30
0
41
1
10
33.1243208331881
20
3.01178249151229
30
0
41
1
10
33.9483526900446
20
2.9320375430236
30
0
41
1
10
34.2547701826458
20
2.89370688502814
30
0
41
1
10
34.8659389952817
20
2.80052915672687
30
1E-16
41
1
10
35.1710285858231
20
2.74568178249149
30
1E-16
41
1
10
35.7810878186312
20
2.62037000963366
30
1E-16
41
1
10
36.0860588134662
20
2.54990840289392
30
1E-16
41
1
10
36.6967223621815
20
2.39433808577786
30
1E-16
41
1
10
37.0030609363471
20
2.30902216566824
30
1E-16
41
1
10
37.9191782590102
20
2.03434711383466
30
-1E-16
41
1
10
38.525094843133
20
1.82674610477414
30
-1E-16
41
1
10
39.7339112447199
20
1.37596358423167
30
-1E-16
41
1
10
40.3367499286925
20
1.13265826093178
30
-1E-16
41
1
10
41.5458775320928
20
0.624217884404175
30
0
41
1
10
42.152152242004
20
0.359046148820653
30
0
41
1
10
43.069206791391
20
-0.0437046469144207
30
0
41
1
10
43.3751232670772
20
-0.178323617098471
30
0
41
1
10
43.9854472078108
20
-0.445184506398533
30
0
41
1
10
44.2902859316119
20
-0.577613253087861
30
0
41
1
10
44.9001871651765
20
-0.83850358669045
30
1E-16
41
1
10
45.2052518465836
20
-0.966960446862828
30
1E-16
41
1
10
45.8164699235973
20
-1.21797957157392
30
1E-16
41
1
10
46.122559930233
20
-1.34051127813055
30
1E-16
41
1
10
47.0383278946174
20
-1.69440089055411
30
1E-16
41
1
10
47.6473380356222
20
-1.91272050081227
30
1E-16
41
1
10
48.5636838649417
20
-2.2043114766856
30
1E-16
41
1
10
48.8698473953763
20
-2.2955915296852
30
1E-16
41
1
10
49.4805851866103
20
-2.46378462355111
30
-1E-16
41
1
10
49.7855500971612
20
-2.54082903864165
30
-1E-16
41
1
10
50.3955611009796
20
-2.67971419463052
30
-1E-16
41
1
10
50.7006058851656
20
-2.74155988085531
30
-1E-16
41
1
10
51.3115835994627
20
-2.84913256752355
30
0
41
1
10
51.6177225446119
20
-2.8948573503034
30
0
41
1
10
52.5336557469262
20
-3.0060061677091
30
0
41
1
10
53.1425556086298
20
-3.04566354639056
30
0
41
1
10
53.7533224937759
20
-3.04964110148526
30
0
0
SPLINE
5
D6
100
AcDbEntity
8
1
62
256
6
ByLayer
370
18
48
1
60
0
100
AcDbSpline
70
4
71
3
72
10
73
6
40
0
40
0
40
0
40
0
40
0.5
40
0.5
40
1
40
1
40
1
40
1
41
1
10
53.741051080874
20
-3.01300685965279
30
0
41
1
10
53.7433720187984
20
-3.02415789442207
30
0
41
1
10
53.7455717812547
20
-3.0328207419777
30
0
41
1
10
53.7496279810213
20
-3.04507779670828
30
0
41
1
10
53.7515190069786
20
-3.0486696318373
30
0
41
1
10
53.7533224937759
20
-3.04964110148526
30
0
0
SPLINE
5
D7
100
AcDbEntity
8
1
62
256
6
ByLayer
370
18
48
1
60
0
100
AcDbSpline
70
4
71
3
72
26
73
22
40
0
40
0
40
0
40
0
40
0.124999999999978
40
0.124999999999978
40
0.249999999999955
40
0.249999999999955
40
0.281249999999952
40
0.281249999999952
40
0.312499999999949
40
0.312499999999949
40
0.374999999999954
40
0.374999999999954
40
0.499999999999963
40
0.499999999999963
40
0.624999999999972
40
0.624999999999972
40
0.749999999999982
40
0.749999999999982
40
0.874999999999991
40
0.874999999999991
40
1
40
1
40
1
40
1
41
1
10
54.2592684410806
20
0.225580399502604
30
0
41
1
10
54.2279877807447
20
0.234531247995136
30
0
41
1
10
54.1973795126603
20
0.24741027189512
30
0
41
1
10
54.1371469598013
20
0.28151632428353
30
0
41
1
10
54.1075740834556
20
0.303193648675176
30
0
41
1
10
54.0708156418025
20
0.334407982843828
30
0
41
1
10
54.0631345969658
20
0.339421209381385
30
0
41
1
10
54.0479354928822
20
0.350315249136173
30
0
41
1
10
54.0403410779936
20
0.355908135102766
30
0
41
1
10
54.0172060817235
20
0.371381320746991
30
0
41
1
10
54.0014763173312
20
0.380811304066356
30
0
41
1
10
53.9533559581437
20
0.405009228705211
30
0
41
1
10
53.9203237633891
20
0.414831021126872
30
0
41
1
10
53.8536683231781
20
0.430522596887954
30
0
41
1
10
53.8200614814573
20
0.437008304012096
30
0
41
1
10
53.7522759165831
20
0.443901317422331
30
0
41
1
10
53.7180464062925
20
0.444564924663155
30
0
41
1
10
53.6497532220754
20
0.439887724187855
30
0
41
1
10
53.6157864572759
20
0.434750783661968
30
0
41
1
10
53.5483514276567
20
0.421018840751231
30
0
41
1
10
53.5148619194092
20
0.412571345888978
30
0
41
1
10
53.4817701808496
20
0.401762179802603
30
0
0
SPLINE
5
D8
100
AcDbEntity
8
1
62
256
6
ByLayer
370
18
48
1
60
0
100
AcDbSpline
70
4
71
3
72
22
73
18
40
0
40
0
40
0
40
0
40
0.0847042386653061
40
0.0847042386653061
40
0.199116208832143
40
0.199116208832143
40
0.31352817899898
40
0.31352817899898
40
0.427940149165816
40
0.427940149165816
40
0.542352119332653
40
0.542352119332653
40
0.65676408949949
40
0.65676408949949
40
0.771176059666326
40
0.771176059666326
40
1
40
1
40
1
40
1
41
1
10
0.616870257485971
20
3.70942143039562
30
0
41
1
10
0.609008797753745
20
3.71893528798284
30
0
41
1
10
0.600299224799755
20
3.72877866902942
30
0
41
1
10
0.577436773595821
20
3.75278027541998
30
0
41
1
10
0.562473410670862
20
3.76719912544309
30
0
41
1
10
0.526919274338695
20
3.79789837852076
30
0
41
1
10
0.506401328529648
20
3.81410115785684
30
0
41
1
10
0.458295029419162
20
3.84782073363817
30
0
41
1
10
0.430552213180675
20
3.86539993793704
30
0
41
1
10
0.368315894100107
20
3.89989804943005
30
0
41
1
10
0.334734689773285
20
3.91623586611112
30
0
41
1
10
0.267995091203858
20
3.94444871021426
30
0
41
1
10
0.235500445052281
20
3.95608438999747
30
0
41
1
10
0.1762986150963
20
3.97432189532924
30
0
41
1
10
0.148866071176855
20
3.98119008826714
30
0
41
1
10
0.074499058324875
20
3.99644137062913
30
0
41
1
10
0.0342289202850168
20
3.99999671689534
30
0
41
1
10
0
20
3.99999999491786
30
0
0
SPLINE
5
D9
100
AcDbEntity
8
1
62
256
6
ByLayer
370
18
48
1
60
0
100
AcDbSpline
70
4
71
3
72
48
73
44
40
0
40
0
40
0
40
0
40
0.0312500000000005
40
0.0312500000000005
40
0.062500000000001
40
0.062500000000001
40
0.0937500000000015
40
0.0937500000000015
40
0.125000000000002
40
0.125000000000002
40
0.140625000000002
40
0.140625000000002
40
0.156250000000002
40
0.156250000000002
40
0.187500000000003
40
0.187500000000003
40
0.250000000000003
40
0.250000000000003
40
0.312500000000003
40
0.312500000000003
40
0.375000000000003
40
0.375000000000003
40
0.500000000000004
40
0.500000000000004
40
0.625000000000006
40
0.625000000000006
40
0.687500000000006
40
0.687500000000006
40
0.750000000000007
40
0.750000000000007
40
0.781250000000006
40
0.781250000000006
40
0.812500000000005
40
0.812500000000005
40
0.843750000000004
40
0.843750000000004
40
0.875000000000003
40
0.875000000000003
40
0.906250000000003
40
0.906250000000003
40
0.937500000000002
40
0.937500000000002
40
1
40
1
40
1
40
1
41
1
10
0
20
-3.62300790551805
30
0
41
1
10
0.0176734521331241
20
-3.60924520630408
30
0
41
1
10
0.0369808440691486
20
-3.5950842753189
30
0
41
1
10
0.0799525503911411
20
-3.56564824723026
30
0
41
1
10
0.10366380819579
20
-3.55035328405754
30
0
41
1
10
0.155638848842528
20
-3.51918195371314
30
0
41
1
10
0.184584434275479
20
-3.5029107955213
30
0
41
1
10
0.246896642358763
20
-3.47077095508959
30
0
41
1
10
0.280888419596039
20
-3.45464268042665
30
0
41
1
10
0.331171668490015
20
-3.43321805349953
30
0
41
1
10
0.348182984689629
20
-3.42637666181702
30
0
41
1
10
0.380823691476138
20
-3.41406082372521
30
0
41
1
10
0.396449624478691
20
-3.40857179289614
30
0
41
1
10
0.441462993692255
20
-3.39390257486514
30
0
41
1
10
0.467526494787592
20
-3.38697763138762
30
0
41
1
10
0.536417675496125
20
-3.3722610297873
30
0
41
1
10
0.568426326430483
20
-3.37059444467886
30
0
41
1
10
0.618963664222974
20
-3.37425793633699
30
0
41
1
10
0.637007649982053
20
-3.37974915848721
30
0
41
1
10
0.665697490564355
20
-3.39473298240563
30
0
41
1
10
0.676182713822413
20
-3.4043301727551
30
0
41
1
10
0.700095187159008
20
-3.43730508880216
30
0
41
1
10
0.706239302717563
20
-3.46437095140487
30
0
41
1
10
0.706201547007311
20
-3.52571167567805
30
0
41
1
10
0.700035930253591
20
-3.55996908349221
30
0
41
1
10
0.675893750924416
20
-3.61933824700748
30
0
41
1
10
0.665214621362168
20
-3.64057261444515
30
0
41
1
10
0.635704901912817
20
-3.68650154567871
30
0
41
1
10
0.616846996908635
20
-3.71140637988796
30
0
41
1
10
0.577436773595934
20
-3.75278027541989
30
0
41
1
10
0.562473410670975
20
-3.767199125443
30
0
41
1
10
0.526919274338809
20
-3.79789837852067
30
0
41
1
10
0.506401328529734
20
-3.81410115785675
30
0
41
1
10
0.458295029419276
20
-3.84782073363809
30
0
41
1
10
0.430552213180761
20
-3.86539993793696
30
0
41
1
10
0.36831589410022
20
-3.89989804942999
30
0
41
1
10
0.334734689773398
20
-3.91623586611107
30
0
41
1
10
0.267995091203915
20
-3.94444871021423
30
0
41
1
10
0.235500445052338
20
-3.95608438999744
30
0
41
1
10
0.176298615096357
20
-3.97432189532921
30
0
41
1
10
0.148866071176911
20
-3.98119008826711
30
0
41
1
10
0.0744990583249319
20
-3.99644137062913
30
0
41
1
10
0.0342289202850452
20
-3.99999671689534
30
0
41
1
10
0
20
-3.99999999491789
30
0
0
SPLINE
5
DA
100
AcDbEntity
8
1
62
256
6
ByLayer
370
18
48
1
60
0
100
AcDbSpline
70
4
71
3
72
8
73
4
40
0
40
0
40
0
40
0
40
1
40
1
40
1
40
1
41
1
10
54.4885226225447
20
-0.32069236184455
30
0
41
1
10
54.4230175845335
20
-0.145834138857026
30
0
41
1
10
54.3465817524887
20
0.0362685598403232
30
0
41
1
10
54.2592684410806
20
0.225580399502604
30
0
0
SPLINE
5
DB
100
AcDbEntity
8
1
62
256
6
ByLayer
370
18
48
1
60
0
100
AcDbSpline
70
4
71
3
72
32
73
28
40
0
40
0
40
0
40
0
40
0.0749231788504993
40
0.0749231788504993
40
0.149846357700999
40
0.149846357700999
40
0.224769536551498
40
0.224769536551498
40
0.299692715401997
40
0.299692715401997
40
0.374615894252496
40
0.374615894252496
40
0.449539073102996
40
0.449539073102996
40
0.524462251953495
40
0.524462251953495
40
0.599385430803994
40
0.599385430803994
40
0.674308609654494
40
0.674308609654494
40
0.749231788504993
40
0.749231788504993
40
0.899078146205988
40
0.899078146205988
40
0.974001325056484
40
0.974001325056484
40
1
40
1
40
1
40
1
41
1
10
53.4817701808387
20
0.40176217979905
30
0
41
1
10
53.232006076513
20
0.510567410954394
30
0
41
1
10
52.9827255204032
20
0.618512671736084
30
0
41
1
10
52.4851199592803
20
0.832606296591308
30
-1E-16
41
1
10
52.2364691339267
20
0.938010495869833
30
-1E-16
41
1
10
51.7386075745334
20
1.14370921975365
30
-1E-16
41
1
10
51.489518671396
20
1.24427964135498
30
-1E-16
41
1
10
50.9910462465382
20
1.44089811760406
30
-1E-16
41
1
10
50.7417785403029
20
1.53717555412797
30
-1E-16
41
1
10
50.2423125740818
20
1.72379086528468
30
-1E-16
41
1
10
49.9913944228819
20
1.81390264750289
30
-1E-16
41
1
10
49.4907947608419
20
1.98553407262122
30
-1E-16
41
1
10
49.2412916207844
20
2.06732203505015
30
-1E-16
41
1
10
48.7436435470358
20
2.22254114572755
30
-1E-16
41
1
10
48.4958028530899
20
2.29644211244911
30
-1E-16
41
1
10
48.0004200565767
20
2.4341352848916
30
1E-16
41
1
10
47.7528403014459
20
2.4979349287114
30
1E-16
41
1
10
47.2578917158999
20
2.61567249868307
30
1E-16
41
1
10
47.0105105483534
20
2.66960124723923
30
1E-16
41
1
10
46.5161200023401
20
2.76764892571424
30
1E-16
41
1
10
46.2690798123597
20
2.8116723660022
30
0
41
1
10
45.5261289327895
20
2.92654500544978
30
0
41
1
10
45.0286659093023
20
2.98089087257844
30
0
41
1
10
44.2796266711958
20
3.02815357741292
30
0
41
1
10
44.0286699306369
20
3.03797124835233
30
0
41
1
10
43.6918957234069
20
3.04304479805552
30
0
41
1
10
43.6052144487621
20
3.04363588791963
30
0
41
1
10
43.5186108849632
20
3.04351560374667
30
0
0
SPLINE
5
DC
100
AcDbEntity
8
1
62
256
6
ByLayer
370
18
48
1
60
0
100
AcDbSpline
70
4
71
3
72
58
73
54
40
0
40
0
40
0
40
0
40
0.0107454694198488
40
0.0107454694198488
40
0.0448576946122677
40
0.0448576946122677
40
0.0789699198046865
40
0.0789699198046865
40
0.113082144997106
40
0.113082144997106
40
0.147194370189524
40
0.147194370189524
40
0.181306595381943
40
0.181306595381943
40
0.249531045766782
40
0.249531045766782
40
0.283643270959201
40
0.283643270959201
40
0.31775549615162
40
0.31775549615162
40
0.35186772134404
40
0.35186772134404
40
0.385979946536459
40
0.385979946536459
40
0.454204396921298
40
0.454204396921298
40
0.488316622113717
40
0.488316622113717
40
0.522428847306135
40
0.522428847306135
40
0.556541072498554
40
0.556541072498554
40
0.590653297690973
40
0.590653297690973
40
0.624765522883392
40
0.624765522883392
40
0.658877748075811
40
0.658877748075811
40
0.727102198460649
40
0.727102198460649
40
0.761214423653068
40
0.761214423653068
40
0.795326648845487
40
0.795326648845487
40
0.829438874037906
40
0.829438874037906
40
0.863551099230325
40
0.863551099230325
40
0.931775549615163
40
0.931775549615163
40
0.965887774807581
40
0.965887774807581
40
1
40
1
40
1
40
1
41
1
10
27.6224121761458
20
-2.02055028571362
30
1E-16
41
1
10
27.5441280871068
20
-2.04622621909687
30
1E-16
41
1
10
27.4657755829944
20
-2.07150301132623
30
1E-16
41
1
10
27.1383116527257
20
-2.17518881752767
30
1E-16
41
1
10
26.8884419597774
20
-2.24974868763741
30
1E-16
41
1
10
26.3872145459929
20
-2.39060191086489
30
-1E-16
41
1
10
26.1362274830846
20
-2.45666007629998
30
-1E-16
41
1
10
25.6373203227217
20
-2.57895251768627
30
-1E-16
41
1
10
25.3885494502178
20
-2.63486976324756
30
-1E-16
41
1
10
24.8915039077568
20
-2.73556043768846
30
-1E-16
41
1
10
24.6433410581755
20
-2.7804974214003
30
-1E-16
41
1
10
24.1477759468129
20
-2.85971192711801
30
0
41
1
10
23.9004739188052
20
-2.89404310998836
30
0
41
1
10
23.1588658894085
20
-2.98011877640994
30
0
41
1
10
22.6637487927973
20
-3.01448072163603
30
0
41
1
10
21.9191622404654
20
-3.03147572873317
30
0
41
1
10
21.6709507606011
20
-3.03132822311144
30
0
41
1
10
21.1728798559749
20
-3.01910245910784
30
0
41
1
10
20.922968998495
20
-3.00709883415615
30
0
41
1
10
20.4213434219489
20
-2.97134323629405
30
0
41
1
10
20.1704232601236
20
-2.94763167444748
30
0
41
1
10
19.6713622448157
20
-2.88871181264824
30
0
41
1
10
19.4228017148554
20
-2.85340137470308
30
0
41
1
10
18.6776781007967
20
-2.73201209648835
30
-1E-16
41
1
10
18.1818737185493
20
-2.63075378944765
30
-1E-16
41
1
10
17.4402040686312
20
-2.44776907326829
30
-1E-16
41
1
10
17.1930232804665
20
-2.38189212304178
30
-1E-16
41
1
10
16.6977368012156
20
-2.24195005296039
30
1E-16
41
1
10
16.449720924282
20
-2.16778860352059
30
1E-16
41
1
10
15.9531052196473
20
-2.01078527221324
30
1E-16
41
1
10
15.7045206662327
20
-1.92789610238148
30
1E-16
41
1
10
15.2063408492924
20
-1.75387048616557
30
1E-16
41
1
10
14.9564891577863
20
-1.66322826192433
30
1E-16
41
1
10
14.4546428096544
20
-1.47600388325427
30
1E-16
41
1
10
14.2039044211052
20
-1.37951441055452
30
1E-16
41
1
10
13.7045849692835
20
-1.18201912520132
30
1E-16
41
1
10
13.4559673164167
20
-1.08026394422541
30
1E-16
41
1
10
12.7111646597883
20
-0.770698504064711
30
0
41
1
10
12.215480509859
20
-0.559893296025251
30
0
41
1
10
11.4730988446922
20
-0.237429804596246
30
0
41
1
10
11.2260202590568
20
-0.128438582285639
30
0
41
1
10
10.7308735118571
20
0.0884259232418003
30
0
41
1
10
10.4828250582674
20
0.196337494134667
30
0
41
1
10
9.98594266270635
20
0.411502098143302
30
0
41
1
10
9.73704566962508
20
0.518603246192754
30
0
41
1
10
9.23860332733003
20
0.73252000920013
30
0
41
1
10
8.98881147073976
20
0.838745015435165
30
-1E-16
41
1
10
8.23594450964214
20
1.15088862350268
30
-1E-16
41
1
10
7.73444264860973
20
1.34920894139708
30
-1E-16
41
1
10
6.98509196470346
20
1.63313515815187
30
-1E-16
41
1
10
6.73551193084376
20
1.72506013356019
30
-1E-16
41
1
10
6.2347281317528
20
1.89970164163626
30
-1E-16
41
1
10
5.98368242115481
20
1.98274547016587
30
-1E-16
41
1
10
5.73175964510801
20
2.06125469259291
30
-1E-16
0
SPLINE
5
DD
100
AcDbEntity
8
1
62
256
6
ByLayer
370
18
48
1
60
0
100
AcDbSpline
70
4
71
3
72
8
73
4
40
0
40
0
40
0
40
0
40
1
40
1
40
1
40
1
41
1
10
53.9365993107538
20
2.9274901192843
30
0
41
1
10
53.9378659500861
20
2.9266366995339
30
0
41
1
10
53.9391326049031
20
2.92578323052808
30
0
41
1
10
53.9403992752688
20
2.92492971230638
30
0
0
SPLINE
5
DE
100
AcDbEntity
8
1
62
256
6
ByLayer
370
18
48
1
60
0
100
AcDbSpline
70
4
71
3
72
20
73
16
40
0
40
0
40
0
40
0
40
0.235946394757431
40
0.235946394757431
40
0.353919592136148
40
0.353919592136148
40
0.471892789514865
40
0.471892789514865
40
0.589865986893582
40
0.589865986893582
40
0.707839184272299
40
0.707839184272299
40
0.943785579029728
40
0.943785579029728
40
1
40
1
40
1
40
1
41
1
10
24.5
20
-1.38417203841541
30
1E-16
41
1
10
25.1117832919612
20
-1.62266986527638
30
1E-16
41
1
10
25.7217687785532
20
-1.8442732064687
30
1E-16
41
1
10
26.6391669295422
20
-2.14168471018618
30
1E-16
41
1
10
26.945492100551
20
-2.23501305017553
30
1E-16
41
1
10
27.5567579452201
20
-2.40767677996936
30
-1E-16
41
1
10
27.862072971967
20
-2.4871419249622
30
-1E-16
41
1
10
28.472910339492
20
-2.6312158694376
30
-1E-16
41
1
10
28.7784333192179
20
-2.69582279581013
30
-1E-16
41
1
10
29.3905589204312
20
-2.8091106788016
30
-1E-16
41
1
10
29.6959895085417
20
-2.85755746468831
30
0
41
1
10
30.6092254682878
20
-2.97726647353096
30
0
41
1
10
31.2149952727617
20
-3.02303072961041
30
0
41
1
10
31.9654522347386
20
-3.03643779846158
30
0
41
1
10
32.1098616441112
20
-3.03703438121616
30
0
41
1
10
32.2543311760548
20
-3.03564813313869
30
0
0
SPLINE
5
DF
100
AcDbEntity
8
1
62
256
6
ByLayer
370
18
48
1
60
0
100
AcDbSpline
70
4
71
3
72
16
73
12
40
0
40
0
40
0
40
0
40
0.361502488422211
40
0.361502488422211
40
0.542253732633313
40
0.542253732633313
40
0.723004976844414
40
0.723004976844414
40
0.903756221055516
40
0.903756221055516
40
1
40
1
40
1
40
1
41
1
10
53.9365993107538
20
2.92749011928433
30
0
41
1
10
53.3226927455932
20
2.93159462292897
30
0
41
1
10
52.7111078243549
20
2.90129980736859
30
0
41
1
10
51.7912783202682
20
2.8051110825632
30
1E-16
41
1
10
51.4840660668133
20
2.76471875590801
30
1E-16
41
1
10
50.8694781955387
20
2.66808161816201
30
1E-16
41
1
10
50.5620867404638
20
2.61177701266749
30
1E-16
41
1
10
49.9473268192933
20
2.4838036200002
30
1E-16
41
1
10
49.639766939867
20
2.4121252676056
30
1E-16
41
1
10
49.1692172834123
20
2.2919304596399
30
1E-16
41
1
10
49.0058130511898
20
2.24823737765618
30
1E-16
41
1
10
48.8424161335832
20
2.2027112600008
30
1E-16
0
SPLINE
5
E0
100
AcDbEntity
8
1
62
256
6
ByLayer
370
18
48
1
60
0
100
AcDbSpline
70
4
71
3
72
10
73
6
40
0
40
0
40
0
40
0
40
0.5
40
0.5
40
1
40
1
40
1
40
1
41
1
10
3.56170534466375
20
-1.31400278973999
30
1E-16
41
1
10
3.54383989877431
20
-1.30698052383587
30
1E-16
41
1
10
3.52864088014229
20
-1.29534261435992
30
1E-16
41
1
10
3.5075095822765
20
-1.26615953900537
30
1E-16
41
1
10
3.50169485086661
20
-1.24866175892743
30
1E-16
41
1
10
3.50169485086661
20
-1.23086410501031
30
1E-16
0
SPLINE
5
E1
100
AcDbEntity
8
1
62
256
6
ByLayer
370
18
48
1
60
0
100
AcDbSpline
70
4
71
3
72
14
73
10
40
0
40
0
40
0
40
0
40
0.256756359535098
40
0.256756359535098
40
0.513512719070197
40
0.513512719070197
40
0.770269078605295
40
0.770269078605295
40
1
40
1
40
1
40
1
41
1
10
5.67624349288346
20
-2.38207553670247
30
-1E-16
41
1
10
6.07183353772467
20
-2.48818811893321
30
-1E-16
41
1
10
6.46545393244776
20
-2.58218471982857
30
-1E-16
41
1
10
7.25026909689331
20
-2.7443830639717
30
-1E-16
41
1
10
7.641506744282
20
-2.81248096267498
30
0
41
1
10
8.4240091051104
20
-2.92080963319043
30
0
41
1
10
8.81517892288707
20
-2.96117787588216
30
0
41
1
10
9.55742471554004
20
-3.01067533168816
30
0
41
1
10
9.9083830825075
20
-3.02258059397738
30
0
41
1
10
10.2607155195272
20
-3.02272849798106
30
0
0
SPLINE
5
E2
100
AcDbEntity
8
1
62
256
6
ByLayer
370
18
48
1
60
0
100
AcDbSpline
70
4
71
3
72
12
73
8
40
0
40
0
40
0
40
0
40
0.500000000000002
40
0.500000000000002
40
0.750000000000001
40
0.750000000000001
40
1
40
1
40
1
40
1
41
1
10
3.50169485086661
20
2.27911000082494
30
1E-16
41
1
10
3.50169485086661
20
2.27425371492751
30
1E-16
41
1
10
3.5094713981986
20
2.26916752357244
30
1E-16
41
1
10
3.53487038787171
20
2.26260876894881
30
1E-16
41
1
10
3.54564641298518
20
2.26063754869833
30
1E-16
41
1
10
3.57170667277822
20
2.25775648791986
30
1E-16
41
1
10
3.58687719070028
20
2.25689985882482
30
1E-16
41
1
10
3.60249324594278
20
2.25692910025381
30
1E-16
0
SPLINE
5
E3
100
AcDbEntity
8
1
62
256
6
ByLayer
370
18
48
1
60
0
100
AcDbSpline
70
4
71
3
72
8
73
4
40
0
40
0
40
0
40
0
40
1
40
1
40
1
40
1
41
1
10
5.15017202471034
20
-2.2405068410701
30
0
41
1
10
5.32666300799701
20
-2.28774970372857
30
0
41
1
10
5.50198198726156
20
-2.33520448418025
30
-1E-16
41
1
10
5.67616713478486
20
-2.38205499993842
30
-1E-16
0
SPLINE
5
E4
100
AcDbEntity
8
1
62
256
6
ByLayer
370
18
48
1
60
0
100
AcDbSpline
70
4
71
3
72
10
73
6
40
0
40
0
40
0
40
0
40
0.5
40
0.5
40
1
40
1
40
1
40
1
41
1
10
3.56326353694647
20
-1.25558949610459
30
1E-16
41
1
10
3.54203588559594
20
-1.25108978088758
30
1E-16
41
1
10
3.52667920386648
20
-1.24361743265274
30
1E-16
41
1
10
3.50654944290608
20
-1.2268647263657
30
1E-16
41
1
10
3.50169485086661
20
-1.21743310955506
30
1E-16
41
1
10
3.50169485086661
20
-1.20806951193669
30
1E-16
0
SPLINE
5
E5
100
AcDbEntity
8
1
62
256
6
ByLayer
370
18
48
1
60
0
100
AcDbSpline
70
4
71
3
72
12
73
8
40
0
40
0
40
0
40
0
40
0.250000000000016
40
0.250000000000016
40
0.500000000000032
40
0.500000000000032
40
1
40
1
40
1
40
1
41
1
10
3.60249324594278
20
2.27096155458185
30
1E-16
41
1
10
3.58687057032526
20
2.27095004362826
30
1E-16
41
1
10
3.5716962686358
20
2.27128897517633
30
1E-16
41
1
10
3.54563800825377
20
2.27240844267109
30
1E-16
41
1
10
3.53486654744208
20
2.27316656858071
30
1E-16
41
1
10
3.50947583805001
20
2.27562966872915
30
1E-16
41
1
10
3.50169485086661
20
2.27746077709151
30
1E-16
41
1
10
3.50169485086661
20
2.27911000082494
30
1E-16
0
SPLINE
5
E6
100
AcDbEntity
8
1
62
256
6
ByLayer
370
18
48
1
60
0
100
AcDbSpline
70
4
71
3
72
10
73
6
40
0
40
0
40
0
40
0
40
0.404280031979113
40
0.404280031979113
40
1
40
1
40
1
40
1
41
1
10
5.67623910987319
20
2.38206017231974
30
1E-16
41
1
10
5.66578965269616
20
2.34543042133782
30
1E-16
41
1
10
5.65498233420414
20
2.30899032535018
30
1E-16
41
1
10
5.62709737978133
20
2.21936442995579
30
1E-16
41
1
10
5.60963587821044
20
2.1663960420623
30
1E-16
41
1
10
5.59144567209998
20
2.1138370367436
30
1E-16
0
SPLINE
5
E7
100
AcDbEntity
8
1
62
256
6
ByLayer
370
18
48
1
60
0
100
AcDbSpline
70
4
71
3
72
8
73
4
40
0
40
0
40
0
40
0
40
1
40
1
40
1
40
1
41
1
10
8.16117971162612
20
1.14980774655501
30
-1E-16
41
1
10
8.03363937797329
20
1.19503595985873
30
-1E-16
41
1
10
7.90623476893504
20
1.24063748388346
30
-1E-16
41
1
10
7.77897200558306
20
1.28660328067508
30
-1E-16
0
SPLINE
5
E8
100
AcDbEntity
8
1
62
256
6
ByLayer
370
18
48
1
60
0
100
AcDbSpline
70
4
71
3
72
16
73
12
40
0
40
0
40
0
40
0
40
0.220716182607499
40
0.220716182607499
40
0.443301550417257
40
0.443301550417257
40
0.640349079906671
40
0.640349079906671
40
0.818744839913501
40
0.818744839913501
40
1
40
1
40
1
40
1
41
1
10
53.9129797118488
20
-2.87132842257762
30
0
41
1
10
53.9130570744312
20
-2.8714877431232
30
0
41
1
10
53.9130795473565
20
-2.871822294391
30
0
41
1
10
53.9129924069598
20
-2.87284580948261
30
0
41
1
10
53.9128793280026
20
-2.87355633369904
30
0
41
1
10
53.9125399541227
20
-2.8751725222956
30
0
41
1
10
53.9123226491625
20
-2.87607113560742
30
0
41
1
10
53.9118359889018
20
-2.8778864453314
30
0
41
1
10
53.9115672737339
20
-2.87881684988355
30
0
41
1
10
53.9109974538037
20
-2.88067288368623
30
0
41
1
10
53.9106890019127
20
-2.88162116745613
30
0
41
1
10
53.9103821310894
20
-2.88251835434693
30
0
0
SPLINE
5
E9
100
AcDbEntity
8
1
62
256
6
ByLayer
370
18
48
1
60
0
100
AcDbSpline
70
4
71
3
72
16
73
12
40
0
40
0
40
0
40
0
40
0.366837981021114
40
0.366837981021114
40
0.458547476276392
40
0.458547476276392
40
0.55025697153167
40
0.55025697153167
40
0.733675962042223
40
0.733675962042223
40
1
40
1
40
1
40
1
41
1
10
3.60186176858863
20
-1.25288324727956
30
1E-16
41
1
10
4.65918507905297
20
-1.64709443125162
30
1E-16
41
1
10
5.70516890166127
20
-1.99248968428282
30
1E-16
41
1
10
7.01871765589257
20
-2.32788435709065
30
-1E-16
41
1
10
7.28173328329018
20
-2.39019771230497
30
-1E-16
41
1
10
7.80882947409907
20
-2.50442684129234
30
-1E-16
41
1
10
8.07345727904547
20
-2.55642997620035
30
-1E-16
41
1
10
8.8651260964684
20
-2.69495935101253
30
-1E-16
41
1
10
9.38940167413932
20
-2.76399037645015
30
-1E-16
41
1
10
10.6710703420756
20
-2.87395772341657
30
0
41
1
10
11.4267119076243
20
-2.88779447950444
30
0
41
1
10
12.1848547660245
20
-2.85029542218572
30
0
0
SPLINE
5
EA
100
AcDbEntity
8
1
62
256
6
ByLayer
370
18
48
1
60
0
100
AcDbSpline
70
4
71
3
72
22
73
18
40
0
40
0
40
0
40
0
40
0.0907713264626381
40
0.0907713264626381
40
0.393847550975101
40
0.393847550975101
40
0.469616607103215
40
0.469616607103215
40
0.54538566323133
40
0.54538566323133
40
0.696923775487554
40
0.696923775487554
40
0.848461887743779
40
0.848461887743779
40
0.92423094387189
40
0.92423094387189
40
1
40
1
40
1
40
1
41
1
10
43.5544000278339
20
0.173406553919079
30
0
41
1
10
43.8679423531323
20
0.0427869759190855
30
0
41
1
10
44.1806147219665
20
-0.0880100479534747
30
0
41
1
10
45.535223599548
20
-0.652035942890024
30
0
41
1
10
46.5722699824736
20
-1.07716938232784
30
1E-16
41
1
10
47.8813975653499
20
-1.55045918422775
30
1E-16
41
1
10
48.1438574325634
20
-1.64224295529479
30
1E-16
41
1
10
48.6705537705547
20
-1.8189362040541
30
1E-16
41
1
10
48.9350550331001
20
-1.90390428651529
30
1E-16
41
1
10
49.7246683626676
20
-2.14465040376405
30
-1E-16
41
1
10
50.2482357222614
20
-2.28709287473853
30
-1E-16
41
1
10
51.2937441326605
20
-2.5303013916905
30
-1E-16
41
1
10
51.815679488142
20
-2.63118927819312
30
-1E-16
41
1
10
52.6002480861816
20
-2.74796318634358
30
-1E-16
41
1
10
52.8620470291835
20
-2.78112336257791
30
-1E-16
41
1
10
53.3866509884495
20
-2.83538895535912
30
0
41
1
10
53.6494735991774
20
-2.85617503121426
30
0
41
1
10
53.9129797118512
20
-2.87132842257773
30
0
0
SPLINE
5
EB
100
AcDbEntity
8
1
62
256
6
ByLayer
370
18
48
1
60
0
100
AcDbSpline
70
4
71
3
72
26
73
22
40
0
40
0
40
0
40
0
40
0.164320872574199
40
0.164320872574199
40
0.299511180162086
40
0.299511180162086
40
0.36710633395603
40
0.36710633395603
40
0.434701487749974
40
0.434701487749974
40
0.569891795337861
40
0.569891795337861
40
0.637486949131804
40
0.637486949131804
40
0.705082102925745
40
0.705082102925745
40
0.840272410513626
40
0.840272410513626
40
0.975462718101508
40
0.975462718101508
40
1
40
1
40
1
40
1
41
1
10
33.8331668747995
20
-2.87735429247519
30
0
41
1
10
33.1989617506188
20
-2.90620806417752
30
0
41
1
10
32.5665435560384
20
-2.89895745842435
30
0
41
1
10
31.4106030154563
20
-2.81901458531215
30
0
41
1
10
30.8878167619136
20
-2.75865920685288
30
-1E-16
41
1
10
30.0989542458387
20
-2.632533401708
30
-1E-16
41
1
10
29.834871713434
20
-2.58446381275826
30
-1E-16
41
1
10
29.3064612856766
20
-2.47735068939576
30
-1E-16
41
1
10
29.0423749370432
20
-2.41830601435214
30
-1E-16
41
1
10
28.2495070770339
20
-2.22542266763972
30
-1E-16
41
1
10
27.7221512701446
20
-2.07667923302665
30
1E-16
41
1
10
26.9303231365129
20
-1.82824495510056
30
1E-16
41
1
10
26.6658657391586
20
-1.74111351346036
30
1E-16
41
1
10
26.1380620710597
20
-1.56002687030735
30
1E-16
41
1
10
25.8750437254562
20
-1.4662001194487
30
1E-16
41
1
10
25.0879219509924
20
-1.17658931083844
30
1E-16
41
1
10
24.5657500128629
20
-0.972734085477555
30
1E-16
41
1
10
23.5224597734272
20
-0.553000310828196
30
0
41
1
10
23.0016676564534
20
-0.336539223748446
30
0
41
1
10
22.3845524735769
20
-0.0795533998544613
30
0
41
1
10
22.2897170667106
20
-0.0400099045768911
30
0
41
1
10
22.1948326297314
20
-0.0004360549261548
30
0
0
SPLINE
5
EC
100
AcDbEntity
8
1
62
256
6
ByLayer
370
18
48
1
60
0
100
AcDbSpline
70
4
71
3
72
56
73
52
40
0
40
0
40
0
40
0
40
0.0249733510404975
40
0.0249733510404975
40
0.0575328478500234
40
0.0575328478500234
40
0.0900923446595494
40
0.0900923446595494
40
0.122651841469075
40
0.122651841469075
40
0.155211338278601
40
0.155211338278601
40
0.187770835088127
40
0.187770835088127
40
0.220330331897653
40
0.220330331897653
40
0.285449325516705
40
0.285449325516705
40
0.31800882232623
40
0.31800882232623
40
0.350568319135756
40
0.350568319135756
40
0.415687312754807
40
0.415687312754807
40
0.448246809564333
40
0.448246809564333
40
0.480806306373858
40
0.480806306373858
40
0.545925299992911
40
0.545925299992911
40
0.611044293611964
40
0.611044293611964
40
0.64360379042149
40
0.64360379042149
40
0.676163287231016
40
0.676163287231016
40
0.741282280850069
40
0.741282280850069
40
0.773841777659596
40
0.773841777659596
40
0.806401274469122
40
0.806401274469122
40
0.871520268088173
40
0.871520268088173
40
0.904079764897698
40
0.904079764897698
40
0.936639261707223
40
0.936639261707223
40
0.969198758516748
40
0.969198758516748
40
1
40
1
40
1
40
1
41
1
10
18.6098951452465
20
2.87857978643723
30
0
41
1
10
18.8090518698605
20
2.90575279062867
30
0
41
1
10
19.0081400307527
20
2.92937131531735
30
0
41
1
10
19.4672932748979
20
2.97518593981974
30
0
41
1
10
19.7273820139841
20
2.99488960531895
30
0
41
1
10
20.2480604042719
20
3.02169661735797
30
0
41
1
10
20.5085493861372
20
3.02871389199265
30
0
41
1
10
21.0287924020847
20
3.02984439887121
30
0
41
1
10
21.2886916983928
20
3.0240365659063
30
0
41
1
10
21.8080587071884
20
2.9996398547654
30
0
41
1
10
22.0675355392463
20
2.9809928504279
30
0
41
1
10
22.5874980699729
20
2.93139134037759
30
0
41
1
10
22.8478138874126
20
2.90037644799787
30
0
41
1
10
23.3689092424546
20
2.82582917790688
30
0
41
1
10
23.6288223212532
20
2.78238323152996
30
1E-16
41
1
10
24.4086109443653
20
2.63547359885664
30
1E-16
41
1
10
24.9273698820261
20
2.51431027423149
30
1E-16
41
1
10
25.7075512484362
20
2.30205485482526
30
1E-16
41
1
10
25.9683417399348
20
2.22624494158438
30
-1E-16
41
1
10
26.4887989004644
20
2.06519602747775
30
-1E-16
41
1
10
26.748596310728
20
1.98017237536192
30
-1E-16
41
1
10
27.5279556081736
20
1.71391128463156
30
-1E-16
41
1
10
28.0466416380501
20
1.51990952907556
30
-1E-16
41
1
10
28.8275537124032
20
1.21226267805739
30
-1E-16
41
1
10
29.0882867483666
20
1.10670972234126
30
-1E-16
41
1
10
29.6082284779407
20
0.891338071916834
30
-1E-16
41
1
10
29.8679024252197
20
0.781705987411925
30
0
41
1
10
30.6470093824266
20
0.44917457378935
30
0
41
1
10
31.1659034135484
20
0.221220453948575
30
0
41
1
10
32.2079852443637
20
-0.235139150747329
30
0
41
1
10
32.7271675805715
20
-0.463245916009356
30
0
41
1
10
33.5061526154253
20
-0.795841337102416
30
0
41
1
10
33.7658186339654
20
-0.905332738291889
30
1E-16
41
1
10
34.2854757847389
20
-1.12083435332391
30
1E-16
41
1
10
34.5460361096674
20
-1.22638573553743
30
1E-16
41
1
10
35.3270567575387
20
-1.53422949144712
30
1E-16
41
1
10
35.8456548476615
20
-1.72832724471701
30
1E-16
41
1
10
36.6247325242843
20
-1.99455885301634
30
1E-16
41
1
10
36.8844524724806
20
-2.079478114441
30
1E-16
41
1
10
37.4044347379988
20
-2.24070776276491
30
1E-16
41
1
10
37.6651692420631
20
-2.31658028593009
30
-1E-16
41
1
10
38.4454675121584
20
-2.52860921305304
30
-1E-16
41
1
10
38.9638571608093
20
-2.64998832522986
30
-1E-16
41
1
10
39.7431232047372
20
-2.7968127909736
30
-1E-16
41
1
10
40.0029240364194
20
-2.84014289599546
30
0
41
1
10
40.5233059330371
20
-2.91475348017451
30
0
41
1
10
40.7836975460318
20
-2.94572245009672
30
0
41
1
10
41.3035109178631
20
-2.99514372274416
30
0
41
1
10
41.5630320965229
20
-3.01363535590059
30
0
41
1
10
42.0681559570258
20
-3.03717467600032
30
0
41
1
10
42.3138247008336
20
-3.04291086489258
30
0
41
1
10
42.5596068854458
20
-3.04291481238931
30
0
0
SPLINE
5
ED
100
AcDbEntity
8
1
62
256
6
ByLayer
370
18
48
1
60
0
100
AcDbSpline
70
4
71
3
72
20
73
16
40
0
40
0
40
0
40
0
40
0.0999065457296443
40
0.0999065457296443
40
0.24992212144137
40
0.24992212144137
40
0.399937697153096
40
0.399937697153096
40
0.549953272864822
40
0.549953272864822
40
0.699968848576548
40
0.699968848576548
40
0.849984424288274
40
0.849984424288274
40
1
40
1
40
1
40
1
41
1
10
53.7727456367874
20
0.431248451717266
30
0
41
1
10
53.7617503945142
20
0.443348761704016
30
0
41
1
10
53.7530735102915
20
0.456289095729545
30
0
41
1
10
53.7379395984293
20
0.490533532266227
30
0
41
1
10
53.7344214358295
20
0.512942090032908
30
0
41
1
10
53.7393363082238
20
0.562759891050945
30
0
41
1
10
53.7476684175937
20
0.589006854138489
30
0
41
1
10
53.7757215908604
20
0.644908387463772
30
0
41
1
10
53.7957804129134
20
0.674712392672035
30
0
41
1
10
53.8468555677409
20
0.732485869796051
30
0
41
1
10
53.8789688684064
20
0.761388522911545
30
0
41
1
10
53.9528333307971
20
0.812421117001406
30
0
41
1
10
53.9950848913415
20
0.835146845679816
30
0
41
1
10
54.0856618937561
20
0.870856988866279
30
0
41
1
10
54.1336385217158
20
0.883763721962225
30
0
41
1
10
54.1830124699175
20
0.891580936504482
30
0
0
SPLINE
5
EE
100
AcDbEntity
8
1
62
256
6
ByLayer
370
18
48
1
60
0
100
AcDbSpline
70
4
71
3
72
8
73
4
40
0
40
0
40
0
40
0
40
1
40
1
40
1
40
1
41
1
10
3.6406406358922
20
2.26630019224459
30
1E-16
41
1
10
3.62850395871044
20
2.26940737076433
30
1E-16
41
1
10
3.61566974273569
20
2.27097126316482
30
1E-16
41
1
10
3.60249324594278
20
2.27096155458185
30
1E-16
0
SPLINE
5
EF
100
AcDbEntity
8
1
62
256
6
ByLayer
370
18
48
1
60
0
100
AcDbSpline
70
4
71
3
72
18
73
14
40
0
40
0
40
0
40
0
40
0.250000000000005
40
0.250000000000005
40
0.375000000000008
40
0.375000000000008
40
0.500000000000011
40
0.500000000000011
40
0.750000000000009
40
0.750000000000009
40
0.875000000000005
40
0.875000000000005
40
1
40
1
40
1
40
1
41
1
10
53.9403992752687
20
-2.92492971230647
30
0
41
1
10
53.9991098368498
20
-2.75973713093319
30
0
41
1
10
54.0569729900511
20
-2.59360018057333
30
0
41
1
10
54.1434656296733
20
-2.34352533225115
30
0
41
1
10
54.1722245776231
20
-2.26007752356637
30
0
41
1
10
54.2297272708768
20
-2.09306234560899
30
0
41
1
10
54.2592066832199
20
-2.00920917425333
30
0
41
1
10
54.3505276592027
20
-1.76014281501958
30
0
41
1
10
54.414618418368
20
-1.59903809944151
30
0
41
1
10
54.5195256026585
20
-1.36592542063121
30
0
41
1
10
54.5560878199307
20
-1.2892733792859
30
0
41
1
10
54.6319413761149
20
-1.14064914885569
30
0
41
1
10
54.6709372701908
20
-1.06921108617701
30
0
41
1
10
54.7111361650084
20
-1.00054944604602
30
0
0
SPLINE
5
F0
100
AcDbEntity
8
1
62
256
6
ByLayer
370
18
48
1
60
0
100
AcDbSpline
70
4
71
3
72
8
73
4
40
0
40
0
40
0
40
0
40
1
40
1
40
1
40
1
41
1
10
53.741051080876
20
-3.01300685965015
30
0
41
1
10
53.7931745648148
20
-2.98233968852262
30
0
41
1
10
53.8453902472243
20
-2.95123291244835
30
0
41
1
10
53.897711959726
20
-2.91969801062373
30
0
0
SPLINE
5
F1
100
AcDbEntity
8
1
62
256
6
ByLayer
370
18
48
1
60
0
100
AcDbSpline
70
4
71
3
72
8
73
4
40
0
40
0
40
0
40
0
40
1
40
1
40
1
40
1
41
1
10
0
20
-3.99999999491786
30
0
41
1
10
0
20
-3.85902263317104
30
0
41
1
10
0
20
-3.73342625045089
30
0
41
1
10
0
20
-3.62300790551805
30
0
0
SPLINE
5
F2
100
AcDbEntity
8
1
62
256
6
ByLayer
370
18
48
1
60
0
100
AcDbSpline
70
4
71
3
72
34
73
30
40
0
40
0
40
0
40
0
40
0.0397052240142461
40
0.0397052240142461
40
0.176382565304763
40
0.176382565304763
40
0.244721235950022
40
0.244721235950022
40
0.31305990659528
40
0.31305990659528
40
0.381398577240539
40
0.381398577240539
40
0.449737247885797
40
0.449737247885797
40
0.518075918531055
40
0.518075918531055
40
0.586414589176314
40
0.586414589176314
40
0.72309193046683
40
0.72309193046683
40
0.791430601112087
40
0.791430601112087
40
0.859769271757345
40
0.859769271757345
40
0.928107942402602
40
0.928107942402602
40
0.99644661304786
40
0.99644661304786
40
1
40
1
40
1
40
1
41
1
10
32.2086065967972
20
-0.234347022556307
30
0
41
1
10
32.0583477075868
20
-0.171943321029715
30
0
41
1
10
31.9080284931522
20
-0.109372841407719
30
0
41
1
10
31.2397517033918
20
0.168694467440389
30
0
41
1
10
30.7208373174505
20
0.385456188824065
30
0
41
1
10
29.9376601451678
20
0.704106736709576
30
0
41
1
10
29.6754887283746
20
0.809593367527583
30
0
41
1
10
29.1512972293378
20
1.01666959603605
30
-1E-16
41
1
10
28.8890946346716
20
1.11813703986681
30
-1E-16
41
1
10
28.364666914963
20
1.31577552647676
30
-1E-16
41
1
10
28.1028678691899
20
1.41190140854803
30
-1E-16
41
1
10
27.5794504393502
20
1.59762712359543
30
-1E-16
41
1
10
27.3176900578644
20
1.6872040648424
30
-1E-16
41
1
10
26.7938049568698
20
1.85888232210857
30
-1E-16
41
1
10
26.5313552285532
20
1.94105101620173
30
-1E-16
41
1
10
26.0083126229194
20
2.09611024052705
30
1E-16
41
1
10
25.7474398013803
20
2.16919392515368
30
1E-16
41
1
10
24.9669136961333
20
2.37343898938269
30
1E-16
41
1
10
24.4491213994502
20
2.48977718508624
30
1E-16
41
1
10
23.6728439906743
20
2.63214175683353
30
1E-16
41
1
10
23.414395895689
20
2.67372683322179
30
1E-16
41
1
10
22.8970903918059
20
2.74605162991713
30
1E-16
41
1
10
22.6382027587558
20
2.776881340676
30
1E-16
41
1
10
22.1198450361834
20
2.82669312316338
30
0
41
1
10
21.8604879015786
20
2.84507314780262
30
0
41
1
10
21.3404715481688
20
2.87046752143328
30
0
41
1
10
21.0797862691061
20
2.87764781473442
30
0
41
1
10
20.8047407465573
20
2.87857486923608
30
0
41
1
10
20.7911430563914
20
2.8786018895924
30
0
41
1
10
20.7775425878175
20
2.87861028331588
30
0
0
SPLINE
5
F3
100
AcDbEntity
8
1
62
256
6
ByLayer
370
18
48
1
60
0
100
AcDbSpline
70
4
71
3
72
8
73
4
40
0
40
0
40
0
40
0
40
1
40
1
40
1
40
1
41
1
10
54.1830124699175
20
0.891580936504454
30
0
41
1
10
54.3606339992249
20
0.919703168015104
30
0
41
1
10
54.5376323375964
20
0.95399766265416
30
0
41
1
10
54.7111361650083
20
1.00054944604565
30
0
0
SPLINE
5
F4
100
AcDbEntity
8
1
62
256
6
ByLayer
370
18
48
1
60
0
100
AcDbSpline
70
4
71
3
72
8
73
4
40
0
40
0
40
0
40
0
40
1
40
1
40
1
40
1
41
1
10
53.4880207613687
20
-0.0277994740252723
30
0
41
1
10
53.5120745054631
20
-0.0379993151155134
30
0
41
1
10
53.5359924298767
20
-0.0476395392095128
30
0
41
1
10
53.5597982110991
20
-0.056733395369605
30
0
0
SPLINE
5
F5
100
AcDbEntity
8
1
62
256
6
ByLayer
370
18
48
1
60
0
100
AcDbSpline
70
4
71
3
72
10
73
6
40
0
40
0
40
0
40
0
40
0.5
40
0.5
40
1
40
1
40
1
40
1
41
1
10
3.50169485086661
20
2.31981975393427
30
1E-16
41
1
10
3.50169485086661
20
2.34122132748143
30
1E-16
41
1
10
3.51918336703562
20
2.36130473692401
30
1E-16
41
1
10
3.57508503209732
20
2.38383251583846
30
1E-16
41
1
10
3.61167337483346
20
2.38565311739575
30
1E-16
41
1
10
3.64224917486936
20
2.37730856055077
30
1E-16
0
SPLINE
5
F6
100
AcDbEntity
8
1
62
256
6
ByLayer
370
18
48
1
60
0
100
AcDbSpline
70
4
71
3
72
20
73
16
40
0
40
0
40
0
40
0
40
0.279812713309553
40
0.279812713309553
40
0.559625426619106
40
0.559625426619106
40
0.699531783273883
40
0.699531783273883
40
0.839438139928659
40
0.839438139928659
40
0.909391318256046
40
0.909391318256046
40
0.979344496583432
40
0.979344496583432
40
1
40
1
40
1
40
1
41
1
10
5.7318459368212
20
2.0612343139766
30
-1E-16
41
1
10
5.35548606915722
20
2.1810647420082
30
-1E-16
41
1
10
4.98517406537724
20
2.2978603116438
30
1E-16
41
1
10
4.26009143167931
20
2.52048887594867
30
1E-16
41
1
10
3.90510480436998
20
2.62654143083449
30
1E-16
41
1
10
3.39048126620386
20
2.77001659463247
30
1E-16
41
1
10
3.22193109680651
20
2.81521051503566
30
0
41
1
10
2.89370725691964
20
2.89730759150348
30
0
41
1
10
2.7372474933957
20
2.93344281165341
30
0
41
1
10
2.52025875834781
20
2.97590749374717
30
0
41
1
10
2.45055453313643
20
2.98812592361045
30
0
41
1
10
2.32145005522435
20
3.00684302981671
30
0
41
1
10
2.26202056813349
20
3.01337796665698
30
0
41
1
10
2.1938256581069
20
3.01700000793881
30
0
41
1
10
2.17884800947456
20
3.01749097369114
30
0
41
1
10
2.16455578946039
20
3.01761875947005
30
0
0
SPLINE
5
F7
100
AcDbEntity
8
1
62
256
6
ByLayer
370
18
48
1
60
0
100
AcDbSpline
70
4
71
3
72
8
73
4
40
0
40
0
40
0
40
0
40
1
40
1
40
1
40
1
41
1
10
5.15387561549414
20
2.2414982900159
30
0
41
1
10
5.32911573095106
20
2.28841358438061
30
0
41
1
10
5.50320044511312
20
2.33553221234527
30
1E-16
41
1
10
5.67616713478486
20
2.38205499993842
30
1E-16
0
SPLINE
5
F8
100
AcDbEntity
8
1
62
256
6
ByLayer
370
18
48
1
60
0
100
AcDbSpline
70
4
71
3
72
40
73
36
40
0
40
0
40
0
40
0
40
0.0024895740428621
40
0.0024895740428621
40
0.0572033078520795
40
0.0572033078520795
40
0.111917041661297
40
0.111917041661297
40
0.166630775470514
40
0.166630775470514
40
0.276058243088949
40
0.276058243088949
40
0.330771976898167
40
0.330771976898167
40
0.385485710707384
40
0.385485710707384
40
0.494913178325819
40
0.494913178325819
40
0.549626912135037
40
0.549626912135037
40
0.604340645944254
40
0.604340645944254
40
0.659054379753472
40
0.659054379753472
40
0.713768113562689
40
0.713768113562689
40
0.768481847371907
40
0.768481847371907
40
0.823195581181124
40
0.823195581181124
40
0.877909314990342
40
0.877909314990342
40
0.932623048799559
40
0.932623048799559
40
1
40
1
40
1
40
1
41
1
10
43.8506276935932
20
-0.381080123526885
30
0
41
1
10
43.8366444325374
20
-0.375222282299092
30
0
41
1
10
43.8226614560652
20
-0.369362409301516
30
0
41
1
10
43.5013796666575
20
-0.234675225174158
30
0
41
1
10
43.1943913422454
20
-0.105134112196652
30
0
41
1
10
42.5808019620801
20
0.154824688516499
30
0
41
1
10
42.2739025154762
20
0.284533309471953
30
0
41
1
10
41.6592345297283
20
0.541844021311221
30
0
41
1
10
41.3522240985175
20
0.668700544233047
30
0
41
1
10
40.4327782696561
20
1.043199202702
30
-1E-16
41
1
10
39.8209768645186
20
1.28319980159915
30
-1E-16
41
1
10
38.8996566995182
20
1.61671889287834
30
-1E-16
41
1
10
38.5922485130926
20
1.72427229438929
30
-1E-16
41
1
10
37.9774854077994
20
1.92750083793905
30
-1E-16
41
1
10
37.6701419258981
20
2.02370402474074
30
-1E-16
41
1
10
36.7478083754019
20
2.29300405261211
30
1E-16
41
1
10
36.1349040942588
20
2.44824089226677
30
1E-16
41
1
10
35.2128639826924
20
2.634068008725
30
1E-16
41
1
10
34.9057241387272
20
2.6881987879041
30
1E-16
41
1
10
34.2927671888039
20
2.78124537138174
30
1E-16
41
1
10
33.9864983169816
20
2.81949803376051
30
0
41
1
10
33.3737432108643
20
2.87905449597721
30
0
41
1
10
33.067109105504
20
2.90013086693426
30
0
41
1
10
32.4531589593061
20
2.92598231193659
30
0
41
1
10
32.1456398718813
20
2.93051459027598
30
0
41
1
10
31.5309100651939
20
2.92183475596522
30
0
41
1
10
31.2235209075035
20
2.90860534253963
30
0
41
1
10
30.6094087674899
20
2.86537499865972
30
0
41
1
10
30.3027612644722
20
2.83553083156261
30
0
41
1
10
29.6886941941448
20
2.75886911382557
30
1E-16
41
1
10
29.3809872837556
20
2.71209071983253
30
1E-16
41
1
10
28.7680184676337
20
2.60318617959479
30
1E-16
41
1
10
28.4625641188622
20
2.54120299306183
30
1E-16
41
1
10
27.7821871952983
20
2.38720819007861
30
1E-16
41
1
10
27.4074311061935
20
2.29140040005703
30
1E-16
41
1
10
27.0328450670107
20
2.18601385085952
30
1E-16
0
SPLINE
5
F9
100
AcDbEntity
8
1
62
256
6
ByLayer
370
18
48
1
60
0
100
AcDbSpline
70
4
71
3
72
34
73
30
40
0
40
0
40
0
40
0
40
0.337156577923413
40
0.337156577923413
40
0.564132422754558
40
0.564132422754558
40
0.71355813079616
40
0.71355813079616
40
0.812074620854822
40
0.812074620854822
40
0.877070794273223
40
0.877070794273223
40
0.919841840121124
40
0.919841840121124
40
0.948105325577249
40
0.948105325577249
40
0.96697659182871
40
0.96697659182871
40
0.979219914046839
40
0.979219914046839
40
0.987028491744068
40
0.987028491744068
40
0.992286456210706
40
0.992286456210706
40
0.997131434618943
40
0.997131434618943
40
0.999511901976772
40
0.999511901976772
40
1
40
1
40
1
40
1
41
1
10
53.7533224937759
20
-3.04964110148526
30
0
41
1
10
53.7738784608178
20
-3.03609268091037
30
0
41
1
10
53.7944519278895
20
-3.02247972204901
30
0
41
1
10
53.8289077650754
20
-2.999595146361
30
0
41
1
10
53.8427799322271
20
-2.99035838432013
30
0
41
1
10
53.8658000116095
20
-2.9749928716775
30
0
41
1
10
53.8749422285737
20
-2.96888082921842
30
0
41
1
10
53.890105229369
20
-2.95872788530014
30
0
41
1
10
53.8961259631894
20
-2.95469241044245
30
0
41
1
10
53.9061217405524
20
-2.94798554039079
30
0
41
1
10
53.9100979835802
20
-2.94531569203889
30
0
41
1
10
53.9167082683436
20
-2.94087401702774
30
0
41
1
10
53.9193405527371
20
-2.93910442836682
30
0
41
1
10
53.9236960144038
20
-2.936175366024
30
0
41
1
10
53.9254242948953
20
-2.93501282304209
30
0
41
1
10
53.9282788130374
20
-2.93309228392394
30
0
41
1
10
53.9294147108656
20
-2.93232790895948
30
0
41
1
10
53.9313263952894
20
-2.9310409961881
30
0
41
1
10
53.9320889713408
20
-2.93052752630609
30
0
41
1
10
53.9333489959479
20
-2.92967897716613
30
0
41
1
10
53.9338415514862
20
-2.92934724786909
30
0
41
1
10
53.934658661306
20
-2.9287969366022
30
0
41
1
10
53.9349860747563
20
-2.92857642756462
30
0
41
1
10
53.9356009397604
20
-2.9281623453528
30
0
41
1
10
53.9358920424087
20
-2.92796631142696
30
0
41
1
10
53.9362924517569
20
-2.92769670201548
30
0
41
1
10
53.9364199517871
20
-2.92761085757911
30
0
41
1
10
53.9365552881309
20
-2.92751975240276
30
0
41
1
10
53.9365777205124
20
-2.9275046520022
30
0
41
1
10
53.936599313119
20
-2.92749011769229
30
0
0
SPLINE
5
FA
100
AcDbEntity
8
1
62
256
6
ByLayer
370
18
48
1
60
0
100
AcDbSpline
70
4
71
3
72
8
73
4
40
0
40
0
40
0
40
0
40
1
40
1
40
1
40
1
41
1
10
54.9971873937143
20
0.168388532564876
30
0
41
1
10
54.9840129001659
20
0.124476925162781
30
0
41
1
10
54.970772868405
20
0.0805864118613044
30
0
41
1
10
54.9574675485315
20
0.0367169121633992
30
0
0
SPLINE
5
FB
100
AcDbEntity
8
1
62
256
6
ByLayer
370
18
48
1
60
0
100
AcDbSpline
70
4
71
3
72
8
73
4
40
0
40
0
40
0
40
0
40
1
40
1
40
1
40
1
41
1
10
54.9971873937143
20
0.168388532564848
30
0
41
1
10
55.0009406854638
20
0.0560352155463875
30
0
41
1
10
55.0009343906603
20
-0.0562236480138552
30
0
41
1
10
54.9971873937146
20
-0.168388532555838
30
0
0
SPLINE
5
FC
100
AcDbEntity
8
1
62
256
6
ByLayer
370
18
48
1
60
0
100
AcDbSpline
70
2053
71
3
72
52
73
48
40
0
40
0
40
0
40
0
40
0.0624999999999996
40
0.0624999999999996
40
0.124999999999999
40
0.124999999999999
40
0.187499999999999
40
0.187499999999999
40
0.218749999999999
40
0.218749999999999
40
0.249999999999999
40
0.249999999999999
40
0.281249999999998
40
0.281249999999998
40
0.312499999999998
40
0.312499999999998
40
0.343749999999998
40
0.343749999999998
40
0.374999999999998
40
0.374999999999998
40
0.406249999999998
40
0.406249999999998
40
0.437499999999997
40
0.437499999999997
40
0.499999999999997
40
0.499999999999997
40
0.625000000000001
40
0.625000000000001
40
0.656250000000001
40
0.656250000000001
40
0.687500000000001
40
0.687500000000001
40
0.750000000000001
40
0.750000000000001
40
0.781250000000001
40
0.781250000000001
40
0.812500000000001
40
0.812500000000001
40
0.84375
40
0.84375
40
0.875
40
0.875
40
0.9375
40
0.9375
40
0.96875
40
0.96875
40
1
40
1
40
1
40
1
41
1
10
54.1699316665165
20
-1.46672409018767
30
0
41
1
10
54.1455554973523
20
-1.50320442371594
30
1E-16
41
1
10
54.1228004392119
20
-1.52899126095082
30
1E-16
41
1
10
54.0797420819948
20
-1.55934514842139
30
1E-16
41
1
10
54.060448020903
20
-1.56311632705669
30
1E-16
41
1
10
54.0253173765682
20
-1.54714705974524
30
1E-16
41
1
10
54.0101995178398
20
-1.52770633155743
30
1E-16
41
1
10
53.9907498299094
20
-1.4810006019319
30
1E-16
41
1
10
53.9849780942122
20
-1.46286663839993
30
1E-16
41
1
10
53.9747688272236
20
-1.42144927983043
30
1E-16
41
1
10
53.9702934844666
20
-1.39789737257595
30
1E-16
41
1
10
53.9630165306547
20
-1.34633018559046
30
1E-16
41
1
10
53.9602390319589
20
-1.31866875614534
30
1E-16
41
1
10
53.9565607963152
20
-1.25948228274982
30
1E-16
41
1
10
53.9556731968869
20
-1.22749415679135
30
1E-16
41
1
10
53.9562434585671
20
-1.16220944783956
30
1E-16
41
1
10
53.957660141513
20
-1.12880284143597
30
1E-16
41
1
10
53.9631769089277
20
-1.06039077678548
30
1E-16
41
1
10
53.9672973857822
20
-1.02569748548572
30
1E-16
41
1
10
53.978166401843
20
-0.958617399173875
30
1E-16
41
1
10
53.985065046142
20
-0.925341890236638
30
1E-16
41
1
10
54.0013626309989
20
-0.862598448465604
30
1E-16
41
1
10
54.0106830893427
20
-0.833225764810948
30
1E-16
41
1
10
54.0422122281097
20
-0.750837485090813
30
0
41
1
10
54.0673128251171
20
-0.705835672452309
30
0
41
1
10
54.1472665107954
20
-0.604668160656587
30
0
41
1
10
54.2068837723951
20
-0.581132576087185
30
0
41
1
10
54.2685343868309
20
-0.602237067035304
30
0
41
1
10
54.2802524935643
20
-0.608967002330445
30
0
41
1
10
54.3022139208578
20
-0.627797404615478
30
0
41
1
10
54.3123999092138
20
-0.639923532031958
30
0
41
1
10
54.3391905126146
20
-0.683744608458966
30
0
41
1
10
54.3526112884359
20
-0.724115953359131
30
0
41
1
10
54.3621132016742
20
-0.798952345577959
30
0
41
1
10
54.3635612161439
20
-0.826776293055445
30
1E-16
41
1
10
54.3626204176436
20
-0.885486058488965
30
1E-16
41
1
10
54.3603008054676
20
-0.916351547984704
30
-1E-16
41
1
10
54.3519508550828
20
-0.981314796498907
30
-1E-16
41
1
10
54.3459434539504
20
-1.01491551219098
30
0
41
1
10
54.3311132705406
20
-1.08168614625961
30
0
41
1
10
54.3221057284204
20
-1.1156439581714
30
0
41
1
10
54.2923777479998
20
-1.21376330831251
30
0
41
1
10
54.2685574078699
20
-1.2758789152858
30
0
41
1
10
54.2318259793001
20
-1.35689147642498
30
0
41
1
10
54.2192311166948
20
-1.38225679013274
30
0
41
1
10
54.1944432094417
20
-1.42790882670641
30
0
41
1
10
54.1821197510986
20
-1.44848392342354
30
0
41
1
10
54.1699316665165
20
-1.46672409018767
30
0
0
SPLINE
5
FD
100
AcDbEntity
8
1
62
256
6
ByLayer
370
18
48
1
60
0
100
AcDbSpline
70
4
71
3
72
32
73
28
40
0
40
0
40
0
40
0
40
0.0112175697202025
40
0.0112175697202025
40
0.0822252792027406
40
0.0822252792027406
40
0.153232988685278
40
0.153232988685278
40
0.224240698167816
40
0.224240698167816
40
0.295248407650354
40
0.295248407650354
40
0.43726382661543
40
0.43726382661543
40
0.508271536097969
40
0.508271536097969
40
0.579279245580509
40
0.579279245580509
40
0.650286955063049
40
0.650286955063049
40
0.72129466454559
40
0.72129466454559
40
0.79230237402813
40
0.79230237402813
40
0.86331008351067
40
0.86331008351067
40
1
40
1
40
1
40
1
41
1
10
20.6950505547688
20
2.88828776013625
30
0
41
1
10
20.736396790341
20
2.88855465068858
30
0
41
1
10
20.7777234315121
20
2.88865223183734
30
0
41
1
10
21.080439664414
20
2.88808984920047
30
0
41
1
10
21.3410867615481
20
2.88128061356136
30
0
41
1
10
21.8610155673129
20
2.85658330680738
30
0
41
1
10
22.1203265656299
20
2.83854378426133
30
0
41
1
10
22.6385849330179
20
2.78934512504682
30
1E-16
41
1
10
22.8974202175762
20
2.75879506169986
30
1E-16
41
1
10
23.4146161215396
20
2.68698120573009
30
1E-16
41
1
10
23.6730082191313
20
2.64564029079526
30
1E-16
41
1
10
24.44911610629
20
2.50389636230494
30
1E-16
41
1
10
24.9667926385806
20
2.38786196275026
30
1E-16
41
1
10
25.7471596865115
20
2.18391513063457
30
1E-16
41
1
10
26.0079825618789
20
2.11089423563408
30
1E-16
41
1
10
26.5309298549888
20
1.95590724962736
30
-1E-16
41
1
10
26.7933478389164
20
1.87374553422339
30
-1E-16
41
1
10
27.31716431456
20
1.70201009657475
30
-1E-16
41
1
10
27.5788876787937
20
1.61236951723569
30
-1E-16
41
1
10
28.102228388179
20
1.426467234184
30
-1E-16
41
1
10
28.3639882143844
20
1.33022710493876
30
-1E-16
41
1
10
28.8883387036092
20
1.13228809123899
30
-1E-16
41
1
10
29.1505107503861
20
1.03063496828793
30
-1E-16
41
1
10
29.6746299269928
20
0.823141610754817
30
-1E-16
41
1
10
29.9367784196092
20
0.717413703667802
30
0
41
1
10
30.7002825720848
20
0.405948007365964
30
0
41
1
10
31.1997703113941
20
0.196869763353845
30
0
41
1
10
31.6981779876757
20
-0.0112919722107847
30
0
0
SPLINE
5
FE
100
AcDbEntity
8
1
62
256
6
ByLayer
370
18
48
1
60
0
100
AcDbSpline
70
4
71
3
72
8
73
4
40
0
40
0
40
0
40
0
40
1
40
1
40
1
40
1
41
1
10
53.9365993143387
20
-2.92749011686894
30
0
41
1
10
53.9378659524761
20
-2.92663669792358
30
0
41
1
10
53.9391326060981
20
-2.92578322972284
30
0
41
1
10
53.9403992752688
20
-2.92492971230635
30
0
0
SPLINE
5
FF
100
AcDbEntity
8
1
62
256
6
ByLayer
370
18
48
1
60
0
100
AcDbSpline
70
4
71
3
72
26
73
22
40
0
40
0
40
0
40
0
40
0.125
40
0.125
40
0.25
40
0.25
40
0.3125
40
0.3125
40
0.375
40
0.375
40
0.4375
40
0.4375
40
0.5
40
0.5
40
0.625
40
0.625
40
0.75
40
0.75
40
0.875
40
0.875
40
1
40
1
40
1
40
1
41
1
10
54.9574675485315
20
0.0367169121633708
30
0
41
1
10
54.9427036033863
20
-0.0119618789702827
30
0
41
1
10
54.9257294276093
20
-0.0595277651646597
30
0
41
1
10
54.8871941914373
20
-0.152273737555504
30
0
41
1
10
54.8655711174589
20
-0.197342788702628
30
0
41
1
10
54.8315669222582
20
-0.25844727417595
30
0
41
1
10
54.819892614987
20
-0.277914992493805
30
0
41
1
10
54.7958290210966
20
-0.314887503963519
30
0
41
1
10
54.7834680575244
20
-0.332308463420077
30
0
41
1
10
54.7590271617751
20
-0.363657186767711
30
0
41
1
10
54.7468235762546
20
-0.377782981627576
30
0
41
1
10
54.7224338884359
20
-0.402873185531888
30
0
41
1
10
54.7101366359376
20
-0.413906327876816
30
0
41
1
10
54.6744308807736
20
-0.441043699426189
30
0
41
1
10
54.6517090080337
20
-0.451662986225898
30
0
41
1
10
54.6095553095665
20
-0.458218929299733
30
0
41
1
10
54.59029922559
20
-0.454197175262721
30
0
41
1
10
54.5552930610848
20
-0.433769837925723
30
0
41
1
10
54.5398798248587
20
-0.417693131038504
30
0
41
1
10
54.5119768636126
20
-0.375895749679671
30
0
41
1
10
54.4995292823584
20
-0.350073384046823
30
0
41
1
10
54.4885226225443
20
-0.32069236184509
30
0
0
SPLINE
5
100
100
AcDbEntity
8
1
62
256
6
ByLayer
370
18
48
1
60
0
100
AcDbSpline
70
4
71
3
72
36
73
32
40
0
40
0
40
0
40
0
40
0.0758148237945341
40
0.0758148237945341
40
0.113722235691802
40
0.113722235691802
40
0.15162964758907
40
0.15162964758907
40
0.227444471383607
40
0.227444471383607
40
0.303259295178145
40
0.303259295178145
40
0.454888942767218
40
0.454888942767218
40
0.492796354664486
40
0.492796354664486
40
0.530703766561754
40
0.530703766561754
40
0.606518590356292
40
0.606518590356292
40
0.682333414150829
40
0.682333414150829
40
0.758148237945367
40
0.758148237945367
40
0.796055649842635
40
0.796055649842635
40
0.833963061739904
40
0.833963061739904
40
0.90977788553444
40
0.90977788553444
40
1
40
1
40
1
40
1
41
1
10
53.741051080877
20
-3.01300685965174
30
0
41
1
10
53.2168246714986
20
-2.97677994620935
30
0
41
1
10
52.6933366517171
20
-2.91470508208377
30
0
41
1
10
51.9063754972947
20
-2.78481810368368
30
-1E-16
41
1
10
51.6438447198801
20
-2.73539106774135
30
-1E-16
41
1
10
51.1199681430649
20
-2.62524786567209
30
-1E-16
41
1
10
50.8583367376384
20
-2.56448848325846
30
-1E-16
41
1
10
50.0735395101144
20
-2.36620024055716
30
-1E-16
41
1
10
49.550260299229
20
-2.21251076842367
30
1E-16
41
1
10
48.5004702192176
20
-1.86906719675193
30
1E-16
41
1
10
47.9794243140443
20
-1.68105909447283
30
1E-16
41
1
10
46.42151236029
20
-1.0816127827778
30
1E-16
41
1
10
45.3899561057663
20
-0.634384775359763
30
0
41
1
10
44.0881375376138
20
-0.0633797851709517
30
0
41
1
10
43.8271627257628
20
0.0514224460436594
30
0
41
1
10
43.303535068802
20
0.28118146642791
30
0
41
1
10
43.0406688463741
20
0.396225645918918
30
0
41
1
10
42.2544487957619
20
0.736879515828207
30
0
41
1
10
41.731689919013
20
0.958985442422915
30
-1E-16
41
1
10
40.6844408181399
20
1.38335217541084
30
-1E-16
41
1
10
40.1588172350473
20
1.5861214707935
30
-1E-16
41
1
10
39.1110660168929
20
1.95964973123753
30
-1E-16
41
1
10
38.5882237678428
20
2.13078237940445
30
-1E-16
41
1
10
37.8021721740562
20
2.35836786003051
30
1E-16
41
1
10
37.5394264099417
20
2.42950910314585
30
1E-16
41
1
10
37.0150586348242
20
2.56074373099094
30
1E-16
41
1
10
36.7537782873817
20
2.62073951934329
30
1E-16
41
1
10
35.9718569674096
20
2.78321711291002
30
1E-16
41
1
10
35.4531850404271
20
2.86820698609497
30
0
41
1
10
34.3183252790609
20
3.00013307551933
30
0
41
1
10
33.7024458824414
20
3.03662264495372
30
0
41
1
10
33.0837642597797
20
3.03684995923018
30
0
0
SPLINE
5
101
100
AcDbEntity
8
1
62
256
6
ByLayer
370
18
48
1
60
0
100
AcDbSpline
70
4
71
3
72
20
73
16
40
0
40
0
40
0
40
0
40
0.0433673933758926
40
0.0433673933758926
40
0.202806161146578
40
0.202806161146578
40
0.362244928917263
40
0.362244928917263
40
0.441964312802605
40
0.441964312802605
40
0.521683696687947
40
0.521683696687947
40
0.681122464458632
40
0.681122464458632
40
1
40
1
40
1
40
1
41
1
10
13.3991224046482
20
-2.88913987306552
30
0
41
1
10
13.2579375260033
20
-2.90732593855461
30
0
41
1
10
13.1166674037598
20
-2.92371611888135
30
0
41
1
10
12.4554313189179
20
-2.99177313823552
30
0
41
1
10
11.9338736818498
20
-3.02054794392743
30
0
41
1
10
10.8831677615803
20
-3.02584005376042
30
0
41
1
10
10.3589392974566
20
-3.00228327264159
30
0
41
1
10
9.57317666194402
20
-2.9288489538186
30
0
41
1
10
9.31124080218251
20
-2.89802632858561
30
0
41
1
10
8.78677709324003
20
-2.8240038738644
30
0
41
1
10
8.52387888844794
20
-2.7807317510896
30
-1E-16
41
1
10
7.73625509774445
20
-2.63337361107082
30
-1E-16
41
1
10
7.21419991340036
20
-2.51220638641067
30
-1E-16
41
1
10
5.65106460047744
20
-2.08891116582527
30
1E-16
41
1
10
4.6127136951622
20
-1.72711647021043
30
1E-16
41
1
10
3.56170534466378
20
-1.31400278973999
30
1E-16
0
SPLINE
5
102
100
AcDbEntity
8
1
62
256
6
ByLayer
370
18
48
1
60
0
100
AcDbSpline
70
4
71
3
72
10
73
6
40
0
40
0
40
0
40
0
40
0.5
40
0.5
40
1
40
1
40
1
40
1
41
1
10
3.56326353694647
20
-1.24328391106988
30
1E-16
41
1
10
3.5420390976079
20
-1.23998539145791
30
1E-16
41
1
10
3.52667604987727
20
-1.23449244684679
30
1E-16
41
1
10
3.50654547640039
20
-1.22209270089195
30
1E-16
41
1
10
3.50169485086661
20
-1.21507445297192
30
1E-16
41
1
10
3.50169485086661
20
-1.20806951193671
30
1E-16
0
SPLINE
5
103
100
AcDbEntity
8
1
62
256
6
ByLayer
370
18
48
1
60
0
100
AcDbSpline
70
4
71
3
72
28
73
24
40
0
40
0
40
0
40
0
40
0.125
40
0.125
40
0.187500000000001
40
0.187500000000001
40
0.250000000000001
40
0.250000000000001
40
0.375000000000003
40
0.375000000000003
40
0.437500000000003
40
0.437500000000003
40
0.500000000000003
40
0.500000000000003
40
0.625000000000002
40
0.625000000000002
40
0.687500000000002
40
0.687500000000002
40
0.750000000000002
40
0.750000000000002
40
0.875000000000001
40
0.875000000000001
40
1
40
1
40
1
40
1
41
1
10
53.5651529793856
20
-0.0695833027341166
30
0
41
1
10
53.5719260857184
20
-0.242172110361167
30
0
41
1
10
53.5856643553941
20
-0.411230448831418
30
0
41
1
10
53.6117409885912
20
-0.660225562742482
30
0
41
1
10
53.6213638656101
20
-0.742451854757604
30
0
41
1
10
53.6418172017482
20
-0.905405510332201
30
1E-16
41
1
10
53.6527010724203
20
-0.986504648435556
30
1E-16
41
1
10
53.6858830627106
20
-1.22459135144203
30
1E-16
41
1
10
53.7085325008068
20
-1.37576835906171
30
1E-16
41
1
10
53.7406071761318
20
-1.59180984308639
30
1E-16
41
1
10
53.7509963978547
20
-1.66202284972331
30
1E-16
41
1
10
53.770871828173
20
-1.79878945514389
30
1E-16
41
1
10
53.780388217466
20
-1.86557755738332
30
1E-16
41
1
10
53.8067930598744
20
-2.05664998492378
30
1E-16
41
1
10
53.8216522116018
20
-2.17280401620798
30
-1E-16
41
1
10
53.8401597308408
20
-2.33039521632816
30
-1E-16
41
1
10
53.8457112105708
20
-2.38013561587971
30
-1E-16
41
1
10
53.8557965316211
20
-2.47386597035575
30
-1E-16
41
1
10
53.8603293290156
20
-2.51785769568582
30
-1E-16
41
1
10
53.8726907975341
20
-2.63847371293897
30
-1E-16
41
1
10
53.8793506049183
20
-2.70482798885016
30
-1E-16
41
1
10
53.8938505171873
20
-2.80967020699518
30
-1E-16
41
1
10
53.9017506175848
20
-2.84820321954464
30
0
41
1
10
53.9129797118489
20
-2.8713284225777
30
0
0
SPLINE
5
104
100
AcDbEntity
8
1
62
256
6
ByLayer
370
18
48
1
60
0
100
AcDbSpline
70
4
71
3
72
18
73
14
40
0
40
0
40
0
40
0
40
0.250000000000002
40
0.250000000000002
40
0.375000000000003
40
0.375000000000003
40
0.500000000000004
40
0.500000000000004
40
0.750000000000006
40
0.750000000000006
40
0.875000000000003
40
0.875000000000003
40
1
40
1
40
1
40
1
41
1
10
53.9403992752687
20
2.92492971230647
30
0
41
1
10
53.9991098368498
20
2.75973713093319
30
0
41
1
10
54.0569729900511
20
2.59360018057336
30
0
41
1
10
54.1434656296733
20
2.34352533225118
30
0
41
1
10
54.172224577623
20
2.2600775235664
30
0
41
1
10
54.2297272708769
20
2.09306234560901
30
0
41
1
10
54.2592066832199
20
2.00920917425336
30
0
41
1
10
54.3505276592026
20
1.76014281501955
30
0
41
1
10
54.414618418368
20
1.59903809944149
30
0
41
1
10
54.5195256026585
20
1.36592542063124
30
0
41
1
10
54.5560878199307
20
1.28927337928593
30
0
41
1
10
54.6319413761149
20
1.14064914885569
30
0
41
1
10
54.6709372701908
20
1.06921108617701
30
0
41
1
10
54.7111361650084
20
1.00054944604602
30
0
0
SPLINE
5
105
100
AcDbEntity
8
SK1
62
256
6
ByLayer
370
18
48
1
60
0
100
AcDbSpline
70
4
71
3
72
17
73
13
40
0
40
0
40
0
40
0
40
0.25
40
0.25
40
0.375
40
0.375
40
0.5
40
0.625
40
0.625
40
0.75
40
0.75
40
1
40
1
40
1
40
1
41
1
10
0
20
-3.62300790551805
30
0
41
1
10
-0.0734444987317602
20
-3.68020072429246
30
0
41
1
10
-0.132331717072134
20
-3.73340901747611
30
0
41
1
10
-0.193383454531585
20
-3.80533606398211
30
0
41
1
10
-0.209160328692235
20
-3.82810470943988
30
0
41
1
10
-0.229755606177548
20
-3.86921902661942
30
0
41
1
10
-0.239785913499787
20
-3.90626629875146
30
0
41
1
10
-0.228766486644531
20
-3.93509374925432
30
0
41
1
10
-0.207135722053238
20
-3.95972822172419
30
0
41
1
10
-0.191267946804146
20
-3.96966137906688
30
0
41
1
10
-0.130389202329951
20
-3.99300463551069
30
0
41
1
10
-0.071611577417741
20
-4.00000685298883
30
0
41
1
10
-2.84E-14
20
-3.99999999491789
30
0
0
SPLINE
5
106
100
AcDbEntity
8
SK1
62
256
6
ByLayer
370
18
48
1
60
0
100
AcDbSpline
70
4
71
3
72
12
73
8
40
0
40
0
40
0
40
0
40
0.25
40
0.25
40
0.5
40
0.5
40
1
40
1
40
1
40
1
41
1
10
-35.4
20
-0.412245285880431
30
0
41
1
10
-35.4
20
-0.395381331028744
30
0
41
1
10
-35.4042405317344
20
-0.378325208451002
30
0
41
1
10
-35.4170629445097
20
-0.348307003173005
30
0
41
1
10
-35.4255309618334
20
-0.335188313301529
30
0
41
1
10
-35.4538111153162
20
-0.301439219738285
30
0
41
1
10
-35.4764597265186
20
-0.286079660625575
30
0
41
1
10
-35.5
20
-0.278523822419857
30
0
0
SPLINE
5
107
100
AcDbEntity
8
SK1
62
256
6
ByLayer
370
18
48
1
60
0
100
AcDbSpline
70
4
71
3
72
12
73
8
40
0
40
0
40
0
40
0
40
0.500000000000002
40
0.500000000000002
40
0.750000000000001
40
0.750000000000001
40
1
40
1
40
1
40
1
41
1
10
-35.5
20
-1.70346698302345
30
1E-16
41
1
10
-35.4764535706457
20
-1.71102479711018
30
1E-16
41
1
10
-35.453758325367
20
-1.71132719799135
30
1E-16
41
1
10
-35.4256589034923
20
-1.69918377815588
30
1E-16
41
1
10
-35.4170915256394
20
-1.69283743554931
30
1E-16
41
1
10
-35.4042768359918
20
-1.67443985769978
30
1E-16
41
1
10
-35.4
20
-1.66198670229713
30
1E-16
41
1
10
-35.4
20
-1.64719602506997
30
1E-16
0
SPLINE
5
108
100
AcDbEntity
8
SK1
62
256
6
ByLayer
370
18
48
1
60
0
100
AcDbSpline
70
4
71
3
72
10
73
6
40
0
40
0
40
0
40
0
40
0.80527987663653
40
0.80527987663653
40
1
40
1
40
1
40
1
41
1
10
-36.0000000000001
20
-0.363577843403277
30
0
41
1
10
-35.9272396278271
20
-0.278270227937071
30
0
41
1
10
-35.8568055726535
20
-0.18622417570063
30
0
41
1
10
-35.7733711834651
20
-0.0608911464331925
30
0
41
1
10
-35.7572777837849
20
-0.0358960497846681
30
0
41
1
10
-35.7414088850356
20
-0.0103345306002609
30
0
0
SPLINE
5
109
100
AcDbEntity
8
SK1
62
256
6
ByLayer
370
18
48
1
60
0
100
AcDbSpline
70
4
71
3
72
10
73
6
40
0
40
0
40
0
40
0
40
0.5
40
0.5
40
1
40
1
40
1
40
1
41
1
10
-36.0000000000001
20
0.363577843403277
30
0
41
1
10
-35.9272396278271
20
0.278270227937071
30
0
41
1
10
-35.8568055726535
20
0.18622417570063
30
0
41
1
10
-35.7224295033876
20
-0.0156321569933482
30
0
41
1
10
-35.6578574543336
20
-0.126655084405002
30
0
41
1
10
-35.6009618943233
20
-0.246088590300388
30
0
0
SPLINE
5
10A
100
AcDbEntity
8
SK1
62
256
6
ByLayer
370
18
48
1
60
0
100
AcDbSpline
70
4
71
3
72
8
73
4
40
0
40
0
40
0
40
0
40
1
40
1
40
1
40
1
41
1
10
-35.5
20
-0.27852382241997
30
0
41
1
10
-35.533669484994
20
-0.267716761011542
30
0
41
1
10
-35.5673239598975
20
-0.256905170883584
30
0
41
1
10
-35.6009618943233
20
-0.246088590300388
30
0
0
SPLINE
5
10B
100
AcDbEntity
8
SK1
62
256
6
ByLayer
370
18
48
1
60
0
100
AcDbSpline
70
4
71
3
72
10
73
6
40
0
40
0
40
0
40
0
40
0.5
40
0.5
40
1
40
1
40
1
40
1
41
1
10
-35.6009618943233
20
-1.67103175090372
30
1E-16
41
1
10
-35.657625994603
20
-1.73855237177045
30
1E-16
41
1
10
-35.7212304684705
20
-1.79031977758484
30
1E-16
41
1
10
-35.8564778377541
20
-1.87029333706349
30
1E-16
41
1
10
-35.9271669955654
20
-1.89794109490589
30
1E-16
41
1
10
-36.0000000000001
20
-1.91633121356219
30
-1E-16
0
SPLINE
5
10C
100
AcDbEntity
8
SK1
62
256
6
ByLayer
370
18
48
1
60
0
100
AcDbSpline
70
4
71
3
72
8
73
4
40
0
40
0
40
0
40
0
40
1
40
1
40
1
40
1
41
1
10
-35.6009618943233
20
-1.67103175090372
30
1E-16
41
1
10
-35.5673238414439
20
-1.68184836957675
30
1E-16
41
1
10
-35.5336693702031
20
-1.6926599584599
30
1E-16
41
1
10
-35.5
20
-1.7034669830233
30
1E-16
0
SPLINE
5
10D
100
AcDbEntity
8
SK1
62
256
6
ByLayer
370
18
48
1
60
0
100
AcDbSpline
70
4
71
3
72
8
73
4
40
0
40
0
40
0
40
0
40
1
40
1
40
1
40
1
41
1
10
0
20
-3.99999999491786
30
0
41
1
10
0
20
-3.85902263317104
30
0
41
1
10
0
20
-3.73342625045089
30
0
41
1
10
0
20
-3.62300790551805
30
0
0
SPLINE
5
10E
100
AcDbEntity
8
1
62
256
6
ByLayer
370
18
48
1
60
0
100
AcDbSpline
70
4
71
3
72
13
73
9
40
0
40
0
40
0
40
0
40
0.0065058485375605
40
0.0963626580470511
40
0.231528679696327
40
0.435055088928535
40
0.706740289279587
40
1
40
1
40
1
40
1
41
1
10
53.9263209026649
20
0.412245101159328
30
0
41
1
10
53.9196556202441
20
0.414364902953196
30
0
41
1
10
53.8209401084393
20
0.445793605076773
30
0
41
1
10
53.5842330417479
20
0.52305781504856
30
0
41
1
10
53.1466500695329
20
0.66778487230502
30
0
41
1
10
52.5254451074769
20
0.880215247694565
30
-1E-16
41
1
10
51.7465325245832
20
1.1571767443088
30
-1E-16
41
1
10
51.1773314055634
20
1.37027321346056
30
-1E-16
41
1
10
50.8827285515681
20
1.48334386235743
30
-1E-16
0
SPLINE
5
10F
100
AcDbEntity
8
1
62
256
6
ByLayer
370
18
48
1
60
0
100
AcDbSpline
70
4
71
1
72
4
73
2
40
0
40
0
40
1
40
1
41
1
10
50.8827285515681
20
1.48334386235743
30
-1E-16
41
1
10
50.7427854552286
20
1.53571599222479
30
-1E-16
0
SPLINE
5
110
100
AcDbEntity
8
1
62
256
6
ByLayer
370
18
48
1
60
0
100
AcDbSpline
70
4
71
3
72
20
73
16
40
0
40
0
40
0
40
0
40
0.11595811635136
40
0.189473137690171
40
0.250907295976104
40
0.324254913622097
40
0.404304962174182
40
0.487305463294292
40
0.561962717766655
40
0.621743962606006
40
0.730683289830479
40
0.847360562961502
40
0.913940049723784
40
0.990517536904272
40
1
40
1
40
1
40
1
41
1
10
20.7918691858602
20
2.87861640259709
30
0
41
1
10
20.5063859859458
20
2.8780586851249
30
0
41
1
10
20.0399160400724
20
2.87745739482833
30
0
41
1
10
19.4220784853757
20
2.8775343227035
30
0
41
1
10
18.90936647949
20
2.87768638160395
30
0
41
1
10
18.3803739232747
20
2.87619675949273
30
0
41
1
10
17.7983259153729
20
2.87667978918356
30
0
41
1
10
17.2130393171979
20
2.87604437041739
30
0
41
1
10
16.6776636779443
20
2.8752343847332
30
0
41
1
10
16.0784199820485
20
2.87538764910511
30
0
41
1
10
15.3757141700583
20
2.87416026948779
30
0
41
1
10
14.6562696858055
20
2.87408894870842
30
0
41
1
10
14.0165098138835
20
2.87322761385863
30
0
41
1
10
13.6406815186252
20
2.87302449523997
30
0
41
1
10
13.428786076803
20
2.87286463290158
30
0
41
1
10
13.4054385196734
20
2.87284652206745
30
0
0
SPLINE
5
111
100
AcDbEntity
8
1
62
256
6
ByLayer
370
18
48
1
60
0
100
AcDbSpline
70
4
71
3
72
28
73
24
40
0
40
0
40
0
40
0
40
1.17631067728E-05
40
2.28658406743E-05
40
3.34414431826E-05
40
7.36944793721E-05
40
0.000102863798956
40
0.0001733392100077
40
0.0005377239730106
40
0.000824926062101
40
0.0013454475565295
40
0.0022993894681531
40
0.0040808491578632
40
0.0075110289370928
40
0.0144316469910107
40
0.0293308654031978
40
0.0640574596059633
40
0.142423106263202
40
0.383502275827148
40
0.515613977277461
40
0.650231413245094
40
0.809259941583508
40
1
40
1
40
1
40
1
41
1
10
34.0663596710022
20
-0.161392204830094
30
0
41
1
10
34.0663655273057
20
-0.161393601523201
30
0
41
1
10
34.0663747158643
20
-0.161395713439077
30
0
41
1
10
34.0663587254817
20
-0.161389793546192
30
0
41
1
10
34.0663157094401
20
-0.161376126502603
30
0
41
1
10
34.0662201692222
20
-0.161347454838705
30
0
41
1
10
34.0660469048595
20
-0.161295680207843
30
0
41
1
10
34.0653317886515
20
-0.161086824874019
30
0
41
1
10
34.0640865096204
20
-0.160732285533868
30
0
41
1
10
34.0622074139476
20
-0.160188149790684
30
0
41
1
10
34.0593309780497
20
-0.15935898610428
30
0
41
1
10
34.0540414897742
20
-0.157832823002906
30
0
41
1
10
34.0439879248664
20
-0.154935808652425
30
0
41
1
10
34.0241698959966
20
-0.149230178075271
30
0
41
1
10
33.98277056688
20
-0.137323478271725
30
0
41
1
10
33.8896939879732
20
-0.110539465377002
30
0
41
1
10
33.6781664444183
20
-0.04933247013048
30
0
41
1
10
33.0926499234071
20
0.123165812951612
30
0
41
1
10
32.3474238512672
20
0.354333106307536
30
0
41
1
10
31.5135628360524
20
0.62824626045213
30
0
41
1
10
30.8170265064029
20
0.866151376160701
30
-1E-16
41
1
10
30.0278459774045
20
1.14651565596438
30
-1E-16
41
1
10
29.4613603151933
20
1.35826363756976
30
-1E-16
41
1
10
29.1533881355707
20
1.47641341205045
30
-1E-16
0
SPLINE
5
112
100
AcDbEntity
8
1
62
256
6
ByLayer
370
18
48
1
60
0
100
AcDbSpline
70
4
71
3
72
26
73
22
40
0
40
0
40
0
40
0
40
1.39543854419E-05
40
5.92074138435E-05
40
9.86309454208E-05
40
0.000135329373119
40
0.0008500155731434
40
0.0014153866019315
40
0.00243482800808
40
0.0042866647770238
40
0.0076936239289978
40
0.0140964528503431
40
0.0265471498880073
40
0.0520360277522538
40
0.104537052112639
40
0.204655011173618
40
0.377838029596373
40
0.494785311972885
40
0.639238401386053
40
0.820282302989004
40
1
40
1
40
1
40
1
41
1
10
12.0438087766422
20
-0.0793792689996167
30
0
41
1
10
12.0437996859017
20
-0.0793754865923404
30
0
41
1
10
12.043750256392
20
-0.0793570308653386
30
0
41
1
10
12.0436612460606
20
-0.0793247862487476
30
0
41
1
10
12.0435116124389
20
-0.0792755391205446
30
0
41
1
10
12.0423552216094
20
-0.0789211739929385
30
0
41
1
10
12.0402264321187
20
-0.0783074303274134
30
0
41
1
10
12.0367521419489
20
-0.0772641359582735
30
0
41
1
10
12.0314671191595
20
-0.0756964077500299
30
0
41
1
10
12.0218473913219
20
-0.0728421228458842
30
0
41
1
10
12.0038845798916
20
-0.0675457944898881
30
0
41
1
10
11.9694301859296
20
-0.0574544045723826
30
0
41
1
10
11.9002192135097
20
-0.037333004757869
30
0
41
1
10
11.7574318123562
20
0.0042013164211596
30
0
41
1
10
11.4744175477093
20
0.0878886911227994
30
0
41
1
10
10.9578586166791
20
0.244410912672549
30
0
41
1
10
10.3407899073065
20
0.439471251573281
30
0
41
1
10
9.65669765390871
20
0.665015268031112
30
0
41
1
10
8.96280541805038
20
0.90245761912476
30
-1E-16
41
1
10
8.17402766639168
20
1.18391700313939
30
-1E-16
41
1
10
7.61427260405432
20
1.39433626869783
30
-1E-16
41
1
10
7.33623450003955
20
1.50139633397268
30
-1E-16
0
SPLINE
5
113
100
AcDbEntity
8
1
62
256
6
ByLayer
370
18
48
1
60
0
100
AcDbSpline
70
4
71
3
72
17
73
13
40
0
40
0
40
0
40
0
40
0.12166776112861
40
0.203544592265828
40
0.295031389810571
40
0.405098896631987
40
0.511571279384894
40
0.604005208097637
40
0.726589236277119
40
0.856491481546817
40
0.927323094969558
40
1
40
1
40
1
40
1
41
1
10
33.0691123630589
20
-2.88467285697874
30
0
41
1
10
33.3642826112647
20
-2.88483165371744
30
0
41
1
10
33.8581021835645
20
-2.88508956077629
30
0
41
1
10
34.573932013061
20
-2.88566398005196
30
0
41
1
10
35.2615979974408
20
-2.88575416540488
30
0
41
1
10
36.0091304228749
20
-2.88675903722316
30
0
41
1
10
36.7588966167434
20
-2.88627861815758
30
0
41
1
10
37.5390578332446
20
-2.88784602798623
30
0
41
1
10
38.3760561264389
20
-2.88674408118428
30
0
41
1
10
39.1606545679725
20
-2.88851057934522
30
0
41
1
10
39.8241346448366
20
-2.88769636922362
30
0
41
1
10
40.1723853176065
20
-2.88868085522796
30
0
41
1
10
40.3487489853956
20
-2.88895377095696
30
0
0
SPLINE
5
114
100
AcDbEntity
8
1
62
256
6
ByLayer
370
18
48
1
60
0
100
AcDbSpline
70
4
71
3
72
20
73
16
40
0
40
0
40
0
40
0
40
0.092171923552885
40
0.165934024951815
40
0.258825620026664
40
0.319994382807958
40
0.381627964983819
40
0.448152668043337
40
0.519833292862024
40
0.594364901022612
40
0.671202815990901
40
0.80606455531275
40
0.92629337506818
40
0.98027325739658
40
1
40
1
40
1
40
1
41
1
10
11.3129689815662
20
-2.87093757314935
30
0
41
1
10
11.537667169627
20
-2.87113705579554
30
0
41
1
10
11.9422366850077
20
-2.87150570807501
30
0
41
1
10
12.5734906031314
20
-2.87195029194063
30
0
41
1
10
13.129155072804
20
-2.87267791652576
30
0
41
1
10
13.6549392825632
20
-2.87300630281109
30
0
41
1
10
14.1167242664924
20
-2.87335481852193
30
0
41
1
10
14.6041124178295
20
-2.87398811717219
30
0
41
1
10
15.1229538921486
20
-2.87420512366373
30
0
41
1
10
15.6669545038911
20
-2.87464797068873
30
0
41
1
10
16.3650509066005
20
-2.87546727493043
30
0
41
1
10
17.1746020623414
20
-2.87598310888075
30
0
41
1
10
17.9284023162541
20
-2.8764874685375
30
0
41
1
10
18.4013996376017
20
-2.87648326372158
30
0
41
1
10
18.5811628593183
20
-2.8767988852513
30
0
41
1
10
18.6292743336088
20
-2.87689163832317
30
0
0
SPLINE
5
115
100
AcDbEntity
8
1
62
256
6
ByLayer
370
18
48
1
60
0
100
AcDbSpline
70
4
71
3
72
22
73
18
40
0
40
0
40
0
40
0
40
0.0932190969192179
40
0.168143279780208
40
0.255070335352524
40
0.307409556826924
40
0.359115286906239
40
0.413154647348894
40
0.471681776151028
40
0.534746659090383
40
0.602476291806114
40
0.673436225744334
40
0.776579081278856
40
0.864277753146719
40
0.949789843525282
40
0.994598796934662
40
1
40
1
40
1
40
1
41
1
10
42.5502176595452
20
2.88884898030958
30
0
41
1
10
42.3206271882789
20
2.888997561569
30
0
41
1
10
41.9064516407377
20
2.88921488210949
30
0
41
1
10
41.2780017662002
20
2.88853679342211
30
0
41
1
10
40.7501675128755
20
2.88943179051822
30
0
41
1
10
40.2799367456363
20
2.88887251611956
30
0
41
1
10
39.8903787159686
20
2.88790504899833
30
0
41
1
10
39.4856338166661
20
2.88805025179801
30
0
41
1
10
39.05288326349
20
2.88830293104545
30
0
41
1
10
38.5864066414621
20
2.88738463372795
30
0
41
1
10
38.0892940748436
20
2.88720969265921
30
0
41
1
10
37.4934321246118
20
2.88769314429848
30
0
41
1
10
36.8483666176758
20
2.88636168181938
30
0
41
1
10
36.1674494107752
20
2.88671228817918
30
0
41
1
10
35.6302487276105
20
2.88618617542366
30
0
41
1
10
35.2958562537372
20
2.88591468202699
30
0
41
1
10
35.1721485727444
20
2.88584446737019
30
0
41
1
10
35.1588410970967
20
2.88583722200653
30
0
0
LINE
5
84
100
AcDbEntity
8
1
62
256
6
ByLayer
370
18
48
1
60
0
100
AcDbLine
10
54.957468
20
0.036717
30
0
11
54.183012
21
0.891581
31
0
39
0
210
0
220
0
230
1
0
LINE
5
85
100
AcDbEntity
8
1
62
256
6
ByLayer
370
18
48
1
60
0
100
AcDbLine
10
3.501695
20
-1.230864
30
0
11
3.501695
21
2.31982
31
0
39
0
210
0
220
0
230
1
0
LINE
5
86
100
AcDbEntity
8
1
62
256
6
ByLayer
370
18
48
1
60
0
100
AcDbLine
10
24.5
20
-1.384172
30
0
11
24.5
21
-1.419731
31
0
39
0
210
0
220
0
230
1
0
LINE
5
87
100
AcDbEntity
8
1
62
256
6
ByLayer
370
18
48
1
60
0
100
AcDbLine
10
0
20
-3.623008
30
0
11
0
21
4
31
0
39
0
210
0
220
0
230
1
0
LINE
5
88
100
AcDbEntity
8
1
62
256
6
ByLayer
370
18
48
1
60
0
100
AcDbLine
10
0.738074
20
3.50862
30
0
11
0.738074
21
0
31
0
39
0
210
0
220
0
230
1
0
LINE
5
89
100
AcDbEntity
8
1
62
256
6
ByLayer
370
18
48
1
60
0
100
AcDbLine
10
0.738074
20
0
30
0
11
0.738074
21
-3.50862
31
0
39
0
210
0
220
0
230
1
0
LINE
5
8A
100
AcDbEntity
8
1
62
256
6
ByLayer
370
18
48
1
60
0
100
AcDbLine
10
1.476648
20
3.017241
30
0
11
1.476648
21
0
31
0
39
0
210
0
220
0
230
1
0
LINE
5
8B
100
AcDbEntity
8
1
62
256
6
ByLayer
370
18
48
1
60
0
100
AcDbLine
10
1.476648
20
0
30
0
11
1.476648
21
-3.017241
31
0
39
0
210
0
220
0
230
1
0
LINE
5
8C
100
AcDbEntity
8
SK1
62
256
6
ByLayer
370
18
48
1
60
0
100
AcDbLine
10
-35.4
20
-1.647196
30
0
11
-35.4
21
-0.412245
31
0
39
0
210
0
220
0
230
1
0
LINE
5
8E
100
AcDbEntity
8
SK1
62
256
6
ByLayer
370
18
48
1
60
0
100
AcDbLine
10
-36
20
2.76
30
0
11
-36
21
0.363578
31
0
39
0
210
0
220
0
230
1
0
LINE
5
8F
100
AcDbEntity
8
SK1
62
256
6
ByLayer
370
18
48
1
60
0
100
AcDbLine
10
-36
20
-1.916331
30
0
11
-36
21
-0.363578
31
0
39
0
210
0
220
0
230
1
0
LINE
5
90
100
AcDbEntity
8
SK1
62
256
6
ByLayer
370
18
48
1
60
0
100
AcDbLine
10
-35.600962
20
-1.671032
30
0
11
-35.600962
21
-0.246102
31
0
39
0
210
0
220
0
230
1
0
LINE
5
91
100
AcDbEntity
8
SK1
62
256
6
ByLayer
370
18
48
1
60
0
100
AcDbLine
10
0
20
-3.623008
30
0
11
0
21
4
31
0
39
0
210
0
220
0
230
1
0
LINE
5
92
100
AcDbEntity
8
SK1
62
256
6
ByLayer
370
18
48
1
60
0
100
AcDbLine
10
-36
20
-2.76
30
0
11
-36
21
-1.916331
31
0
39
0
210
0
220
0
230
1
0
LINE
5
93
100
AcDbEntity
8
SK1
62
256
6
ByLayer
370
18
48
1
60
0
100
AcDbLine
10
-34.76
20
-4
30
0
11
-34.76
21
4
31
0
39
0
210
0
220
0
230
1
0
LINE
5
94
100
AcDbEntity
8
SK1
62
256
6
ByLayer
370
18
48
1
60
0
100
AcDbLine
10
-35.5
20
-1.703467
30
0
11
-35.5
21
-0.278539
31
0
39
0
210
0
220
0
230
1
0
LINE
5
95
100
AcDbEntity
8
1
62
256
6
ByLayer
370
18
48
1
60
0
100
AcDbLine
10
20.793586
20
-3.029314
30
0
11
21.796741
21
-3.029941
31
0
39
0
210
0
220
0
230
1
0
LINE
5
96
100
AcDbEntity
8
1
62
256
6
ByLayer
370
18
48
1
60
0
100
AcDbLine
10
21.796741
20
3.029941
30
0
11
20.793586
21
3.029314
31
0
39
0
210
0
220
0
230
1
0
LINE
5
97
100
AcDbEntity
8
SK1
62
256
6
ByLayer
370
18
48
1
60
0
100
AcDbLine
10
-36
20
-2.76
30
0
11
-34.76
21
-4
31
0
39
0
210
0
220
0
230
1
0
LINE
5
98
100
AcDbEntity
8
SK1
62
256
6
ByLayer
370
18
48
1
60
0
100
AcDbLine
10
-34.76
20
4
30
0
11
-36
21
2.76
31
0
39
0
210
0
220
0
230
1
0
LINE
5
99
100
AcDbEntity
8
SK1
62
256
6
ByLayer
370
18
48
1
60
0
100
AcDbLine
10
-34.76
20
-4
30
0
11
-9.7E-05
21
-4
31
0
39
0
210
0
220
0
230
1
0
LINE
5
9A
100
AcDbEntity
8
SK1
62
256
6
ByLayer
370
18
48
1
60
0
100
AcDbLine
10
-9.7E-05
20
4
30
0
11
-34.76
21
4
31
0
39
0
210
0
220
0
230
1
0
LINE
5
9B
100
AcDbEntity
8
1
62
256
6
ByLayer
370
18
48
1
60
0
100
AcDbLine
10
1.476648
20
-3.017241
30
0
11
2.163983
21
-3.01767
31
0
39
0
210
0
220
0
230
1
0
LINE
5
9C
100
AcDbEntity
8
1
62
256
6
ByLayer
370
18
48
1
60
0
100
AcDbLine
10
10.260267
20
-3.02273
30
0
11
11.318846
21
-3.023392
31
0
39
0
210
0
220
0
230
1
0
LINE
5
9D
100
AcDbEntity
8
1
62
256
6
ByLayer
370
18
48
1
60
0
100
AcDbLine
10
32.090494
20
-3.036374
30
0
11
33.069015
21
-3.036986
31
0
39
0
210
0
220
0
230
1
0
LINE
5
9E
100
AcDbEntity
8
1
62
256
6
ByLayer
370
18
48
1
60
0
100
AcDbLine
10
42.548296
20
-3.04291
30
0
11
43.5302
21
-3.043524
31
0
39
0
210
0
220
0
230
1
0
LINE
5
9F
100
AcDbEntity
8
1
62
256
6
ByLayer
370
18
48
1
60
0
100
AcDbLine
10
43.5302
20
3.043524
30
0
11
42.548296
21
3.04291
31
0
39
0
210
0
220
0
230
1
0
LINE
5
A0
100
AcDbEntity
8
1
62
256
6
ByLayer
370
18
48
1
60
0
100
AcDbLine
10
33.069015
20
3.036986
30
0
11
32.090494
21
3.036374
31
0
39
0
210
0
220
0
230
1
0
LINE
5
A1
100
AcDbEntity
8
1
62
256
6
ByLayer
370
18
48
1
60
0
100
AcDbLine
10
11.318846
20
3.023392
30
0
11
10.260267
21
3.02273
31
0
39
0
210
0
220
0
230
1
0
LINE
5
A2
100
AcDbEntity
8
1
62
256
6
ByLayer
370
18
48
1
60
0
100
AcDbLine
10
2.163983
20
3.01767
30
0
11
1.476648
21
3.017241
31
0
39
0
210
0
220
0
230
1
0
LINE
5
A3
100
AcDbEntity
8
SK4
62
256
6
ByLayer
370
18
48
0.05
60
0
100
AcDbLine
10
60
20
0
30
0
11
-41
21
0
31
0
39
0
210
0
220
0
230
1
0
LINE
5
A5
100
AcDbEntity
8
4
62
256
6
ByLayer
370
18
48
0.05
60
0
100
AcDbLine
10
-36
20
0
30
0
11
60
21
0
31
0
39
0
210
0
220
0
230
1
0
LINE
5
A7
100
AcDbEntity
8
80
62
256
6
ByLayer
370
18
48
1
60
0
100
AcDbLine
10
0
20
0
30
0
11
-6
21
0
31
0
39
0
210
0
220
0
230
1
0
LINE
5
A8
100
AcDbEntity
8
81
62
256
6
ByLayer
370
18
48
1
60
0
100
AcDbLine
10
55
20
0
30
0
11
61
21
0
31
0
39
0
210
0
220
0
230
1
0
LINE
5
A9
100
AcDbEntity
8
SK2
62
256
6
ByLayer
370
13
48
1
60
0
100
AcDbLine
10
55.542953
20
1.491763
30
0
11
62.926259
21
21.777398
31
0
39
0
210
0
220
0
230
1
0
LINE
5
AB
100
AcDbEntity
8
SK2
62
256
6
ByLayer
370
13
48
1
60
0
100
AcDbLine
10
55.542953
20
-1.491763
30
0
11
62.926259
21
-21.777398
31
0
39
0
210
0
220
0
230
1
0
LINE
5
AC
100
AcDbEntity
8
1
62
256
6
ByLayer
370
13
48
1
60
0
100
AcDbLine
10
61.840353
20
18.793871
30
0
11
64.936946
21
17.977507
31
0
39
0
210
0
220
0
230
1
0
LINE
5
AD
100
AcDbEntity
8
1
62
256
6
ByLayer
370
13
48
1
60
0
100
AcDbLine
10
61.840353
20
18.793871
30
0
11
64.620144
21
17.203865
31
0
39
0
210
0
220
0
230
1
0
LINE
5
AE
100
AcDbEntity
8
1
62
256
6
ByLayer
370
13
48
1
60
0
100
AcDbLine
10
64.936946
20
17.977507
30
0
11
64.620144
21
17.203865
31
0
39
0
210
0
220
0
230
1
0
LINE
5
AF
100
AcDbEntity
8
1
62
256
6
ByLayer
370
13
48
1
60
0
100
AcDbLine
10
61.840353
20
-18.793871
30
0
11
64.620141
21
-17.203866
31
0
39
0
210
0
220
0
230
1
0
LINE
5
B0
100
AcDbEntity
8
1
62
256
6
ByLayer
370
13
48
1
60
0
100
AcDbLine
10
61.840353
20
-18.793871
30
0
11
64.936948
21
-17.977506
31
0
39
0
210
0
220
0
230
1
0
LINE
5
B1
100
AcDbEntity
8
1
62
256
6
ByLayer
370
13
48
1
60
0
100
AcDbLine
10
64.620141
20
-17.203866
30
0
11
64.936948
21
-17.977506
31
0
39
0
210
0
220
0
230
1
0
MTEXT
5
116
100
AcDbEntity
8
SK2
62
256
6
ByLayer
370
18
48
1
60
0
100
AcDbMText
10
68.717388
20
-2.467451
30
0
210
0
220
0
230
1
1
\W0.7237;140.00
40
3.50012
41
0
44
1.084337
50
0
71
7
72
5
7
iso_b_vert
0
MTEXT
5
119
100
AcDbEntity
8
SK6
62
256
6
ByLayer
370
18
48
1
60
0
100
AcDbMText
10
-29.831725
20
-121.854549
30
0
210
0
220
0
230
1
1
\W0.7241;860.1-0610-031A1-GM X1BM
40
3.175
41
0
44
1.084337
50
0
71
7
72
5
7
iso_b_vert
0
DIMENSION
5
11C
100
AcDbEntity
8
SK2
62
256
6
ByLayer
370
18
48
1
60
0
100
AcDbDimension
2
_U0
10
55
20
-27.50012
30
0
11
27.5
21
-27.50012
31
0
70
32
71
2
72
1
41
1
210
0
220
0
230
1
3
Standard
100
AcDbAlignedDimension
13
0
23
-4
33
0
14
55
24
0
34
0
50
0
100
AcDbRotatedDimension
1001
ACAD
1000
DSTYLE
1002
{
1070
   371
1070
    13
1070
   372
1070
    13
1070
     3
1000

1070
   170
1070
     0
1070
   144
1040
1.0
1070
   277
1070
     2
1070
   284
1070
     8
1070
   278
1070
    46
1070
   146
1040
0.999966
1070
   345
1005
16
1070
   347
1005
16
1070
   346
1005
16
1070
   344
1005
11D
1070
   343
1005
11D
1070
   172
1070
     1
1070
    76
1070
     0
1070
    75
1070
     0
1070
   282
1070
     0
1070
   281
1070
     0
1070
    71
1070
     0
1070
    74
1070
     0
1070
   279
1070
     0
1070
   173
1070
     1
1070
   340
1005
117
1070
   271
1070
     1
1070
   272
1070
     2
1070
    77
1070
     1
1070
    73
1070
     1
1070
   171
1070
     3
1070
   274
1070
     4
1070
   177
1070
   150
1070
   176
1070
     9
1070
   178
1070
    43
1070
    78
1070
     8
1070
    48
1040
-0.1
1070
    41
1040
3.175
1070
   147
1040
1.75006
1070
    42
1040
1.5875
1070
    44
1040
3.175
1070
   140
1040
3.50012
1002
}
1001
ACAD_DSTYLE_DIM_LINETYPE
1070
   380
1005
16
1001
ACAD_DSTYLE_DIM_EXT1_LINETYPE
1070
   381
1005
16
1001
ACAD_DSTYLE_DIM_EXT2_LINETYPE
1070
   382
1005
16
0
DIMENSION
5
142
100
AcDbEntity
8
2
62
256
6
ByLayer
370
18
48
1
60
0
100
AcDbDimension
2
_U1
10
61.75006
20
3.05
30
0
11
61.75006
21
18.03988
31
0
70
32
71
1
72
1
41
1
210
0
220
0
230
1
3
Standard
100
AcDbAlignedDimension
13
53.8899
23
-3.05
33
0
14
53.8899
24
3.05
34
0
50
90
100
AcDbRotatedDimension
1001
ACAD
1000
DSTYLE
1002
{
1070
   371
1070
    13
1070
   372
1070
    13
1070
     3
1000

1070
   170
1070
     0
1070
   144
1040
1.0
1070
   277
1070
     2
1070
   284
1070
     8
1070
   278
1070
    46
1070
   146
1040
0.999966
1070
   345
1005
16
1070
   347
1005
16
1070
   346
1005
16
1070
   344
1005
11D
1070
   343
1005
11D
1070
   172
1070
     1
1070
    76
1070
     0
1070
    75
1070
     0
1070
   282
1070
     0
1070
   281
1070
     0
1070
    71
1070
     0
1070
    74
1070
     0
1070
   279
1070
     0
1070
   173
1070
     1
1070
   340
1005
117
1070
   271
1070
     1
1070
   272
1070
     2
1070
    77
1070
     1
1070
    73
1070
     0
1070
   171
1070
     3
1070
   274
1070
     4
1070
   177
1070
   150
1070
   176
1070
     9
1070
   178
1070
    43
1070
    78
1070
     8
1070
    48
1040
-0.1
1070
    41
1040
3.175
1070
   147
1040
1.75006
1070
    42
1040
1.5875
1070
    44
1040
3.175
1070
   140
1040
3.50012
1002
}
1001
ACAD_DSTYLE_DIM_LINETYPE
1070
   380
1005
16
1001
ACAD_DSTYLE_DIM_EXT1_LINETYPE
1070
   381
1005
16
1001
ACAD_DSTYLE_DIM_EXT2_LINETYPE
1070
   382
1005
16
0
DIMENSION
5
161
100
AcDbEntity
8
SK2
62
256
6
ByLayer
370
18
48
1
60
0
100
AcDbDimension
2
_U2
10
-39.24994
20
-4
30
0
11
-39.24994
21
18.10734
31
0
70
32
71
1
72
1
41
1
210
0
220
0
230
1
3
Standard
100
AcDbAlignedDimension
13
-36
23
4
33
0
14
-36
24
-4
34
0
50
90
100
AcDbRotatedDimension
1001
ACAD
1000
DSTYLE
1002
{
1070
   371
1070
    13
1070
   372
1070
    13
1070
     3
1000

1070
   170
1070
     0
1070
   144
1040
1.0
1070
   277
1070
     2
1070
   284
1070
     8
1070
   278
1070
    46
1070
   146
1040
0.999966
1070
   345
1005
16
1070
   347
1005
16
1070
   346
1005
16
1070
   344
1005
11D
1070
   343
1005
11D
1070
   172
1070
     1
1070
    76
1070
     0
1070
    75
1070
     0
1070
   282
1070
     0
1070
   281
1070
     0
1070
    71
1070
     0
1070
    74
1070
     0
1070
   279
1070
     0
1070
   173
1070
     1
1070
   340
1005
117
1070
   271
1070
     1
1070
   272
1070
     2
1070
    77
1070
     1
1070
    73
1070
     0
1070
   171
1070
     3
1070
   274
1070
     4
1070
   177
1070
   150
1070
   176
1070
     9
1070
   178
1070
    43
1070
    78
1070
     8
1070
    48
1040
-0.1
1070
    41
1040
3.175
1070
   147
1040
1.75006
1070
    42
1040
1.5875
1070
    44
1040
3.175
1070
   140
1040
3.50012
1002
}
1001
ACAD_DSTYLE_DIM_LINETYPE
1070
   380
1005
16
1001
ACAD_DSTYLE_DIM_EXT1_LINETYPE
1070
   381
1005
16
1001
ACAD_DSTYLE_DIM_EXT2_LINETYPE
1070
   382
1005
16
0
DIMENSION
5
17F
100
AcDbEntity
8
SK2
62
256
6
ByLayer
370
18
48
1
60
0
100
AcDbDimension
2
_U3
10
0
20
-27.50012
30
0
11
-18
21
-27.50012
31
0
70
32
71
1
72
1
41
1
210
0
220
0
230
1
3
Standard
100
AcDbAlignedDimension
13
-36
23
-4
33
0
14
0
24
-4
34
0
50
0
100
AcDbRotatedDimension
1001
ACAD
1000
DSTYLE
1002
{
1070
   371
1070
    13
1070
   372
1070
    13
1070
     3
1000

1070
   170
1070
     0
1070
   144
1040
1.0
1070
   277
1070
     2
1070
   284
1070
     8
1070
   278
1070
    46
1070
   146
1040
0.999966
1070
   345
1005
16
1070
   347
1005
16
1070
   346
1005
16
1070
   344
1005
11D
1070
   343
1005
11D
1070
   172
1070
     1
1070
    76
1070
     0
1070
    75
1070
     0
1070
   282
1070
     0
1070
   281
1070
     0
1070
    71
1070
     0
1070
    74
1070
     0
1070
   279
1070
     0
1070
   173
1070
     1
1070
   340
1005
117
1070
   271
1070
     1
1070
   272
1070
     2
1070
    77
1070
     1
1070
    73
1070
     1
1070
   171
1070
     3
1070
   274
1070
     4
1070
   177
1070
   150
1070
   176
1070
     9
1070
   178
1070
    43
1070
    78
1070
     8
1070
    48
1040
-0.1
1070
    41
1040
3.175
1070
   147
1040
1.75006
1070
    42
1040
1.5875
1070
    44
1040
3.175
1070
   140
1040
3.50012
1002
}
1001
ACAD_DSTYLE_DIM_LINETYPE
1070
   380
1005
16
1001
ACAD_DSTYLE_DIM_EXT1_LINETYPE
1070
   381
1005
16
1001
ACAD_DSTYLE_DIM_EXT2_LINETYPE
1070
   382
1005
16
0
DIMENSION
5
19B
100
AcDbEntity
8
SK2
62
256
6
ByLayer
370
18
48
1
60
0
100
AcDbDimension
2
_U4
10
55
20
-18.74982
30
0
11
28.5
21
-18.74982
31
0
70
32
71
1
72
1
41
1
210
0
220
0
230
1
3
Standard
100
AcDbAlignedDimension
13
2
23
3.55
33
0
14
55
24
0
34
0
50
0
100
AcDbRotatedDimension
1001
ACAD
1000
DSTYLE
1002
{
1070
   371
1070
    13
1070
   372
1070
    13
1070
     3
1000

1070
   170
1070
     0
1070
   144
1040
1.0
1070
   277
1070
     2
1070
   284
1070
     8
1070
   278
1070
    46
1070
   146
1040
0.999966
1070
   345
1005
16
1070
   347
1005
16
1070
   346
1005
16
1070
   344
1005
11D
1070
   343
1005
11D
1070
   172
1070
     1
1070
    76
1070
     0
1070
    75
1070
     0
1070
   282
1070
     0
1070
   281
1070
     0
1070
    71
1070
     0
1070
    74
1070
     0
1070
   279
1070
     0
1070
   173
1070
     1
1070
   340
1005
117
1070
   271
1070
     1
1070
   272
1070
     2
1070
    77
1070
     1
1070
    73
1070
     1
1070
   171
1070
     3
1070
   274
1070
     4
1070
   177
1070
   150
1070
   176
1070
     9
1070
   178
1070
    43
1070
    78
1070
     8
1070
    48
1040
-0.1
1070
    41
1040
3.175
1070
   147
1040
1.75006
1070
    42
1040
1.5875
1070
    44
1040
3.175
1070
   140
1040
3.50012
1002
}
1001
ACAD_DSTYLE_DIM_LINETYPE
1070
   380
1005
16
1001
ACAD_DSTYLE_DIM_EXT1_LINETYPE
1070
   381
1005
16
1001
ACAD_DSTYLE_DIM_EXT2_LINETYPE
1070
   382
1005
16
0
DIMENSION
5
1B7
100
AcDbEntity
8
SK2
62
256
6
ByLayer
370
18
48
1
60
0
100
AcDbDimension
2
_U5
10
55
20
-10.82
30
0
11
39.2
21
-10.82
31
0
70
32
71
1
72
1
41
1
210
0
220
0
230
1
3
Standard
100
AcDbAlignedDimension
13
23.4
23
-3.05
33
0
14
55
24
0
34
0
50
0
100
AcDbRotatedDimension
1001
ACAD
1000
DSTYLE
1002
{
1070
   371
1070
    13
1070
   372
1070
    13
1070
     3
1000

1070
   170
1070
     0
1070
   144
1040
1.0
1070
   277
1070
     2
1070
   284
1070
     8
1070
   278
1070
    46
1070
   146
1040
1.25
1070
   345
1005
16
1070
   347
1005
16
1070
   346
1005
16
1070
   344
1005
11D
1070
   343
1005
11D
1070
   172
1070
     1
1070
    76
1070
     0
1070
    75
1070
     0
1070
   282
1070
     0
1070
   281
1070
     0
1070
    71
1070
     0
1070
    74
1070
     0
1070
   279
1070
     0
1070
   173
1070
     1
1070
   340
1005
117
1070
   271
1070
     1
1070
   272
1070
     2
1070
    77
1070
     1
1070
    73
1070
     1
1070
   171
1070
     3
1070
   274
1070
     4
1070
   177
1070
   150
1070
   176
1070
     9
1070
   178
1070
    43
1070
    78
1070
     8
1070
    48
1040
-0.1
1070
    41
1040
3.175
1070
   147
1040
0.42
1070
    42
1040
1.5875
1070
    44
1040
0.5
1070
   140
1040
2.8
1002
}
1001
ACAD_DSTYLE_DIM_LINETYPE
1070
   380
1005
16
1001
ACAD_DSTYLE_DIM_EXT1_LINETYPE
1070
   381
1005
16
1001
ACAD_DSTYLE_DIM_EXT2_LINETYPE
1070
   382
1005
16
0
DIMENSION
5
1D3
100
AcDbEntity
8
SK2
62
256
6
ByLayer
370
18
48
1
60
0
100
AcDbDimension
2
_U6
10
55
20
-37.50012
30
0
11
9.5
21
-37.50012
31
0
70
32
71
1
72
1
41
1
210
0
220
0
230
1
3
Standard
100
AcDbAlignedDimension
13
-36
23
0
33
0
14
55
24
0
34
0
50
0
100
AcDbRotatedDimension
1001
ACAD
1000
DSTYLE
1002
{
1070
   371
1070
    13
1070
   372
1070
    13
1070
     3
1000

1070
   170
1070
     0
1070
   144
1040
1.0
1070
   277
1070
     2
1070
   284
1070
     8
1070
   278
1070
    46
1070
   146
1040
0.999966
1070
   345
1005
16
1070
   347
1005
16
1070
   346
1005
16
1070
   344
1005
11D
1070
   343
1005
11D
1070
   172
1070
     1
1070
    76
1070
     0
1070
    75
1070
     0
1070
   282
1070
     0
1070
   281
1070
     0
1070
    71
1070
     0
1070
    74
1070
     0
1070
   279
1070
     0
1070
   173
1070
     1
1070
   340
1005
117
1070
   271
1070
     1
1070
   272
1070
     2
1070
    77
1070
     1
1070
    73
1070
     1
1070
   171
1070
     3
1070
   274
1070
     4
1070
   177
1070
   150
1070
   176
1070
     9
1070
   178
1070
    43
1070
    78
1070
     8
1070
    48
1040
-0.1
1070
    41
1040
3.175
1070
   147
1040
1.75006
1070
    42
1040
1.5875
1070
    44
1040
3.175
1070
   140
1040
3.50012
1002
}
1001
ACAD_DSTYLE_DIM_LINETYPE
1070
   380
1005
16
1001
ACAD_DSTYLE_DIM_EXT1_LINETYPE
1070
   381
1005
16
1001
ACAD_DSTYLE_DIM_EXT2_LINETYPE
1070
   382
1005
16
0
ENDSEC
0
SECTION
2
OBJECTS
0
DICTIONARY
5
25f
330
0
100
AcDbDictionary
280
0
281
1
3
ACAD_GROUP
350
260
3
ACAD_MLINESTYLE
350
261
0
DICTIONARY
5
260
330
0
100
AcDbDictionary
280
0
281
1
0
DICTIONARY
5
261
330
0
100
AcDbDictionary
280
0
281
1
3
Standard
350
18
0
MLINESTYLE
5
18
330
261
100
AcDbMlineStyle
2
Standard
70
0
3

62
256
51
90
52
90
71
2
49
-0.5
62
256
6
ByLayer
49
0.5
62
256
6
ByLayer
0
RASTERVARIABLES
5
24d
330

100
AcDbRasterVariables
90
0
70
1
71
1
72
1
0
ENDSEC
0
EOF
