0
SECTION
2
HEADER
9
$ACADVER
1
AC1015
9
$DWGCODEPAGE
3
ANSI_1252
9
$HANDSEED
5
24e
9
$ANGBASE
50
0
9
$ANGDIR
70
0
9
$ATTMODE
70
1
9
$AUNITS
70
0
9
$AUPREC
70
0
9
$CECOLOR
62
256
9
$CELTSCALE
40
1
9
$CELTYPE
6
ByLayer
9
$CELWEIGHT
370
18
9
$CLAYER
8
0
9
$CMLJUST
70
0
9
$CMLSCALE
40
1
9
$CMLSTYLE
2
Standard
9
$DIMSTYLE
2
Standard
9
$TEXTSIZE
40
0.2
9
$TEXTSTYLE
7
Standard
9
$LUNITS
70
2
9
$LUPREC
70
4
9
$EXTNAMES
290
1
9
$INSUNITS
70
4
9
$LTSCALE
40
1
9
$LWDISPLAY
290
1
9
$PDMODE
70
0
9
$PDSIZE
40
0
9
$PLINEGEN
70
0
0
ENDSEC
0
SECTION
2
CLASSES
0
CLASS
1
RASTERVARIABLES
2
AcDbRasterVariables
3
ISM
90
0
280
0
281
0
0
ENDSEC
0
SECTION
2
TABLES
0
TABLE
2
VPORT
5
244
100
AcDbSymbolTable
0
VPORT
5
1
100
AcDbSymbolTableRecord
100
AcDbViewportTableRecord
2
*Active
70
0
10
0
20
0
11
1
21
1
12
-1
22
1
13
0
23
0
14
0.5
24
0.5
15
10
25
10
16
0
26
0
36
1
17
0
27
0
37
0
0
ENDTAB
0
TABLE
2
LTYPE
5
245
100
AcDbSymbolTable
0
LTYPE
5
14
100
AcDbSymbolTableRecord
100
AcDbLinetypeTableRecord
70
0
2
ByBlock
3

72
65
73
0
40
0
0
LTYPE
5
15
100
AcDbSymbolTableRecord
100
AcDbLinetypeTableRecord
70
0
2
ByLayer
3

72
65
73
0
40
0
0
LTYPE
5
16
100
AcDbSymbolTableRecord
100
AcDbLinetypeTableRecord
70
0
2
Continuous
3
Solid line
72
65
73
0
40
0
0
LTYPE
5
6E
100
AcDbSymbolTableRecord
100
AcDbLinetypeTableRecord
70
0
2
CENTER
3
____ _ ____ _ ____ _ ____
72
65
73
4
40
47.5
49
22
74
0
49
-8.5
74
0
49
8.5
74
0
49
-8.5
74
0
0
LTYPE
5
6F
100
AcDbSymbolTableRecord
100
AcDbLinetypeTableRecord
70
0
2
DASHED
3
__ __ __ __ __ __ __ __ __
72
65
73
2
40
25.72
49
12.86
74
0
49
-12.86
74
0
0
ENDTAB
0
TABLE
2
LAYER
5
246
100
AcDbSymbolTable
0
LAYER
5
10
100
AcDbSymbolTableRecord
100
AcDbLayerTableRecord
2
0
70
0
62
7
6
Continuous
290
1
370
-3
390
0
0
LAYER
5
71
100
AcDbSymbolTableRecord
100
AcDbLayerTableRecord
2
80
70
0
62
-6
6
Continuous
290
1
370
-3
390
0
0
LAYER
5
73
100
AcDbSymbolTableRecord
100
AcDbLayerTableRecord
2
81
70
0
62
-3
6
Continuous
290
1
370
-3
390
0
0
LAYER
5
75
100
AcDbSymbolTableRecord
100
AcDbLayerTableRecord
2
1
70
0
62
4
6
Continuous
290
1
370
-3
390
0
0
LAYER
5
9E
100
AcDbSymbolTableRecord
100
AcDbLayerTableRecord
2
4
70
0
62
-2
6
CENTER
290
1
370
-3
390
0
0
LAYER
5
108
100
AcDbSymbolTableRecord
100
AcDbLayerTableRecord
2
Defpoints
70
0
62
7
6
Continuous
290
0
370
-3
390
0
0
LAYER
5
135
100
AcDbSymbolTableRecord
100
AcDbLayerTableRecord
2
2
70
0
62
7
6
Continuous
290
1
370
-3
390
0
0
LAYER
5
230
100
AcDbSymbolTableRecord
100
AcDbLayerTableRecord
2
SK1
70
0
62
4
6
Continuous
290
1
370
-3
390
0
0
LAYER
5
231
100
AcDbSymbolTableRecord
100
AcDbLayerTableRecord
2
SK4
70
0
62
2
6
CENTER
290
1
370
-3
390
0
0
LAYER
5
232
100
AcDbSymbolTableRecord
100
AcDbLayerTableRecord
2
SK2
70
0
62
7
6
Continuous
290
1
370
-3
390
0
0
LAYER
5
233
100
AcDbSymbolTableRecord
100
AcDbLayerTableRecord
2
SK6
70
0
62
5
6
Continuous
290
1
370
-3
390
0
0
ENDTAB
0
TABLE
2
STYLE
5
247
100
AcDbSymbolTable
0
STYLE
5
11
100
AcDbSymbolTableRecord
100
AcDbTextStyleTableRecord
2
Standard
3
txt
70
0
71
0
40
0
41
1
42
0
50
0
0
STYLE
5
F9
100
AcDbSymbolTableRecord
100
AcDbTextStyleTableRecord
2
iso_b_vert
3
simplex.shx
70
0
71
0
40
0
41
1
42
0
50
0
0
STYLE
5
FA
100
AcDbSymbolTableRecord
100
AcDbTextStyleTableRecord
2
DWGDirectTextStyle
3
simplex
70
0
71
0
40
0
41
1
42
0
50
0
0
ENDTAB
0
TABLE
2
DIMSTYLE
5
248
100
AcDbSymbolTable
100
AcDbDimStyleTable
0
DIMSTYLE
105
27
100
AcDbSymbolTableRecord
100
AcDbDimStyleTableRecord
2
Standard
70
0
3
<>
41
0.18
42
0.0625
44
0.18
140
0.18
147
0.09
73
0
74
0
77
1
271
2
275
0
278
52
280
0
340
11
0
ENDTAB
0
TABLE
2
VIEW
5
249
100
AcDbSymbolTable
0
ENDTAB
0
TABLE
2
UCS
5
24a
100
AcDbSymbolTable
0
ENDTAB
0
TABLE
2
APPID
5
24b
100
AcDbSymbolTable
0
APPID
5
12
100
AcDbSymbolTableRecord
100
AcDbRegAppTableRecord
2
ACAD
70
0
0
APPID
5
FD
100
AcDbSymbolTableRecord
100
AcDbRegAppTableRecord
2
ACAD_DSTYLE_DIMBREAK
70
0
0
APPID
5
1EF
100
AcDbSymbolTableRecord
100
AcDbRegAppTableRecord
2
ACAD_DSTYLE_DIM_LINETYPE
70
0
0
APPID
5
1F0
100
AcDbSymbolTableRecord
100
AcDbRegAppTableRecord
2
ACAD_DSTYLE_DIM_EXT1_LINETYPE
70
0
0
APPID
5
1F1
100
AcDbSymbolTableRecord
100
AcDbRegAppTableRecord
2
ACAD_DSTYLE_DIM_EXT2_LINETYPE
70
0
0
APPID
5
22C
100
AcDbSymbolTableRecord
100
AcDbRegAppTableRecord
2
ACAD_MLEADERVER
70
0
0
ENDTAB
0
TABLE
2
BLOCK_RECORD
5
24c
100
AcDbSymbolTable
0
BLOCK_RECORD
5
1F
100
AcDbSymbolTableRecord
100
AcDbBlockTableRecord
2
*Model_Space
340
0
70
0
0
BLOCK_RECORD
5
1B
100
AcDbSymbolTableRecord
100
AcDbBlockTableRecord
2
*Paper_Space
340
0
70
0
0
BLOCK_RECORD
5
23
100
AcDbSymbolTableRecord
100
AcDbBlockTableRecord
2
*Paper_Space0
340
0
70
0
0
BLOCK_RECORD
5
FF
100
AcDbSymbolTableRecord
100
AcDbBlockTableRecord
2
_Closed
340
0
70
0
0
BLOCK_RECORD
5
109
100
AcDbSymbolTableRecord
100
AcDbBlockTableRecord
2
*D2
340
0
70
0
0
BLOCK_RECORD
5
115
100
AcDbSymbolTableRecord
100
AcDbBlockTableRecord
2
_U0
340
0
70
0
0
BLOCK_RECORD
5
127
100
AcDbSymbolTableRecord
100
AcDbBlockTableRecord
2
*D4
340
0
70
0
0
BLOCK_RECORD
5
136
100
AcDbSymbolTableRecord
100
AcDbBlockTableRecord
2
_U1
340
0
70
0
0
BLOCK_RECORD
5
146
100
AcDbSymbolTableRecord
100
AcDbBlockTableRecord
2
*D6
340
0
70
0
0
BLOCK_RECORD
5
154
100
AcDbSymbolTableRecord
100
AcDbBlockTableRecord
2
_U2
340
0
70
0
0
BLOCK_RECORD
5
164
100
AcDbSymbolTableRecord
100
AcDbBlockTableRecord
2
*D8
340
0
70
0
0
BLOCK_RECORD
5
170
100
AcDbSymbolTableRecord
100
AcDbBlockTableRecord
2
_U3
340
0
70
0
0
BLOCK_RECORD
5
180
100
AcDbSymbolTableRecord
100
AcDbBlockTableRecord
2
*D10
340
0
70
0
0
BLOCK_RECORD
5
18C
100
AcDbSymbolTableRecord
100
AcDbBlockTableRecord
2
_U4
340
0
70
0
0
BLOCK_RECORD
5
19C
100
AcDbSymbolTableRecord
100
AcDbBlockTableRecord
2
*D12
340
0
70
0
0
BLOCK_RECORD
5
1A8
100
AcDbSymbolTableRecord
100
AcDbBlockTableRecord
2
_U5
340
0
70
0
0
BLOCK_RECORD
5
1B8
100
AcDbSymbolTableRecord
100
AcDbBlockTableRecord
2
*D14
340
0
70
0
0
BLOCK_RECORD
5
1C4
100
AcDbSymbolTableRecord
100
AcDbBlockTableRecord
2
_U6
340
0
70
0
0
ENDTAB
0
ENDSEC
0
SECTION
2
BLOCKS
0
BLOCK
5
20
100
AcDbEntity
8
0
100
AcDbBlockBegin
2
*Model_Space
70
0
10
0
20
0
30
0
3
*Model_Space
0
ENDBLK
5
21
100
AcDbEntity
8
0
100
AcDbBlockEnd
0
BLOCK
5
1C
100
AcDbEntity
8
0
100
AcDbBlockBegin
2
*Paper_Space
70
0
10
0
20
0
30
0
3
*Paper_Space
0
ENDBLK
5
1D
100
AcDbEntity
8
0
100
AcDbBlockEnd
0
BLOCK
5
24
100
AcDbEntity
8
0
100
AcDbBlockBegin
2
*Paper_Space0
70
0
10
0
20
0
30
0
3
*Paper_Space0
0
ENDBLK
5
25
100
AcDbEntity
8
0
100
AcDbBlockEnd
0
BLOCK
5
100
100
AcDbEntity
8
0
100
AcDbBlockBegin
2
_Closed
70
0
10
0
20
0
30
0
3
_Closed
0
LINE
5
102
100
AcDbEntity
8
0
62
256
6
ByLayer
370
-2
48
1
60
0
100
AcDbLine
10
-1
20
0.166667
30
0
11
0
21
0
31
0
39
0
210
0
220
0
230
1
0
LINE
5
103
100
AcDbEntity
8
0
62
256
6
ByLayer
370
-2
48
1
60
0
100
AcDbLine
10
0
20
0
30
0
11
-1
21
-0.166667
31
0
39
0
210
0
220
0
230
1
0
LINE
5
104
100
AcDbEntity
8
0
62
256
6
ByLayer
370
-2
48
1
60
0
100
AcDbLine
10
-1
20
0.166667
30
0
11
-1
21
-0.166667
31
0
39
0
210
0
220
0
230
1
0
LINE
5
105
100
AcDbEntity
8
0
62
256
6
ByLayer
370
-2
48
1
60
0
100
AcDbLine
10
0
20
0
30
0
11
-1
21
0
31
0
39
0
210
0
220
0
230
1
0
ENDBLK
5
101
100
AcDbEntity
8
0
100
AcDbBlockEnd
0
BLOCK
5
10A
100
AcDbEntity
8
0
100
AcDbBlockBegin
2
*D2
70
1
10
0
20
0
30
0
3
*D2
0
LINE
5
10C
100
AcDbEntity
8
0
62
256
6
ByLayer
370
-2
48
1
60
0
100
AcDbLine
10
0
20
-5.5875
30
0
11
0
21
-30.67512
31
0
39
0
210
0
220
0
230
1
0
LINE
5
10D
100
AcDbEntity
8
0
62
256
6
ByLayer
370
-2
48
1
60
0
100
AcDbLine
10
43
20
-1.5875
30
0
11
43
21
-30.67512
31
0
39
0
210
0
220
0
230
1
0
LINE
5
10E
100
AcDbEntity
8
0
62
256
6
ByLayer
370
-2
48
1
60
0
100
AcDbLine
10
3.175
20
-27.50012
30
0
11
39.825
21
-27.50012
31
0
39
0
210
0
220
0
230
1
0
SOLID
5
10F
100
AcDbEntity
8
0
62
256
6
ByLayer
370
-1
48
1
60
0
100
AcDbTrace
10
3.175
20
-26.970953
30
0
11
3.175
21
-28.029287
31
0
12
0
22
-27.50012
32
0
13
0
23
-27.50012
33
0
39
0
210
0
220
0
230
1
0
SOLID
5
110
100
AcDbEntity
8
0
62
256
6
ByLayer
370
-1
48
1
60
0
100
AcDbTrace
10
39.825
20
-28.029287
30
0
11
39.825
21
-26.970953
31
0
12
43
22
-27.50012
32
0
13
43
23
-27.50012
33
0
39
0
210
0
220
0
230
1
0
MTEXT
5
111
100
AcDbEntity
8
0
62
256
6
ByLayer
370
18
48
1
60
0
100
AcDbMText
10
21.5
20
-20.193619
30
0
210
0
220
0
230
1
1
\A1;43
40
3.50012
41
0
44
1
50
0
71
5
72
5
7
iso_b_vert
0
POINT
5
112
100
AcDbEntity
8
Defpoints
62
0
6
ByLayer
370
-1
48
1
60
0
100
AcDbPoint
10
0
20
-4
30
0
39
0
210
0
220
0
230
1
50
360
0
POINT
5
113
100
AcDbEntity
8
Defpoints
62
0
6
ByLayer
370
-1
48
1
60
0
100
AcDbPoint
10
43
20
0
30
0
39
0
210
0
220
0
230
1
50
360
0
POINT
5
114
100
AcDbEntity
8
Defpoints
62
0
6
ByLayer
370
-1
48
1
60
0
100
AcDbPoint
10
43
20
-27.50012
30
0
39
0
210
0
220
0
230
1
50
360
0
ENDBLK
5
10B
100
AcDbEntity
8
0
100
AcDbBlockEnd
0
BLOCK
5
122
100
AcDbEntity
8
0
100
AcDbBlockBegin
2
_U0
70
0
10
0
20
0
30
0
3
_U0
0
MTEXT
5
116
100
AcDbEntity
8
SK2
62
256
6
ByLayer
370
18
48
1
60
0
100
AcDbMText
10
16.086116
20
-26.467451
30
0
210
0
220
0
230
1
1
\W0.7694;43.00
40
3.50012
41
0
44
1.084337
50
0
71
7
72
5
7
iso_b_vert
0
MTEXT
5
117
100
AcDbEntity
8
SK2
62
256
6
ByLayer
370
18
48
1
60
0
100
AcDbMText
10
12.560056
20
-26.400814
30
0
210
0
220
0
230
1
1
\W0.1790;(
40
3.175
41
0
44
1.084337
50
0
71
7
72
5
7
iso_b_vert
0
MTEXT
5
118
100
AcDbEntity
8
SK2
62
256
6
ByLayer
370
18
48
1
60
0
100
AcDbMText
10
30.442666
20
-26.400814
30
0
210
0
220
0
230
1
1
\W0.1969;)
40
3.175
41
0
44
1.084337
50
0
71
7
72
5
7
iso_b_vert
0
LINE
5
119
100
AcDbEntity
8
SK2
62
256
6
ByLayer
370
13
48
1
60
0
100
AcDbLine
10
0
20
-5.5875
30
0
11
0
21
-30.67512
31
0
39
0
210
0
220
0
230
1
0
LINE
5
11A
100
AcDbEntity
8
SK2
62
256
6
ByLayer
370
13
48
1
60
0
100
AcDbLine
10
43
20
-1.5875
30
0
11
43
21
-30.67512
31
0
39
0
210
0
220
0
230
1
0
LINE
5
11B
100
AcDbEntity
8
SK2
62
256
6
ByLayer
370
13
48
1
60
0
100
AcDbLine
10
0
20
-27.50012
30
0
11
43
21
-27.50012
31
0
39
0
210
0
220
0
230
1
0
LINE
5
11C
100
AcDbEntity
8
SK2
62
256
6
ByLayer
370
13
48
1
60
0
100
AcDbLine
10
0
20
-27.50012
30
0
11
3.174998
21
-27.082123
31
0
39
0
210
0
220
0
230
1
0
LINE
5
11D
100
AcDbEntity
8
SK2
62
256
6
ByLayer
370
13
48
1
60
0
100
AcDbLine
10
0
20
-27.50012
30
0
11
3.175002
21
-27.918117
31
0
39
0
210
0
220
0
230
1
0
LINE
5
11E
100
AcDbEntity
8
SK2
62
256
6
ByLayer
370
13
48
1
60
0
100
AcDbLine
10
3.174998
20
-27.082123
30
0
11
3.175002
21
-27.918117
31
0
39
0
210
0
220
0
230
1
0
LINE
5
11F
100
AcDbEntity
8
SK2
62
256
6
ByLayer
370
13
48
1
60
0
100
AcDbLine
10
43
20
-27.50012
30
0
11
39.825002
21
-27.918117
31
0
39
0
210
0
220
0
230
1
0
LINE
5
120
100
AcDbEntity
8
SK2
62
256
6
ByLayer
370
13
48
1
60
0
100
AcDbLine
10
43
20
-27.50012
30
0
11
39.824998
21
-27.082123
31
0
39
0
210
0
220
0
230
1
0
LINE
5
121
100
AcDbEntity
8
SK2
62
256
6
ByLayer
370
13
48
1
60
0
100
AcDbLine
10
39.825002
20
-27.918117
30
0
11
39.824998
21
-27.082123
31
0
39
0
210
0
220
0
230
1
0
ENDBLK
5
123
100
AcDbEntity
8
0
100
AcDbBlockEnd
0
BLOCK
5
128
100
AcDbEntity
8
0
100
AcDbBlockBegin
2
*D4
70
1
10
0
20
0
30
0
3
*D4
0
LINE
5
12A
100
AcDbEntity
8
0
62
256
6
ByLayer
370
-2
48
1
60
0
100
AcDbLine
10
43.3682
20
-3.35
30
0
11
52.92506
21
-3.35
31
0
39
0
210
0
220
0
230
1
0
LINE
5
12B
100
AcDbEntity
8
0
62
256
6
ByLayer
370
-2
48
1
60
0
100
AcDbLine
10
43.3682
20
3.35
30
0
11
52.92506
21
3.35
31
0
39
0
210
0
220
0
230
1
0
LINE
5
12C
100
AcDbEntity
8
0
62
256
6
ByLayer
370
-2
48
1
60
0
100
AcDbLine
10
49.75006
20
3.35
30
0
11
49.75006
21
27.979793
31
0
39
0
210
0
220
0
230
1
0
LINE
5
12D
100
AcDbEntity
8
0
62
256
6
ByLayer
370
-2
48
1
60
0
100
AcDbLine
10
49.75006
20
-6.525
30
0
11
49.75006
21
-9.7
31
0
39
0
210
0
220
0
230
1
0
LINE
5
12E
100
AcDbEntity
8
0
62
256
6
ByLayer
370
-2
48
1
60
0
100
AcDbLine
10
49.75006
20
6.525
30
0
11
49.75006
21
9.7
31
0
39
0
210
0
220
0
230
1
0
SOLID
5
12F
100
AcDbEntity
8
0
62
256
6
ByLayer
370
-1
48
1
60
0
100
AcDbTrace
10
50.279227
20
-6.525
30
0
11
49.220893
21
-6.525
31
0
12
49.75006
22
-3.35
32
0
13
49.75006
23
-3.35
33
0
39
0
210
0
220
0
230
1
0
SOLID
5
130
100
AcDbEntity
8
0
62
256
6
ByLayer
370
-1
48
1
60
0
100
AcDbTrace
10
49.220893
20
6.525
30
0
11
50.279227
21
6.525
31
0
12
49.75006
22
3.35
32
0
13
49.75006
23
3.35
33
0
39
0
210
0
220
0
230
1
0
MTEXT
5
131
100
AcDbEntity
8
0
62
256
6
ByLayer
370
18
48
1
60
0
100
AcDbMText
10
42.443559
20
18.839897
30
0
210
0
220
0
230
1
1
\A1;6.7
40
3.50012
41
0
44
1
50
90
71
5
72
5
7
iso_b_vert
0
POINT
5
132
100
AcDbEntity
8
Defpoints
62
0
6
ByLayer
370
-1
48
1
60
0
100
AcDbPoint
10
41.7807
20
-3.35
30
0
39
0
210
0
220
0
230
1
50
360
0
POINT
5
133
100
AcDbEntity
8
Defpoints
62
0
6
ByLayer
370
-1
48
1
60
0
100
AcDbPoint
10
41.7807
20
3.35
30
0
39
0
210
0
220
0
230
1
50
360
0
POINT
5
134
100
AcDbEntity
8
Defpoints
62
0
6
ByLayer
370
-1
48
1
60
0
100
AcDbPoint
10
49.75006
20
3.35
30
0
39
0
210
0
220
0
230
1
50
360
0
ENDBLK
5
129
100
AcDbEntity
8
0
100
AcDbBlockEnd
0
BLOCK
5
141
100
AcDbEntity
8
0
100
AcDbBlockBegin
2
_U1
70
0
10
0
20
0
30
0
3
_U1
0
MTEXT
5
137
100
AcDbEntity
8
2
62
256
6
ByLayer
370
18
48
1
60
0
100
AcDbMText
10
49.060403
20
7.507505
30
0
210
0
220
0
230
1
1
\W0.7346;6.70
40
3.50012
41
0
44
1.084337
50
90
71
7
72
5
7
iso_b_vert
0
LINE
5
138
100
AcDbEntity
8
2
62
256
6
ByLayer
370
13
48
1
60
0
100
AcDbLine
10
43.3682
20
-3.35
30
0
11
52.92506
21
-3.35
31
0
39
0
210
0
220
0
230
1
0
LINE
5
139
100
AcDbEntity
8
2
62
256
6
ByLayer
370
13
48
1
60
0
100
AcDbLine
10
43.3682
20
3.35
30
0
11
52.92506
21
3.35
31
0
39
0
210
0
220
0
230
1
0
LINE
5
13A
100
AcDbEntity
8
2
62
256
6
ByLayer
370
13
48
1
60
0
100
AcDbLine
10
49.75006
20
-3.35
30
0
11
49.75006
21
15.56468
31
0
39
0
210
0
220
0
230
1
0
LINE
5
13B
100
AcDbEntity
8
2
62
256
6
ByLayer
370
13
48
1
60
0
100
AcDbLine
10
49.75006
20
-3.35
30
0
11
49.332063
21
-0.175002
31
0
39
0
210
0
220
0
230
1
0
LINE
5
13C
100
AcDbEntity
8
2
62
256
6
ByLayer
370
13
48
1
60
0
100
AcDbLine
10
49.75006
20
-3.35
30
0
11
50.168057
21
-0.174998
31
0
39
0
210
0
220
0
230
1
0
LINE
5
13D
100
AcDbEntity
8
2
62
256
6
ByLayer
370
13
48
1
60
0
100
AcDbLine
10
49.332063
20
-0.175002
30
0
11
50.168057
21
-0.174998
31
0
39
0
210
0
220
0
230
1
0
LINE
5
13E
100
AcDbEntity
8
2
62
256
6
ByLayer
370
13
48
1
60
0
100
AcDbLine
10
49.75006
20
3.35
30
0
11
50.168057
21
0.175002
31
0
39
0
210
0
220
0
230
1
0
LINE
5
13F
100
AcDbEntity
8
2
62
256
6
ByLayer
370
13
48
1
60
0
100
AcDbLine
10
49.75006
20
3.35
30
0
11
49.332063
21
0.174998
31
0
39
0
210
0
220
0
230
1
0
LINE
5
140
100
AcDbEntity
8
2
62
256
6
ByLayer
370
13
48
1
60
0
100
AcDbLine
10
50.168057
20
0.175002
30
0
11
49.332063
21
0.174998
31
0
39
0
210
0
220
0
230
1
0
ENDBLK
5
142
100
AcDbEntity
8
0
100
AcDbBlockEnd
0
BLOCK
5
147
100
AcDbEntity
8
0
100
AcDbBlockBegin
2
*D6
70
1
10
0
20
0
30
0
3
*D6
0
LINE
5
149
100
AcDbEntity
8
0
62
256
6
ByLayer
370
-2
48
1
60
0
100
AcDbLine
10
-37.5875
20
4
30
0
11
-42.42494
21
4
31
0
39
0
210
0
220
0
230
1
0
LINE
5
14A
100
AcDbEntity
8
0
62
256
6
ByLayer
370
-2
48
1
60
0
100
AcDbLine
10
-37.5875
20
-4
30
0
11
-42.42494
21
-4
31
0
39
0
210
0
220
0
230
1
0
LINE
5
14B
100
AcDbEntity
8
0
62
256
6
ByLayer
370
-2
48
1
60
0
100
AcDbLine
10
-39.24994
20
4
30
0
11
-39.24994
21
24.830487
31
0
39
0
210
0
220
0
230
1
0
LINE
5
14C
100
AcDbEntity
8
0
62
256
6
ByLayer
370
-2
48
1
60
0
100
AcDbLine
10
-39.24994
20
7.175
30
0
11
-39.24994
21
10.35
31
0
39
0
210
0
220
0
230
1
0
LINE
5
14D
100
AcDbEntity
8
0
62
256
6
ByLayer
370
-2
48
1
60
0
100
AcDbLine
10
-39.24994
20
-7.175
30
0
11
-39.24994
21
-10.35
31
0
39
0
210
0
220
0
230
1
0
SOLID
5
14E
100
AcDbEntity
8
0
62
256
6
ByLayer
370
-1
48
1
60
0
100
AcDbTrace
10
-39.779107
20
7.175
30
0
11
-38.720773
21
7.175
31
0
12
-39.24994
22
4
32
0
13
-39.24994
23
4
33
0
39
0
210
0
220
0
230
1
0
SOLID
5
14F
100
AcDbEntity
8
0
62
256
6
ByLayer
370
-1
48
1
60
0
100
AcDbTrace
10
-38.720773
20
-7.175
30
0
11
-39.779107
21
-7.175
31
0
12
-39.24994
22
-4
32
0
13
-39.24994
23
-4
33
0
39
0
210
0
220
0
230
1
0
MTEXT
5
150
100
AcDbEntity
8
0
62
256
6
ByLayer
370
18
48
1
60
0
100
AcDbMText
10
-46.556441
20
18.10734
30
0
210
0
220
0
230
1
1
\A1;8
40
3.50012
41
0
44
1
50
90
71
5
72
5
7
iso_b_vert
0
POINT
5
151
100
AcDbEntity
8
Defpoints
62
0
6
ByLayer
370
-1
48
1
60
0
100
AcDbPoint
10
-36
20
4
30
0
39
0
210
0
220
0
230
1
50
360
0
POINT
5
152
100
AcDbEntity
8
Defpoints
62
0
6
ByLayer
370
-1
48
1
60
0
100
AcDbPoint
10
-36
20
-4
30
0
39
0
210
0
220
0
230
1
50
360
0
POINT
5
153
100
AcDbEntity
8
Defpoints
62
0
6
ByLayer
370
-1
48
1
60
0
100
AcDbPoint
10
-39.24994
20
-4
30
0
39
0
210
0
220
0
230
1
50
360
0
ENDBLK
5
148
100
AcDbEntity
8
0
100
AcDbBlockEnd
0
BLOCK
5
15F
100
AcDbEntity
8
0
100
AcDbBlockBegin
2
_U2
70
0
10
0
20
0
30
0
3
_U2
0
MTEXT
5
155
100
AcDbEntity
8
SK2
62
256
6
ByLayer
370
18
48
1
60
0
100
AcDbMText
10
-39.939597
20
14.157505
30
0
210
0
220
0
230
1
1
\W0.7346;8.00
40
3.50012
41
0
44
1.084337
50
90
71
7
72
5
7
iso_b_vert
0
LINE
5
156
100
AcDbEntity
8
SK2
62
256
6
ByLayer
370
13
48
1
60
0
100
AcDbLine
10
-37.5875
20
4
30
0
11
-42.42494
21
4
31
0
39
0
210
0
220
0
230
1
0
LINE
5
157
100
AcDbEntity
8
SK2
62
256
6
ByLayer
370
13
48
1
60
0
100
AcDbLine
10
-37.5875
20
-4
30
0
11
-42.42494
21
-4
31
0
39
0
210
0
220
0
230
1
0
LINE
5
158
100
AcDbEntity
8
SK2
62
256
6
ByLayer
370
13
48
1
60
0
100
AcDbLine
10
-39.24994
20
-4
30
0
11
-39.24994
21
22.21468
31
0
39
0
210
0
220
0
230
1
0
LINE
5
159
100
AcDbEntity
8
SK2
62
256
6
ByLayer
370
13
48
1
60
0
100
AcDbLine
10
-39.24994
20
4
30
0
11
-38.831943
21
0.825002
31
0
39
0
210
0
220
0
230
1
0
LINE
5
15A
100
AcDbEntity
8
SK2
62
256
6
ByLayer
370
13
48
1
60
0
100
AcDbLine
10
-39.24994
20
4
30
0
11
-39.667937
21
0.824998
31
0
39
0
210
0
220
0
230
1
0
LINE
5
15B
100
AcDbEntity
8
SK2
62
256
6
ByLayer
370
13
48
1
60
0
100
AcDbLine
10
-38.831943
20
0.825002
30
0
11
-39.667937
21
0.824998
31
0
39
0
210
0
220
0
230
1
0
LINE
5
15C
100
AcDbEntity
8
SK2
62
256
6
ByLayer
370
13
48
1
60
0
100
AcDbLine
10
-39.24994
20
-4
30
0
11
-39.667937
21
-0.825002
31
0
39
0
210
0
220
0
230
1
0
LINE
5
15D
100
AcDbEntity
8
SK2
62
256
6
ByLayer
370
13
48
1
60
0
100
AcDbLine
10
-39.24994
20
-4
30
0
11
-38.831943
21
-0.824998
31
0
39
0
210
0
220
0
230
1
0
LINE
5
15E
100
AcDbEntity
8
SK2
62
256
6
ByLayer
370
13
48
1
60
0
100
AcDbLine
10
-39.667937
20
-0.825002
30
0
11
-38.831943
21
-0.824998
31
0
39
0
210
0
220
0
230
1
0
ENDBLK
5
160
100
AcDbEntity
8
0
100
AcDbBlockEnd
0
BLOCK
5
165
100
AcDbEntity
8
0
100
AcDbBlockBegin
2
*D8
70
1
10
0
20
0
30
0
3
*D8
0
LINE
5
167
100
AcDbEntity
8
0
62
256
6
ByLayer
370
-2
48
1
60
0
100
AcDbLine
10
-36
20
-5.5875
30
0
11
-36
21
-30.67512
31
0
39
0
210
0
220
0
230
1
0
LINE
5
168
100
AcDbEntity
8
0
62
256
6
ByLayer
370
-2
48
1
60
0
100
AcDbLine
10
0
20
-5.5875
30
0
11
0
21
-30.67512
31
0
39
0
210
0
220
0
230
1
0
LINE
5
169
100
AcDbEntity
8
0
62
256
6
ByLayer
370
-2
48
1
60
0
100
AcDbLine
10
-32.825
20
-27.50012
30
0
11
-3.175
21
-27.50012
31
0
39
0
210
0
220
0
230
1
0
SOLID
5
16A
100
AcDbEntity
8
0
62
256
6
ByLayer
370
-1
48
1
60
0
100
AcDbTrace
10
-32.825
20
-26.970953
30
0
11
-32.825
21
-28.029287
31
0
12
-36
22
-27.50012
32
0
13
-36
23
-27.50012
33
0
39
0
210
0
220
0
230
1
0
SOLID
5
16B
100
AcDbEntity
8
0
62
256
6
ByLayer
370
-1
48
1
60
0
100
AcDbTrace
10
-3.175
20
-28.029287
30
0
11
-3.175
21
-26.970953
31
0
12
0
22
-27.50012
32
0
13
0
23
-27.50012
33
0
39
0
210
0
220
0
230
1
0
MTEXT
5
16C
100
AcDbEntity
8
0
62
256
6
ByLayer
370
18
48
1
60
0
100
AcDbMText
10
-18
20
-20.193619
30
0
210
0
220
0
230
1
1
\A1;36
40
3.50012
41
0
44
1
50
0
71
5
72
5
7
iso_b_vert
0
POINT
5
16D
100
AcDbEntity
8
Defpoints
62
0
6
ByLayer
370
-1
48
1
60
0
100
AcDbPoint
10
-36
20
-4
30
0
39
0
210
0
220
0
230
1
50
360
0
POINT
5
16E
100
AcDbEntity
8
Defpoints
62
0
6
ByLayer
370
-1
48
1
60
0
100
AcDbPoint
10
0
20
-4
30
0
39
0
210
0
220
0
230
1
50
360
0
POINT
5
16F
100
AcDbEntity
8
Defpoints
62
0
6
ByLayer
370
-1
48
1
60
0
100
AcDbPoint
10
0
20
-27.50012
30
0
39
0
210
0
220
0
230
1
50
360
0
ENDBLK
5
166
100
AcDbEntity
8
0
100
AcDbBlockEnd
0
BLOCK
5
17B
100
AcDbEntity
8
0
100
AcDbBlockBegin
2
_U3
70
0
10
0
20
0
30
0
3
_U3
0
MTEXT
5
171
100
AcDbEntity
8
SK2
62
256
6
ByLayer
370
18
48
1
60
0
100
AcDbMText
10
-23.229611
20
-26.467451
30
0
210
0
220
0
230
1
1
\W0.7468;36.00
40
3.50012
41
0
44
1.084337
50
0
71
7
72
5
7
iso_b_vert
0
LINE
5
172
100
AcDbEntity
8
SK2
62
256
6
ByLayer
370
13
48
1
60
0
100
AcDbLine
10
-36
20
-5.5875
30
0
11
-36
21
-30.67512
31
0
39
0
210
0
220
0
230
1
0
LINE
5
173
100
AcDbEntity
8
SK2
62
256
6
ByLayer
370
13
48
1
60
0
100
AcDbLine
10
0
20
-5.5875
30
0
11
0
21
-30.67512
31
0
39
0
210
0
220
0
230
1
0
LINE
5
174
100
AcDbEntity
8
SK2
62
256
6
ByLayer
370
13
48
1
60
0
100
AcDbLine
10
-36
20
-27.50012
30
0
11
0
21
-27.50012
31
0
39
0
210
0
220
0
230
1
0
LINE
5
175
100
AcDbEntity
8
SK2
62
256
6
ByLayer
370
13
48
1
60
0
100
AcDbLine
10
-36
20
-27.50012
30
0
11
-32.825002
21
-27.082123
31
0
39
0
210
0
220
0
230
1
0
LINE
5
176
100
AcDbEntity
8
SK2
62
256
6
ByLayer
370
13
48
1
60
0
100
AcDbLine
10
-36
20
-27.50012
30
0
11
-32.824998
21
-27.918117
31
0
39
0
210
0
220
0
230
1
0
LINE
5
177
100
AcDbEntity
8
SK2
62
256
6
ByLayer
370
13
48
1
60
0
100
AcDbLine
10
-32.825002
20
-27.082123
30
0
11
-32.824998
21
-27.918117
31
0
39
0
210
0
220
0
230
1
0
LINE
5
178
100
AcDbEntity
8
SK2
62
256
6
ByLayer
370
13
48
1
60
0
100
AcDbLine
10
0
20
-27.50012
30
0
11
-3.174998
21
-27.918117
31
0
39
0
210
0
220
0
230
1
0
LINE
5
179
100
AcDbEntity
8
SK2
62
256
6
ByLayer
370
13
48
1
60
0
100
AcDbLine
10
0
20
-27.50012
30
0
11
-3.175002
21
-27.082123
31
0
39
0
210
0
220
0
230
1
0
LINE
5
17A
100
AcDbEntity
8
SK2
62
256
6
ByLayer
370
13
48
1
60
0
100
AcDbLine
10
-3.174998
20
-27.918117
30
0
11
-3.175002
21
-27.082123
31
0
39
0
210
0
220
0
230
1
0
ENDBLK
5
17C
100
AcDbEntity
8
0
100
AcDbBlockEnd
0
BLOCK
5
181
100
AcDbEntity
8
0
100
AcDbBlockBegin
2
*D10
70
1
10
0
20
0
30
0
3
*D10
0
LINE
5
183
100
AcDbEntity
8
0
62
256
6
ByLayer
370
-2
48
1
60
0
100
AcDbLine
10
9
20
2.2625
30
0
11
9
21
-21.92482
31
0
39
0
210
0
220
0
230
1
0
LINE
5
184
100
AcDbEntity
8
0
62
256
6
ByLayer
370
-2
48
1
60
0
100
AcDbLine
10
43
20
-1.5875
30
0
11
43
21
-21.92482
31
0
39
0
210
0
220
0
230
1
0
LINE
5
185
100
AcDbEntity
8
0
62
256
6
ByLayer
370
-2
48
1
60
0
100
AcDbLine
10
12.175
20
-18.74982
30
0
11
39.825
21
-18.74982
31
0
39
0
210
0
220
0
230
1
0
SOLID
5
186
100
AcDbEntity
8
0
62
256
6
ByLayer
370
-1
48
1
60
0
100
AcDbTrace
10
12.175
20
-18.220653
30
0
11
12.175
21
-19.278987
31
0
12
9
22
-18.74982
32
0
13
9
23
-18.74982
33
0
39
0
210
0
220
0
230
1
0
SOLID
5
187
100
AcDbEntity
8
0
62
256
6
ByLayer
370
-1
48
1
60
0
100
AcDbTrace
10
39.825
20
-19.278987
30
0
11
39.825
21
-18.220653
31
0
12
43
22
-18.74982
32
0
13
43
23
-18.74982
33
0
39
0
210
0
220
0
230
1
0
MTEXT
5
188
100
AcDbEntity
8
0
62
256
6
ByLayer
370
18
48
1
60
0
100
AcDbMText
10
26
20
-11.44332
30
0
210
0
220
0
230
1
1
\A1;34
40
3.50012
41
0
44
1
50
0
71
5
72
5
7
iso_b_vert
0
POINT
5
189
100
AcDbEntity
8
Defpoints
62
0
6
ByLayer
370
-1
48
1
60
0
100
AcDbPoint
10
9
20
3.85
30
0
39
0
210
0
220
0
230
1
50
360
0
POINT
5
18A
100
AcDbEntity
8
Defpoints
62
0
6
ByLayer
370
-1
48
1
60
0
100
AcDbPoint
10
43
20
0
30
0
39
0
210
0
220
0
230
1
50
360
0
POINT
5
18B
100
AcDbEntity
8
Defpoints
62
0
6
ByLayer
370
-1
48
1
60
0
100
AcDbPoint
10
43
20
-18.74982
30
0
39
0
210
0
220
0
230
1
50
360
0
ENDBLK
5
182
100
AcDbEntity
8
0
100
AcDbBlockEnd
0
BLOCK
5
197
100
AcDbEntity
8
0
100
AcDbBlockBegin
2
_U4
70
0
10
0
20
0
30
0
3
_U4
0
MTEXT
5
18D
100
AcDbEntity
8
SK2
62
256
6
ByLayer
370
18
48
1
60
0
100
AcDbMText
10
20.586116
20
-17.717151
30
0
210
0
220
0
230
1
1
\W0.7694;34.00
40
3.50012
41
0
44
1.084337
50
0
71
7
72
5
7
iso_b_vert
0
LINE
5
18E
100
AcDbEntity
8
SK2
62
256
6
ByLayer
370
13
48
1
60
0
100
AcDbLine
10
9
20
2.2625
30
0
11
9
21
-21.92482
31
0
39
0
210
0
220
0
230
1
0
LINE
5
18F
100
AcDbEntity
8
SK2
62
256
6
ByLayer
370
13
48
1
60
0
100
AcDbLine
10
43
20
-1.5875
30
0
11
43
21
-21.92482
31
0
39
0
210
0
220
0
230
1
0
LINE
5
190
100
AcDbEntity
8
SK2
62
256
6
ByLayer
370
13
48
1
60
0
100
AcDbLine
10
9
20
-18.74982
30
0
11
43
21
-18.74982
31
0
39
0
210
0
220
0
230
1
0
LINE
5
191
100
AcDbEntity
8
SK2
62
256
6
ByLayer
370
13
48
1
60
0
100
AcDbLine
10
9
20
-18.74982
30
0
11
12.174998
21
-18.331823
31
0
39
0
210
0
220
0
230
1
0
LINE
5
192
100
AcDbEntity
8
SK2
62
256
6
ByLayer
370
13
48
1
60
0
100
AcDbLine
10
9
20
-18.74982
30
0
11
12.175002
21
-19.167817
31
0
39
0
210
0
220
0
230
1
0
LINE
5
193
100
AcDbEntity
8
SK2
62
256
6
ByLayer
370
13
48
1
60
0
100
AcDbLine
10
12.174998
20
-18.331823
30
0
11
12.175002
21
-19.167817
31
0
39
0
210
0
220
0
230
1
0
LINE
5
194
100
AcDbEntity
8
SK2
62
256
6
ByLayer
370
13
48
1
60
0
100
AcDbLine
10
43
20
-18.74982
30
0
11
39.825002
21
-19.167817
31
0
39
0
210
0
220
0
230
1
0
LINE
5
195
100
AcDbEntity
8
SK2
62
256
6
ByLayer
370
13
48
1
60
0
100
AcDbLine
10
43
20
-18.74982
30
0
11
39.824998
21
-18.331823
31
0
39
0
210
0
220
0
230
1
0
LINE
5
196
100
AcDbEntity
8
SK2
62
256
6
ByLayer
370
13
48
1
60
0
100
AcDbLine
10
39.825002
20
-19.167817
30
0
11
39.824998
21
-18.331823
31
0
39
0
210
0
220
0
230
1
0
ENDBLK
5
198
100
AcDbEntity
8
0
100
AcDbBlockEnd
0
BLOCK
5
19D
100
AcDbEntity
8
0
100
AcDbBlockBegin
2
*D12
70
1
10
0
20
0
30
0
3
*D12
0
LINE
5
19F
100
AcDbEntity
8
0
62
256
6
ByLayer
370
-2
48
1
60
0
100
AcDbLine
10
21.7
20
-4.9375
30
0
11
21.7
21
-11.32
31
0
39
0
210
0
220
0
230
1
0
LINE
5
1A0
100
AcDbEntity
8
0
62
256
6
ByLayer
370
-2
48
1
60
0
100
AcDbLine
10
43
20
-1.5875
30
0
11
43
21
-11.32
31
0
39
0
210
0
220
0
230
1
0
LINE
5
1A1
100
AcDbEntity
8
0
62
256
6
ByLayer
370
-2
48
1
60
0
100
AcDbLine
10
24.875
20
-10.82
30
0
11
39.825
21
-10.82
31
0
39
0
210
0
220
0
230
1
0
SOLID
5
1A2
100
AcDbEntity
8
0
62
256
6
ByLayer
370
-1
48
1
60
0
100
AcDbTrace
10
24.875
20
-10.290833
30
0
11
24.875
21
-11.349167
31
0
12
21.7
22
-10.82
32
0
13
21.7
23
-10.82
33
0
39
0
210
0
220
0
230
1
0
SOLID
5
1A3
100
AcDbEntity
8
0
62
256
6
ByLayer
370
-1
48
1
60
0
100
AcDbTrace
10
39.825
20
-11.349167
30
0
11
39.825
21
-10.290833
31
0
12
43
22
-10.82
32
0
13
43
23
-10.82
33
0
39
0
210
0
220
0
230
1
0
MTEXT
5
1A4
100
AcDbEntity
8
0
62
256
6
ByLayer
370
18
48
1
60
0
100
AcDbMText
10
32.35
20
-4.975
30
0
210
0
220
0
230
1
1
\A1;21.3
40
2.8
41
0
44
1
50
0
71
5
72
5
7
iso_b_vert
0
POINT
5
1A5
100
AcDbEntity
8
Defpoints
62
0
6
ByLayer
370
-1
48
1
60
0
100
AcDbPoint
10
21.7
20
-3.35
30
0
39
0
210
0
220
0
230
1
50
360
0
POINT
5
1A6
100
AcDbEntity
8
Defpoints
62
0
6
ByLayer
370
-1
48
1
60
0
100
AcDbPoint
10
43
20
0
30
0
39
0
210
0
220
0
230
1
50
360
0
POINT
5
1A7
100
AcDbEntity
8
Defpoints
62
0
6
ByLayer
370
-1
48
1
60
0
100
AcDbPoint
10
43
20
-10.82
30
0
39
0
210
0
220
0
230
1
50
360
0
ENDBLK
5
19E
100
AcDbEntity
8
0
100
AcDbBlockEnd
0
BLOCK
5
1B3
100
AcDbEntity
8
0
100
AcDbBlockBegin
2
_U5
70
0
10
0
20
0
30
0
3
_U5
0
MTEXT
5
1A9
100
AcDbEntity
8
SK2
62
256
6
ByLayer
370
18
48
1
60
0
100
AcDbMText
10
28.516401
20
-10.973893
30
0
210
0
220
0
230
1
1
\W0.6864;21.30
40
2.8
41
0
44
1.084337
50
0
71
7
72
5
7
iso_b_vert
0
LINE
5
1AA
100
AcDbEntity
8
SK2
62
256
6
ByLayer
370
13
48
1
60
0
100
AcDbLine
10
21.7
20
-4.9375
30
0
11
21.7
21
-11.32
31
0
39
0
210
0
220
0
230
1
0
LINE
5
1AB
100
AcDbEntity
8
SK2
62
256
6
ByLayer
370
13
48
1
60
0
100
AcDbLine
10
43
20
-1.5875
30
0
11
43
21
-11.32
31
0
39
0
210
0
220
0
230
1
0
LINE
5
1AC
100
AcDbEntity
8
SK2
62
256
6
ByLayer
370
13
48
1
60
0
100
AcDbLine
10
21.7
20
-10.82
30
0
11
43
21
-10.82
31
0
39
0
210
0
220
0
230
1
0
LINE
5
1AD
100
AcDbEntity
8
SK2
62
256
6
ByLayer
370
13
48
1
60
0
100
AcDbLine
10
21.7
20
-10.82
30
0
11
24.874998
21
-10.402003
31
0
39
0
210
0
220
0
230
1
0
LINE
5
1AE
100
AcDbEntity
8
SK2
62
256
6
ByLayer
370
13
48
1
60
0
100
AcDbLine
10
21.7
20
-10.82
30
0
11
24.875002
21
-11.237997
31
0
39
0
210
0
220
0
230
1
0
LINE
5
1AF
100
AcDbEntity
8
SK2
62
256
6
ByLayer
370
13
48
1
60
0
100
AcDbLine
10
24.874998
20
-10.402003
30
0
11
24.875002
21
-11.237997
31
0
39
0
210
0
220
0
230
1
0
LINE
5
1B0
100
AcDbEntity
8
SK2
62
256
6
ByLayer
370
13
48
1
60
0
100
AcDbLine
10
43
20
-10.82
30
0
11
39.825002
21
-11.237997
31
0
39
0
210
0
220
0
230
1
0
LINE
5
1B1
100
AcDbEntity
8
SK2
62
256
6
ByLayer
370
13
48
1
60
0
100
AcDbLine
10
43
20
-10.82
30
0
11
39.824998
21
-10.402003
31
0
39
0
210
0
220
0
230
1
0
LINE
5
1B2
100
AcDbEntity
8
SK2
62
256
6
ByLayer
370
13
48
1
60
0
100
AcDbLine
10
39.825002
20
-11.237997
30
0
11
39.824998
21
-10.402003
31
0
39
0
210
0
220
0
230
1
0
ENDBLK
5
1B4
100
AcDbEntity
8
0
100
AcDbBlockEnd
0
BLOCK
5
1B9
100
AcDbEntity
8
0
100
AcDbBlockBegin
2
*D14
70
1
10
0
20
0
30
0
3
*D14
0
LINE
5
1BB
100
AcDbEntity
8
0
62
256
6
ByLayer
370
-2
48
1
60
0
100
AcDbLine
10
-36
20
-1.5875
30
0
11
-36
21
-40.67512
31
0
39
0
210
0
220
0
230
1
0
LINE
5
1BC
100
AcDbEntity
8
0
62
256
6
ByLayer
370
-2
48
1
60
0
100
AcDbLine
10
43
20
-1.5875
30
0
11
43
21
-40.67512
31
0
39
0
210
0
220
0
230
1
0
LINE
5
1BD
100
AcDbEntity
8
0
62
256
6
ByLayer
370
-2
48
1
60
0
100
AcDbLine
10
-32.825
20
-37.50012
30
0
11
39.825
21
-37.50012
31
0
39
0
210
0
220
0
230
1
0
SOLID
5
1BE
100
AcDbEntity
8
0
62
256
6
ByLayer
370
-1
48
1
60
0
100
AcDbTrace
10
-32.825
20
-36.970953
30
0
11
-32.825
21
-38.029287
31
0
12
-36
22
-37.50012
32
0
13
-36
23
-37.50012
33
0
39
0
210
0
220
0
230
1
0
SOLID
5
1BF
100
AcDbEntity
8
0
62
256
6
ByLayer
370
-1
48
1
60
0
100
AcDbTrace
10
39.825
20
-38.029287
30
0
11
39.825
21
-36.970953
31
0
12
43
22
-37.50012
32
0
13
43
23
-37.50012
33
0
39
0
210
0
220
0
230
1
0
MTEXT
5
1C0
100
AcDbEntity
8
0
62
256
6
ByLayer
370
18
48
1
60
0
100
AcDbMText
10
3.5
20
-30.19362
30
0
210
0
220
0
230
1
1
\A1;79
40
3.50012
41
0
44
1
50
0
71
5
72
5
7
iso_b_vert
0
POINT
5
1C1
100
AcDbEntity
8
Defpoints
62
0
6
ByLayer
370
-1
48
1
60
0
100
AcDbPoint
10
-36
20
0
30
0
39
0
210
0
220
0
230
1
50
360
0
POINT
5
1C2
100
AcDbEntity
8
Defpoints
62
0
6
ByLayer
370
-1
48
1
60
0
100
AcDbPoint
10
43
20
0
30
0
39
0
210
0
220
0
230
1
50
360
0
POINT
5
1C3
100
AcDbEntity
8
Defpoints
62
0
6
ByLayer
370
-1
48
1
60
0
100
AcDbPoint
10
43
20
-37.50012
30
0
39
0
210
0
220
0
230
1
50
360
0
ENDBLK
5
1BA
100
AcDbEntity
8
0
100
AcDbBlockEnd
0
BLOCK
5
1CF
100
AcDbEntity
8
0
100
AcDbBlockBegin
2
_U6
70
0
10
0
20
0
30
0
3
_U6
0
MTEXT
5
1C5
100
AcDbEntity
8
SK2
62
256
6
ByLayer
370
18
48
1
60
0
100
AcDbMText
10
-1.729611
20
-36.467451
30
0
210
0
220
0
230
1
1
\W0.7468;79.00
40
3.50012
41
0
44
1.084337
50
0
71
7
72
5
7
iso_b_vert
0
LINE
5
1C6
100
AcDbEntity
8
SK2
62
256
6
ByLayer
370
13
48
1
60
0
100
AcDbLine
10
-36
20
-1.5875
30
0
11
-36
21
-40.67512
31
0
39
0
210
0
220
0
230
1
0
LINE
5
1C7
100
AcDbEntity
8
SK2
62
256
6
ByLayer
370
13
48
1
60
0
100
AcDbLine
10
43
20
-1.5875
30
0
11
43
21
-40.67512
31
0
39
0
210
0
220
0
230
1
0
LINE
5
1C8
100
AcDbEntity
8
SK2
62
256
6
ByLayer
370
13
48
1
60
0
100
AcDbLine
10
-36
20
-37.50012
30
0
11
43
21
-37.50012
31
0
39
0
210
0
220
0
230
1
0
LINE
5
1C9
100
AcDbEntity
8
SK2
62
256
6
ByLayer
370
13
48
1
60
0
100
AcDbLine
10
-36
20
-37.50012
30
0
11
-32.825002
21
-37.082123
31
0
39
0
210
0
220
0
230
1
0
LINE
5
1CA
100
AcDbEntity
8
SK2
62
256
6
ByLayer
370
13
48
1
60
0
100
AcDbLine
10
-36
20
-37.50012
30
0
11
-32.824998
21
-37.918117
31
0
39
0
210
0
220
0
230
1
0
LINE
5
1CB
100
AcDbEntity
8
SK2
62
256
6
ByLayer
370
13
48
1
60
0
100
AcDbLine
10
-32.825002
20
-37.082123
30
0
11
-32.824998
21
-37.918117
31
0
39
0
210
0
220
0
230
1
0
LINE
5
1CC
100
AcDbEntity
8
SK2
62
256
6
ByLayer
370
13
48
1
60
0
100
AcDbLine
10
43
20
-37.50012
30
0
11
39.825002
21
-37.918117
31
0
39
0
210
0
220
0
230
1
0
LINE
5
1CD
100
AcDbEntity
8
SK2
62
256
6
ByLayer
370
13
48
1
60
0
100
AcDbLine
10
43
20
-37.50012
30
0
11
39.824998
21
-37.082123
31
0
39
0
210
0
220
0
230
1
0
LINE
5
1CE
100
AcDbEntity
8
SK2
62
256
6
ByLayer
370
13
48
1
60
0
100
AcDbLine
10
39.825002
20
-37.918117
30
0
11
39.824998
21
-37.082123
31
0
39
0
210
0
220
0
230
1
0
ENDBLK
5
1D0
100
AcDbEntity
8
0
100
AcDbBlockEnd
0
ENDSEC
0
SECTION
2
ENTITIES
0
ARC
5
AA
100
AcDbEntity
8
1
62
256
6
ByLayer
370
18
48
1
60
0
100
AcDbCircle
39
0
10
1.305728
20
4.124702
30
0
40
0.799999999999999
210
0
220
0
230
1
100
AcDbArc
50
215.305706
51
270.03581
0
ARC
5
AB
100
AcDbEntity
8
1
62
256
6
ByLayer
370
18
48
1
60
0
100
AcDbCircle
39
0
10
1.305728
20
-4.124702
30
0
40
0.799999999999999
210
0
220
0
230
1
100
AcDbArc
50
89.96419
51
144.694294
0
ARC
5
AC
100
AcDbEntity
8
1
62
256
6
ByLayer
370
18
48
1
60
0
100
AcDbCircle
39
0
10
0
20
3.2
30
0
40
0.799999999999998
210
0
220
0
230
1
100
AcDbArc
50
35.305706
51
90
0
ARC
5
AD
100
AcDbEntity
8
1
62
256
6
ByLayer
370
18
48
1
60
0
100
AcDbCircle
39
0
10
0
20
-3.2
30
0
40
0.799999999999998
210
0
220
0
230
1
100
AcDbArc
50
270
51
324.694294
0
ARC
5
AE
100
AcDbEntity
8
SK2
62
256
6
ByLayer
370
13
48
1
60
0
100
AcDbCircle
39
0
10
43
20
0
30
0
40
20
210
0
220
0
230
1
100
AcDbArc
50
9.606349
51
70.000004
0
ARC
5
AF
100
AcDbEntity
8
SK2
62
256
6
ByLayer
370
13
48
1
60
0
100
AcDbCircle
39
0
10
43
20
0
30
0
40
20
210
0
220
0
230
1
100
AcDbArc
50
289.999996
51
350.393651
0
ELLIPSE
5
B0
100
AcDbEntity
8
1
62
256
6
ByLayer
370
18
48
1
60
0
100
AcDbEllipse
10
10.601817
20
-0.224053
30
0
11
-0.00415675809569547
21
-0.00909512848363729
31
0
210
0
220
0
230
1
40
0.02827
41
-1.63578798110089
42
-0.0670930876880634
0
ELLIPSE
5
B1
100
AcDbEntity
8
1
62
256
6
ByLayer
370
18
48
1
60
0
100
AcDbEllipse
10
10.564132
20
-0.20739
30
0
11
0.00392705703345422
21
0.00919664194453594
31
0
210
0
220
0
230
1
40
0.409641
41
1.68029113959063
42
3.0736115117845
0
ELLIPSE
5
B2
100
AcDbEntity
8
1
62
256
6
ByLayer
370
18
48
1
60
0
100
AcDbEllipse
10
10.639593
20
3.053086
30
0
11
-0.00119835722850505
21
-0.00992793734634187
31
0
210
0
220
0
230
1
40
0.406613
41
0.303868936520821
42
1.86933333652322
0
ELLIPSE
5
B3
100
AcDbEntity
8
1
62
256
6
ByLayer
370
18
48
1
60
0
100
AcDbEllipse
10
10.602303
20
3.055125
30
0
11
-4.66381314390865E-05
21
0.00999989124364339
31
0
210
0
220
0
230
1
40
0.008313
41
-2.86735182091414
42
-1.2968341865294
0
POINT
5
70
100
AcDbEntity
8
80
62
256
6
ByLayer
370
18
48
1
60
0
100
AcDbPoint
10
0
20
0
30
0
39
0
210
0
220
0
230
1
50
360
0
POINT
5
72
100
AcDbEntity
8
81
62
256
6
ByLayer
370
18
48
1
60
0
100
AcDbPoint
10
43
20
0
30
0
39
0
210
0
220
0
230
1
50
360
0
POINT
5
74
100
AcDbEntity
8
1
62
256
6
ByLayer
370
18
48
1
60
0
100
AcDbPoint
10
-36
20
0
30
0
39
0
210
0
220
0
230
1
50
360
0
POINT
5
76
100
AcDbEntity
8
1
62
256
6
ByLayer
370
18
48
1
60
1
100
AcDbPoint
10
0
20
-4
30
0
39
0
210
0
220
0
230
1
50
360
0
POINT
5
77
100
AcDbEntity
8
1
62
256
6
ByLayer
370
18
48
1
60
1
100
AcDbPoint
10
43
20
0
30
0
39
0
210
0
220
0
230
1
50
360
0
POINT
5
78
100
AcDbEntity
8
1
62
256
6
ByLayer
370
18
48
1
60
1
100
AcDbPoint
10
41.7807
20
-3.35
30
0
39
0
210
0
220
0
230
1
50
360
0
POINT
5
79
100
AcDbEntity
8
1
62
256
6
ByLayer
370
18
48
1
60
1
100
AcDbPoint
10
41.7807
20
3.35
30
0
39
0
210
0
220
0
230
1
50
360
0
POINT
5
7A
100
AcDbEntity
8
1
62
256
6
ByLayer
370
18
48
1
60
1
100
AcDbPoint
10
-36
20
4
30
0
39
0
210
0
220
0
230
1
50
360
0
POINT
5
7B
100
AcDbEntity
8
1
62
256
6
ByLayer
370
18
48
1
60
1
100
AcDbPoint
10
-36
20
-4
30
0
39
0
210
0
220
0
230
1
50
360
0
POINT
5
7C
100
AcDbEntity
8
1
62
256
6
ByLayer
370
18
48
1
60
1
100
AcDbPoint
10
-36
20
-4
30
0
39
0
210
0
220
0
230
1
50
360
0
POINT
5
7D
100
AcDbEntity
8
1
62
256
6
ByLayer
370
18
48
1
60
1
100
AcDbPoint
10
0
20
-4
30
0
39
0
210
0
220
0
230
1
50
360
0
POINT
5
7E
100
AcDbEntity
8
1
62
256
6
ByLayer
370
18
48
1
60
1
100
AcDbPoint
10
9
20
3.85
30
0
39
0
210
0
220
0
230
1
50
360
0
POINT
5
7F
100
AcDbEntity
8
1
62
256
6
ByLayer
370
18
48
1
60
1
100
AcDbPoint
10
43
20
0
30
0
39
0
210
0
220
0
230
1
50
360
0
POINT
5
80
100
AcDbEntity
8
1
62
256
6
ByLayer
370
18
48
1
60
1
100
AcDbPoint
10
21.7
20
-3.35
30
0
39
0
210
0
220
0
230
1
50
360
0
POINT
5
81
100
AcDbEntity
8
1
62
256
6
ByLayer
370
18
48
1
60
1
100
AcDbPoint
10
43
20
0
30
0
39
0
210
0
220
0
230
1
50
360
0
POINT
5
82
100
AcDbEntity
8
1
62
256
6
ByLayer
370
18
48
1
60
1
100
AcDbPoint
10
-36
20
0
30
0
39
0
210
0
220
0
230
1
50
360
0
POINT
5
83
100
AcDbEntity
8
1
62
256
6
ByLayer
370
18
48
1
60
1
100
AcDbPoint
10
43
20
0
30
0
39
0
210
0
220
0
230
1
50
360
0
SPLINE
5
B4
100
AcDbEntity
8
1
62
256
6
ByLayer
370
18
48
1
60
0
100
AcDbSpline
70
4
71
3
72
34
73
30
40
0
40
0
40
0
40
0
40
0.0918737716394618
40
0.0918737716394618
40
0.183747543278924
40
0.183747543278924
40
0.275621314918385
40
0.275621314918385
40
0.367495086557847
40
0.367495086557847
40
0.413431972377578
40
0.413431972377578
40
0.459368858197309
40
0.459368858197309
40
0.551242629836774
40
0.551242629836774
40
0.643116401476239
40
0.643116401476239
40
0.689053287295972
40
0.689053287295972
40
0.734990173115704
40
0.734990173115704
40
0.826863944755173
40
0.826863944755173
40
0.918737716394642
40
0.918737716394642
40
0.964674602214376
40
0.964674602214376
40
1
40
1
40
1
40
1
41
1
10
41.3339885616023
20
0.488248569316937
30
0
41
1
10
41.0314650214072
20
0.632743058674038
30
0
41
1
10
40.7304587006764
20
0.776535979463603
30
0
41
1
10
40.1284985633271
20
1.05650906112203
30
-1E-16
41
1
10
39.8278426991695
20
1.19335832072838
30
-1E-16
41
1
10
39.2272878267434
20
1.46096392506979
30
-1E-16
41
1
10
38.9266385243299
20
1.59026103931251
30
-1E-16
41
1
10
38.3245536953683
20
1.83982811126776
30
-1E-16
41
1
10
38.0235528028772
20
1.96083955840564
30
-1E-16
41
1
10
37.5698951670886
20
2.13267343456741
30
-1E-16
41
1
10
37.4183404431362
20
2.18839219134847
30
-1E-16
41
1
10
37.1148232251065
20
2.29713438408004
30
-1E-16
41
1
10
36.9627244457854
20
2.35037635972375
30
-1E-16
41
1
10
36.5070399397651
20
2.50411517026896
30
-2E-16
41
1
10
36.2041180528089
20
2.59856253948951
30
-2E-16
41
1
10
35.6003810003201
20
2.77242074727158
30
1E-16
41
1
10
35.2996890309263
20
2.85185616068355
30
0
41
1
10
34.8484348518411
20
2.95766535828028
30
0
41
1
10
34.6979975361857
20
2.99075797871385
30
0
41
1
10
34.3974885023889
20
3.05296704109531
30
0
41
1
10
34.2474093984233
20
3.08205460253893
30
0
41
1
10
33.7967206740865
20
3.16241363036491
30
0
41
1
10
33.4956323824059
20
3.20687809277973
30
0
41
1
10
32.8930330498673
20
3.2780480143295
30
0
41
1
10
32.5913078768796
20
3.30450937141765
30
0
41
1
10
32.1364389292387
20
3.32975524840211
30
0
41
1
10
31.9844677780183
20
3.33579790471367
30
0
41
1
10
31.7153547674536
20
3.34226017435731
30
0
41
1
10
31.5985921931722
20
3.34362677141038
30
0
41
1
10
31.481985951435
20
3.343561175058
30
0
0
SPLINE
5
B5
100
AcDbEntity
8
1
62
256
6
ByLayer
370
18
48
1
60
0
100
AcDbSpline
70
4
71
3
72
8
73
4
40
0
40
0
40
0
40
0
40
1
40
1
40
1
40
1
41
1
10
15.5862554395702
20
-2.21581091016228
30
1E-16
41
1
10
15.5681480199048
20
-2.22233880389462
30
1E-16
41
1
10
15.5500388764502
20
-2.2288443314805
30
1E-16
41
1
10
15.5319284710053
20
-2.23532680436674
30
1E-16
0
SPLINE
5
B6
100
AcDbEntity
8
1
62
256
6
ByLayer
370
18
48
1
60
0
100
AcDbSpline
70
4
71
3
72
12
73
8
40
0
40
0
40
0
40
0
40
0.256912400737799
40
0.256912400737799
40
0.6284562003689
40
0.6284562003689
40
1
40
1
40
1
40
1
41
1
10
14.8081750622773
20
-2.48094865767209
30
1E-16
41
1
10
14.5982187490942
20
-2.54827158867397
30
1E-16
41
1
10
14.3885020331311
20
-2.61212990724442
30
1E-16
41
1
10
13.8758191998436
20
-2.75951408444561
30
-1E-16
41
1
10
13.5726108794081
20
-2.83865238441376
30
0
41
1
10
12.9662469544809
20
-2.98110551938123
30
0
41
1
10
12.662547648583
20
-3.04378248766366
30
0
41
1
10
12.35744323442
20
-3.09725124820412
30
0
0
SPLINE
5
B7
100
AcDbEntity
8
1
62
256
6
ByLayer
370
18
48
1
60
0
100
AcDbSpline
70
4
71
3
72
8
73
4
40
0
40
0
40
0
40
0
40
1
40
1
40
1
40
1
41
1
10
41.3368066990586
20
0.0201541744631584
30
0
41
1
10
41.3296743026964
20
0.177065961872245
30
0
41
1
10
41.3281110116209
20
0.333097461966901
30
0
41
1
10
41.3339885616025
20
0.488248569323218
30
0
0
SPLINE
5
B8
100
AcDbEntity
8
1
62
256
6
ByLayer
370
18
48
1
60
0
100
AcDbSpline
70
4
71
3
72
20
73
16
40
0
40
0
40
0
40
0
40
0.0755036891072242
40
0.0755036891072242
40
0.207574590663335
40
0.207574590663335
40
0.339645492219446
40
0.339645492219446
40
0.471716393775557
40
0.471716393775557
40
0.603787295331667
40
0.603787295331667
40
0.735858196887778
40
0.735858196887778
40
1
40
1
40
1
40
1
41
1
10
31.5998192460554
20
-0.351361614687079
30
0
41
1
10
31.3683414632928
20
-0.244484795285274
30
0
41
1
10
31.13694541644
20
-0.137043207087004
30
0
41
1
10
30.5007617057985
20
0.158509505311429
30
0
41
1
10
30.0954561705479
20
0.346896528738881
30
0
41
1
10
29.2859267231331
20
0.717737924936444
30
0
41
1
10
28.880996682105
20
0.900474448243045
30
-1E-16
41
1
10
28.0705721310058
20
1.25519759657871
30
-1E-16
41
1
10
27.6653365014673
20
1.42691495693686
30
-1E-16
41
1
10
26.8549304809738
20
1.7540739455373
30
-1E-16
41
1
10
26.4500225540185
20
1.90931960834516
30
-1E-16
41
1
10
25.6400838629212
20
2.19897545750391
30
-1E-16
41
1
10
25.2345819532297
20
2.33340106971724
30
-1E-16
41
1
10
24.0195601861933
20
2.69793470303151
30
1E-16
41
1
10
23.210044113954
20
2.88985591006141
30
0
41
1
10
22.4
20
3.0190734739362
30
0
0
SPLINE
5
B9
100
AcDbEntity
8
1
62
256
6
ByLayer
370
18
48
1
60
0
100
AcDbSpline
70
4
71
3
72
34
73
30
40
0
40
0
40
0
40
0
40
0.338471120301953
40
0.338471120301953
40
0.565783179974004
40
0.565783179974004
40
0.715469002395566
40
0.715469002395566
40
0.813917335801741
40
0.813917335801741
40
0.878572255594674
40
0.878572255594674
40
0.921089019543673
40
0.921089019543673
40
0.949087918982264
40
0.949087918982264
40
0.967698346115541
40
0.967698346115541
40
0.980070089296922
40
0.980070089296922
40
0.987895516889633
40
0.987895516889633
40
0.992966271222739
40
0.992966271222739
40
0.996426282801696
40
0.996426282801696
40
0.999364289420989
40
0.999364289420989
40
1
40
1
40
1
40
1
41
1
10
41.6303517087127
20
-3.34947403134797
30
0
41
1
10
41.6529850163162
20
-3.33461896554221
30
0
41
1
10
41.6756292470688
20
-3.3196886448099
30
0
41
1
10
41.7134875890401
20
-3.29461565367879
30
0
41
1
10
41.7286996915114
20
-3.28451086120773
30
0
41
1
10
41.7539284136221
20
-3.26770296949863
30
0
41
1
10
41.7639445706191
20
-3.26101701812604
30
0
41
1
10
41.7805765858563
20
-3.24989272102829
30
0
41
1
10
41.7871828926495
20
-3.2454683530861
30
0
41
1
10
41.7981476656216
20
-3.23811574916189
30
0
41
1
10
41.8024993721754
20
-3.23519523268266
30
0
41
1
10
41.8097231259656
20
-3.23034337188329
30
0
41
1
10
41.8125918440397
20
-3.22841558051243
30
0
41
1
10
41.8173539286352
20
-3.22521383184753
30
0
41
1
10
41.8192452907963
20
-3.22394179434409
30
0
41
1
10
41.8223642938635
20
-3.22184360648217
30
0
41
1
10
41.8235940527593
20
-3.22101623961299
30
0
41
1
10
41.8256437851136
20
-3.21963679836031
30
0
41
1
10
41.826473069952
20
-3.21907854808865
30
0
41
1
10
41.8278571139478
20
-3.21814659396759
30
0
41
1
10
41.8284018233575
20
-3.21777974809046
30
0
41
1
10
41.8292985172096
20
-3.21717582248422
30
0
41
1
10
41.8296510001369
20
-3.21693841727713
30
0
41
1
10
41.8302373771718
20
-3.21654348517853
30
0
41
1
10
41.8304736968763
20
-3.21638432256199
30
0
41
1
10
41.8309000685286
20
-3.21609717293438
30
0
41
1
10
41.8310930720713
20
-3.21596719546406
30
0
41
1
10
41.8313125005788
20
-3.21581943861065
30
0
41
1
10
41.8313509605989
20
-3.21579354132609
30
0
41
1
10
41.8313885139254
20
-3.21576825567118
30
0
0
SPLINE
5
BA
100
AcDbEntity
8
1
62
256
6
ByLayer
370
18
48
1
60
0
100
AcDbSpline
70
4
71
3
72
16
73
12
40
0
40
0
40
0
40
0
40
0.133333461904518
40
0.133333461904518
40
0.350000096428388
40
0.350000096428388
40
0.566666730952259
40
0.566666730952259
40
0.783333365476129
40
0.783333365476129
40
1
40
1
40
1
40
1
41
1
10
41.6124456183709
20
0.640155180424614
30
0
41
1
10
41.6205017485478
20
0.654989376638213
30
0
41
1
10
41.630869438627
20
0.670574881108763
30
0
41
1
10
41.6643458924938
20
0.713536147028606
30
0
41
1
10
41.6904908941602
20
0.741043324409134
30
0
41
1
10
41.7540648091033
20
0.796339127469537
30
0
41
1
10
41.7916580416373
20
0.824098727304261
30
0
41
1
10
41.8748995082457
20
0.873950890822186
30
0
41
1
10
41.9218801843136
20
0.896667555551716
30
0
41
1
10
42.0200259920684
20
0.932477715445742
30
0
41
1
10
42.0720391585235
20
0.945976304567864
30
0
41
1
10
42.1252090150488
20
0.954379540296912
30
0
0
SPLINE
5
BB
100
AcDbEntity
8
1
62
256
6
ByLayer
370
18
48
1
60
0
100
AcDbSpline
70
4
71
3
72
8
73
4
40
0
40
0
40
0
40
0
40
1
40
1
40
1
40
1
41
1
10
42.996910743923
20
0.18495133904517
30
0
41
1
10
42.9824404498548
20
0.136720728147253
30
0
41
1
10
42.9678981203312
20
0.0885131147948357
30
0
41
1
10
42.9532840287206
20
0.0403284117142562
30
0
0
SPLINE
5
BC
100
AcDbEntity
8
1
62
256
6
ByLayer
370
18
48
1
60
0
100
AcDbSpline
70
4
71
3
72
8
73
4
40
0
40
0
40
0
40
0
40
1
40
1
40
1
40
1
41
1
10
41.6168119310928
20
-3.30792612039855
30
0
41
1
10
41.6219338228178
20
-3.33289012118519
30
0
41
1
10
41.6264023642384
20
-3.34692845954646
30
0
41
1
10
41.6303517087126
20
-3.34947403134797
30
0
0
SPLINE
5
BD
100
AcDbEntity
8
1
62
256
6
ByLayer
370
18
48
1
60
0
100
AcDbSpline
70
4
71
3
72
26
73
22
40
0
40
0
40
0
40
0
40
0.124999999999989
40
0.124999999999989
40
0.249999999999979
40
0.249999999999979
40
0.312499999999981
40
0.312499999999981
40
0.374999999999982
40
0.374999999999982
40
0.437499999999984
40
0.437499999999984
40
0.499999999999986
40
0.499999999999986
40
0.624999999999989
40
0.624999999999989
40
0.749999999999993
40
0.749999999999993
40
0.874999999999996
40
0.874999999999996
40
1
40
1
40
1
40
1
41
1
10
42.9532840287206
20
0.0403284117142562
30
0
41
1
10
42.9370678922496
20
-0.0131384572357831
30
0
41
1
10
42.9184241254125
20
-0.0653829551869478
30
0
41
1
10
42.8760985381414
20
-0.167251482239038
30
0
41
1
10
42.8523486044274
20
-0.216753554810452
30
0
41
1
10
42.814999734289
20
-0.28386831754338
30
0
41
1
10
42.8021771344993
20
-0.305250893400626
30
0
41
1
10
42.7757466297343
20
-0.345860045342761
30
0
41
1
10
42.7621698336796
20
-0.364994541794999
30
0
41
1
10
42.7353249153977
20
-0.399426746127659
30
0
41
1
10
42.721920977203
20
-0.414941963432739
30
0
41
1
10
42.6951323036973
20
-0.442500056245706
30
0
41
1
10
42.6816254853795
20
-0.454618425706514
30
0
41
1
10
42.642407688724
20
-0.484425046916527
30
0
41
1
10
42.6174508776819
20
-0.496088853729447
30
0
41
1
10
42.5711509137918
20
-0.503289643663152
30
0
41
1
10
42.5500007887685
20
-0.498872307261934
30
0
41
1
10
42.5115513949678
20
-0.47643572362972
30
0
41
1
10
42.4946221027195
20
-0.458777701311107
30
0
41
1
10
42.4639745879084
20
-0.412869102113888
30
0
41
1
10
42.4503026543998
20
-0.384506831664794
30
0
41
1
10
42.4382133723089
20
-0.352235872853157
30
0
0
SPLINE
5
BE
100
AcDbEntity
8
1
62
256
6
ByLayer
370
18
48
1
60
0
100
AcDbSpline
70
4
71
3
72
12
73
8
40
0
40
0
40
0
40
0
40
0.25
40
0.25
40
0.500000000000001
40
0.500000000000001
40
1
40
1
40
1
40
1
41
1
10
10.6023707535018
20
3.05783115540547
30
0
41
1
10
10.5867496791211
20
3.05776843408091
30
0
41
1
10
10.5715858153574
20
3.05995113559305
30
0
41
1
10
10.5455552275419
20
3.0673326933522
30
0
41
1
10
10.534800618488
20
3.07240085688591
30
0
41
1
10
10.5094521233501
20
3.08946171075019
30
0
41
1
10
10.5016966852239
20
3.10295711285761
30
0
41
1
10
10.5016966852239
20
3.11619692879086
30
0
0
SPLINE
5
BF
100
AcDbEntity
8
1
62
256
6
ByLayer
370
18
48
1
60
0
100
AcDbSpline
70
4
71
3
72
38
73
34
40
0
40
0
40
0
40
0
40
0.0624999999999988
40
0.0624999999999988
40
0.124999999999998
40
0.124999999999998
40
0.187499999999996
40
0.187499999999996
40
0.249999999999995
40
0.249999999999995
40
0.312499999999994
40
0.312499999999994
40
0.374999999999993
40
0.374999999999993
40
0.437499999999992
40
0.437499999999992
40
0.499999999999991
40
0.499999999999991
40
0.562499999999989
40
0.562499999999989
40
0.624999999999988
40
0.624999999999988
40
0.656249999999988
40
0.656249999999988
40
0.687499999999989
40
0.687499999999989
40
0.749999999999991
40
0.749999999999991
40
0.812499999999993
40
0.812499999999993
40
0.874999999999995
40
0.874999999999995
40
1
40
1
40
1
40
1
41
1
10
22.4
20
3.13764714903405
30
0
41
1
10
22.8018082779325
20
3.07177912380718
30
0
41
1
10
23.2041005826751
20
2.98987855235018
30
0
41
1
10
24.0055311587944
20
2.79751447423408
30
1E-16
41
1
10
24.4048545012934
20
2.68707454101954
30
1E-16
41
1
10
25.2030296626963
20
2.44077582215846
30
-1E-16
41
1
10
25.6019013674076
20
2.30495103686485
30
-1E-16
41
1
10
26.401353330381
20
2.01102761197643
30
-1E-16
41
1
10
26.8024926906193
20
1.85264974247568
30
-1E-16
41
1
10
27.6060116354233
20
1.51811974656545
30
-1E-16
41
1
10
28.0079436320739
20
1.34218670249001
30
-1E-16
41
1
10
28.8106485944061
20
0.979112713095276
30
-1E-16
41
1
10
29.2115402894747
20
0.791935907189696
30
0
41
1
10
30.0145928516964
20
0.410671876519416
30
0
41
1
10
30.4163515532772
20
0.216780906805269
30
0
41
1
10
31.2199665058063
20
-0.171327712387921
30
0
41
1
10
31.6208842053856
20
-0.365053079202852
30
0
41
1
10
32.4232152568613
20
-0.747152952699849
30
0
41
1
10
32.8252881889426
20
-0.935860451560842
30
1E-16
41
1
10
33.6272088448882
20
-1.30103078349376
30
1E-16
41
1
10
34.0273884539863
20
-1.47764785790011
30
1E-16
41
1
10
34.6281842182581
20
-1.73043823073488
30
1E-16
41
1
10
34.8285361671982
20
-1.81268211842243
30
1E-16
41
1
10
35.2296781158667
20
-1.97263984984721
30
1E-16
41
1
10
35.4306656400164
20
-2.05043023344987
30
1E-16
41
1
10
36.0325747407462
20
-2.27543159069896
30
1E-16
41
1
10
36.4327736557286
20
-2.41441118966341
30
1E-16
41
1
10
37.2334507225646
20
-2.66686544565141
30
2E-16
41
1
10
37.6339460273944
20
-2.78032624193259
30
-1E-16
41
1
10
38.4374690990468
20
-2.97879866945957
30
0
41
1
10
38.8373713323896
20
-3.06304716711554
30
0
41
1
10
40.0346556959778
20
-3.26863447336751
30
0
41
1
10
40.8295959772822
20
-3.34275614329525
30
0
41
1
10
41.6303517087126
20
-3.34947403134797
30
0
0
SPLINE
5
C0
100
AcDbEntity
8
1
62
256
6
ByLayer
370
18
48
1
60
0
100
AcDbSpline
70
4
71
3
72
10
73
6
40
0
40
0
40
0
40
0
40
0.5
40
0.5
40
1
40
1
40
1
40
1
41
1
10
10.5016966852239
20
3.18051417364305
30
0
41
1
10
10.5016966852239
20
3.19061903441099
30
0
41
1
10
10.5198021879727
20
3.19973315986374
30
0
41
1
10
10.5775617314085
20
3.20960022210343
30
0
41
1
10
10.6148736500775
20
3.21013301130469
30
0
41
1
10
10.6454942071537
20
3.20611190694061
30
0
0
SPLINE
5
C1
100
AcDbEntity
8
1
62
256
6
ByLayer
370
18
48
1
60
0
100
AcDbSpline
70
4
71
3
72
28
73
24
40
0
40
0
40
0
40
0
40
0.125000000000001
40
0.125000000000001
40
0.187500000000002
40
0.187500000000002
40
0.250000000000003
40
0.250000000000003
40
0.375000000000003
40
0.375000000000003
40
0.437500000000004
40
0.437500000000004
40
0.500000000000004
40
0.500000000000004
40
0.625000000000003
40
0.625000000000003
40
0.687500000000002
40
0.687500000000002
40
0.750000000000002
40
0.750000000000002
40
0.875000000000001
40
0.875000000000001
40
1
40
1
40
1
40
1
41
1
10
41.4229823633851
20
-0.0317310930484211
30
0
41
1
10
41.4291783143316
20
-0.223247963471465
30
0
41
1
10
41.443488798482
20
-0.411062146337286
30
0
41
1
10
41.4714499276699
20
-0.687981172738603
30
0
41
1
10
41.4818745858838
20
-0.779480078221411
30
0
41
1
10
41.5041856093603
20
-0.960912175524612
30
1E-16
41
1
10
41.5161340160356
20
-1.0512790659435
30
1E-16
41
1
10
41.5526638714503
20
-1.3163233947715
30
1E-16
41
1
10
41.5777962104996
20
-1.48478384958193
30
1E-16
41
1
10
41.6135369533218
20
-1.72576631368531
30
1E-16
41
1
10
41.6251403879658
20
-1.80412743014736
30
1E-16
41
1
10
41.6473755708277
20
-1.95684863603688
30
1E-16
41
1
10
41.6580230433017
20
-2.03134634418424
30
1E-16
41
1
10
41.6875728748105
20
-2.24436807030565
30
1E-16
41
1
10
41.7042515392764
20
-2.37402029127952
30
1E-16
41
1
10
41.7250270241755
20
-2.55009090490958
30
-1E-16
41
1
10
41.7312594180165
20
-2.60569443543486
30
-1E-16
41
1
10
41.7425732382501
20
-2.71051912065644
30
-1E-16
41
1
10
41.7476316549055
20
-2.75953273055424
30
-1E-16
41
1
10
41.7614140208438
20
-2.89403715024031
30
0
41
1
10
41.7688063080155
20
-2.96811928252296
30
0
41
1
10
41.784871168608
20
-3.08517862719029
30
0
41
1
10
41.7936083559956
20
-3.12812703966858
30
0
41
1
10
41.8060627766793
20
-3.15376596430445
30
0
0
SPLINE
5
C2
100
AcDbEntity
8
1
62
256
6
ByLayer
370
18
48
1
60
0
100
AcDbSpline
70
4
71
3
72
28
73
24
40
0
40
0
40
0
40
0
40
0.125
40
0.125
40
0.1875
40
0.1875
40
0.25
40
0.25
40
0.375
40
0.375
40
0.5
40
0.5
40
0.5625
40
0.5625
40
0.625
40
0.625
40
0.75
40
0.75
40
0.8125
40
0.8125
40
0.875
40
0.875
40
1
40
1
40
1
40
1
41
1
10
10.6023707535018
20
3.04549923130389
30
0
41
1
10
10.6023612406275
20
2.99629674235996
30
0
41
1
10
10.6023492317688
20
2.93283372123796
30
0
41
1
10
10.6023281148
20
2.81709461595486
30
0
41
1
10
10.6023205530783
20
2.77507127556126
30
1E-16
41
1
10
10.6023044303749
20
2.68404954730661
30
1E-16
41
1
10
10.6022958414078
20
2.63488844332022
30
1E-16
41
1
10
10.6022687753778
20
2.47767118561305
30
1E-16
41
1
10
10.6022493056735
20
2.36163344971007
30
-1E-16
41
1
10
10.6022077104917
20
2.10792201166706
30
-1E-16
41
1
10
10.6021855206213
20
1.96983857092951
30
-1E-16
41
1
10
10.6021501757518
20
1.74697339263213
30
-1E-16
41
1
10
10.6021380811846
20
1.67026762216111
30
-1E-16
41
1
10
10.6021135158811
20
1.51398225575514
30
-1E-16
41
1
10
10.6021010360781
20
1.43434819603152
30
-1E-16
41
1
10
10.6020629096939
20
1.19107727199318
30
-1E-16
41
1
10
10.6020365891067
20
1.02310302995329
30
-1E-16
41
1
10
10.6019951591103
20
0.76229366024711
30
0
41
1
10
10.6019809596158
20
0.67349815341808
30
0
41
1
10
10.601952232735
20
0.495713827668283
30
0
41
1
10
10.6019376745746
20
0.406525383526883
30
0
41
1
10
10.6018932526971
20
0.138086331887678
30
0
41
1
10
10.6018626503778
20
-0.0420314918535496
30
0
41
1
10
10.6018305434908
20
-0.223345068888847
30
0
0
SPLINE
5
C3
100
AcDbEntity
8
1
62
256
6
ByLayer
370
18
48
1
60
0
100
AcDbSpline
70
4
71
3
72
10
73
6
40
0
40
0
40
0
40
0
40
0.151599945598054
40
0.151599945598054
40
1
40
1
40
1
40
1
41
1
10
14.4133756810884
20
-2.32748390274472
30
-1E-16
41
1
10
14.3088180996301
20
-2.36546633340663
30
-1E-16
41
1
10
14.2043578942987
20
-2.40359768691695
30
-1E-16
41
1
10
13.5159773023064
20
-2.65606834468477
30
-1E-16
41
1
10
12.9351993294891
20
-2.8747008747282
30
0
41
1
10
12.3574432344345
20
-3.09725124819855
30
0
0
SPLINE
5
C4
100
AcDbEntity
8
1
62
256
6
ByLayer
370
18
48
1
60
0
100
AcDbSpline
70
4
71
3
72
8
73
4
40
0
40
0
40
0
40
0
40
1
40
1
40
1
40
1
41
1
10
42.6921589454424
20
-1.07237401097925
30
0
41
1
10
42.7966588964289
20
-0.777609848450425
30
0
41
1
10
42.8982579461084
20
-0.481807700165405
30
0
41
1
10
42.996910743931
20
-0.184951339020955
30
0
0
SPLINE
5
C5
100
AcDbEntity
8
1
62
256
6
ByLayer
370
18
48
1
60
0
100
AcDbSpline
70
4
71
3
72
8
73
4
40
0
40
0
40
0
40
0
40
1
40
1
40
1
40
1
41
1
10
10.6454942071537
20
3.20611190694061
30
0
41
1
10
10.6449382957548
20
3.15592381039224
30
0
41
1
10
10.6443748873078
20
3.10573324271667
30
0
41
1
10
10.6438040130887
20
3.05554006644167
30
0
0
SPLINE
5
C6
100
AcDbEntity
8
1
62
256
6
ByLayer
370
18
48
1
60
0
100
AcDbSpline
70
4
71
3
72
8
73
4
40
0
40
0
40
0
40
0
40
1
40
1
40
1
40
1
41
1
10
22.4
20
3.12071113884309
30
0
41
1
10
22.4
20
3.08724976333005
30
0
41
1
10
22.4
20
3.05336849561621
30
0
41
1
10
22.4
20
3.0190734739366
30
0
0
SPLINE
5
C7
100
AcDbEntity
8
1
62
256
6
ByLayer
370
18
48
1
60
0
100
AcDbSpline
70
4
71
3
72
8
73
4
40
0
40
0
40
0
40
0
40
1
40
1
40
1
40
1
41
1
10
41.8034691482055
20
-3.16496764011433
30
0
41
1
10
41.7986998772058
20
-3.17884851197991
30
0
41
1
10
41.7939490846799
20
-3.19272942198668
30
0
41
1
10
41.7892171237541
20
-3.20661046045879
30
0
0
SPLINE
5
C8
100
AcDbEntity
8
1
62
256
6
ByLayer
370
18
48
1
60
0
100
AcDbSpline
70
4
71
3
72
8
73
4
40
0
40
0
40
0
40
0
40
1
40
1
40
1
40
1
41
1
10
42.4382133723092
20
-0.352235872852788
30
0
41
1
10
42.3421999770845
20
-0.095939072151765
30
0
41
1
10
42.2247944395296
20
0.174504471148026
30
0
41
1
10
42.0862488515244
20
0.458928047286122
30
0
0
SPLINE
5
C9
100
AcDbEntity
8
1
62
256
6
ByLayer
370
18
48
1
60
0
100
AcDbSpline
70
4
71
3
72
24
73
20
40
0
40
0
40
0
40
0
40
0.0624999999999992
40
0.0624999999999992
40
0.124999999999998
40
0.124999999999998
40
0.187499999999997
40
0.187499999999997
40
0.249999999999997
40
0.249999999999997
40
0.374999999999995
40
0.374999999999995
40
0.499999999999993
40
0.499999999999993
40
0.624999999999991
40
0.624999999999991
40
0.74999999999999
40
0.74999999999999
40
1
40
1
40
1
40
1
41
1
10
42.0862488515244
20
0.458928047286093
30
0
41
1
10
42.0723929279051
20
0.470385922837494
30
0
41
1
10
42.0580810399165
20
0.480384060371051
30
0
41
1
10
42.0286346591691
20
0.497563422700551
30
0
41
1
10
42.0135327061817
20
0.504574568011833
30
0
41
1
10
41.983293243823
20
0.518681256741047
30
0
41
1
10
41.9681323315779
20
0.52586061421917
30
0
41
1
10
41.937365361229
20
0.537797040656557
30
0
41
1
10
41.9218025884848
20
0.542833009609183
30
0
41
1
10
41.874694316647
20
0.555553234230757
30
0
41
1
10
41.8427641906576
20
0.561032066091485
30
0
41
1
10
41.7786189375359
20
0.570676814706445
30
0
41
1
10
41.7462216027807
20
0.572982511836386
30
0
41
1
10
41.6817151686608
20
0.572847997607369
30
0
41
1
10
41.6495215465279
20
0.57032314100681
30
0
41
1
10
41.5853185849167
20
0.563602826824535
30
0
41
1
10
41.553320085258
20
0.558772042188934
30
0
41
1
10
41.457979372297
20
0.537837221403436
30
0
41
1
10
41.3953057205381
20
0.51580298005436
30
0
41
1
10
41.3339885616129
20
0.488248569321797
30
0
0
SPLINE
5
CA
100
AcDbEntity
8
1
62
256
6
ByLayer
370
18
48
1
60
0
100
AcDbSpline
70
4
71
3
72
28
73
24
40
0
40
0
40
0
40
0
40
0.214213237084408
40
0.214213237084408
40
0.321319855626613
40
0.321319855626613
40
0.428426474168817
40
0.428426474168817
40
0.535533092711021
40
0.535533092711021
40
0.589086401982124
40
0.589086401982124
40
0.642639711253227
40
0.642639711253227
40
0.749746329795433
40
0.749746329795433
40
0.803299639066537
40
0.803299639066537
40
0.856852948337641
40
0.856852948337641
40
0.963959566879852
40
0.963959566879852
40
1
40
1
40
1
40
1
41
1
10
10.6438040130888
20
3.05554006644167
30
0
41
1
10
11.2882732615209
20
2.97857438836118
30
0
41
1
10
11.9322938595226
20
2.85743807974538
30
0
41
1
10
12.9013614113989
20
2.62352388325175
30
1E-16
41
1
10
13.2237651486276
20
2.53722482981502
30
1E-16
41
1
10
13.8653225187568
20
2.34960560032815
30
-1E-16
41
1
10
14.1850382825323
20
2.24809056640208
30
-1E-16
41
1
10
14.8235643182602
20
2.03174049746568
30
-1E-16
41
1
10
15.1423612764503
20
1.91690079579306
30
-1E-16
41
1
10
15.620377518421
20
1.73617956810682
30
-1E-16
41
1
10
15.7796809366332
20
1.674522579703
30
-1E-16
41
1
10
16.0981731743663
20
1.54851023492668
30
-1E-16
41
1
10
16.2573770230711
20
1.48416707136928
30
-1E-16
41
1
10
16.7357098098345
20
1.28776425606463
30
-1E-16
41
1
10
17.0555219431406
20
1.15229462538517
30
-1E-16
41
1
10
17.5364125648057
20
0.943412037151461
30
-1E-16
41
1
10
17.6969045798775
20
0.872838294351766
30
-1E-16
41
1
10
18.018226493415
20
0.729815471124823
30
0
41
1
10
18.1790543707529
20
0.657369226616623
30
0
41
1
10
18.6631478283896
20
0.438541836539883
30
0
41
1
10
18.9850609390828
20
0.292024894773221
30
0
41
1
10
19.4135228220142
20
0.096129747184392
30
0
41
1
10
19.5212636928484
20
0.046743996317673
30
0
41
1
10
19.6288944351173
20
-0.0026461140186598
30
0
0
SPLINE
5
CB
100
AcDbEntity
8
1
62
256
6
ByLayer
370
18
48
1
60
0
100
AcDbSpline
70
4
71
3
72
16
73
12
40
0
40
0
40
0
40
0
40
0.225444351261657
40
0.225444351261657
40
0.453094716617808
40
0.453094716617808
40
0.650425911512498
40
0.650425911512498
40
0.825409058015384
40
0.825409058015384
40
1
40
1
40
1
40
1
41
1
10
41.8060627766793
20
-3.15376596430443
30
0
41
1
10
41.8061422719918
20
-3.15392961497724
30
0
41
1
10
41.8061659580889
20
-3.15427158512657
30
0
41
1
10
41.806076706099
20
-3.15532281898933
30
0
41
1
10
41.8059598254537
20
-3.15605572548805
30
0
41
1
10
41.805609264584
20
-3.15771315393798
30
0
41
1
10
41.8053873044941
20
-3.15862523531624
30
0
41
1
10
41.8048955942981
20
-3.16044647914583
30
0
41
1
10
41.8046277797603
20
-3.16136788905607
30
0
41
1
10
41.8040667165126
20
-3.16318416484319
30
0
41
1
10
41.8037669164019
20
-3.16410099148388
30
0
41
1
10
41.8034691482055
20
-3.16496764011436
30
0
0
SPLINE
5
CC
100
AcDbEntity
8
1
62
256
6
ByLayer
370
18
48
1
60
0
100
AcDbSpline
70
4
71
3
72
10
73
6
40
0
40
0
40
0
40
0
40
0.5
40
0.5
40
1
40
1
40
1
40
1
41
1
10
10.5599577260694
20
-0.216455857932488
30
0
41
1
10
10.5397755735077
20
-0.207774852623487
30
0
41
1
10
10.5252743246137
20
-0.194200467509404
30
0
41
1
10
10.5062866667831
20
-0.164321968527275
30
0
41
1
10
10.5016966852239
20
-0.147729778797782
30
0
41
1
10
10.5016966852239
20
-0.131281263535271
30
0
0
SPLINE
5
CD
100
AcDbEntity
8
1
62
256
6
ByLayer
370
18
48
1
60
0
100
AcDbSpline
70
4
71
3
72
8
73
4
40
0
40
0
40
0
40
0
40
1
40
1
40
1
40
1
41
1
10
10.6438040130887
20
3.05554006644167
30
0
41
1
10
10.6307673468191
20
3.05712006621528
30
0
41
1
10
10.6167432485588
20
3.05788886346733
30
0
41
1
10
10.6023707535018
20
3.05783115540547
30
0
0
SPLINE
5
CE
100
AcDbEntity
8
1
62
256
6
ByLayer
370
18
48
1
60
0
100
AcDbSpline
70
4
71
3
72
28
73
24
40
0
40
0
40
0
40
0
40
0.0809757932443755
40
0.0809757932443755
40
0.183089593995003
40
0.183089593995003
40
0.234146494370317
40
0.234146494370317
40
0.285203394745631
40
0.285203394745631
40
0.387317195496257
40
0.387317195496257
40
0.43837409587157
40
0.43837409587157
40
0.489430996246883
40
0.489430996246883
40
0.591544796997506
40
0.591544796997506
40
0.69365859774813
40
0.69365859774813
40
0.795772398498754
40
0.795772398498754
40
1
40
1
40
1
40
1
41
1
10
20.0651159583449
20
-0.213248752437323
30
0
41
1
10
19.8119868467418
20
-0.0974407371994914
30
0
41
1
10
19.5584265488758
20
0.018813975767614
30
0
41
1
10
18.9834491089587
20
0.280903708547186
30
0
41
1
10
18.6614702613283
20
0.427049666037021
30
0
41
1
10
18.1772362106706
20
0.64539570473184
30
0
41
1
10
18.0163580273542
20
0.71768707438298
30
0
41
1
10
17.6949334316153
20
0.860414682786512
30
-1E-16
41
1
10
17.5343898726334
20
0.930852133129122
30
-1E-16
41
1
10
17.0533437340456
20
1.13935866714766
30
-1E-16
41
1
10
16.7334286068239
20
1.27462657407517
30
-1E-16
41
1
10
16.2549375741495
20
1.47079657811165
30
-1E-16
41
1
10
16.0956785167966
20
1.53506864252986
30
-1E-16
41
1
10
15.7770738266102
20
1.66094890256389
30
-1E-16
41
1
10
15.6177148042603
20
1.72254911945484
30
-1E-16
41
1
10
15.1395356253049
20
1.90313600050322
30
-1E-16
41
1
10
14.8206340872995
20
2.01793134965621
30
-1E-16
41
1
10
14.1819038299245
20
2.2342700195631
30
-1E-16
41
1
10
13.8620872297118
20
2.33581562811244
30
-1E-16
41
1
10
13.2203394501914
20
2.52357571554117
30
1E-16
41
1
10
12.8978451940848
20
2.60997443100859
30
1E-16
41
1
10
11.9285141395727
20
2.84431471999025
30
0
41
1
10
11.2843153483214
20
2.96590517062407
30
0
41
1
10
10.639657700257
20
3.04346685773203
30
0
0
SPLINE
5
CF
100
AcDbEntity
8
1
62
256
6
ByLayer
370
18
48
1
60
0
100
AcDbSpline
70
4
71
3
72
8
73
4
40
0
40
0
40
0
40
0
40
1
40
1
40
1
40
1
41
1
10
10.5599577260694
20
-0.216455857932488
30
0
41
1
10
10.5594094908815
20
-0.219595969400274
30
0
41
1
10
10.558868064879
20
-0.22272722188842
30
0
41
1
10
10.5583334811665
20
-0.225850077187744
30
0
0
SPLINE
5
D0
100
AcDbEntity
8
1
62
256
6
ByLayer
370
18
48
1
60
0
100
AcDbSpline
70
4
71
3
72
20
73
16
40
0
40
0
40
0
40
0
40
0.0597982177382597
40
0.0597982177382597
40
0.247838574190608
40
0.247838574190608
40
0.435878930642957
40
0.435878930642957
40
0.623919287095305
40
0.623919287095305
40
0.717939465321479
40
0.717939465321479
40
0.811959643547653
40
0.811959643547653
40
1
40
1
40
1
40
1
41
1
10
20.9713016053026
20
-3.17957906860727
30
0
41
1
10
20.7658420743819
20
-3.17957439549429
30
0
41
1
10
20.5603299730546
20
-3.17535561477226
30
0
41
1
10
19.7077835304654
20
-3.14023554452575
30
0
41
1
10
19.0591946106532
20
-3.07219268902091
30
0
41
1
10
17.7491434588171
20
-2.85423525190265
30
0
41
1
10
17.0997314552754
20
-2.70614142750387
30
-1E-16
41
1
10
15.8057444194429
20
-2.34563945267527
30
1E-16
41
1
10
15.1608280487547
20
-2.13255052478317
30
1E-16
41
1
10
14.1900184031776
20
-1.77488346577789
30
1E-16
41
1
10
13.865802413667
20
-1.64924904608202
30
1E-16
41
1
10
13.2152150534064
20
-1.38704954695442
30
1E-16
41
1
10
12.8883791668604
20
-1.25026216511188
30
1E-16
41
1
10
11.9057969219325
20
-0.82778096551462
30
1E-16
41
1
10
11.252914777337
20
-0.532530704154794
30
0
41
1
10
10.5976525137136
20
-0.233119811756239
30
0
0
SPLINE
5
D1
100
AcDbEntity
8
1
62
256
6
ByLayer
370
18
48
1
60
0
100
AcDbSpline
70
4
71
3
72
8
73
4
40
0
40
0
40
0
40
0
40
1
40
1
40
1
40
1
41
1
10
42.6921589454424
20
1.07237401097925
30
0
41
1
10
42.796658896426
20
0.77760984845844
30
0
41
1
10
42.8982579461028
20
0.481807700181491
30
0
41
1
10
42.996910743923
20
0.184951339045142
30
0
0
SPLINE
5
D2
100
AcDbEntity
8
1
62
256
6
ByLayer
370
18
48
1
60
0
100
AcDbSpline
70
4
71
3
72
14
73
10
40
0
40
0
40
0
40
0
40
0.272999993348597
40
0.272999993348597
40
0.511185881653351
40
0.511185881653351
40
0.78541471848997
40
0.78541471848997
40
1
40
1
40
1
40
1
41
1
10
41.4176559189769
20
-0.01835800050182
30
0
41
1
10
41.4184016294158
20
-0.0186959250956988
30
0
41
1
10
41.4191330617249
20
-0.0194011956355666
30
0
41
1
10
41.4203526681285
20
-0.0211587863105649
30
0
41
1
10
41.4208768521688
20
-0.0221792884910883
30
0
41
1
10
41.4218383765528
20
-0.0246419283904515
30
0
41
1
10
41.4222660803553
20
-0.0261631647532568
30
0
41
1
10
41.4227876933551
20
-0.0290368453055407
30
0
41
1
10
41.4229389072784
20
-0.0303878646051032
30
0
41
1
10
41.4229823633851
20
-0.0317310930483643
30
0
0
SPLINE
5
D3
100
AcDbEntity
8
1
62
256
6
ByLayer
370
18
48
1
60
0
100
AcDbSpline
70
4
71
3
72
8
73
4
40
0
40
0
40
0
40
0
40
1
40
1
40
1
40
1
41
1
10
10.6018305434908
20
-0.223345068888847
30
0
41
1
10
10.5873784286202
20
-0.217419102160733
30
0
41
1
10
10.5732627824152
20
-0.211853323772829
30
0
41
1
10
10.5599577260699
20
-0.206795657780276
30
0
0
SPLINE
5
D4
100
AcDbEntity
8
1
62
256
6
ByLayer
370
18
48
1
60
0
100
AcDbSpline
70
4
71
3
72
8
73
4
40
0
40
0
40
0
40
0
40
1
40
1
40
1
40
1
41
1
10
10.639657700257
20
3.04346685773203
30
0
41
1
10
10.6279218144419
20
3.04487885541212
30
0
41
1
10
10.6153018993632
20
3.04555963120717
30
0
41
1
10
10.6023707535018
20
3.04549923130389
30
0
0
SPLINE
5
D5
100
AcDbEntity
8
1
62
256
6
ByLayer
370
18
48
1
60
0
100
AcDbSpline
70
4
71
3
72
48
73
44
40
0
40
0
40
0
40
0
40
0.0966347039817654
40
0.0966347039817654
40
0.144952055972648
40
0.144952055972648
40
0.193269407963531
40
0.193269407963531
40
0.241586759954414
40
0.241586759954414
40
0.289904111945296
40
0.289904111945296
40
0.338221463936179
40
0.338221463936179
40
0.36238013993162
40
0.36238013993162
40
0.386538815927061
40
0.386538815927061
40
0.434856167917942
40
0.434856167917942
40
0.483173519908823
40
0.483173519908823
40
0.531490871899704
40
0.531490871899704
40
0.579808223890585
40
0.579808223890585
40
0.628125575881466
40
0.628125575881466
40
0.676442927872347
40
0.676442927872347
40
0.724760279863228
40
0.724760279863228
40
0.773077631854109
40
0.773077631854109
40
0.82139498384499
40
0.82139498384499
40
0.869712335835871
40
0.869712335835871
40
0.918029687826752
40
0.918029687826752
40
0.966347039817633
40
0.966347039817633
40
1
40
1
40
1
40
1
41
1
10
10.6454942071537
20
3.20611190694061
30
0
41
1
10
11.2888238156737
20
3.12162959363943
30
0
41
1
10
11.9323046765518
20
2.99668327006057
30
0
41
1
10
12.9005152069331
20
2.75309622940668
30
1E-16
41
1
10
13.221619331158
20
2.6625544947282
30
-2E-16
41
1
10
13.8613835223879
20
2.465661353831
30
-2E-16
41
1
10
14.1803099544023
20
2.35941889483829
30
-1E-16
41
1
10
14.8174490268246
20
2.13344228353455
30
-1E-16
41
1
10
15.1356380490289
20
2.01368351117344
30
-1E-16
41
1
10
15.7719685198189
20
1.76187465237012
30
-1E-16
41
1
10
16.0897611141287
20
1.62916237160115
30
-1E-16
41
1
10
16.7270519977137
20
1.35444834667152
30
-1E-16
41
1
10
17.0467555639638
20
1.21291932903327
30
-1E-16
41
1
10
17.527760857033
20
0.99401413555691
30
-1E-16
41
1
10
17.6883458401805
20
0.919953752606972
30
-1E-16
41
1
10
18.0100451421053
20
0.769626574533532
30
0
41
1
10
18.171297169166
20
0.693293848828375
30
0
41
1
10
18.6535832922947
20
0.464462888446008
30
0
41
1
10
18.9741235476153
20
0.311623387404154
30
0
41
1
10
19.6131897064117
20
0.0051377682979421
30
0
41
1
10
19.9315641092562
20
-0.148823306830849
30
0
41
1
10
20.5675946788007
20
-0.454731047046721
30
0
41
1
10
20.8852854465778
20
-0.606606405761823
30
0
41
1
10
21.5213557217923
20
-0.905402591941424
30
1E-16
41
1
10
21.8400410070393
20
-1.0517007175801
30
1E-16
41
1
10
22.4784785022728
20
-1.33856248321476
30
1E-16
41
1
10
22.7980325722068
20
-1.47950566852992
30
1E-16
41
1
10
23.4402875007176
20
-1.75133852718551
30
1E-16
41
1
10
23.7636834747551
20
-1.88187283193477
30
1E-16
41
1
10
24.4054288570391
20
-2.12911945949358
30
1E-16
41
1
10
24.7247328275101
20
-2.24631740056682
30
1E-16
41
1
10
25.3622004076712
20
-2.46476049142211
30
2E-16
41
1
10
25.6805978461268
20
-2.56573604626988
30
2E-16
41
1
10
26.3165734238818
20
-2.75160903169166
30
-1E-16
41
1
10
26.6340383937765
20
-2.83655059156919
30
0
41
1
10
27.2703178358525
20
-2.98751231724316
30
0
41
1
10
27.5892522198962
20
-3.0535042262014
30
0
41
1
10
28.2286836054903
20
-3.16644213915913
30
0
41
1
10
28.5491158436827
20
-3.21336641983572
30
0
41
1
10
29.1931998060196
20
-3.28632206837935
30
0
41
1
10
29.5145965907278
20
-3.31216655309737
30
0
41
1
10
30.0575614268631
20
-3.33758657042659
30
0
41
1
10
30.280078308515
20
-3.34283958112303
30
0
41
1
10
30.5021882850667
20
-3.34295714031549
30
0
0
SPLINE
5
D6
100
AcDbEntity
8
1
62
256
6
ByLayer
370
18
48
1
60
0
100
AcDbSpline
70
4
71
3
72
18
73
14
40
0
40
0
40
0
40
0
40
0.119523975544199
40
0.119523975544199
40
0.413015983696128
40
0.413015983696128
40
0.486388985734111
40
0.486388985734111
40
0.559761987772094
40
0.559761987772094
40
0.706507991848063
40
0.706507991848063
40
1
40
1
40
1
40
1
41
1
10
14.8010832952244
20
2.47187484144845
30
-1E-16
41
1
10
15.103817154756
20
2.56984628993308
30
-1E-16
41
1
10
15.4058797716417
20
2.66053514116453
30
-1E-16
41
1
10
16.4490813826643
20
2.94654468983794
30
0
41
1
10
17.1892040487538
20
3.10229524795949
30
0
41
1
10
18.1218071863282
20
3.22812295923239
30
0
41
1
10
18.3087023478017
20
3.24985039899985
30
0
41
1
10
18.6834780591518
20
3.28621204723333
30
0
41
1
10
18.8711822321833
20
3.30081321775989
30
0
41
1
10
19.4319735765133
20
3.33357275638883
30
0
41
1
10
19.8040909892285
20
3.34080696791992
30
0
41
1
10
20.9179312283351
20
3.31935685059355
30
0
41
1
10
21.6570980967191
20
3.24741464451745
30
0
41
1
10
22.4000000000091
20
3.12071113884147
30
0
0
SPLINE
5
D7
100
AcDbEntity
8
1
62
256
6
ByLayer
370
18
48
1
60
0
100
AcDbSpline
70
4
71
3
72
8
73
4
40
0
40
0
40
0
40
0
40
1
40
1
40
1
40
1
41
1
10
42.1252090150488
20
0.954379540296998
30
0
41
1
10
42.315729257347
20
0.984490332610761
30
0
41
1
10
42.505668357495
20
1.02164229930318
30
0
41
1
10
42.6921589454424
20
1.07237401097905
30
0
0
SPLINE
5
D8
100
AcDbEntity
8
1
62
256
6
ByLayer
370
18
48
1
60
0
100
AcDbSpline
70
4
71
3
72
34
73
30
40
0
40
0
40
0
40
0
40
0.338471120470032
40
0.338471120470032
40
0.565783180254799
40
0.565783180254799
40
0.71546900275074
40
0.71546900275074
40
0.813917336205855
40
0.813917336205855
40
0.878572256030735
40
0.878572256030735
40
0.921089020000782
40
0.921089020000782
40
0.949087919453295
40
0.949087919453295
40
0.967698346595838
40
0.967698346595838
40
0.980070089783384
40
0.980070089783384
40
0.987895517380012
40
0.987895517380012
40
0.992966271715645
40
0.992966271715645
40
0.996426283296355
40
0.996426283296355
40
0.999364289916439
40
0.999364289916439
40
1
40
1
40
1
40
1
41
1
10
41.6303517087127
20
3.34947403134797
30
0
41
1
10
41.6529850163162
20
3.33461896554221
30
0
41
1
10
41.6756292470688
20
3.31968864480987
30
0
41
1
10
41.7134875890401
20
3.29461565367876
30
0
41
1
10
41.7286996915115
20
3.28451086120776
30
0
41
1
10
41.7539284136221
20
3.26770296949866
30
0
41
1
10
41.7639445706192
20
3.26101701812604
30
0
41
1
10
41.7805765858563
20
3.24989272102829
30
0
41
1
10
41.7871828926495
20
3.2454683530861
30
0
41
1
10
41.7981476656217
20
3.23811574916189
30
0
41
1
10
41.8024993721754
20
3.23519523268266
30
0
41
1
10
41.8097231259656
20
3.23034337188329
30
0
41
1
10
41.8125918440397
20
3.22841558051246
30
0
41
1
10
41.8173539286352
20
3.22521383184753
30
0
41
1
10
41.8192452907963
20
3.22394179434411
30
0
41
1
10
41.8223642938635
20
3.22184360648217
30
0
41
1
10
41.8235940527593
20
3.22101623961299
30
0
41
1
10
41.8256437851136
20
3.21963679836034
30
0
41
1
10
41.826473069952
20
3.21907854808865
30
0
41
1
10
41.8278571139479
20
3.21814659396759
30
0
41
1
10
41.8284018233575
20
3.21777974809046
30
0
41
1
10
41.8292985172096
20
3.21717582248422
30
0
41
1
10
41.8296510001369
20
3.21693841727711
30
0
41
1
10
41.8302373771718
20
3.21654348517851
30
0
41
1
10
41.8304736968764
20
3.21638432256202
30
0
41
1
10
41.8309000685286
20
3.21609717293441
30
0
41
1
10
41.8310930720712
20
3.21596719546412
30
0
41
1
10
41.8313125005483
20
3.2158194386312
30
0
41
1
10
41.8313509605389
20
3.21579354136648
30
0
41
1
10
41.8313885138376
20
3.2157682557303
30
0
0
SPLINE
5
D9
100
AcDbEntity
8
1
62
256
6
ByLayer
370
18
48
1
60
0
100
AcDbSpline
70
4
71
3
72
8
73
4
40
0
40
0
40
0
40
0
40
1
40
1
40
1
40
1
41
1
10
42.996910743923
20
0.184951339045142
30
0
41
1
10
43.0010312728443
20
0.0616049212652001
30
0
41
1
10
43.0010282323308
20
-0.0616959378332069
30
0
41
1
10
42.9969107439235
20
-0.184951339028146
30
0
0
SPLINE
5
DA
100
AcDbEntity
8
1
62
256
6
ByLayer
370
18
48
1
60
0
100
AcDbSpline
70
4
71
3
72
20
73
16
40
0
40
0
40
0
40
0
40
0.187872562758985
40
0.187872562758985
40
0.281808844138476
40
0.281808844138476
40
0.375745125517968
40
0.375745125517968
40
0.563617688276951
40
0.563617688276951
40
0.751490251035934
40
0.751490251035934
40
0.939362813794917
40
0.939362813794917
40
1
40
1
40
1
40
1
41
1
10
10.6018305434909
20
-0.223345068888904
30
0
41
1
10
11.2570267074396
20
-0.521838129634801
30
0
41
1
10
11.9098558077786
20
-0.816322308397474
30
0
41
1
10
12.8923454023296
20
-1.23789630112924
30
1E-16
41
1
10
13.2191572500368
20
-1.37442335889224
30
1E-16
41
1
10
13.8697131086385
20
-1.6361942237649
30
1E-16
41
1
10
14.1939176239673
20
-1.76166394790778
30
1E-16
41
1
10
15.1647013907215
20
-2.11896762260059
30
1E-16
41
1
10
15.8096113031261
20
-2.3319963658399
30
1E-16
41
1
10
17.1035693915636
20
-2.69271795393834
30
-1E-16
41
1
10
17.7529444994656
20
-2.84110233055117
30
0
41
1
10
19.0628835313751
20
-3.05999378404758
30
0
41
1
10
19.711446422669
20
-3.12867344287449
30
0
41
1
10
20.5670468510515
20
-3.16495876356819
30
0
41
1
10
20.7756216927628
20
-3.1694434726443
30
0
41
1
10
20.9841444496757
20
-3.16960123371234
30
0
0
SPLINE
5
DB
100
AcDbEntity
8
1
62
256
6
ByLayer
370
18
48
1
60
0
100
AcDbSpline
70
4
71
3
72
38
73
34
40
0
40
0
40
0
40
0
40
0.0469847773254781
40
0.0469847773254781
40
0.0939695546509562
40
0.0939695546509562
40
0.187939109301911
40
0.187939109301911
40
0.281908663952866
40
0.281908663952866
40
0.328893441278342
40
0.328893441278342
40
0.375878218603818
40
0.375878218603818
40
0.46984777325477
40
0.46984777325477
40
0.563817327905721
40
0.563817327905721
40
0.610802105231197
40
0.610802105231197
40
0.657786882556673
40
0.657786882556673
40
0.751756437207625
40
0.751756437207625
40
0.845725991858578
40
0.845725991858578
40
0.869218380521317
40
0.869218380521317
40
0.892710769184056
40
0.892710769184056
40
0.939695546509533
40
0.939695546509533
40
1
40
1
40
1
40
1
41
1
10
41.6168119310956
20
-3.30792612039761
30
0
41
1
10
41.2911381404392
20
-3.28280837344155
30
0
41
1
10
40.9658896831098
20
-3.24672988854593
30
0
41
1
10
40.3150232890375
20
-3.15343317218662
30
0
41
1
10
39.9890393019216
20
-3.09613363300463
30
0
41
1
10
39.0114583479572
20
-2.89404245787623
30
0
41
1
10
38.3662507713542
20
-2.72023222506354
30
-1E-16
41
1
10
37.0788929322725
20
-2.30852536697807
30
1E-16
41
1
10
36.4366549765686
20
-2.07081611005586
30
1E-16
41
1
10
35.4687967938316
20
-1.67703492847454
30
1E-16
41
1
10
35.1454725356542
20
-1.53948585912468
30
1E-16
41
1
10
34.4960598532395
20
-1.25409485408301
30
1E-16
41
1
10
34.1691548419269
20
-1.10593880198022
30
1E-16
41
1
10
33.1952124762834
20
-0.654729922482545
30
0
41
1
10
32.5513193018509
20
-0.343843890318112
30
0
41
1
10
31.2645180754508
20
0.277200022405708
30
0
41
1
10
30.6220245916236
20
0.588238007019612
30
0
41
1
10
29.6519767211178
20
1.03930316189857
30
-1E-16
41
1
10
29.3276781052576
20
1.18729203109245
30
-1E-16
41
1
10
28.6758497261239
20
1.4757180051644
30
-1E-16
41
1
10
28.3504173499075
20
1.6153283221683
30
-1E-16
41
1
10
27.3791354806708
20
2.01458683183083
30
-1E-16
41
1
10
26.7359381694211
20
2.25563594222086
30
-1E-16
41
1
10
25.4493025133557
20
2.67409087579824
30
-2E-16
41
1
10
24.8056561779757
20
2.85119448235574
30
0
41
1
10
23.9950950423922
20
3.0247348316814
30
0
41
1
10
23.83267504935
20
3.05704434938241
30
0
41
1
10
23.5070602147225
20
3.11666826422058
30
0
41
1
10
23.3437121301847
20
3.14399984442608
30
0
41
1
10
22.8555395217383
20
3.21781308026064
30
0
41
1
10
22.5316316146547
20
3.25631347176929
30
0
41
1
10
21.7939028902983
20
3.31946514932059
30
0
41
1
10
21.3806691990452
20
3.33712402387278
30
0
41
1
10
20.9676759290695
20
3.33698341407779
30
0
0
SPLINE
5
DC
100
AcDbEntity
8
1
62
256
6
ByLayer
370
18
48
1
60
0
100
AcDbSpline
70
4
71
3
72
8
73
4
40
0
40
0
40
0
40
0
40
1
40
1
40
1
40
1
41
1
10
10.5976525137136
20
-0.233119811756239
30
0
41
1
10
10.5846551822916
20
-0.227180903297835
30
0
41
1
10
10.5719510287779
20
-0.221576216700328
30
0
41
1
10
10.5599577260694
20
-0.216455857932488
30
0
0
SPLINE
5
DD
100
AcDbEntity
8
1
62
256
6
ByLayer
370
18
48
1
60
0
100
AcDbSpline
70
4
71
3
72
24
73
20
40
0
40
0
40
0
40
0
40
0.0978186510655501
40
0.0978186510655501
40
0.1956373021311
40
0.1956373021311
40
0.391274604262204
40
0.391274604262204
40
0.586911906393306
40
0.586911906393306
40
0.684730557458856
40
0.684730557458856
40
0.733639882991631
40
0.733639882991631
40
0.782549208524406
40
0.782549208524406
40
0.978186510655506
40
0.978186510655506
40
1
40
1
40
1
40
1
41
1
10
41.8034691482055
20
-3.16496764011436
30
0
41
1
10
41.4764703740037
20
-3.14464905879012
30
0
41
1
10
41.1498322010338
20
-3.11465691800657
30
0
41
1
10
40.4961532387153
20
-3.03292149467245
30
0
41
1
10
40.16836065825
20
-2.98155193168594
30
0
41
1
10
39.1892353516378
20
-2.7989520694104
30
-1E-16
41
1
10
38.542322918098
20
-2.63961459559405
30
-1E-16
41
1
10
37.2514592563971
20
-2.2577133103004
30
1E-16
41
1
10
36.607347333925
20
-2.03508673859162
30
1E-16
41
1
10
35.636782842829
20
-1.66480457697995
30
1E-16
41
1
10
35.3125432776052
20
-1.53524700956663
30
1E-16
41
1
10
34.8242945483335
20
-1.33307677339565
30
1E-16
41
1
10
34.6612285886532
20
-1.26438689134119
30
1E-16
41
1
10
34.3343080435208
20
-1.12470400655664
30
1E-16
41
1
10
34.170494830716
20
-1.05373017874263
30
1E-16
41
1
10
33.3546013080054
20
-0.696132554317273
30
0
41
1
10
32.7076750922132
20
-0.399494277686131
30
0
41
1
10
31.989974986209
20
-0.0695047159410649
30
0
41
1
10
31.9179985130551
20
-0.0363888789661644
30
0
41
1
10
31.8460348567086
20
-0.0032745712775295
30
0
0
SPLINE
5
DE
100
AcDbEntity
8
1
62
256
6
ByLayer
370
18
48
1
60
0
100
AcDbSpline
70
4
71
3
72
16
73
12
40
0
40
0
40
0
40
0
40
0.347758231331956
40
0.347758231331956
40
0.695516462663912
40
0.695516462663912
40
0.782456020496901
40
0.782456020496901
40
0.86939557832989
40
0.86939557832989
40
1
40
1
40
1
40
1
41
1
10
13.4733690789352
20
-1.99976013014739
30
1E-16
41
1
10
14.2241540368546
20
-2.28907188169603
30
1E-16
41
1
10
14.9664688552441
20
-2.5400639718784
30
2E-16
41
1
10
16.4490813826643
20
-2.94654468983791
30
0
41
1
10
17.1892040487535
20
-3.10229524795943
30
0
41
1
10
18.1218071863277
20
-3.22812295923234
30
0
41
1
10
18.3087023478012
20
-3.2498503989998
30
0
41
1
10
18.6834780591512
20
-3.28621204723328
30
0
41
1
10
18.8711822321828
20
-3.30081321775987
30
0
41
1
10
19.3389278083713
20
-3.32813733648351
30
0
41
1
10
19.6187592906128
20
-3.33630142752665
30
0
41
1
10
19.8979911274411
20
-3.33631908809272
30
0
0
SPLINE
5
DF
100
AcDbEntity
8
1
62
256
6
ByLayer
370
18
48
1
60
0
100
AcDbSpline
70
4
71
3
72
34
73
30
40
0
40
0
40
0
40
0
40
0.0368594544777352
40
0.0368594544777352
40
0.110947188748682
40
0.110947188748682
40
0.185034923019629
40
0.185034923019629
40
0.259122657290576
40
0.259122657290576
40
0.333210391561523
40
0.333210391561523
40
0.40729812583247
40
0.40729812583247
40
0.444341992967942
40
0.444341992967942
40
0.481385860103414
40
0.481385860103414
40
0.555473594374356
40
0.555473594374356
40
0.703649062916237
40
0.703649062916237
40
0.777736797187178
40
0.777736797187178
40
0.851824531458119
40
0.851824531458119
40
0.925912265729059
40
0.925912265729059
40
1
40
1
40
1
40
1
41
1
10
28.3915849747668
20
3.18775391804516
30
0
41
1
10
28.5511174795966
20
3.21096233817985
30
0
41
1
10
28.7109384327803
20
3.23169612935649
30
0
41
1
10
29.1931998060196
20
3.28632206837935
30
0
41
1
10
29.5145965907278
20
3.31216655309737
30
0
41
1
10
30.1546971932672
20
3.34213418143372
30
0
41
1
10
30.4739277770437
20
3.3464334257624
30
0
41
1
10
31.1106947450195
20
3.33394536729128
30
0
41
1
10
31.4280675505704
20
3.3169948972631
30
0
41
1
10
32.0637628752305
20
3.26244926144082
30
0
41
1
10
32.3819411955773
20
3.22494689321059
30
0
41
1
10
33.0188601836696
20
3.12930371016051
30
0
41
1
10
33.3373726327087
20
3.07083555614997
30
0
41
1
10
33.8177915892403
20
2.96906004509873
30
0
41
1
10
33.9783359754517
20
2.93278881825958
30
0
41
1
10
34.300172559462
20
2.85548516333901
30
0
41
1
10
34.4616903616295
20
2.81434887007859
30
0
41
1
10
34.9443502684147
20
2.68404482881559
30
-2E-16
41
1
10
35.2637307903469
20
2.58737550030142
30
-2E-16
41
1
10
36.2211692298107
20
2.27710659520252
30
-1E-16
41
1
10
36.8572800141685
20
2.04210791121773
30
-1E-16
41
1
10
37.8107356692254
20
1.65221271945211
30
-1E-16
41
1
10
38.1283035929438
20
1.51566387618456
30
-1E-16
41
1
10
38.7655900519154
20
1.23421107491626
30
-1E-16
41
1
10
39.085074718063
20
1.08888118667628
30
-1E-16
41
1
10
39.7271302059738
20
0.791808700849401
30
0
41
1
10
40.0501818769868
20
0.639721090351799
30
0
41
1
10
40.6940558205834
20
0.332292984209999
30
0
41
1
10
41.0154691557762
20
0.176706803385031
30
0
41
1
10
41.3368066990586
20
0.0201541744631584
30
0
0
SPLINE
5
E0
100
AcDbEntity
8
1
62
256
6
ByLayer
370
18
48
1
60
0
100
AcDbSpline
70
4
71
3
72
10
73
6
40
0
40
0
40
0
40
0
40
0.5
40
0.5
40
1
40
1
40
1
40
1
41
1
10
10.5583334811665
20
-0.225850077187744
30
0
41
1
10
10.5413298266723
20
-0.217685513289524
30
0
41
1
10
10.5269902481622
20
-0.204822390804168
30
0
41
1
10
10.5071427721033
20
-0.173338922333016
30
0
41
1
10
10.5016966852239
20
-0.154717614880866
30
0
41
1
10
10.5016966852239
20
-0.135863240832037
30
0
0
SPLINE
5
E1
100
AcDbEntity
8
1
62
256
6
ByLayer
370
18
48
1
60
0
100
AcDbSpline
70
4
71
3
72
8
73
4
40
0
40
0
40
0
40
0
40
1
40
1
40
1
40
1
41
1
10
41.8313885139407
20
-3.21576825566083
30
0
41
1
10
41.8330024524529
20
-3.21468089265164
30
0
41
1
10
41.834616413948
20
-3.21359343601466
30
0
41
1
10
41.8362303985812
20
-3.2125058857948
30
0
0
SPLINE
5
E2
100
AcDbEntity
8
1
62
256
6
ByLayer
370
18
48
1
60
0
100
AcDbSpline
70
4
71
3
72
24
73
20
40
0
40
0
40
0
40
0
40
0.0678160851537017
40
0.0678160851537017
40
0.254252868122964
40
0.254252868122964
40
0.300862063865279
40
0.300862063865279
40
0.347471259607595
40
0.347471259607595
40
0.440689651092223
40
0.440689651092223
40
0.627126434061482
40
0.627126434061482
40
0.813563217030741
40
0.813563217030741
40
0.90678160851537
40
0.90678160851537
40
1
40
1
40
1
40
1
41
1
10
31.3607786503601
20
0.23014083522682
30
0
41
1
10
31.5954648744995
20
0.122740051024522
30
0
41
1
10
31.8301302512496
20
0.0149558009955228
30
0
41
1
10
32.710688844576
20
-0.388691286512312
30
0
41
1
10
33.3575987275053
20
-0.684534354745551
30
0
41
1
10
34.1734222054754
20
-1.04133462541887
30
1E-16
41
1
10
34.3372171726036
20
-1.1121576305728
30
1E-16
41
1
10
34.6641147875854
20
-1.25156458655235
30
1E-16
41
1
10
34.827171775063
20
-1.3201275281728
30
1E-16
41
1
10
35.315400979816
20
-1.52195093851978
30
1E-16
41
1
10
35.6396334687217
20
-1.65132617651037
30
1E-16
41
1
10
36.6101783398557
20
-2.02120396598386
30
1E-16
41
1
10
37.2542857519114
20
-2.24374388670023
30
1E-16
41
1
10
38.5451351289974
20
-2.62582155496145
30
-1E-16
41
1
10
39.1920291934429
20
-2.78542953491299
30
-1E-16
41
1
10
40.1710683472617
20
-2.96870221019955
30
0
41
1
10
40.4988307266837
20
-3.02034146274337
30
0
41
1
10
41.1524635061489
20
-3.10270203778023
30
0
41
1
10
41.4790453843481
20
-3.13309246564393
30
0
41
1
10
41.8060627766794
20
-3.15376596430445
30
0
0
SPLINE
5
E3
100
AcDbEntity
8
1
62
256
6
ByLayer
370
18
48
1
60
0
100
AcDbSpline
70
4
71
3
72
10
73
6
40
0
40
0
40
0
40
0
40
0.5
40
0.5
40
1
40
1
40
1
40
1
41
1
10
10.5599577260694
20
-0.206795657781669
30
0
41
1
10
10.5397773768946
20
-0.199124479014074
30
0
41
1
10
10.5252708984475
20
-0.187115288668622
30
0
41
1
10
10.5062830855291
20
-0.160631193840174
30
0
41
1
10
10.5016966852239
20
-0.145902536683792
30
0
41
1
10
10.5016966852239
20
-0.131281263535271
30
0
0
SPLINE
5
E4
100
AcDbEntity
8
1
62
256
6
ByLayer
370
18
48
1
60
0
100
AcDbSpline
70
4
71
3
72
8
73
4
40
0
40
0
40
0
40
0
40
1
40
1
40
1
40
1
41
1
10
41.8313885138378
20
3.21576825573018
30
0
41
1
10
41.8330024523843
20
3.21468089269788
30
0
41
1
10
41.8346164139137
20
3.2135934360378
30
0
41
1
10
41.8362303985812
20
3.21250588579483
30
0
0
SPLINE
5
E5
100
AcDbEntity
8
1
62
256
6
ByLayer
370
18
48
1
60
0
100
AcDbSpline
70
4
71
3
72
18
73
14
40
0
40
0
40
0
40
0
40
0.25
40
0.25
40
0.374999999999998
40
0.374999999999998
40
0.437499999999999
40
0.437499999999999
40
0.5
40
0.5
40
0.75
40
0.75
40
1
40
1
40
1
40
1
41
1
10
41.8362303985812
20
3.21250588579483
30
0
41
1
10
41.901517746601
20
3.02911328234112
30
0
41
1
10
41.9660887806397
20
2.84456884203578
30
0
41
1
10
42.0631350485523
20
2.56699747570511
30
0
41
1
10
42.0955020933567
20
2.47437824732961
30
0
41
1
10
42.1442003310978
20
2.33538699300482
30
0
41
1
10
42.1604555991786
20
2.28905060122719
30
0
41
1
10
42.1930296299901
20
2.19637418326548
30
0
41
1
10
42.2092695908666
20
2.15000542654812
30
0
41
1
10
42.291811933885
20
1.91938074943028
30
0
41
1
10
42.3620806153124
20
1.73813529417984
30
0
41
1
10
42.5183312665457
20
1.3874575493802
30
0
41
1
10
42.6017073716504
20
1.22414447303024
30
0
41
1
10
42.6921589454424
20
1.07237401097925
30
0
0
SPLINE
5
E6
100
AcDbEntity
8
1
62
256
6
ByLayer
370
18
48
1
60
0
100
AcDbSpline
70
4
71
3
72
12
73
8
40
0
40
0
40
0
40
0
40
0.533565446045544
40
0.533565446045544
40
0.800348169068319
40
0.800348169068319
40
1
40
1
40
1
40
1
41
1
10
12.3574521031711
20
3.09725394551251
30
0
41
1
10
11.9611435549781
20
3.16729429375721
30
0
41
1
10
11.5725385649403
20
3.22664937285057
30
0
41
1
10
11.0057280115146
20
3.28985603987638
30
0
41
1
10
10.8195018438159
20
3.30656881081077
30
0
41
1
10
10.5000626876622
20
3.32535960660928
30
0
41
1
10
10.3650967819817
20
3.33006295446586
30
0
41
1
10
10.2339460870818
20
3.33027448913174
30
0
0
SPLINE
5
E7
100
AcDbEntity
8
1
62
256
6
ByLayer
370
18
48
1
60
0
100
AcDbSpline
70
4
71
3
72
10
73
6
40
0
40
0
40
0
40
0
40
0.5
40
0.5
40
1
40
1
40
1
40
1
41
1
10
41.8362303985812
20
-3.21250588579483
30
0
41
1
10
41.8254923812003
20
-3.21972051213612
30
0
41
1
10
41.8163775474117
20
-3.22278420424669
30
0
41
1
10
41.8009053798374
20
-3.22065694813543
30
0
41
1
10
41.7945844564033
20
-3.21550632661365
30
0
41
1
10
41.7892171237542
20
-3.20661046045879
30
0
0
SPLINE
5
E8
100
AcDbEntity
8
1
62
256
6
ByLayer
370
18
48
1
60
0
100
AcDbSpline
70
4
71
3
72
68
73
64
40
0
40
0
40
0
40
0
40
0.0173421539854905
40
0.0173421539854905
40
0.0537368890230649
40
0.0537368890230649
40
0.0901316240606394
40
0.0901316240606394
40
0.108328991579427
40
0.108328991579427
40
0.126526359098214
40
0.126526359098214
40
0.16292109413579
40
0.16292109413579
40
0.199315829173366
40
0.199315829173366
40
0.217513196692153
40
0.217513196692153
40
0.23571056421094
40
0.23571056421094
40
0.272105299248515
40
0.272105299248515
40
0.308500034286089
40
0.308500034286089
40
0.344894769323663
40
0.344894769323663
40
0.381289504361238
40
0.381289504361238
40
0.417684239398812
40
0.417684239398812
40
0.454078974436387
40
0.454078974436387
40
0.490473709473961
40
0.490473709473961
40
0.526868444511536
40
0.526868444511536
40
0.56326317954911
40
0.56326317954911
40
0.599657914586684
40
0.599657914586684
40
0.636052649624259
40
0.636052649624259
40
0.672447384661833
40
0.672447384661833
40
0.708842119699408
40
0.708842119699408
40
0.745236854736982
40
0.745236854736982
40
0.781631589774557
40
0.781631589774557
40
0.799828957293344
40
0.799828957293344
40
0.818026324812131
40
0.818026324812131
40
0.854421059849705
40
0.854421059849705
40
0.890815794887278
40
0.890815794887278
40
0.927210529924852
40
0.927210529924852
40
0.963605264962426
40
0.963605264962426
40
1
40
1
40
1
40
1
41
1
10
37.2451832424319
20
-2.25042147838997
30
1E-16
41
1
10
37.1005274390958
20
-2.30213435479311
30
1E-16
41
1
10
36.9555859122212
20
-2.35278475773751
30
1E-16
41
1
10
36.5070399397653
20
-2.50411517026888
30
2E-16
41
1
10
36.2041180528091
20
-2.59856253948942
30
2E-16
41
1
10
35.6003810003203
20
-2.77242074727153
30
-1E-16
41
1
10
35.2996890309265
20
-2.8518561606835
30
0
41
1
10
34.8484348518413
20
-2.95766535828022
30
0
41
1
10
34.6979975361859
20
-2.99075797871379
30
0
41
1
10
34.3974885023891
20
-3.05296704109526
30
0
41
1
10
34.2474093984235
20
-3.0820546025389
30
0
41
1
10
33.7967206740868
20
-3.16241363036488
30
0
41
1
10
33.4956323824061
20
-3.2068780927797
30
0
41
1
10
32.8930330498677
20
-3.27804801432944
30
0
41
1
10
32.59130787688
20
-3.30450937141762
30
0
41
1
10
32.1364389292393
20
-3.32975524840208
30
0
41
1
10
31.9844677780189
20
-3.33579790471364
30
0
41
1
10
31.6802131326795
20
-3.34310403812725
30
0
41
1
10
31.5284630997953
20
-3.34431762811931
30
0
41
1
10
31.0739043175745
20
-3.34070865879224
30
0
41
1
10
30.7715947846692
20
-3.32877279990359
30
0
41
1
10
30.1694593213965
20
-3.28596582680339
30
0
41
1
10
29.8691280521516
20
-3.25513106383187
30
0
41
1
10
29.2682682939255
20
-3.17577138595286
30
0
41
1
10
28.9684939543408
20
-3.12678468893176
30
0
41
1
10
28.3680480529962
20
-3.01161232270516
30
0
41
1
10
28.0671561250654
20
-2.94575507747655
30
0
41
1
10
27.465091879471
20
-2.79619916510393
30
-1E-16
41
1
10
27.1632409814147
20
-2.71314675883377
30
-1E-16
41
1
10
26.5566590035533
20
-2.53199371674614
30
2E-16
41
1
10
26.2519394027076
20
-2.43250896023389
30
1E-16
41
1
10
25.6456659712707
20
-2.22226741314938
30
1E-16
41
1
10
25.343379517203
20
-2.11146112730336
30
1E-16
41
1
10
24.7412917408056
20
-1.87725249719762
30
1E-16
41
1
10
24.4407098129476
20
-1.75517648342344
30
1E-16
41
1
10
23.8397589525728
20
-1.50257632608489
30
1E-16
41
1
10
23.540087070783
20
-1.37071145624992
30
1E-16
41
1
10
22.9394206485887
20
-1.10142602481758
30
1E-16
41
1
10
22.6386089971298
20
-0.963711217423025
30
1E-16
41
1
10
22.0364874737699
20
-0.681049116128179
30
0
41
1
10
21.7343806620217
20
-0.53775928991044
30
0
41
1
10
21.1277875144318
20
-0.247854643920704
30
0
41
1
10
20.8230915445596
20
-0.0996424979906863
30
0
41
1
10
20.2165614054881
20
0.192558405075459
30
0
41
1
10
19.9144029432667
20
0.33774735279377
30
0
41
1
10
19.3121063296296
20
0.625942035342575
30
0
41
1
10
19.0112704050747
20
0.767454696290798
30
0
41
1
10
18.4103910633102
20
1.04579353123589
30
-1E-16
41
1
10
18.11066028213
20
1.18321392319268
30
-1E-16
41
1
10
17.6599803306638
20
1.38241882032509
30
-1E-16
41
1
10
17.509594289656
20
1.44771899149276
30
-1E-16
41
1
10
17.2088343318494
20
1.57674867946727
30
-1E-16
41
1
10
17.0585233910368
20
1.64059055167712
30
-1E-16
41
1
10
16.6067558587532
20
1.82809733739256
30
-1E-16
41
1
10
16.3044244303444
20
1.94771118033455
30
-1E-16
41
1
10
15.6980260910457
20
2.17710842948779
30
-1E-16
41
1
10
15.3933445824884
20
2.28698426100365
30
-1E-16
41
1
10
14.7853915426504
20
2.49056762098007
30
-2E-16
41
1
10
14.4820161878708
20
2.58524680163194
30
-2E-16
41
1
10
13.8758191998437
20
2.75951408444561
30
1E-16
41
1
10
13.5726108794082
20
2.83865238441373
30
0
41
1
10
12.9662469544809
20
2.98110551938123
30
0
41
1
10
12.662547648583
20
3.04378248766366
30
0
41
1
10
12.3574432344201
20
3.09725124820412
30
0
0
SPLINE
5
E9
100
AcDbEntity
8
1
62
256
6
ByLayer
370
18
48
1
60
0
100
AcDbSpline
70
4
71
3
72
28
73
24
40
0
40
0
40
0
40
0
40
0.0878271362363065
40
0.0878271362363065
40
0.175654272472613
40
0.175654272472613
40
0.263481408708919
40
0.263481408708919
40
0.351308544945226
40
0.351308544945226
40
0.526962817417842
40
0.526962817417842
40
0.61478995365415
40
0.61478995365415
40
0.702617089890458
40
0.702617089890458
40
0.790444226126766
40
0.790444226126766
40
0.878271362363074
40
0.878271362363074
40
0.966098498599382
40
0.966098498599382
40
1
40
1
40
1
40
1
41
1
10
41.4229823633851
20
-0.0317310930484211
30
0
41
1
10
41.1006414272655
20
0.117488791644234
30
0
41
1
10
40.7780875560114
20
0.265796622236451
30
0
41
1
10
40.1320132058962
20
0.559382290635511
30
0
41
1
10
39.8084709950224
20
0.70466372558127
30
0
41
1
10
39.165534507756
20
0.988515570697672
30
-1E-16
41
1
10
38.8455836477934
20
1.12743507250187
30
-1E-16
41
1
10
38.2071633130161
20
1.39647790415844
30
-1E-16
41
1
10
37.8889772529671
20
1.5266862319497
30
-1E-16
41
1
10
36.9336091620188
20
1.90093896070888
30
-1E-16
41
1
10
36.2963710816061
20
2.12954492158542
30
-1E-16
41
1
10
35.3369770437649
20
2.42852350749365
30
-1E-16
41
1
10
35.0167220971065
20
2.5202233959179
30
1E-16
41
1
10
34.3724857961458
20
2.68894470391575
30
1E-16
41
1
10
34.0484751921276
20
2.76600347766524
30
1E-16
41
1
10
33.4059949139207
20
2.89944062333166
30
0
41
1
10
33.0867599853945
20
2.95548788453524
30
0
41
1
10
32.4484961321452
20
3.05028983305485
30
0
41
1
10
32.1297087327071
20
3.08867263892566
30
0
41
1
10
31.4930951116475
20
3.14443010481324
30
0
41
1
10
31.1753651648743
20
3.16113409834082
30
0
41
1
10
30.7340087877783
20
3.17208301660125
30
0
41
1
10
30.6110021349664
20
3.17377444614667
30
0
41
1
10
30.4879043799725
20
3.17400970555136
30
0
0
SPLINE
5
EA
100
AcDbEntity
8
1
62
256
6
ByLayer
370
18
48
1
60
0
100
AcDbSpline
70
4
71
3
72
14
73
10
40
0
40
0
40
0
40
0
40
0.239707551337568
40
0.239707551337568
40
0.479415102675136
40
0.479415102675136
40
0.958830205350273
40
0.958830205350273
40
1
40
1
40
1
40
1
41
1
10
41.8313885138379
20
3.21576825573129
30
0
41
1
10
41.4270797480414
20
3.21878171946668
30
0
41
1
10
41.0215183567918
20
3.20507262046129
30
0
41
1
10
40.2129348589864
20
3.14534655480628
30
0
41
1
10
39.8092615189346
20
3.09918123158425
30
0
41
1
10
38.5968061118359
20
2.91458314316594
30
0
41
1
10
37.7847450600948
20
2.72891847653006
30
1E-16
41
1
10
36.9054620459662
20
2.47027238333669
30
-1E-16
41
1
10
36.8359406818349
20
2.44944552150753
30
-1E-16
41
1
10
36.7664292454638
20
2.42825575568432
30
-1E-16
0
SPLINE
5
EB
100
AcDbEntity
8
1
62
256
6
ByLayer
370
18
48
1
60
0
100
AcDbSpline
70
4
71
3
72
8
73
4
40
0
40
0
40
0
40
0
40
1
40
1
40
1
40
1
41
1
10
41.3368066990586
20
0.0201541744631868
30
0
41
1
10
41.363917601293
20
0.006617743951125
30
0
41
1
10
41.3908576874298
20
-0.0062141695443643
30
0
41
1
10
41.4176559189769
20
-0.01835800050182
30
0
0
SPLINE
5
EC
100
AcDbEntity
8
1
62
256
6
ByLayer
370
18
48
1
60
0
100
AcDbSpline
70
4
71
3
72
28
73
24
40
0
40
0
40
0
40
0
40
0.060230960187723
40
0.060230960187723
40
0.145664509261567
40
0.145664509261567
40
0.231098058335411
40
0.231098058335411
40
0.316531607409256
40
0.316531607409256
40
0.4019651564831
40
0.4019651564831
40
0.487398705556944
40
0.487398705556944
40
0.658265803704629
40
0.658265803704629
40
0.743699352778472
40
0.743699352778472
40
0.829132901852315
40
0.829132901852315
40
0.914566450926157
40
0.914566450926157
40
1
40
1
40
1
40
1
41
1
10
30.1808204716563
20
3.1810162915327
30
0
41
1
10
30.405859905982
20
3.18550071899441
30
0
41
1
10
30.6305859041751
20
3.18483999815942
30
0
41
1
10
31.1733479147824
20
3.1722424126321
30
0
41
1
10
31.490966562921
20
3.1560421908479
30
0
41
1
10
32.1273543581336
20
3.1012296774968
30
0
41
1
10
32.4460293878313
20
3.06328060954829
30
0
41
1
10
33.0840683755872
20
2.9692547019948
30
0
41
1
10
33.4031832722345
20
2.91357902205832
30
0
41
1
10
34.0454315896537
20
2.7808204498603
30
1E-16
41
1
10
34.3693427159942
20
2.70403975573404
30
1E-16
41
1
10
35.0134385966065
20
2.5357452126882
30
1E-16
41
1
10
35.3336076043482
20
2.4442346324752
30
-1E-16
41
1
10
36.2927351493227
20
2.14571530244504
30
-1E-16
41
1
10
36.9297691795929
20
1.91719739223515
30
-1E-16
41
1
10
37.8848082663217
20
1.54281540942296
30
-1E-16
41
1
10
38.2028766536568
20
1.41252367994423
30
-1E-16
41
1
10
38.8410581545169
20
1.14322147670418
30
-1E-16
41
1
10
39.1608891139658
20
1.00412209577127
30
-1E-16
41
1
10
39.8035882633142
20
0.719809957718354
30
0
41
1
10
40.1270189805017
20
0.574243594245729
30
0
41
1
10
40.7729362039679
20
0.279973978851672
30
0
41
1
10
41.0954051233805
20
0.131283443616212
30
0
41
1
10
41.4176559189769
20
-0.01835800050182
30
0
0
SPLINE
5
ED
100
AcDbEntity
8
1
62
256
6
ByLayer
370
18
48
1
60
0
100
AcDbSpline
70
4
71
3
72
24
73
20
40
0
40
0
40
0
40
0
40
0.0699116054460758
40
0.0699116054460758
40
0.224926337871731
40
0.224926337871731
40
0.379941070297386
40
0.379941070297386
40
0.4186947534038
40
0.4186947534038
40
0.457448436510214
40
0.457448436510214
40
0.534955802723039
40
0.534955802723039
40
0.689970535148693
40
0.689970535148693
40
0.844985267574347
40
0.844985267574347
40
1
40
1
40
1
40
1
41
1
10
23.085349329619
20
-3.1827630619608
30
0
41
1
10
22.7920612864648
20
-3.22525504291789
30
0
41
1
10
22.4999705121834
20
-3.25902375221273
30
0
41
1
10
21.5624191528759
20
-3.33928081578637
30
0
41
1
10
20.9197357137207
20
-3.35128140901219
30
0
41
1
10
19.6323270867386
20
-3.28894471423212
30
0
41
1
10
18.9875532356769
20
-3.21456051821508
30
0
41
1
10
18.1742360936135
20
-3.06904424400153
30
0
41
1
10
18.0109318837238
20
-3.03725998041898
30
0
41
1
10
17.6850701653793
20
-2.96878096366442
30
0
41
1
10
17.5225521727905
20
-2.93210522996426
30
0
41
1
10
17.0358849628396
20
-2.81521638698348
30
0
41
1
10
16.7126291717425
20
-2.72814613182865
30
-1E-16
41
1
10
15.7449742443283
20
-2.44171834943069
30
1E-16
41
1
10
15.1025609560433
20
-2.2172333292026
30
1E-16
41
1
10
13.8137023967127
20
-1.7158618013724
30
1E-16
41
1
10
13.1670830127514
20
-1.4387393327691
30
1E-16
41
1
10
11.8615027694087
20
-0.848303968058246
30
1E-16
41
1
10
11.211058115536
20
-0.539265760097834
30
0
41
1
10
10.5583334811665
20
-0.225850077187744
30
0
0
SPLINE
5
EE
100
AcDbEntity
8
1
62
256
6
ByLayer
370
18
48
1
60
0
100
AcDbSpline
70
4
71
3
72
18
73
14
40
0
40
0
40
0
40
0
40
0.250000000000009
40
0.250000000000009
40
0.375000000000014
40
0.375000000000014
40
0.437500000000016
40
0.437500000000016
40
0.500000000000018
40
0.500000000000018
40
0.750000000000009
40
0.750000000000009
40
1
40
1
40
1
40
1
41
1
10
41.8362303985812
20
-3.21250588579483
30
0
41
1
10
41.9015177466009
20
-3.02911328234117
30
0
41
1
10
41.9660887806397
20
-2.84456884203587
30
0
41
1
10
42.0631350485522
20
-2.56699747570525
30
0
41
1
10
42.0955020933566
20
-2.47437824732981
30
0
41
1
10
42.1442003310977
20
-2.33538699300505
30
0
41
1
10
42.1604555991786
20
-2.28905060122744
30
0
41
1
10
42.19302962999
20
-2.19637418326576
30
0
41
1
10
42.2092695908666
20
-2.15000542654843
30
0
41
1
10
42.2918119338849
20
-1.91938074943062
30
0
41
1
10
42.3620806153126
20
-1.73813529417961
30
0
41
1
10
42.5183312665456
20
-1.3874575493804
30
0
41
1
10
42.6017073716503
20
-1.22414447303043
30
0
41
1
10
42.6921589454424
20
-1.07237401097927
30
0
0
SPLINE
5
EF
100
AcDbEntity
8
1
62
256
6
ByLayer
370
18
48
1
60
0
100
AcDbSpline
70
4
71
3
72
63
73
59
40
0
40
0
40
0
40
0
40
0.12500000000001
40
0.12500000000001
40
0.187500000000015
40
0.187500000000015
40
0.25000000000002
40
0.25000000000002
40
0.281250000000023
40
0.281250000000023
40
0.312500000000025
40
0.312500000000025
40
0.343750000000028
40
0.343750000000028
40
0.37500000000003
40
0.37500000000003
40
0.406250000000033
40
0.406250000000033
40
0.437500000000035
40
0.437500000000035
40
0.453125000000037
40
0.453125000000037
40
0.468750000000038
40
0.468750000000038
40
0.500000000000041
40
0.500000000000041
40
0.515625000000042
40
0.515625000000042
40
0.531250000000044
40
0.531250000000044
40
0.562500000000047
40
0.562500000000047
40
0.625000000000052
40
0.625000000000052
40
0.687500000000057
40
0.687500000000057
40
0.718750000000058
40
0.718750000000058
40
0.73437500000006
40
0.73437500000006
40
0.738281250000061
40
0.738281250000061
40
0.742187500000063
40
0.742187500000063
40
0.750000000000065
40
0.750000000000065
40
0.753906250000064
40
0.753906250000064
40
0.757812500000064
40
0.765625000000062
40
0.765625000000062
40
0.781250000000057
40
0.781250000000057
40
0.81250000000005
40
0.81250000000005
40
0.875000000000033
40
0.875000000000033
40
1
40
1
40
1
40
1
41
1
10
12.3574521031711
20
-3.09725394551251
30
0
41
1
10
11.961143554978
20
-3.16729429375721
30
0
41
1
10
11.5725385649403
20
-3.22664937285055
30
0
41
1
10
11.0057280115146
20
-3.28985603987638
30
0
41
1
10
10.8195018438159
20
-3.30656881081077
30
0
41
1
10
10.4540878872544
20
-3.32806404365056
30
0
41
1
10
10.2745346529865
20
-3.3328482679544
30
0
41
1
10
10.0172682779164
20
-3.32695673739431
30
0
41
1
10
9.93338018321717
20
-3.32280981044875
30
0
41
1
10
9.7701968870935
20
-3.30908450320274
30
0
41
1
10
9.69080091233243
20
-3.29946964869205
30
0
41
1
10
9.54021770538807
20
-3.27369213968925
30
0
41
1
10
9.46873526394029
20
-3.25752918232544
30
0
41
1
10
9.33550378122195
20
-3.21680702065837
30
0
41
1
10
9.2737150514688
20
-3.19228118456135
30
0
41
1
10
9.16346515987303
20
-3.13173564787905
30
0
41
1
10
9.11652588143662
20
-3.09648894874962
30
0
41
1
10
9.04358449887786
20
-3.01370248297525
30
0
41
1
10
9.01774886447072
20
-2.96552365492798
30
0
41
1
10
9.00008934408703
20
-2.88630749525566
30
0
41
1
10
8.9975637940457
20
-2.85863343149847
30
0
41
1
10
8.99948432026099
20
-2.80067650802994
30
-1E-16
41
1
10
9.00400298143697
20
-2.7701487169586
30
-1E-16
41
1
10
9.02796116333721
20
-2.67642349872938
30
-1E-16
41
1
10
9.05733380156852
20
-2.61171074207277
30
2E-16
41
1
10
9.1184722995786
20
-2.51194989737263
30
2E-16
41
1
10
9.14169708140952
20
-2.47832273225149
30
2E-16
41
1
10
9.1921804325396
20
-2.41178302200549
30
1E-16
41
1
10
9.21955746245865
20
-2.37866989197522
30
1E-16
41
1
10
9.30722580293792
20
-2.27976811921607
30
1E-16
41
1
10
9.37312591794719
20
-2.2143128026467
30
1E-16
41
1
10
9.58744816899099
20
-2.02016656708949
30
1E-16
41
1
10
9.74694752561572
20
-1.89800708583752
30
1E-16
41
1
10
10.0853925962483
20
-1.66282526537532
30
1E-16
41
1
10
10.2652196190379
20
-1.54961689134805
30
1E-16
41
1
10
10.5423591383564
20
-1.38691856720493
30
1E-16
41
1
10
10.6361263910364
20
-1.33379706277904
30
1E-16
41
1
10
10.7783205492781
20
-1.25570017084809
30
1E-16
41
1
10
10.8259822884936
20
-1.22992950984309
30
1E-16
41
1
10
10.8858459957274
20
-1.19803345629771
30
1E-16
41
1
10
10.8978331757225
20
-1.19167005833938
30
1E-16
41
1
10
10.9218359188773
20
-1.17897441714226
30
1E-16
41
1
10
10.9336184327196
20
-1.17199769330406
30
1E-16
41
1
10
10.9719012454835
20
-1.15809440336608
30
1E-16
41
1
10
11.000357478788
20
-1.15771384527073
30
1E-16
41
1
10
11.040699326802
20
-1.16468628569439
30
1E-16
41
1
10
11.0538403278939
20
-1.16836197555645
30
1E-16
41
1
10
11.0801180466063
20
-1.17568322499366
30
1E-16
41
1
10
11.1195171731705
20
-1.18671293615591
30
1E-16
41
1
10
11.1588630104302
20
-1.19788484219433
30
1E-16
41
1
10
11.2374820228123
20
-1.22041386156235
30
1E-16
41
1
10
11.2898023538951
20
-1.23568153597336
30
1E-16
41
1
10
11.4464505289039
20
-1.28218560219329
30
1E-16
41
1
10
11.5504598838449
20
-1.31412239803851
30
1E-16
41
1
10
11.8612738516533
20
-1.41245547680296
30
1E-16
41
1
10
12.066980975932
20
-1.48144272742357
30
1E-16
41
1
10
12.6782385092382
20
-1.69532700432691
30
1E-16
41
1
10
13.0782265739509
20
-1.84730149400318
30
1E-16
41
1
10
13.4733697440687
20
-1.99976040548958
30
1E-16
0
SPLINE
5
F0
100
AcDbEntity
8
1
62
256
6
ByLayer
370
18
48
1
60
0
100
AcDbSpline
70
4
71
3
72
8
73
4
40
0
40
0
40
0
40
0
40
1
40
1
40
1
40
1
41
1
10
41.6168119310947
20
-3.3079261203961
30
0
41
1
10
41.6741515735385
20
-3.27472219791846
30
0
41
1
10
41.7316132076843
20
-3.2409459517537
30
0
41
1
10
41.7892171237545
20
-3.20661046045853
30
0
0
SPLINE
5
F1
100
AcDbEntity
8
1
62
256
6
ByLayer
370
18
48
1
60
0
100
AcDbSpline
70
4
71
3
72
8
73
4
40
0
40
0
40
0
40
0
40
1
40
1
40
1
40
1
41
1
10
41.1756990984238
20
3.33842434209399
30
0
41
1
10
41.3270822658398
20
3.34450766364563
30
0
41
1
10
41.4786125757547
20
3.34820102577535
30
0
41
1
10
41.6303517087127
20
3.34947403134797
30
0
0
SPLINE
5
F2
100
AcDbEntity
8
1
62
256
6
ByLayer
370
18
48
1
60
0
100
AcDbSpline
70
4
71
3
72
12
73
8
40
0
40
0
40
0
40
0
40
0.500000000000028
40
0.500000000000028
40
0.750000000000014
40
0.750000000000014
40
1
40
1
40
1
40
1
41
1
10
10.5016966852239
20
3.11619692879086
30
0
41
1
10
10.5016966852239
20
3.10012645191398
30
0
41
1
10
10.5094480902653
20
3.08376615474935
30
0
41
1
10
10.5348040947084
20
3.0631104877024
30
0
41
1
10
10.5455628417913
20
3.05698023227234
30
0
41
1
10
10.5715952597021
20
3.04805818195422
30
0
41
1
10
10.5867557052116
20
3.04542347414198
30
0
41
1
10
10.6023707535018
20
3.04549923130389
30
0
0
SPLINE
5
F3
100
AcDbEntity
8
1
62
256
6
ByLayer
370
18
48
1
60
0
100
AcDbSpline
70
4
71
3
72
12
73
8
40
0
40
0
40
0
40
0
40
0.12787685706787
40
0.292993760099545
40
0.493358423361571
40
0.744614553595782
40
1
40
1
40
1
40
1
41
1
10
41.9387441531376
20
0.540083143019132
30
0
41
1
10
41.779548588486
20
0.59036401533254
30
0
41
1
10
41.4155092373662
20
0.707820318094804
30
0
41
1
10
40.8059612700399
20
0.9165564626324
30
-1E-16
41
1
10
40.0463475220221
20
1.18476210325352
30
-1E-16
41
1
10
39.1798970672838
20
1.50504800202614
30
-1E-16
41
1
10
38.563013468635
20
1.74540107452432
30
-1E-16
41
1
10
38.253034033699
20
1.86926605807736
30
-1E-16
0
SPLINE
5
F4
100
AcDbEntity
8
1
62
256
6
ByLayer
370
18
48
1
60
0
100
AcDbSpline
70
4
71
1
72
4
73
2
40
0
40
0
40
1
40
1
41
1
10
38.253034033699
20
1.86926605807736
30
-1E-16
41
1
10
38.0828473028932
20
1.93556378617009
30
-1E-16
0
SPLINE
5
F5
100
AcDbEntity
8
1
62
256
6
ByLayer
370
18
48
1
60
0
100
AcDbSpline
70
4
71
3
72
19
73
15
40
0
40
0
40
0
40
0
40
0.157583029686064
40
0.267317363335868
40
0.345792209818726
40
0.41681407804346
40
0.488337475454822
40
0.564848426909461
40
0.645306577085121
40
0.777466540635865
40
0.896926307304793
40
0.93532101174919
40
0.973231285595082
40
1
40
1
40
1
40
1
41
1
10
20.9618686196362
20
-3.16967344583574
30
0
41
1
10
21.3522966830722
20
-3.1697474152831
30
0
41
1
10
22.01461230376
20
-3.17003932978116
30
0
41
1
10
22.8713925356679
20
-3.17065802274956
30
0
41
1
10
23.5136937702105
20
-3.17147422152661
30
0
41
1
10
24.0613234165259
20
-3.17125992836085
30
0
41
1
10
24.6040876166159
20
-3.17140295063788
30
0
41
1
10
25.1702327970653
20
-3.17233557263788
30
0
41
1
10
25.8866203244686
20
-3.17176458625943
30
0
41
1
10
26.7094231295447
20
-3.17310899437257
30
0
41
1
10
27.428004465308
20
-3.17326699936055
30
0
41
1
10
27.913055699954
20
-3.17270314985512
30
0
41
1
10
28.1684459390963
20
-3.17272218597944
30
0
41
1
10
28.3287018190252
20
-3.17288640550297
30
0
41
1
10
28.3950268709356
20
-3.17296736645579
30
0
0
SPLINE
5
F6
100
AcDbEntity
8
1
62
256
6
ByLayer
370
18
48
1
60
0
100
AcDbSpline
70
4
71
3
72
27
73
23
40
0
40
0
40
0
40
0
40
2.87034546139E-05
40
4.99435782235E-05
40
6.80974569925E-05
40
8.5539930039E-05
40
0.0001038474785263
40
0.0005256348953656
40
0.0008447104327156
40
0.0014248637446254
40
0.0024939463366039
40
0.0045086012435951
40
0.0084430963790275
40
0.0165442166688327
40
0.0344424516390434
40
0.0773575752560105
40
0.172417274525001
40
0.33165915547822
40
0.440024277128074
40
0.592023897200507
40
0.787873758537992
40
1
40
1
40
1
40
1
41
1
10
22.1632074421281
20
-0.0666085122300899
30
0
41
1
10
22.1632244957225
20
-0.0666123992149608
30
0
41
1
10
22.1632437621597
20
-0.0666159918184519
30
0
41
1
10
22.1632323944525
20
-0.0666091061525833
30
0
41
1
10
22.1631888556449
20
-0.066595067673461
30
0
41
1
10
22.1631159292813
20
-0.0665731361423809
30
0
41
1
10
22.1623324406733
20
-0.066345187895763
30
0
41
1
10
22.160789937562
20
-0.0659132929282862
30
0
41
1
10
22.1583241742968
20
-0.0652101844613355
30
0
41
1
10
22.154573814537
20
-0.0641452148302619
30
0
41
1
10
22.1476357522016
20
-0.0621712974445927
30
0
41
1
10
22.1342994800366
20
-0.0583760447285329
30
0
41
1
10
22.1075784154649
20
-0.0507589037723619
30
0
41
1
10
22.0505099507441
20
-0.0344427930191102
30
0
41
1
10
21.9188408867624
20
0.0034401760088656
30
0
41
1
10
21.6205047902278
20
0.0904541461202371
30
0
41
1
10
21.0521117461767
20
0.260956437773132
30
0
41
1
10
20.3611247988766
20
0.478408733289285
30
0
41
1
10
19.5641197306424
20
0.741211923229827
30
0
41
1
10
18.701518359618
20
1.03839327657064
30
-1E-16
41
1
10
17.6485815309256
20
1.42096272629467
30
-1E-16
41
1
10
16.887417217549
20
1.71584857929531
30
-1E-16
41
1
10
16.4931795225755
20
1.87345925945613
30
-1E-16
0
SPLINE
5
F7
100
AcDbEntity
8
1
62
256
6
ByLayer
370
18
48
1
60
0
100
AcDbSpline
70
4
71
3
72
19
73
15
40
0
40
0
40
0
40
0
40
0.157451324435531
40
0.265597420197402
40
0.34103519152185
40
0.410487510504523
40
0.481978517730305
40
0.558734202050699
40
0.63938828301046
40
0.771827125084275
40
0.892150778080252
40
0.931709265576016
40
0.971300753984323
40
1
40
1
40
1
40
1
41
1
10
30.4997509429783
20
3.17400622957575
30
0
41
1
10
30.1105784853022
20
3.17440167311938
30
0
41
1
10
29.4540968117694
20
3.17461077362933
30
0
41
1
10
28.611143403765
20
3.17318948302926
30
0
41
1
10
27.9856979256731
20
3.17250520348978
30
0
41
1
10
27.4508540141735
20
3.17327873019048
30
0
41
1
10
26.9127500923625
20
3.17336745148938
30
0
41
1
10
26.3469583446644
20
3.17204896262513
30
0
41
1
10
25.6305157601714
20
3.17209365850164
30
0
41
1
10
24.806383040162
20
3.171756320273
30
0
41
1
10
24.0838297023284
20
3.17127386986658
30
0
41
1
10
23.5907768874003
20
3.17136320274881
30
0
41
1
10
23.3241970635865
20
3.171274242371
30
0
41
1
10
23.1553996144643
20
3.17106518240937
30
0
41
1
10
23.084462360519
20
3.1709738121678
30
0
0
LINE
5
84
100
AcDbEntity
8
SK1
62
256
6
ByLayer
370
18
48
1
60
0
100
AcDbLine
10
-36
20
-2.76
30
0
11
-36
21
2.76
31
0
39
0
210
0
220
0
230
1
0
LINE
5
86
100
AcDbEntity
8
SK1
62
256
6
ByLayer
370
18
48
1
60
0
100
AcDbLine
10
0
20
4
30
0
11
0
21
-4
31
0
39
0
210
0
220
0
230
1
0
LINE
5
87
100
AcDbEntity
8
SK1
62
256
6
ByLayer
370
18
48
1
60
0
100
AcDbLine
10
-34.76
20
-4
30
0
11
-34.76
21
4
31
0
39
0
210
0
220
0
230
1
0
LINE
5
88
100
AcDbEntity
8
1
62
256
6
ByLayer
370
18
48
1
60
0
100
AcDbLine
10
1.306228
20
3.324702
30
0
11
1.306228
21
0
31
0
39
0
210
0
220
0
230
1
0
LINE
5
89
100
AcDbEntity
8
1
62
256
6
ByLayer
370
18
48
1
60
0
100
AcDbLine
10
1.306228
20
0
30
0
11
1.306228
21
-3.324702
31
0
39
0
210
0
220
0
230
1
0
LINE
5
8A
100
AcDbEntity
8
1
62
256
6
ByLayer
370
18
48
1
60
0
100
AcDbLine
10
42.953284
20
0.040328
30
0
11
42.125209
21
0.95438
31
0
39
0
210
0
220
0
230
1
0
LINE
5
8B
100
AcDbEntity
8
1
62
256
6
ByLayer
370
18
48
1
60
0
100
AcDbLine
10
0.652864
20
3.662351
30
0
11
0.652864
21
0
31
0
39
0
210
0
220
0
230
1
0
LINE
5
8C
100
AcDbEntity
8
1
62
256
6
ByLayer
370
18
48
1
60
0
100
AcDbLine
10
0.652864
20
0
30
0
11
0.652864
21
-3.662351
31
0
39
0
210
0
220
0
230
1
0
LINE
5
8D
100
AcDbEntity
8
1
62
256
6
ByLayer
370
18
48
1
60
0
100
AcDbLine
10
10.501697
20
-0.135863
30
0
11
10.501697
21
3.180514
31
0
39
0
210
0
220
0
230
1
0
LINE
5
8E
100
AcDbEntity
8
1
62
256
6
ByLayer
370
18
48
1
60
0
100
AcDbLine
10
0
20
4
30
0
11
0
21
0
31
0
39
0
210
0
220
0
230
1
0
LINE
5
8F
100
AcDbEntity
8
1
62
256
6
ByLayer
370
18
48
1
60
0
100
AcDbLine
10
0
20
0
30
0
11
0
21
-4
31
0
39
0
210
0
220
0
230
1
0
LINE
5
90
100
AcDbEntity
8
1
62
256
6
ByLayer
370
18
48
1
60
0
100
AcDbLine
10
22.4
20
3.137647
30
0
11
22.4
21
3.120711
31
0
39
0
210
0
220
0
230
1
0
LINE
5
91
100
AcDbEntity
8
SK1
62
256
6
ByLayer
370
18
48
1
60
0
100
AcDbLine
10
-34.76
20
-4
30
0
11
0
21
-4
31
0
39
0
210
0
220
0
230
1
0
LINE
5
92
100
AcDbEntity
8
SK1
62
256
6
ByLayer
370
18
48
1
60
0
100
AcDbLine
10
0
20
4
30
0
11
-34.76
21
4
31
0
39
0
210
0
220
0
230
1
0
LINE
5
93
100
AcDbEntity
8
SK1
62
256
6
ByLayer
370
18
48
1
60
0
100
AcDbLine
10
-36
20
-2.76
30
0
11
-34.76
21
-4
31
0
39
0
210
0
220
0
230
1
0
LINE
5
94
100
AcDbEntity
8
SK1
62
256
6
ByLayer
370
18
48
1
60
0
100
AcDbLine
10
-34.76
20
4
30
0
11
-36
21
2.76
31
0
39
0
210
0
220
0
230
1
0
LINE
5
95
100
AcDbEntity
8
1
62
256
6
ByLayer
370
18
48
1
60
0
100
AcDbLine
10
1.306228
20
-3.324702
30
0
11
10.239936
21
-3.330286
31
0
39
0
210
0
220
0
230
1
0
LINE
5
96
100
AcDbEntity
8
1
62
256
6
ByLayer
370
18
48
1
60
0
100
AcDbLine
10
19.890552
20
-3.336318
30
0
11
20.963338
21
-3.336988
31
0
39
0
210
0
220
0
230
1
0
LINE
5
97
100
AcDbEntity
8
1
62
256
6
ByLayer
370
18
48
1
60
0
100
AcDbLine
10
30.500006
20
-3.342949
30
0
11
31.480614
21
-3.343561
31
0
39
0
210
0
220
0
230
1
0
LINE
5
98
100
AcDbEntity
8
1
62
256
6
ByLayer
370
18
48
1
60
0
100
AcDbLine
10
31.480614
20
3.343561
30
0
11
30.500006
21
3.342949
31
0
39
0
210
0
220
0
230
1
0
LINE
5
99
100
AcDbEntity
8
1
62
256
6
ByLayer
370
18
48
1
60
0
100
AcDbLine
10
20.963338
20
3.336988
30
0
11
19.890552
21
3.336318
31
0
39
0
210
0
220
0
230
1
0
LINE
5
9A
100
AcDbEntity
8
1
62
256
6
ByLayer
370
18
48
1
60
0
100
AcDbLine
10
10.239936
20
3.330286
30
0
11
1.306228
21
3.324702
31
0
39
0
210
0
220
0
230
1
0
LINE
5
9B
100
AcDbEntity
8
SK4
62
256
6
ByLayer
370
18
48
0.05
60
0
100
AcDbLine
10
48
20
0
30
0
11
-41
21
0
31
0
39
0
210
0
220
0
230
1
0
LINE
5
9D
100
AcDbEntity
8
4
62
256
6
ByLayer
370
18
48
0.05
60
0
100
AcDbLine
10
-36
20
0
30
0
11
48
21
0
31
0
39
0
210
0
220
0
230
1
0
LINE
5
9F
100
AcDbEntity
8
80
62
256
6
ByLayer
370
18
48
1
60
0
100
AcDbLine
10
0
20
0
30
0
11
-6
21
0
31
0
39
0
210
0
220
0
230
1
0
LINE
5
A0
100
AcDbEntity
8
81
62
256
6
ByLayer
370
18
48
1
60
0
100
AcDbLine
10
43
20
0
30
0
11
49
21
0
31
0
39
0
210
0
220
0
230
1
0
LINE
5
A1
100
AcDbEntity
8
SK2
62
256
6
ByLayer
370
13
48
1
60
0
100
AcDbLine
10
43.542957
20
1.491762
30
0
11
50.926315
21
21.777377
31
0
39
0
210
0
220
0
230
1
0
LINE
5
A3
100
AcDbEntity
8
SK2
62
256
6
ByLayer
370
13
48
1
60
0
100
AcDbLine
10
43.542957
20
-1.491762
30
0
11
50.926315
21
-21.777377
31
0
39
0
210
0
220
0
230
1
0
LINE
5
A4
100
AcDbEntity
8
1
62
256
6
ByLayer
370
13
48
1
60
0
100
AcDbLine
10
49.840401
20
18.793853
30
0
11
52.936992
21
17.977481
31
0
39
0
210
0
220
0
230
1
0
LINE
5
A5
100
AcDbEntity
8
1
62
256
6
ByLayer
370
13
48
1
60
0
100
AcDbLine
10
49.840401
20
18.793853
30
0
11
52.620188
21
17.20384
31
0
39
0
210
0
220
0
230
1
0
LINE
5
A6
100
AcDbEntity
8
1
62
256
6
ByLayer
370
13
48
1
60
0
100
AcDbLine
10
52.936992
20
17.977481
30
0
11
52.620188
21
17.20384
31
0
39
0
210
0
220
0
230
1
0
LINE
5
A7
100
AcDbEntity
8
1
62
256
6
ByLayer
370
13
48
1
60
0
100
AcDbLine
10
49.840401
20
-18.793853
30
0
11
52.620186
21
-17.203841
31
0
39
0
210
0
220
0
230
1
0
LINE
5
A8
100
AcDbEntity
8
1
62
256
6
ByLayer
370
13
48
1
60
0
100
AcDbLine
10
49.840401
20
-18.793853
30
0
11
52.936995
21
-17.97748
31
0
39
0
210
0
220
0
230
1
0
LINE
5
A9
100
AcDbEntity
8
1
62
256
6
ByLayer
370
13
48
1
60
0
100
AcDbLine
10
52.620186
20
-17.203841
30
0
11
52.936995
21
-17.97748
31
0
39
0
210
0
220
0
230
1
0
MTEXT
5
F8
100
AcDbEntity
8
SK2
62
256
6
ByLayer
370
18
48
1
60
0
100
AcDbMText
10
56.717388
20
-2.467451
30
0
210
0
220
0
230
1
1
\W0.7237;140.00
40
3.50012
41
0
44
1.084337
50
0
71
7
72
5
7
iso_b_vert
0
MTEXT
5
FB
100
AcDbEntity
8
SK6
62
256
6
ByLayer
370
18
48
1
60
0
100
AcDbMText
10
-35.831725
20
-51.382693
30
0
210
0
220
0
230
1
1
\W0.7561;860.1-0670-020A0-GM X1BM
40
3.175
41
0
44
1.084337
50
0
71
7
72
5
7
iso_b_vert
0
DIMENSION
5
FE
100
AcDbEntity
8
SK2
62
256
6
ByLayer
370
18
48
1
60
0
100
AcDbDimension
2
_U0
10
43
20
-27.50012
30
0
11
21.5
21
-27.50012
31
0
70
32
71
2
72
1
41
1
210
0
220
0
230
1
3
Standard
100
AcDbAlignedDimension
13
0
23
-4
33
0
14
43
24
0
34
0
50
0
100
AcDbRotatedDimension
1001
ACAD
1000
DSTYLE
1002
{
1070
   371
1070
    13
1070
   372
1070
    13
1070
     3
1000

1070
   170
1070
     0
1070
   144
1040
1.0
1070
   277
1070
     2
1070
   284
1070
     8
1070
   278
1070
    46
1070
   146
1040
0.999966
1070
   345
1005
16
1070
   347
1005
16
1070
   346
1005
16
1070
   344
1005
FF
1070
   343
1005
FF
1070
   172
1070
     1
1070
    76
1070
     0
1070
    75
1070
     0
1070
   282
1070
     0
1070
   281
1070
     0
1070
    71
1070
     0
1070
    74
1070
     0
1070
   279
1070
     0
1070
   173
1070
     1
1070
   340
1005
F9
1070
   271
1070
     1
1070
   272
1070
     2
1070
    77
1070
     1
1070
    73
1070
     1
1070
   171
1070
     3
1070
   274
1070
     4
1070
   177
1070
   150
1070
   176
1070
     9
1070
   178
1070
    43
1070
    78
1070
     8
1070
    48
1040
-0.1
1070
    41
1040
3.175
1070
   147
1040
1.75006
1070
    42
1040
1.5875
1070
    44
1040
3.175
1070
   140
1040
3.50012
1002
}
1001
ACAD_DSTYLE_DIM_LINETYPE
1070
   380
1005
16
1001
ACAD_DSTYLE_DIM_EXT1_LINETYPE
1070
   381
1005
16
1001
ACAD_DSTYLE_DIM_EXT2_LINETYPE
1070
   382
1005
16
0
DIMENSION
5
124
100
AcDbEntity
8
2
62
256
6
ByLayer
370
18
48
1
60
0
100
AcDbDimension
2
_U1
10
49.75006
20
3.35
30
0
11
49.75006
21
18.839897
31
0
70
32
71
1
72
1
41
1
210
0
220
0
230
1
3
Standard
100
AcDbAlignedDimension
13
41.7807
23
-3.35
33
0
14
41.7807
24
3.35
34
0
50
90
100
AcDbRotatedDimension
1001
ACAD
1000
DSTYLE
1002
{
1070
   371
1070
    13
1070
   372
1070
    13
1070
     3
1000

1070
   170
1070
     0
1070
   144
1040
1.0
1070
   277
1070
     2
1070
   284
1070
     8
1070
   278
1070
    46
1070
   146
1040
0.999966
1070
   345
1005
16
1070
   347
1005
16
1070
   346
1005
16
1070
   344
1005
FF
1070
   343
1005
FF
1070
   172
1070
     1
1070
    76
1070
     0
1070
    75
1070
     0
1070
   282
1070
     0
1070
   281
1070
     0
1070
    71
1070
     0
1070
    74
1070
     0
1070
   279
1070
     0
1070
   173
1070
     1
1070
   340
1005
F9
1070
   271
1070
     1
1070
   272
1070
     2
1070
    77
1070
     1
1070
    73
1070
     0
1070
   171
1070
     3
1070
   274
1070
     4
1070
   177
1070
   150
1070
   176
1070
     9
1070
   178
1070
    43
1070
    78
1070
     8
1070
    48
1040
-0.1
1070
    41
1040
3.175
1070
   147
1040
1.75006
1070
    42
1040
1.5875
1070
    44
1040
3.175
1070
   140
1040
3.50012
1002
}
1001
ACAD_DSTYLE_DIM_LINETYPE
1070
   380
1005
16
1001
ACAD_DSTYLE_DIM_EXT1_LINETYPE
1070
   381
1005
16
1001
ACAD_DSTYLE_DIM_EXT2_LINETYPE
1070
   382
1005
16
0
DIMENSION
5
143
100
AcDbEntity
8
SK2
62
256
6
ByLayer
370
18
48
1
60
0
100
AcDbDimension
2
_U2
10
-39.24994
20
-4
30
0
11
-39.24994
21
18.10734
31
0
70
32
71
1
72
1
41
1
210
0
220
0
230
1
3
Standard
100
AcDbAlignedDimension
13
-36
23
4
33
0
14
-36
24
-4
34
0
50
90
100
AcDbRotatedDimension
1001
ACAD
1000
DSTYLE
1002
{
1070
   371
1070
    13
1070
   372
1070
    13
1070
     3
1000

1070
   170
1070
     0
1070
   144
1040
1.0
1070
   277
1070
     2
1070
   284
1070
     8
1070
   278
1070
    46
1070
   146
1040
0.999966
1070
   345
1005
16
1070
   347
1005
16
1070
   346
1005
16
1070
   344
1005
FF
1070
   343
1005
FF
1070
   172
1070
     1
1070
    76
1070
     0
1070
    75
1070
     0
1070
   282
1070
     0
1070
   281
1070
     0
1070
    71
1070
     0
1070
    74
1070
     0
1070
   279
1070
     0
1070
   173
1070
     1
1070
   340
1005
F9
1070
   271
1070
     1
1070
   272
1070
     2
1070
    77
1070
     1
1070
    73
1070
     0
1070
   171
1070
     3
1070
   274
1070
     4
1070
   177
1070
   150
1070
   176
1070
     9
1070
   178
1070
    43
1070
    78
1070
     8
1070
    48
1040
-0.1
1070
    41
1040
3.175
1070
   147
1040
1.75006
1070
    42
1040
1.5875
1070
    44
1040
3.175
1070
   140
1040
3.50012
1002
}
1001
ACAD_DSTYLE_DIM_LINETYPE
1070
   380
1005
16
1001
ACAD_DSTYLE_DIM_EXT1_LINETYPE
1070
   381
1005
16
1001
ACAD_DSTYLE_DIM_EXT2_LINETYPE
1070
   382
1005
16
0
DIMENSION
5
161
100
AcDbEntity
8
SK2
62
256
6
ByLayer
370
18
48
1
60
0
100
AcDbDimension
2
_U3
10
0
20
-27.50012
30
0
11
-18
21
-27.50012
31
0
70
32
71
1
72
1
41
1
210
0
220
0
230
1
3
Standard
100
AcDbAlignedDimension
13
-36
23
-4
33
0
14
0
24
-4
34
0
50
0
100
AcDbRotatedDimension
1001
ACAD
1000
DSTYLE
1002
{
1070
   371
1070
    13
1070
   372
1070
    13
1070
     3
1000

1070
   170
1070
     0
1070
   144
1040
1.0
1070
   277
1070
     2
1070
   284
1070
     8
1070
   278
1070
    46
1070
   146
1040
0.999966
1070
   345
1005
16
1070
   347
1005
16
1070
   346
1005
16
1070
   344
1005
FF
1070
   343
1005
FF
1070
   172
1070
     1
1070
    76
1070
     0
1070
    75
1070
     0
1070
   282
1070
     0
1070
   281
1070
     0
1070
    71
1070
     0
1070
    74
1070
     0
1070
   279
1070
     0
1070
   173
1070
     1
1070
   340
1005
F9
1070
   271
1070
     1
1070
   272
1070
     2
1070
    77
1070
     1
1070
    73
1070
     1
1070
   171
1070
     3
1070
   274
1070
     4
1070
   177
1070
   150
1070
   176
1070
     9
1070
   178
1070
    43
1070
    78
1070
     8
1070
    48
1040
-0.1
1070
    41
1040
3.175
1070
   147
1040
1.75006
1070
    42
1040
1.5875
1070
    44
1040
3.175
1070
   140
1040
3.50012
1002
}
1001
ACAD_DSTYLE_DIM_LINETYPE
1070
   380
1005
16
1001
ACAD_DSTYLE_DIM_EXT1_LINETYPE
1070
   381
1005
16
1001
ACAD_DSTYLE_DIM_EXT2_LINETYPE
1070
   382
1005
16
0
DIMENSION
5
17D
100
AcDbEntity
8
SK2
62
256
6
ByLayer
370
18
48
1
60
0
100
AcDbDimension
2
_U4
10
43
20
-18.74982
30
0
11
26
21
-18.74982
31
0
70
32
71
1
72
1
41
1
210
0
220
0
230
1
3
Standard
100
AcDbAlignedDimension
13
9
23
3.85
33
0
14
43
24
0
34
0
50
0
100
AcDbRotatedDimension
1001
ACAD
1000
DSTYLE
1002
{
1070
   371
1070
    13
1070
   372
1070
    13
1070
     3
1000

1070
   170
1070
     0
1070
   144
1040
1.0
1070
   277
1070
     2
1070
   284
1070
     8
1070
   278
1070
    46
1070
   146
1040
0.999966
1070
   345
1005
16
1070
   347
1005
16
1070
   346
1005
16
1070
   344
1005
FF
1070
   343
1005
FF
1070
   172
1070
     1
1070
    76
1070
     0
1070
    75
1070
     0
1070
   282
1070
     0
1070
   281
1070
     0
1070
    71
1070
     0
1070
    74
1070
     0
1070
   279
1070
     0
1070
   173
1070
     1
1070
   340
1005
F9
1070
   271
1070
     1
1070
   272
1070
     2
1070
    77
1070
     1
1070
    73
1070
     1
1070
   171
1070
     3
1070
   274
1070
     4
1070
   177
1070
   150
1070
   176
1070
     9
1070
   178
1070
    43
1070
    78
1070
     8
1070
    48
1040
-0.1
1070
    41
1040
3.175
1070
   147
1040
1.75006
1070
    42
1040
1.5875
1070
    44
1040
3.175
1070
   140
1040
3.50012
1002
}
1001
ACAD_DSTYLE_DIM_LINETYPE
1070
   380
1005
16
1001
ACAD_DSTYLE_DIM_EXT1_LINETYPE
1070
   381
1005
16
1001
ACAD_DSTYLE_DIM_EXT2_LINETYPE
1070
   382
1005
16
0
DIMENSION
5
199
100
AcDbEntity
8
SK2
62
256
6
ByLayer
370
18
48
1
60
0
100
AcDbDimension
2
_U5
10
43
20
-10.82
30
0
11
32.35
21
-10.82
31
0
70
32
71
1
72
1
41
1
210
0
220
0
230
1
3
Standard
100
AcDbAlignedDimension
13
21.7
23
-3.35
33
0
14
43
24
0
34
0
50
0
100
AcDbRotatedDimension
1001
ACAD
1000
DSTYLE
1002
{
1070
   371
1070
    13
1070
   372
1070
    13
1070
     3
1000

1070
   170
1070
     0
1070
   144
1040
1.0
1070
   277
1070
     2
1070
   284
1070
     8
1070
   278
1070
    46
1070
   146
1040
1.25
1070
   345
1005
16
1070
   347
1005
16
1070
   346
1005
16
1070
   344
1005
FF
1070
   343
1005
FF
1070
   172
1070
     1
1070
    76
1070
     0
1070
    75
1070
     0
1070
   282
1070
     0
1070
   281
1070
     0
1070
    71
1070
     0
1070
    74
1070
     0
1070
   279
1070
     0
1070
   173
1070
     1
1070
   340
1005
F9
1070
   271
1070
     1
1070
   272
1070
     2
1070
    77
1070
     1
1070
    73
1070
     1
1070
   171
1070
     3
1070
   274
1070
     4
1070
   177
1070
   150
1070
   176
1070
     9
1070
   178
1070
    43
1070
    78
1070
     8
1070
    48
1040
-0.1
1070
    41
1040
3.175
1070
   147
1040
0.42
1070
    42
1040
1.5875
1070
    44
1040
0.5
1070
   140
1040
2.8
1002
}
1001
ACAD_DSTYLE_DIM_LINETYPE
1070
   380
1005
16
1001
ACAD_DSTYLE_DIM_EXT1_LINETYPE
1070
   381
1005
16
1001
ACAD_DSTYLE_DIM_EXT2_LINETYPE
1070
   382
1005
16
0
DIMENSION
5
1B5
100
AcDbEntity
8
SK2
62
256
6
ByLayer
370
18
48
1
60
0
100
AcDbDimension
2
_U6
10
43
20
-37.50012
30
0
11
3.5
21
-37.50012
31
0
70
32
71
1
72
1
41
1
210
0
220
0
230
1
3
Standard
100
AcDbAlignedDimension
13
-36
23
0
33
0
14
43
24
0
34
0
50
0
100
AcDbRotatedDimension
1001
ACAD
1000
DSTYLE
1002
{
1070
   371
1070
    13
1070
   372
1070
    13
1070
     3
1000

1070
   170
1070
     0
1070
   144
1040
1.0
1070
   277
1070
     2
1070
   284
1070
     8
1070
   278
1070
    46
1070
   146
1040
0.999966
1070
   345
1005
16
1070
   347
1005
16
1070
   346
1005
16
1070
   344
1005
FF
1070
   343
1005
FF
1070
   172
1070
     1
1070
    76
1070
     0
1070
    75
1070
     0
1070
   282
1070
     0
1070
   281
1070
     0
1070
    71
1070
     0
1070
    74
1070
     0
1070
   279
1070
     0
1070
   173
1070
     1
1070
   340
1005
F9
1070
   271
1070
     1
1070
   272
1070
     2
1070
    77
1070
     1
1070
    73
1070
     1
1070
   171
1070
     3
1070
   274
1070
     4
1070
   177
1070
   150
1070
   176
1070
     9
1070
   178
1070
    43
1070
    78
1070
     8
1070
    48
1040
-0.1
1070
    41
1040
3.175
1070
   147
1040
1.75006
1070
    42
1040
1.5875
1070
    44
1040
3.175
1070
   140
1040
3.50012
1002
}
1001
ACAD_DSTYLE_DIM_LINETYPE
1070
   380
1005
16
1001
ACAD_DSTYLE_DIM_EXT1_LINETYPE
1070
   381
1005
16
1001
ACAD_DSTYLE_DIM_EXT2_LINETYPE
1070
   382
1005
16
0
ENDSEC
0
SECTION
2
OBJECTS
0
DICTIONARY
5
241
330
0
100
AcDbDictionary
280
0
281
1
3
ACAD_GROUP
350
242
3
ACAD_MLINESTYLE
350
243
0
DICTIONARY
5
242
330
0
100
AcDbDictionary
280
0
281
1
0
DICTIONARY
5
243
330
0
100
AcDbDictionary
280
0
281
1
3
Standard
350
18
0
MLINESTYLE
5
18
330
243
100
AcDbMlineStyle
2
Standard
70
0
3

62
256
51
90
52
90
71
2
49
-0.5
62
256
6
ByLayer
49
0.5
62
256
6
ByLayer
0
RASTERVARIABLES
5
22f
330

100
AcDbRasterVariables
90
0
70
1
71
1
72
1
0
ENDSEC
0
EOF
