0
SECTION
2
HEADER
9
$ACADVER
1
AC1015
9
$DWGCODEPAGE
3
ANSI_1252
9
$HANDSEED
5
251
9
$ANGBASE
50
0
9
$ANGDIR
70
0
9
$ATTMODE
70
1
9
$AUNITS
70
0
9
$AUPREC
70
0
9
$CECOLOR
62
256
9
$CELTSCALE
40
1
9
$CELTYPE
6
ByLayer
9
$CELWEIGHT
370
18
9
$CLAYER
8
0
9
$CMLJUST
70
0
9
$CMLSCALE
40
1
9
$CMLSTYLE
2
Standard
9
$DIMSTYLE
2
Standard
9
$TEXTSIZE
40
0.2
9
$TEXTSTYLE
7
Standard
9
$LUNITS
70
2
9
$LUPREC
70
4
9
$EXTNAMES
290
1
9
$INSUNITS
70
4
9
$LTSCALE
40
1
9
$LWDISPLAY
290
1
9
$PDMODE
70
0
9
$PDSIZE
40
0
9
$PLINEGEN
70
0
0
ENDSEC
0
SECTION
2
CLASSES
0
CLASS
1
RASTERVARIABLES
2
AcDbRasterVariables
3
ISM
90
0
280
0
281
0
0
ENDSEC
0
SECTION
2
TABLES
0
TABLE
2
VPORT
5
247
100
AcDbSymbolTable
0
VPORT
5
1
100
AcDbSymbolTableRecord
100
AcDbViewportTableRecord
2
*Active
70
0
10
0
20
0
11
1
21
1
12
-1
22
1
13
0
23
0
14
0.5
24
0.5
15
10
25
10
16
0
26
0
36
1
17
0
27
0
37
0
0
ENDTAB
0
TABLE
2
LTYPE
5
248
100
AcDbSymbolTable
0
LTYPE
5
14
100
AcDbSymbolTableRecord
100
AcDbLinetypeTableRecord
70
0
2
ByBlock
3

72
65
73
0
40
0
0
LTYPE
5
15
100
AcDbSymbolTableRecord
100
AcDbLinetypeTableRecord
70
0
2
ByLayer
3

72
65
73
0
40
0
0
LTYPE
5
16
100
AcDbSymbolTableRecord
100
AcDbLinetypeTableRecord
70
0
2
Continuous
3
Solid line
72
65
73
0
40
0
0
LTYPE
5
6E
100
AcDbSymbolTableRecord
100
AcDbLinetypeTableRecord
70
0
2
CENTER
3
____ _ ____ _ ____ _ ____
72
65
73
4
40
47.5
49
22
74
0
49
-8.5
74
0
49
8.5
74
0
49
-8.5
74
0
0
LTYPE
5
6F
100
AcDbSymbolTableRecord
100
AcDbLinetypeTableRecord
70
0
2
DASHED
3
__ __ __ __ __ __ __ __ __
72
65
73
2
40
25.72
49
12.86
74
0
49
-12.86
74
0
0
ENDTAB
0
TABLE
2
LAYER
5
249
100
AcDbSymbolTable
0
LAYER
5
10
100
AcDbSymbolTableRecord
100
AcDbLayerTableRecord
2
0
70
0
62
7
6
Continuous
290
1
370
-3
390
0
0
LAYER
5
71
100
AcDbSymbolTableRecord
100
AcDbLayerTableRecord
2
80
70
0
62
-6
6
Continuous
290
1
370
-3
390
0
0
LAYER
5
73
100
AcDbSymbolTableRecord
100
AcDbLayerTableRecord
2
81
70
0
62
-3
6
Continuous
290
1
370
-3
390
0
0
LAYER
5
75
100
AcDbSymbolTableRecord
100
AcDbLayerTableRecord
2
1
70
0
62
4
6
Continuous
290
1
370
-3
390
0
0
LAYER
5
9E
100
AcDbSymbolTableRecord
100
AcDbLayerTableRecord
2
4
70
0
62
-2
6
CENTER
290
1
370
-3
390
0
0
LAYER
5
10B
100
AcDbSymbolTableRecord
100
AcDbLayerTableRecord
2
Defpoints
70
0
62
7
6
Continuous
290
0
370
-3
390
0
0
LAYER
5
138
100
AcDbSymbolTableRecord
100
AcDbLayerTableRecord
2
2
70
0
62
7
6
Continuous
290
1
370
-3
390
0
0
LAYER
5
233
100
AcDbSymbolTableRecord
100
AcDbLayerTableRecord
2
SK1
70
0
62
4
6
Continuous
290
1
370
-3
390
0
0
LAYER
5
234
100
AcDbSymbolTableRecord
100
AcDbLayerTableRecord
2
SK4
70
0
62
2
6
CENTER
290
1
370
-3
390
0
0
LAYER
5
235
100
AcDbSymbolTableRecord
100
AcDbLayerTableRecord
2
SK2
70
0
62
7
6
Continuous
290
1
370
-3
390
0
0
LAYER
5
236
100
AcDbSymbolTableRecord
100
AcDbLayerTableRecord
2
SK6
70
0
62
5
6
Continuous
290
1
370
-3
390
0
0
ENDTAB
0
TABLE
2
STYLE
5
24a
100
AcDbSymbolTable
0
STYLE
5
11
100
AcDbSymbolTableRecord
100
AcDbTextStyleTableRecord
2
Standard
3
txt
70
0
71
0
40
0
41
1
42
0
50
0
0
STYLE
5
FC
100
AcDbSymbolTableRecord
100
AcDbTextStyleTableRecord
2
iso_b_vert
3
simplex.shx
70
0
71
0
40
0
41
1
42
0
50
0
0
STYLE
5
FD
100
AcDbSymbolTableRecord
100
AcDbTextStyleTableRecord
2
DWGDirectTextStyle
3
simplex
70
0
71
0
40
0
41
1
42
0
50
0
0
ENDTAB
0
TABLE
2
DIMSTYLE
5
24b
100
AcDbSymbolTable
100
AcDbDimStyleTable
0
DIMSTYLE
105
27
100
AcDbSymbolTableRecord
100
AcDbDimStyleTableRecord
2
Standard
70
0
3
<>
41
0.18
42
0.0625
44
0.18
140
0.18
147
0.09
73
0
74
0
77
1
271
2
275
0
278
52
280
0
340
11
0
ENDTAB
0
TABLE
2
VIEW
5
24c
100
AcDbSymbolTable
0
ENDTAB
0
TABLE
2
UCS
5
24d
100
AcDbSymbolTable
0
ENDTAB
0
TABLE
2
APPID
5
24e
100
AcDbSymbolTable
0
APPID
5
12
100
AcDbSymbolTableRecord
100
AcDbRegAppTableRecord
2
ACAD
70
0
0
APPID
5
100
100
AcDbSymbolTableRecord
100
AcDbRegAppTableRecord
2
ACAD_DSTYLE_DIMBREAK
70
0
0
APPID
5
1F2
100
AcDbSymbolTableRecord
100
AcDbRegAppTableRecord
2
ACAD_DSTYLE_DIM_LINETYPE
70
0
0
APPID
5
1F3
100
AcDbSymbolTableRecord
100
AcDbRegAppTableRecord
2
ACAD_DSTYLE_DIM_EXT1_LINETYPE
70
0
0
APPID
5
1F4
100
AcDbSymbolTableRecord
100
AcDbRegAppTableRecord
2
ACAD_DSTYLE_DIM_EXT2_LINETYPE
70
0
0
APPID
5
22F
100
AcDbSymbolTableRecord
100
AcDbRegAppTableRecord
2
ACAD_MLEADERVER
70
0
0
ENDTAB
0
TABLE
2
BLOCK_RECORD
5
24f
100
AcDbSymbolTable
0
BLOCK_RECORD
5
1F
100
AcDbSymbolTableRecord
100
AcDbBlockTableRecord
2
*Model_Space
340
0
70
0
0
BLOCK_RECORD
5
1B
100
AcDbSymbolTableRecord
100
AcDbBlockTableRecord
2
*Paper_Space
340
0
70
0
0
BLOCK_RECORD
5
23
100
AcDbSymbolTableRecord
100
AcDbBlockTableRecord
2
*Paper_Space0
340
0
70
0
0
BLOCK_RECORD
5
102
100
AcDbSymbolTableRecord
100
AcDbBlockTableRecord
2
_Closed
340
0
70
0
0
BLOCK_RECORD
5
10C
100
AcDbSymbolTableRecord
100
AcDbBlockTableRecord
2
*D2
340
0
70
0
0
BLOCK_RECORD
5
118
100
AcDbSymbolTableRecord
100
AcDbBlockTableRecord
2
_U0
340
0
70
0
0
BLOCK_RECORD
5
12A
100
AcDbSymbolTableRecord
100
AcDbBlockTableRecord
2
*D4
340
0
70
0
0
BLOCK_RECORD
5
139
100
AcDbSymbolTableRecord
100
AcDbBlockTableRecord
2
_U1
340
0
70
0
0
BLOCK_RECORD
5
149
100
AcDbSymbolTableRecord
100
AcDbBlockTableRecord
2
*D6
340
0
70
0
0
BLOCK_RECORD
5
157
100
AcDbSymbolTableRecord
100
AcDbBlockTableRecord
2
_U2
340
0
70
0
0
BLOCK_RECORD
5
167
100
AcDbSymbolTableRecord
100
AcDbBlockTableRecord
2
*D8
340
0
70
0
0
BLOCK_RECORD
5
173
100
AcDbSymbolTableRecord
100
AcDbBlockTableRecord
2
_U3
340
0
70
0
0
BLOCK_RECORD
5
183
100
AcDbSymbolTableRecord
100
AcDbBlockTableRecord
2
*D10
340
0
70
0
0
BLOCK_RECORD
5
18F
100
AcDbSymbolTableRecord
100
AcDbBlockTableRecord
2
_U4
340
0
70
0
0
BLOCK_RECORD
5
19F
100
AcDbSymbolTableRecord
100
AcDbBlockTableRecord
2
*D12
340
0
70
0
0
BLOCK_RECORD
5
1AB
100
AcDbSymbolTableRecord
100
AcDbBlockTableRecord
2
_U5
340
0
70
0
0
BLOCK_RECORD
5
1BB
100
AcDbSymbolTableRecord
100
AcDbBlockTableRecord
2
*D14
340
0
70
0
0
BLOCK_RECORD
5
1C7
100
AcDbSymbolTableRecord
100
AcDbBlockTableRecord
2
_U6
340
0
70
0
0
ENDTAB
0
ENDSEC
0
SECTION
2
BLOCKS
0
BLOCK
5
20
100
AcDbEntity
8
0
100
AcDbBlockBegin
2
*Model_Space
70
0
10
0
20
0
30
0
3
*Model_Space
0
ENDBLK
5
21
100
AcDbEntity
8
0
100
AcDbBlockEnd
0
BLOCK
5
1C
100
AcDbEntity
8
0
100
AcDbBlockBegin
2
*Paper_Space
70
0
10
0
20
0
30
0
3
*Paper_Space
0
ENDBLK
5
1D
100
AcDbEntity
8
0
100
AcDbBlockEnd
0
BLOCK
5
24
100
AcDbEntity
8
0
100
AcDbBlockBegin
2
*Paper_Space0
70
0
10
0
20
0
30
0
3
*Paper_Space0
0
ENDBLK
5
25
100
AcDbEntity
8
0
100
AcDbBlockEnd
0
BLOCK
5
103
100
AcDbEntity
8
0
100
AcDbBlockBegin
2
_Closed
70
0
10
0
20
0
30
0
3
_Closed
0
LINE
5
105
100
AcDbEntity
8
0
62
256
6
ByLayer
370
-2
48
1
60
0
100
AcDbLine
10
-1
20
0.166667
30
0
11
0
21
0
31
0
39
0
210
0
220
0
230
1
0
LINE
5
106
100
AcDbEntity
8
0
62
256
6
ByLayer
370
-2
48
1
60
0
100
AcDbLine
10
0
20
0
30
0
11
-1
21
-0.166667
31
0
39
0
210
0
220
0
230
1
0
LINE
5
107
100
AcDbEntity
8
0
62
256
6
ByLayer
370
-2
48
1
60
0
100
AcDbLine
10
-1
20
0.166667
30
0
11
-1
21
-0.166667
31
0
39
0
210
0
220
0
230
1
0
LINE
5
108
100
AcDbEntity
8
0
62
256
6
ByLayer
370
-2
48
1
60
0
100
AcDbLine
10
0
20
0
30
0
11
-1
21
0
31
0
39
0
210
0
220
0
230
1
0
ENDBLK
5
104
100
AcDbEntity
8
0
100
AcDbBlockEnd
0
BLOCK
5
10D
100
AcDbEntity
8
0
100
AcDbBlockBegin
2
*D2
70
1
10
0
20
0
30
0
3
*D2
0
LINE
5
10F
100
AcDbEntity
8
0
62
256
6
ByLayer
370
-2
48
1
60
0
100
AcDbLine
10
0
20
-5.5875
30
0
11
0
21
-30.67512
31
0
39
0
210
0
220
0
230
1
0
LINE
5
110
100
AcDbEntity
8
0
62
256
6
ByLayer
370
-2
48
1
60
0
100
AcDbLine
10
43
20
-1.5875
30
0
11
43
21
-30.67512
31
0
39
0
210
0
220
0
230
1
0
LINE
5
111
100
AcDbEntity
8
0
62
256
6
ByLayer
370
-2
48
1
60
0
100
AcDbLine
10
3.175
20
-27.50012
30
0
11
39.825
21
-27.50012
31
0
39
0
210
0
220
0
230
1
0
SOLID
5
112
100
AcDbEntity
8
0
62
256
6
ByLayer
370
-1
48
1
60
0
100
AcDbTrace
10
3.175
20
-26.970953
30
0
11
3.175
21
-28.029287
31
0
12
0
22
-27.50012
32
0
13
0
23
-27.50012
33
0
39
0
210
0
220
0
230
1
0
SOLID
5
113
100
AcDbEntity
8
0
62
256
6
ByLayer
370
-1
48
1
60
0
100
AcDbTrace
10
39.825
20
-28.029287
30
0
11
39.825
21
-26.970953
31
0
12
43
22
-27.50012
32
0
13
43
23
-27.50012
33
0
39
0
210
0
220
0
230
1
0
MTEXT
5
114
100
AcDbEntity
8
0
62
256
6
ByLayer
370
18
48
1
60
0
100
AcDbMText
10
21.5
20
-20.193619
30
0
210
0
220
0
230
1
1
\A1;43
40
3.50012
41
0
44
1
50
0
71
5
72
5
7
iso_b_vert
0
POINT
5
115
100
AcDbEntity
8
Defpoints
62
0
6
ByLayer
370
-1
48
1
60
0
100
AcDbPoint
10
0
20
-4
30
0
39
0
210
0
220
0
230
1
50
360
0
POINT
5
116
100
AcDbEntity
8
Defpoints
62
0
6
ByLayer
370
-1
48
1
60
0
100
AcDbPoint
10
43
20
0
30
0
39
0
210
0
220
0
230
1
50
360
0
POINT
5
117
100
AcDbEntity
8
Defpoints
62
0
6
ByLayer
370
-1
48
1
60
0
100
AcDbPoint
10
43
20
-27.50012
30
0
39
0
210
0
220
0
230
1
50
360
0
ENDBLK
5
10E
100
AcDbEntity
8
0
100
AcDbBlockEnd
0
BLOCK
5
125
100
AcDbEntity
8
0
100
AcDbBlockBegin
2
_U0
70
0
10
0
20
0
30
0
3
_U0
0
MTEXT
5
119
100
AcDbEntity
8
SK2
62
256
6
ByLayer
370
18
48
1
60
0
100
AcDbMText
10
16.086116
20
-26.467451
30
0
210
0
220
0
230
1
1
\W0.7694;43.00
40
3.50012
41
0
44
1.084337
50
0
71
7
72
5
7
iso_b_vert
0
MTEXT
5
11A
100
AcDbEntity
8
SK2
62
256
6
ByLayer
370
18
48
1
60
0
100
AcDbMText
10
12.560056
20
-26.400814
30
0
210
0
220
0
230
1
1
\W0.1790;(
40
3.175
41
0
44
1.084337
50
0
71
7
72
5
7
iso_b_vert
0
MTEXT
5
11B
100
AcDbEntity
8
SK2
62
256
6
ByLayer
370
18
48
1
60
0
100
AcDbMText
10
30.442666
20
-26.400814
30
0
210
0
220
0
230
1
1
\W0.1969;)
40
3.175
41
0
44
1.084337
50
0
71
7
72
5
7
iso_b_vert
0
LINE
5
11C
100
AcDbEntity
8
SK2
62
256
6
ByLayer
370
13
48
1
60
0
100
AcDbLine
10
0
20
-5.5875
30
0
11
0
21
-30.67512
31
0
39
0
210
0
220
0
230
1
0
LINE
5
11D
100
AcDbEntity
8
SK2
62
256
6
ByLayer
370
13
48
1
60
0
100
AcDbLine
10
43
20
-1.5875
30
0
11
43
21
-30.67512
31
0
39
0
210
0
220
0
230
1
0
LINE
5
11E
100
AcDbEntity
8
SK2
62
256
6
ByLayer
370
13
48
1
60
0
100
AcDbLine
10
0
20
-27.50012
30
0
11
43
21
-27.50012
31
0
39
0
210
0
220
0
230
1
0
LINE
5
11F
100
AcDbEntity
8
SK2
62
256
6
ByLayer
370
13
48
1
60
0
100
AcDbLine
10
0
20
-27.50012
30
0
11
3.174998
21
-27.082123
31
0
39
0
210
0
220
0
230
1
0
LINE
5
120
100
AcDbEntity
8
SK2
62
256
6
ByLayer
370
13
48
1
60
0
100
AcDbLine
10
0
20
-27.50012
30
0
11
3.175002
21
-27.918117
31
0
39
0
210
0
220
0
230
1
0
LINE
5
121
100
AcDbEntity
8
SK2
62
256
6
ByLayer
370
13
48
1
60
0
100
AcDbLine
10
3.174998
20
-27.082123
30
0
11
3.175002
21
-27.918117
31
0
39
0
210
0
220
0
230
1
0
LINE
5
122
100
AcDbEntity
8
SK2
62
256
6
ByLayer
370
13
48
1
60
0
100
AcDbLine
10
43
20
-27.50012
30
0
11
39.825002
21
-27.918117
31
0
39
0
210
0
220
0
230
1
0
LINE
5
123
100
AcDbEntity
8
SK2
62
256
6
ByLayer
370
13
48
1
60
0
100
AcDbLine
10
43
20
-27.50012
30
0
11
39.824998
21
-27.082123
31
0
39
0
210
0
220
0
230
1
0
LINE
5
124
100
AcDbEntity
8
SK2
62
256
6
ByLayer
370
13
48
1
60
0
100
AcDbLine
10
39.825002
20
-27.918117
30
0
11
39.824998
21
-27.082123
31
0
39
0
210
0
220
0
230
1
0
ENDBLK
5
126
100
AcDbEntity
8
0
100
AcDbBlockEnd
0
BLOCK
5
12B
100
AcDbEntity
8
0
100
AcDbBlockBegin
2
*D4
70
1
10
0
20
0
30
0
3
*D4
0
LINE
5
12D
100
AcDbEntity
8
0
62
256
6
ByLayer
370
-2
48
1
60
0
100
AcDbLine
10
43.441
20
-3.15
30
0
11
52.92506
21
-3.15
31
0
39
0
210
0
220
0
230
1
0
LINE
5
12E
100
AcDbEntity
8
0
62
256
6
ByLayer
370
-2
48
1
60
0
100
AcDbLine
10
43.441
20
3.15
30
0
11
52.92506
21
3.15
31
0
39
0
210
0
220
0
230
1
0
LINE
5
12F
100
AcDbEntity
8
0
62
256
6
ByLayer
370
-2
48
1
60
0
100
AcDbLine
10
49.75006
20
3.15
30
0
11
49.75006
21
27.779793
31
0
39
0
210
0
220
0
230
1
0
LINE
5
130
100
AcDbEntity
8
0
62
256
6
ByLayer
370
-2
48
1
60
0
100
AcDbLine
10
49.75006
20
-6.325
30
0
11
49.75006
21
-9.5
31
0
39
0
210
0
220
0
230
1
0
LINE
5
131
100
AcDbEntity
8
0
62
256
6
ByLayer
370
-2
48
1
60
0
100
AcDbLine
10
49.75006
20
6.325
30
0
11
49.75006
21
9.5
31
0
39
0
210
0
220
0
230
1
0
SOLID
5
132
100
AcDbEntity
8
0
62
256
6
ByLayer
370
-1
48
1
60
0
100
AcDbTrace
10
50.279227
20
-6.325
30
0
11
49.220893
21
-6.325
31
0
12
49.75006
22
-3.15
32
0
13
49.75006
23
-3.15
33
0
39
0
210
0
220
0
230
1
0
SOLID
5
133
100
AcDbEntity
8
0
62
256
6
ByLayer
370
-1
48
1
60
0
100
AcDbTrace
10
49.220893
20
6.325
30
0
11
50.279227
21
6.325
31
0
12
49.75006
22
3.15
32
0
13
49.75006
23
3.15
33
0
39
0
210
0
220
0
230
1
0
MTEXT
5
134
100
AcDbEntity
8
0
62
256
6
ByLayer
370
18
48
1
60
0
100
AcDbMText
10
42.443559
20
18.639897
30
0
210
0
220
0
230
1
1
\A1;6.3
40
3.50012
41
0
44
1
50
90
71
5
72
5
7
iso_b_vert
0
POINT
5
135
100
AcDbEntity
8
Defpoints
62
0
6
ByLayer
370
-1
48
1
60
0
100
AcDbPoint
10
41.8535
20
-3.15
30
0
39
0
210
0
220
0
230
1
50
360
0
POINT
5
136
100
AcDbEntity
8
Defpoints
62
0
6
ByLayer
370
-1
48
1
60
0
100
AcDbPoint
10
41.8535
20
3.15
30
0
39
0
210
0
220
0
230
1
50
360
0
POINT
5
137
100
AcDbEntity
8
Defpoints
62
0
6
ByLayer
370
-1
48
1
60
0
100
AcDbPoint
10
49.75006
20
3.15
30
0
39
0
210
0
220
0
230
1
50
360
0
ENDBLK
5
12C
100
AcDbEntity
8
0
100
AcDbBlockEnd
0
BLOCK
5
144
100
AcDbEntity
8
0
100
AcDbBlockBegin
2
_U1
70
0
10
0
20
0
30
0
3
_U1
0
MTEXT
5
13A
100
AcDbEntity
8
2
62
256
6
ByLayer
370
18
48
1
60
0
100
AcDbMText
10
49.060403
20
7.307505
30
0
210
0
220
0
230
1
1
\W0.7346;6.30
40
3.50012
41
0
44
1.084337
50
90
71
7
72
5
7
iso_b_vert
0
LINE
5
13B
100
AcDbEntity
8
2
62
256
6
ByLayer
370
13
48
1
60
0
100
AcDbLine
10
43.441
20
-3.15
30
0
11
52.92506
21
-3.15
31
0
39
0
210
0
220
0
230
1
0
LINE
5
13C
100
AcDbEntity
8
2
62
256
6
ByLayer
370
13
48
1
60
0
100
AcDbLine
10
43.441
20
3.15
30
0
11
52.92506
21
3.15
31
0
39
0
210
0
220
0
230
1
0
LINE
5
13D
100
AcDbEntity
8
2
62
256
6
ByLayer
370
13
48
1
60
0
100
AcDbLine
10
49.75006
20
15.36468
30
0
11
49.75006
21
-11.9003
31
0
39
0
210
0
220
0
230
1
0
LINE
5
13E
100
AcDbEntity
8
2
62
256
6
ByLayer
370
13
48
1
60
0
100
AcDbLine
10
49.75006
20
-3.15
30
0
11
50.168057
21
-6.324998
31
0
39
0
210
0
220
0
230
1
0
LINE
5
13F
100
AcDbEntity
8
2
62
256
6
ByLayer
370
13
48
1
60
0
100
AcDbLine
10
49.75006
20
-3.15
30
0
11
49.332063
21
-6.325002
31
0
39
0
210
0
220
0
230
1
0
LINE
5
140
100
AcDbEntity
8
2
62
256
6
ByLayer
370
13
48
1
60
0
100
AcDbLine
10
50.168057
20
-6.324998
30
0
11
49.332063
21
-6.325002
31
0
39
0
210
0
220
0
230
1
0
LINE
5
141
100
AcDbEntity
8
2
62
256
6
ByLayer
370
13
48
1
60
0
100
AcDbLine
10
49.75006
20
3.15
30
0
11
49.332063
21
6.324998
31
0
39
0
210
0
220
0
230
1
0
LINE
5
142
100
AcDbEntity
8
2
62
256
6
ByLayer
370
13
48
1
60
0
100
AcDbLine
10
49.75006
20
3.15
30
0
11
50.168057
21
6.325002
31
0
39
0
210
0
220
0
230
1
0
LINE
5
143
100
AcDbEntity
8
2
62
256
6
ByLayer
370
13
48
1
60
0
100
AcDbLine
10
49.332063
20
6.324998
30
0
11
50.168057
21
6.325002
31
0
39
0
210
0
220
0
230
1
0
ENDBLK
5
145
100
AcDbEntity
8
0
100
AcDbBlockEnd
0
BLOCK
5
14A
100
AcDbEntity
8
0
100
AcDbBlockBegin
2
*D6
70
1
10
0
20
0
30
0
3
*D6
0
LINE
5
14C
100
AcDbEntity
8
0
62
256
6
ByLayer
370
-2
48
1
60
0
100
AcDbLine
10
-37.5875
20
4
30
0
11
-42.42494
21
4
31
0
39
0
210
0
220
0
230
1
0
LINE
5
14D
100
AcDbEntity
8
0
62
256
6
ByLayer
370
-2
48
1
60
0
100
AcDbLine
10
-37.5875
20
-4
30
0
11
-42.42494
21
-4
31
0
39
0
210
0
220
0
230
1
0
LINE
5
14E
100
AcDbEntity
8
0
62
256
6
ByLayer
370
-2
48
1
60
0
100
AcDbLine
10
-39.24994
20
4
30
0
11
-39.24994
21
24.830487
31
0
39
0
210
0
220
0
230
1
0
LINE
5
14F
100
AcDbEntity
8
0
62
256
6
ByLayer
370
-2
48
1
60
0
100
AcDbLine
10
-39.24994
20
7.175
30
0
11
-39.24994
21
10.35
31
0
39
0
210
0
220
0
230
1
0
LINE
5
150
100
AcDbEntity
8
0
62
256
6
ByLayer
370
-2
48
1
60
0
100
AcDbLine
10
-39.24994
20
-7.175
30
0
11
-39.24994
21
-10.35
31
0
39
0
210
0
220
0
230
1
0
SOLID
5
151
100
AcDbEntity
8
0
62
256
6
ByLayer
370
-1
48
1
60
0
100
AcDbTrace
10
-39.779107
20
7.175
30
0
11
-38.720773
21
7.175
31
0
12
-39.24994
22
4
32
0
13
-39.24994
23
4
33
0
39
0
210
0
220
0
230
1
0
SOLID
5
152
100
AcDbEntity
8
0
62
256
6
ByLayer
370
-1
48
1
60
0
100
AcDbTrace
10
-38.720773
20
-7.175
30
0
11
-39.779107
21
-7.175
31
0
12
-39.24994
22
-4
32
0
13
-39.24994
23
-4
33
0
39
0
210
0
220
0
230
1
0
MTEXT
5
153
100
AcDbEntity
8
0
62
256
6
ByLayer
370
18
48
1
60
0
100
AcDbMText
10
-46.556441
20
18.10734
30
0
210
0
220
0
230
1
1
\A1;8
40
3.50012
41
0
44
1
50
90
71
5
72
5
7
iso_b_vert
0
POINT
5
154
100
AcDbEntity
8
Defpoints
62
0
6
ByLayer
370
-1
48
1
60
0
100
AcDbPoint
10
-36
20
4
30
0
39
0
210
0
220
0
230
1
50
360
0
POINT
5
155
100
AcDbEntity
8
Defpoints
62
0
6
ByLayer
370
-1
48
1
60
0
100
AcDbPoint
10
-36
20
-4
30
0
39
0
210
0
220
0
230
1
50
360
0
POINT
5
156
100
AcDbEntity
8
Defpoints
62
0
6
ByLayer
370
-1
48
1
60
0
100
AcDbPoint
10
-39.24994
20
-4
30
0
39
0
210
0
220
0
230
1
50
360
0
ENDBLK
5
14B
100
AcDbEntity
8
0
100
AcDbBlockEnd
0
BLOCK
5
162
100
AcDbEntity
8
0
100
AcDbBlockBegin
2
_U2
70
0
10
0
20
0
30
0
3
_U2
0
MTEXT
5
158
100
AcDbEntity
8
SK2
62
256
6
ByLayer
370
18
48
1
60
0
100
AcDbMText
10
-39.939597
20
14.157505
30
0
210
0
220
0
230
1
1
\W0.7346;8.00
40
3.50012
41
0
44
1.084337
50
90
71
7
72
5
7
iso_b_vert
0
LINE
5
159
100
AcDbEntity
8
SK2
62
256
6
ByLayer
370
13
48
1
60
0
100
AcDbLine
10
-37.5875
20
4
30
0
11
-42.42494
21
4
31
0
39
0
210
0
220
0
230
1
0
LINE
5
15A
100
AcDbEntity
8
SK2
62
256
6
ByLayer
370
13
48
1
60
0
100
AcDbLine
10
-37.5875
20
-4
30
0
11
-42.42494
21
-4
31
0
39
0
210
0
220
0
230
1
0
LINE
5
15B
100
AcDbEntity
8
SK2
62
256
6
ByLayer
370
13
48
1
60
0
100
AcDbLine
10
-39.24994
20
-4
30
0
11
-39.24994
21
22.21468
31
0
39
0
210
0
220
0
230
1
0
LINE
5
15C
100
AcDbEntity
8
SK2
62
256
6
ByLayer
370
13
48
1
60
0
100
AcDbLine
10
-39.24994
20
4
30
0
11
-38.831943
21
0.825002
31
0
39
0
210
0
220
0
230
1
0
LINE
5
15D
100
AcDbEntity
8
SK2
62
256
6
ByLayer
370
13
48
1
60
0
100
AcDbLine
10
-39.24994
20
4
30
0
11
-39.667937
21
0.824998
31
0
39
0
210
0
220
0
230
1
0
LINE
5
15E
100
AcDbEntity
8
SK2
62
256
6
ByLayer
370
13
48
1
60
0
100
AcDbLine
10
-38.831943
20
0.825002
30
0
11
-39.667937
21
0.824998
31
0
39
0
210
0
220
0
230
1
0
LINE
5
15F
100
AcDbEntity
8
SK2
62
256
6
ByLayer
370
13
48
1
60
0
100
AcDbLine
10
-39.24994
20
-4
30
0
11
-39.667937
21
-0.825002
31
0
39
0
210
0
220
0
230
1
0
LINE
5
160
100
AcDbEntity
8
SK2
62
256
6
ByLayer
370
13
48
1
60
0
100
AcDbLine
10
-39.24994
20
-4
30
0
11
-38.831943
21
-0.824998
31
0
39
0
210
0
220
0
230
1
0
LINE
5
161
100
AcDbEntity
8
SK2
62
256
6
ByLayer
370
13
48
1
60
0
100
AcDbLine
10
-39.667937
20
-0.825002
30
0
11
-38.831943
21
-0.824998
31
0
39
0
210
0
220
0
230
1
0
ENDBLK
5
163
100
AcDbEntity
8
0
100
AcDbBlockEnd
0
BLOCK
5
168
100
AcDbEntity
8
0
100
AcDbBlockBegin
2
*D8
70
1
10
0
20
0
30
0
3
*D8
0
LINE
5
16A
100
AcDbEntity
8
0
62
256
6
ByLayer
370
-2
48
1
60
0
100
AcDbLine
10
-36
20
-5.5875
30
0
11
-36
21
-30.67512
31
0
39
0
210
0
220
0
230
1
0
LINE
5
16B
100
AcDbEntity
8
0
62
256
6
ByLayer
370
-2
48
1
60
0
100
AcDbLine
10
0
20
-5.5875
30
0
11
0
21
-30.67512
31
0
39
0
210
0
220
0
230
1
0
LINE
5
16C
100
AcDbEntity
8
0
62
256
6
ByLayer
370
-2
48
1
60
0
100
AcDbLine
10
-32.825
20
-27.50012
30
0
11
-3.175
21
-27.50012
31
0
39
0
210
0
220
0
230
1
0
SOLID
5
16D
100
AcDbEntity
8
0
62
256
6
ByLayer
370
-1
48
1
60
0
100
AcDbTrace
10
-32.825
20
-26.970953
30
0
11
-32.825
21
-28.029287
31
0
12
-36
22
-27.50012
32
0
13
-36
23
-27.50012
33
0
39
0
210
0
220
0
230
1
0
SOLID
5
16E
100
AcDbEntity
8
0
62
256
6
ByLayer
370
-1
48
1
60
0
100
AcDbTrace
10
-3.175
20
-28.029287
30
0
11
-3.175
21
-26.970953
31
0
12
0
22
-27.50012
32
0
13
0
23
-27.50012
33
0
39
0
210
0
220
0
230
1
0
MTEXT
5
16F
100
AcDbEntity
8
0
62
256
6
ByLayer
370
18
48
1
60
0
100
AcDbMText
10
-18
20
-20.193619
30
0
210
0
220
0
230
1
1
\A1;36
40
3.50012
41
0
44
1
50
0
71
5
72
5
7
iso_b_vert
0
POINT
5
170
100
AcDbEntity
8
Defpoints
62
0
6
ByLayer
370
-1
48
1
60
0
100
AcDbPoint
10
-36
20
-4
30
0
39
0
210
0
220
0
230
1
50
360
0
POINT
5
171
100
AcDbEntity
8
Defpoints
62
0
6
ByLayer
370
-1
48
1
60
0
100
AcDbPoint
10
0
20
-4
30
0
39
0
210
0
220
0
230
1
50
360
0
POINT
5
172
100
AcDbEntity
8
Defpoints
62
0
6
ByLayer
370
-1
48
1
60
0
100
AcDbPoint
10
0
20
-27.50012
30
0
39
0
210
0
220
0
230
1
50
360
0
ENDBLK
5
169
100
AcDbEntity
8
0
100
AcDbBlockEnd
0
BLOCK
5
17E
100
AcDbEntity
8
0
100
AcDbBlockBegin
2
_U3
70
0
10
0
20
0
30
0
3
_U3
0
MTEXT
5
174
100
AcDbEntity
8
SK2
62
256
6
ByLayer
370
18
48
1
60
0
100
AcDbMText
10
-23.229611
20
-26.467451
30
0
210
0
220
0
230
1
1
\W0.7468;36.00
40
3.50012
41
0
44
1.084337
50
0
71
7
72
5
7
iso_b_vert
0
LINE
5
175
100
AcDbEntity
8
SK2
62
256
6
ByLayer
370
13
48
1
60
0
100
AcDbLine
10
-36
20
-5.5875
30
0
11
-36
21
-30.67512
31
0
39
0
210
0
220
0
230
1
0
LINE
5
176
100
AcDbEntity
8
SK2
62
256
6
ByLayer
370
13
48
1
60
0
100
AcDbLine
10
0
20
-5.5875
30
0
11
0
21
-30.67512
31
0
39
0
210
0
220
0
230
1
0
LINE
5
177
100
AcDbEntity
8
SK2
62
256
6
ByLayer
370
13
48
1
60
0
100
AcDbLine
10
-36
20
-27.50012
30
0
11
0
21
-27.50012
31
0
39
0
210
0
220
0
230
1
0
LINE
5
178
100
AcDbEntity
8
SK2
62
256
6
ByLayer
370
13
48
1
60
0
100
AcDbLine
10
-36
20
-27.50012
30
0
11
-32.825002
21
-27.082123
31
0
39
0
210
0
220
0
230
1
0
LINE
5
179
100
AcDbEntity
8
SK2
62
256
6
ByLayer
370
13
48
1
60
0
100
AcDbLine
10
-36
20
-27.50012
30
0
11
-32.824998
21
-27.918117
31
0
39
0
210
0
220
0
230
1
0
LINE
5
17A
100
AcDbEntity
8
SK2
62
256
6
ByLayer
370
13
48
1
60
0
100
AcDbLine
10
-32.825002
20
-27.082123
30
0
11
-32.824998
21
-27.918117
31
0
39
0
210
0
220
0
230
1
0
LINE
5
17B
100
AcDbEntity
8
SK2
62
256
6
ByLayer
370
13
48
1
60
0
100
AcDbLine
10
0
20
-27.50012
30
0
11
-3.174998
21
-27.918117
31
0
39
0
210
0
220
0
230
1
0
LINE
5
17C
100
AcDbEntity
8
SK2
62
256
6
ByLayer
370
13
48
1
60
0
100
AcDbLine
10
0
20
-27.50012
30
0
11
-3.175002
21
-27.082123
31
0
39
0
210
0
220
0
230
1
0
LINE
5
17D
100
AcDbEntity
8
SK2
62
256
6
ByLayer
370
13
48
1
60
0
100
AcDbLine
10
-3.174998
20
-27.918117
30
0
11
-3.175002
21
-27.082123
31
0
39
0
210
0
220
0
230
1
0
ENDBLK
5
17F
100
AcDbEntity
8
0
100
AcDbBlockEnd
0
BLOCK
5
184
100
AcDbEntity
8
0
100
AcDbBlockBegin
2
*D10
70
1
10
0
20
0
30
0
3
*D10
0
LINE
5
186
100
AcDbEntity
8
0
62
256
6
ByLayer
370
-2
48
1
60
0
100
AcDbLine
10
9
20
2.0625
30
0
11
9
21
-21.92482
31
0
39
0
210
0
220
0
230
1
0
LINE
5
187
100
AcDbEntity
8
0
62
256
6
ByLayer
370
-2
48
1
60
0
100
AcDbLine
10
43
20
-1.5875
30
0
11
43
21
-21.92482
31
0
39
0
210
0
220
0
230
1
0
LINE
5
188
100
AcDbEntity
8
0
62
256
6
ByLayer
370
-2
48
1
60
0
100
AcDbLine
10
12.175
20
-18.74982
30
0
11
39.825
21
-18.74982
31
0
39
0
210
0
220
0
230
1
0
SOLID
5
189
100
AcDbEntity
8
0
62
256
6
ByLayer
370
-1
48
1
60
0
100
AcDbTrace
10
12.175
20
-18.220653
30
0
11
12.175
21
-19.278987
31
0
12
9
22
-18.74982
32
0
13
9
23
-18.74982
33
0
39
0
210
0
220
0
230
1
0
SOLID
5
18A
100
AcDbEntity
8
0
62
256
6
ByLayer
370
-1
48
1
60
0
100
AcDbTrace
10
39.825
20
-19.278987
30
0
11
39.825
21
-18.220653
31
0
12
43
22
-18.74982
32
0
13
43
23
-18.74982
33
0
39
0
210
0
220
0
230
1
0
MTEXT
5
18B
100
AcDbEntity
8
0
62
256
6
ByLayer
370
18
48
1
60
0
100
AcDbMText
10
26
20
-11.44332
30
0
210
0
220
0
230
1
1
\A1;34
40
3.50012
41
0
44
1
50
0
71
5
72
5
7
iso_b_vert
0
POINT
5
18C
100
AcDbEntity
8
Defpoints
62
0
6
ByLayer
370
-1
48
1
60
0
100
AcDbPoint
10
9
20
3.65
30
0
39
0
210
0
220
0
230
1
50
360
0
POINT
5
18D
100
AcDbEntity
8
Defpoints
62
0
6
ByLayer
370
-1
48
1
60
0
100
AcDbPoint
10
43
20
0
30
0
39
0
210
0
220
0
230
1
50
360
0
POINT
5
18E
100
AcDbEntity
8
Defpoints
62
0
6
ByLayer
370
-1
48
1
60
0
100
AcDbPoint
10
43
20
-18.74982
30
0
39
0
210
0
220
0
230
1
50
360
0
ENDBLK
5
185
100
AcDbEntity
8
0
100
AcDbBlockEnd
0
BLOCK
5
19A
100
AcDbEntity
8
0
100
AcDbBlockBegin
2
_U4
70
0
10
0
20
0
30
0
3
_U4
0
MTEXT
5
190
100
AcDbEntity
8
SK2
62
256
6
ByLayer
370
18
48
1
60
0
100
AcDbMText
10
20.586116
20
-17.717151
30
0
210
0
220
0
230
1
1
\W0.7694;34.00
40
3.50012
41
0
44
1.084337
50
0
71
7
72
5
7
iso_b_vert
0
LINE
5
191
100
AcDbEntity
8
SK2
62
256
6
ByLayer
370
13
48
1
60
0
100
AcDbLine
10
9
20
2.0625
30
0
11
9
21
-21.92482
31
0
39
0
210
0
220
0
230
1
0
LINE
5
192
100
AcDbEntity
8
SK2
62
256
6
ByLayer
370
13
48
1
60
0
100
AcDbLine
10
43
20
-1.5875
30
0
11
43
21
-21.92482
31
0
39
0
210
0
220
0
230
1
0
LINE
5
193
100
AcDbEntity
8
SK2
62
256
6
ByLayer
370
13
48
1
60
0
100
AcDbLine
10
9
20
-18.74982
30
0
11
43
21
-18.74982
31
0
39
0
210
0
220
0
230
1
0
LINE
5
194
100
AcDbEntity
8
SK2
62
256
6
ByLayer
370
13
48
1
60
0
100
AcDbLine
10
9
20
-18.74982
30
0
11
12.174998
21
-18.331823
31
0
39
0
210
0
220
0
230
1
0
LINE
5
195
100
AcDbEntity
8
SK2
62
256
6
ByLayer
370
13
48
1
60
0
100
AcDbLine
10
9
20
-18.74982
30
0
11
12.175002
21
-19.167817
31
0
39
0
210
0
220
0
230
1
0
LINE
5
196
100
AcDbEntity
8
SK2
62
256
6
ByLayer
370
13
48
1
60
0
100
AcDbLine
10
12.174998
20
-18.331823
30
0
11
12.175002
21
-19.167817
31
0
39
0
210
0
220
0
230
1
0
LINE
5
197
100
AcDbEntity
8
SK2
62
256
6
ByLayer
370
13
48
1
60
0
100
AcDbLine
10
43
20
-18.74982
30
0
11
39.825002
21
-19.167817
31
0
39
0
210
0
220
0
230
1
0
LINE
5
198
100
AcDbEntity
8
SK2
62
256
6
ByLayer
370
13
48
1
60
0
100
AcDbLine
10
43
20
-18.74982
30
0
11
39.824998
21
-18.331823
31
0
39
0
210
0
220
0
230
1
0
LINE
5
199
100
AcDbEntity
8
SK2
62
256
6
ByLayer
370
13
48
1
60
0
100
AcDbLine
10
39.825002
20
-19.167817
30
0
11
39.824998
21
-18.331823
31
0
39
0
210
0
220
0
230
1
0
ENDBLK
5
19B
100
AcDbEntity
8
0
100
AcDbBlockEnd
0
BLOCK
5
1A0
100
AcDbEntity
8
0
100
AcDbBlockBegin
2
*D12
70
1
10
0
20
0
30
0
3
*D12
0
LINE
5
1A2
100
AcDbEntity
8
0
62
256
6
ByLayer
370
-2
48
1
60
0
100
AcDbLine
10
23
20
-4.7375
30
0
11
23
21
-11.32
31
0
39
0
210
0
220
0
230
1
0
LINE
5
1A3
100
AcDbEntity
8
0
62
256
6
ByLayer
370
-2
48
1
60
0
100
AcDbLine
10
43
20
-1.5875
30
0
11
43
21
-11.32
31
0
39
0
210
0
220
0
230
1
0
LINE
5
1A4
100
AcDbEntity
8
0
62
256
6
ByLayer
370
-2
48
1
60
0
100
AcDbLine
10
26.175
20
-10.82
30
0
11
39.825
21
-10.82
31
0
39
0
210
0
220
0
230
1
0
SOLID
5
1A5
100
AcDbEntity
8
0
62
256
6
ByLayer
370
-1
48
1
60
0
100
AcDbTrace
10
26.175
20
-10.290833
30
0
11
26.175
21
-11.349167
31
0
12
23
22
-10.82
32
0
13
23
23
-10.82
33
0
39
0
210
0
220
0
230
1
0
SOLID
5
1A6
100
AcDbEntity
8
0
62
256
6
ByLayer
370
-1
48
1
60
0
100
AcDbTrace
10
39.825
20
-11.349167
30
0
11
39.825
21
-10.290833
31
0
12
43
22
-10.82
32
0
13
43
23
-10.82
33
0
39
0
210
0
220
0
230
1
0
MTEXT
5
1A7
100
AcDbEntity
8
0
62
256
6
ByLayer
370
18
48
1
60
0
100
AcDbMText
10
33
20
-4.975
30
0
210
0
220
0
230
1
1
\A1;20
40
2.8
41
0
44
1
50
0
71
5
72
5
7
iso_b_vert
0
POINT
5
1A8
100
AcDbEntity
8
Defpoints
62
0
6
ByLayer
370
-1
48
1
60
0
100
AcDbPoint
10
23
20
-3.15
30
0
39
0
210
0
220
0
230
1
50
360
0
POINT
5
1A9
100
AcDbEntity
8
Defpoints
62
0
6
ByLayer
370
-1
48
1
60
0
100
AcDbPoint
10
43
20
0
30
0
39
0
210
0
220
0
230
1
50
360
0
POINT
5
1AA
100
AcDbEntity
8
Defpoints
62
0
6
ByLayer
370
-1
48
1
60
0
100
AcDbPoint
10
43
20
-10.82
30
0
39
0
210
0
220
0
230
1
50
360
0
ENDBLK
5
1A1
100
AcDbEntity
8
0
100
AcDbBlockEnd
0
BLOCK
5
1B6
100
AcDbEntity
8
0
100
AcDbBlockBegin
2
_U5
70
0
10
0
20
0
30
0
3
_U5
0
MTEXT
5
1AC
100
AcDbEntity
8
SK2
62
256
6
ByLayer
370
18
48
1
60
0
100
AcDbMText
10
28.816454
20
-10.973893
30
0
210
0
220
0
230
1
1
\W0.7468;20.00
40
2.8
41
0
44
1.084337
50
0
71
7
72
5
7
iso_b_vert
0
LINE
5
1AD
100
AcDbEntity
8
SK2
62
256
6
ByLayer
370
13
48
1
60
0
100
AcDbLine
10
23
20
-4.7375
30
0
11
23
21
-11.32
31
0
39
0
210
0
220
0
230
1
0
LINE
5
1AE
100
AcDbEntity
8
SK2
62
256
6
ByLayer
370
13
48
1
60
0
100
AcDbLine
10
43
20
-1.5875
30
0
11
43
21
-11.32
31
0
39
0
210
0
220
0
230
1
0
LINE
5
1AF
100
AcDbEntity
8
SK2
62
256
6
ByLayer
370
13
48
1
60
0
100
AcDbLine
10
23
20
-10.82
30
0
11
43
21
-10.82
31
0
39
0
210
0
220
0
230
1
0
LINE
5
1B0
100
AcDbEntity
8
SK2
62
256
6
ByLayer
370
13
48
1
60
0
100
AcDbLine
10
23
20
-10.82
30
0
11
26.174998
21
-10.402003
31
0
39
0
210
0
220
0
230
1
0
LINE
5
1B1
100
AcDbEntity
8
SK2
62
256
6
ByLayer
370
13
48
1
60
0
100
AcDbLine
10
23
20
-10.82
30
0
11
26.175002
21
-11.237997
31
0
39
0
210
0
220
0
230
1
0
LINE
5
1B2
100
AcDbEntity
8
SK2
62
256
6
ByLayer
370
13
48
1
60
0
100
AcDbLine
10
26.174998
20
-10.402003
30
0
11
26.175002
21
-11.237997
31
0
39
0
210
0
220
0
230
1
0
LINE
5
1B3
100
AcDbEntity
8
SK2
62
256
6
ByLayer
370
13
48
1
60
0
100
AcDbLine
10
43
20
-10.82
30
0
11
39.825002
21
-11.237997
31
0
39
0
210
0
220
0
230
1
0
LINE
5
1B4
100
AcDbEntity
8
SK2
62
256
6
ByLayer
370
13
48
1
60
0
100
AcDbLine
10
43
20
-10.82
30
0
11
39.824998
21
-10.402003
31
0
39
0
210
0
220
0
230
1
0
LINE
5
1B5
100
AcDbEntity
8
SK2
62
256
6
ByLayer
370
13
48
1
60
0
100
AcDbLine
10
39.825002
20
-11.237997
30
0
11
39.824998
21
-10.402003
31
0
39
0
210
0
220
0
230
1
0
ENDBLK
5
1B7
100
AcDbEntity
8
0
100
AcDbBlockEnd
0
BLOCK
5
1BC
100
AcDbEntity
8
0
100
AcDbBlockBegin
2
*D14
70
1
10
0
20
0
30
0
3
*D14
0
LINE
5
1BE
100
AcDbEntity
8
0
62
256
6
ByLayer
370
-2
48
1
60
0
100
AcDbLine
10
-36
20
-1.5875
30
0
11
-36
21
-40.67512
31
0
39
0
210
0
220
0
230
1
0
LINE
5
1BF
100
AcDbEntity
8
0
62
256
6
ByLayer
370
-2
48
1
60
0
100
AcDbLine
10
43
20
-1.5875
30
0
11
43
21
-40.67512
31
0
39
0
210
0
220
0
230
1
0
LINE
5
1C0
100
AcDbEntity
8
0
62
256
6
ByLayer
370
-2
48
1
60
0
100
AcDbLine
10
-32.825
20
-37.50012
30
0
11
39.825
21
-37.50012
31
0
39
0
210
0
220
0
230
1
0
SOLID
5
1C1
100
AcDbEntity
8
0
62
256
6
ByLayer
370
-1
48
1
60
0
100
AcDbTrace
10
-32.825
20
-36.970953
30
0
11
-32.825
21
-38.029287
31
0
12
-36
22
-37.50012
32
0
13
-36
23
-37.50012
33
0
39
0
210
0
220
0
230
1
0
SOLID
5
1C2
100
AcDbEntity
8
0
62
256
6
ByLayer
370
-1
48
1
60
0
100
AcDbTrace
10
39.825
20
-38.029287
30
0
11
39.825
21
-36.970953
31
0
12
43
22
-37.50012
32
0
13
43
23
-37.50012
33
0
39
0
210
0
220
0
230
1
0
MTEXT
5
1C3
100
AcDbEntity
8
0
62
256
6
ByLayer
370
18
48
1
60
0
100
AcDbMText
10
3.5
20
-30.19362
30
0
210
0
220
0
230
1
1
\A1;79
40
3.50012
41
0
44
1
50
0
71
5
72
5
7
iso_b_vert
0
POINT
5
1C4
100
AcDbEntity
8
Defpoints
62
0
6
ByLayer
370
-1
48
1
60
0
100
AcDbPoint
10
-36
20
0
30
0
39
0
210
0
220
0
230
1
50
360
0
POINT
5
1C5
100
AcDbEntity
8
Defpoints
62
0
6
ByLayer
370
-1
48
1
60
0
100
AcDbPoint
10
43
20
0
30
0
39
0
210
0
220
0
230
1
50
360
0
POINT
5
1C6
100
AcDbEntity
8
Defpoints
62
0
6
ByLayer
370
-1
48
1
60
0
100
AcDbPoint
10
43
20
-37.50012
30
0
39
0
210
0
220
0
230
1
50
360
0
ENDBLK
5
1BD
100
AcDbEntity
8
0
100
AcDbBlockEnd
0
BLOCK
5
1D2
100
AcDbEntity
8
0
100
AcDbBlockBegin
2
_U6
70
0
10
0
20
0
30
0
3
_U6
0
MTEXT
5
1C8
100
AcDbEntity
8
SK2
62
256
6
ByLayer
370
18
48
1
60
0
100
AcDbMText
10
-1.729611
20
-36.467451
30
0
210
0
220
0
230
1
1
\W0.7468;79.00
40
3.50012
41
0
44
1.084337
50
0
71
7
72
5
7
iso_b_vert
0
LINE
5
1C9
100
AcDbEntity
8
SK2
62
256
6
ByLayer
370
13
48
1
60
0
100
AcDbLine
10
-36
20
-1.5875
30
0
11
-36
21
-40.67512
31
0
39
0
210
0
220
0
230
1
0
LINE
5
1CA
100
AcDbEntity
8
SK2
62
256
6
ByLayer
370
13
48
1
60
0
100
AcDbLine
10
43
20
-1.5875
30
0
11
43
21
-40.67512
31
0
39
0
210
0
220
0
230
1
0
LINE
5
1CB
100
AcDbEntity
8
SK2
62
256
6
ByLayer
370
13
48
1
60
0
100
AcDbLine
10
-36
20
-37.50012
30
0
11
43
21
-37.50012
31
0
39
0
210
0
220
0
230
1
0
LINE
5
1CC
100
AcDbEntity
8
SK2
62
256
6
ByLayer
370
13
48
1
60
0
100
AcDbLine
10
-36
20
-37.50012
30
0
11
-32.825002
21
-37.082123
31
0
39
0
210
0
220
0
230
1
0
LINE
5
1CD
100
AcDbEntity
8
SK2
62
256
6
ByLayer
370
13
48
1
60
0
100
AcDbLine
10
-36
20
-37.50012
30
0
11
-32.824998
21
-37.918117
31
0
39
0
210
0
220
0
230
1
0
LINE
5
1CE
100
AcDbEntity
8
SK2
62
256
6
ByLayer
370
13
48
1
60
0
100
AcDbLine
10
-32.825002
20
-37.082123
30
0
11
-32.824998
21
-37.918117
31
0
39
0
210
0
220
0
230
1
0
LINE
5
1CF
100
AcDbEntity
8
SK2
62
256
6
ByLayer
370
13
48
1
60
0
100
AcDbLine
10
43
20
-37.50012
30
0
11
39.825002
21
-37.918117
31
0
39
0
210
0
220
0
230
1
0
LINE
5
1D0
100
AcDbEntity
8
SK2
62
256
6
ByLayer
370
13
48
1
60
0
100
AcDbLine
10
43
20
-37.50012
30
0
11
39.824998
21
-37.082123
31
0
39
0
210
0
220
0
230
1
0
LINE
5
1D1
100
AcDbEntity
8
SK2
62
256
6
ByLayer
370
13
48
1
60
0
100
AcDbLine
10
39.825002
20
-37.918117
30
0
11
39.824998
21
-37.082123
31
0
39
0
210
0
220
0
230
1
0
ENDBLK
5
1D3
100
AcDbEntity
8
0
100
AcDbBlockEnd
0
ENDSEC
0
SECTION
2
ENTITIES
0
ARC
5
AA
100
AcDbEntity
8
1
62
256
6
ByLayer
370
18
48
1
60
0
100
AcDbCircle
39
0
10
1.426451
20
3.924732
30
0
40
0.800000000000007
210
0
220
0
230
1
100
AcDbArc
50
206.9336
51
270.03581
0
ARC
5
AB
100
AcDbEntity
8
1
62
256
6
ByLayer
370
18
48
1
60
0
100
AcDbCircle
39
0
10
1.426451
20
-3.924732
30
0
40
0.800000000000007
210
0
220
0
230
1
100
AcDbArc
50
89.96419
51
153.0664
0
ARC
5
AC
100
AcDbEntity
8
1
62
256
6
ByLayer
370
18
48
1
60
0
100
AcDbCircle
39
0
10
0
20
3.2
30
0
40
0.799999999999999
210
0
220
0
230
1
100
AcDbArc
50
26.9336
51
90
0
ARC
5
AD
100
AcDbEntity
8
1
62
256
6
ByLayer
370
18
48
1
60
0
100
AcDbCircle
39
0
10
0
20
-3.2
30
0
40
0.799999999999999
210
0
220
0
230
1
100
AcDbArc
50
270
51
333.0664
0
ARC
5
AE
100
AcDbEntity
8
SK2
62
256
6
ByLayer
370
13
48
1
60
0
100
AcDbCircle
39
0
10
43
20
0
30
0
40
20
210
0
220
0
230
1
100
AcDbArc
50
9.606349
51
70.0001
0
ARC
5
AF
100
AcDbEntity
8
SK2
62
256
6
ByLayer
370
13
48
1
60
0
100
AcDbCircle
39
0
10
43
20
0
30
0
40
20
210
0
220
0
230
1
100
AcDbArc
50
289.9999
51
350.393651
0
ELLIPSE
5
B0
100
AcDbEntity
8
1
62
256
6
ByLayer
370
18
48
1
60
0
100
AcDbEllipse
10
10.566033
20
-0.164958
30
0
11
0.00376097299298022
21
0.00926580175408871
31
0
210
0
220
0
230
1
40
0.388436
41
1.67296354134269
42
3.08338614736842
0
ELLIPSE
5
B1
100
AcDbEntity
8
1
62
256
6
ByLayer
370
18
48
1
60
0
100
AcDbEllipse
10
10.602311
20
2.877178
30
0
11
-4.68742835759033E-05
21
0.0099998901394735
31
0
210
0
220
0
230
1
40
0.00823
41
-2.87361620774158
42
-1.30342620531165
0
ELLIPSE
5
B2
100
AcDbEntity
8
1
62
256
6
ByLayer
370
18
48
1
60
0
100
AcDbEllipse
10
10.63772
20
2.875403
30
0
11
-0.00109815366810536
21
-0.00993952003475152
31
0
210
0
220
0
230
1
40
0.387126
41
0.294034296151881
42
1.85942471138928
0
ELLIPSE
5
B3
100
AcDbEntity
8
1
62
256
6
ByLayer
370
18
48
1
60
0
100
AcDbEllipse
10
10.601826
20
-0.179917
30
0
11
-0.0039499572640839
21
-0.00918682957346608
31
0
210
0
220
0
230
1
40
0.02274
41
-1.62693358272395
42
-0.0584970911281541
0
POINT
5
70
100
AcDbEntity
8
80
62
256
6
ByLayer
370
18
48
1
60
0
100
AcDbPoint
10
0
20
0
30
0
39
0
210
0
220
0
230
1
50
360
0
POINT
5
72
100
AcDbEntity
8
81
62
256
6
ByLayer
370
18
48
1
60
0
100
AcDbPoint
10
43
20
0
30
0
39
0
210
0
220
0
230
1
50
360
0
POINT
5
74
100
AcDbEntity
8
1
62
256
6
ByLayer
370
18
48
1
60
0
100
AcDbPoint
10
-36
20
0
30
0
39
0
210
0
220
0
230
1
50
360
0
POINT
5
76
100
AcDbEntity
8
1
62
256
6
ByLayer
370
18
48
1
60
1
100
AcDbPoint
10
0
20
-4
30
0
39
0
210
0
220
0
230
1
50
360
0
POINT
5
77
100
AcDbEntity
8
1
62
256
6
ByLayer
370
18
48
1
60
1
100
AcDbPoint
10
43
20
0
30
0
39
0
210
0
220
0
230
1
50
360
0
POINT
5
78
100
AcDbEntity
8
1
62
256
6
ByLayer
370
18
48
1
60
1
100
AcDbPoint
10
41.8535
20
-3.15
30
0
39
0
210
0
220
0
230
1
50
360
0
POINT
5
79
100
AcDbEntity
8
1
62
256
6
ByLayer
370
18
48
1
60
1
100
AcDbPoint
10
41.8535
20
3.15
30
0
39
0
210
0
220
0
230
1
50
360
0
POINT
5
7A
100
AcDbEntity
8
1
62
256
6
ByLayer
370
18
48
1
60
1
100
AcDbPoint
10
-36
20
4
30
0
39
0
210
0
220
0
230
1
50
360
0
POINT
5
7B
100
AcDbEntity
8
1
62
256
6
ByLayer
370
18
48
1
60
1
100
AcDbPoint
10
-36
20
-4
30
0
39
0
210
0
220
0
230
1
50
360
0
POINT
5
7C
100
AcDbEntity
8
1
62
256
6
ByLayer
370
18
48
1
60
1
100
AcDbPoint
10
-36
20
-4
30
0
39
0
210
0
220
0
230
1
50
360
0
POINT
5
7D
100
AcDbEntity
8
1
62
256
6
ByLayer
370
18
48
1
60
1
100
AcDbPoint
10
0
20
-4
30
0
39
0
210
0
220
0
230
1
50
360
0
POINT
5
7E
100
AcDbEntity
8
1
62
256
6
ByLayer
370
18
48
1
60
1
100
AcDbPoint
10
9
20
3.65
30
0
39
0
210
0
220
0
230
1
50
360
0
POINT
5
7F
100
AcDbEntity
8
1
62
256
6
ByLayer
370
18
48
1
60
1
100
AcDbPoint
10
43
20
0
30
0
39
0
210
0
220
0
230
1
50
360
0
POINT
5
80
100
AcDbEntity
8
1
62
256
6
ByLayer
370
18
48
1
60
1
100
AcDbPoint
10
23
20
-3.15
30
0
39
0
210
0
220
0
230
1
50
360
0
POINT
5
81
100
AcDbEntity
8
1
62
256
6
ByLayer
370
18
48
1
60
1
100
AcDbPoint
10
43
20
0
30
0
39
0
210
0
220
0
230
1
50
360
0
POINT
5
82
100
AcDbEntity
8
1
62
256
6
ByLayer
370
18
48
1
60
1
100
AcDbPoint
10
-36
20
0
30
0
39
0
210
0
220
0
230
1
50
360
0
POINT
5
83
100
AcDbEntity
8
1
62
256
6
ByLayer
370
18
48
1
60
1
100
AcDbPoint
10
43
20
0
30
0
39
0
210
0
220
0
230
1
50
360
0
SPLINE
5
B4
100
AcDbEntity
8
1
62
256
6
ByLayer
370
18
48
1
60
0
100
AcDbSpline
70
4
71
3
72
10
73
6
40
0
40
0
40
0
40
0
40
0.5
40
0.5
40
1
40
1
40
1
40
1
41
1
10
10.5620685773702
20
-0.164449483574373
30
0
41
1
10
10.5412292437557
20
-0.15691126192749
30
0
41
1
10
10.5261833769744
20
-0.144678292294856
30
0
41
1
10
10.5064733548375
20
-0.117497605748611
30
0
41
1
10
10.5017083818955
20
-0.102264190061135
30
0
41
1
10
10.5017083818954
20
-0.0872115451909963
30
0
0
SPLINE
5
B5
100
AcDbEntity
8
1
62
256
6
ByLayer
370
18
48
1
60
0
100
AcDbSpline
70
4
71
3
72
10
73
6
40
0
40
0
40
0
40
0
40
0.5
40
0.5
40
1
40
1
40
1
40
1
41
1
10
41.6996566541555
20
3.11134313026292
30
0
41
1
10
41.7020570274353
20
3.12293174833206
30
0
41
1
10
41.7043363726498
20
3.13196181591053
30
0
41
1
10
41.708541972856
20
3.14477528212413
30
0
41
1
10
41.7104912295623
20
3.14851953144696
30
0
41
1
10
41.7123451298366
20
3.14958794484753
30
0
0
SPLINE
5
B6
100
AcDbEntity
8
1
62
256
6
ByLayer
370
18
48
1
60
0
100
AcDbSpline
70
4
71
3
72
20
73
16
40
0
40
0
40
0
40
0
40
0.070813191195098
40
0.070813191195098
40
0.225677659329246
40
0.225677659329246
40
0.380542127463395
40
0.380542127463395
40
0.45797436153047
40
0.45797436153047
40
0.535406595597545
40
0.535406595597545
40
0.690271063731696
40
0.690271063731696
40
1
40
1
40
1
40
1
41
1
10
23.1197097026374
20
-2.99693368681864
30
0
41
1
10
22.8213644785795
20
-3.0368844554832
30
0
41
1
10
22.5214730584928
20
-3.06864126216564
30
0
41
1
10
21.570805788472
20
-3.14169019304731
30
0
41
1
10
20.9236949360656
20
-3.15013431320781
30
0
41
1
10
19.6316621884073
20
-3.08551160591358
30
0
41
1
10
18.9866201929662
20
-3.01248471253936
30
0
41
1
10
18.0144093590829
20
-2.84475924967904
30
0
41
1
10
17.6895309245024
20
-2.77919105605284
30
-1E-16
41
1
10
17.0370815438155
20
-2.62948820328717
30
-1E-16
41
1
10
16.7088635653897
20
-2.54509109532225
30
-1E-16
41
1
10
15.7314628517283
20
-2.2691698397611
30
1E-16
41
1
10
15.0855930015086
20
-2.05432755542688
30
1E-16
41
1
10
13.1525213655278
20
-1.34103807883497
30
1E-16
41
1
10
11.8700225813632
20
-0.773008267846933
30
0
41
1
10
10.5604937070315
20
-0.181588771100564
30
0
0
SPLINE
5
B7
100
AcDbEntity
8
1
62
256
6
ByLayer
370
18
48
1
60
0
100
AcDbSpline
70
4
71
3
72
8
73
4
40
0
40
0
40
0
40
0
40
1
40
1
40
1
40
1
41
1
10
42.4717528724694
20
-0.33120686551743
30
0
41
1
10
42.3978834274749
20
-0.134020812703284
30
0
41
1
10
42.3105539893118
20
0.0720790006643881
30
0
41
1
10
42.2098531465151
20
0.287033907618593
30
0
0
SPLINE
5
B8
100
AcDbEntity
8
1
62
256
6
ByLayer
370
18
48
1
60
0
100
AcDbSpline
70
4
71
3
72
8
73
4
40
0
40
0
40
0
40
0
40
1
40
1
40
1
40
1
41
1
10
41.6996566541584
20
3.11134313025929
30
0
41
1
10
41.7535095985295
20
3.07982344833638
30
0
41
1
10
41.8074659226746
20
3.04782016495076
30
0
41
1
10
41.8615423479382
20
3.01534486021424
30
0
0
SPLINE
5
B9
100
AcDbEntity
8
1
62
256
6
ByLayer
370
18
48
1
60
0
100
AcDbSpline
70
4
71
3
72
20
73
16
40
0
40
0
40
0
40
0
40
0.101976144328297
40
0.101976144328297
40
0.251646786940247
40
0.251646786940247
40
0.401317429552198
40
0.401317429552198
40
0.550988072164148
40
0.550988072164148
40
0.700658714776099
40
0.700658714776099
40
0.850329357388049
40
0.850329357388049
40
1
40
1
40
1
40
1
41
1
10
41.7200893779306
20
0.45909406916428
30
0
41
1
10
41.7093940087033
20
0.470878231570737
30
0
41
1
10
41.7012938925253
20
0.483554800785981
30
0
41
1
10
41.6884090669225
20
0.516860187642578
30
0
41
1
10
41.6866218458141
20
0.538827513818347
30
0
41
1
10
41.6953584071891
20
0.587207563604409
30
0
41
1
10
41.7056404223533
20
0.612926387789486
30
0
41
1
10
41.7383059432679
20
0.667758616735398
30
0
41
1
10
41.7606873349344
20
0.696653033844115
30
0
41
1
10
41.8163079279836
20
0.753169064606539
30
0
41
1
10
41.8504877599141
20
0.781584342816274
30
0
41
1
10
41.9272839488245
20
0.83225949446603
30
0
41
1
10
41.9710743705884
20
0.855205942481973
30
0
41
1
10
42.0639082539142
20
0.891188798119401
30
0
41
1
10
42.1131600381686
20
0.904419523716626
30
0
41
1
10
42.1637460195892
20
0.912512294443474
30
0
0
SPLINE
5
BA
100
AcDbEntity
8
1
62
256
6
ByLayer
370
18
48
1
60
0
100
AcDbSpline
70
4
71
3
72
8
73
4
40
0
40
0
40
0
40
0
40
1
40
1
40
1
40
1
41
1
10
41.9018922015525
20
-3.02334670593996
30
0
41
1
10
41.9031406757289
20
-3.02250555512535
30
0
41
1
10
41.9043891648089
20
-3.02166435325586
30
0
41
1
10
41.9056376688499
20
-3.02082310037159
30
0
0
SPLINE
5
BB
100
AcDbEntity
8
1
62
256
6
ByLayer
370
18
48
1
60
0
100
AcDbSpline
70
4
71
3
72
30
73
26
40
0
40
0
40
0
40
0
40
0.106917654020358
40
0.106917654020358
40
0.213835308040717
40
0.213835308040717
40
0.320752962061075
40
0.320752962061075
40
0.427670616081434
40
0.427670616081434
40
0.534588270101792
40
0.534588270101792
40
0.588047097111972
40
0.588047097111972
40
0.641505924122151
40
0.641505924122151
40
0.748423578142511
40
0.748423578142511
40
0.80188240515269
40
0.80188240515269
40
0.85534123216287
40
0.85534123216287
40
0.962258886183226
40
0.962258886183226
40
1
40
1
40
1
40
1
41
1
10
10.6417209295149
20
2.87782447534923
30
0
41
1
10
10.9654016890237
20
2.84248288407778
30
0
41
1
10
11.2891059946601
20
2.79650877490778
30
1E-16
41
1
10
11.9373056410913
20
2.68572516503801
30
1E-16
41
1
10
12.2623769435375
20
2.62074997723875
30
1E-16
41
1
10
12.9093725991243
20
2.47515204800772
30
1E-16
41
1
10
13.2314426645042
20
2.3947106159585
30
1E-16
41
1
10
13.8739515978298
20
2.21918176325803
30
-1E-16
41
1
10
14.1944495176786
20
2.12402375327105
30
-1E-16
41
1
10
14.8350489340486
20
1.92085571391093
30
-1E-16
41
1
10
15.1551368670708
20
1.81284250705806
30
-1E-16
41
1
10
15.6354002195889
20
1.6426389996505
30
-1E-16
41
1
10
15.7955034693176
20
1.58453361664283
30
-1E-16
41
1
10
16.1156908079827
20
1.46570798523857
30
-1E-16
41
1
10
16.2757931069487
20
1.40500098518893
30
-1E-16
41
1
10
16.7569349792776
20
1.21959804056721
30
-1E-16
41
1
10
17.078756967902
20
1.09158080818111
30
-1E-16
41
1
10
17.5628688620891
20
0.894064308037088
30
-1E-16
41
1
10
17.7244683394725
20
0.827307731100007
30
-1E-16
41
1
10
18.0480554517313
20
0.691963021996912
30
0
41
1
10
18.2102428532446
20
0.623307062036076
30
0
41
1
10
18.6954144366183
20
0.417213919834808
30
0
41
1
10
19.0176996217867
20
0.279310243068096
30
0
41
1
10
19.4525520793992
20
0.092375536357423
30
0
41
1
10
19.5658781087093
20
0.0435229875986067
30
0
41
1
10
19.6791042327194
20
-0.0053412463783218
30
0
0
SPLINE
5
BC
100
AcDbEntity
8
1
62
256
6
ByLayer
370
18
48
1
60
0
100
AcDbSpline
70
4
71
3
72
24
73
20
40
0
40
0
40
0
40
0
40
0.0654642307886952
40
0.0654642307886952
40
0.252371384630949
40
0.252371384630949
40
0.345824961552077
40
0.345824961552077
40
0.392551750012643
40
0.392551750012643
40
0.439278538473209
40
0.439278538473209
40
0.626185692315473
40
0.626185692315473
40
0.813092846157736
40
0.813092846157736
40
0.906546423078868
40
0.906546423078868
40
1
40
1
40
1
40
1
41
1
10
31.442317154737
20
0.212042638605595
30
0
41
1
10
31.6691094490447
20
0.114442907934944
30
0
41
1
10
31.895720914895
20
0.016582465690874
30
0
41
1
10
32.7693574397986
20
-0.359955040098725
30
0
41
1
10
33.4160785586374
20
-0.638097006344481
30
0
41
1
10
34.3918505066217
20
-1.03961611312147
30
1E-16
41
1
10
34.7180326283935
20
-1.17089531172874
30
1E-16
41
1
10
35.2094682269583
20
-1.36212348571263
30
1E-16
41
1
10
35.3737526135028
20
-1.42494704022073
30
1E-16
41
1
10
35.7011367865286
20
-1.5476251472349
30
1E-16
41
1
10
35.864480486475
20
-1.60757886350788
30
1E-16
41
1
10
36.6797643955709
20
-1.89992896005541
30
1E-16
41
1
10
37.3273831781535
20
-2.1102559647008
30
1E-16
41
1
10
38.6210788774628
20
-2.470158846468
30
-1E-16
41
1
10
39.2674009231881
20
-2.61988499561397
30
-1E-16
41
1
10
40.2416176985616
20
-2.79124963056282
30
-1E-16
41
1
10
40.567168187974
20
-2.83954181351433
30
0
41
1
10
41.2208015674827
20
-2.91712382778769
30
0
41
1
10
41.5492457971077
20
-2.94597970968996
30
0
41
1
10
41.8773382751295
20
-2.96547083699795
30
0
0
SPLINE
5
BD
100
AcDbEntity
8
1
62
256
6
ByLayer
370
18
48
1
60
0
100
AcDbSpline
70
4
71
3
72
8
73
4
40
0
40
0
40
0
40
0
40
1
40
1
40
1
40
1
41
1
10
10.5978703446523
20
-0.189082478353043
30
0
41
1
10
10.5855492622723
20
-0.183785979313996
30
0
41
1
10
10.5735216711861
20
-0.178770902725489
30
0
41
1
10
10.5620685773702
20
-0.174122871105311
30
0
0
SPLINE
5
BE
100
AcDbEntity
8
1
62
256
6
ByLayer
370
18
48
1
60
0
100
AcDbSpline
70
4
71
3
72
16
73
12
40
0
40
0
40
0
40
0
40
0.246608534905487
40
0.246608534905487
40
0.493217069810973
40
0.493217069810973
40
0.739825604716459
40
0.739825604716459
40
0.986434139621946
40
0.986434139621946
40
1
40
1
40
1
40
1
41
1
10
41.9018922010186
20
3.02334670630691
30
0
41
1
10
41.4787837785291
20
3.02635515866996
30
0
41
1
10
41.056445767269
20
3.01263034670777
30
0
41
1
10
40.2109624470409
20
2.9513133600698
30
0
41
1
10
39.7875025892014
20
2.90416896211374
30
0
41
1
10
38.9408117017567
20
2.77728882739984
30
1E-16
41
1
10
38.5175742717752
20
2.69828874448564
30
1E-16
41
1
10
37.6723529186621
20
2.51035865080519
30
1E-16
41
1
10
37.2500165083065
20
2.40190086428689
30
1E-16
41
1
10
36.8034475106796
20
2.27372886812924
30
0
41
1
10
36.7801649963157
20
2.26700828257407
30
0
41
1
10
36.7568845742646
20
2.26025047152322
30
0
0
SPLINE
5
BF
100
AcDbEntity
8
1
62
256
6
ByLayer
370
18
48
1
60
0
100
AcDbSpline
70
4
71
3
72
10
73
6
40
0
40
0
40
0
40
0
40
0.5
40
0.5
40
1
40
1
40
1
40
1
41
1
10
10.5017083818954
20
2.99367076863092
30
0
41
1
10
10.5017083818954
20
3.00350858822552
30
0
41
1
10
10.5194024632202
20
3.01235755579714
30
0
41
1
10
10.5759229547872
20
3.02206753564732
30
0
41
1
10
10.6127594391098
20
3.02275717823755
30
0
41
1
10
10.6433562797238
20
3.01906937984594
30
0
0
SPLINE
5
C0
100
AcDbEntity
8
1
62
256
6
ByLayer
370
18
48
1
60
0
100
AcDbSpline
70
4
71
3
72
20
73
16
40
0
40
0
40
0
40
0
40
0.035098846183378
40
0.035098846183378
40
0.195915705152815
40
0.195915705152815
40
0.356732564122252
40
0.356732564122252
40
0.517549423091689
40
0.517549423091689
40
0.678366282061126
40
0.678366282061126
40
0.839183141030563
40
0.839183141030563
40
1
40
1
40
1
40
1
41
1
10
14.8851590820744
20
2.32698888000542
30
0
41
1
10
14.9637004291012
20
2.35083708520125
30
0
41
1
10
15.0422638335062
20
2.37423999033012
30
0
41
1
10
15.4809604009661
20
2.50230860709803
30
1E-16
41
1
10
15.8418058421691
20
2.59791269082399
30
1E-16
41
1
10
16.5614443627282
20
2.76685280746364
30
1E-16
41
1
10
16.9208626244394
20
2.84032166887758
30
0
41
1
10
17.6402569519461
20
2.9639127821149
30
0
41
1
10
18.0008040573573
20
3.01404963715964
30
0
41
1
10
18.7212908020845
20
3.08936065528872
30
0
41
1
10
19.0807817312114
20
3.11454812345309
30
0
41
1
10
19.7999012659228
20
3.1395683958028
30
0
41
1
10
20.1594537698435
20
3.13941813332474
30
0
41
1
10
20.8801149316355
20
3.11360173576139
30
0
41
1
10
21.2404049689664
20
3.08794639987011
30
0
41
1
10
21.6
20
3.04995117392269
30
0
0
SPLINE
5
C1
100
AcDbEntity
8
1
62
256
6
ByLayer
370
18
48
1
60
0
100
AcDbSpline
70
4
71
3
72
10
73
6
40
0
40
0
40
0
40
0
40
0.5
40
0.5
40
1
40
1
40
1
40
1
41
1
10
10.5620685773702
20
-0.174122871105311
30
0
41
1
10
10.5412265261017
20
-0.165610740756819
30
0
41
1
10
10.5261865622471
20
-0.151813595592273
30
0
41
1
10
10.5064770897644
20
-0.121221185343558
30
0
41
1
10
10.5017083818954
20
-0.104102747971098
30
0
41
1
10
10.5017083818954
20
-0.0872115451909963
30
0
0
SPLINE
5
C2
100
AcDbEntity
8
1
62
256
6
ByLayer
370
18
48
1
60
0
100
AcDbSpline
70
4
71
3
72
26
73
22
40
0
40
0
40
0
40
0
40
0.125
40
0.125
40
0.25
40
0.25
40
0.3125
40
0.3125
40
0.375
40
0.375
40
0.4375
40
0.4375
40
0.5
40
0.5
40
0.625
40
0.625
40
0.75
40
0.75
40
0.875
40
0.875
40
1
40
1
40
1
40
1
41
1
10
42.9560730419308
20
0.0379207453437971
30
0
41
1
10
42.9408250330102
20
-0.0123540717285948
30
0
41
1
10
42.9232943268799
20
-0.061479495175206
30
0
41
1
10
42.8834956403414
20
-0.157266319119685
30
0
41
1
10
42.8611636131178
20
-0.203813044074849
30
0
41
1
10
42.8260445262711
20
-0.266920955301316
30
0
41
1
10
42.8139874548272
20
-0.287026959465578
30
0
41
1
10
42.7891348906451
20
-0.325211684426051
30
0
41
1
10
42.7763686495787
20
-0.343203822881151
30
0
41
1
10
42.7511264129853
20
-0.375580373223755
30
0
41
1
10
42.7385227099067
20
-0.390169308898692
30
0
41
1
10
42.7133333601924
20
-0.416082142439222
30
0
41
1
10
42.7006329190876
20
-0.427477027156101
30
0
41
1
10
42.6637564834264
20
-0.455504148592354
30
0
41
1
10
42.6402896312525
20
-0.466471608729847
30
0
41
1
10
42.5967538443111
20
-0.473242500757067
30
0
41
1
10
42.576866413319
20
-0.469088885932024
30
0
41
1
10
42.5407125057154
20
-0.447991799830078
30
0
41
1
10
42.5247939174819
20
-0.431387987799155
30
0
41
1
10
42.4959761050476
20
-0.388220200494317
30
0
41
1
10
42.4831204063754
20
-0.361551199922786
30
0
41
1
10
42.4717528724691
20
-0.331206865517828
30
0
0
SPLINE
5
C3
100
AcDbEntity
8
1
62
256
6
ByLayer
370
18
48
1
60
0
100
AcDbSpline
70
4
71
3
72
8
73
4
40
0
40
0
40
0
40
0
40
1
40
1
40
1
40
1
41
1
10
10.6433562797238
20
3.01906937984594
30
0
41
1
10
10.6428176910036
20
2.97199005255405
30
0
41
1
10
10.6422725560715
20
2.92490845521621
30
0
41
1
10
10.6417209295149
20
2.8778244753492
30
0
0
SPLINE
5
C4
100
AcDbEntity
8
1
62
256
6
ByLayer
370
18
48
1
60
0
100
AcDbSpline
70
4
71
3
72
30
73
26
40
0
40
0
40
0
40
0
40
0.0861550102256028
40
0.0861550102256028
40
0.187693342422758
40
0.187693342422758
40
0.238462508521336
40
0.238462508521336
40
0.289231674619914
40
0.289231674619914
40
0.390770006817069
40
0.390770006817069
40
0.441539172915646
40
0.441539172915646
40
0.492308339014224
40
0.492308339014224
40
0.593846671211379
40
0.593846671211379
40
0.695385003408534
40
0.695385003408534
40
0.79692333560569
40
0.79692333560569
40
0.898461667802845
40
0.898461667802845
40
1
40
1
40
1
40
1
41
1
10
20.1542429373779
20
-0.220612027781897
30
0
41
1
10
19.8825426423635
20
-0.103792373688293
30
0
41
1
10
19.6104771898005
20
0.0135460576180151
30
0
41
1
10
19.0161966931759
20
0.268197146369175
30
0
41
1
10
18.6938272532165
20
0.40573459529034
30
0
41
1
10
18.2085403255569
20
0.611332810300013
30
0
41
1
10
18.0463121242844
20
0.679829225546712
30
0
41
1
10
17.7226313145976
20
0.814871803819443
30
0
41
1
10
17.5609842397979
20
0.881487405641877
30
-1E-16
41
1
10
17.0767279561838
20
1.07861720058062
30
-1E-16
41
1
10
16.7548088723125
20
1.20642864223711
30
-1E-16
41
1
10
16.2735153047096
20
1.39159350770151
30
-1E-16
41
1
10
16.1133599949096
20
1.45222851915551
30
-1E-16
41
1
10
15.7930644153756
20
1.57092093090731
30
-1E-16
41
1
10
15.6329072932952
20
1.62896886016659
30
-1E-16
41
1
10
15.1524851570503
20
1.79903706128599
30
-1E-16
41
1
10
14.8322940992438
20
1.90700675920371
30
-1E-16
41
1
10
14.1914910291193
20
2.11016711701177
30
-1E-16
41
1
10
13.8708915061143
20
2.20535865629088
30
-1E-16
41
1
10
13.2281882400395
20
2.3810358942261
30
1E-16
41
1
10
12.9060212413387
20
2.46158324887315
30
1E-16
41
1
10
12.2588538835555
20
2.60747289751606
30
1E-16
41
1
10
11.9337066681851
20
2.67263578908989
30
1E-16
41
1
10
11.2853421516504
20
2.78387655795712
30
1E-16
41
1
10
10.961552655604
20
2.83011954620662
30
0
41
1
10
10.6377838169179
20
2.86576670466613
30
0
0
SPLINE
5
C5
100
AcDbEntity
8
1
62
256
6
ByLayer
370
18
48
1
60
0
100
AcDbSpline
70
4
71
3
72
10
73
6
40
0
40
0
40
0
40
0
40
0.5
40
0.5
40
1
40
1
40
1
40
1
41
1
10
42.1637460195892
20
0.912512294443445
30
0
41
1
10
42.2547331191887
20
0.927068456357915
30
0
41
1
10
42.3454180816366
20
0.943267672699506
30
0
41
1
10
42.5260244079373
20
0.979818636924534
30
0
41
1
10
42.6160867129014
20
1.00024174389088
30
0
41
1
10
42.7049691060202
20
1.02404928609639
30
0
0
SPLINE
5
C6
100
AcDbEntity
8
1
62
256
6
ByLayer
370
18
48
1
60
0
100
AcDbSpline
70
4
71
3
72
8
73
4
40
0
40
0
40
0
40
0
40
1
40
1
40
1
40
1
41
1
10
10.6018388012685
20
-0.179311479980441
30
0
41
1
10
10.5881408253171
20
-0.174028531494884
30
0
41
1
10
10.5747781242422
20
-0.169046913758052
30
0
41
1
10
10.56206857737
20
-0.164449483575055
30
0
0
SPLINE
5
C7
100
AcDbEntity
8
1
62
256
6
ByLayer
370
18
48
1
60
0
100
AcDbSpline
70
4
71
3
72
16
73
12
40
0
40
0
40
0
40
0
40
0.222192733771011
40
0.222192733771011
40
0.446358528462234
40
0.446358528462234
40
0.643504087986603
40
0.643504087986603
40
0.820813085132772
40
0.820813085132772
40
1
40
1
40
1
40
1
41
1
10
41.8773382751259
20
-2.96547083699775
30
0
41
1
10
41.8774163062051
20
-2.96563150067462
30
0
41
1
10
41.8774391687061
20
-2.96596833646947
30
0
41
1
10
41.8773514061769
20
-2.96700041444791
30
0
41
1
10
41.877237169803
20
-2.96771785244442
30
0
41
1
10
41.8768943624206
20
-2.96934683386789
30
0
41
1
10
41.8766756152444
20
-2.97024967796691
30
0
41
1
10
41.8761873927534
20
-2.97206686097769
30
0
41
1
10
41.8759189739212
20
-2.97299442106674
30
0
41
1
10
41.8753518504928
20
-2.97483814745138
30
0
41
1
10
41.8750460445419
20
-2.97577673740167
30
0
41
1
10
41.8747419743983
20
-2.97666445559682
30
0
0
SPLINE
5
C8
100
AcDbEntity
8
1
62
256
6
ByLayer
370
18
48
1
60
0
100
AcDbSpline
70
4
71
3
72
8
73
4
40
0
40
0
40
0
40
0
40
1
40
1
40
1
40
1
41
1
10
40.3372778304654
20
3.07792598923757
30
0
41
1
10
40.7954418379377
20
3.12221375569072
30
0
41
1
10
41.2532919630433
20
3.14631124517686
30
0
41
1
10
41.7123451298366
20
3.14958794484753
30
0
0
SPLINE
5
C9
100
AcDbEntity
8
1
62
256
6
ByLayer
370
18
48
1
60
0
100
AcDbSpline
70
4
71
3
72
28
73
24
40
0
40
0
40
0
40
0
40
0.125000000000001
40
0.125000000000001
40
0.187500000000002
40
0.187500000000002
40
0.250000000000002
40
0.250000000000002
40
0.375000000000002
40
0.375000000000002
40
0.437500000000002
40
0.437500000000002
40
0.500000000000002
40
0.500000000000002
40
0.625000000000001
40
0.625000000000001
40
0.687500000000001
40
0.687500000000001
40
0.750000000000001
40
0.750000000000001
40
0.875
40
0.875
40
1
40
1
40
1
40
1
41
1
10
41.5179036677092
20
-0.0525207367799965
30
0
41
1
10
41.5243461940856
20
-0.231602215856185
30
0
41
1
10
41.5381782463384
20
-0.407117514523435
30
0
41
1
10
41.5647852116386
20
-0.665755946027843
30
0
41
1
10
41.5746506859473
20
-0.751189575287242
30
0
41
1
10
41.5956875718982
20
-0.920544659755535
30
1E-16
41
1
10
41.6069157443928
20
-1.00486247121341
30
1E-16
41
1
10
41.6411936538699
20
-1.25229242738223
30
1E-16
41
1
10
41.6646790155837
20
-1.40947456537134
30
1E-16
41
1
10
41.6980043133472
20
-1.63420093432589
30
1E-16
41
1
10
41.7088105384138
20
-1.70725459085216
30
1E-16
41
1
10
41.7295001949913
20
-1.84958966879182
30
1E-16
41
1
10
41.7394085104426
20
-1.91907019385528
30
1E-16
41
1
10
41.7669020425462
20
-2.11778198574086
30
1E-16
41
1
10
41.7823957040636
20
-2.23864262843097
30
-1E-16
41
1
10
41.8016946350295
20
-2.40268677875267
30
-1E-16
41
1
10
41.8074838555395
20
-2.45447629634896
30
-1E-16
41
1
10
41.817997588769
20
-2.55208674564591
30
-1E-16
41
1
10
41.8227126504422
20
-2.59782925832676
30
-1E-16
41
1
10
41.8355635377933
20
-2.72327229789445
30
-1E-16
41
1
10
41.8424731398835
20
-2.79231823520649
30
-1E-16
41
1
10
41.8575049864445
20
-2.90141669705264
30
0
41
1
10
41.8656894191247
20
-2.94148618812841
30
0
41
1
10
41.877338275126
20
-2.96547083699798
30
0
0
SPLINE
5
CA
100
AcDbEntity
8
1
62
256
6
ByLayer
370
18
48
1
60
0
100
AcDbSpline
70
4
71
3
72
18
73
14
40
0
40
0
40
0
40
0
40
0.308487119007687
40
0.308487119007687
40
0.462730678511531
40
0.462730678511531
40
0.616974238015376
40
0.616974238015376
40
0.771217797519221
40
0.771217797519221
40
0.925461357023066
40
0.925461357023066
40
1
40
1
40
1
40
1
41
1
10
12.9615247496099
20
-1.6613752426129
30
1E-16
41
1
10
13.6829915097894
20
-1.93813679147644
30
1E-16
41
1
10
14.4006518473786
20
-2.18693430877246
30
1E-16
41
1
10
15.4809604009661
20
-2.50230860709803
30
-1E-16
41
1
10
15.8418058421691
20
-2.59791269082399
30
-1E-16
41
1
10
16.5614443627282
20
-2.76685280746364
30
-1E-16
41
1
10
16.9208626244393
20
-2.84032166887758
30
0
41
1
10
17.6402569519461
20
-2.9639127821149
30
0
41
1
10
18.0008040573573
20
-3.01404963715964
30
0
41
1
10
18.7212908020845
20
-3.08936065528872
30
0
41
1
10
19.0807817312114
20
-3.11454812345309
30
0
41
1
10
19.6140997884692
20
-3.13310381885214
30
0
41
1
10
19.787856382117
20
-3.13619275292592
30
0
41
1
10
19.9616999096177
20
-3.13631405417374
30
0
0
SPLINE
5
CB
100
AcDbEntity
8
1
62
256
6
ByLayer
370
18
48
1
60
0
100
AcDbSpline
70
4
71
3
72
30
73
26
40
0
40
0
40
0
40
0
40
0.0446092213399043
40
0.0446092213399043
40
0.118100819698374
40
0.118100819698374
40
0.191592418056843
40
0.191592418056843
40
0.265084016415312
40
0.265084016415312
40
0.338575614773781
40
0.338575614773781
40
0.412067213132251
40
0.412067213132251
40
0.48555881149072
40
0.48555881149072
40
0.559050409849189
40
0.559050409849189
40
0.706033606566128
40
0.706033606566128
40
0.779525204924596
40
0.779525204924596
40
0.853016803283064
40
0.853016803283064
40
1
40
1
40
1
40
1
41
1
10
28.3586691225241
20
2.98625975386378
30
0
41
1
10
28.5530710686719
20
3.01376545087297
30
0
41
1
10
28.7476925915189
20
3.0378191537244
30
0
41
1
10
29.2639202987226
20
3.09194771193586
30
0
41
1
10
29.586486434785
20
3.11583351081868
30
0
41
1
10
30.2338711895381
20
3.14300773402752
30
0
41
1
10
30.5562835575951
20
3.14631040879957
30
0
41
1
10
31.198516176442
20
3.13275072331655
30
0
41
1
10
31.5182333407627
20
3.11573187608022
30
0
41
1
10
32.1575399624968
20
3.06221490393426
30
0
41
1
10
32.4769734419618
20
3.02579048539934
30
0
41
1
10
33.1152971249186
20
2.93358257079265
30
0
41
1
10
33.4340300013568
20
2.87752423163312
30
0
41
1
10
34.0737651565143
20
2.74824234479286
30
1E-16
41
1
10
34.3946307832886
20
2.67509199955268
30
1E-16
41
1
10
35.0373128637571
20
2.51012931002865
30
1E-16
41
1
10
35.3594052078843
20
2.41764031111606
30
-1E-16
41
1
10
36.3295177015347
20
2.11960889672164
30
-1E-16
41
1
10
36.9709084770652
20
1.89489665267706
30
-1E-16
41
1
10
37.9275154343908
20
1.52452947676647
30
-1E-16
41
1
10
38.245361399811
20
1.3952353733128
30
-1E-16
41
1
10
38.8814217475606
20
1.12988509093211
30
-1E-16
41
1
10
39.199522949386
20
0.993625099036848
30
-1E-16
41
1
10
40.1551755688644
20
0.576631578319791
30
0
41
1
10
40.7941515646112
20
0.287959395195685
30
0
41
1
10
41.4373306812667
20
-0.0069143916819598
30
0
0
SPLINE
5
CC
100
AcDbEntity
8
1
62
256
6
ByLayer
370
18
48
1
60
0
100
AcDbSpline
70
4
71
3
72
70
73
66
40
0
40
0
40
0
40
0
40
0.0151916109494961
40
0.0151916109494961
40
0.0516659957291429
40
0.0516659957291429
40
0.0881403805087896
40
0.0881403805087896
40
0.106377572898614
40
0.106377572898614
40
0.124614765288438
40
0.124614765288438
40
0.161089150068086
40
0.161089150068086
40
0.197563534847734
40
0.197563534847734
40
0.234037919627382
40
0.234037919627382
40
0.270512304407031
40
0.270512304407031
40
0.306986689186679
40
0.306986689186679
40
0.343461073966327
40
0.343461073966327
40
0.379935458745975
40
0.379935458745975
40
0.416409843525623
40
0.416409843525623
40
0.452884228305271
40
0.452884228305271
40
0.48935861308492
40
0.48935861308492
40
0.525832997864568
40
0.525832997864568
40
0.562307382644216
40
0.562307382644216
40
0.58054457503404
40
0.58054457503404
40
0.598781767423864
40
0.598781767423864
40
0.635256152203513
40
0.635256152203513
40
0.671730536983162
40
0.671730536983162
40
0.689967729372986
40
0.689967729372986
40
0.708204921762811
40
0.708204921762811
40
0.744679306542459
40
0.744679306542459
40
0.781153691322107
40
0.781153691322107
40
0.799390883711931
40
0.799390883711931
40
0.817628076101756
40
0.817628076101756
40
0.854102460881405
40
0.854102460881405
40
0.890576845661053
40
0.890576845661053
40
0.927051230440702
40
0.927051230440702
40
0.963525615220351
40
0.963525615220351
40
1
40
1
40
1
40
1
41
1
10
37.3025743066534
20
-2.11128173746968
30
1E-16
41
1
10
37.1774885628344
20
-2.15356615249729
30
1E-16
41
1
10
37.0525291205766
20
-2.19487996083248
30
1E-16
41
1
10
36.6273587608309
20
-2.33110010404968
30
1E-16
41
1
10
36.3268410618084
20
-2.42005503598887
30
1E-16
41
1
10
35.7265317214112
20
-2.58562388089319
30
-1E-16
41
1
10
35.4258980811875
20
-2.66153171991036
30
-1E-16
41
1
10
34.9747323974071
20
-2.76294910734714
30
-1E-16
41
1
10
34.8244035997611
20
-2.79476927806667
30
-1E-16
41
1
10
34.5242871983093
20
-2.85482148418458
30
0
41
1
10
34.3743511939682
20
-2.88288854563103
30
0
41
1
10
33.9241690191211
20
-2.96057815282921
30
0
41
1
10
33.623497515912
20
-3.00378390190025
30
0
41
1
10
33.0225821966481
20
-3.07393611832515
30
0
41
1
10
32.721878435527
20
-3.10028725845351
30
0
41
1
10
32.1208468727917
20
-3.13510015670386
30
0
41
1
10
31.8210878807262
20
-3.1438108418036
30
0
41
1
10
31.2204966458355
20
-3.14326998351987
30
0
41
1
10
30.9191527688986
20
-3.13418696789753
30
0
41
1
10
30.3182905672859
20
-3.09804746698197
30
0
41
1
10
30.0181063496978
20
-3.07115918291206
30
0
41
1
10
29.4172180412279
20
-3.00063123907864
30
0
41
1
10
29.1174031179129
20
-2.95639324386514
30
0
41
1
10
28.5160494217986
20
-2.85183929498689
30
0
41
1
10
28.2147380399921
20
-2.7916945693832
30
-1E-16
41
1
10
27.6144905260512
20
-2.65489358208569
30
-1E-16
41
1
10
27.3142771095236
20
-2.57914561852593
30
-1E-16
41
1
10
26.7131501727186
20
-2.41391525113201
30
1E-16
41
1
10
26.4127065474819
20
-2.32313554003599
30
1E-16
41
1
10
25.8112042603295
20
-2.13050298042472
30
1E-16
41
1
10
25.5106169126429
20
-2.02851352080808
30
1E-16
41
1
10
24.9105188012702
20
-1.81185611443414
30
1E-16
41
1
10
24.6100731278449
20
-1.69880214832747
30
1E-16
41
1
10
24.0083323622929
20
-1.46351517358625
30
1E-16
41
1
10
23.70783432008
20
-1.33999158163269
30
1E-16
41
1
10
23.2571124384469
20
-1.15158495132241
30
1E-16
41
1
10
23.1068175559199
20
-1.08818235655059
30
1E-16
41
1
10
22.8063759499713
20
-0.959652525718582
30
1E-16
41
1
10
22.6563819511175
20
-0.894198615532247
30
1E-16
41
1
10
22.2060759647336
20
-0.696357556291559
30
0
41
1
10
21.9048845240638
20
-0.562887417587262
30
0
41
1
10
21.3031106870949
20
-0.29306208472542
30
0
41
1
10
21.0032534175591
20
-0.15586595447499
30
0
41
1
10
20.5526207103487
20
0.0480586875823974
30
0
41
1
10
20.4022949162885
20
0.115780066006835
30
0
41
1
10
20.1018010083103
20
0.251573771092069
30
0
41
1
10
19.9517295471789
20
0.319860127578522
30
0
41
1
10
19.5008676733818
20
0.523288192706445
30
0
41
1
10
19.1994603606689
20
0.656800493726223
30
0
41
1
10
18.5984620729923
20
0.92021047991642
30
-1E-16
41
1
10
18.298642341434
20
1.05049325467655
30
-1E-16
41
1
10
17.8477851959508
20
1.23929005024942
30
-1E-16
41
1
10
17.6973328339144
20
1.30117428390886
30
-1E-16
41
1
10
17.396600213589
20
1.42386104876064
30
-1E-16
41
1
10
17.2462244624343
20
1.48467346400466
30
-1E-16
41
1
10
16.7951587874142
20
1.66282684745005
30
-1E-16
41
1
10
16.4943583021365
20
1.77596572784475
30
-1E-16
41
1
10
15.8938172765617
20
1.99338278030871
30
-1E-16
41
1
10
15.5938381934949
20
2.09713182668796
30
-1E-16
41
1
10
14.992110055589
20
2.2908342911563
30
-1E-16
41
1
10
14.6907963877696
20
2.3816784309353
30
-1E-16
41
1
10
14.0897779043738
20
2.54936535480312
30
1E-16
41
1
10
13.7893071541758
20
2.62583395000061
30
1E-16
41
1
10
13.1889957905015
20
2.76459884244358
30
1E-16
41
1
10
12.8885070383333
20
2.82606712380669
30
0
41
1
10
12.5868245578204
20
2.87900408045832
30
0
0
SPLINE
5
CD
100
AcDbEntity
8
1
62
256
6
ByLayer
370
18
48
1
60
0
100
AcDbSpline
70
4
71
3
72
8
73
4
40
0
40
0
40
0
40
0
40
1
40
1
40
1
40
1
41
1
10
21.6
20
3.04995117392269
30
0
41
1
10
21.6
20
3.01581768855729
30
0
41
1
10
21.6
20
2.98138011642979
30
0
41
1
10
21.6
20
2.9466439247507
30
0
0
SPLINE
5
CE
100
AcDbEntity
8
1
62
256
6
ByLayer
370
18
48
1
60
0
100
AcDbSpline
70
4
71
3
72
10
73
6
40
0
40
0
40
0
40
0
40
0.5
40
0.5
40
1
40
1
40
1
40
1
41
1
10
41.9056376688499
20
-3.02082310037156
30
0
41
1
10
41.8955733093697
20
-3.0275770782666
30
0
41
1
10
41.8870255875353
20
-3.03044867497027
30
0
41
1
10
41.8725137070157
20
-3.0284708895708
30
0
41
1
10
41.8665814790298
20
-3.02365961102319
30
0
41
1
10
41.861542347938
20
-3.01534486021444
30
0
0
SPLINE
5
CF
100
AcDbEntity
8
1
62
256
6
ByLayer
370
18
48
1
60
0
100
AcDbSpline
70
4
71
3
72
32
73
28
40
0
40
0
40
0
40
0
40
0.344798141452291
40
0.344798141452291
40
0.574437497811017
40
0.574437497811017
40
0.724156109375503
40
0.724156109375503
40
0.82161158523739
40
0.82161158523739
40
0.88507258939046
40
0.88507258939046
40
0.926331479524515
40
0.926331479524515
40
0.953209008238697
40
0.953209008238697
40
0.970878784442864
40
0.970878784442864
40
0.982419529498942
40
0.982419529498942
40
0.989765061867669
40
0.989765061867669
40
0.994487298466473
40
0.994487298466473
40
0.997668466802813
40
0.997668466802813
40
1
40
1
40
1
40
1
41
1
10
41.7123451298366
20
3.14958794484753
30
0
41
1
10
41.7340865781066
20
3.13527727917767
30
0
41
1
10
41.7558486825096
20
3.12089250120522
30
0
41
1
10
41.7921243530434
20
3.09681746555617
30
0
41
1
10
41.8066315365439
20
3.08716372734574
30
0
41
1
10
41.8306016079091
20
3.07117113140743
30
0
41
1
10
41.8400629396679
20
3.06484786055137
30
0
41
1
10
41.8556836514626
20
3.05439046020493
30
0
41
1
10
41.861842249806
20
3.05026302376766
30
0
41
1
10
41.8720130576415
20
3.04343914168197
30
0
41
1
10
41.8760259184725
20
3.04074483698304
30
0
41
1
10
41.8826615974575
20
3.03628623858018
30
0
41
1
10
41.8852819983531
20
3.03452469609863
30
0
41
1
10
41.8896071125482
20
3.03161594875479
30
0
41
1
10
41.8913113443949
20
3.03046951230203
30
0
41
1
10
41.8941192820534
20
3.02858015871945
30
0
41
1
10
41.895224179456
20
3.02783661698692
30
0
41
1
10
41.8970604286717
20
3.02660058483255
30
0
41
1
10
41.8977908271199
20
3.02610883979108
30
0
41
1
10
41.8990004665091
20
3.02529428970345
30
0
41
1
10
41.8994751540192
20
3.02497460445278
30
0
41
1
10
41.9002577441255
20
3.02444751823819
30
0
41
1
10
41.9005642799232
20
3.02424105436387
30
0
41
1
10
41.9010714685017
20
3.02389944835718
30
0
41
1
10
41.9012743873304
20
3.02376277793712
30
0
41
1
10
41.9016164923034
20
3.02353237473397
30
0
41
1
10
41.901759056482
20
3.02343636319208
30
0
41
1
10
41.9018922010177
20
3.02334670630032
30
0
0
SPLINE
5
D0
100
AcDbEntity
8
1
62
256
6
ByLayer
370
18
48
1
60
0
100
AcDbSpline
70
4
71
3
72
65
73
61
40
0
40
0
40
0
40
0
40
0.125000000000009
40
0.125000000000009
40
0.187500000000014
40
0.187500000000014
40
0.250000000000019
40
0.250000000000019
40
0.312500000000024
40
0.312500000000024
40
0.343750000000025
40
0.343750000000025
40
0.375000000000027
40
0.375000000000027
40
0.406250000000028
40
0.406250000000028
40
0.43750000000003
40
0.43750000000003
40
0.453125000000031
40
0.453125000000031
40
0.468750000000032
40
0.468750000000032
40
0.500000000000034
40
0.500000000000034
40
0.515625000000035
40
0.515625000000035
40
0.531250000000035
40
0.531250000000035
40
0.562500000000037
40
0.562500000000037
40
0.578125000000037
40
0.578125000000037
40
0.593750000000038
40
0.593750000000038
40
0.625000000000037
40
0.625000000000037
40
0.656250000000036
40
0.656250000000036
40
0.687500000000035
40
0.687500000000035
40
0.750000000000033
40
0.750000000000033
40
0.765625000000033
40
0.765625000000033
40
0.773437500000032
40
0.773437500000032
40
0.777343750000032
40
0.777343750000032
40
0.781250000000031
40
0.781250000000031
40
0.789062500000029
40
0.789062500000029
40
0.792968750000028
40
0.792968750000028
40
0.796875000000028
40
0.812500000000026
40
0.812500000000026
40
0.875000000000017
40
0.875000000000017
40
1
40
1
40
1
40
1
41
1
10
12.5868258236623
20
-2.87900641999292
30
0
41
1
10
12.2057092245628
20
-2.94663789066155
30
0
41
1
10
11.8316232715509
20
-3.004929723017
30
0
41
1
10
11.2843185094039
20
-3.0711351099348
30
0
41
1
10
11.1042076565996
20
-3.08962808700892
30
0
41
1
10
10.7496937110347
20
-3.11732223464918
30
0
41
1
10
10.5752694857871
20
-3.1265615658813
30
0
41
1
10
10.2339597691077
20
-3.13220555068591
30
0
41
1
10
10.0670061706741
20
-3.12873247495637
30
0
41
1
10
9.82505199755605
20
-3.10862136829206
30
0
41
1
10
9.74610588807749
20
-3.09938012528332
30
0
41
1
10
9.59515463685381
20
-3.07483301764381
30
0
41
1
10
9.52279611974069
20
-3.05951701850876
30
0
41
1
10
9.38614254895066
20
-3.02097396338948
30
0
41
1
10
9.32149765995814
20
-2.99755648624242
30
0
41
1
10
9.20625103684259
20
-2.94135975084075
30
0
41
1
10
9.15530940810629
20
-2.90858454091582
30
0
41
1
10
9.09229337043121
20
-2.85007300713372
30
0
41
1
10
9.07350278704337
20
-2.82888638784732
30
0
41
1
10
9.04199366835184
20
-2.78396872330788
30
-1E-16
41
1
10
9.02914719907918
20
-2.76014936979851
30
-1E-16
41
1
10
9.00006903637549
20
-2.68428763923316
30
-1E-16
41
1
10
8.9936570147342
20
-2.62692494498609
30
-1E-16
41
1
10
9.00533144783623
20
-2.53646914290786
30
-1E-16
41
1
10
9.01263674816636
20
-2.50546162048636
30
-1E-16
41
1
10
9.03386852300508
20
-2.44181161638548
30
-1E-16
41
1
10
9.04793723894423
20
-2.40893096132405
30
-1E-16
41
1
10
9.09847357035517
20
-2.31041072485991
30
1E-16
41
1
10
9.1431054394134
20
-2.24454741874249
30
1E-16
41
1
10
9.22276595366881
20
-2.14566352535124
30
1E-16
41
1
10
9.25160341449481
20
-2.11254056359448
30
1E-16
41
1
10
9.31218616133529
20
-2.04727967276159
30
1E-16
41
1
10
9.34395707593981
20
-2.01508378871904
30
1E-16
41
1
10
9.44303777157143
20
-1.91962613430894
30
1E-16
41
1
10
9.51408303176098
20
-1.85748606387398
30
1E-16
41
1
10
9.66379581394924
20
-1.73559409296644
30
1E-16
41
1
10
9.74273593467657
20
-1.67567104276554
30
1E-16
41
1
10
9.90533890607213
20
-1.558873936
30
1E-16
41
1
10
9.98898090881511
20
-1.50199147962979
30
1E-16
41
1
10
10.2455490310596
20
-1.3350880692341
30
1E-16
41
1
10
10.4238535132311
20
-1.22892185105889
30
1E-16
41
1
10
10.6517066240642
20
-1.10171104255204
30
1E-16
41
1
10
10.6975374654972
20
-1.07654342689338
30
1E-16
41
1
10
10.7666240983929
20
-1.03918852329266
30
1E-16
41
1
10
10.7897113017656
20
-1.02680214416805
30
1E-16
41
1
10
10.8244246580949
20
-1.00831823972132
30
1E-16
41
1
10
10.8360092194508
20
-1.00217305021133
30
1E-16
41
1
10
10.8592047640451
20
-0.98991439888735
30
1E-16
41
1
10
10.8708228225028
20
-0.983676754392945
30
1E-16
41
1
10
10.9088594739484
20
-0.97276605694185
30
1E-16
41
1
10
10.9359198077524
20
-0.973594999850377
30
1E-16
41
1
10
10.9746548609032
20
-0.981399887593597
30
1E-16
41
1
10
10.9872952852847
20
-0.985164205053223
30
1E-16
41
1
10
11.0125960138953
20
-0.992414112089762
30
1E-16
41
1
10
11.0758209419504
20
-1.01061170606576
30
1E-16
41
1
10
11.1389096145303
20
-1.02917869533206
30
1E-16
41
1
10
11.390804914696
20
-1.10457005309002
30
1E-16
41
1
10
11.5908758909234
20
-1.16850453441111
30
1E-16
41
1
10
12.186349426914
20
-1.36872093328679
30
1E-16
41
1
10
12.5763540320557
20
-1.51334936255867
30
1E-16
41
1
10
12.9615213353881
20
-1.66137366480157
30
1E-16
0
SPLINE
5
D1
100
AcDbEntity
8
1
62
256
6
ByLayer
370
18
48
1
60
0
100
AcDbSpline
70
4
71
3
72
38
73
34
40
0
40
0
40
0
40
0
40
0.0625000000000014
40
0.0625000000000014
40
0.125000000000003
40
0.125000000000003
40
0.156250000000003
40
0.156250000000003
40
0.187500000000003
40
0.187500000000003
40
0.250000000000004
40
0.250000000000004
40
0.375000000000005
40
0.375000000000005
40
0.437500000000005
40
0.437500000000005
40
0.500000000000006
40
0.500000000000006
40
0.562500000000007
40
0.562500000000007
40
0.593750000000007
40
0.593750000000007
40
0.625000000000007
40
0.625000000000007
40
0.687500000000006
40
0.687500000000006
40
0.750000000000005
40
0.750000000000005
40
0.812500000000004
40
0.812500000000004
40
0.875000000000002
40
0.875000000000002
40
1
40
1
40
1
40
1
41
1
10
21.5999999402118
20
3.0600181974269
30
0
41
1
10
22.0208050051681
20
3.01816708858914
30
0
41
1
10
22.4417085737594
20
2.95921895513024
30
0
41
1
10
23.2814785314238
20
2.80970680717112
30
1E-16
41
1
10
23.7006871671597
20
2.71915812831367
30
1E-16
41
1
10
24.3301896036821
20
2.5615034016601
30
1E-16
41
1
10
24.5401394602634
20
2.50531538822713
30
1E-16
41
1
10
24.960569755101
20
2.38602008174289
30
-1E-16
41
1
10
25.1710705804429
20
2.3228948606702
30
-1E-16
41
1
10
25.8000639706665
20
2.12496896434126
30
-1E-16
41
1
10
26.2173078318584
20
1.98129234658307
30
-1E-16
41
1
10
27.4660661280932
20
1.52139408870104
30
-1E-16
41
1
10
28.2946064502047
20
1.17619971131921
30
-1E-16
41
1
10
29.545076850969
20
0.628014399481458
30
0
41
1
10
29.9631524108149
20
0.440184719656969
30
0
41
1
10
30.8042050862742
20
0.0594576872763923
30
0
41
1
10
31.2239208232374
20
-0.131901371229418
30
0
41
1
10
32.0625530706827
20
-0.510501822578675
30
0
41
1
10
32.481691991308
20
-0.69795548994685
30
0
41
1
10
33.11180489603
20
-0.972698207355847
30
1E-16
41
1
10
33.3222782612196
20
-1.06328116256489
30
1E-16
41
1
10
33.74245604034
20
-1.24096981467477
30
1E-16
41
1
10
33.95227667679
20
-1.32812773668684
30
1E-16
41
1
10
34.5813954596593
20
-1.58363599376753
30
1E-16
41
1
10
35.0003609219918
20
-1.7459961328083
30
1E-16
41
1
10
35.8397227282249
20
-2.0503588477662
30
1E-16
41
1
10
36.2607729950957
20
-2.19258153995199
30
1E-16
41
1
10
37.0998108820036
20
-2.45048718630184
30
-1E-16
41
1
10
37.5184871261076
20
-2.56643259399644
30
-1E-16
41
1
10
38.3566113257766
20
-2.76910074426254
30
-1E-16
41
1
10
38.7765907448818
20
-2.85592939546328
30
0
41
1
10
40.0375490123632
20
-3.067987053981
30
0
41
1
10
40.8729357921995
20
-3.14359628092024
30
0
41
1
10
41.7123451298366
20
-3.14958794484753
30
0
0
SPLINE
5
D2
100
AcDbEntity
8
1
62
256
6
ByLayer
370
18
48
1
60
0
100
AcDbSpline
70
4
71
3
72
8
73
4
40
0
40
0
40
0
40
0
40
1
40
1
40
1
40
1
41
1
10
41.9018922010185
20
3.02334670629972
30
0
41
1
10
41.9031406753729
20
3.0225055553652
30
0
41
1
10
41.9043891646309
20
3.0216643533758
30
0
41
1
10
41.9056376688499
20
3.02082310037159
30
0
0
SPLINE
5
D3
100
AcDbEntity
8
1
62
256
6
ByLayer
370
18
48
1
60
0
100
AcDbSpline
70
4
71
3
72
10
73
6
40
0
40
0
40
0
40
0
40
0.5
40
0.5
40
1
40
1
40
1
40
1
41
1
10
10.5604937070315
20
-0.181588771100536
30
0
41
1
10
10.5429391505637
20
-0.173660647364386
30
0
41
1
10
10.5280522406394
20
-0.160773630817971
30
0
41
1
10
10.5073893864563
20
-0.128831905816753
30
0
41
1
10
10.5017083818954
20
-0.109810159873689
30
0
41
1
10
10.5017083818954
20
-0.0905511724995733
30
0
0
SPLINE
5
D4
100
AcDbEntity
8
1
62
256
6
ByLayer
370
18
48
1
60
0
100
AcDbSpline
70
4
71
3
72
8
73
4
40
0
40
0
40
0
40
0
40
1
40
1
40
1
40
1
41
1
10
41.4373306812665
20
-0.0069143916818462
30
0
41
1
10
41.4300179280814
20
0.140674185948541
30
0
41
1
10
41.4278265418471
20
0.287699663207121
30
0
41
1
10
41.4325760751163
20
0.434177629227236
30
0
0
SPLINE
5
D5
100
AcDbEntity
8
1
62
256
6
ByLayer
370
18
48
1
60
0
100
AcDbSpline
70
4
71
3
72
34
73
30
40
0
40
0
40
0
40
0
40
0.0909173524848289
40
0.0909173524848289
40
0.136376028727245
40
0.136376028727245
40
0.181834704969661
40
0.181834704969661
40
0.272752057454494
40
0.272752057454494
40
0.363669409939326
40
0.363669409939326
40
0.409128086181744
40
0.409128086181744
40
0.454586762424162
40
0.454586762424162
40
0.545504114909001
40
0.545504114909001
40
0.636421467393841
40
0.636421467393841
40
0.68188014363626
40
0.68188014363626
40
0.72733881987868
40
0.72733881987868
40
0.81825617236352
40
0.81825617236352
40
0.909173524848359
40
0.909173524848359
40
1
40
1
40
1
40
1
41
1
10
41.4325760751163
20
0.434177629227236
30
0
41
1
10
41.1323405376782
20
0.569444256909634
30
0
41
1
10
40.8327533717379
20
0.704353550371934
30
0
41
1
10
40.3821909619075
20
0.901535708278175
30
-1E-16
41
1
10
40.2318279525019
20
0.96645286644187
30
-1E-16
41
1
10
39.9312391675126
20
1.09569289699809
30
-1E-16
41
1
10
39.7809776629268
20
1.1600326921417
30
-1E-16
41
1
10
39.3303765673892
20
1.34937215265765
30
-1E-16
41
1
10
39.0298404716287
20
1.47084252887188
30
-1E-16
41
1
10
38.4296747715705
20
1.70667216906264
30
-1E-16
41
1
10
38.1298480671661
20
1.8205696633942
30
-1E-16
41
1
10
37.6786933915996
20
1.98213189868952
30
-1E-16
41
1
10
37.5280539928122
20
2.03452106096478
30
-1E-16
41
1
10
37.2275895309056
20
2.13695049195252
30
-1E-16
41
1
10
37.0775918516503
20
2.18685012352597
30
-1E-16
41
1
10
36.627358760831
20
2.33110010404968
30
-1E-16
41
1
10
36.3268410618085
20
2.4200550359889
30
-1E-16
41
1
10
35.7265317214112
20
2.58562388089317
30
1E-16
41
1
10
35.4258980811876
20
2.66153171991033
30
1E-16
41
1
10
34.9747323974072
20
2.76294910734714
30
1E-16
41
1
10
34.8244035997611
20
2.79476927806667
30
1E-16
41
1
10
34.5242871983094
20
2.85482148418458
30
0
41
1
10
34.3743511939683
20
2.88288854563103
30
0
41
1
10
33.9241690191212
20
2.96057815282919
30
0
41
1
10
33.6234975159121
20
3.00378390190025
30
0
41
1
10
33.0225821966483
20
3.07393611832512
30
0
41
1
10
32.7218784355272
20
3.10028725845348
30
0
41
1
10
32.1211472562944
20
3.13508275791654
30
0
41
1
10
31.8216871355755
20
3.1437934194137
30
0
41
1
10
31.5216927519809
20
3.14354119667271
30
0
0
SPLINE
5
D6
100
AcDbEntity
8
1
62
256
6
ByLayer
370
18
48
1
60
0
100
AcDbSpline
70
4
71
3
72
12
73
8
40
0
40
0
40
0
40
0
40
0.215185977408004
40
0.215185977408004
40
0.607592988704002
40
0.607592988704002
40
1
40
1
40
1
40
1
41
1
10
14.8851808267648
20
-2.32143728657786
30
1E-16
41
1
10
14.7201122265377
20
-2.37146146333066
30
1E-16
41
1
10
14.5550787349921
20
-2.41954428088425
30
1E-16
41
1
10
14.0897779043739
20
-2.54936535480309
30
-1E-16
41
1
10
13.789307154176
20
-2.62583395000061
30
-1E-16
41
1
10
13.1889957905016
20
-2.76459884244358
30
-1E-16
41
1
10
12.8885070383334
20
-2.82606712380669
30
0
41
1
10
12.5868245578204
20
-2.87900408045834
30
0
0
SPLINE
5
D7
100
AcDbEntity
8
1
62
256
6
ByLayer
370
18
48
1
60
0
100
AcDbSpline
70
4
71
3
72
22
73
18
40
0
40
0
40
0
40
0
40
0.250000000000003
40
0.250000000000003
40
0.375000000000002
40
0.375000000000002
40
0.437500000000004
40
0.437500000000004
40
0.500000000000006
40
0.500000000000006
40
0.625000000000005
40
0.625000000000005
40
0.750000000000003
40
0.750000000000003
40
0.875000000000002
40
0.875000000000002
40
1
40
1
40
1
40
1
41
1
10
41.9056376688499
20
3.02082310037162
30
0
41
1
10
41.9665822692357
20
2.84947211667691
30
0
41
1
10
42.0267420207728
20
2.6770606741278
30
0
41
1
10
42.1167971016534
20
2.41776438787383
30
0
41
1
10
42.1467762278604
20
2.33123157920292
30
0
41
1
10
42.1917931059658
20
2.20133326414805
30
0
41
1
10
42.2067449566449
20
2.1579938017521
30
0
41
1
10
42.2370804612131
20
2.07148610078835
30
0
41
1
10
42.2524620647798
20
2.02831060129284
30
0
41
1
10
42.2994422186689
20
1.89908902520273
30
0
41
1
10
42.3319913836079
20
1.81310634407396
30
0
41
1
10
42.3991312246675
20
1.64513803903736
30
0
41
1
10
42.4338196471488
20
1.56282079781181
30
0
41
1
10
42.5061006613439
20
1.40170810740671
30
0
41
1
10
42.5436998682237
20
1.32292549809901
30
0
41
1
10
42.6224304133549
20
1.16913646063668
30
0
41
1
10
42.6631628588733
20
1.09494336538719
30
0
41
1
10
42.7049691060197
20
1.02404928609619
30
0
0
SPLINE
5
D8
100
AcDbEntity
8
1
62
256
6
ByLayer
370
18
48
1
60
0
100
AcDbSpline
70
4
71
3
72
24
73
20
40
0
40
0
40
0
40
0
40
0.0980584416350572
40
0.0980584416350572
40
0.196116883270114
40
0.196116883270114
40
0.392233766540229
40
0.392233766540229
40
0.588350649810343
40
0.588350649810343
40
0.63737987062787
40
0.63737987062787
40
0.686409091445398
40
0.686409091445398
40
0.784467533080453
40
0.784467533080453
40
0.980584416350564
40
0.980584416350564
40
1
40
1
40
1
40
1
41
1
10
41.8747419743982
20
-2.97666445559682
30
0
41
1
10
41.5466571726321
20
-2.95753519809014
30
0
41
1
10
41.2181512148787
20
-2.92906982827728
30
0
41
1
10
40.5644686147699
20
-2.85210747923424
30
0
41
1
10
40.2389003164959
20
-2.80408193706776
30
-1E-16
41
1
10
39.264646329203
20
-2.63338796103483
30
-1E-16
41
1
10
38.6183211786908
20
-2.48394286390359
30
-1E-16
41
1
10
37.3246237144871
20
-2.12422059945521
30
1E-16
41
1
10
36.6769947864346
20
-1.91380550106948
30
1E-16
41
1
10
35.8616730894756
20
-1.62110588713506
30
1E-16
41
1
10
35.6983205121808
20
-1.56107015943076
30
1E-16
41
1
10
35.370916188342
20
-1.43820229927721
30
1E-16
41
1
10
35.2066184478979
20
-1.37526944578775
30
1E-16
41
1
10
34.7151424955656
20
-1.1836815584482
30
1E-16
41
1
10
34.3889403076284
20
-1.05212725542671
30
1E-16
41
1
10
33.4131267563441
20
-0.649669673683519
30
0
41
1
10
32.7664076363586
20
-0.370740244711897
30
0
41
1
10
32.0553299856727
20
-0.0632760612981258
30
0
41
1
10
31.9912753509886
20
-0.035562653978559
30
0
41
1
10
31.927217067432
20
-0.0078429946151743
30
0
0
SPLINE
5
D9
100
AcDbEntity
8
1
62
256
6
ByLayer
370
18
48
1
60
0
100
AcDbSpline
70
4
71
3
72
8
73
4
40
0
40
0
40
0
40
0
40
1
40
1
40
1
40
1
41
1
10
10.6417209295149
20
2.8778244753492
30
0
41
1
10
10.6292503619259
20
2.87920835518276
30
0
41
1
10
10.6159851889452
20
2.87987565441895
30
0
41
1
10
10.6023783126244
20
2.87982065806838
30
0
0
SPLINE
5
DA
100
AcDbEntity
8
1
62
256
6
ByLayer
370
18
48
1
60
0
100
AcDbSpline
70
4
71
3
72
14
73
10
40
0
40
0
40
0
40
0
40
0.275729423490753
40
0.275729423490753
40
0.514582141986887
40
0.514582141986887
40
0.786411891280903
40
0.786411891280903
40
1
40
1
40
1
40
1
41
1
10
41.5125691504674
20
-0.0394766801599644
30
0
41
1
10
41.513313536315
20
-0.0397825606021343
30
0
41
1
10
41.5140472220345
20
-0.0404576400789836
30
0
41
1
10
41.5152691057026
20
-0.0421660898417429
30
0
41
1
10
41.5157940306712
20
-0.0431628773862087
30
0
41
1
10
41.516752172114
20
-0.0455675573570602
30
0
41
1
10
41.5171781201099
20
-0.0470511231582691
30
0
41
1
10
41.5177021851144
20
-0.0498667276835647
30
0
41
1
10
41.5178560355972
20
-0.0511967175079633
30
0
41
1
10
41.5179036677089
20
-0.0525207367707878
30
0
0
SPLINE
5
DB
100
AcDbEntity
8
1
62
256
6
ByLayer
370
18
48
1
60
0
100
AcDbSpline
70
4
71
3
72
8
73
4
40
0
40
0
40
0
40
0
40
1
40
1
40
1
40
1
41
1
10
41.6996566541567
20
-3.11134313026028
30
0
41
1
10
41.7535095985284
20
-3.07982344833704
30
0
41
1
10
41.807465922674
20
-3.04782016495111
30
0
41
1
10
41.8615423479382
20
-3.01534486021424
30
0
0
SPLINE
5
DC
100
AcDbEntity
8
1
62
256
6
ByLayer
370
18
48
1
60
0
100
AcDbSpline
70
4
71
3
72
8
73
4
40
0
40
0
40
0
40
0
40
1
40
1
40
1
40
1
41
1
10
42.997095177121
20
0.173909468057303
30
0
41
1
10
42.9834887500654
20
0.128558192821515
30
0
41
1
10
42.9698146190499
20
0.0832286461687204
30
0
41
1
10
42.9560730419308
20
0.0379207453437971
30
0
0
SPLINE
5
DD
100
AcDbEntity
8
1
62
256
6
ByLayer
370
18
48
1
60
0
100
AcDbSpline
70
4
71
3
72
32
73
28
40
0
40
0
40
0
40
0
40
0.344798140492604
40
0.344798140492604
40
0.574437496215979
40
0.574437496215979
40
0.724156107364659
40
0.724156107364659
40
0.821611582955013
40
0.821611582955013
40
0.885072586932972
40
0.885072586932972
40
0.926331476952416
40
0.926331476952416
40
0.953209005591583
40
0.953209005591583
40
0.970878781746379
40
0.970878781746379
40
0.982419526770326
40
0.982419526770326
40
0.989765059118606
40
0.989765059118606
40
0.994487295704116
40
0.994487295704116
40
0.99766846403157
40
0.99766846403157
40
1
40
1
40
1
40
1
41
1
10
41.7123451298366
20
-3.14958794484753
30
0
41
1
10
41.7340865781065
20
-3.13527727917773
30
0
41
1
10
41.7558486825093
20
-3.12089250120536
30
0
41
1
10
41.7921243530432
20
-3.09681746555628
30
0
41
1
10
41.8066315365439
20
-3.08716372734574
30
0
41
1
10
41.8306016079093
20
-3.07117113140734
30
0
41
1
10
41.840062939668
20
-3.06484786055125
30
0
41
1
10
41.8556836514627
20
-3.05439046020484
30
0
41
1
10
41.8618422498061
20
-3.0502630237676
30
0
41
1
10
41.8720130576416
20
-3.04343914168191
30
0
41
1
10
41.8760259184727
20
-3.04074483698295
30
0
41
1
10
41.8826615974577
20
-3.03628623858003
30
0
41
1
10
41.8852819983533
20
-3.03452469609846
30
0
41
1
10
41.8896071125484
20
-3.03161594875465
30
0
41
1
10
41.8913113443951
20
-3.03046951230189
30
0
41
1
10
41.8941192820535
20
-3.02858015871934
30
0
41
1
10
41.8952241794561
20
-3.0278366169868
30
0
41
1
10
41.8970604286718
20
-3.02660058483249
30
0
41
1
10
41.89779082712
20
-3.02610883979099
30
0
41
1
10
41.8990004665092
20
-3.0252942897034
30
0
41
1
10
41.8994751540193
20
-3.02497460445272
30
0
41
1
10
41.9002577441257
20
-3.02444751823813
30
0
41
1
10
41.9005642799233
20
-3.02424105436381
30
0
41
1
10
41.9010714685017
20
-3.02389944835716
30
0
41
1
10
41.9012743873304
20
-3.02376277793709
30
0
41
1
10
41.901616492475
20
-3.02353237461847
30
0
41
1
10
41.9017590568243
20
-3.02343636296155
30
0
41
1
10
41.9018922014938
20
-3.02334670597975
30
0
0
SPLINE
5
DE
100
AcDbEntity
8
1
62
256
6
ByLayer
370
18
48
1
60
0
100
AcDbSpline
70
4
71
3
72
22
73
18
40
0
40
0
40
0
40
0
40
0.25000000000001
40
0.25000000000001
40
0.375000000000012
40
0.375000000000012
40
0.437500000000014
40
0.437500000000014
40
0.500000000000015
40
0.500000000000015
40
0.625000000000011
40
0.625000000000011
40
0.750000000000008
40
0.750000000000008
40
0.875000000000004
40
0.875000000000004
40
1
40
1
40
1
40
1
41
1
10
41.9056376688499
20
-3.02082310037159
30
0
41
1
10
41.9665822692357
20
-2.84947211667688
30
0
41
1
10
42.0267420207728
20
-2.6770606741278
30
0
41
1
10
42.1167971016534
20
-2.41776438787383
30
0
41
1
10
42.1467762278604
20
-2.33123157920292
30
0
41
1
10
42.1917931059658
20
-2.20133326414808
30
0
41
1
10
42.2067449566449
20
-2.15799380175213
30
0
41
1
10
42.2370804612131
20
-2.07148610078838
30
0
41
1
10
42.2524620647798
20
-2.02831060129287
30
0
41
1
10
42.2994422186689
20
-1.89908902520273
30
0
41
1
10
42.3319913836079
20
-1.81310634407396
30
0
41
1
10
42.3991312246675
20
-1.64513803903742
30
0
41
1
10
42.4338196471488
20
-1.56282079781184
30
0
41
1
10
42.5061006613438
20
-1.40170810740671
30
0
41
1
10
42.5436998682237
20
-1.32292549809898
30
0
41
1
10
42.6224304133549
20
-1.16913646063654
30
0
41
1
10
42.6631628588733
20
-1.09494336538717
30
0
41
1
10
42.7049691060197
20
-1.02404928609619
30
0
0
SPLINE
5
DF
100
AcDbEntity
8
1
62
256
6
ByLayer
370
18
48
1
60
0
100
AcDbSpline
70
4
71
3
72
24
73
20
40
0
40
0
40
0
40
0
40
0.125
40
0.125
40
0.25
40
0.25
40
0.374999999999999
40
0.374999999999999
40
0.437499999999999
40
0.437499999999999
40
0.5
40
0.5
40
0.625
40
0.625
40
0.75
40
0.75
40
0.875
40
0.875
40
1
40
1
40
1
40
1
41
1
10
10.6023783126244
20
2.86753547725169
30
0
41
1
10
10.602369512687
20
2.82247206798729
30
0
41
1
10
10.602358235893
20
2.76405199627345
30
1E-16
41
1
10
10.6023314423653
20
2.62154371023897
30
1E-16
41
1
10
10.6023158589761
20
2.53709626273752
30
1E-16
41
1
10
10.6022808298535
20
2.34281423999664
30
1E-16
41
1
10
10.6022617677716
20
2.23511295823079
30
1E-16
41
1
10
10.6022309684737
20
2.05829048145048
30
-1E-16
41
1
10
10.6022203301851
20
1.99679028440971
30
-1E-16
41
1
10
10.6021982795838
20
1.86859766572192
30
-1E-16
41
1
10
10.6021868264058
20
1.80166499352219
30
-1E-16
41
1
10
10.6021514977319
20
1.59449348047022
30
-1E-16
41
1
10
10.6021269170063
20
1.44940569273373
30
-1E-16
41
1
10
10.602075276454
20
1.14554979642531
30
-1E-16
41
1
10
10.6020479998051
20
0.985535205473553
30
-1E-16
41
1
10
10.6019919754121
20
0.661573842203012
30
0
41
1
10
10.6019630914221
20
0.496801995320197
30
0
41
1
10
10.6019028213089
20
0.161672830934549
30
0
41
1
10
10.6018712993476
20
-0.0093551076802498
30
0
41
1
10
10.6018388012685
20
-0.179311479980441
30
0
0
SPLINE
5
E0
100
AcDbEntity
8
1
62
256
6
ByLayer
370
18
48
1
60
0
100
AcDbSpline
70
4
71
3
72
12
73
8
40
0
40
0
40
0
40
0
40
0.250000000000016
40
0.250000000000016
40
0.500000000000032
40
0.500000000000032
40
1
40
1
40
1
40
1
41
1
10
10.6023783126244
20
2.87982065806838
30
0
41
1
10
10.5867629801498
20
2.87975754392826
30
0
41
1
10
10.5716044977323
20
2.88196712370581
30
0
41
1
10
10.5455801672525
20
2.88943805935426
30
0
41
1
10
10.5348260800015
20
2.89456703470213
30
0
41
1
10
10.5094716123658
20
2.91183272782311
30
0
41
1
10
10.5017083818954
20
2.92548646544188
30
0
41
1
10
10.5017083818954
20
2.93887637873527
30
0
0
SPLINE
5
E1
100
AcDbEntity
8
1
62
256
6
ByLayer
370
18
48
1
60
0
100
AcDbSpline
70
4
71
3
72
28
73
24
40
0
40
0
40
0
40
0
40
0.0495940904448624
40
0.0495940904448624
40
0.135994627677148
40
0.135994627677148
40
0.222395164909433
40
0.222395164909433
40
0.308795702141718
40
0.308795702141718
40
0.395196239374003
40
0.395196239374003
40
0.481596776606289
40
0.481596776606289
40
0.654397851070859
40
0.654397851070859
40
0.740798388303144
40
0.740798388303144
40
0.82719892553543
40
0.82719892553543
40
0.913599462767715
40
0.913599462767715
40
1
40
1
40
1
40
1
41
1
10
30.3868162110625
20
2.99343583633268
30
0
41
1
10
30.5710332605826
20
2.99501370685798
30
0
41
1
10
30.7549656141629
20
2.99343242984463
30
0
41
1
10
31.2585989397371
20
2.98130849997276
30
0
41
1
10
31.5777011669642
20
2.96513167146435
30
0
41
1
10
32.2163132499197
20
2.91161590696063
30
0
41
1
10
32.5357383289962
20
2.87496873942081
30
0
41
1
10
33.1746433300144
20
2.78479907674901
30
1E-16
41
1
10
33.4939788768078
20
2.73151860464301
30
1E-16
41
1
10
34.1356619555
20
2.6050399194491
30
1E-16
41
1
10
34.4578596685259
20
2.53246120942953
30
1E-16
41
1
10
35.1032954689156
20
2.37246306045387
30
1E-16
41
1
10
35.4270470510011
20
2.28471724901235
30
1E-16
41
1
10
36.3931996987913
20
1.99959626961527
30
-1E-16
41
1
10
37.0330442643748
20
1.78225046557614
30
-1E-16
41
1
10
37.9897753531973
20
1.42764865482161
30
-1E-16
41
1
10
38.3080332157144
20
1.30444887623497
30
-1E-16
41
1
10
38.9453885627567
20
1.05053850825706
30
-1E-16
41
1
10
39.2643827510209
20
0.919836098280484
30
-1E-16
41
1
10
39.9038148523445
20
0.653161657788644
30
0
41
1
10
40.224311257054
20
0.517273664625208
30
0
41
1
10
40.8671105652621
20
0.241607347980931
30
0
41
1
10
41.1896726853402
20
0.101653142314291
30
0
41
1
10
41.5125691504674
20
-0.0394766801599644
30
0
0
SPLINE
5
E2
100
AcDbEntity
8
1
62
256
6
ByLayer
370
18
48
1
60
0
100
AcDbSpline
70
4
71
3
72
14
73
10
40
0
40
0
40
0
40
0
40
0.483881844977553
40
0.483881844977553
40
0.725822767466326
40
0.725822767466326
40
0.967763689955099
40
0.967763689955099
40
1
40
1
40
1
40
1
41
1
10
12.5868258236623
20
2.87900641999292
30
0
41
1
10
12.2057092245629
20
2.94663789066155
30
0
41
1
10
11.831623271551
20
3.004929723017
30
0
41
1
10
11.2843185094041
20
3.07113510993477
30
0
41
1
10
11.1042076565997
20
3.08962808700889
30
0
41
1
10
10.7496937110349
20
3.11732223464918
30
0
41
1
10
10.5752694857874
20
3.1265615658813
30
0
41
1
10
10.3818765025058
20
3.12975956173557
30
0
41
1
10
10.3592040860659
20
3.13002380878362
30
0
41
1
10
10.3366019896448
20
3.13016769105374
30
0
0
SPLINE
5
E3
100
AcDbEntity
8
1
62
256
6
ByLayer
370
18
48
1
60
0
100
AcDbSpline
70
4
71
3
72
10
73
6
40
0
40
0
40
0
40
0
40
0.5
40
0.5
40
1
40
1
40
1
40
1
41
1
10
41.9056376688499
20
3.02082310037159
30
0
41
1
10
41.8955733093696
20
3.02757707826663
30
0
41
1
10
41.8870255875353
20
3.03044867497027
30
0
41
1
10
41.8725137070158
20
3.0284708895708
30
0
41
1
10
41.8665814790298
20
3.02365961102316
30
0
41
1
10
41.861542347938
20
3.01534486021441
30
0
0
SPLINE
5
E4
100
AcDbEntity
8
1
62
256
6
ByLayer
370
18
48
1
60
0
100
AcDbSpline
70
4
71
3
72
8
73
4
40
0
40
0
40
0
40
0
40
1
40
1
40
1
40
1
41
1
10
10.6377838169179
20
2.86576670466613
30
0
41
1
10
10.6265577671059
20
2.86700270000821
30
0
41
1
10
10.614620638604
20
2.86759295065366
30
0
41
1
10
10.6023783126244
20
2.86753547725169
30
0
0
SPLINE
5
E5
100
AcDbEntity
8
1
62
256
6
ByLayer
370
18
48
1
60
0
100
AcDbSpline
70
4
71
3
72
46
73
42
40
0
40
0
40
0
40
0
40
0.0967328509544269
40
0.0967328509544269
40
0.14509927643164
40
0.14509927643164
40
0.193465701908853
40
0.193465701908853
40
0.241832127386066
40
0.241832127386066
40
0.290198552863279
40
0.290198552863279
40
0.338564978340492
40
0.338564978340492
40
0.386931403817705
40
0.386931403817705
40
0.435297829294918
40
0.435297829294918
40
0.483664254772131
40
0.483664254772131
40
0.532030680249344
40
0.532030680249344
40
0.580397105726557
40
0.580397105726557
40
0.62876353120377
40
0.62876353120377
40
0.677129956680983
40
0.677129956680983
40
0.725496382158196
40
0.725496382158196
40
0.773862807635409
40
0.773862807635409
40
0.822229233112623
40
0.822229233112623
40
0.870595658589835
40
0.870595658589835
40
0.918962084067048
40
0.918962084067048
40
0.967328509544261
40
0.967328509544261
40
1
40
1
40
1
40
1
41
1
10
10.6433562797238
20
3.01906937984594
30
0
41
1
10
11.2895537558191
20
2.94118401765883
30
0
41
1
10
11.9359365322905
20
2.82483189700918
30
0
41
1
10
12.9082189888311
20
2.59695998368653
30
1E-16
41
1
10
13.2307521217858
20
2.51208430793449
30
1E-16
41
1
10
13.8734586223664
20
2.32724400294293
30
-1E-16
41
1
10
14.1938682810119
20
2.22738324256423
30
-1E-16
41
1
10
14.8339058235524
20
2.0148344011414
30
-1E-16
41
1
10
15.1535100125836
20
1.90211907940562
30
-1E-16
41
1
10
15.7925384816375
20
1.66502603496571
30
-1E-16
41
1
10
16.1116289193436
20
1.53997529400272
30
-1E-16
41
1
10
16.7512579386691
20
1.28120446371921
30
-1E-16
41
1
10
17.071953838861
20
1.14787909495246
30
-1E-16
41
1
10
17.7150155574376
20
0.873097300940657
30
-1E-16
41
1
10
18.0371968382971
20
0.730905592262872
30
0
41
1
10
18.6846781786607
20
0.442250887095185
30
0
41
1
10
19.0072933304373
20
0.297669215005357
30
0
41
1
10
19.6502653336209
20
0.0077983652103342
30
0
41
1
10
19.9704749596207
20
-0.137817312556535
30
0
41
1
10
20.6098625872658
20
-0.426881293682243
30
0
41
1
10
20.9290337039906
20
-0.570348280658578
30
0
41
1
10
21.567631887308
20
-0.852264785916162
30
1E-16
41
1
10
21.8872992269706
20
-0.990199806551033
30
1E-16
41
1
10
22.5271647669714
20
-1.26047067421317
30
1E-16
41
1
10
22.8472174553278
20
-1.39309105433503
30
1E-16
41
1
10
23.4897028299153
20
-1.64866944194162
30
1E-16
41
1
10
23.8126401415189
20
-1.77112495094434
30
1E-16
41
1
10
24.4602821723702
20
-2.00552033756759
30
1E-16
41
1
10
24.7822694964975
20
-2.11655123455014
30
1E-16
41
1
10
25.4246207999575
20
-2.32290319660038
30
1E-16
41
1
10
25.7450986644371
20
-2.418139944416
30
1E-16
41
1
10
26.3845708786895
20
-2.59315451949973
30
-1E-16
41
1
10
26.7034848193878
20
-2.67293734570663
30
-1E-16
41
1
10
27.3418505972078
20
-2.81434764693554
30
0
41
1
10
27.6614036454742
20
-2.87596441015987
30
0
41
1
10
28.3012090623391
20
-2.98110563034561
30
0
41
1
10
28.6214455146149
20
-3.02458163827168
30
0
41
1
10
29.2639202987226
20
-3.09194771193589
30
0
41
1
10
29.5864864347851
20
-3.11583351081868
30
0
41
1
10
30.1288328126114
20
-3.13859870789716
30
0
41
1
10
30.3469027455597
20
-3.14308401087845
30
0
41
1
10
30.564383664127
20
-3.14293876895277
30
0
0
SPLINE
5
E6
100
AcDbEntity
8
1
62
256
6
ByLayer
370
18
48
1
60
0
100
AcDbSpline
70
4
71
3
72
24
73
20
40
0
40
0
40
0
40
0
40
0.0935102592938311
40
0.0935102592938311
40
0.187020518587663
40
0.187020518587663
40
0.374041037175325
40
0.374041037175325
40
0.561061555762988
40
0.561061555762988
40
0.65457181505682
40
0.65457181505682
40
0.701326944703735
40
0.701326944703735
40
0.748082074350651
40
0.748082074350651
40
0.935102592938319
40
0.935102592938319
40
1
40
1
40
1
40
1
41
1
10
10.6018388012686
20
-0.17931147998047
30
0
41
1
10
10.9302518863934
20
-0.32003738938522
30
0
41
1
10
11.2583040884217
20
-0.459957099391715
30
0
41
1
10
11.9146274840587
20
-0.736113709599124
30
0
41
1
10
12.2434284933927
20
-0.872545417537225
30
1E-16
41
1
10
13.2247986524131
20
-1.26970492798608
30
1E-16
41
1
10
13.873944671383
20
-1.51882968911033
30
1E-16
41
1
10
15.1698404539027
20
-1.97035288484022
30
1E-16
41
1
10
15.8165980282854
20
-2.1731454779395
30
1E-16
41
1
10
16.79079175756
20
-2.43133069764099
30
-1E-16
41
1
10
17.1162059319266
20
-2.50987875497523
30
-1E-16
41
1
10
17.606066511786
20
-2.61544402384803
30
-1E-16
41
1
10
17.7696438649525
20
-2.64857224013954
30
-1E-16
41
1
10
18.0975151976884
20
-2.71027640009149
30
-1E-16
41
1
10
18.2618279717705
20
-2.73886917120598
30
-1E-16
41
1
10
19.0804811655224
20
-2.86984828436593
30
0
41
1
10
19.7301126698345
20
-2.93685096069282
30
0
41
1
10
20.6032858826079
20
-2.97447879089881
30
0
41
1
10
20.8280551966518
20
-2.97940142587734
30
0
41
1
10
21.052814646889
20
-2.97960245270912
30
0
0
SPLINE
5
E7
100
AcDbEntity
8
1
62
256
6
ByLayer
370
18
48
1
60
0
100
AcDbSpline
70
4
71
3
72
40
73
36
40
0
40
0
40
0
40
0
40
0.0470810123076484
40
0.0470810123076484
40
0.0941620246152967
40
0.0941620246152967
40
0.188324049230592
40
0.188324049230592
40
0.282486073845887
40
0.282486073845887
40
0.329567086153534
40
0.329567086153534
40
0.353107592307358
40
0.353107592307358
40
0.376648098461182
40
0.376648098461182
40
0.470810123076476
40
0.470810123076476
40
0.564972147691769
40
0.564972147691769
40
0.612053159999416
40
0.612053159999416
40
0.635593666153238
40
0.635593666153238
40
0.659134172307061
40
0.659134172307061
40
0.753296196922348
40
0.753296196922348
40
0.847458221537634
40
0.847458221537634
40
0.894539233845278
40
0.894539233845278
40
0.941620246152922
40
0.941620246152922
40
1
40
1
40
1
40
1
41
1
10
41.6996566541574
20
-3.11134313026133
30
0
41
1
10
41.3727744388844
20
-3.08789395398304
30
0
41
1
10
41.0462844072366
20
-3.05405283833954
30
0
41
1
10
40.3929807037048
20
-2.96632273147276
30
0
41
1
10
40.0658200191735
20
-2.91235885041377
30
0
41
1
10
39.084765002848
20
-2.72186109665438
30
-1E-16
41
1
10
38.4368035062907
20
-2.55790521905161
30
-1E-16
41
1
10
37.1444300711216
20
-2.16911248906163
30
1E-16
41
1
10
36.4998327630138
20
-1.94458373052623
30
1E-16
41
1
10
35.5292662913213
20
-1.57297989109128
30
1E-16
41
1
10
35.2051729350953
20
-1.44323077972356
30
1E-16
41
1
10
34.717260607379
20
-1.24146777245502
30
1E-16
41
1
10
34.5543243829919
20
-1.17303297349207
30
1E-16
41
1
10
34.2277216772301
20
-1.03405836061347
30
1E-16
41
1
10
34.0638527266822
20
-0.963417722709181
30
1E-16
41
1
10
33.2473158174399
20
-0.60753696936095
30
0
41
1
10
32.5998936024228
20
-0.313466266975098
30
0
41
1
10
31.3076504001963
20
0.272888805875027
30
0
41
1
10
30.6632456234675
20
0.566115450689637
30
0
41
1
10
29.6920992943918
20
0.990007698439143
30
-1E-16
41
1
10
29.3677388062067
20
1.12889856532638
30
-1E-16
41
1
10
28.8794097018019
20
1.33178572403466
30
-1E-16
41
1
10
28.7163281021311
20
1.39849097572178
30
-1E-16
41
1
10
28.3894025525697
20
1.52971679667362
30
-1E-16
41
1
10
28.2256062633458
20
1.59421131545147
30
-1E-16
41
1
10
27.4096074060695
20
1.90843514390349
30
-1E-16
41
1
10
26.7623242216795
20
2.13539623733649
30
-1E-16
41
1
10
25.4703178809186
20
2.52745342351656
30
1E-16
41
1
10
24.8254773837697
20
2.69239026747601
30
1E-16
41
1
10
23.8538519234625
20
2.88507790240919
30
0
41
1
10
23.5292133664293
20
2.94016271228546
30
0
41
1
10
22.8774412136067
20
3.03087052228062
30
0
41
1
10
22.5493557804058
20
3.0664987638489
30
0
41
1
10
21.8187099792508
20
3.12264132424897
30
0
41
1
10
21.4162677931289
20
3.13769732280233
30
0
41
1
10
21.0148541656125
20
3.13695173573072
30
0
0
SPLINE
5
E8
100
AcDbEntity
8
1
62
256
6
ByLayer
370
18
48
1
60
0
100
AcDbSpline
70
4
71
3
72
24
73
20
40
0
40
0
40
0
40
0
40
0.144092134906906
40
0.144092134906906
40
0.315273707925523
40
0.315273707925523
40
0.358069101180177
40
0.358069101180177
40
0.400864494434832
40
0.400864494434832
40
0.486455280944142
40
0.486455280944142
40
0.657636853962761
40
0.657636853962761
40
0.82881842698138
40
0.82881842698138
40
0.91440921349069
40
0.91440921349069
40
1
40
1
40
1
40
1
41
1
10
22.0110535726426
20
-2.96039754452806
30
0
41
1
10
21.4651039031081
20
-2.99316661695587
30
0
41
1
10
20.9204625123756
20
-2.9984800749761
30
0
41
1
10
19.7265681769978
20
-2.94847431773209
30
0
41
1
10
19.0769177434931
20
-2.8821087041751
30
0
41
1
10
18.2582110321767
20
-2.75170472564633
30
-1E-16
41
1
10
18.0938848860796
20
-2.7232156776721
30
-1E-16
41
1
10
17.7659866613464
20
-2.66169951065115
30
-1E-16
41
1
10
17.6023968694552
20
-2.62865561320834
30
-1E-16
41
1
10
17.1125063496932
20
-2.52330578820551
30
-1E-16
41
1
10
16.7870802271943
20
-2.44485360135854
30
-1E-16
41
1
10
15.8128667402974
20
-2.18682201326445
30
1E-16
41
1
10
15.1661072282327
20
-1.98396336873734
30
1E-16
41
1
10
13.8701978677662
20
-1.53194562590687
30
1E-16
41
1
10
13.221043182974
20
-1.28239002787654
30
1E-16
41
1
10
12.2396072794768
20
-0.884326288284484
30
1E-16
41
1
10
11.9107743793977
20
-0.747545917979494
30
0
41
1
10
11.2543937860013
20
-0.470616601457806
30
0
41
1
10
10.9263136569765
20
-0.330271347515492
30
0
41
1
10
10.5978703446523
20
-0.189082478353043
30
0
0
SPLINE
5
E9
100
AcDbEntity
8
1
62
256
6
ByLayer
370
18
48
1
60
0
100
AcDbSpline
70
4
71
3
72
10
73
6
40
0
40
0
40
0
40
0
40
0.5
40
0.5
40
1
40
1
40
1
40
1
41
1
10
41.6996566541554
20
-3.11134313026199
30
0
41
1
10
41.7020570274352
20
-3.12293174833141
30
0
41
1
10
41.7043363726497
20
-3.1319618159101
30
0
41
1
10
41.708541972856
20
-3.14477528212402
30
0
41
1
10
41.7104912295623
20
-3.14851953144696
30
0
41
1
10
41.7123451298366
20
-3.14958794484753
30
0
0
SPLINE
5
EA
100
AcDbEntity
8
1
62
256
6
ByLayer
370
18
48
1
60
0
100
AcDbSpline
70
4
71
3
72
8
73
4
40
0
40
0
40
0
40
0
40
1
40
1
40
1
40
1
41
1
10
42.7049691060197
20
-1.02404928609624
30
0
41
1
10
42.8051903766801
20
-0.741687569782243
30
0
41
1
10
42.9025807634758
20
-0.458313007841326
30
0
41
1
10
42.9970951771268
20
-0.173909468039824
30
0
0
SPLINE
5
EB
100
AcDbEntity
8
1
62
256
6
ByLayer
370
18
48
1
60
0
100
AcDbSpline
70
4
71
3
72
8
73
4
40
0
40
0
40
0
40
0
40
1
40
1
40
1
40
1
41
1
10
42.7049691060197
20
1.02404928609624
30
0
41
1
10
42.805190376678
20
0.741687569788041
30
0
41
1
10
42.9025807634718
20
0.458313007852951
30
0
41
1
10
42.997095177121
20
0.173909468057303
30
0
0
SPLINE
5
EC
100
AcDbEntity
8
1
62
256
6
ByLayer
370
18
48
1
60
0
100
AcDbSpline
70
4
71
3
72
8
73
4
40
0
40
0
40
0
40
0
40
1
40
1
40
1
40
1
41
1
10
42.997095177121
20
0.173909468057303
30
0
41
1
10
43.0009708809009
20
0.0578917949023321
30
0
41
1
10
43.0009656711889
20
-0.0580477455803248
30
0
41
1
10
42.9970951771214
20
-0.173909468044997
30
0
0
SPLINE
5
ED
100
AcDbEntity
8
1
62
256
6
ByLayer
370
18
48
1
60
0
100
AcDbSpline
70
4
71
3
72
8
73
4
40
0
40
0
40
0
40
0
40
1
40
1
40
1
40
1
41
1
10
41.8747419743982
20
-2.97666445559679
30
0
41
1
10
41.8703256760155
20
-2.98955762683346
30
0
41
1
10
41.8659256988776
20
-3.0024510708341
30
0
41
1
10
41.861542347938
20
-3.01534486021444
30
0
0
SPLINE
5
EE
100
AcDbEntity
8
1
62
256
6
ByLayer
370
18
48
1
60
0
100
AcDbSpline
70
4
71
3
72
8
73
4
40
0
40
0
40
0
40
0
40
1
40
1
40
1
40
1
41
1
10
41.4373306812665
20
-0.0069143916818462
30
0
41
1
10
41.462551665664
20
-0.0183763127303394
30
0
41
1
10
41.4876225736256
20
-0.0292257196146579
30
0
41
1
10
41.5125691504673
20
-0.0394766801599644
30
0
0
SPLINE
5
EF
100
AcDbEntity
8
1
62
256
6
ByLayer
370
18
48
1
60
0
100
AcDbSpline
70
4
71
3
72
8
73
4
40
0
40
0
40
0
40
0
40
1
40
1
40
1
40
1
41
1
10
15.2124453716294
20
-1.93053362318722
30
-1E-16
41
1
10
15.1940591359972
20
-1.93691527548111
30
-1E-16
41
1
10
15.1756758606917
20
-1.94330164390999
30
-1E-16
41
1
10
15.1572955386529
20
-1.94969270781257
30
-1E-16
0
SPLINE
5
F0
100
AcDbEntity
8
1
62
256
6
ByLayer
370
18
48
1
60
0
100
AcDbSpline
70
4
71
3
72
10
73
6
40
0
40
0
40
0
40
0
40
0.39371062073128
40
0.39371062073128
40
1
40
1
40
1
40
1
41
1
10
14.5023437387675
20
-2.17981969926089
30
-1E-16
41
1
10
14.2496072315517
20
-2.26953393573223
30
-1E-16
41
1
10
13.9974173360725
20
-2.36009585058858
30
-1E-16
41
1
10
13.3582122088483
20
-2.59213242927117
30
-1E-16
41
1
10
12.9719224527901
20
-2.7347049075567
30
-1E-16
41
1
10
12.5868245578193
20
-2.87900408045869
30
0
0
SPLINE
5
F1
100
AcDbEntity
8
1
62
256
6
ByLayer
370
18
48
1
60
0
100
AcDbSpline
70
4
71
3
72
20
73
16
40
0
40
0
40
0
40
0
40
0.0957894093874208
40
0.0957894093874208
40
0.224962350903504
40
0.224962350903504
40
0.354135292419586
40
0.354135292419586
40
0.483308233935669
40
0.483308233935669
40
0.612481175451752
40
0.612481175451752
40
0.741654116967835
40
0.741654116967835
40
1
40
1
40
1
40
1
41
1
10
31.4222316975098
20
-0.222776898917374
30
0
41
1
10
31.1085815145787
20
-0.0861628207952094
30
0
41
1
10
30.794756015949
20
0.0512870666064771
30
0
41
1
10
30.0581719831311
20
0.372549238008787
30
0
41
1
10
29.6357437710026
20
0.555631496191012
30
0
41
1
10
28.7897245962772
20
0.914117533822321
30
-1E-16
41
1
10
28.3665001089157
20
1.08920790770105
30
-1E-16
41
1
10
27.5210556428126
20
1.4250371730644
30
-1E-16
41
1
10
27.0979534734344
20
1.58592649048163
30
-1E-16
41
1
10
26.2511899693433
20
1.88880374142821
30
-1E-16
41
1
10
25.8278012051931
20
2.03040573684439
30
-1E-16
41
1
10
24.9810689034587
20
2.28962841675809
30
1E-16
41
1
10
24.5577966533811
20
2.40676536437567
30
1E-16
41
1
10
23.2877996279143
20
2.71649523752498
30
1E-16
41
1
10
22.4459229261479
20
2.86438862982149
30
0
41
1
10
21.6
20
2.94664392475073
30
0
0
SPLINE
5
F2
100
AcDbEntity
8
1
62
256
6
ByLayer
370
18
48
1
60
0
100
AcDbSpline
70
4
71
3
72
12
73
8
40
0
40
0
40
0
40
0
40
0.500000000000028
40
0.500000000000028
40
0.750000000000014
40
0.750000000000014
40
1
40
1
40
1
40
1
41
1
10
10.5017083818954
20
2.93887637873527
30
0
41
1
10
10.5017083818954
20
2.92266632074839
30
0
41
1
10
10.509467322345
20
2.90615801174224
30
0
41
1
10
10.5348297624192
20
2.88531083003539
30
0
41
1
10
10.5455882394186
20
2.87912402583567
30
0
41
1
10
10.5716145164174
20
2.87011902398925
30
0
41
1
10
10.5867693739142
20
2.8674594599147
30
0
41
1
10
10.6023783126244
20
2.86753547725169
30
0
0
SPLINE
5
F3
100
AcDbEntity
8
1
62
256
6
ByLayer
370
18
48
1
60
0
100
AcDbSpline
70
4
71
3
72
8
73
4
40
0
40
0
40
0
40
0
40
1
40
1
40
1
40
1
41
1
10
10.5620685773702
20
-0.174122871105311
30
0
41
1
10
10.5615376629822
20
-0.176619716409249
30
0
41
1
10
10.5610126883839
20
-0.1791082196969
30
0
41
1
10
10.5604937070315
20
-0.181588771100536
30
0
0
SPLINE
5
F4
100
AcDbEntity
8
1
62
256
6
ByLayer
370
18
48
1
60
0
100
AcDbSpline
70
4
71
3
72
26
73
22
40
0
40
0
40
0
40
0
40
0.124999999999988
40
0.124999999999988
40
0.156249999999984
40
0.156249999999984
40
0.187499999999981
40
0.187499999999981
40
0.249999999999985
40
0.249999999999985
40
0.312499999999988
40
0.312499999999988
40
0.374999999999991
40
0.374999999999991
40
0.437499999999995
40
0.437499999999995
40
0.499999999999998
40
0.499999999999998
40
0.749999999999999
40
0.749999999999999
40
1
40
1
40
1
40
1
41
1
10
42.2098531465161
20
0.287033907620895
30
0
41
1
10
42.1794583799329
20
0.301729201097061
30
0
41
1
10
42.1496015423219
20
0.32005189833157
30
0
41
1
10
42.1128470860411
20
0.347181309873804
30
0
41
1
10
42.1055239723619
20
0.352828242629187
30
0
41
1
10
42.0909327501488
20
0.364585366029701
30
0
41
1
10
42.0837711218336
20
0.371098114106957
30
0
41
1
10
42.0620588097485
20
0.390075978166919
30
0
41
1
10
42.046842632944
20
0.400354055811391
30
0
41
1
10
42.015720570287
20
0.417771933614432
30
0
41
1
10
41.9999637338889
20
0.42584411401748
30
0
41
1
10
41.9682711521556
20
0.441777994611215
30
0
41
1
10
41.9521326348431
20
0.448501029573975
30
0
41
1
10
41.9193775697688
20
0.4597129746615
30
0
41
1
10
41.9028065250054
20
0.464074533246219
30
0
41
1
10
41.8695473509803
20
0.471761750095595
30
0
41
1
10
41.8528759531512
20
0.475539354651858
30
0
41
1
10
41.7691508027979
20
0.491374561932162
30
0
41
1
10
41.700612842099
20
0.489885507608051
30
0
41
1
10
41.5649794040207
20
0.476240141328162
30
0
41
1
10
41.4980184561144
20
0.458572399459797
30
0
41
1
10
41.4325760751162
20
0.434177629227207
30
0
0
SPLINE
5
F5
100
AcDbEntity
8
1
62
256
6
ByLayer
370
18
48
1
60
0
100
AcDbSpline
70
4
71
3
72
28
73
24
40
0
40
0
40
0
40
0
40
0.0877077440399207
40
0.0877077440399207
40
0.175415488079842
40
0.175415488079842
40
0.263123232119762
40
0.263123232119762
40
0.350830976159683
40
0.350830976159683
40
0.526246464239525
40
0.526246464239525
40
0.613954208279446
40
0.613954208279446
40
0.701661952319367
40
0.701661952319367
40
0.789369696359288
40
0.789369696359288
40
0.877077440399208
40
0.877077440399208
40
0.964785184439129
40
0.964785184439129
40
1
40
1
40
1
40
1
41
1
10
41.5179036677264
20
-0.0525207367784049
30
0
41
1
10
41.1949236137772
20
0.0881770466197622
30
0
41
1
10
40.8722349170371
20
0.22775962650428
30
0
41
1
10
40.2292087345863
20
0.502759664371354
30
0
41
1
10
39.908595897534
20
0.638358525512444
30
0
41
1
10
39.2689308248331
20
0.904548966242288
30
-1E-16
41
1
10
38.9498202546205
20
1.03505547840481
30
-1E-16
41
1
10
38.3122357088303
20
1.28867216775512
30
-1E-16
41
1
10
37.9938664947915
20
1.41177204546878
30
-1E-16
41
1
10
37.0368279081725
20
1.76619282777904
30
-1E-16
41
1
10
36.3968019750193
20
1.98358863966661
30
-1E-16
41
1
10
35.4304324319402
20
2.2691092267255
30
1E-16
41
1
10
35.106602913468
20
2.35703555106096
30
1E-16
41
1
10
34.4609607271695
20
2.51745290268227
30
1E-16
41
1
10
34.1386564140428
20
2.59029340436379
30
1E-16
41
1
10
33.496745088244
20
2.71741635090791
30
1E-16
41
1
10
33.1772911921063
20
2.77105788918399
30
1E-16
41
1
10
32.5381654662428
20
2.86197750129981
30
0
41
1
10
32.218632084969
20
2.89904496659906
30
0
41
1
10
31.5798043467462
20
2.95348024813461
30
0
41
1
10
31.2605967384108
20
2.97015413171744
30
0
41
1
10
30.8120219263131
20
2.98165477839726
30
0
41
1
10
30.6833840501852
20
2.98356602701171
30
0
41
1
10
30.554610363245
20
2.98398436001872
30
0
0
SPLINE
5
F6
100
AcDbEntity
8
1
62
256
6
ByLayer
370
18
48
1
60
0
100
AcDbSpline
70
4
71
3
72
12
73
8
40
0
40
0
40
0
40
0
40
0.0575213492797766
40
0.225538025237387
40
0.436979509140898
40
0.713811570218733
40
1
40
1
40
1
40
1
41
1
10
41.9242474680676
20
0.458581067291078
30
0
41
1
10
41.8616102579608
20
0.478489135991879
30
0
41
1
10
41.6162076769414
20
0.557114585886183
30
0
41
1
10
41.1427251781833
20
0.715094657927807
30
0
41
1
10
40.4336237254088
20
0.958714731638707
30
-1E-16
41
1
10
39.6006662981023
20
1.25796927256957
30
-1E-16
41
1
10
38.9988950253089
20
1.48613576485019
30
-1E-16
41
1
10
38.6939360672124
20
1.6047934279913
30
-1E-16
0
SPLINE
5
F7
100
AcDbEntity
8
1
62
256
6
ByLayer
370
18
48
1
60
0
100
AcDbSpline
70
4
71
1
72
4
73
2
40
0
40
0
40
1
40
1
41
1
10
38.6939360672124
20
1.6047934279913
30
-1E-16
41
1
10
38.5142955274182
20
1.67288953393461
30
-1E-16
0
SPLINE
5
F8
100
AcDbEntity
8
1
62
256
6
ByLayer
370
18
48
1
60
0
100
AcDbSpline
70
4
71
3
72
19
73
15
40
0
40
0
40
0
40
0
40
0.159678108141615
40
0.269881048412207
40
0.347480117210213
40
0.418569809251074
40
0.491204676576811
40
0.569051355357518
40
0.650867888272319
40
0.785283773802001
40
0.906968463532557
40
0.946208601612216
40
0.985033497792735
40
1
40
1
40
1
40
1
41
1
10
21.0317827700694
20
-2.97967919662568
30
0
41
1
10
21.4211341332871
20
-2.97976400256226
30
0
41
1
10
22.0792070570156
20
-2.98006038380058
30
0
41
1
10
22.9265230449089
20
-2.98070981880738
30
0
41
1
10
23.5578169390911
20
-2.98144915476837
30
0
41
1
10
24.0975073462592
20
-2.9812294313808
30
0
41
1
10
24.637801840334
20
-2.98145321106713
30
0
41
1
10
25.2042534862305
20
-2.9823392924967
30
0
41
1
10
25.9213569102608
20
-2.98184170435675
30
0
41
1
10
26.7453572628687
20
-2.98300393552754
30
0
41
1
10
27.465537251133
20
-2.98335516522323
30
0
41
1
10
27.9526180027359
20
-2.98278451060389
30
0
41
1
10
28.1794726514878
20
-2.98271488056122
30
0
41
1
10
28.3106401746758
20
-2.98275389871535
30
0
41
1
10
28.3471351549943
20
-2.98277096257374
30
0
0
SPLINE
5
F9
100
AcDbEntity
8
1
62
256
6
ByLayer
370
18
48
1
60
0
100
AcDbSpline
70
4
71
3
72
28
73
24
40
0
40
0
40
0
40
0
40
9.1735314635E-06
40
1.7224307963E-05
40
2.45696685787E-05
40
5.14704420129E-05
40
9.66128419068E-05
40
0.0001355094304235
40
0.0003927109062295
40
0.0005987295835547
40
0.0009779136482504
40
0.0016911554414029
40
0.0030805562712704
40
0.0059331385541047
40
0.0122205524968071
40
0.0714086855868487
40
0.177003720075724
40
0.306116653198252
40
0.407404536441149
40
0.50686377709411
40
0.630493495449179
40
0.806195572850516
40
1
40
1
40
1
40
1
41
1
10
22.1633740814466
20
-0.146228802694793
30
0
41
1
10
22.1633801092332
20
-0.146230325714186
30
0
41
1
10
22.1633906009373
20
-0.146232927290868
30
0
41
1
10
22.1634032463711
20
-0.146235870579574
30
0
41
1
10
22.1633818125288
20
-0.146229026147438
30
0
41
1
10
22.1633070895579
20
-0.146206347914983
30
0
41
1
10
22.1631925343739
20
-0.146171698942027
30
0
41
1
10
22.1626628767635
20
-0.146015939289782
30
0
41
1
10
22.1617242719925
20
-0.145745284121062
30
0
41
1
10
22.1603350719037
20
-0.145339415058459
30
0
41
1
10
22.1581185895844
20
-0.144694820852777
30
0
41
1
10
22.1539079532399
20
-0.143470900677642
30
0
41
1
10
22.1454117039708
20
-0.141008824254158
30
0
41
1
10
22.1272214310896
20
-0.13575608632101
30
0
41
1
10
22.0079208409481
20
-0.10146651337601
30
0
41
1
10
21.7048521300611
20
-0.0143310399873826
30
0
41
1
10
21.1870821518073
20
0.139384310831645
30
0
41
1
10
20.5958139737049
20
0.321973696246403
30
0
41
1
10
20.0176217326672
20
0.507550807816187
30
0
41
1
10
19.4506530989036
20
0.695406972026348
30
0
41
1
10
18.7560897993384
20
0.933631119976866
30
-1E-16
41
1
10
17.9009905604778
20
1.23955144204211
30
-1E-16
41
1
10
17.2645086946829
20
1.48056064232759
30
-1E-16
41
1
10
16.9317782166108
20
1.61009544891033
30
-1E-16
0
SPLINE
5
FA
100
AcDbEntity
8
1
62
256
6
ByLayer
370
18
48
1
60
0
100
AcDbSpline
70
4
71
3
72
19
73
15
40
0
40
0
40
0
40
0
40
0.157517431681527
40
0.265826535435983
40
0.341717722894472
40
0.41157353513863
40
0.483253690411085
40
0.560137773406187
40
0.640887623703092
40
0.773502291619356
40
0.893644025040544
40
0.932558145017853
40
0.971156301517717
40
1
40
1
40
1
40
1
41
1
10
30.5436073298663
20
2.98403943386137
30
0
41
1
10
30.1544211739189
20
2.9845304895245
30
0
41
1
10
29.4976264055906
20
2.98488381131278
30
0
41
1
10
28.653312229511
20
2.98281286736102
30
0
41
1
10
28.0255895809337
20
2.98263071373134
30
0
41
1
10
27.4883685291675
20
2.98336935595265
30
0
41
1
10
26.9486918627875
20
2.98337095965408
30
0
41
1
10
26.3820987596017
20
2.98202143743072
30
0
41
1
10
25.6649460211272
20
2.98216149615732
30
0
41
1
10
24.840911909072
20
2.98181048960956
30
0
41
1
10
24.1202461642923
20
2.98125187659653
30
0
41
1
10
23.6318802730304
20
2.98134775636569
30
0
41
1
10
23.3690935326766
20
2.98125697728534
30
0
41
1
10
23.2024588950118
20
2.98106696212267
30
0
41
1
10
23.131192211895
20
2.98098236859181
30
0
0
LINE
5
84
100
AcDbEntity
8
SK1
62
256
6
ByLayer
370
18
48
1
60
0
100
AcDbLine
10
-36
20
-2.76
30
0
11
-36
21
2.76
31
0
39
0
210
0
220
0
230
1
0
LINE
5
86
100
AcDbEntity
8
SK1
62
256
6
ByLayer
370
18
48
1
60
0
100
AcDbLine
10
-34.76
20
-4
30
0
11
-34.76
21
4
31
0
39
0
210
0
220
0
230
1
0
LINE
5
87
100
AcDbEntity
8
SK1
62
256
6
ByLayer
370
18
48
1
60
0
100
AcDbLine
10
0
20
4
30
0
11
0
21
-4
31
0
39
0
210
0
220
0
230
1
0
LINE
5
88
100
AcDbEntity
8
1
62
256
6
ByLayer
370
18
48
1
60
0
100
AcDbLine
10
10.501708
20
-0.090551
30
0
11
10.501708
21
2.993671
31
0
39
0
210
0
220
0
230
1
0
LINE
5
89
100
AcDbEntity
8
1
62
256
6
ByLayer
370
18
48
1
60
0
100
AcDbLine
10
0
20
4
30
0
11
0
21
0
31
0
39
0
210
0
220
0
230
1
0
LINE
5
8A
100
AcDbEntity
8
1
62
256
6
ByLayer
370
18
48
1
60
0
100
AcDbLine
10
0
20
0
30
0
11
0
21
-4
31
0
39
0
210
0
220
0
230
1
0
LINE
5
8B
100
AcDbEntity
8
1
62
256
6
ByLayer
370
18
48
1
60
0
100
AcDbLine
10
0.713226
20
3.562366
30
0
11
0.713226
21
0
31
0
39
0
210
0
220
0
230
1
0
LINE
5
8C
100
AcDbEntity
8
1
62
256
6
ByLayer
370
18
48
1
60
0
100
AcDbLine
10
0.713226
20
0
30
0
11
0.713226
21
-3.562366
31
0
39
0
210
0
220
0
230
1
0
LINE
5
8D
100
AcDbEntity
8
1
62
256
6
ByLayer
370
18
48
1
60
0
100
AcDbLine
10
1.426951
20
3.124732
30
0
11
1.426951
21
0
31
0
39
0
210
0
220
0
230
1
0
LINE
5
8E
100
AcDbEntity
8
1
62
256
6
ByLayer
370
18
48
1
60
0
100
AcDbLine
10
1.426951
20
0
30
0
11
1.426951
21
-3.124732
31
0
39
0
210
0
220
0
230
1
0
LINE
5
8F
100
AcDbEntity
8
1
62
256
6
ByLayer
370
18
48
1
60
0
100
AcDbLine
10
42.956073
20
0.037921
30
0
11
42.163746
21
0.912512
31
0
39
0
210
0
220
0
230
1
0
LINE
5
90
100
AcDbEntity
8
1
62
256
6
ByLayer
370
18
48
1
60
0
100
AcDbLine
10
21.6
20
3.060018
30
0
11
21.6
21
3.049951
31
0
39
0
210
0
220
0
230
1
0
LINE
5
91
100
AcDbEntity
8
SK1
62
256
6
ByLayer
370
18
48
1
60
0
100
AcDbLine
10
-34.76
20
-4
30
0
11
0
21
-4
31
0
39
0
210
0
220
0
230
1
0
LINE
5
92
100
AcDbEntity
8
SK1
62
256
6
ByLayer
370
18
48
1
60
0
100
AcDbLine
10
0
20
4
30
0
11
-34.76
21
4
31
0
39
0
210
0
220
0
230
1
0
LINE
5
93
100
AcDbEntity
8
SK1
62
256
6
ByLayer
370
18
48
1
60
0
100
AcDbLine
10
-36
20
-2.76
30
0
11
-34.76
21
-4
31
0
39
0
210
0
220
0
230
1
0
LINE
5
94
100
AcDbEntity
8
SK1
62
256
6
ByLayer
370
18
48
1
60
0
100
AcDbLine
10
-34.76
20
4
30
0
11
-36
21
2.76
31
0
39
0
210
0
220
0
230
1
0
LINE
5
95
100
AcDbEntity
8
1
62
256
6
ByLayer
370
18
48
1
60
0
100
AcDbLine
10
1.426951
20
-3.124732
30
0
11
10.312548
21
-3.130286
31
0
39
0
210
0
220
0
230
1
0
LINE
5
96
100
AcDbEntity
8
1
62
256
6
ByLayer
370
18
48
1
60
0
100
AcDbLine
10
19.962576
20
-3.136317
30
0
11
21.034344
21
-3.136987
31
0
39
0
210
0
220
0
230
1
0
LINE
5
97
100
AcDbEntity
8
1
62
256
6
ByLayer
370
18
48
1
60
0
100
AcDbLine
10
30.543668
20
-3.14293
30
0
11
31.52168
21
-3.143542
31
0
39
0
210
0
220
0
230
1
0
LINE
5
98
100
AcDbEntity
8
1
62
256
6
ByLayer
370
18
48
1
60
0
100
AcDbLine
10
31.52168
20
3.143542
30
0
11
30.543668
21
3.14293
31
0
39
0
210
0
220
0
230
1
0
LINE
5
99
100
AcDbEntity
8
1
62
256
6
ByLayer
370
18
48
1
60
0
100
AcDbLine
10
21.034344
20
3.136987
30
0
11
19.962576
21
3.136317
31
0
39
0
210
0
220
0
230
1
0
LINE
5
9A
100
AcDbEntity
8
1
62
256
6
ByLayer
370
18
48
1
60
0
100
AcDbLine
10
10.312548
20
3.130286
30
0
11
1.426951
21
3.124732
31
0
39
0
210
0
220
0
230
1
0
LINE
5
9B
100
AcDbEntity
8
SK4
62
256
6
ByLayer
370
18
48
0.05
60
0
100
AcDbLine
10
48
20
0
30
0
11
-41
21
0
31
0
39
0
210
0
220
0
230
1
0
LINE
5
9D
100
AcDbEntity
8
4
62
256
6
ByLayer
370
18
48
0.05
60
0
100
AcDbLine
10
-36
20
0
30
0
11
48
21
0
31
0
39
0
210
0
220
0
230
1
0
LINE
5
9F
100
AcDbEntity
8
80
62
256
6
ByLayer
370
18
48
1
60
0
100
AcDbLine
10
0
20
0
30
0
11
-6
21
0
31
0
39
0
210
0
220
0
230
1
0
LINE
5
A0
100
AcDbEntity
8
81
62
256
6
ByLayer
370
18
48
1
60
0
100
AcDbLine
10
43
20
0
30
0
11
49
21
0
31
0
39
0
210
0
220
0
230
1
0
LINE
5
A1
100
AcDbEntity
8
SK2
62
256
6
ByLayer
370
13
48
1
60
0
100
AcDbLine
10
43.542954
20
1.491763
30
0
11
50.926279
21
21.77739
31
0
39
0
210
0
220
0
230
1
0
LINE
5
A3
100
AcDbEntity
8
SK2
62
256
6
ByLayer
370
13
48
1
60
0
100
AcDbLine
10
43.542954
20
-1.491763
30
0
11
50.926279
21
-21.77739
31
0
39
0
210
0
220
0
230
1
0
LINE
5
A4
100
AcDbEntity
8
1
62
256
6
ByLayer
370
13
48
1
60
0
100
AcDbLine
10
49.84037
20
18.793864
30
0
11
52.936962
21
17.977498
31
0
39
0
210
0
220
0
230
1
0
LINE
5
A5
100
AcDbEntity
8
1
62
256
6
ByLayer
370
13
48
1
60
0
100
AcDbLine
10
49.84037
20
18.793864
30
0
11
52.62016
21
17.203856
31
0
39
0
210
0
220
0
230
1
0
LINE
5
A6
100
AcDbEntity
8
1
62
256
6
ByLayer
370
13
48
1
60
0
100
AcDbLine
10
52.936962
20
17.977498
30
0
11
52.62016
21
17.203856
31
0
39
0
210
0
220
0
230
1
0
LINE
5
A7
100
AcDbEntity
8
1
62
256
6
ByLayer
370
13
48
1
60
0
100
AcDbLine
10
49.84037
20
-18.793864
30
0
11
52.620157
21
-17.203858
31
0
39
0
210
0
220
0
230
1
0
LINE
5
A8
100
AcDbEntity
8
1
62
256
6
ByLayer
370
13
48
1
60
0
100
AcDbLine
10
49.84037
20
-18.793864
30
0
11
52.936965
21
-17.977497
31
0
39
0
210
0
220
0
230
1
0
LINE
5
A9
100
AcDbEntity
8
1
62
256
6
ByLayer
370
13
48
1
60
0
100
AcDbLine
10
52.620157
20
-17.203858
30
0
11
52.936965
21
-17.977497
31
0
39
0
210
0
220
0
230
1
0
MTEXT
5
FB
100
AcDbEntity
8
SK2
62
256
6
ByLayer
370
18
48
1
60
0
100
AcDbMText
10
56.717388
20
-2.467451
30
0
210
0
220
0
230
1
1
\W0.7237;140.00
40
3.50012
41
0
44
1.084337
50
0
71
7
72
5
7
iso_b_vert
0
MTEXT
5
FE
100
AcDbEntity
8
SK6
62
256
6
ByLayer
370
18
48
1
60
0
100
AcDbMText
10
-35.831725
20
-51.202319
30
0
210
0
220
0
230
1
1
\W0.7561;860.1-0630-020A0-GM X1BM
40
3.175
41
0
44
1.084337
50
0
71
7
72
5
7
iso_b_vert
0
DIMENSION
5
101
100
AcDbEntity
8
SK2
62
256
6
ByLayer
370
18
48
1
60
0
100
AcDbDimension
2
_U0
10
43
20
-27.50012
30
0
11
21.5
21
-27.50012
31
0
70
32
71
2
72
1
41
1
210
0
220
0
230
1
3
Standard
100
AcDbAlignedDimension
13
0
23
-4
33
0
14
43
24
0
34
0
50
0
100
AcDbRotatedDimension
1001
ACAD
1000
DSTYLE
1002
{
1070
   371
1070
    13
1070
   372
1070
    13
1070
     3
1000

1070
   170
1070
     0
1070
   144
1040
1.0
1070
   277
1070
     2
1070
   284
1070
     8
1070
   278
1070
    46
1070
   146
1040
0.999966
1070
   345
1005
16
1070
   347
1005
16
1070
   346
1005
16
1070
   344
1005
102
1070
   343
1005
102
1070
   172
1070
     1
1070
    76
1070
     0
1070
    75
1070
     0
1070
   282
1070
     0
1070
   281
1070
     0
1070
    71
1070
     0
1070
    74
1070
     0
1070
   279
1070
     0
1070
   173
1070
     1
1070
   340
1005
FC
1070
   271
1070
     1
1070
   272
1070
     2
1070
    77
1070
     1
1070
    73
1070
     1
1070
   171
1070
     3
1070
   274
1070
     4
1070
   177
1070
   150
1070
   176
1070
     9
1070
   178
1070
    43
1070
    78
1070
     8
1070
    48
1040
-0.1
1070
    41
1040
3.175
1070
   147
1040
1.75006
1070
    42
1040
1.5875
1070
    44
1040
3.175
1070
   140
1040
3.50012
1002
}
1001
ACAD_DSTYLE_DIM_LINETYPE
1070
   380
1005
16
1001
ACAD_DSTYLE_DIM_EXT1_LINETYPE
1070
   381
1005
16
1001
ACAD_DSTYLE_DIM_EXT2_LINETYPE
1070
   382
1005
16
0
DIMENSION
5
127
100
AcDbEntity
8
2
62
256
6
ByLayer
370
18
48
1
60
0
100
AcDbDimension
2
_U1
10
49.75006
20
3.15
30
0
11
49.75006
21
18.639897
31
0
70
32
71
1
72
1
41
1
210
0
220
0
230
1
3
Standard
100
AcDbAlignedDimension
13
41.8535
23
-3.15
33
0
14
41.8535
24
3.15
34
0
50
90
100
AcDbRotatedDimension
1001
ACAD
1000
DSTYLE
1002
{
1070
   371
1070
    13
1070
   372
1070
    13
1070
     3
1000

1070
   170
1070
     0
1070
   144
1040
1.0
1070
   277
1070
     2
1070
   284
1070
     8
1070
   278
1070
    46
1070
   146
1040
0.999966
1070
   345
1005
16
1070
   347
1005
16
1070
   346
1005
16
1070
   344
1005
102
1070
   343
1005
102
1070
   172
1070
     1
1070
    76
1070
     0
1070
    75
1070
     0
1070
   282
1070
     0
1070
   281
1070
     0
1070
    71
1070
     0
1070
    74
1070
     0
1070
   279
1070
     0
1070
   173
1070
     1
1070
   340
1005
FC
1070
   271
1070
     1
1070
   272
1070
     2
1070
    77
1070
     1
1070
    73
1070
     0
1070
   171
1070
     3
1070
   274
1070
     4
1070
   177
1070
   150
1070
   176
1070
     9
1070
   178
1070
    43
1070
    78
1070
     8
1070
    48
1040
-0.1
1070
    41
1040
3.175
1070
   147
1040
1.75006
1070
    42
1040
1.5875
1070
    44
1040
3.175
1070
   140
1040
3.50012
1002
}
1001
ACAD_DSTYLE_DIM_LINETYPE
1070
   380
1005
16
1001
ACAD_DSTYLE_DIM_EXT1_LINETYPE
1070
   381
1005
16
1001
ACAD_DSTYLE_DIM_EXT2_LINETYPE
1070
   382
1005
16
0
DIMENSION
5
146
100
AcDbEntity
8
SK2
62
256
6
ByLayer
370
18
48
1
60
0
100
AcDbDimension
2
_U2
10
-39.24994
20
-4
30
0
11
-39.24994
21
18.10734
31
0
70
32
71
1
72
1
41
1
210
0
220
0
230
1
3
Standard
100
AcDbAlignedDimension
13
-36
23
4
33
0
14
-36
24
-4
34
0
50
90
100
AcDbRotatedDimension
1001
ACAD
1000
DSTYLE
1002
{
1070
   371
1070
    13
1070
   372
1070
    13
1070
     3
1000

1070
   170
1070
     0
1070
   144
1040
1.0
1070
   277
1070
     2
1070
   284
1070
     8
1070
   278
1070
    46
1070
   146
1040
0.999966
1070
   345
1005
16
1070
   347
1005
16
1070
   346
1005
16
1070
   344
1005
102
1070
   343
1005
102
1070
   172
1070
     1
1070
    76
1070
     0
1070
    75
1070
     0
1070
   282
1070
     0
1070
   281
1070
     0
1070
    71
1070
     0
1070
    74
1070
     0
1070
   279
1070
     0
1070
   173
1070
     1
1070
   340
1005
FC
1070
   271
1070
     1
1070
   272
1070
     2
1070
    77
1070
     1
1070
    73
1070
     0
1070
   171
1070
     3
1070
   274
1070
     4
1070
   177
1070
   150
1070
   176
1070
     9
1070
   178
1070
    43
1070
    78
1070
     8
1070
    48
1040
-0.1
1070
    41
1040
3.175
1070
   147
1040
1.75006
1070
    42
1040
1.5875
1070
    44
1040
3.175
1070
   140
1040
3.50012
1002
}
1001
ACAD_DSTYLE_DIM_LINETYPE
1070
   380
1005
16
1001
ACAD_DSTYLE_DIM_EXT1_LINETYPE
1070
   381
1005
16
1001
ACAD_DSTYLE_DIM_EXT2_LINETYPE
1070
   382
1005
16
0
DIMENSION
5
164
100
AcDbEntity
8
SK2
62
256
6
ByLayer
370
18
48
1
60
0
100
AcDbDimension
2
_U3
10
0
20
-27.50012
30
0
11
-18
21
-27.50012
31
0
70
32
71
1
72
1
41
1
210
0
220
0
230
1
3
Standard
100
AcDbAlignedDimension
13
-36
23
-4
33
0
14
0
24
-4
34
0
50
0
100
AcDbRotatedDimension
1001
ACAD
1000
DSTYLE
1002
{
1070
   371
1070
    13
1070
   372
1070
    13
1070
     3
1000

1070
   170
1070
     0
1070
   144
1040
1.0
1070
   277
1070
     2
1070
   284
1070
     8
1070
   278
1070
    46
1070
   146
1040
0.999966
1070
   345
1005
16
1070
   347
1005
16
1070
   346
1005
16
1070
   344
1005
102
1070
   343
1005
102
1070
   172
1070
     1
1070
    76
1070
     0
1070
    75
1070
     0
1070
   282
1070
     0
1070
   281
1070
     0
1070
    71
1070
     0
1070
    74
1070
     0
1070
   279
1070
     0
1070
   173
1070
     1
1070
   340
1005
FC
1070
   271
1070
     1
1070
   272
1070
     2
1070
    77
1070
     1
1070
    73
1070
     1
1070
   171
1070
     3
1070
   274
1070
     4
1070
   177
1070
   150
1070
   176
1070
     9
1070
   178
1070
    43
1070
    78
1070
     8
1070
    48
1040
-0.1
1070
    41
1040
3.175
1070
   147
1040
1.75006
1070
    42
1040
1.5875
1070
    44
1040
3.175
1070
   140
1040
3.50012
1002
}
1001
ACAD_DSTYLE_DIM_LINETYPE
1070
   380
1005
16
1001
ACAD_DSTYLE_DIM_EXT1_LINETYPE
1070
   381
1005
16
1001
ACAD_DSTYLE_DIM_EXT2_LINETYPE
1070
   382
1005
16
0
DIMENSION
5
180
100
AcDbEntity
8
SK2
62
256
6
ByLayer
370
18
48
1
60
0
100
AcDbDimension
2
_U4
10
43
20
-18.74982
30
0
11
26
21
-18.74982
31
0
70
32
71
1
72
1
41
1
210
0
220
0
230
1
3
Standard
100
AcDbAlignedDimension
13
9
23
3.65
33
0
14
43
24
0
34
0
50
0
100
AcDbRotatedDimension
1001
ACAD
1000
DSTYLE
1002
{
1070
   371
1070
    13
1070
   372
1070
    13
1070
     3
1000

1070
   170
1070
     0
1070
   144
1040
1.0
1070
   277
1070
     2
1070
   284
1070
     8
1070
   278
1070
    46
1070
   146
1040
0.999966
1070
   345
1005
16
1070
   347
1005
16
1070
   346
1005
16
1070
   344
1005
102
1070
   343
1005
102
1070
   172
1070
     1
1070
    76
1070
     0
1070
    75
1070
     0
1070
   282
1070
     0
1070
   281
1070
     0
1070
    71
1070
     0
1070
    74
1070
     0
1070
   279
1070
     0
1070
   173
1070
     1
1070
   340
1005
FC
1070
   271
1070
     1
1070
   272
1070
     2
1070
    77
1070
     1
1070
    73
1070
     1
1070
   171
1070
     3
1070
   274
1070
     4
1070
   177
1070
   150
1070
   176
1070
     9
1070
   178
1070
    43
1070
    78
1070
     8
1070
    48
1040
-0.1
1070
    41
1040
3.175
1070
   147
1040
1.75006
1070
    42
1040
1.5875
1070
    44
1040
3.175
1070
   140
1040
3.50012
1002
}
1001
ACAD_DSTYLE_DIM_LINETYPE
1070
   380
1005
16
1001
ACAD_DSTYLE_DIM_EXT1_LINETYPE
1070
   381
1005
16
1001
ACAD_DSTYLE_DIM_EXT2_LINETYPE
1070
   382
1005
16
0
DIMENSION
5
19C
100
AcDbEntity
8
SK2
62
256
6
ByLayer
370
18
48
1
60
0
100
AcDbDimension
2
_U5
10
43
20
-10.82
30
0
11
33
21
-10.82
31
0
70
32
71
1
72
1
41
1
210
0
220
0
230
1
3
Standard
100
AcDbAlignedDimension
13
23
23
-3.15
33
0
14
43
24
0
34
0
50
0
100
AcDbRotatedDimension
1001
ACAD
1000
DSTYLE
1002
{
1070
   371
1070
    13
1070
   372
1070
    13
1070
     3
1000

1070
   170
1070
     0
1070
   144
1040
1.0
1070
   277
1070
     2
1070
   284
1070
     8
1070
   278
1070
    46
1070
   146
1040
1.25
1070
   345
1005
16
1070
   347
1005
16
1070
   346
1005
16
1070
   344
1005
102
1070
   343
1005
102
1070
   172
1070
     1
1070
    76
1070
     0
1070
    75
1070
     0
1070
   282
1070
     0
1070
   281
1070
     0
1070
    71
1070
     0
1070
    74
1070
     0
1070
   279
1070
     0
1070
   173
1070
     1
1070
   340
1005
FC
1070
   271
1070
     1
1070
   272
1070
     2
1070
    77
1070
     1
1070
    73
1070
     1
1070
   171
1070
     3
1070
   274
1070
     4
1070
   177
1070
   150
1070
   176
1070
     9
1070
   178
1070
    43
1070
    78
1070
     8
1070
    48
1040
-0.1
1070
    41
1040
3.175
1070
   147
1040
0.42
1070
    42
1040
1.5875
1070
    44
1040
0.5
1070
   140
1040
2.8
1002
}
1001
ACAD_DSTYLE_DIM_LINETYPE
1070
   380
1005
16
1001
ACAD_DSTYLE_DIM_EXT1_LINETYPE
1070
   381
1005
16
1001
ACAD_DSTYLE_DIM_EXT2_LINETYPE
1070
   382
1005
16
0
DIMENSION
5
1B8
100
AcDbEntity
8
SK2
62
256
6
ByLayer
370
18
48
1
60
0
100
AcDbDimension
2
_U6
10
43
20
-37.50012
30
0
11
3.5
21
-37.50012
31
0
70
32
71
1
72
1
41
1
210
0
220
0
230
1
3
Standard
100
AcDbAlignedDimension
13
-36
23
0
33
0
14
43
24
0
34
0
50
0
100
AcDbRotatedDimension
1001
ACAD
1000
DSTYLE
1002
{
1070
   371
1070
    13
1070
   372
1070
    13
1070
     3
1000

1070
   170
1070
     0
1070
   144
1040
1.0
1070
   277
1070
     2
1070
   284
1070
     8
1070
   278
1070
    46
1070
   146
1040
0.999966
1070
   345
1005
16
1070
   347
1005
16
1070
   346
1005
16
1070
   344
1005
102
1070
   343
1005
102
1070
   172
1070
     1
1070
    76
1070
     0
1070
    75
1070
     0
1070
   282
1070
     0
1070
   281
1070
     0
1070
    71
1070
     0
1070
    74
1070
     0
1070
   279
1070
     0
1070
   173
1070
     1
1070
   340
1005
FC
1070
   271
1070
     1
1070
   272
1070
     2
1070
    77
1070
     1
1070
    73
1070
     1
1070
   171
1070
     3
1070
   274
1070
     4
1070
   177
1070
   150
1070
   176
1070
     9
1070
   178
1070
    43
1070
    78
1070
     8
1070
    48
1040
-0.1
1070
    41
1040
3.175
1070
   147
1040
1.75006
1070
    42
1040
1.5875
1070
    44
1040
3.175
1070
   140
1040
3.50012
1002
}
1001
ACAD_DSTYLE_DIM_LINETYPE
1070
   380
1005
16
1001
ACAD_DSTYLE_DIM_EXT1_LINETYPE
1070
   381
1005
16
1001
ACAD_DSTYLE_DIM_EXT2_LINETYPE
1070
   382
1005
16
0
ENDSEC
0
SECTION
2
OBJECTS
0
DICTIONARY
5
244
330
0
100
AcDbDictionary
280
0
281
1
3
ACAD_GROUP
350
245
3
ACAD_MLINESTYLE
350
246
0
DICTIONARY
5
245
330
0
100
AcDbDictionary
280
0
281
1
0
DICTIONARY
5
246
330
0
100
AcDbDictionary
280
0
281
1
3
Standard
350
18
0
MLINESTYLE
5
18
330
246
100
AcDbMlineStyle
2
Standard
70
0
3

62
256
51
90
52
90
71
2
49
-0.5
62
256
6
ByLayer
49
0.5
62
256
6
ByLayer
0
RASTERVARIABLES
5
232
330

100
AcDbRasterVariables
90
0
70
1
71
1
72
1
0
ENDSEC
0
EOF
