0
SECTION
2
HEADER
9
$ACADVER
1
AC1015
9
$DWGCODEPAGE
3
ANSI_1252
9
$HANDSEED
5
24c
9
$ANGBASE
50
0
9
$ANGDIR
70
0
9
$ATTMODE
70
1
9
$AUNITS
70
0
9
$AUPREC
70
0
9
$CECOLOR
62
256
9
$CELTSCALE
40
1
9
$CELTYPE
6
ByLayer
9
$CELWEIGHT
370
18
9
$CLAYER
8
0
9
$CMLJUST
70
0
9
$CMLSCALE
40
1
9
$CMLSTYLE
2
Standard
9
$DIMSTYLE
2
Standard
9
$TEXTSIZE
40
0.2
9
$TEXTSTYLE
7
Standard
9
$LUNITS
70
2
9
$LUPREC
70
4
9
$EXTNAMES
290
1
9
$INSUNITS
70
4
9
$LTSCALE
40
1
9
$LWDISPLAY
290
1
9
$PDMODE
70
0
9
$PDSIZE
40
0
9
$PLINEGEN
70
0
0
ENDSEC
0
SECTION
2
CLASSES
0
CLASS
1
RASTERVARIABLES
2
AcDbRasterVariables
3
ISM
90
0
280
0
281
0
0
ENDSEC
0
SECTION
2
TABLES
0
TABLE
2
VPORT
5
242
100
AcDbSymbolTable
0
VPORT
5
1
100
AcDbSymbolTableRecord
100
AcDbViewportTableRecord
2
*Active
70
0
10
0
20
0
11
1
21
1
12
-1
22
1
13
0
23
0
14
0.5
24
0.5
15
10
25
10
16
0
26
0
36
1
17
0
27
0
37
0
0
ENDTAB
0
TABLE
2
LTYPE
5
243
100
AcDbSymbolTable
0
LTYPE
5
14
100
AcDbSymbolTableRecord
100
AcDbLinetypeTableRecord
70
0
2
ByBlock
3

72
65
73
0
40
0
0
LTYPE
5
15
100
AcDbSymbolTableRecord
100
AcDbLinetypeTableRecord
70
0
2
ByLayer
3

72
65
73
0
40
0
0
LTYPE
5
16
100
AcDbSymbolTableRecord
100
AcDbLinetypeTableRecord
70
0
2
Continuous
3
Solid line
72
65
73
0
40
0
0
LTYPE
5
6E
100
AcDbSymbolTableRecord
100
AcDbLinetypeTableRecord
70
0
2
CENTER
3
____ _ ____ _ ____ _ ____
72
65
73
4
40
47.5
49
22
74
0
49
-8.5
74
0
49
8.5
74
0
49
-8.5
74
0
0
LTYPE
5
6F
100
AcDbSymbolTableRecord
100
AcDbLinetypeTableRecord
70
0
2
DASHED
3
__ __ __ __ __ __ __ __ __
72
65
73
2
40
25.72
49
12.86
74
0
49
-12.86
74
0
0
ENDTAB
0
TABLE
2
LAYER
5
244
100
AcDbSymbolTable
0
LAYER
5
10
100
AcDbSymbolTableRecord
100
AcDbLayerTableRecord
2
0
70
0
62
7
6
Continuous
290
1
370
-3
390
0
0
LAYER
5
71
100
AcDbSymbolTableRecord
100
AcDbLayerTableRecord
2
80
70
0
62
-6
6
Continuous
290
1
370
-3
390
0
0
LAYER
5
73
100
AcDbSymbolTableRecord
100
AcDbLayerTableRecord
2
81
70
0
62
-3
6
Continuous
290
1
370
-3
390
0
0
LAYER
5
75
100
AcDbSymbolTableRecord
100
AcDbLayerTableRecord
2
1
70
0
62
4
6
Continuous
290
1
370
-3
390
0
0
LAYER
5
9F
100
AcDbSymbolTableRecord
100
AcDbLayerTableRecord
2
4
70
0
62
-2
6
CENTER
290
1
370
-3
390
0
0
LAYER
5
106
100
AcDbSymbolTableRecord
100
AcDbLayerTableRecord
2
Defpoints
70
0
62
7
6
Continuous
290
0
370
-3
390
0
0
LAYER
5
133
100
AcDbSymbolTableRecord
100
AcDbLayerTableRecord
2
2
70
0
62
7
6
Continuous
290
1
370
-3
390
0
0
LAYER
5
22e
100
AcDbSymbolTableRecord
100
AcDbLayerTableRecord
2
SK1
70
0
62
4
6
Continuous
290
1
370
-3
390
0
0
LAYER
5
22f
100
AcDbSymbolTableRecord
100
AcDbLayerTableRecord
2
SK4
70
0
62
2
6
CENTER
290
1
370
-3
390
0
0
LAYER
5
230
100
AcDbSymbolTableRecord
100
AcDbLayerTableRecord
2
SK2
70
0
62
7
6
Continuous
290
1
370
-3
390
0
0
LAYER
5
231
100
AcDbSymbolTableRecord
100
AcDbLayerTableRecord
2
SK6
70
0
62
5
6
Continuous
290
1
370
-3
390
0
0
ENDTAB
0
TABLE
2
STYLE
5
245
100
AcDbSymbolTable
0
STYLE
5
11
100
AcDbSymbolTableRecord
100
AcDbTextStyleTableRecord
2
Standard
3
txt
70
0
71
0
40
0
41
1
42
0
50
0
0
STYLE
5
F7
100
AcDbSymbolTableRecord
100
AcDbTextStyleTableRecord
2
iso_b_vert
3
simplex.shx
70
0
71
0
40
0
41
1
42
0
50
0
0
STYLE
5
F8
100
AcDbSymbolTableRecord
100
AcDbTextStyleTableRecord
2
DWGDirectTextStyle
3
simplex
70
0
71
0
40
0
41
1
42
0
50
0
0
ENDTAB
0
TABLE
2
DIMSTYLE
5
246
100
AcDbSymbolTable
100
AcDbDimStyleTable
0
DIMSTYLE
105
27
100
AcDbSymbolTableRecord
100
AcDbDimStyleTableRecord
2
Standard
70
0
3
<>
41
0.18
42
0.0625
44
0.18
140
0.18
147
0.09
73
0
74
0
77
1
271
2
275
0
278
52
280
0
340
11
0
ENDTAB
0
TABLE
2
VIEW
5
247
100
AcDbSymbolTable
0
ENDTAB
0
TABLE
2
UCS
5
248
100
AcDbSymbolTable
0
ENDTAB
0
TABLE
2
APPID
5
249
100
AcDbSymbolTable
0
APPID
5
12
100
AcDbSymbolTableRecord
100
AcDbRegAppTableRecord
2
ACAD
70
0
0
APPID
5
FB
100
AcDbSymbolTableRecord
100
AcDbRegAppTableRecord
2
ACAD_DSTYLE_DIMBREAK
70
0
0
APPID
5
1ED
100
AcDbSymbolTableRecord
100
AcDbRegAppTableRecord
2
ACAD_DSTYLE_DIM_LINETYPE
70
0
0
APPID
5
1EE
100
AcDbSymbolTableRecord
100
AcDbRegAppTableRecord
2
ACAD_DSTYLE_DIM_EXT1_LINETYPE
70
0
0
APPID
5
1EF
100
AcDbSymbolTableRecord
100
AcDbRegAppTableRecord
2
ACAD_DSTYLE_DIM_EXT2_LINETYPE
70
0
0
APPID
5
22A
100
AcDbSymbolTableRecord
100
AcDbRegAppTableRecord
2
ACAD_MLEADERVER
70
0
0
ENDTAB
0
TABLE
2
BLOCK_RECORD
5
24a
100
AcDbSymbolTable
0
BLOCK_RECORD
5
1F
100
AcDbSymbolTableRecord
100
AcDbBlockTableRecord
2
*Model_Space
340
0
70
0
0
BLOCK_RECORD
5
1B
100
AcDbSymbolTableRecord
100
AcDbBlockTableRecord
2
*Paper_Space
340
0
70
0
0
BLOCK_RECORD
5
23
100
AcDbSymbolTableRecord
100
AcDbBlockTableRecord
2
*Paper_Space0
340
0
70
0
0
BLOCK_RECORD
5
FD
100
AcDbSymbolTableRecord
100
AcDbBlockTableRecord
2
_Closed
340
0
70
0
0
BLOCK_RECORD
5
107
100
AcDbSymbolTableRecord
100
AcDbBlockTableRecord
2
*D2
340
0
70
0
0
BLOCK_RECORD
5
113
100
AcDbSymbolTableRecord
100
AcDbBlockTableRecord
2
_U0
340
0
70
0
0
BLOCK_RECORD
5
125
100
AcDbSymbolTableRecord
100
AcDbBlockTableRecord
2
*D4
340
0
70
0
0
BLOCK_RECORD
5
134
100
AcDbSymbolTableRecord
100
AcDbBlockTableRecord
2
_U1
340
0
70
0
0
BLOCK_RECORD
5
144
100
AcDbSymbolTableRecord
100
AcDbBlockTableRecord
2
*D6
340
0
70
0
0
BLOCK_RECORD
5
152
100
AcDbSymbolTableRecord
100
AcDbBlockTableRecord
2
_U2
340
0
70
0
0
BLOCK_RECORD
5
162
100
AcDbSymbolTableRecord
100
AcDbBlockTableRecord
2
*D8
340
0
70
0
0
BLOCK_RECORD
5
16E
100
AcDbSymbolTableRecord
100
AcDbBlockTableRecord
2
_U3
340
0
70
0
0
BLOCK_RECORD
5
17E
100
AcDbSymbolTableRecord
100
AcDbBlockTableRecord
2
*D10
340
0
70
0
0
BLOCK_RECORD
5
18A
100
AcDbSymbolTableRecord
100
AcDbBlockTableRecord
2
_U4
340
0
70
0
0
BLOCK_RECORD
5
19A
100
AcDbSymbolTableRecord
100
AcDbBlockTableRecord
2
*D12
340
0
70
0
0
BLOCK_RECORD
5
1A6
100
AcDbSymbolTableRecord
100
AcDbBlockTableRecord
2
_U5
340
0
70
0
0
BLOCK_RECORD
5
1B6
100
AcDbSymbolTableRecord
100
AcDbBlockTableRecord
2
*D14
340
0
70
0
0
BLOCK_RECORD
5
1C2
100
AcDbSymbolTableRecord
100
AcDbBlockTableRecord
2
_U6
340
0
70
0
0
ENDTAB
0
ENDSEC
0
SECTION
2
BLOCKS
0
BLOCK
5
20
100
AcDbEntity
8
0
100
AcDbBlockBegin
2
*Model_Space
70
0
10
0
20
0
30
0
3
*Model_Space
0
ENDBLK
5
21
100
AcDbEntity
8
0
100
AcDbBlockEnd
0
BLOCK
5
1C
100
AcDbEntity
8
0
100
AcDbBlockBegin
2
*Paper_Space
70
0
10
0
20
0
30
0
3
*Paper_Space
0
ENDBLK
5
1D
100
AcDbEntity
8
0
100
AcDbBlockEnd
0
BLOCK
5
24
100
AcDbEntity
8
0
100
AcDbBlockBegin
2
*Paper_Space0
70
0
10
0
20
0
30
0
3
*Paper_Space0
0
ENDBLK
5
25
100
AcDbEntity
8
0
100
AcDbBlockEnd
0
BLOCK
5
FE
100
AcDbEntity
8
0
100
AcDbBlockBegin
2
_Closed
70
0
10
0
20
0
30
0
3
_Closed
0
LINE
5
100
100
AcDbEntity
8
0
62
256
6
ByLayer
370
-2
48
1
60
0
100
AcDbLine
10
-1
20
0.166667
30
0
11
0
21
0
31
0
39
0
210
0
220
0
230
1
0
LINE
5
101
100
AcDbEntity
8
0
62
256
6
ByLayer
370
-2
48
1
60
0
100
AcDbLine
10
0
20
0
30
0
11
-1
21
-0.166667
31
0
39
0
210
0
220
0
230
1
0
LINE
5
102
100
AcDbEntity
8
0
62
256
6
ByLayer
370
-2
48
1
60
0
100
AcDbLine
10
-1
20
0.166667
30
0
11
-1
21
-0.166667
31
0
39
0
210
0
220
0
230
1
0
LINE
5
103
100
AcDbEntity
8
0
62
256
6
ByLayer
370
-2
48
1
60
0
100
AcDbLine
10
0
20
0
30
0
11
-1
21
0
31
0
39
0
210
0
220
0
230
1
0
ENDBLK
5
FF
100
AcDbEntity
8
0
100
AcDbBlockEnd
0
BLOCK
5
108
100
AcDbEntity
8
0
100
AcDbBlockBegin
2
*D2
70
1
10
0
20
0
30
0
3
*D2
0
LINE
5
10A
100
AcDbEntity
8
0
62
256
6
ByLayer
370
-2
48
1
60
0
100
AcDbLine
10
0
20
-4.5875
30
0
11
0
21
-29.67512
31
0
39
0
210
0
220
0
230
1
0
LINE
5
10B
100
AcDbEntity
8
0
62
256
6
ByLayer
370
-2
48
1
60
0
100
AcDbLine
10
30
20
-1.5875
30
0
11
30
21
-29.67512
31
0
39
0
210
0
220
0
230
1
0
LINE
5
10C
100
AcDbEntity
8
0
62
256
6
ByLayer
370
-2
48
1
60
0
100
AcDbLine
10
3.175
20
-26.50012
30
0
11
26.825
21
-26.50012
31
0
39
0
210
0
220
0
230
1
0
SOLID
5
10D
100
AcDbEntity
8
0
62
256
6
ByLayer
370
-1
48
1
60
0
100
AcDbTrace
10
3.175
20
-25.970953
30
0
11
3.175
21
-27.029287
31
0
12
0
22
-26.50012
32
0
13
0
23
-26.50012
33
0
39
0
210
0
220
0
230
1
0
SOLID
5
10E
100
AcDbEntity
8
0
62
256
6
ByLayer
370
-1
48
1
60
0
100
AcDbTrace
10
26.825
20
-27.029287
30
0
11
26.825
21
-25.970953
31
0
12
30
22
-26.50012
32
0
13
30
23
-26.50012
33
0
39
0
210
0
220
0
230
1
0
MTEXT
5
10F
100
AcDbEntity
8
0
62
256
6
ByLayer
370
18
48
1
60
0
100
AcDbMText
10
15
20
-19.19362
30
0
210
0
220
0
230
1
1
\A1;30
40
3.50012
41
0
44
1
50
0
71
5
72
5
7
iso_b_vert
0
POINT
5
110
100
AcDbEntity
8
Defpoints
62
0
6
ByLayer
370
-1
48
1
60
0
100
AcDbPoint
10
0
20
-3
30
0
39
0
210
0
220
0
230
1
50
360
0
POINT
5
111
100
AcDbEntity
8
Defpoints
62
0
6
ByLayer
370
-1
48
1
60
0
100
AcDbPoint
10
30
20
0
30
0
39
0
210
0
220
0
230
1
50
360
0
POINT
5
112
100
AcDbEntity
8
Defpoints
62
0
6
ByLayer
370
-1
48
1
60
0
100
AcDbPoint
10
30
20
-26.50012
30
0
39
0
210
0
220
0
230
1
50
360
0
ENDBLK
5
109
100
AcDbEntity
8
0
100
AcDbBlockEnd
0
BLOCK
5
120
100
AcDbEntity
8
0
100
AcDbBlockBegin
2
_U0
70
0
10
0
20
0
30
0
3
_U0
0
MTEXT
5
114
100
AcDbEntity
8
SK2
62
256
6
ByLayer
370
18
48
1
60
0
100
AcDbMText
10
9.770389
20
-25.467451
30
0
210
0
220
0
230
1
1
\W0.7468;30.00
40
3.50012
41
0
44
1.084337
50
0
71
7
72
5
7
iso_b_vert
0
MTEXT
5
115
100
AcDbEntity
8
SK2
62
256
6
ByLayer
370
18
48
1
60
0
100
AcDbMText
10
6.244329
20
-25.400814
30
0
210
0
220
0
230
1
1
\W0.1790;(
40
3.175
41
0
44
1.084337
50
0
71
7
72
5
7
iso_b_vert
0
MTEXT
5
116
100
AcDbEntity
8
SK2
62
256
6
ByLayer
370
18
48
1
60
0
100
AcDbMText
10
23.758393
20
-25.400814
30
0
210
0
220
0
230
1
1
\W0.1969;)
40
3.175
41
0
44
1.084337
50
0
71
7
72
5
7
iso_b_vert
0
LINE
5
117
100
AcDbEntity
8
SK2
62
256
6
ByLayer
370
13
48
1
60
0
100
AcDbLine
10
0
20
-4.5875
30
0
11
0
21
-29.67512
31
0
39
0
210
0
220
0
230
1
0
LINE
5
118
100
AcDbEntity
8
SK2
62
256
6
ByLayer
370
13
48
1
60
0
100
AcDbLine
10
30
20
-1.5875
30
0
11
30
21
-29.67512
31
0
39
0
210
0
220
0
230
1
0
LINE
5
119
100
AcDbEntity
8
SK2
62
256
6
ByLayer
370
13
48
1
60
0
100
AcDbLine
10
0
20
-26.50012
30
0
11
30
21
-26.50012
31
0
39
0
210
0
220
0
230
1
0
LINE
5
11A
100
AcDbEntity
8
SK2
62
256
6
ByLayer
370
13
48
1
60
0
100
AcDbLine
10
0
20
-26.50012
30
0
11
3.174998
21
-26.082123
31
0
39
0
210
0
220
0
230
1
0
LINE
5
11B
100
AcDbEntity
8
SK2
62
256
6
ByLayer
370
13
48
1
60
0
100
AcDbLine
10
0
20
-26.50012
30
0
11
3.175002
21
-26.918117
31
0
39
0
210
0
220
0
230
1
0
LINE
5
11C
100
AcDbEntity
8
SK2
62
256
6
ByLayer
370
13
48
1
60
0
100
AcDbLine
10
3.174998
20
-26.082123
30
0
11
3.175002
21
-26.918117
31
0
39
0
210
0
220
0
230
1
0
LINE
5
11D
100
AcDbEntity
8
SK2
62
256
6
ByLayer
370
13
48
1
60
0
100
AcDbLine
10
30
20
-26.50012
30
0
11
26.825002
21
-26.918117
31
0
39
0
210
0
220
0
230
1
0
LINE
5
11E
100
AcDbEntity
8
SK2
62
256
6
ByLayer
370
13
48
1
60
0
100
AcDbLine
10
30
20
-26.50012
30
0
11
26.824998
21
-26.082123
31
0
39
0
210
0
220
0
230
1
0
LINE
5
11F
100
AcDbEntity
8
SK2
62
256
6
ByLayer
370
13
48
1
60
0
100
AcDbLine
10
26.825002
20
-26.918117
30
0
11
26.824998
21
-26.082123
31
0
39
0
210
0
220
0
230
1
0
ENDBLK
5
121
100
AcDbEntity
8
0
100
AcDbBlockEnd
0
BLOCK
5
126
100
AcDbEntity
8
0
100
AcDbBlockBegin
2
*D4
70
1
10
0
20
0
30
0
3
*D4
0
LINE
5
128
100
AcDbEntity
8
0
62
256
6
ByLayer
370
-2
48
1
60
0
100
AcDbLine
10
30.4956
20
-3
30
0
11
39.92506
21
-3
31
0
39
0
210
0
220
0
230
1
0
LINE
5
129
100
AcDbEntity
8
0
62
256
6
ByLayer
370
-2
48
1
60
0
100
AcDbLine
10
30.4956
20
3
30
0
11
39.92506
21
3
31
0
39
0
210
0
220
0
230
1
0
LINE
5
12A
100
AcDbEntity
8
0
62
256
6
ByLayer
370
-2
48
1
60
0
100
AcDbLine
10
36.75006
20
3
30
0
11
36.75006
21
22.629622
31
0
39
0
210
0
220
0
230
1
0
LINE
5
12B
100
AcDbEntity
8
0
62
256
6
ByLayer
370
-2
48
1
60
0
100
AcDbLine
10
36.75006
20
-6.175
30
0
11
36.75006
21
-9.35
31
0
39
0
210
0
220
0
230
1
0
LINE
5
12C
100
AcDbEntity
8
0
62
256
6
ByLayer
370
-2
48
1
60
0
100
AcDbLine
10
36.75006
20
6.175
30
0
11
36.75006
21
9.35
31
0
39
0
210
0
220
0
230
1
0
SOLID
5
12D
100
AcDbEntity
8
0
62
256
6
ByLayer
370
-1
48
1
60
0
100
AcDbTrace
10
37.279227
20
-6.175
30
0
11
36.220893
21
-6.175
31
0
12
36.75006
22
-3
32
0
13
36.75006
23
-3
33
0
39
0
210
0
220
0
230
1
0
SOLID
5
12E
100
AcDbEntity
8
0
62
256
6
ByLayer
370
-1
48
1
60
0
100
AcDbTrace
10
36.220893
20
6.175
30
0
11
37.279227
21
6.175
31
0
12
36.75006
22
3
32
0
13
36.75006
23
3
33
0
39
0
210
0
220
0
230
1
0
MTEXT
5
12F
100
AcDbEntity
8
0
62
256
6
ByLayer
370
18
48
1
60
0
100
AcDbMText
10
29.443559
20
15.989811
30
0
210
0
220
0
230
1
1
\A1;6
40
3.50012
41
0
44
1
50
90
71
5
72
5
7
iso_b_vert
0
POINT
5
130
100
AcDbEntity
8
Defpoints
62
0
6
ByLayer
370
-1
48
1
60
0
100
AcDbPoint
10
28.9081
20
-3
30
0
39
0
210
0
220
0
230
1
50
360
0
POINT
5
131
100
AcDbEntity
8
Defpoints
62
0
6
ByLayer
370
-1
48
1
60
0
100
AcDbPoint
10
28.9081
20
3
30
0
39
0
210
0
220
0
230
1
50
360
0
POINT
5
132
100
AcDbEntity
8
Defpoints
62
0
6
ByLayer
370
-1
48
1
60
0
100
AcDbPoint
10
36.75006
20
3
30
0
39
0
210
0
220
0
230
1
50
360
0
ENDBLK
5
127
100
AcDbEntity
8
0
100
AcDbBlockEnd
0
BLOCK
5
13F
100
AcDbEntity
8
0
100
AcDbBlockBegin
2
_U1
70
0
10
0
20
0
30
0
3
_U1
0
MTEXT
5
135
100
AcDbEntity
8
2
62
256
6
ByLayer
370
18
48
1
60
0
100
AcDbMText
10
36.060403
20
7.157505
30
0
210
0
220
0
230
1
1
\W0.7346;6.00
40
3.50012
41
0
44
1.084337
50
90
71
7
72
5
7
iso_b_vert
0
LINE
5
136
100
AcDbEntity
8
2
62
256
6
ByLayer
370
13
48
1
60
0
100
AcDbLine
10
30.4956
20
-3
30
0
11
39.92506
21
-3
31
0
39
0
210
0
220
0
230
1
0
LINE
5
137
100
AcDbEntity
8
2
62
256
6
ByLayer
370
13
48
1
60
0
100
AcDbLine
10
30.4956
20
3
30
0
11
39.92506
21
3
31
0
39
0
210
0
220
0
230
1
0
LINE
5
138
100
AcDbEntity
8
2
62
256
6
ByLayer
370
13
48
1
60
0
100
AcDbLine
10
36.75006
20
15.21468
30
0
11
36.75006
21
-11.7503
31
0
39
0
210
0
220
0
230
1
0
LINE
5
139
100
AcDbEntity
8
2
62
256
6
ByLayer
370
13
48
1
60
0
100
AcDbLine
10
36.75006
20
-3
30
0
11
37.168057
21
-6.174998
31
0
39
0
210
0
220
0
230
1
0
LINE
5
13A
100
AcDbEntity
8
2
62
256
6
ByLayer
370
13
48
1
60
0
100
AcDbLine
10
36.75006
20
-3
30
0
11
36.332063
21
-6.175002
31
0
39
0
210
0
220
0
230
1
0
LINE
5
13B
100
AcDbEntity
8
2
62
256
6
ByLayer
370
13
48
1
60
0
100
AcDbLine
10
37.168057
20
-6.174998
30
0
11
36.332063
21
-6.175002
31
0
39
0
210
0
220
0
230
1
0
LINE
5
13C
100
AcDbEntity
8
2
62
256
6
ByLayer
370
13
48
1
60
0
100
AcDbLine
10
36.75006
20
3
30
0
11
36.332063
21
6.174998
31
0
39
0
210
0
220
0
230
1
0
LINE
5
13D
100
AcDbEntity
8
2
62
256
6
ByLayer
370
13
48
1
60
0
100
AcDbLine
10
36.75006
20
3
30
0
11
37.168057
21
6.175002
31
0
39
0
210
0
220
0
230
1
0
LINE
5
13E
100
AcDbEntity
8
2
62
256
6
ByLayer
370
13
48
1
60
0
100
AcDbLine
10
36.332063
20
6.174998
30
0
11
37.168057
21
6.175002
31
0
39
0
210
0
220
0
230
1
0
ENDBLK
5
140
100
AcDbEntity
8
0
100
AcDbBlockEnd
0
BLOCK
5
145
100
AcDbEntity
8
0
100
AcDbBlockBegin
2
*D6
70
1
10
0
20
0
30
0
3
*D6
0
LINE
5
147
100
AcDbEntity
8
0
62
256
6
ByLayer
370
-2
48
1
60
0
100
AcDbLine
10
-37.5875
20
3
30
0
11
-42.42494
21
3
31
0
39
0
210
0
220
0
230
1
0
LINE
5
148
100
AcDbEntity
8
0
62
256
6
ByLayer
370
-2
48
1
60
0
100
AcDbLine
10
-37.5875
20
-3
30
0
11
-42.42494
21
-3
31
0
39
0
210
0
220
0
230
1
0
LINE
5
149
100
AcDbEntity
8
0
62
256
6
ByLayer
370
-2
48
1
60
0
100
AcDbLine
10
-39.24994
20
3
30
0
11
-39.24994
21
23.747151
31
0
39
0
210
0
220
0
230
1
0
LINE
5
14A
100
AcDbEntity
8
0
62
256
6
ByLayer
370
-2
48
1
60
0
100
AcDbLine
10
-39.24994
20
6.175
30
0
11
-39.24994
21
9.35
31
0
39
0
210
0
220
0
230
1
0
LINE
5
14B
100
AcDbEntity
8
0
62
256
6
ByLayer
370
-2
48
1
60
0
100
AcDbLine
10
-39.24994
20
-6.175
30
0
11
-39.24994
21
-9.35
31
0
39
0
210
0
220
0
230
1
0
SOLID
5
14C
100
AcDbEntity
8
0
62
256
6
ByLayer
370
-1
48
1
60
0
100
AcDbTrace
10
-39.779107
20
6.175
30
0
11
-38.720773
21
6.175
31
0
12
-39.24994
22
3
32
0
13
-39.24994
23
3
33
0
39
0
210
0
220
0
230
1
0
SOLID
5
14D
100
AcDbEntity
8
0
62
256
6
ByLayer
370
-1
48
1
60
0
100
AcDbTrace
10
-38.720773
20
-6.175
30
0
11
-39.779107
21
-6.175
31
0
12
-39.24994
22
-3
32
0
13
-39.24994
23
-3
33
0
39
0
210
0
220
0
230
1
0
MTEXT
5
14E
100
AcDbEntity
8
0
62
256
6
ByLayer
370
18
48
1
60
0
100
AcDbMText
10
-46.556441
20
17.10734
30
0
210
0
220
0
230
1
1
\A1;6
40
3.50012
41
0
44
1
50
90
71
5
72
5
7
iso_b_vert
0
POINT
5
14F
100
AcDbEntity
8
Defpoints
62
0
6
ByLayer
370
-1
48
1
60
0
100
AcDbPoint
10
-36
20
3
30
0
39
0
210
0
220
0
230
1
50
360
0
POINT
5
150
100
AcDbEntity
8
Defpoints
62
0
6
ByLayer
370
-1
48
1
60
0
100
AcDbPoint
10
-36
20
-3
30
0
39
0
210
0
220
0
230
1
50
360
0
POINT
5
151
100
AcDbEntity
8
Defpoints
62
0
6
ByLayer
370
-1
48
1
60
0
100
AcDbPoint
10
-39.24994
20
-3
30
0
39
0
210
0
220
0
230
1
50
360
0
ENDBLK
5
146
100
AcDbEntity
8
0
100
AcDbBlockEnd
0
BLOCK
5
15D
100
AcDbEntity
8
0
100
AcDbBlockBegin
2
_U2
70
0
10
0
20
0
30
0
3
_U2
0
MTEXT
5
153
100
AcDbEntity
8
SK2
62
256
6
ByLayer
370
18
48
1
60
0
100
AcDbMText
10
-39.939597
20
13.157505
30
0
210
0
220
0
230
1
1
\W0.7346;6.00
40
3.50012
41
0
44
1.084337
50
90
71
7
72
5
7
iso_b_vert
0
LINE
5
154
100
AcDbEntity
8
SK2
62
256
6
ByLayer
370
13
48
1
60
0
100
AcDbLine
10
-37.5875
20
3
30
0
11
-42.42494
21
3
31
0
39
0
210
0
220
0
230
1
0
LINE
5
155
100
AcDbEntity
8
SK2
62
256
6
ByLayer
370
13
48
1
60
0
100
AcDbLine
10
-37.5875
20
-3
30
0
11
-42.42494
21
-3
31
0
39
0
210
0
220
0
230
1
0
LINE
5
156
100
AcDbEntity
8
SK2
62
256
6
ByLayer
370
13
48
1
60
0
100
AcDbLine
10
-39.24994
20
-11.7503
30
0
11
-39.24994
21
21.21468
31
0
39
0
210
0
220
0
230
1
0
LINE
5
157
100
AcDbEntity
8
SK2
62
256
6
ByLayer
370
13
48
1
60
0
100
AcDbLine
10
-39.24994
20
3
30
0
11
-39.667937
21
6.174998
31
0
39
0
210
0
220
0
230
1
0
LINE
5
158
100
AcDbEntity
8
SK2
62
256
6
ByLayer
370
13
48
1
60
0
100
AcDbLine
10
-39.24994
20
3
30
0
11
-38.831943
21
6.175002
31
0
39
0
210
0
220
0
230
1
0
LINE
5
159
100
AcDbEntity
8
SK2
62
256
6
ByLayer
370
13
48
1
60
0
100
AcDbLine
10
-39.667937
20
6.174998
30
0
11
-38.831943
21
6.175002
31
0
39
0
210
0
220
0
230
1
0
LINE
5
15A
100
AcDbEntity
8
SK2
62
256
6
ByLayer
370
13
48
1
60
0
100
AcDbLine
10
-39.24994
20
-3
30
0
11
-38.831943
21
-6.174998
31
0
39
0
210
0
220
0
230
1
0
LINE
5
15B
100
AcDbEntity
8
SK2
62
256
6
ByLayer
370
13
48
1
60
0
100
AcDbLine
10
-39.24994
20
-3
30
0
11
-39.667937
21
-6.175002
31
0
39
0
210
0
220
0
230
1
0
LINE
5
15C
100
AcDbEntity
8
SK2
62
256
6
ByLayer
370
13
48
1
60
0
100
AcDbLine
10
-38.831943
20
-6.174998
30
0
11
-39.667937
21
-6.175002
31
0
39
0
210
0
220
0
230
1
0
ENDBLK
5
15E
100
AcDbEntity
8
0
100
AcDbBlockEnd
0
BLOCK
5
163
100
AcDbEntity
8
0
100
AcDbBlockBegin
2
*D8
70
1
10
0
20
0
30
0
3
*D8
0
LINE
5
165
100
AcDbEntity
8
0
62
256
6
ByLayer
370
-2
48
1
60
0
100
AcDbLine
10
-36
20
-4.5875
30
0
11
-36
21
-29.67512
31
0
39
0
210
0
220
0
230
1
0
LINE
5
166
100
AcDbEntity
8
0
62
256
6
ByLayer
370
-2
48
1
60
0
100
AcDbLine
10
0
20
-4.5875
30
0
11
0
21
-29.67512
31
0
39
0
210
0
220
0
230
1
0
LINE
5
167
100
AcDbEntity
8
0
62
256
6
ByLayer
370
-2
48
1
60
0
100
AcDbLine
10
-32.825
20
-26.50012
30
0
11
-3.175
21
-26.50012
31
0
39
0
210
0
220
0
230
1
0
SOLID
5
168
100
AcDbEntity
8
0
62
256
6
ByLayer
370
-1
48
1
60
0
100
AcDbTrace
10
-32.825
20
-25.970953
30
0
11
-32.825
21
-27.029287
31
0
12
-36
22
-26.50012
32
0
13
-36
23
-26.50012
33
0
39
0
210
0
220
0
230
1
0
SOLID
5
169
100
AcDbEntity
8
0
62
256
6
ByLayer
370
-1
48
1
60
0
100
AcDbTrace
10
-3.175
20
-27.029287
30
0
11
-3.175
21
-25.970953
31
0
12
0
22
-26.50012
32
0
13
0
23
-26.50012
33
0
39
0
210
0
220
0
230
1
0
MTEXT
5
16A
100
AcDbEntity
8
0
62
256
6
ByLayer
370
18
48
1
60
0
100
AcDbMText
10
-18
20
-19.193619
30
0
210
0
220
0
230
1
1
\A1;36
40
3.50012
41
0
44
1
50
0
71
5
72
5
7
iso_b_vert
0
POINT
5
16B
100
AcDbEntity
8
Defpoints
62
0
6
ByLayer
370
-1
48
1
60
0
100
AcDbPoint
10
-36
20
-3
30
0
39
0
210
0
220
0
230
1
50
360
0
POINT
5
16C
100
AcDbEntity
8
Defpoints
62
0
6
ByLayer
370
-1
48
1
60
0
100
AcDbPoint
10
0
20
-3
30
0
39
0
210
0
220
0
230
1
50
360
0
POINT
5
16D
100
AcDbEntity
8
Defpoints
62
0
6
ByLayer
370
-1
48
1
60
0
100
AcDbPoint
10
0
20
-26.50012
30
0
39
0
210
0
220
0
230
1
50
360
0
ENDBLK
5
164
100
AcDbEntity
8
0
100
AcDbBlockEnd
0
BLOCK
5
179
100
AcDbEntity
8
0
100
AcDbBlockBegin
2
_U3
70
0
10
0
20
0
30
0
3
_U3
0
MTEXT
5
16F
100
AcDbEntity
8
SK2
62
256
6
ByLayer
370
18
48
1
60
0
100
AcDbMText
10
-23.229611
20
-25.467451
30
0
210
0
220
0
230
1
1
\W0.7468;36.00
40
3.50012
41
0
44
1.084337
50
0
71
7
72
5
7
iso_b_vert
0
LINE
5
170
100
AcDbEntity
8
SK2
62
256
6
ByLayer
370
13
48
1
60
0
100
AcDbLine
10
-36
20
-4.5875
30
0
11
-36
21
-29.67512
31
0
39
0
210
0
220
0
230
1
0
LINE
5
171
100
AcDbEntity
8
SK2
62
256
6
ByLayer
370
13
48
1
60
0
100
AcDbLine
10
0
20
-4.5875
30
0
11
0
21
-29.67512
31
0
39
0
210
0
220
0
230
1
0
LINE
5
172
100
AcDbEntity
8
SK2
62
256
6
ByLayer
370
13
48
1
60
0
100
AcDbLine
10
-36
20
-26.50012
30
0
11
0
21
-26.50012
31
0
39
0
210
0
220
0
230
1
0
LINE
5
173
100
AcDbEntity
8
SK2
62
256
6
ByLayer
370
13
48
1
60
0
100
AcDbLine
10
-36
20
-26.50012
30
0
11
-32.825002
21
-26.082123
31
0
39
0
210
0
220
0
230
1
0
LINE
5
174
100
AcDbEntity
8
SK2
62
256
6
ByLayer
370
13
48
1
60
0
100
AcDbLine
10
-36
20
-26.50012
30
0
11
-32.824998
21
-26.918117
31
0
39
0
210
0
220
0
230
1
0
LINE
5
175
100
AcDbEntity
8
SK2
62
256
6
ByLayer
370
13
48
1
60
0
100
AcDbLine
10
-32.825002
20
-26.082123
30
0
11
-32.824998
21
-26.918117
31
0
39
0
210
0
220
0
230
1
0
LINE
5
176
100
AcDbEntity
8
SK2
62
256
6
ByLayer
370
13
48
1
60
0
100
AcDbLine
10
0
20
-26.50012
30
0
11
-3.174998
21
-26.918117
31
0
39
0
210
0
220
0
230
1
0
LINE
5
177
100
AcDbEntity
8
SK2
62
256
6
ByLayer
370
13
48
1
60
0
100
AcDbLine
10
0
20
-26.50012
30
0
11
-3.175002
21
-26.082123
31
0
39
0
210
0
220
0
230
1
0
LINE
5
178
100
AcDbEntity
8
SK2
62
256
6
ByLayer
370
13
48
1
60
0
100
AcDbLine
10
-3.174998
20
-26.918117
30
0
11
-3.175002
21
-26.082123
31
0
39
0
210
0
220
0
230
1
0
ENDBLK
5
17A
100
AcDbEntity
8
0
100
AcDbBlockEnd
0
BLOCK
5
17F
100
AcDbEntity
8
0
100
AcDbBlockBegin
2
*D10
70
1
10
0
20
0
30
0
3
*D10
0
LINE
5
181
100
AcDbEntity
8
0
62
256
6
ByLayer
370
-2
48
1
60
0
100
AcDbLine
10
2
20
1.9125
30
0
11
2
21
-20.92482
31
0
39
0
210
0
220
0
230
1
0
LINE
5
182
100
AcDbEntity
8
0
62
256
6
ByLayer
370
-2
48
1
60
0
100
AcDbLine
10
30
20
-1.5875
30
0
11
30
21
-20.92482
31
0
39
0
210
0
220
0
230
1
0
LINE
5
183
100
AcDbEntity
8
0
62
256
6
ByLayer
370
-2
48
1
60
0
100
AcDbLine
10
5.175
20
-17.74982
30
0
11
26.825
21
-17.74982
31
0
39
0
210
0
220
0
230
1
0
SOLID
5
184
100
AcDbEntity
8
0
62
256
6
ByLayer
370
-1
48
1
60
0
100
AcDbTrace
10
5.175
20
-17.220653
30
0
11
5.175
21
-18.278987
31
0
12
2
22
-17.74982
32
0
13
2
23
-17.74982
33
0
39
0
210
0
220
0
230
1
0
SOLID
5
185
100
AcDbEntity
8
0
62
256
6
ByLayer
370
-1
48
1
60
0
100
AcDbTrace
10
26.825
20
-18.278987
30
0
11
26.825
21
-17.220653
31
0
12
30
22
-17.74982
32
0
13
30
23
-17.74982
33
0
39
0
210
0
220
0
230
1
0
MTEXT
5
186
100
AcDbEntity
8
0
62
256
6
ByLayer
370
18
48
1
60
0
100
AcDbMText
10
16
20
-10.44332
30
0
210
0
220
0
230
1
1
\A1;28
40
3.50012
41
0
44
1
50
0
71
5
72
5
7
iso_b_vert
0
POINT
5
187
100
AcDbEntity
8
Defpoints
62
0
6
ByLayer
370
-1
48
1
60
0
100
AcDbPoint
10
2
20
3.5
30
0
39
0
210
0
220
0
230
1
50
360
0
POINT
5
188
100
AcDbEntity
8
Defpoints
62
0
6
ByLayer
370
-1
48
1
60
0
100
AcDbPoint
10
30
20
0
30
0
39
0
210
0
220
0
230
1
50
360
0
POINT
5
189
100
AcDbEntity
8
Defpoints
62
0
6
ByLayer
370
-1
48
1
60
0
100
AcDbPoint
10
30
20
-17.74982
30
0
39
0
210
0
220
0
230
1
50
360
0
ENDBLK
5
180
100
AcDbEntity
8
0
100
AcDbBlockEnd
0
BLOCK
5
195
100
AcDbEntity
8
0
100
AcDbBlockBegin
2
_U4
70
0
10
0
20
0
30
0
3
_U4
0
MTEXT
5
18B
100
AcDbEntity
8
SK2
62
256
6
ByLayer
370
18
48
1
60
0
100
AcDbMText
10
10.770389
20
-16.717151
30
0
210
0
220
0
230
1
1
\W0.7468;28.00
40
3.50012
41
0
44
1.084337
50
0
71
7
72
5
7
iso_b_vert
0
LINE
5
18C
100
AcDbEntity
8
SK2
62
256
6
ByLayer
370
13
48
1
60
0
100
AcDbLine
10
2
20
1.9125
30
0
11
2
21
-20.92482
31
0
39
0
210
0
220
0
230
1
0
LINE
5
18D
100
AcDbEntity
8
SK2
62
256
6
ByLayer
370
13
48
1
60
0
100
AcDbLine
10
30
20
-1.5875
30
0
11
30
21
-20.92482
31
0
39
0
210
0
220
0
230
1
0
LINE
5
18E
100
AcDbEntity
8
SK2
62
256
6
ByLayer
370
13
48
1
60
0
100
AcDbLine
10
2
20
-17.74982
30
0
11
30
21
-17.74982
31
0
39
0
210
0
220
0
230
1
0
LINE
5
18F
100
AcDbEntity
8
SK2
62
256
6
ByLayer
370
13
48
1
60
0
100
AcDbLine
10
2
20
-17.74982
30
0
11
5.174998
21
-17.331823
31
0
39
0
210
0
220
0
230
1
0
LINE
5
190
100
AcDbEntity
8
SK2
62
256
6
ByLayer
370
13
48
1
60
0
100
AcDbLine
10
2
20
-17.74982
30
0
11
5.175002
21
-18.167817
31
0
39
0
210
0
220
0
230
1
0
LINE
5
191
100
AcDbEntity
8
SK2
62
256
6
ByLayer
370
13
48
1
60
0
100
AcDbLine
10
5.174998
20
-17.331823
30
0
11
5.175002
21
-18.167817
31
0
39
0
210
0
220
0
230
1
0
LINE
5
192
100
AcDbEntity
8
SK2
62
256
6
ByLayer
370
13
48
1
60
0
100
AcDbLine
10
30
20
-17.74982
30
0
11
26.825002
21
-18.167817
31
0
39
0
210
0
220
0
230
1
0
LINE
5
193
100
AcDbEntity
8
SK2
62
256
6
ByLayer
370
13
48
1
60
0
100
AcDbLine
10
30
20
-17.74982
30
0
11
26.824998
21
-17.331823
31
0
39
0
210
0
220
0
230
1
0
LINE
5
194
100
AcDbEntity
8
SK2
62
256
6
ByLayer
370
13
48
1
60
0
100
AcDbLine
10
26.825002
20
-18.167817
30
0
11
26.824998
21
-17.331823
31
0
39
0
210
0
220
0
230
1
0
ENDBLK
5
196
100
AcDbEntity
8
0
100
AcDbBlockEnd
0
BLOCK
5
19B
100
AcDbEntity
8
0
100
AcDbBlockBegin
2
*D12
70
1
10
0
20
0
30
0
3
*D12
0
LINE
5
19D
100
AcDbEntity
8
0
62
256
6
ByLayer
370
-2
48
1
60
0
100
AcDbLine
10
11
20
-4.5875
30
0
11
11
21
-10.32
31
0
39
0
210
0
220
0
230
1
0
LINE
5
19E
100
AcDbEntity
8
0
62
256
6
ByLayer
370
-2
48
1
60
0
100
AcDbLine
10
30
20
-1.5875
30
0
11
30
21
-10.32
31
0
39
0
210
0
220
0
230
1
0
LINE
5
19F
100
AcDbEntity
8
0
62
256
6
ByLayer
370
-2
48
1
60
0
100
AcDbLine
10
14.175
20
-9.82
30
0
11
26.825
21
-9.82
31
0
39
0
210
0
220
0
230
1
0
SOLID
5
1A0
100
AcDbEntity
8
0
62
256
6
ByLayer
370
-1
48
1
60
0
100
AcDbTrace
10
14.175
20
-9.290833
30
0
11
14.175
21
-10.349167
31
0
12
11
22
-9.82
32
0
13
11
23
-9.82
33
0
39
0
210
0
220
0
230
1
0
SOLID
5
1A1
100
AcDbEntity
8
0
62
256
6
ByLayer
370
-1
48
1
60
0
100
AcDbTrace
10
26.825
20
-10.349167
30
0
11
26.825
21
-9.290833
31
0
12
30
22
-9.82
32
0
13
30
23
-9.82
33
0
39
0
210
0
220
0
230
1
0
MTEXT
5
1A2
100
AcDbEntity
8
0
62
256
6
ByLayer
370
18
48
1
60
0
100
AcDbMText
10
20.5
20
-3.975
30
0
210
0
220
0
230
1
1
\A1;19
40
2.8
41
0
44
1
50
0
71
5
72
5
7
iso_b_vert
0
POINT
5
1A3
100
AcDbEntity
8
Defpoints
62
0
6
ByLayer
370
-1
48
1
60
0
100
AcDbPoint
10
11
20
-3
30
0
39
0
210
0
220
0
230
1
50
360
0
POINT
5
1A4
100
AcDbEntity
8
Defpoints
62
0
6
ByLayer
370
-1
48
1
60
0
100
AcDbPoint
10
30
20
0
30
0
39
0
210
0
220
0
230
1
50
360
0
POINT
5
1A5
100
AcDbEntity
8
Defpoints
62
0
6
ByLayer
370
-1
48
1
60
0
100
AcDbPoint
10
30
20
-9.82
30
0
39
0
210
0
220
0
230
1
50
360
0
ENDBLK
5
19C
100
AcDbEntity
8
0
100
AcDbBlockEnd
0
BLOCK
5
1B1
100
AcDbEntity
8
0
100
AcDbBlockBegin
2
_U5
70
0
10
0
20
0
30
0
3
_U5
0
MTEXT
5
1A7
100
AcDbEntity
8
SK2
62
256
6
ByLayer
370
18
48
1
60
0
100
AcDbMText
10
16.666401
20
-9.973893
30
0
210
0
220
0
230
1
1
\W0.6864;19.00
40
2.8
41
0
44
1.084337
50
0
71
7
72
5
7
iso_b_vert
0
LINE
5
1A8
100
AcDbEntity
8
SK2
62
256
6
ByLayer
370
13
48
1
60
0
100
AcDbLine
10
11
20
-4.5875
30
0
11
11
21
-10.32
31
0
39
0
210
0
220
0
230
1
0
LINE
5
1A9
100
AcDbEntity
8
SK2
62
256
6
ByLayer
370
13
48
1
60
0
100
AcDbLine
10
30
20
-1.5875
30
0
11
30
21
-10.32
31
0
39
0
210
0
220
0
230
1
0
LINE
5
1AA
100
AcDbEntity
8
SK2
62
256
6
ByLayer
370
13
48
1
60
0
100
AcDbLine
10
11
20
-9.82
30
0
11
30
21
-9.82
31
0
39
0
210
0
220
0
230
1
0
LINE
5
1AB
100
AcDbEntity
8
SK2
62
256
6
ByLayer
370
13
48
1
60
0
100
AcDbLine
10
11
20
-9.82
30
0
11
14.174998
21
-9.402003
31
0
39
0
210
0
220
0
230
1
0
LINE
5
1AC
100
AcDbEntity
8
SK2
62
256
6
ByLayer
370
13
48
1
60
0
100
AcDbLine
10
11
20
-9.82
30
0
11
14.175002
21
-10.237997
31
0
39
0
210
0
220
0
230
1
0
LINE
5
1AD
100
AcDbEntity
8
SK2
62
256
6
ByLayer
370
13
48
1
60
0
100
AcDbLine
10
14.174998
20
-9.402003
30
0
11
14.175002
21
-10.237997
31
0
39
0
210
0
220
0
230
1
0
LINE
5
1AE
100
AcDbEntity
8
SK2
62
256
6
ByLayer
370
13
48
1
60
0
100
AcDbLine
10
30
20
-9.82
30
0
11
26.825002
21
-10.237997
31
0
39
0
210
0
220
0
230
1
0
LINE
5
1AF
100
AcDbEntity
8
SK2
62
256
6
ByLayer
370
13
48
1
60
0
100
AcDbLine
10
30
20
-9.82
30
0
11
26.824998
21
-9.402003
31
0
39
0
210
0
220
0
230
1
0
LINE
5
1B0
100
AcDbEntity
8
SK2
62
256
6
ByLayer
370
13
48
1
60
0
100
AcDbLine
10
26.825002
20
-10.237997
30
0
11
26.824998
21
-9.402003
31
0
39
0
210
0
220
0
230
1
0
ENDBLK
5
1B2
100
AcDbEntity
8
0
100
AcDbBlockEnd
0
BLOCK
5
1B7
100
AcDbEntity
8
0
100
AcDbBlockBegin
2
*D14
70
1
10
0
20
0
30
0
3
*D14
0
LINE
5
1B9
100
AcDbEntity
8
0
62
256
6
ByLayer
370
-2
48
1
60
0
100
AcDbLine
10
-36
20
-1.5875
30
0
11
-36
21
-39.67512
31
0
39
0
210
0
220
0
230
1
0
LINE
5
1BA
100
AcDbEntity
8
0
62
256
6
ByLayer
370
-2
48
1
60
0
100
AcDbLine
10
30
20
-1.5875
30
0
11
30
21
-39.67512
31
0
39
0
210
0
220
0
230
1
0
LINE
5
1BB
100
AcDbEntity
8
0
62
256
6
ByLayer
370
-2
48
1
60
0
100
AcDbLine
10
-32.825
20
-36.50012
30
0
11
26.825
21
-36.50012
31
0
39
0
210
0
220
0
230
1
0
SOLID
5
1BC
100
AcDbEntity
8
0
62
256
6
ByLayer
370
-1
48
1
60
0
100
AcDbTrace
10
-32.825
20
-35.970953
30
0
11
-32.825
21
-37.029287
31
0
12
-36
22
-36.50012
32
0
13
-36
23
-36.50012
33
0
39
0
210
0
220
0
230
1
0
SOLID
5
1BD
100
AcDbEntity
8
0
62
256
6
ByLayer
370
-1
48
1
60
0
100
AcDbTrace
10
26.825
20
-37.029287
30
0
11
26.825
21
-35.970953
31
0
12
30
22
-36.50012
32
0
13
30
23
-36.50012
33
0
39
0
210
0
220
0
230
1
0
MTEXT
5
1BE
100
AcDbEntity
8
0
62
256
6
ByLayer
370
18
48
1
60
0
100
AcDbMText
10
-3
20
-29.19362
30
0
210
0
220
0
230
1
1
\A1;66
40
3.50012
41
0
44
1
50
0
71
5
72
5
7
iso_b_vert
0
POINT
5
1BF
100
AcDbEntity
8
Defpoints
62
0
6
ByLayer
370
-1
48
1
60
0
100
AcDbPoint
10
-36
20
0
30
0
39
0
210
0
220
0
230
1
50
360
0
POINT
5
1C0
100
AcDbEntity
8
Defpoints
62
0
6
ByLayer
370
-1
48
1
60
0
100
AcDbPoint
10
30
20
0
30
0
39
0
210
0
220
0
230
1
50
360
0
POINT
5
1C1
100
AcDbEntity
8
Defpoints
62
0
6
ByLayer
370
-1
48
1
60
0
100
AcDbPoint
10
30
20
-36.50012
30
0
39
0
210
0
220
0
230
1
50
360
0
ENDBLK
5
1B8
100
AcDbEntity
8
0
100
AcDbBlockEnd
0
BLOCK
5
1CD
100
AcDbEntity
8
0
100
AcDbBlockBegin
2
_U6
70
0
10
0
20
0
30
0
3
_U6
0
MTEXT
5
1C3
100
AcDbEntity
8
SK2
62
256
6
ByLayer
370
18
48
1
60
0
100
AcDbMText
10
-8.229611
20
-35.467451
30
0
210
0
220
0
230
1
1
\W0.7468;66.00
40
3.50012
41
0
44
1.084337
50
0
71
7
72
5
7
iso_b_vert
0
LINE
5
1C4
100
AcDbEntity
8
SK2
62
256
6
ByLayer
370
13
48
1
60
0
100
AcDbLine
10
-36
20
-1.5875
30
0
11
-36
21
-39.67512
31
0
39
0
210
0
220
0
230
1
0
LINE
5
1C5
100
AcDbEntity
8
SK2
62
256
6
ByLayer
370
13
48
1
60
0
100
AcDbLine
10
30
20
-1.5875
30
0
11
30
21
-39.67512
31
0
39
0
210
0
220
0
230
1
0
LINE
5
1C6
100
AcDbEntity
8
SK2
62
256
6
ByLayer
370
13
48
1
60
0
100
AcDbLine
10
-36
20
-36.50012
30
0
11
30
21
-36.50012
31
0
39
0
210
0
220
0
230
1
0
LINE
5
1C7
100
AcDbEntity
8
SK2
62
256
6
ByLayer
370
13
48
1
60
0
100
AcDbLine
10
-36
20
-36.50012
30
0
11
-32.825002
21
-36.082123
31
0
39
0
210
0
220
0
230
1
0
LINE
5
1C8
100
AcDbEntity
8
SK2
62
256
6
ByLayer
370
13
48
1
60
0
100
AcDbLine
10
-36
20
-36.50012
30
0
11
-32.824998
21
-36.918117
31
0
39
0
210
0
220
0
230
1
0
LINE
5
1C9
100
AcDbEntity
8
SK2
62
256
6
ByLayer
370
13
48
1
60
0
100
AcDbLine
10
-32.825002
20
-36.082123
30
0
11
-32.824998
21
-36.918117
31
0
39
0
210
0
220
0
230
1
0
LINE
5
1CA
100
AcDbEntity
8
SK2
62
256
6
ByLayer
370
13
48
1
60
0
100
AcDbLine
10
30
20
-36.50012
30
0
11
26.825002
21
-36.918117
31
0
39
0
210
0
220
0
230
1
0
LINE
5
1CB
100
AcDbEntity
8
SK2
62
256
6
ByLayer
370
13
48
1
60
0
100
AcDbLine
10
30
20
-36.50012
30
0
11
26.824998
21
-36.082123
31
0
39
0
210
0
220
0
230
1
0
LINE
5
1CC
100
AcDbEntity
8
SK2
62
256
6
ByLayer
370
13
48
1
60
0
100
AcDbLine
10
26.825002
20
-36.918117
30
0
11
26.824998
21
-36.082123
31
0
39
0
210
0
220
0
230
1
0
ENDBLK
5
1CE
100
AcDbEntity
8
0
100
AcDbBlockEnd
0
ENDSEC
0
SECTION
2
ENTITIES
0
ARC
5
AB
100
AcDbEntity
8
SK2
62
256
6
ByLayer
370
13
48
1
60
0
100
AcDbCircle
39
0
10
30
20
0
30
0
40
20
210
0
220
0
230
1
100
AcDbArc
50
9.606349
51
70.00018
0
ARC
5
AC
100
AcDbEntity
8
SK2
62
256
6
ByLayer
370
13
48
1
60
0
100
AcDbCircle
39
0
10
30
20
0
30
0
40
20
210
0
220
0
230
1
100
AcDbArc
50
289.99982
51
350.393651
0
ELLIPSE
5
AD
100
AcDbEntity
8
1
62
256
6
ByLayer
370
18
48
1
60
0
100
AcDbEllipse
10
3.602684
20
2.843234
30
0
11
-7.0604522950381E-05
21
0.00999975074696059
31
0
210
0
220
0
230
1
40
0.006606
41
3.10795489021459
42
-1.60359526054082
0
ELLIPSE
5
AE
100
AcDbEntity
8
1
62
256
6
ByLayer
370
18
48
1
60
0
100
AcDbEllipse
10
3.64563
20
2.843875
30
0
11
0.000228378544907833
21
-0.00999739182188164
31
0
210
0
220
0
230
1
40
0.483616
41
-0.0338768340588614
42
1.53108508847768
0
POINT
5
70
100
AcDbEntity
8
80
62
256
6
ByLayer
370
18
48
1
60
0
100
AcDbPoint
10
0
20
0
30
0
39
0
210
0
220
0
230
1
50
360
0
POINT
5
72
100
AcDbEntity
8
81
62
256
6
ByLayer
370
18
48
1
60
0
100
AcDbPoint
10
30
20
0
30
0
39
0
210
0
220
0
230
1
50
360
0
POINT
5
74
100
AcDbEntity
8
1
62
256
6
ByLayer
370
18
48
1
60
0
100
AcDbPoint
10
-36
20
0
30
0
39
0
210
0
220
0
230
1
50
360
0
POINT
5
76
100
AcDbEntity
8
1
62
256
6
ByLayer
370
18
48
1
60
1
100
AcDbPoint
10
0
20
-3
30
0
39
0
210
0
220
0
230
1
50
360
0
POINT
5
77
100
AcDbEntity
8
1
62
256
6
ByLayer
370
18
48
1
60
1
100
AcDbPoint
10
30
20
0
30
0
39
0
210
0
220
0
230
1
50
360
0
POINT
5
78
100
AcDbEntity
8
1
62
256
6
ByLayer
370
18
48
1
60
1
100
AcDbPoint
10
28.9081
20
-3
30
0
39
0
210
0
220
0
230
1
50
360
0
POINT
5
79
100
AcDbEntity
8
1
62
256
6
ByLayer
370
18
48
1
60
1
100
AcDbPoint
10
28.9081
20
3
30
0
39
0
210
0
220
0
230
1
50
360
0
POINT
5
7A
100
AcDbEntity
8
1
62
256
6
ByLayer
370
18
48
1
60
1
100
AcDbPoint
10
-36
20
3
30
0
39
0
210
0
220
0
230
1
50
360
0
POINT
5
7B
100
AcDbEntity
8
1
62
256
6
ByLayer
370
18
48
1
60
1
100
AcDbPoint
10
-36
20
-3
30
0
39
0
210
0
220
0
230
1
50
360
0
POINT
5
7C
100
AcDbEntity
8
1
62
256
6
ByLayer
370
18
48
1
60
1
100
AcDbPoint
10
-36
20
-3
30
0
39
0
210
0
220
0
230
1
50
360
0
POINT
5
7D
100
AcDbEntity
8
1
62
256
6
ByLayer
370
18
48
1
60
1
100
AcDbPoint
10
0
20
-3
30
0
39
0
210
0
220
0
230
1
50
360
0
POINT
5
7E
100
AcDbEntity
8
1
62
256
6
ByLayer
370
18
48
1
60
1
100
AcDbPoint
10
2
20
3.5
30
0
39
0
210
0
220
0
230
1
50
360
0
POINT
5
7F
100
AcDbEntity
8
1
62
256
6
ByLayer
370
18
48
1
60
1
100
AcDbPoint
10
30
20
0
30
0
39
0
210
0
220
0
230
1
50
360
0
POINT
5
80
100
AcDbEntity
8
1
62
256
6
ByLayer
370
18
48
1
60
1
100
AcDbPoint
10
11
20
-3
30
0
39
0
210
0
220
0
230
1
50
360
0
POINT
5
81
100
AcDbEntity
8
1
62
256
6
ByLayer
370
18
48
1
60
1
100
AcDbPoint
10
30
20
0
30
0
39
0
210
0
220
0
230
1
50
360
0
POINT
5
82
100
AcDbEntity
8
1
62
256
6
ByLayer
370
18
48
1
60
1
100
AcDbPoint
10
-36
20
0
30
0
39
0
210
0
220
0
230
1
50
360
0
POINT
5
83
100
AcDbEntity
8
1
62
256
6
ByLayer
370
18
48
1
60
1
100
AcDbPoint
10
30
20
0
30
0
39
0
210
0
220
0
230
1
50
360
0
SPLINE
5
AF
100
AcDbEntity
8
1
62
256
6
ByLayer
370
18
48
1
60
0
100
AcDbSpline
70
4
71
3
72
26
73
22
40
0
40
0
40
0
40
0
40
0.0475503204738557
40
0.0475503204738557
40
0.233839505193315
40
0.233839505193315
40
0.326984097553044
40
0.326984097553044
40
0.420128689912773
40
0.420128689912773
40
0.606417874632232
40
0.606417874632232
40
0.652990170812099
40
0.652990170812099
40
0.699562466991965
40
0.699562466991965
40
0.792707059351697
40
0.792707059351697
40
0.97899624407116
40
0.97899624407116
40
1
40
1
40
1
40
1
41
1
10
4.78303959796284
20
0.174298123443975
30
0
41
1
10
4.91740359083593
20
0.101232679392496
30
0
41
1
10
5.05167374440759
20
0.0280171874801738
30
0
41
1
10
5.71197061654206
20
-0.33192703913511
30
0
41
1
10
6.23825768862599
20
-0.617805524719756
30
0
41
1
10
7.03597857549465
20
-1.03055853828354
30
1E-16
41
1
10
7.3007624910247
20
-1.16414714950966
30
1E-16
41
1
10
7.82796341481929
20
-1.42033854996078
30
1E-16
41
1
10
8.09064884429068
20
-1.5429005021953
30
1E-16
41
1
10
8.8778903853395
20
-1.89117084025995
30
1E-16
41
1
10
9.40151940034718
20
-2.0979482110543
30
-1E-16
41
1
10
10.0616594325185
20
-2.31415583643894
30
-1E-16
41
1
10
10.1939631888487
20
-2.35529296514423
30
-1E-16
41
1
10
10.4592903853513
20
-2.43313075133887
30
-1E-16
41
1
10
10.5924681580305
20
-2.46986606119799
30
-1E-16
41
1
10
10.9902769593048
20
-2.57237425943566
30
-1E-16
41
1
10
11.2540285006317
20
-2.63052334203371
30
-1E-16
41
1
10
12.0432154905921
20
-2.77412610258094
30
-1E-16
41
1
10
12.5665282818751
20
-2.82777272645217
30
0
41
1
10
13.1515250123026
20
-2.83967142399777
30
0
41
1
10
13.2108318172925
20
-2.84031660816586
30
0
41
1
10
13.2701799569721
20
-2.84040212024206
30
0
0
SPLINE
5
B0
100
AcDbEntity
8
1
62
256
6
ByLayer
370
18
48
1
60
0
100
AcDbSpline
70
4
71
3
72
31
73
27
40
0
40
0
40
0
40
0
40
0.186785042131412
40
0.186785042131412
40
0.280177563197116
40
0.280177563197116
40
0.373570084262821
40
0.373570084262821
40
0.466962605328526
40
0.466962605328526
40
0.513658865861377
40
0.513658865861377
40
0.560355126394229
40
0.560355126394229
40
0.653747647459929
40
0.700443907992781
40
0.700443907992781
40
0.747140168525632
40
0.747140168525632
40
0.793836429058484
40
0.793836429058484
40
0.840532689591335
40
0.840532689591335
40
0.93392521065704
40
0.93392521065704
40
1
40
1
40
1
40
1
41
1
10
3.6504702620604
20
2.84358818228233
30
0
41
1
10
4.17194714698604
20
2.85639082330221
30
0
41
1
10
4.68970296402426
20
2.82110276276291
30
0
41
1
10
5.4663378669656
20
2.70852882671335
30
-1E-16
41
1
10
5.72485956293073
20
2.66155872669498
30
1E-16
41
1
10
6.24325569056938
20
2.54780426656498
30
1E-16
41
1
10
6.50326388033088
20
2.48079569150309
30
1E-16
41
1
10
7.02637798333524
20
2.32743497512709
30
1E-16
41
1
10
7.28759211817334
20
2.24160454472027
30
1E-16
41
1
10
7.67701356415012
20
2.10182453915891
30
1E-16
41
1
10
7.80655695768726
20
2.05334660917555
30
1E-16
41
1
10
8.06513787479145
20
1.95289316927114
30
-1E-16
41
1
10
8.19418965474483
20
1.90092023879757
30
-1E-16
41
1
10
8.58145672235491
20
1.73982764566554
30
-1E-16
41
1
10
8.96888654007273
20
1.56836736199125
30
-1E-16
41
1
10
9.35653016185304
20
1.38423766555141
30
-1E-16
41
1
10
9.61500202454272
20
1.25878458814913
30
-1E-16
41
1
10
9.74425417212288
20
1.19471415093105
30
-1E-16
41
1
10
10.0035915706173
20
1.06429984319539
30
-1E-16
41
1
10
10.1336901904056
20
0.997948966168764
30
-1E-16
41
1
10
10.39465376358
20
0.863215738302927
30
-1E-16
41
1
10
10.5257535947713
20
0.794710364402761
30
0
41
1
10
10.918338226109
20
0.587415036357299
30
0
41
1
10
11.1784515760235
20
0.446883135201603
30
0
41
1
10
11.6211464139715
20
0.205466655175457
30
0
41
1
10
11.8041377244415
20
0.104992653844619
30
0
41
1
10
11.9870114969213
20
0.0046773072488406
30
0
0
SPLINE
5
B1
100
AcDbEntity
8
1
62
256
6
ByLayer
370
18
48
1
60
0
100
AcDbSpline
70
4
71
3
72
14
73
10
40
0
40
0
40
0
40
0
40
0.467044377277887
40
0.467044377277887
40
0.700566565916831
40
0.700566565916831
40
0.934088754555774
40
0.934088754555774
40
1
40
1
40
1
40
1
41
1
10
28.9537641959708
20
2.879863128777
30
0
41
1
10
28.3321116175071
20
2.88598309285388
30
0
41
1
10
27.7073862057744
20
2.8298191444882
30
0
41
1
10
26.7727075435153
20
2.65700944407317
30
1E-16
41
1
10
26.4615483096263
20
2.5853098902586
30
1E-16
41
1
10
25.8378154451387
20
2.41476835160052
30
1E-16
41
1
10
25.5260056718177
20
2.31597147068717
30
1E-16
41
1
10
25.1263667003363
20
2.17346116309068
30
0
41
1
10
25.0383890160592
20
2.14109611255995
30
0
41
1
10
24.9504060217573
20
2.1077964837757
30
0
0
SPLINE
5
B2
100
AcDbEntity
8
1
62
256
6
ByLayer
370
18
48
1
60
0
100
AcDbSpline
70
4
71
3
72
10
73
6
40
0
40
0
40
0
40
0
40
0.5
40
0.5
40
1
40
1
40
1
40
1
41
1
10
28.7612717515346
20
-2.96039595524985
30
0
41
1
10
28.7635851911482
20
-2.97188450745088
30
0
41
1
10
28.7657953263748
20
-2.98090587761459
30
0
41
1
10
28.7698670933007
20
-2.99393000065132
30
0
41
1
10
28.7717608137995
20
-2.99793475940933
30
0
41
1
10
28.773566787815
20
-2.99934044883767
30
0
0
SPLINE
5
B3
100
AcDbEntity
8
1
62
256
6
ByLayer
370
18
48
1
60
0
100
AcDbSpline
70
4
71
3
72
24
73
20
40
0
40
0
40
0
40
0
40
0.100462117504324
40
0.100462117504324
40
0.200924235008648
40
0.200924235008648
40
0.301386352512971
40
0.301386352512971
40
0.401848470017295
40
0.401848470017295
40
0.502310587521619
40
0.502310587521619
40
0.602772705025942
40
0.602772705025942
40
0.80369694003459
40
0.80369694003459
40
0.904159057538914
40
0.904159057538914
40
1
40
1
40
1
40
1
41
1
10
28.511337198167
20
0.327332489966892
30
0
41
1
10
28.2571150554612
20
0.473203523227028
30
0
41
1
10
28.0028707448282
20
0.617505267340505
30
0
41
1
10
27.4936463219028
20
0.901772633436451
30
-1E-16
41
1
10
27.2384638853215
20
1.04153585665284
30
-1E-16
41
1
10
26.7295260823137
20
1.31119639543621
30
-1E-16
41
1
10
26.4755280910881
20
1.44182648824423
30
-1E-16
41
1
10
25.9666917705824
20
1.69190510473368
30
-1E-16
41
1
10
25.7112694369184
20
1.81148606472647
30
-1E-16
41
1
10
25.202073770979
20
2.03667983458928
30
-1E-16
41
1
10
24.947925161044
20
2.14200165240928
30
-1E-16
41
1
10
24.43917553127
20
2.33654771740333
30
1E-16
41
1
10
24.1845711925965
20
2.4261334578471
30
1E-16
41
1
10
23.419483374721
20
2.66743620926022
30
1E-16
41
1
10
22.912262558328
20
2.7911949212741
30
1E-16
41
1
10
22.1473562290755
20
2.91521388370981
30
0
41
1
10
21.8925139094177
20
2.94621235647858
30
0
41
1
10
21.3953877753939
20
2.98567498052219
30
0
41
1
10
21.1528951601725
20
2.99524450763843
30
0
41
1
10
20.9100278671324
20
2.99499924273275
30
0
0
SPLINE
5
B4
100
AcDbEntity
8
1
62
256
6
ByLayer
370
18
48
1
60
0
100
AcDbSpline
70
4
71
3
72
16
73
12
40
0
40
0
40
0
40
0
40
0.138076596943194
40
0.138076596943194
40
0.310461277554555
40
0.310461277554555
40
0.482845958165917
40
0.482845958165917
40
0.655230638777278
40
0.655230638777278
40
1
40
1
40
1
40
1
41
1
10
8.49703749478965
20
-2.17909175136467
30
1E-16
41
1
10
8.29269155617084
20
-2.25926961667597
30
1E-16
41
1
10
8.08814238664502
20
-2.33444364890639
30
-1E-16
41
1
10
7.62962903929105
20
-2.49070938866626
30
-1E-16
41
1
10
7.37521449359474
20
-2.56855440856975
30
-1E-16
41
1
10
6.86575995373528
20
-2.70554929213293
30
-1E-16
41
1
10
6.61022386621411
20
-2.76486133044048
30
-1E-16
41
1
10
6.1009294067361
20
-2.8624209131286
30
0
41
1
10
5.84711988267946
20
-2.90090024155006
30
0
41
1
10
5.08652516391413
20
-2.98501172391875
30
0
41
1
10
4.58045613496591
20
-2.99910861105892
30
0
41
1
10
4.06927960211587
20
-2.97007205261201
30
0
0
SPLINE
5
B5
100
AcDbEntity
8
1
62
256
6
ByLayer
370
18
48
1
60
0
100
AcDbSpline
70
4
71
3
72
8
73
4
40
0
40
0
40
0
40
0
40
1
40
1
40
1
40
1
41
1
10
29.4133213334634
20
-0.484757306295478
30
0
41
1
10
29.2382769073486
20
-0.192624424176671
30
0
41
1
10
29.0229758282149
20
0.136058460468035
30
0
41
1
10
28.7622764047136
20
0.50595961530891
30
0
0
SPLINE
5
B6
100
AcDbEntity
8
1
62
256
6
ByLayer
370
18
48
1
60
0
100
AcDbSpline
70
4
71
3
72
14
73
10
40
0
40
0
40
0
40
0
40
0.265398228098346
40
0.265398228098346
40
0.496361788272482
40
0.496361788272482
40
0.775287365441344
40
0.775287365441344
40
1
40
1
40
1
40
1
41
1
10
28.584614795256
20
-0.128597547201849
30
0
41
1
10
28.5853386817834
20
-0.128929670137353
30
0
41
1
10
28.5860427125385
20
-0.129637884229709
30
0
41
1
10
28.5872104569601
20
-0.131386106850556
30
0
41
1
10
28.5877094289037
20
-0.132394487572071
30
0
41
1
10
28.5886541426394
20
-0.134881076987199
30
0
41
1
10
28.5890823847751
20
-0.136450820566239
30
0
41
1
10
28.5896191271644
20
-0.139463765872136
30
0
41
1
10
28.5897788117157
20
-0.140907205845309
30
0
41
1
10
28.5898268267207
20
-0.142352307608377
30
0
0
SPLINE
5
B7
100
AcDbEntity
8
1
62
256
6
ByLayer
370
18
48
1
60
0
100
AcDbSpline
70
4
71
3
72
32
73
28
40
0
40
0
40
0
40
0
40
0.0099184773325205
40
0.0099184773325205
40
0.102592364823359
40
0.102592364823359
40
0.195266252314199
40
0.195266252314199
40
0.287940139805038
40
0.287940139805038
40
0.380614027295877
40
0.380614027295877
40
0.426950971041295
40
0.426950971041295
40
0.473287914786714
40
0.473287914786714
40
0.565961802277549
40
0.565961802277549
40
0.658635689768385
40
0.658635689768385
40
0.75130957725922
40
0.75130957725922
40
0.843983464750055
40
0.843983464750055
40
0.93665735224089
40
0.93665735224089
40
1
40
1
40
1
40
1
41
1
10
19.9279021904127
20
2.84979940923111
30
0
41
1
10
19.9559139869708
20
2.85050947024755
30
0
41
1
10
19.9839373514897
20
2.8511062682027
30
0
41
1
10
20.2739125880829
20
2.85612634811113
30
0
41
1
10
20.5339984923707
20
2.85142238296555
30
0
41
1
10
21.0530611484363
20
2.81778461930247
30
0
41
1
10
21.3120160765298
20
2.78959957321843
30
1E-16
41
1
10
21.8289598643356
20
2.71430929154664
30
-1E-16
41
1
10
22.086758546724
20
2.66763777526029
30
1E-16
41
1
10
22.6040672682649
20
2.55285468205236
30
1E-16
41
1
10
22.8634113976041
20
2.48533643805962
30
1E-16
41
1
10
23.2537156434247
20
2.37049110837472
30
1E-16
41
1
10
23.3839973762715
20
2.32997523950002
30
1E-16
41
1
10
23.6452259485099
20
2.24445267315974
30
1E-16
41
1
10
23.776278850257
20
2.19934328675561
30
1E-16
41
1
10
24.1677500520751
20
2.05829283482981
30
1E-16
41
1
10
24.4275198764852
20
1.95653830401989
30
-1E-16
41
1
10
24.9454751176934
20
1.74003928459777
30
-1E-16
41
1
10
25.2035250755328
20
1.62530788712871
30
-1E-16
41
1
10
25.7203007864817
20
1.38446328689662
30
-1E-16
41
1
10
25.9789072440778
20
1.25849972604709
30
-1E-16
41
1
10
26.4967811252128
20
0.997450135180941
30
-1E-16
41
1
10
26.7559004380225
20
0.862194135097155
30
-1E-16
41
1
10
27.2778731405584
20
0.585183045242957
30
0
41
1
10
27.5403891140516
20
0.44346853954184
30
0
41
1
10
27.9802246413753
20
0.203760569175216
30
0
41
1
10
28.1585954890234
20
0.105910328914035
30
0
41
1
10
28.3369155389319
20
0.0078111804562013
30
0
0
SPLINE
5
B8
100
AcDbEntity
8
1
62
256
6
ByLayer
370
18
48
1
60
0
100
AcDbSpline
70
4
71
3
72
8
73
4
40
0
40
0
40
0
40
0
40
1
40
1
40
1
40
1
41
1
10
3.65047026206042
20
2.84358818228233
30
0
41
1
10
3.63582779705672
20
2.84326061913089
30
0
41
1
10
3.61948467619419
20
2.84301320225884
30
0
41
1
10
3.6027521776401
20
2.84290649731326
30
0
0
SPLINE
5
B9
100
AcDbEntity
8
1
62
256
6
ByLayer
370
18
48
1
60
0
100
AcDbSpline
70
4
71
3
72
22
73
18
40
0
40
0
40
0
40
0
40
0.0901116697206401
40
0.0901116697206401
40
0.220095716903406
40
0.220095716903406
40
0.350079764086172
40
0.350079764086172
40
0.480063811268937
40
0.480063811268937
40
0.610047858451703
40
0.610047858451703
40
0.740031905634469
40
0.740031905634469
40
0.870015952817235
40
0.870015952817235
40
1
40
1
40
1
40
1
41
1
10
21.187038898039
20
-0.279094303996999
30
0
41
1
10
20.9708314819214
20
-0.160041546963839
30
0
41
1
10
20.7546314238801
20
-0.0402508013230545
30
0
41
1
10
20.2265974656731
20
0.251886614596231
30
0
41
1
10
19.9148083837365
20
0.424043797097141
30
0
41
1
10
19.2918579274849
20
0.761531829717768
30
0
41
1
10
18.9809429000415
20
0.926696128502869
30
-1E-16
41
1
10
18.357992137618
20
1.24603044958587
30
-1E-16
41
1
10
18.0462470542084
20
1.39986141581832
30
-1E-16
41
1
10
17.4238072147582
20
1.69058147093685
30
-1E-16
41
1
10
17.1119959937524
20
1.82787271843262
30
-1E-16
41
1
10
16.4889830068271
20
2.08140507969961
30
1E-16
41
1
10
16.1780365185359
20
2.19752976829329
30
1E-16
41
1
10
15.55498330131
20
2.40509140332142
30
1E-16
41
1
10
15.2434431693989
20
2.49640871524875
30
1E-16
41
1
10
14.6219671707481
20
2.65066455553873
30
1E-16
41
1
10
14.3114702138096
20
2.71408430730315
30
-1E-16
41
1
10
13.9999999999326
20
2.76262135935198
30
1E-16
0
SPLINE
5
BA
100
AcDbEntity
8
1
62
256
6
ByLayer
370
18
48
1
60
0
100
AcDbSpline
70
4
71
3
72
10
73
6
40
0
40
0
40
0
40
0
40
0.277978218076518
40
0.277978218076518
40
1
40
1
40
1
40
1
41
1
10
27.4957602566041
20
2.894358485872
30
0
41
1
10
27.614123461229
20
2.91230231568619
30
0
41
1
10
27.7325346768158
20
2.92800988276144
30
0
41
1
10
28.1589388761397
20
2.97632828752143
30
0
41
1
10
28.4661638529989
20
2.99568268344856
30
0
41
1
10
28.7735667878354
20
2.99934044883761
30
0
0
SPLINE
5
BB
100
AcDbEntity
8
1
62
256
6
ByLayer
370
18
48
1
60
0
100
AcDbSpline
70
4
71
3
72
10
73
6
40
0
40
0
40
0
40
0
40
0.5
40
0.5
40
1
40
1
40
1
40
1
41
1
10
3.50206874973731
20
-2.9841014914189
30
0
41
1
10
3.50206874973731
20
-2.98397748417727
30
0
41
1
10
3.52175789778192
20
-2.98312079763855
30
0
41
1
10
3.58254203596755
20
-2.98201889754549
30
0
41
1
10
3.62175085249268
20
-2.9820431271788
30
0
41
1
10
3.65225621706804
20
-2.98263743380542
30
0
0
SPLINE
5
BC
100
AcDbEntity
8
1
62
256
6
ByLayer
370
18
48
1
60
0
100
AcDbSpline
70
4
71
3
72
22
73
18
40
0
40
0
40
0
40
0
40
0.125
40
0.125
40
0.25
40
0.25
40
0.375
40
0.375
40
0.5
40
0.5
40
0.625
40
0.625
40
0.75
40
0.75
40
0.875
40
0.875
40
1
40
1
40
1
40
1
41
1
10
28.5898268267206
20
-0.14235230760454
30
0
41
1
10
28.5953292637445
20
-0.307958484076892
30
0
41
1
10
28.6069826492206
20
-0.469981869830349
30
0
41
1
10
28.6368568908276
20
-0.78766458976375
30
0
41
1
10
28.6551716745074
20
-0.943817496721863
30
1E-16
41
1
10
28.6939628975422
20
-1.24769346242135
30
1E-16
41
1
10
28.7141901664806
20
-1.3936810692521
30
1E-16
41
1
10
28.7528059092149
20
-1.6711223216945
30
1E-16
41
1
10
28.7711242998944
20
-1.80213656827195
30
1E-16
41
1
10
28.8038674245646
20
-2.04528332655443
30
-1E-16
41
1
10
28.8182789782863
20
-2.15735389654688
30
-1E-16
41
1
10
28.843157920588
20
-2.35874793178678
30
-1E-16
41
1
10
28.8536533522994
20
-2.44824707324071
30
-1E-16
41
1
10
28.8726806372563
20
-2.60147689306956
30
-1E-16
41
1
10
28.8812770011766
20
-2.66552395455881
30
-1E-16
41
1
10
28.9001063499712
20
-2.76553719118698
30
-1E-16
41
1
10
28.9103495689014
20
-2.80174881207211
30
-1E-16
41
1
10
28.9239256768631
20
-2.82402120805054
30
0
0
SPLINE
5
BD
100
AcDbEntity
8
1
62
256
6
ByLayer
370
18
48
1
60
0
100
AcDbSpline
70
4
71
3
72
8
73
4
40
0
40
0
40
0
40
0
40
1
40
1
40
1
40
1
41
1
10
3.65225621706804
20
2.98263743380542
30
0
41
1
10
3.65167118173713
20
2.93628728919526
30
0
41
1
10
3.65107589605094
20
2.88993752703249
30
0
41
1
10
3.65047026206042
20
2.84358818228233
30
0
0
SPLINE
5
BE
100
AcDbEntity
8
1
62
256
6
ByLayer
370
18
48
1
60
0
100
AcDbSpline
70
4
71
3
72
28
73
24
40
0
40
0
40
0
40
0
40
0.503431067805094
40
0.503431067805094
40
0.689172202519797
40
0.689172202519797
40
0.806019581400622
40
0.806019581400622
40
0.879465432059955
40
0.879465432059955
40
0.9257085565168
40
0.9257085565168
40
0.954858320436795
40
0.954858320436795
40
0.973239982861654
40
0.973239982861654
40
0.984814009978511
40
0.984814009978511
40
0.992108819542625
40
0.992108819542625
40
0.996725496823757
40
0.996725496823757
40
1
40
1
40
1
40
1
41
1
10
28.77356678783
20
2.99934044882735
30
0
41
1
10
28.8037042026129
20
2.97972192413508
30
0
41
1
10
28.8338972948994
20
2.95987800024591
30
0
41
1
10
28.8753020091391
20
2.93241810086747
30
0
41
1
10
28.8864688175876
20
2.9249876439925
30
0
41
1
10
28.9046722253997
20
2.91283569097618
30
0
41
1
10
28.9117045373973
20
2.90813162570217
30
0
41
1
10
28.9231617182205
20
2.90045230235802
30
0
41
1
10
28.9275848831782
20
2.89748389220293
30
0
41
1
10
28.9347947963568
20
2.89263924949512
30
0
41
1
10
28.9375808710124
20
2.89076570257711
30
0
41
1
10
28.9421239003641
20
2.8877082787574
30
0
41
1
10
28.943880215103
20
2.88652571291397
30
0
41
1
10
28.946745908349
20
2.88459523252968
30
0
41
1
10
28.9478548635018
20
2.88384795168045
30
0
41
1
10
28.9496649020829
20
2.8826278722355
30
0
41
1
10
28.9503649397888
20
2.88215591411875
30
0
41
1
10
28.9515076810819
20
2.88138534991364
30
0
41
1
10
28.9519502449818
20
2.88108689113457
30
0
41
1
10
28.9526720281629
20
2.88060007223677
30
0
41
1
10
28.9529516969622
20
2.88041143064967
30
0
41
1
10
28.9534108031501
20
2.88010167362202
30
0
41
1
10
28.9535957727012
20
2.87997684800268
30
0
41
1
10
28.9537641959214
20
2.87986312900725
30
0
0
SPLINE
5
BF
100
AcDbEntity
8
1
62
256
6
ByLayer
370
18
48
1
60
0
100
AcDbSpline
70
4
71
3
72
8
73
4
40
0
40
0
40
0
40
0
40
1
40
1
40
1
40
1
41
1
10
28.9537641959235
20
2.87986312900571
30
0
41
1
10
28.9558096495546
20
2.87848384881789
30
0
41
1
10
28.9578551352113
20
2.87710433960061
30
0
41
1
10
28.9599006533933
20
2.87572460131525
30
0
0
SPLINE
5
C0
100
AcDbEntity
8
1
62
256
6
ByLayer
370
18
48
1
60
0
100
AcDbSpline
70
4
71
3
72
22
73
18
40
0
40
0
40
0
40
0
40
0.151357360815503
40
0.151357360815503
40
0.302714721631007
40
0.302714721631007
40
0.45407208244651
40
0.45407208244651
40
0.605429443262014
40
0.605429443262014
40
0.681108123669774
40
0.681108123669774
40
0.756786804077535
40
0.756786804077535
40
0.908144164893056
40
0.908144164893056
40
1
40
1
40
1
40
1
41
1
10
29.946091171242
20
0.0465668161679389
30
0
41
1
10
29.9299700739391
20
-0.0072192883197602
30
0
41
1
10
29.9116424932491
20
-0.0599036327273552
30
0
41
1
10
29.8705652443298
20
-0.162985103165198
30
0
41
1
10
29.8475193235344
20
-0.213858409408886
30
0
41
1
10
29.799298068917
20
-0.307535596410929
30
0
41
1
10
29.7738696186524
20
-0.351081937148308
30
0
41
1
10
29.7206047378591
20
-0.429978151458528
30
0
41
1
10
29.6941127367805
20
-0.463362337833331
30
0
41
1
10
29.6545257586692
20
-0.504237191881884
30
0
41
1
10
29.6412525419004
20
-0.516372919085995
30
0
41
1
10
29.6155304423347
20
-0.536705673956106
30
0
41
1
10
29.6030092928756
20
-0.545001436922803
30
0
41
1
10
29.5663327033983
20
-0.564460250677882
30
0
41
1
10
29.542937105334
20
-0.570052139413065
30
0
41
1
10
29.5086261789939
20
-0.56762121817755
30
0
41
1
10
29.4962204556725
20
-0.56410000195288
30
0
41
1
10
29.4844551433976
20
-0.558262621166961
30
0
0
SPLINE
5
C1
100
AcDbEntity
8
1
62
256
6
ByLayer
370
18
48
1
60
0
100
AcDbSpline
70
4
71
3
72
8
73
4
40
0
40
0
40
0
40
0
40
1
40
1
40
1
40
1
41
1
10
29.4424236179043
20
-0.525006275120433
30
0
41
1
10
29.4321698383878
20
-0.513562832260249
30
0
41
1
10
29.4225080044834
20
-0.500089006606061
30
0
41
1
10
29.4133213334632
20
-0.48475730629562
30
0
0
SPLINE
5
C2
100
AcDbEntity
8
1
62
256
6
ByLayer
370
18
48
1
60
0
100
AcDbSpline
70
4
71
3
72
24
73
20
40
0
40
0
40
0
40
0
40
0.197633000480497
40
0.197633000480497
40
0.297928875420432
40
0.297928875420432
40
0.3480768128904
40
0.3480768128904
40
0.398224750360368
40
0.398224750360368
40
0.598816500240245
40
0.598816500240245
40
0.699112375180184
40
0.699112375180184
40
0.799408250120123
40
0.799408250120123
40
0.899704125060061
40
0.899704125060061
40
1
40
1
40
1
40
1
41
1
10
21.0382838066757
20
0.226433647682001
30
0
41
1
10
21.5558668602166
20
-0.0555629377895457
30
0
41
1
10
22.0710205158757
20
-0.339873909904497
30
0
41
1
10
22.8520457414547
20
-0.756879527042628
30
0
41
1
10
23.1156949414454
20
-0.895347316361693
30
1E-16
41
1
10
23.5132740091474
20
-1.09825080392676
30
1E-16
41
1
10
23.6463555138601
20
-1.1651679967359
30
1E-16
41
1
10
23.9115211061849
20
-1.29601573232324
30
1E-16
41
1
10
24.0437851941947
20
-1.36005897173547
30
1E-16
41
1
10
24.7036033372161
20
-1.67286102455205
30
1E-16
41
1
10
25.2267726680127
20
-1.89910799766548
30
1E-16
41
1
10
26.0135831158574
20
-2.19142238011
30
-1E-16
41
1
10
26.2761303935675
20
-2.28103445700305
30
-1E-16
41
1
10
26.8031340942824
20
-2.44248421745701
30
-1E-16
41
1
10
27.0680286162403
20
-2.51459051474987
30
-1E-16
41
1
10
27.5995030872598
20
-2.63917303170351
30
-1E-16
41
1
10
27.8644487322389
20
-2.69121100527954
30
1E-16
41
1
10
28.3940212221684
20
-2.77385376726417
30
-1E-16
41
1
10
28.6586164009741
20
-2.80411680803113
30
-1E-16
41
1
10
28.9239256768657
20
-2.82402120805054
30
0
0
SPLINE
5
C3
100
AcDbEntity
8
1
62
256
6
ByLayer
370
18
48
1
60
0
100
AcDbSpline
70
4
71
3
72
8
73
4
40
0
40
0
40
0
40
0
40
1
40
1
40
1
40
1
41
1
10
29.995633400995
20
0.212972652174528
30
0
41
1
10
30.0014559538633
20
0.070980620656826
30
0
41
1
10
30.0014551121981
20
-0.071001145975913
30
0
41
1
10
29.995633400995
20
-0.212972652174528
30
0
0
SPLINE
5
C4
100
AcDbEntity
8
1
62
256
6
ByLayer
370
18
48
1
60
0
100
AcDbSpline
70
4
71
3
72
10
73
6
40
0
40
0
40
0
40
0
40
0.279721064122427
40
0.279721064122427
40
1
40
1
40
1
40
1
41
1
10
7.78937917303725
20
-1.849120941602
30
0
41
1
10
7.43865522983762
20
-1.95142714086964
30
0
41
1
10
7.08900090295629
20
-2.05455977916557
30
0
41
1
10
5.84310301042311
20
-2.42545901911231
30
0
41
1
10
4.95298515848179
20
-2.6967458565631
30
0
41
1
10
4.06927960210123
20
-2.97007205261653
30
0
0
SPLINE
5
C5
100
AcDbEntity
8
1
62
256
6
ByLayer
370
18
48
1
60
0
100
AcDbSpline
70
4
71
3
72
10
73
6
40
0
40
0
40
0
40
0
40
0.5
40
0.5
40
1
40
1
40
1
40
1
41
1
10
28.7612717515346
20
2.96039595524985
30
0
41
1
10
28.7635851911481
20
2.97188450745079
30
0
41
1
10
28.7657953263748
20
2.98090587761447
30
0
41
1
10
28.7698670933006
20
2.99393000065118
30
0
41
1
10
28.7717608137994
20
2.99793475940922
30
0
41
1
10
28.7735667878149
20
2.99934044883761
30
0
0
SPLINE
5
C6
100
AcDbEntity
8
1
62
256
6
ByLayer
370
18
48
1
60
0
100
AcDbSpline
70
4
71
3
72
10
73
6
40
0
40
0
40
0
40
0
40
0.5
40
0.5
40
1
40
1
40
1
40
1
41
1
10
28.7622764047134
20
0.505959615308541
30
0
41
1
10
28.7180645539787
20
0.484538998720438
30
0
41
1
10
28.6748755985866
20
0.458901524052749
30
0
41
1
10
28.5909710522674
20
0.399895030150731
30
0
41
1
10
28.5503327347587
20
0.365963613154577
30
0
41
1
10
28.5113371981758
20
0.327332489975646
30
0
0
SPLINE
5
C7
100
AcDbEntity
8
1
62
256
6
ByLayer
370
18
48
1
60
0
100
AcDbSpline
70
4
71
3
72
20
73
16
40
0
40
0
40
0
40
0
40
0.159581978977028
40
0.159581978977028
40
0.319163957954055
40
0.319163957954055
40
0.478745936931083
40
0.478745936931083
40
0.638327915908111
40
0.638327915908111
40
0.797909894885139
40
0.797909894885139
40
0.957491873862166
40
0.957491873862166
40
1
40
1
40
1
40
1
41
1
10
6.78158215783151
20
-1.38826103910873
30
1E-16
41
1
10
7.0830616071384
20
-1.54161556679068
30
1E-16
41
1
10
7.38352082260278
20
-1.68733923187781
30
1E-16
41
1
10
7.98438045921239
20
-1.96078431600097
30
1E-16
41
1
10
8.28511043256125
20
-2.08849163012346
30
1E-16
41
1
10
8.88779559812252
20
-2.32220706387173
30
-1E-16
41
1
10
9.18810268358843
20
-2.42761312601391
30
-1E-16
41
1
10
9.78898777706308
20
-2.61324447210126
30
-1E-16
41
1
10
10.0899755550183
20
-2.69362429426354
30
-1E-16
41
1
10
10.6923307171329
20
-2.82661560622907
30
0
41
1
10
10.9925735834814
20
-2.87904101719164
30
0
41
1
10
11.5934197020256
20
-2.95476943302373
30
0
41
1
10
11.8946605393878
20
-2.97807637674649
30
0
41
1
10
12.2758550663624
20
-2.98850928237678
30
0
41
1
10
12.3559778614918
20
-2.98963807672422
30
0
41
1
10
12.4360621481166
20
-2.98970411600706
30
0
0
SPLINE
5
C8
100
AcDbEntity
8
1
62
256
6
ByLayer
370
18
48
1
60
0
100
AcDbSpline
70
4
71
3
72
8
73
4
40
0
40
0
40
0
40
0
40
1
40
1
40
1
40
1
41
1
10
28.5149609419998
20
-0.0946817638796063
30
0
41
1
10
28.5086149520742
20
0.046870950755391
30
0
41
1
10
28.5068964061631
20
0.187546292488889
30
0
41
1
10
28.5113371981673
20
0.32733248997701
30
0
0
SPLINE
5
C9
100
AcDbEntity
8
1
62
256
6
ByLayer
370
18
48
1
60
0
100
AcDbSpline
70
4
71
3
72
8
73
4
40
0
40
0
40
0
40
0
40
1
40
1
40
1
40
1
41
1
10
3.64569459868838
20
2.83387932980435
30
0
41
1
10
3.63251098706607
20
2.83357890908107
30
0
41
1
10
3.61780511218569
20
2.83334611091234
30
0
41
1
10
3.6027521776401
20
2.83323984386493
30
0
0
SPLINE
5
CA
100
AcDbEntity
8
1
62
256
6
ByLayer
370
18
48
1
60
0
100
AcDbSpline
70
4
71
3
72
18
73
14
40
0
40
0
40
0
40
0
40
0.240771107953038
40
0.240771107953038
40
0.435905569583775
40
0.435905569583775
40
0.633007177280351
40
0.633007177280351
40
0.802185716414779
40
0.802185716414779
40
0.963528493221823
40
0.963528493221823
40
1
40
1
40
1
40
1
41
1
10
28.923925676863
20
-2.82402120805034
30
0
41
1
10
28.9240344308112
20
-2.82419962523787
30
0
41
1
10
28.9240838956696
20
-2.82456697647658
30
0
41
1
10
28.9240317988594
20
-2.82560042352478
30
0
41
1
10
28.9239555960435
20
-2.82621031379546
30
0
41
1
10
28.9236869832791
20
-2.8276852567337
30
0
41
1
10
28.9234880030885
20
-2.82857865766076
30
0
41
1
10
28.9230271209146
20
-2.83036738971606
30
0
41
1
10
28.9227718469289
20
-2.83126862550461
30
0
41
1
10
28.9222376523775
20
-2.83301418054469
30
0
41
1
10
28.9219541097451
20
-2.83388031756195
30
0
41
1
10
28.921604380795
20
-2.83488925410666
30
0
41
1
10
28.9215390518345
20
-2.8350752775464
30
0
41
1
10
28.9214736509386
20
-2.83525916571335
30
0
0
SPLINE
5
CB
100
AcDbEntity
8
1
62
256
6
ByLayer
370
18
48
1
60
0
100
AcDbSpline
70
4
71
3
72
18
73
14
40
0
40
0
40
0
40
0
40
0.229402853867344
40
0.229402853867344
40
0.458805707734688
40
0.458805707734688
40
0.688208561602032
40
0.688208561602032
40
0.802909988535694
40
0.802909988535694
40
0.917611415469356
40
0.917611415469356
40
1
40
1
40
1
40
1
41
1
10
28.7622764047138
20
0.505959615308512
30
0
41
1
10
28.7178276193927
20
0.546650748849288
30
0
41
1
10
28.6739590853231
20
0.586070613916775
30
0
41
1
10
28.5902872006527
20
0.659353322858749
30
0
41
1
10
28.5499325692326
20
0.693888179620956
30
0
41
1
10
28.473119754781
20
0.757416949971173
30
0
41
1
10
28.4376247036161
20
0.785405529042094
30
0
41
1
10
28.3904390934857
20
0.819728804335426
30
-1E-16
41
1
10
28.3755443618707
20
0.830108547128816
30
-1E-16
41
1
10
28.3471333748208
20
0.849113372923398
30
-1E-16
41
1
10
28.3338980710176
20
0.857361650601263
30
-1E-16
41
1
10
28.3143772587346
20
0.86785803274347
30
-1E-16
41
1
10
28.3071259729347
20
0.871190923656371
30
-1E-16
41
1
10
28.3008375732742
20
0.873406303904886
30
-1E-16
0
SPLINE
5
CC
100
AcDbEntity
8
1
62
256
6
ByLayer
370
18
48
1
60
0
100
AcDbSpline
70
4
71
3
72
24
73
20
40
0
40
0
40
0
40
0
40
0.105630092148595
40
0.105630092148595
40
0.21126018429719
40
0.21126018429719
40
0.316890276445785
40
0.316890276445785
40
0.422520368594382
40
0.422520368594382
40
0.633780552891575
40
0.633780552891575
40
0.686595598965874
40
0.686595598965874
40
0.739410645040172
40
0.739410645040172
40
0.845040737188767
40
0.845040737188767
40
1
40
1
40
1
40
1
41
1
10
28.921473650919
20
-2.83525916571193
30
0
41
1
10
28.6562083733832
20
-2.81571443039155
30
0
41
1
10
28.3915271878438
20
-2.78591809424819
30
-1E-16
41
1
10
27.8619056413627
20
-2.70395600982806
30
1E-16
41
1
10
27.5969326007963
20
-2.6522096774606
30
-1E-16
41
1
10
27.0653950026642
20
-2.52810578561139
30
-1E-16
41
1
10
26.8004563770165
20
-2.45617329666263
30
-1E-16
41
1
10
26.2734016123404
20
-2.29497410287658
30
-1E-16
41
1
10
26.0108341256319
20
-2.20543411810829
30
-1E-16
41
1
10
25.2239705324444
20
-1.91318514510098
30
1E-16
41
1
10
24.7007897286966
20
-1.68675323546705
30
1E-16
41
1
10
24.0409218503966
20
-1.373467047677
30
1E-16
41
1
10
23.9086466403182
20
-1.30931352929596
30
1E-16
41
1
10
23.6434585860469
20
-1.17821011898994
30
1E-16
41
1
10
23.5103608144115
20
-1.11114514865292
30
1E-16
41
1
10
23.112728109137
20
-0.907770624221939
30
1E-16
41
1
10
22.8490491246303
20
-0.768951009064239
30
0
41
1
10
22.2003518131944
20
-0.421653004182957
30
0
41
1
10
21.8162515145058
20
-0.210778819471329
30
0
41
1
10
21.4315643796254
20
0.0003066969453869
30
0
0
SPLINE
5
CD
100
AcDbEntity
8
1
62
256
6
ByLayer
370
18
48
1
60
0
100
AcDbSpline
70
4
71
3
72
10
73
6
40
0
40
0
40
0
40
0
40
0.5
40
0.5
40
1
40
1
40
1
40
1
41
1
10
28.9599006533935
20
2.87572460131511
30
0
41
1
10
28.9482052415388
20
2.88374847291107
30
0
41
1
10
28.9380262724409
20
2.88787147771106
30
0
41
1
10
28.9204518941796
20
2.88833450658393
30
0
41
1
10
28.9130099997793
20
2.88472458080926
30
0
41
1
10
28.90650971766
20
2.87752047196324
30
0
0
SPLINE
5
CE
100
AcDbEntity
8
1
62
256
6
ByLayer
370
18
48
1
60
0
100
AcDbSpline
70
4
71
3
72
8
73
4
40
0
40
0
40
0
40
0
40
1
40
1
40
1
40
1
41
1
10
28.5149609419998
20
-0.0946817638796063
30
0
41
1
10
28.5383013828526
20
-0.106697535384399
30
0
41
1
10
28.5615098330484
20
-0.117996869361605
30
0
41
1
10
28.5846147952529
20
-0.128597547198353
30
0
0
SPLINE
5
CF
100
AcDbEntity
8
1
62
256
6
ByLayer
370
18
48
1
60
0
100
AcDbSpline
70
4
71
3
72
10
73
6
40
0
40
0
40
0
40
0
40
0.5
40
0.5
40
1
40
1
40
1
40
1
41
1
10
28.9599006533935
20
-2.87572460131508
30
0
41
1
10
28.9482052415388
20
-2.88374847291107
30
0
41
1
10
28.9380262724409
20
-2.88787147771106
30
0
41
1
10
28.9204518941796
20
-2.88833450658393
30
0
41
1
10
28.9130099997792
20
-2.88472458080929
30
0
41
1
10
28.90650971766
20
-2.87752047196324
30
0
0
SPLINE
5
D0
100
AcDbEntity
8
1
62
256
6
ByLayer
370
18
48
1
60
0
100
AcDbSpline
70
4
71
3
72
32
73
28
40
0
40
0
40
0
40
0
40
0.0923361447600234
40
0.0923361447600234
40
0.138504217140035
40
0.138504217140035
40
0.184672289520047
40
0.184672289520047
40
0.27700843428007
40
0.27700843428007
40
0.369344579040095
40
0.369344579040095
40
0.46168072380012
40
0.46168072380012
40
0.554016868560145
40
0.554016868560145
40
0.600184940940158
40
0.600184940940158
40
0.64635301332017
40
0.64635301332017
40
0.738689158080198
40
0.738689158080198
40
0.831025302840225
40
0.831025302840225
40
0.923361447600252
40
0.923361447600252
40
1
40
1
40
1
40
1
41
1
10
28.5898268267227
20
-0.142352307604341
30
0
41
1
10
28.3288553325094
20
0.0009472189444182
30
0
41
1
10
28.0679318830851
20
0.144037984256869
30
0
41
1
10
27.675910827607
20
0.357048867802746
30
0
41
1
10
27.5451340598811
20
0.427786020492391
30
0
41
1
10
27.2832661210203
20
0.56852212186979
30
0
41
1
10
27.1520942215657
20
0.638561643336431
30
0
41
1
10
26.7604160961568
20
0.845965485564221
30
-1E-16
41
1
10
26.5011684010203
20
0.981044373249574
30
-1E-16
41
1
10
25.983055233832
20
1.24182897713382
30
-1E-16
41
1
10
25.7243331584617
20
1.36771277554428
30
-1E-16
41
1
10
25.2073371269834
20
1.60853373446074
30
-1E-16
41
1
10
24.9491835681067
20
1.72330657674726
30
-1E-16
41
1
10
24.4310452184771
20
1.93997286880045
30
-1E-16
41
1
10
24.1711929490496
20
2.04186304088461
30
1E-16
41
1
10
23.7796188962957
20
2.18321242480641
30
1E-16
41
1
10
23.648534668984
20
2.22844246064545
30
1E-16
41
1
10
23.3871810971076
20
2.31423528758992
30
1E-16
41
1
10
23.2568392749047
20
2.35488976802188
30
1E-16
41
1
10
22.8663546764603
20
2.47019856054581
30
1E-16
41
1
10
22.6068901823267
20
2.53807873448707
30
1E-16
41
1
10
22.0893452722748
20
2.65369919879927
30
1E-16
41
1
10
21.831430481329
20
2.70082278127725
30
-1E-16
41
1
10
21.3142781007667
20
2.77706104916743
30
1E-16
41
1
10
21.0552274240157
20
2.80577717346418
30
0
41
1
10
20.5801253222648
20
2.83761795874472
30
0
41
1
10
20.3642644627074
20
2.84373320495709
30
0
41
1
10
20.1472870016368
20
2.84315534062512
30
0
0
SPLINE
5
D1
100
AcDbEntity
8
1
62
256
6
ByLayer
370
18
48
1
60
0
100
AcDbSpline
70
4
71
3
72
12
73
8
40
0
40
0
40
0
40
0
40
0.499999999999972
40
0.499999999999972
40
0.749999999999986
40
0.749999999999986
40
1
40
1
40
1
40
1
41
1
10
3.50206874973733
20
2.93482828023647
30
0
41
1
10
3.50206874973742
20
2.91161769209518
30
0
41
1
10
3.50983054785456
20
2.88807656785792
30
0
41
1
10
3.53519207640736
20
2.85844295187883
30
0
41
1
10
3.54595068304397
20
2.84966375251904
30
0
41
1
10
3.57198100454963
20
2.83689532593078
30
0
41
1
10
3.58713945551699
20
2.83312997878218
30
0
41
1
10
3.6027521776401
20
2.83323984386493
30
0
0
SPLINE
5
D2
100
AcDbEntity
8
1
62
256
6
ByLayer
370
18
48
1
60
0
100
AcDbSpline
70
4
71
3
72
8
73
4
40
0
40
0
40
0
40
0
40
1
40
1
40
1
40
1
41
1
10
28.921473650936
20
-2.83525916572066
30
0
41
1
10
28.9164628588779
20
-2.84934804559123
30
0
41
1
10
28.9114747030758
20
-2.86343508605455
30
0
41
1
10
28.9065097176598
20
-2.87752047196363
30
0
0
SPLINE
5
D3
100
AcDbEntity
8
1
62
256
6
ByLayer
370
18
48
1
60
0
100
AcDbSpline
70
4
71
3
72
10
73
6
40
0
40
0
40
0
40
0
40
0.5
40
0.5
40
1
40
1
40
1
40
1
41
1
10
29.2661554413903
20
0.797097880351288
30
0
41
1
10
29.3494710414246
20
0.80844390081441
30
0
41
1
10
29.4326662785391
20
0.82146763556554
30
0
41
1
10
29.5981022920173
20
0.851819563097934
30
0
41
1
10
29.6802618689637
20
0.869233200995353
30
0
41
1
10
29.7614871390599
20
0.890390683322153
30
0
0
SPLINE
5
D4
100
AcDbEntity
8
1
62
256
6
ByLayer
370
18
48
1
60
0
100
AcDbSpline
70
4
71
3
72
8
73
4
40
0
40
0
40
0
40
0
40
1
40
1
40
1
40
1
41
1
10
3.5523278090227
20
0.864245960248752
30
-1E-16
41
1
10
3.52163907143819
20
0.881082379308054
30
-1E-16
41
1
10
3.50206874973731
20
0.913358503725334
30
-1E-16
41
1
10
3.50206874973731
20
0.946905575947056
30
-1E-16
0
SPLINE
5
D5
100
AcDbEntity
8
1
62
256
6
ByLayer
370
18
48
1
60
0
100
AcDbSpline
70
4
71
3
72
8
73
4
40
0
40
0
40
0
40
0
40
1
40
1
40
1
40
1
41
1
10
14
20
2.85685902191105
30
0
41
1
10
14
20
2.82590968438041
30
0
41
1
10
14
20
2.79449437481182
30
1E-16
41
1
10
14
20
2.76262135864505
30
1E-16
0
SPLINE
5
D6
100
AcDbEntity
8
1
62
256
6
ByLayer
370
18
48
1
60
0
100
AcDbSpline
70
4
71
3
72
50
73
46
40
0
40
0
40
0
40
0
40
0.094082163814608
40
0.094082163814608
40
0.141123245721913
40
0.141123245721913
40
0.188164327629217
40
0.188164327629217
40
0.235205409536522
40
0.235205409536522
40
0.282246491443826
40
0.282246491443826
40
0.329287573351131
40
0.329287573351131
40
0.376328655258435
40
0.376328655258435
40
0.42336973716574
40
0.42336973716574
40
0.470410819073044
40
0.470410819073044
40
0.517451900980349
40
0.517451900980349
40
0.564492982887653
40
0.564492982887653
40
0.611534064794958
40
0.611534064794958
40
0.658575146702262
40
0.658575146702262
40
0.705616228609567
40
0.705616228609567
40
0.752657310516871
40
0.752657310516871
40
0.776177851470523
40
0.776177851470523
40
0.799698392424176
40
0.799698392424176
40
0.846739474331479
40
0.846739474331479
40
0.940821638146086
40
0.940821638146086
40
0.964342179099738
40
0.964342179099738
40
0.987862720053391
40
0.987862720053391
40
1
40
1
40
1
40
1
41
1
10
3.65225621706807
20
2.98263743380542
30
0
41
1
10
4.17285759723947
20
2.99277980890477
30
0
41
1
10
4.69272709741017
20
2.95741848733158
30
0
41
1
10
5.4756365518659
20
2.83944043993486
30
0
41
1
10
5.73704558813125
20
2.78882477018092
30
1E-16
41
1
10
6.25597621135751
20
2.66786883542974
30
1E-16
41
1
10
6.51441509893306
20
2.59754221528192
30
1E-16
41
1
10
7.03063637551557
20
2.43889371390438
30
1E-16
41
1
10
7.28839228832828
20
2.35056023246094
30
1E-16
41
1
10
7.80413395656799
20
2.15691045204704
30
-1E-16
41
1
10
8.06174151620408
20
2.05108112548808
30
-1E-16
41
1
10
8.57944678322031
20
1.82489635565901
30
-1E-16
41
1
10
8.84007784978678
20
1.70474525287864
30
-1E-16
41
1
10
9.36258795831574
20
1.45071349437393
30
-1E-16
41
1
10
9.62164432360726
20
1.3175280906365
30
-1E-16
41
1
10
10.1386936427393
20
1.04433868823784
30
-1E-16
41
1
10
10.3969167825982
20
0.904751651317071
30
-1E-16
41
1
10
10.9126369884557
20
0.619507149078459
30
0
41
1
10
11.1700030034851
20
0.473604054584683
30
0
41
1
10
11.6856984472086
20
0.178559027864907
30
0
41
1
10
11.9440391956675
20
0.029438793894883
30
0
41
1
10
12.4635064326521
20
-0.268827977583925
30
0
41
1
10
12.7258868119717
20
-0.417826287539015
30
0
41
1
10
13.2459703509418
20
-0.710644563641353
30
0
41
1
10
13.5041487692923
20
-0.855243541011077
30
1E-16
41
1
10
14.019891938777
20
-1.13548813554462
30
1E-16
41
1
10
14.2777448655904
20
-1.2707159956791
30
1E-16
41
1
10
14.7930966233951
20
-1.53204136431739
30
1E-16
41
1
10
15.0505298999323
20
-1.65818771991846
30
1E-16
41
1
10
15.5673695016682
20
-1.89755996404693
30
1E-16
41
1
10
15.8270300604082
20
-2.01046816936525
30
1E-16
41
1
10
16.2183637239057
20
-2.16951248119838
30
1E-16
41
1
10
16.3489346995363
20
-2.22075700848532
30
1E-16
41
1
10
16.6088337969352
20
-2.31856343894478
30
-1E-16
41
1
10
16.7384315273899
20
-2.36521336222606
30
-1E-16
41
1
10
17.1267023932728
20
-2.49794108486796
30
-1E-16
41
1
10
17.3849952231528
20
-2.57671496168646
30
-1E-16
41
1
10
18.1582942346526
20
-2.7844960186448
30
-1E-16
41
1
10
18.6715360018944
20
-2.88455361491668
30
0
41
1
10
19.3198465916952
20
-2.95481109470097
30
0
41
1
10
19.4498548450568
20
-2.96614350753984
30
0
41
1
10
19.710608271904
20
-2.98330659922919
30
0
41
1
10
19.8414784891998
20
-2.98913279516142
30
0
41
1
10
20.0388190416613
20
-2.99368295953533
30
0
41
1
10
20.1058573992672
20
-2.99447874798165
30
0
41
1
10
20.1727942974312
20
-2.99452801817066
30
0
0
SPLINE
5
D7
100
AcDbEntity
8
1
62
256
6
ByLayer
370
18
48
1
60
0
100
AcDbSpline
70
4
71
3
72
12
73
8
40
0
40
0
40
0
40
0
40
0.25
40
0.25
40
0.5
40
0.5
40
1
40
1
40
1
40
1
41
1
10
3.6027521776401
20
2.84290649731326
30
0
41
1
10
3.58713272701087
20
2.84280689039417
30
0
41
1
10
3.57197046511845
20
2.8462227469843
30
0
41
1
10
3.54594220369896
20
2.85779257195063
30
0
41
1
10
3.5351882216134
20
2.86574272006013
30
0
41
1
10
3.50983506975635
20
2.89256085451555
30
0
41
1
10
3.50206874973742
20
2.91384930454311
30
0
41
1
10
3.50206874973733
20
2.93482828023647
30
0
0
SPLINE
5
D8
100
AcDbEntity
8
1
62
256
6
ByLayer
370
18
48
1
60
0
100
AcDbSpline
70
4
71
3
72
56
73
52
40
0
40
0
40
0
40
0
40
0.0188909615572111
40
0.0188909615572111
40
0.0561507908103189
40
0.0561507908103189
40
0.130670449316535
40
0.130670449316535
40
0.167930278569643
40
0.167930278569643
40
0.205190107822752
40
0.205190107822752
40
0.24244993707586
40
0.24244993707586
40
0.279709766328968
40
0.279709766328968
40
0.316969595582076
40
0.316969595582076
40
0.354229424835185
40
0.354229424835185
40
0.391489254088293
40
0.391489254088293
40
0.428749083341401
40
0.428749083341401
40
0.466008912594509
40
0.466008912594509
40
0.503268741847618
40
0.503268741847618
40
0.540528571100726
40
0.540528571100726
40
0.577788400353834
40
0.577788400353834
40
0.615048229606942
40
0.615048229606942
40
0.652308058860051
40
0.652308058860051
40
0.689567888113159
40
0.689567888113159
40
0.726827717366267
40
0.726827717366267
40
0.801347375872483
40
0.801347375872483
40
0.838607205125591
40
0.838607205125591
40
0.875867034378699
40
0.875867034378699
40
0.913126863631807
40
0.913126863631807
40
0.950386692884915
40
0.950386692884915
40
1
40
1
40
1
40
1
41
1
10
25.0803726979591
20
-2.08521450681567
30
1E-16
41
1
10
24.9514313761463
20
-2.13856965664462
30
1E-16
41
1
10
24.8225199347322
20
-2.18995666186945
30
1E-16
41
1
10
24.43917553127
20
-2.33654771740333
30
-1E-16
41
1
10
24.1845711925965
20
-2.4261334578471
30
-1E-16
41
1
10
23.419483374721
20
-2.66743620926022
30
-1E-16
41
1
10
22.912262558328
20
-2.7911949212741
30
-1E-16
41
1
10
22.1473562290754
20
-2.91521388370981
30
0
41
1
10
21.8925139094178
20
-2.94621235647858
30
0
41
1
10
21.3836849171486
20
-2.98660397110137
30
0
41
1
10
21.1295110741741
20
-2.99614479273063
30
0
41
1
10
20.6202771195337
20
-2.99364580061552
30
0
41
1
10
20.3647272262568
20
-2.98157164697065
30
0
41
1
10
19.85566432705
20
-2.93612152253701
30
0
41
1
10
19.6015679695413
20
-2.90275758162738
30
0
41
1
10
19.0925149379803
20
-2.81553560220223
30
0
41
1
10
18.8373284308363
20
-2.76139465246078
30
-1E-16
41
1
10
18.3276565911534
20
-2.63385862345726
30
-1E-16
41
1
10
18.0732471322771
20
-2.56065652650045
30
-1E-16
41
1
10
17.5646172312452
20
-2.39603459109068
30
-1E-16
41
1
10
17.3100836211375
20
-2.30483473235123
30
-1E-16
41
1
10
16.7994870248091
20
-2.10614635157546
30
1E-16
41
1
10
16.5451503990465
20
-1.99889419636622
30
1E-16
41
1
10
16.036335255566
20
-1.77132083007834
30
1E-16
41
1
10
15.7819381884919
20
-1.65091853980135
30
1E-16
41
1
10
15.2722139517346
20
-1.39813658978227
30
1E-16
41
1
10
15.0168726915469
20
-1.26628892048157
30
1E-16
41
1
10
14.5077837590465
20
-0.99513682008984
30
1E-16
41
1
10
14.2536734357282
20
-0.855370334141952
30
1E-16
41
1
10
13.7442654847994
20
-0.570862031261726
30
0
41
1
10
13.4887517645087
20
-0.4255190669912
30
0
41
1
10
12.9793715651247
20
-0.133625910874571
30
0
41
1
10
12.7249517656777
20
0.012740919376597
30
0
41
1
10
12.2159860044226
20
0.305150732870203
30
0
41
1
10
11.9608834927521
20
0.45122774268043
30
0
41
1
10
11.450679308582
20
0.738383443222801
30
0
41
1
10
11.1963491307882
20
0.87967549770417
30
-1E-16
41
1
10
10.6874508038124
20
1.15471711315041
30
-1E-16
41
1
10
10.4328014115483
20
1.28834935482482
30
-1E-16
41
1
10
9.66727812397261
20
1.67590521375234
30
-1E-16
41
1
10
9.15916944171056
20
1.91210459258156
30
-1E-16
41
1
10
8.39437949292807
20
2.22156203789879
30
-1E-16
41
1
10
8.13881123142949
20
2.31717522137049
30
1E-16
41
1
10
7.62962903929107
20
2.49070938866626
30
1E-16
41
1
10
7.37521449359477
20
2.56855440856975
30
1E-16
41
1
10
6.86575995373528
20
2.70554929213293
30
1E-16
41
1
10
6.61022386621411
20
2.76486133044048
30
1E-16
41
1
10
6.10092940673613
20
2.8624209131286
30
0
41
1
10
5.84711988267949
20
2.90090024155006
30
0
41
1
10
5.25599846989846
20
2.96627026984788
30
0
41
1
10
4.91884927833723
20
2.98499638685465
30
0
41
1
10
4.58034009389874
20
2.98477460445182
30
0
0
SPLINE
5
D9
100
AcDbEntity
8
1
62
256
6
ByLayer
370
18
48
1
60
0
100
AcDbSpline
70
4
71
3
72
34
73
30
40
0
40
0
40
0
40
0
40
0.0198699576261271
40
0.0198699576261271
40
0.108972688751023
40
0.108972688751023
40
0.198075419875919
40
0.198075419875919
40
0.242626785438368
40
0.242626785438368
40
0.287178151000817
40
0.287178151000817
40
0.331729516563266
40
0.331729516563266
40
0.376280882125715
40
0.376280882125715
40
0.465383613250612
40
0.465383613250612
40
0.509934978813062
40
0.509934978813062
40
0.554486344375512
40
0.554486344375512
40
0.643589075500409
40
0.643589075500409
40
0.732691806625307
40
0.732691806625307
40
0.821794537750205
40
0.821794537750205
40
1
40
1
40
1
40
1
41
1
10
12.3855191279764
20
-0.223953933553076
30
0
41
1
10
12.3278342055278
20
-0.192657117324416
30
0
41
1
10
12.2701653961267
20
-0.161288915336627
30
0
41
1
10
11.9539884654245
20
0.0111589642474712
30
0
41
1
10
11.6954880466188
20
0.153001719827302
30
0
41
1
10
11.1767613000846
20
0.43500677732726
30
0
41
1
10
10.9165488075124
20
0.575177694292535
30
0
41
1
10
10.5238405148176
20
0.782002667728591
30
0
41
1
10
10.3926884304015
20
0.85037082055905
30
-1E-16
41
1
10
10.1316214650124
20
0.984857057000795
30
-1E-16
41
1
10
10.0014712780044
20
1.05110139333237
30
-1E-16
41
1
10
9.74202749070412
20
1.18132953298831
30
-1E-16
41
1
10
9.61271720351428
20
1.24530996721143
30
-1E-16
41
1
10
9.35412767773016
20
1.3705968789188
30
-1E-16
41
1
10
9.22485579963052
20
1.43190368365339
30
-1E-16
41
1
10
8.83711378028869
20
1.61163814883579
30
-1E-16
41
1
10
8.57872155045996
20
1.72588725841391
30
-1E-16
41
1
10
8.19130033516734
20
1.88697404787351
30
-1E-16
41
1
10
8.06219428552453
20
1.93895115346012
30
-1E-16
41
1
10
7.8035027888796
20
2.03942266253131
30
1E-16
41
1
10
7.67390611012303
20
2.08792022286167
30
1E-16
41
1
10
7.28433395591324
20
2.2277992742533
30
1E-16
41
1
10
7.02304019703755
20
2.31374321738889
30
1E-16
41
1
10
6.49973395401682
20
2.46743253412387
30
1E-16
41
1
10
6.23962027863507
20
2.53464910581246
30
1E-16
41
1
10
5.72100394882162
20
2.64890440815185
30
1E-16
41
1
10
5.46235925281718
20
2.69615614747738
30
-1E-16
41
1
10
4.68537570663989
20
2.80968933236591
30
0
41
1
10
4.16739683932252
20
2.845767586904
30
0
41
1
10
3.64569459868846
20
2.83387932980435
30
0
0
SPLINE
5
DA
100
AcDbEntity
8
1
62
256
6
ByLayer
370
18
48
1
60
0
100
AcDbSpline
70
4
71
3
72
25
73
21
40
0
40
0
40
0
40
0
40
0.0722800269291975
40
0.0722800269291975
40
0.207532442667785
40
0.207532442667785
40
0.275158650537079
40
0.275158650537079
40
0.342784858406373
40
0.410411066275667
40
0.410411066275667
40
0.478037274144961
40
0.478037274144961
40
0.613289689883549
40
0.613289689883549
40
0.748542105622137
40
0.748542105622137
40
0.883794521360725
40
0.883794521360725
40
1
40
1
40
1
40
1
41
1
10
3.60273250564512
20
2.83222044549257
30
0
41
1
10
3.60272454078216
20
2.82864793622451
30
0
41
1
10
3.60271609831315
20
2.82145289330998
30
0
41
1
10
3.60269073890584
20
2.79069312622926
30
1E-16
41
1
10
3.60267284230906
20
2.75832341954651
30
1E-16
41
1
10
3.60264431588126
20
2.69078027555884
30
-1E-16
41
1
10
3.60263447760536
20
2.664951990405
30
-1E-16
41
1
10
3.60261447974776
20
2.60737095662523
30
1E-16
41
1
10
3.60259419300189
20
2.54401183014457
30
1E-16
41
1
10
3.60257333383683
20
2.46926726815178
30
1E-16
41
1
10
3.60255215481396
20
2.38879788712441
30
1E-16
41
1
10
3.60254136273218
20
2.34551776508894
30
1E-16
41
1
10
3.60250873793103
20
2.20830755270239
30
1E-16
41
1
10
3.60248675840137
20
2.1075140348216
30
1E-16
41
1
10
3.60244155867773
20
1.88787540524325
30
-1E-16
41
1
10
3.60241824553981
20
1.76851743410171
30
-1E-16
41
1
10
3.60236954692195
20
1.51303702074122
30
-1E-16
41
1
10
3.60234463429029
20
1.37948107092575
30
-1E-16
41
1
10
3.60229604253965
20
1.12074881800623
30
-1E-16
41
1
10
3.60227267063564
20
0.996948788153617
30
-1E-16
41
1
10
3.60224791766967
20
0.868993523586511
30
-1E-16
0
SPLINE
5
DB
100
AcDbEntity
8
1
62
256
6
ByLayer
370
18
48
1
60
0
100
AcDbSpline
70
4
71
3
72
8
73
4
40
0
40
0
40
0
40
0
40
1
40
1
40
1
40
1
41
1
10
3.65225621706804
20
-2.98263743380542
30
0
41
1
10
3.70847990176216
20
-2.98373278568377
30
0
41
1
10
3.76469505019187
20
-2.98429740631468
30
0
41
1
10
3.82090519185243
20
-2.98433408323592
30
0
0
SPLINE
5
DC
100
AcDbEntity
8
1
62
256
6
ByLayer
370
18
48
1
60
0
100
AcDbSpline
70
4
71
3
72
34
73
30
40
0
40
0
40
0
40
0
40
0.0427534308468408
40
0.0427534308468408
40
0.0826387045615553
40
0.0826387045615553
40
0.12252397827627
40
0.12252397827627
40
0.202294525705699
40
0.202294525705699
40
0.282065073135128
40
0.282065073135128
40
0.361835620564557
40
0.361835620564557
40
0.441606167993986
40
0.441606167993986
40
0.481491441708701
40
0.481491441708701
40
0.521376715423416
40
0.521376715423416
40
0.601147262852847
40
0.601147262852847
40
0.680917810282277
40
0.680917810282277
40
0.760688357711708
40
0.760688357711708
40
0.840458905141139
40
0.840458905141139
40
1
40
1
40
1
40
1
41
1
10
18.7742427073479
20
2.88623025919708
30
0
41
1
10
18.9126004519258
20
2.90748664524943
30
0
41
1
10
19.0511983297895
20
2.92569765721146
30
0
41
1
10
19.3198465916911
20
2.9548110947006
30
0
41
1
10
19.4498548450526
20
2.9661435075395
30
0
41
1
10
19.7106082718998
20
2.98330659922897
30
0
41
1
10
19.8414784891956
20
2.98913279516125
30
0
41
1
10
20.2319866382188
20
2.99813690630452
30
0
41
1
10
20.4903303776628
20
2.99282841167684
30
0
41
1
10
21.0066784405379
20
2.96034432394393
30
0
41
1
10
21.2645452840049
20
2.9332997480507
30
0
41
1
10
21.7796435056771
20
2.85783657048089
30
0
41
1
10
22.0366601802903
20
2.80918022030488
30
1E-16
41
1
10
22.5529193803451
20
2.69168184420673
30
1E-16
41
1
10
22.8119907157987
20
2.62283986665707
30
1E-16
41
1
10
23.2023944424292
20
2.50438633527787
30
1E-16
41
1
10
23.333076119503
20
2.46224665418615
30
1E-16
41
1
10
23.5934307685141
20
2.37360447759386
30
1E-16
41
1
10
23.7232471869964
20
2.32714079682708
30
1E-16
41
1
10
24.1121012083159
20
2.18199178683909
30
-1E-16
41
1
10
24.3704027208455
20
2.07741016593056
30
-1E-16
41
1
10
24.8857791795196
20
1.85365346688425
30
-1E-16
41
1
10
25.1426894049312
20
1.73419869697509
30
-1E-16
41
1
10
25.6578370232045
20
1.48425626209081
30
-1E-16
41
1
10
25.9159286520422
20
1.35361663928475
30
-1E-16
41
1
10
26.433486276572
20
1.08131360760899
30
-1E-16
41
1
10
26.6933356123496
20
0.939122806672941
30
-1E-16
41
1
10
27.4759943325533
20
0.504472345300258
30
0
41
1
10
27.9949922400188
20
0.20600284348339
30
0
41
1
10
28.5149609419998
20
-0.0946817638796063
30
0
0
SPLINE
5
DD
100
AcDbEntity
8
1
62
256
6
ByLayer
370
18
48
1
60
0
100
AcDbSpline
70
4
71
3
72
18
73
14
40
0
40
0
40
0
40
0
40
0.500000000000016
40
0.500000000000016
40
0.562500000000014
40
0.562500000000014
40
0.625000000000012
40
0.625000000000012
40
0.750000000000008
40
0.750000000000008
40
0.875000000000004
40
0.875000000000004
40
1
40
1
40
1
40
1
41
1
10
28.9599006533933
20
2.87572460131548
30
0
41
1
10
29.0794928813104
20
2.53514294561751
30
0
41
1
10
29.1987275801637
20
2.18861442267647
30
0
41
1
10
29.3395280480225
20
1.8017577811255
30
0
41
1
10
29.3552512468714
20
1.75881386876071
30
0
41
1
10
29.386865659348
20
1.67300768781132
30
0
41
1
10
29.4028936783512
20
1.63021622821171
30
0
41
1
10
29.4525147891651
20
1.50259557549575
30
0
41
1
10
29.4870654487431
20
1.41939403500658
30
0
41
1
10
29.5593315024323
20
1.25865518858259
30
0
41
1
10
29.5971242258118
20
1.18080453876712
30
0
41
1
10
29.6767740976676
20
1.03041168904323
30
0
41
1
10
29.7186695586287
20
0.957972435345852
30
0
41
1
10
29.76148713906
20
0.890390683322181
30
0
0
SPLINE
5
DE
100
AcDbEntity
8
1
62
256
6
ByLayer
370
18
48
1
60
0
100
AcDbSpline
70
4
71
3
72
30
73
26
40
0
40
0
40
0
40
0
40
0.159188465521725
40
0.159188465521725
40
0.19422227945832
40
0.19422227945832
40
0.229256093394915
40
0.229256093394915
40
0.299323721268105
40
0.299323721268105
40
0.439458977014483
40
0.439458977014483
40
0.474492790951078
40
0.474492790951078
40
0.509526604887674
40
0.509526604887674
40
0.579594232760864
40
0.579594232760864
40
0.719729488507242
40
0.719729488507242
40
0.789797116380431
40
0.789797116380431
40
0.859864744253621
40
0.859864744253621
40
1
40
1
40
1
40
1
41
1
10
14.7998691132561
20
-2.86072005746556
30
0
41
1
10
14.2063949674953
20
-2.95999286921895
30
0
41
1
10
13.6142478044818
20
-3.00321844438955
30
0
41
1
10
12.8830529507633
20
-2.98322728365275
30
0
41
1
10
12.750515720332
20
-2.97671082323862
30
0
41
1
10
12.4860997937318
20
-2.95795676632832
30
0
41
1
10
12.3542760069798
20
-2.94573860961728
30
0
41
1
10
11.9596956848202
20
-2.90076683557575
30
0
41
1
10
11.6978037424754
20
-2.8597083641117
30
0
41
1
10
10.9135536772647
20
-2.70486045582191
30
-1E-16
41
1
10
10.3923567642868
20
-2.55957183780552
30
-1E-16
41
1
10
9.73590730812532
20
-2.33074097903693
30
-1E-16
41
1
10
9.60437363825116
20
-2.28260702876546
30
-1E-16
41
1
10
9.34060981697525
20
-2.18176923100248
30
1E-16
41
1
10
9.20811224585938
20
-2.12895313939271
30
1E-16
41
1
10
8.81136309246477
20
-1.96482656845339
30
1E-16
41
1
10
8.54839245662814
20
-1.84810139933663
30
1E-16
41
1
10
7.76197040435895
20
-1.47939817538347
30
1E-16
41
1
10
7.24109352597151
20
-1.20873362537213
30
1E-16
41
1
10
6.45574303919267
20
-0.780113908125031
30
0
41
1
10
6.19329463791459
20
-0.633465695776778
30
0
41
1
10
5.66568781002832
20
-0.334831240404981
30
0
41
1
10
5.40025115400255
20
-0.182645607348604
30
0
41
1
10
4.6082075287797
20
0.271860476303374
30
0
41
1
10
4.08211231426475
20
0.573596209120723
30
0
41
1
10
3.55232780902276
20
0.864245960248752
30
-1E-16
0
SPLINE
5
DF
100
AcDbEntity
8
1
62
256
6
ByLayer
370
18
48
1
60
0
100
AcDbSpline
70
4
71
3
72
20
73
16
40
0
40
0
40
0
40
0
40
0.015431924853904
40
0.015431924853904
40
0.17952660404492
40
0.17952660404492
40
0.343621283235936
40
0.343621283235936
40
0.507715962426952
40
0.507715962426952
40
0.671810641617968
40
0.671810641617968
40
0.835905320808984
40
0.835905320808984
40
1
40
1
40
1
40
1
41
1
10
8.50145169889819
20
2.1720941250839
30
-1E-16
41
1
10
8.52978022634707
20
2.18327413631806
30
0
41
1
10
8.55811391187021
20
2.19435971884946
30
0
41
1
10
8.88779559812255
20
2.3222070638717
30
1E-16
41
1
10
9.18810268358845
20
2.42761312601391
30
1E-16
41
1
10
9.78898777706308
20
2.61324447210126
30
1E-16
41
1
10
10.0899755550183
20
2.69362429426354
30
1E-16
41
1
10
10.6923307171329
20
2.82661560622907
30
0
41
1
10
10.9925735834814
20
2.87904101719164
30
0
41
1
10
11.5934197020256
20
2.95476943302373
30
0
41
1
10
11.8946605393878
20
2.97807637674649
30
0
41
1
10
12.4966868182623
20
2.99455322232006
30
0
41
1
10
12.7968741762567
20
2.98777219441982
30
0
41
1
10
13.3977225977447
20
2.94448165145323
30
0
41
1
10
13.6991121625388
20
2.90783619038132
30
0
41
1
10
14
20
2.85685902191028
30
0
0
SPLINE
5
E0
100
AcDbEntity
8
1
62
256
6
ByLayer
370
18
48
1
60
0
100
AcDbSpline
70
4
71
3
72
26
73
22
40
0
40
0
40
0
40
0
40
0.0703002905109676
40
0.0703002905109676
40
0.253854036817464
40
0.253854036817464
40
0.345630909970712
40
0.345630909970712
40
0.391519346547334
40
0.391519346547334
40
0.437407783123957
40
0.437407783123957
40
0.620961529430445
40
0.620961529430445
40
0.71273840258369
40
0.71273840258369
40
0.804515275736934
40
0.804515275736934
40
0.988069022043426
40
0.988069022043426
40
1
40
1
40
1
40
1
41
1
10
13.6939590475805
20
-2.84056482712296
30
0
41
1
10
13.4914926641137
20
-2.84976815478444
30
0
41
1
10
13.2897504273285
20
-2.85251163074312
30
0
41
1
10
12.5626207985193
20
-2.83896761243739
30
0
41
1
10
12.0392812019574
20
-2.78605331366572
30
-1E-16
41
1
10
11.2500428709967
20
-2.64326181267609
30
-1E-16
41
1
10
10.9862704614028
20
-2.58533405142356
30
-1E-16
41
1
10
10.5884168812838
20
-2.4830750435668
30
-1E-16
41
1
10
10.4552200231424
20
-2.44640776464033
30
-1E-16
41
1
10
10.1898564539374
20
-2.36868015780323
30
-1E-16
41
1
10
10.0575366219639
20
-2.32758541327621
30
-1E-16
41
1
10
9.39732781665279
20
-2.11152597230668
30
-1E-16
41
1
10
8.87366899986625
20
-1.9046611951739
30
1E-16
41
1
10
8.08638220445124
20
-1.55594408116028
30
1E-16
41
1
10
7.82367906182611
20
-1.43318641036609
30
1E-16
41
1
10
7.29643366221705
20
-1.17649208183192
30
1E-16
41
1
10
7.03162496499073
20
-1.04259681560288
30
1E-16
41
1
10
6.23378752789159
20
-0.628774106367388
30
0
41
1
10
5.70745230520373
20
-0.342007432802234
30
0
41
1
10
5.14716782478129
20
-0.0355309399189991
30
0
41
1
10
5.11297198205918
20
-0.01682377061789
30
0
41
1
10
5.07877448696354
20
0.0018826026368686
30
0
0
SPLINE
5
E1
100
AcDbEntity
8
1
62
256
6
ByLayer
370
18
48
1
60
0
100
AcDbSpline
70
4
71
3
72
8
73
4
40
0
40
0
40
0
40
0
40
1
40
1
40
1
40
1
41
1
10
29.76148713906
20
-0.890390683322181
30
0
41
1
10
29.8413462477044
20
-0.665235947014509
30
0
41
1
10
29.9194026810971
20
-0.439432699296958
30
0
41
1
10
29.995633400995
20
-0.212972652174528
30
0
0
SPLINE
5
E2
100
AcDbEntity
8
1
62
256
6
ByLayer
370
18
48
1
60
0
100
AcDbSpline
70
4
71
3
72
10
73
6
40
0
40
0
40
0
40
0
40
0.5
40
0.5
40
1
40
1
40
1
40
1
41
1
10
3.50206874973731
20
2.9841014914189
30
0
41
1
10
3.50206874973731
20
2.98397748417727
30
0
41
1
10
3.52175789778195
20
2.98312079763855
30
0
41
1
10
3.58254203596755
20
2.98201889754549
30
0
41
1
10
3.62175085249268
20
2.9820431271788
30
0
41
1
10
3.65225621706804
20
2.98263743380542
30
0
0
SPLINE
5
E3
100
AcDbEntity
8
1
62
256
6
ByLayer
370
18
48
1
60
0
100
AcDbSpline
70
4
71
3
72
20
73
16
40
0
40
0
40
0
40
0
40
0.520601997101044
40
0.520601997101044
40
0.71267835445355
40
0.71267835445355
40
0.833511141093038
40
0.833511141093038
40
0.909462068596619
40
0.909462068596619
40
0.95728244458423
40
0.95728244458423
40
0.987426443004129
40
0.987426443004129
40
1
40
1
40
1
40
1
41
1
10
28.7735667878348
20
-2.99934044882423
30
0
41
1
10
28.8037042026161
20
-2.97972192413295
30
0
41
1
10
28.8338972949011
20
-2.95987800024486
30
0
41
1
10
28.8753020091392
20
-2.93241810086744
30
0
41
1
10
28.8864688175878
20
-2.92498764399241
30
0
41
1
10
28.9046722253998
20
-2.91283569097612
30
0
41
1
10
28.9117045373973
20
-2.90813162570214
30
0
41
1
10
28.9231617182205
20
-2.90045230235808
30
0
41
1
10
28.9275848831781
20
-2.89748389220299
30
0
41
1
10
28.9347947963568
20
-2.89263924949518
30
0
41
1
10
28.9375808710125
20
-2.89076570257709
30
0
41
1
10
28.9421239003642
20
-2.88770827875734
30
0
41
1
10
28.9438802151031
20
-2.88652571291394
30
0
41
1
10
28.946370732001
20
-2.88484797087884
30
0
41
1
10
28.9471041076819
20
-2.88435382978236
30
0
41
1
10
28.9478380918127
20
-2.88385917945152
30
0
0
SPLINE
5
E4
100
AcDbEntity
8
1
62
256
6
ByLayer
370
18
48
1
60
0
100
AcDbSpline
70
4
71
3
72
18
73
14
40
0
40
0
40
0
40
0
40
0.50000000000002
40
0.50000000000002
40
0.56250000000002
40
0.56250000000002
40
0.62500000000002
40
0.62500000000002
40
0.750000000000014
40
0.750000000000014
40
0.875000000000007
40
0.875000000000007
40
1
40
1
40
1
40
1
41
1
10
28.9599006533933
20
-2.87572460131545
30
0
41
1
10
29.0794928813104
20
-2.53514294561754
30
0
41
1
10
29.1987275801637
20
-2.18861442267655
30
0
41
1
10
29.3395280480224
20
-1.80175778112564
30
0
41
1
10
29.3552512468713
20
-1.75881386876085
30
0
41
1
10
29.3868656593479
20
-1.67300768781149
30
0
41
1
10
29.4028936783512
20
-1.63021622821188
30
0
41
1
10
29.452514789165
20
-1.50259557549595
30
0
41
1
10
29.4870654487431
20
-1.41939403500663
30
0
41
1
10
29.5593315024323
20
-1.25865518858259
30
0
41
1
10
29.5971242258117
20
-1.18080453876715
30
0
41
1
10
29.6767740976675
20
-1.03041168904335
30
0
41
1
10
29.7186695586287
20
-0.95797243534588
30
0
41
1
10
29.76148713906
20
-0.890390683322181
30
0
0
SPLINE
5
E5
100
AcDbEntity
8
1
62
256
6
ByLayer
370
18
48
1
60
0
100
AcDbSpline
70
4
71
3
72
36
73
32
40
0
40
0
40
0
40
0
40
0.0625
40
0.0625
40
0.125
40
0.125
40
0.25
40
0.25
40
0.3125
40
0.3125
40
0.375
40
0.375
40
0.4375
40
0.4375
40
0.5
40
0.5
40
0.5625
40
0.5625
40
0.625
40
0.625
40
0.6875
40
0.6875
40
0.75
40
0.75
40
0.8125
40
0.8125
40
0.875
40
0.875
40
0.9375
40
0.9375
40
1
40
1
40
1
40
1
41
1
10
14
20
2.87121116446843
30
0
41
1
10
14.3080194446582
20
2.821831040832
30
0
41
1
10
14.6160133647519
20
2.7573157487908
30
1E-16
41
1
10
15.2322425978549
20
2.59998311364265
30
1E-16
41
1
10
15.5397062832155
20
2.50737834962899
30
1E-16
41
1
10
16.4633858254364
20
2.19137125111101
30
-1E-16
41
1
10
17.0795792607111
20
1.92979771541241
30
-1E-16
41
1
10
18.0026195238573
20
1.48535154272869
30
-1E-16
41
1
10
18.3107247724842
20
1.32834953237372
30
-1E-16
41
1
10
18.9261559707452
20
1.00241713357758
30
-1E-16
41
1
10
19.2339531954474
20
0.83322016197215
30
-1E-16
41
1
10
19.849619450304
20
0.487708419023647
30
0
41
1
10
20.1569331400089
20
0.31174066236332
30
0
41
1
10
20.7730069600666
20
-0.0423346603212167
30
0
41
1
10
21.081138142354
20
-0.220094047958327
30
0
41
1
10
21.6965589144846
20
-0.571071447528198
30
0
41
1
10
22.004274233407
20
-0.744514528643322
30
0
41
1
10
22.6202467777448
20
-1.08213977877591
30
1E-16
41
1
10
22.9282585984846
20
-1.24615923460283
30
1E-16
41
1
10
23.5434225500821
20
-1.55932586774628
30
1E-16
41
1
10
23.8513587624857
20
-1.70890366141123
30
1E-16
41
1
10
24.4664142949915
20
-1.98829395523381
30
1E-16
41
1
10
24.7739446542216
20
-2.11828456652896
30
1E-16
41
1
10
25.3897112777527
20
-2.35476551219946
30
-1E-16
41
1
10
25.6977077184577
20
-2.46113349109663
30
-1E-16
41
1
10
26.3129948584964
20
-2.64687418974938
30
-1E-16
41
1
10
26.6210983742254
20
-2.72651111829572
30
-1E-16
41
1
10
27.2361281796474
20
-2.8563117172522
30
0
41
1
10
27.5431926365085
20
-2.90655440611235
30
0
41
1
10
28.1589388761394
20
-2.9763282875214
30
0
41
1
10
28.4661638529985
20
-2.99568268344854
30
0
41
1
10
28.773566787835
20
-2.99934044883761
30
0
0
SPLINE
5
E6
100
AcDbEntity
8
1
62
256
6
ByLayer
370
18
48
1
60
0
100
AcDbSpline
70
4
71
3
72
8
73
4
40
0
40
0
40
0
40
0
40
1
40
1
40
1
40
1
41
1
10
29.995633400995
20
0.212972652174528
30
0
41
1
10
29.9792211054136
20
0.157471663723555
30
0
41
1
10
29.9627068708899
20
0.102003101961742
30
0
41
1
10
29.946091171242
20
0.0465668161679389
30
0
0
SPLINE
5
E7
100
AcDbEntity
8
1
62
256
6
ByLayer
370
18
48
1
60
0
100
AcDbSpline
70
4
71
3
72
8
73
4
40
0
40
0
40
0
40
0
40
1
40
1
40
1
40
1
41
1
10
28.7612717515362
20
-2.96039595524789
30
0
41
1
10
28.8095502149626
20
-2.93337579502691
30
0
41
1
10
28.8579557848662
20
-2.9057468945056
30
0
41
1
10
28.9065097176596
20
-2.87752047196349
30
0
0
SPLINE
5
E8
100
AcDbEntity
8
1
62
256
6
ByLayer
370
18
48
1
60
0
100
AcDbSpline
70
4
71
3
72
40
73
36
40
0
40
0
40
0
40
0
40
0.101592328476989
40
0.101592328476989
40
0.126990410596235
40
0.126990410596235
40
0.152388492715481
40
0.152388492715481
40
0.203184656953975
40
0.203184656953975
40
0.304776985430962
40
0.304776985430962
40
0.330175067550209
40
0.330175067550209
40
0.355573149669456
40
0.355573149669456
40
0.406369313907949
40
0.406369313907949
40
0.507961642384935
40
0.507961642384935
40
0.558757806623427
40
0.558757806623427
40
0.584155888742674
40
0.584155888742674
40
0.60955397086192
40
0.60955397086192
40
0.711146299338905
40
0.711146299338905
40
0.761942463577397
40
0.761942463577397
40
0.787340545696644
40
0.787340545696644
40
0.81273862781589
40
0.81273862781589
40
1
40
1
40
1
40
1
41
1
10
28.7612717515369
20
-2.96039595524917
30
0
41
1
10
28.2330280423406
20
-2.91069749166951
30
0
41
1
10
27.7074711966782
20
-2.81556719602716
30
0
41
1
10
27.0469195700591
20
-2.64415755185695
30
-1E-16
41
1
10
26.9144244843299
20
-2.60716759093063
30
-1E-16
41
1
10
26.6503254880021
20
-2.52841384261618
30
-1E-16
41
1
10
26.5186668645859
20
-2.48666240352935
30
-1E-16
41
1
10
26.1244804513546
20
-2.35476654550433
30
-1E-16
41
1
10
25.8628324037653
20
-2.25788776772018
30
-1E-16
41
1
10
25.0790162702243
20
-1.94346962210301
30
1E-16
41
1
10
24.5583364683595
20
-1.70163698745409
30
1E-16
41
1
10
23.9017898058021
20
-1.3699224280779
30
1E-16
41
1
10
23.770220110859
20
-1.30207498423826
30
1E-16
41
1
10
23.5064417805564
20
-1.16349686474061
30
1E-16
41
1
10
23.3739468310842
20
-1.09264605419671
30
1E-16
41
1
10
22.9778245689403
20
-0.878055348305196
30
1E-16
41
1
10
22.7151940343646
20
-0.732018525653984
30
0
41
1
10
21.9296682202026
20
-0.288502021055137
30
0
41
1
10
21.4091114884624
20
0.01433811680036
30
0
41
1
10
20.6240254312018
20
0.463511122475381
30
0
41
1
10
20.3616873418636
20
0.612504532221038
30
0
41
1
10
19.9659912760428
20
0.832728341279505
30
-1E-16
41
1
10
19.8334481814927
20
0.905735002427349
30
-1E-16
41
1
10
19.5692358517638
20
1.04933030427097
30
-1E-16
41
1
10
19.4375044692568
20
1.11995595002131
30
-1E-16
41
1
10
18.7802532648303
20
1.46656774307067
30
-1E-16
41
1
10
18.2591709582247
20
1.72335312088504
30
-1E-16
41
1
10
17.4756074864106
20
2.06488692309463
30
-1E-16
41
1
10
17.2140468567908
20
2.17139952097401
30
-1E-16
41
1
10
16.8201291921733
20
2.31874844895995
30
1E-16
41
1
10
16.6885647802673
20
2.36579977176228
30
1E-16
41
1
10
16.4247775655962
20
2.45555350238723
30
1E-16
41
1
10
16.2922654421112
20
2.49832582957549
30
1E-16
41
1
10
15.1858959672693
20
2.83457184336837
30
0
41
1
10
14.2321412956654
20
2.9902255295213
30
0
41
1
10
13.2626296636841
20
2.99022042815912
30
0
0
SPLINE
5
E9
100
AcDbEntity
8
1
62
256
6
ByLayer
370
18
48
1
60
0
100
AcDbSpline
70
4
71
3
72
16
73
12
40
0
40
0
40
0
40
0
40
0.0668701117896052
40
0.0668701117896052
40
0.300152583842204
40
0.300152583842204
40
0.533435055894803
40
0.533435055894803
40
0.766717527947401
40
0.766717527947401
40
1
40
1
40
1
40
1
41
1
10
28.6430085413455
20
0.603769758200571
30
0
41
1
10
28.6534240652712
20
0.606904949183985
30
0
41
1
10
28.6640943981002
20
0.610304777140328
30
0
41
1
10
28.7129992662706
20
0.626620898478592
30
0
41
1
10
28.7541049481007
20
0.642200508971683
30
0
41
1
10
28.8439853498901
20
0.676908474765213
30
0
41
1
10
28.891213236226
20
0.695427122652944
30
0
41
1
10
28.9910760732845
20
0.731108950280685
30
0
41
1
10
29.0443390411864
20
0.748545662573179
30
0
41
1
10
29.1532314248491
20
0.777610796520605
30
0
41
1
10
29.2089803701673
20
0.789311709120398
30
0
41
1
10
29.2661554413903
20
0.797097880351345
30
0
0
SPLINE
5
EA
100
AcDbEntity
8
1
62
256
6
ByLayer
370
18
48
1
60
0
100
AcDbSpline
70
4
71
3
72
59
73
55
40
0
40
0
40
0
40
0
40
0.0624999999999941
40
0.0624999999999941
40
0.124999999999988
40
0.124999999999988
40
0.156249999999985
40
0.156249999999985
40
0.187499999999982
40
0.187499999999982
40
0.218749999999979
40
0.218749999999979
40
0.249999999999976
40
0.249999999999976
40
0.281249999999974
40
0.281249999999974
40
0.312499999999971
40
0.312499999999971
40
0.328124999999969
40
0.328124999999969
40
0.343749999999968
40
0.343749999999968
40
0.374999999999966
40
0.374999999999966
40
0.390624999999964
40
0.390624999999964
40
0.406249999999963
40
0.406249999999963
40
0.437499999999961
40
0.437499999999961
40
0.499999999999957
40
0.499999999999957
40
0.562499999999953
40
0.562499999999953
40
0.624999999999949
40
0.624999999999949
40
0.640624999999949
40
0.640624999999949
40
0.64843749999995
40
0.64843749999995
40
0.656249999999952
40
0.656249999999952
40
0.660156249999952
40
0.660156249999952
40
0.664062499999953
40
0.664062499999953
40
0.671874999999954
40
0.687499999999956
40
0.687499999999956
40
0.749999999999964
40
0.749999999999964
40
0.874999999999982
40
0.874999999999982
40
1
40
1
40
1
40
1
41
1
10
4.06928214503313
20
-2.97007174062713
30
0
41
1
10
3.90119807838363
20
-2.96059394933584
30
0
41
1
10
3.73605375107323
20
-2.9462562317654
30
0
41
1
10
3.41307166533559
20
-2.90509934007528
30
0
41
1
10
3.25520278149617
20
-2.8783355795027
30
0
41
1
10
3.02576924543689
20
-2.82529286867873
30
0
41
1
10
2.95053035506939
20
-2.80544340435773
30
-1E-16
41
1
10
2.80308297881231
20
-2.7603949261686
30
-1E-16
41
1
10
2.73061050405812
20
-2.73509443296885
30
-1E-16
41
1
10
2.59096375386122
20
-2.67821290816857
30
-1E-16
41
1
10
2.52386321904828
20
-2.64670302687045
30
-1E-16
41
1
10
2.39656917063749
20
-2.57587709411371
30
-1E-16
41
1
10
2.33605715939649
20
-2.53629938032759
30
-1E-16
41
1
10
2.22653165468589
20
-2.44854137834977
30
-1E-16
41
1
10
2.17732873899058
20
-2.400363143167
30
-1E-16
41
1
10
2.09347381547877
20
-2.29279050270358
30
-1E-16
41
1
10
2.05870749449773
20
-2.23264746358714
30
-1E-16
41
1
10
2.02329561059619
20
-2.13595275920912
30
1E-16
41
1
10
2.01416110124447
20
-2.10254034275169
30
1E-16
41
1
10
2.00170322038292
20
-2.03315937513253
30
1E-16
41
1
10
1.99840026902785
20
-1.99689462941763
30
1E-16
41
1
10
1.99798387555819
20
-1.88687794734503
30
1E-16
41
1
10
2.01005700829597
20
-1.8116492815993
30
1E-16
41
1
10
2.04561172618784
20
-1.69624985559048
30
1E-16
41
1
10
2.06037086063489
20
-1.65751074945734
30
1E-16
41
1
10
2.09441456375515
20
-1.58135158167241
30
1E-16
41
1
10
2.11377831584829
20
-1.54366071468468
30
1E-16
41
1
10
2.17806172409473
20
-1.43163697156785
30
1E-16
41
1
10
2.22966707017264
20
-1.35773350799772
30
1E-16
41
1
10
2.3998809675775
20
-1.14502786771183
30
1E-16
41
1
10
2.53287991196746
20
-1.01456451828781
30
1E-16
41
1
10
2.82191409898002
20
-0.767407310987238
30
0
41
1
10
2.97623083169242
20
-0.652626082534169
30
0
41
1
10
3.29607524584486
20
-0.435988407984979
30
0
41
1
10
3.46121179759567
20
-0.334512727915978
30
0
41
1
10
3.67179110310281
20
-0.214191208023522
30
0
41
1
10
3.71411652914065
20
-0.190458901993935
30
0
41
1
10
3.77787901042382
20
-0.155335669724678
30
0
41
1
10
3.7989109491748
20
-0.141837728434353
30
0
41
1
10
3.84589535107688
20
-0.132259166708678
30
0
41
1
10
3.87033587196189
20
-0.133818190851628
30
0
41
1
10
3.90552890112201
20
-0.141837092112524
30
0
41
1
10
3.91702567357265
20
-0.145564337045357
30
0
41
1
10
3.94004994687631
20
-0.15266582227963
30
0
41
1
10
3.95156454632792
20
-0.156208301002209
30
0
41
1
10
3.98607835211561
20
-0.166932805724485
30
0
41
1
10
4.0550333976619
20
-0.188613282423205
30
0
41
1
10
4.12376143256651
20
-0.210978234478318
30
0
41
1
10
4.35233697741432
20
-0.287011566367681
30
0
41
1
10
4.53346012569085
20
-0.352591765399467
30
0
41
1
10
5.07122354237998
20
-0.56156506180281
30
0
41
1
10
5.4228922078222
20
-0.717816729491176
30
0
41
1
10
6.11069876118037
20
-1.04577774188186
30
1E-16
41
1
10
6.44763515550846
20
-1.21764432099113
30
1E-16
41
1
10
6.78158693567281
20
-1.3882657890498
30
1E-16
0
SPLINE
5
EB
100
AcDbEntity
8
1
62
256
6
ByLayer
370
18
48
1
60
0
100
AcDbSpline
70
4
71
3
72
8
73
4
40
0
40
0
40
0
40
0
40
1
40
1
40
1
40
1
41
1
10
29.7614871390599
20
0.890390683322153
30
0
41
1
10
29.8413462477043
20
0.665235947014509
30
0
41
1
10
29.9194026810971
20
0.439432699296987
30
0
41
1
10
29.995633400995
20
0.212972652174557
30
0
0
SPLINE
5
EC
100
AcDbEntity
8
1
62
256
6
ByLayer
370
18
48
1
60
0
100
AcDbSpline
70
4
71
1
72
4
73
2
40
0
40
0
40
1
40
1
41
1
10
21.4317254995928
20
-0.0002201660104788
30
0
41
1
10
21.4317382345005
20
-0.0002113766518903
30
0
0
SPLINE
5
ED
100
AcDbEntity
8
1
62
256
6
ByLayer
370
18
48
1
60
0
100
AcDbSpline
70
4
71
2
72
6
73
3
40
0
40
0
40
0
40
1
40
1
40
1
41
1
10
4.05095677318386
20
2.83414657839435
30
0
41
1
10
3.82673178339041
20
2.83367748769896
30
0
41
1
10
3.60249457975644
20
2.83210092699059
30
0
0
SPLINE
5
EE
100
AcDbEntity
8
1
62
256
6
ByLayer
370
18
48
1
60
0
100
AcDbSpline
70
4
71
1
72
4
73
2
40
0
40
0
40
1
40
1
41
1
10
21.4317382345004
20
0.0002113766519187
30
0
41
1
10
21.4317254995926
20
0.0002201660105641
30
0
0
SPLINE
5
EF
100
AcDbEntity
8
1
62
256
6
ByLayer
370
18
48
1
60
0
100
AcDbSpline
70
4
71
1
72
4
73
2
40
0
40
0
40
1
40
1
41
1
10
28.947838102053
20
-2.88385922974615
30
0
41
1
10
28.9607943071757
20
-2.87512767189438
30
0
0
SPLINE
5
F0
100
AcDbEntity
8
1
62
256
6
ByLayer
370
18
48
1
60
0
100
AcDbSpline
70
4
71
3
72
11
73
7
40
0
40
0
40
0
40
0
40
0.124357339738995
40
0.3356433437252
40
0.636631287640502
40
1
40
1
40
1
40
1
41
1
10
28.3074242924191
20
0.872380780919457
30
-1E-16
41
1
10
28.172586628302
20
0.918177963784103
30
-1E-16
41
1
10
27.809207927166
20
1.04337543720695
30
-1E-16
41
1
10
27.1232656300686
20
1.29042664294209
30
-1E-16
41
1
10
26.184143547672
20
1.64249817744459
30
-1E-16
41
1
10
25.4771071870273
20
1.92410783285086
30
-1E-16
41
1
10
25.0919223603617
20
2.08224305342102
30
-1E-16
0
SPLINE
5
F1
100
AcDbEntity
8
1
62
256
6
ByLayer
370
18
48
1
60
0
100
AcDbSpline
70
4
71
1
72
4
73
2
40
0
40
0
40
1
40
1
41
1
10
25.0919223603617
20
2.08224305342102
30
-1E-16
41
1
10
24.954056594363
20
2.13712228950578
30
-1E-16
0
SPLINE
5
F2
100
AcDbEntity
8
1
62
256
6
ByLayer
370
18
48
1
60
0
100
AcDbSpline
70
4
71
3
72
26
73
22
40
0
40
0
40
0
40
0
40
2.42782021846E-05
40
8.24916720319E-05
40
0.0001786143467602
40
0.0002597259967397
40
0.0006477094047383
40
0.0009440734025005
40
0.0014764483175865
40
0.0024371694502576
40
0.0041847713353375
40
0.0074074787343221
40
0.0134866752497021
40
0.0253934688191544
40
0.0513164057673369
40
0.25688928817066
40
0.438900154778324
40
0.543313709727756
40
0.659085414333529
40
0.820140164823777
40
1
40
1
40
1
40
1
41
1
10
14.2419560124716
20
0.1383327648239
30
0
41
1
10
14.2419600303799
20
0.13833409588247
30
0
41
1
10
14.241961786443
20
0.138342045111074
30
0
41
1
10
14.2418504077788
20
0.138391976683323
30
0
41
1
10
14.241632742626
20
0.138476060166255
30
0
41
1
10
14.2407826177684
20
0.138757351622814
30
0
41
1
10
14.2392333351357
20
0.139199133844784
30
0
41
1
10
14.2370716080198
20
0.139857461258998
30
0
41
1
10
14.2337900167987
20
0.14084037675616
30
0
41
1
10
14.2279096822306
20
0.142610769414631
30
0
41
1
10
14.217105947813
20
0.145855486035373
30
0
41
1
10
14.1969996418637
20
0.151894199262472
30
0
41
1
10
14.1583589219553
20
0.16349249318057
30
0
41
1
10
14.0785175785181
20
0.187542175949545
30
0
41
1
10
13.6279090075997
20
0.324001466147337
30
0
41
1
10
12.8584986757066
20
0.565590671685328
30
0
41
1
10
11.951981316793
20
0.870961295847422
30
-1E-16
41
1
10
11.2138318520414
20
1.13120316028488
30
-1E-16
41
1
10
10.5168062846338
20
1.38557918053632
30
-1E-16
41
1
10
9.68566246759221
20
1.70116164276837
30
-1E-16
41
1
10
9.06942320549598
20
1.94764535483867
30
-1E-16
41
1
10
8.74541636110797
20
2.08063841064268
30
-1E-16
0
SPLINE
5
F3
100
AcDbEntity
8
1
62
256
6
ByLayer
370
18
48
1
60
0
100
AcDbSpline
70
4
71
3
72
19
73
15
40
0
40
0
40
0
40
0
40
0.16161994788721
40
0.269191474099539
40
0.352167533640739
40
0.441110960386417
40
0.531244239698477
40
0.62133072022901
40
0.698546037402168
40
0.775769913251352
40
0.852918309600763
40
0.926849192860612
40
0.998855410833298
40
1
40
1
40
1
40
1
41
1
10
13.2582205809437
20
-2.84042021381333
30
0
41
1
10
13.5555660803054
20
-2.84063742696861
30
0
41
1
10
14.0508450400266
20
-2.84099361825713
30
0
41
1
10
14.6990623660369
20
-2.84098128057897
30
0
41
1
10
15.2132326622243
20
-2.84161992697167
30
0
41
1
10
15.6955923316998
20
-2.84197584355692
30
0
41
1
10
16.1909700609695
20
-2.84146468408599
30
0
41
1
10
16.6647805622897
20
-2.84250801062237
30
0
41
1
10
17.1148272309117
20
-2.84299961086444
30
0
41
1
10
17.5410628468513
20
-2.84220941135123
30
0
41
1
10
17.9612482141951
20
-2.84226688949013
30
0
41
1
10
18.3718509331327
20
-2.84290235565055
30
0
41
1
10
18.6423707458008
20
-2.84339084231985
30
0
41
1
10
18.7769660912614
20
-2.84354717797069
30
0
41
1
10
18.7790721145654
20
-2.84354960308545
30
0
0
SPLINE
5
F4
100
AcDbEntity
8
1
62
256
6
ByLayer
370
18
48
1
60
0
100
AcDbSpline
70
4
71
3
72
18
73
14
40
0
40
0
40
0
40
0
40
0.152772088594904
40
0.260689443320323
40
0.334646975249274
40
0.410581329436573
40
0.489820388880622
40
0.569136973261709
40
0.648444767033127
40
0.74097252293791
40
0.833548345835755
40
0.924902072064077
40
1
40
1
40
1
40
1
41
1
10
20.1739017248382
20
2.84320450426782
30
0
41
1
10
19.900279645711
20
2.84358524769405
30
0
41
1
10
19.433344498197
20
2.84388425395434
30
0
41
1
10
18.8335154928082
20
2.84373599877955
30
0
41
1
10
18.3718509331327
20
2.84290235565055
30
0
41
1
10
17.9612482141951
20
2.84226688949013
30
0
41
1
10
17.5410628468513
20
2.84220941135123
30
0
41
1
10
17.1148272309118
20
2.84299961086444
30
0
41
1
10
16.6647805622897
20
2.84250801062237
30
0
41
1
10
16.1909700609695
20
2.84146468408599
30
0
41
1
10
15.6955923316998
20
2.84197584355692
30
0
41
1
10
15.2313810743451
20
2.84163331805988
30
0
41
1
10
14.9332352104066
20
2.84127161980359
30
0
41
1
10
14.7987003417472
20
2.84116236547945
30
0
0
SPLINE
5
F5
100
AcDbEntity
8
1
62
256
6
ByLayer
370
18
48
1
60
0
100
AcDbSpline
70
4
71
2
72
6
73
3
40
0
40
0
40
0
40
1
40
1
40
1
41
1
10
5.07671678097157
20
0.0030112551158368
30
0
41
1
10
5.07670380753518
20
0.0030186954090539
30
0
41
1
10
5.07669083369157
20
0.0030265760680095
30
0
0
LINE
5
84
100
AcDbEntity
8
SK1
62
256
6
ByLayer
370
18
48
1
60
0
100
AcDbLine
10
-35.065
20
-3
30
0
11
-35.065
21
3
31
0
39
0
210
0
220
0
230
1
0
LINE
5
86
100
AcDbEntity
8
SK1
62
256
6
ByLayer
370
18
48
1
60
0
100
AcDbLine
10
0
20
3
30
0
11
0
21
-3
31
0
39
0
210
0
220
0
230
1
0
LINE
5
87
100
AcDbEntity
8
SK1
62
256
6
ByLayer
370
18
48
1
60
0
100
AcDbLine
10
-36
20
-2.065
30
0
11
-36
21
2.065
31
0
39
0
210
0
220
0
230
1
0
LINE
5
88
100
AcDbEntity
8
1
62
256
6
ByLayer
370
18
48
1
60
0
100
AcDbLine
10
1
20
0
30
0
11
1
21
2.982556
31
0
39
0
210
0
220
0
230
1
0
LINE
5
89
100
AcDbEntity
8
1
62
256
6
ByLayer
370
18
48
1
60
0
100
AcDbLine
10
1
20
-2.982556
30
0
11
1
21
0
31
0
39
0
210
0
220
0
230
1
0
LINE
5
8A
100
AcDbEntity
8
1
62
256
6
ByLayer
370
18
48
1
60
0
100
AcDbLine
10
3.502069
20
2.98412
30
0
11
3.502069
21
0.946906
31
0
39
0
210
0
220
0
230
1
0
LINE
5
8B
100
AcDbEntity
8
1
62
256
6
ByLayer
370
18
48
1
60
0
100
AcDbLine
10
29.946091
20
0.046567
30
0
11
29.266155
21
0.797098
31
0
39
0
210
0
220
0
230
1
0
LINE
5
8C
100
AcDbEntity
8
1
62
256
6
ByLayer
370
18
48
1
60
0
100
AcDbLine
10
0
20
3
30
0
11
0
21
-3
31
0
39
0
210
0
220
0
230
1
0
LINE
5
8D
100
AcDbEntity
8
1
62
256
6
ByLayer
370
18
48
1
60
0
100
AcDbLine
10
14
20
2.871211
30
0
11
14
21
2.856859
31
0
39
0
210
0
220
0
230
1
0
LINE
5
8E
100
AcDbEntity
8
SK1
62
256
6
ByLayer
370
18
48
1
60
0
100
AcDbLine
10
-35.065
20
-3
30
0
11
0
21
-3
31
0
39
0
210
0
220
0
230
1
0
LINE
5
8F
100
AcDbEntity
8
SK1
62
256
6
ByLayer
370
18
48
1
60
0
100
AcDbLine
10
0
20
3
30
0
11
-35.065
21
3
31
0
39
0
210
0
220
0
230
1
0
LINE
5
90
100
AcDbEntity
8
1
62
256
6
ByLayer
370
18
48
1
60
0
100
AcDbLine
10
1
20
2.982556
30
0
11
0
21
3
31
0
39
0
210
0
220
0
230
1
0
LINE
5
91
100
AcDbEntity
8
1
62
256
6
ByLayer
370
18
48
1
60
0
100
AcDbLine
10
0
20
-3
30
0
11
1
21
-2.982556
31
0
39
0
210
0
220
0
230
1
0
LINE
5
92
100
AcDbEntity
8
SK1
62
256
6
ByLayer
370
18
48
1
60
0
100
AcDbLine
10
-36
20
-2.065
30
0
11
-35.065
21
-3
31
0
39
0
210
0
220
0
230
1
0
LINE
5
93
100
AcDbEntity
8
SK1
62
256
6
ByLayer
370
18
48
1
60
0
100
AcDbLine
10
-35.065
20
3
30
0
11
-36
21
2.065
31
0
39
0
210
0
220
0
230
1
0
LINE
5
94
100
AcDbEntity
8
1
62
256
6
ByLayer
370
18
48
1
60
0
100
AcDbLine
10
1
20
-2.982556
30
0
11
3.502069
21
-2.98412
31
0
39
0
210
0
220
0
230
1
0
LINE
5
95
100
AcDbEntity
8
1
62
256
6
ByLayer
370
18
48
1
60
0
100
AcDbLine
10
3.819993
20
-2.984319
30
0
11
4.579942
21
-2.984794
31
0
39
0
210
0
220
0
230
1
0
LINE
5
96
100
AcDbEntity
8
1
62
256
6
ByLayer
370
18
48
1
60
0
100
AcDbLine
10
12.436191
20
-2.989704
30
0
11
13.255184
21
-2.990216
31
0
39
0
210
0
220
0
230
1
0
LINE
5
97
100
AcDbEntity
8
1
62
256
6
ByLayer
370
18
48
1
60
0
100
AcDbLine
10
20.172681
20
-2.994539
30
0
11
20.911778
21
-2.995001
31
0
39
0
210
0
220
0
230
1
0
LINE
5
98
100
AcDbEntity
8
1
62
256
6
ByLayer
370
18
48
1
60
0
100
AcDbLine
10
20.911778
20
2.995001
30
0
11
20.172681
21
2.994539
31
0
39
0
210
0
220
0
230
1
0
LINE
5
99
100
AcDbEntity
8
1
62
256
6
ByLayer
370
18
48
1
60
0
100
AcDbLine
10
13.255184
20
2.990216
30
0
11
12.436191
21
2.989704
31
0
39
0
210
0
220
0
230
1
0
LINE
5
9A
100
AcDbEntity
8
1
62
256
6
ByLayer
370
18
48
1
60
0
100
AcDbLine
10
4.579942
20
2.984794
30
0
11
3.819993
21
2.984319
31
0
39
0
210
0
220
0
230
1
0
LINE
5
9B
100
AcDbEntity
8
1
62
256
6
ByLayer
370
18
48
1
60
0
100
AcDbLine
10
3.502069
20
2.98412
30
0
11
1
21
2.982556
31
0
39
0
210
0
220
0
230
1
0
LINE
5
9C
100
AcDbEntity
8
SK4
62
256
6
ByLayer
370
18
48
0.05
60
0
100
AcDbLine
10
35
20
0
30
0
11
-41
21
0
31
0
39
0
210
0
220
0
230
1
0
LINE
5
9E
100
AcDbEntity
8
4
62
256
6
ByLayer
370
18
48
0.05
60
0
100
AcDbLine
10
-36
20
0
30
0
11
35
21
0
31
0
39
0
210
0
220
0
230
1
0
LINE
5
A0
100
AcDbEntity
8
80
62
256
6
ByLayer
370
18
48
1
60
0
100
AcDbLine
10
0
20
0
30
0
11
-6
21
0
31
0
39
0
210
0
220
0
230
1
0
LINE
5
A1
100
AcDbEntity
8
81
62
256
6
ByLayer
370
18
48
1
60
0
100
AcDbLine
10
30
20
0
30
0
11
36
21
0
31
0
39
0
210
0
220
0
230
1
0
LINE
5
A2
100
AcDbEntity
8
SK2
62
256
6
ByLayer
370
13
48
1
60
0
100
AcDbLine
10
30.542952
20
1.491764
30
0
11
37.926248
21
21.777401
31
0
39
0
210
0
220
0
230
1
0
LINE
5
A4
100
AcDbEntity
8
SK2
62
256
6
ByLayer
370
13
48
1
60
0
100
AcDbLine
10
30.542952
20
-1.491764
30
0
11
37.926248
21
-21.777401
31
0
39
0
210
0
220
0
230
1
0
LINE
5
A5
100
AcDbEntity
8
1
62
256
6
ByLayer
370
13
48
1
60
0
100
AcDbLine
10
36.840344
20
18.793874
30
0
11
39.936937
21
17.977512
31
0
39
0
210
0
220
0
230
1
0
LINE
5
A6
100
AcDbEntity
8
1
62
256
6
ByLayer
370
13
48
1
60
0
100
AcDbLine
10
36.840344
20
18.793874
30
0
11
39.620136
21
17.20387
31
0
39
0
210
0
220
0
230
1
0
LINE
5
A7
100
AcDbEntity
8
1
62
256
6
ByLayer
370
13
48
1
60
0
100
AcDbLine
10
39.936937
20
17.977512
30
0
11
39.620136
21
17.20387
31
0
39
0
210
0
220
0
230
1
0
LINE
5
A8
100
AcDbEntity
8
1
62
256
6
ByLayer
370
13
48
1
60
0
100
AcDbLine
10
36.840344
20
-18.793874
30
0
11
39.620133
21
-17.203871
31
0
39
0
210
0
220
0
230
1
0
LINE
5
A9
100
AcDbEntity
8
1
62
256
6
ByLayer
370
13
48
1
60
0
100
AcDbLine
10
36.840344
20
-18.793874
30
0
11
39.93694
21
-17.977511
31
0
39
0
210
0
220
0
230
1
0
LINE
5
AA
100
AcDbEntity
8
1
62
256
6
ByLayer
370
13
48
1
60
0
100
AcDbLine
10
39.620133
20
-17.203871
30
0
11
39.93694
21
-17.977511
31
0
39
0
210
0
220
0
230
1
0
MTEXT
5
F6
100
AcDbEntity
8
SK2
62
256
6
ByLayer
370
18
48
1
60
0
100
AcDbMText
10
43.717388
20
-2.467451
30
0
210
0
220
0
230
1
1
\W0.7237;140.00
40
3.50012
41
0
44
1.084337
50
0
71
7
72
5
7
iso_b_vert
0
MTEXT
5
F9
100
AcDbEntity
8
SK6
62
256
6
ByLayer
370
18
48
1
60
0
100
AcDbMText
10
-42.331725
20
-52.490461
30
0
210
0
220
0
230
1
1
\W0.7454;860.1-0600-016A0-GM X1BM
40
3.175
41
0
44
1.084337
50
0
71
7
72
5
7
iso_b_vert
0
DIMENSION
5
FC
100
AcDbEntity
8
SK2
62
256
6
ByLayer
370
18
48
1
60
0
100
AcDbDimension
2
_U0
10
30
20
-26.50012
30
0
11
15
21
-26.50012
31
0
70
32
71
2
72
1
41
1
210
0
220
0
230
1
3
Standard
100
AcDbAlignedDimension
13
0
23
-3
33
0
14
30
24
0
34
0
50
0
100
AcDbRotatedDimension
1001
ACAD
1000
DSTYLE
1002
{
1070
   371
1070
    13
1070
   372
1070
    13
1070
     3
1000

1070
   170
1070
     0
1070
   144
1040
1.0
1070
   277
1070
     2
1070
   284
1070
     8
1070
   278
1070
    46
1070
   146
1040
0.999966
1070
   345
1005
16
1070
   347
1005
16
1070
   346
1005
16
1070
   344
1005
FD
1070
   343
1005
FD
1070
   172
1070
     1
1070
    76
1070
     0
1070
    75
1070
     0
1070
   282
1070
     0
1070
   281
1070
     0
1070
    71
1070
     0
1070
    74
1070
     0
1070
   279
1070
     0
1070
   173
1070
     1
1070
   340
1005
F7
1070
   271
1070
     1
1070
   272
1070
     2
1070
    77
1070
     1
1070
    73
1070
     1
1070
   171
1070
     3
1070
   274
1070
     4
1070
   177
1070
   150
1070
   176
1070
     9
1070
   178
1070
    43
1070
    78
1070
     8
1070
    48
1040
-0.1
1070
    41
1040
3.175
1070
   147
1040
1.75006
1070
    42
1040
1.5875
1070
    44
1040
3.175
1070
   140
1040
3.50012
1002
}
1001
ACAD_DSTYLE_DIM_LINETYPE
1070
   380
1005
16
1001
ACAD_DSTYLE_DIM_EXT1_LINETYPE
1070
   381
1005
16
1001
ACAD_DSTYLE_DIM_EXT2_LINETYPE
1070
   382
1005
16
0
DIMENSION
5
122
100
AcDbEntity
8
2
62
256
6
ByLayer
370
18
48
1
60
0
100
AcDbDimension
2
_U1
10
36.75006
20
3
30
0
11
36.75006
21
15.989811
31
0
70
32
71
1
72
1
41
1
210
0
220
0
230
1
3
Standard
100
AcDbAlignedDimension
13
28.9081
23
-3
33
0
14
28.9081
24
3
34
0
50
90
100
AcDbRotatedDimension
1001
ACAD
1000
DSTYLE
1002
{
1070
   371
1070
    13
1070
   372
1070
    13
1070
     3
1000

1070
   170
1070
     0
1070
   144
1040
1.0
1070
   277
1070
     2
1070
   284
1070
     8
1070
   278
1070
    46
1070
   146
1040
0.999966
1070
   345
1005
16
1070
   347
1005
16
1070
   346
1005
16
1070
   344
1005
FD
1070
   343
1005
FD
1070
   172
1070
     1
1070
    76
1070
     0
1070
    75
1070
     0
1070
   282
1070
     0
1070
   281
1070
     0
1070
    71
1070
     0
1070
    74
1070
     0
1070
   279
1070
     0
1070
   173
1070
     1
1070
   340
1005
F7
1070
   271
1070
     1
1070
   272
1070
     2
1070
    77
1070
     1
1070
    73
1070
     0
1070
   171
1070
     3
1070
   274
1070
     4
1070
   177
1070
   150
1070
   176
1070
     9
1070
   178
1070
    43
1070
    78
1070
     8
1070
    48
1040
-0.1
1070
    41
1040
3.175
1070
   147
1040
1.75006
1070
    42
1040
1.5875
1070
    44
1040
3.175
1070
   140
1040
3.50012
1002
}
1001
ACAD_DSTYLE_DIM_LINETYPE
1070
   380
1005
16
1001
ACAD_DSTYLE_DIM_EXT1_LINETYPE
1070
   381
1005
16
1001
ACAD_DSTYLE_DIM_EXT2_LINETYPE
1070
   382
1005
16
0
DIMENSION
5
141
100
AcDbEntity
8
SK2
62
256
6
ByLayer
370
18
48
1
60
0
100
AcDbDimension
2
_U2
10
-39.24994
20
-3
30
0
11
-39.24994
21
17.10734
31
0
70
32
71
1
72
1
41
1
210
0
220
0
230
1
3
Standard
100
AcDbAlignedDimension
13
-36
23
3
33
0
14
-36
24
-3
34
0
50
90
100
AcDbRotatedDimension
1001
ACAD
1000
DSTYLE
1002
{
1070
   371
1070
    13
1070
   372
1070
    13
1070
     3
1000

1070
   170
1070
     0
1070
   144
1040
1.0
1070
   277
1070
     2
1070
   284
1070
     8
1070
   278
1070
    46
1070
   146
1040
0.999966
1070
   345
1005
16
1070
   347
1005
16
1070
   346
1005
16
1070
   344
1005
FD
1070
   343
1005
FD
1070
   172
1070
     1
1070
    76
1070
     0
1070
    75
1070
     0
1070
   282
1070
     0
1070
   281
1070
     0
1070
    71
1070
     0
1070
    74
1070
     0
1070
   279
1070
     0
1070
   173
1070
     1
1070
   340
1005
F7
1070
   271
1070
     1
1070
   272
1070
     2
1070
    77
1070
     1
1070
    73
1070
     0
1070
   171
1070
     3
1070
   274
1070
     4
1070
   177
1070
   150
1070
   176
1070
     9
1070
   178
1070
    43
1070
    78
1070
     8
1070
    48
1040
-0.1
1070
    41
1040
3.175
1070
   147
1040
1.75006
1070
    42
1040
1.5875
1070
    44
1040
3.175
1070
   140
1040
3.50012
1002
}
1001
ACAD_DSTYLE_DIM_LINETYPE
1070
   380
1005
16
1001
ACAD_DSTYLE_DIM_EXT1_LINETYPE
1070
   381
1005
16
1001
ACAD_DSTYLE_DIM_EXT2_LINETYPE
1070
   382
1005
16
0
DIMENSION
5
15F
100
AcDbEntity
8
SK2
62
256
6
ByLayer
370
18
48
1
60
0
100
AcDbDimension
2
_U3
10
0
20
-26.50012
30
0
11
-18
21
-26.50012
31
0
70
32
71
1
72
1
41
1
210
0
220
0
230
1
3
Standard
100
AcDbAlignedDimension
13
-36
23
-3
33
0
14
0
24
-3
34
0
50
0
100
AcDbRotatedDimension
1001
ACAD
1000
DSTYLE
1002
{
1070
   371
1070
    13
1070
   372
1070
    13
1070
     3
1000

1070
   170
1070
     0
1070
   144
1040
1.0
1070
   277
1070
     2
1070
   284
1070
     8
1070
   278
1070
    46
1070
   146
1040
0.999966
1070
   345
1005
16
1070
   347
1005
16
1070
   346
1005
16
1070
   344
1005
FD
1070
   343
1005
FD
1070
   172
1070
     1
1070
    76
1070
     0
1070
    75
1070
     0
1070
   282
1070
     0
1070
   281
1070
     0
1070
    71
1070
     0
1070
    74
1070
     0
1070
   279
1070
     0
1070
   173
1070
     1
1070
   340
1005
F7
1070
   271
1070
     1
1070
   272
1070
     2
1070
    77
1070
     1
1070
    73
1070
     1
1070
   171
1070
     3
1070
   274
1070
     4
1070
   177
1070
   150
1070
   176
1070
     9
1070
   178
1070
    43
1070
    78
1070
     8
1070
    48
1040
-0.1
1070
    41
1040
3.175
1070
   147
1040
1.75006
1070
    42
1040
1.5875
1070
    44
1040
3.175
1070
   140
1040
3.50012
1002
}
1001
ACAD_DSTYLE_DIM_LINETYPE
1070
   380
1005
16
1001
ACAD_DSTYLE_DIM_EXT1_LINETYPE
1070
   381
1005
16
1001
ACAD_DSTYLE_DIM_EXT2_LINETYPE
1070
   382
1005
16
0
DIMENSION
5
17B
100
AcDbEntity
8
SK2
62
256
6
ByLayer
370
18
48
1
60
0
100
AcDbDimension
2
_U4
10
30
20
-17.74982
30
0
11
16
21
-17.74982
31
0
70
32
71
1
72
1
41
1
210
0
220
0
230
1
3
Standard
100
AcDbAlignedDimension
13
2
23
3.5
33
0
14
30
24
0
34
0
50
0
100
AcDbRotatedDimension
1001
ACAD
1000
DSTYLE
1002
{
1070
   371
1070
    13
1070
   372
1070
    13
1070
     3
1000

1070
   170
1070
     0
1070
   144
1040
1.0
1070
   277
1070
     2
1070
   284
1070
     8
1070
   278
1070
    46
1070
   146
1040
0.999966
1070
   345
1005
16
1070
   347
1005
16
1070
   346
1005
16
1070
   344
1005
FD
1070
   343
1005
FD
1070
   172
1070
     1
1070
    76
1070
     0
1070
    75
1070
     0
1070
   282
1070
     0
1070
   281
1070
     0
1070
    71
1070
     0
1070
    74
1070
     0
1070
   279
1070
     0
1070
   173
1070
     1
1070
   340
1005
F7
1070
   271
1070
     1
1070
   272
1070
     2
1070
    77
1070
     1
1070
    73
1070
     1
1070
   171
1070
     3
1070
   274
1070
     4
1070
   177
1070
   150
1070
   176
1070
     9
1070
   178
1070
    43
1070
    78
1070
     8
1070
    48
1040
-0.1
1070
    41
1040
3.175
1070
   147
1040
1.75006
1070
    42
1040
1.5875
1070
    44
1040
3.175
1070
   140
1040
3.50012
1002
}
1001
ACAD_DSTYLE_DIM_LINETYPE
1070
   380
1005
16
1001
ACAD_DSTYLE_DIM_EXT1_LINETYPE
1070
   381
1005
16
1001
ACAD_DSTYLE_DIM_EXT2_LINETYPE
1070
   382
1005
16
0
DIMENSION
5
197
100
AcDbEntity
8
SK2
62
256
6
ByLayer
370
18
48
1
60
0
100
AcDbDimension
2
_U5
10
30
20
-9.82
30
0
11
20.5
21
-9.82
31
0
70
32
71
1
72
1
41
1
210
0
220
0
230
1
3
Standard
100
AcDbAlignedDimension
13
11
23
-3
33
0
14
30
24
0
34
0
50
0
100
AcDbRotatedDimension
1001
ACAD
1000
DSTYLE
1002
{
1070
   371
1070
    13
1070
   372
1070
    13
1070
     3
1000

1070
   170
1070
     0
1070
   144
1040
1.0
1070
   277
1070
     2
1070
   284
1070
     8
1070
   278
1070
    46
1070
   146
1040
1.25
1070
   345
1005
16
1070
   347
1005
16
1070
   346
1005
16
1070
   344
1005
FD
1070
   343
1005
FD
1070
   172
1070
     1
1070
    76
1070
     0
1070
    75
1070
     0
1070
   282
1070
     0
1070
   281
1070
     0
1070
    71
1070
     0
1070
    74
1070
     0
1070
   279
1070
     0
1070
   173
1070
     1
1070
   340
1005
F7
1070
   271
1070
     1
1070
   272
1070
     2
1070
    77
1070
     1
1070
    73
1070
     1
1070
   171
1070
     3
1070
   274
1070
     4
1070
   177
1070
   150
1070
   176
1070
     9
1070
   178
1070
    43
1070
    78
1070
     8
1070
    48
1040
-0.1
1070
    41
1040
3.175
1070
   147
1040
0.42
1070
    42
1040
1.5875
1070
    44
1040
0.5
1070
   140
1040
2.8
1002
}
1001
ACAD_DSTYLE_DIM_LINETYPE
1070
   380
1005
16
1001
ACAD_DSTYLE_DIM_EXT1_LINETYPE
1070
   381
1005
16
1001
ACAD_DSTYLE_DIM_EXT2_LINETYPE
1070
   382
1005
16
0
DIMENSION
5
1B3
100
AcDbEntity
8
SK2
62
256
6
ByLayer
370
18
48
1
60
0
100
AcDbDimension
2
_U6
10
30
20
-36.50012
30
0
11
-3
21
-36.50012
31
0
70
32
71
1
72
1
41
1
210
0
220
0
230
1
3
Standard
100
AcDbAlignedDimension
13
-36
23
0
33
0
14
30
24
0
34
0
50
0
100
AcDbRotatedDimension
1001
ACAD
1000
DSTYLE
1002
{
1070
   371
1070
    13
1070
   372
1070
    13
1070
     3
1000

1070
   170
1070
     0
1070
   144
1040
1.0
1070
   277
1070
     2
1070
   284
1070
     8
1070
   278
1070
    46
1070
   146
1040
0.999966
1070
   345
1005
16
1070
   347
1005
16
1070
   346
1005
16
1070
   344
1005
FD
1070
   343
1005
FD
1070
   172
1070
     1
1070
    76
1070
     0
1070
    75
1070
     0
1070
   282
1070
     0
1070
   281
1070
     0
1070
    71
1070
     0
1070
    74
1070
     0
1070
   279
1070
     0
1070
   173
1070
     1
1070
   340
1005
F7
1070
   271
1070
     1
1070
   272
1070
     2
1070
    77
1070
     1
1070
    73
1070
     1
1070
   171
1070
     3
1070
   274
1070
     4
1070
   177
1070
   150
1070
   176
1070
     9
1070
   178
1070
    43
1070
    78
1070
     8
1070
    48
1040
-0.1
1070
    41
1040
3.175
1070
   147
1040
1.75006
1070
    42
1040
1.5875
1070
    44
1040
3.175
1070
   140
1040
3.50012
1002
}
1001
ACAD_DSTYLE_DIM_LINETYPE
1070
   380
1005
16
1001
ACAD_DSTYLE_DIM_EXT1_LINETYPE
1070
   381
1005
16
1001
ACAD_DSTYLE_DIM_EXT2_LINETYPE
1070
   382
1005
16
0
ENDSEC
0
SECTION
2
OBJECTS
0
DICTIONARY
5
23f
330
0
100
AcDbDictionary
280
0
281
1
3
ACAD_GROUP
350
240
3
ACAD_MLINESTYLE
350
241
0
DICTIONARY
5
240
330
0
100
AcDbDictionary
280
0
281
1
0
DICTIONARY
5
241
330
0
100
AcDbDictionary
280
0
281
1
3
Standard
350
18
0
MLINESTYLE
5
18
330
241
100
AcDbMlineStyle
2
Standard
70
0
3

62
256
51
90
52
90
71
2
49
-0.5
62
256
6
ByLayer
49
0.5
62
256
6
ByLayer
0
RASTERVARIABLES
5
22d
330

100
AcDbRasterVariables
90
0
70
1
71
1
72
1
0
ENDSEC
0
EOF
