0
SECTION
2
HEADER
9
$ACADVER
1
AC1015
9
$DWGCODEPAGE
3
ANSI_1252
9
$HANDSEED
5
26e
9
$ANGBASE
50
0
9
$ANGDIR
70
0
9
$ATTMODE
70
1
9
$AUNITS
70
0
9
$AUPREC
70
0
9
$CECOLOR
62
256
9
$CELTSCALE
40
1
9
$CELTYPE
6
ByLayer
9
$CELWEIGHT
370
18
9
$CLAYER
8
0
9
$CMLJUST
70
0
9
$CMLSCALE
40
1
9
$CMLSTYLE
2
Standard
9
$DIMSTYLE
2
Standard
9
$TEXTSIZE
40
0.2
9
$TEXTSTYLE
7
Standard
9
$LUNITS
70
2
9
$LUPREC
70
4
9
$EXTNAMES
290
1
9
$INSUNITS
70
4
9
$LTSCALE
40
1
9
$LWDISPLAY
290
1
9
$PDMODE
70
0
9
$PDSIZE
40
0
9
$PLINEGEN
70
0
0
ENDSEC
0
SECTION
2
CLASSES
0
CLASS
1
RASTERVARIABLES
2
AcDbRasterVariables
3
ISM
90
0
280
0
281
0
0
ENDSEC
0
SECTION
2
TABLES
0
TABLE
2
VPORT
5
264
100
AcDbSymbolTable
0
VPORT
5
1
100
AcDbSymbolTableRecord
100
AcDbViewportTableRecord
2
*Active
70
0
10
0
20
0
11
1
21
1
12
-1
22
1
13
0
23
0
14
0.5
24
0.5
15
10
25
10
16
0
26
0
36
1
17
0
27
0
37
0
0
ENDTAB
0
TABLE
2
LTYPE
5
265
100
AcDbSymbolTable
0
LTYPE
5
14
100
AcDbSymbolTableRecord
100
AcDbLinetypeTableRecord
70
0
2
ByBlock
3

72
65
73
0
40
0
0
LTYPE
5
15
100
AcDbSymbolTableRecord
100
AcDbLinetypeTableRecord
70
0
2
ByLayer
3

72
65
73
0
40
0
0
LTYPE
5
16
100
AcDbSymbolTableRecord
100
AcDbLinetypeTableRecord
70
0
2
Continuous
3
Solid line
72
65
73
0
40
0
0
LTYPE
5
6E
100
AcDbSymbolTableRecord
100
AcDbLinetypeTableRecord
70
0
2
CENTER
3
____ _ ____ _ ____ _ ____
72
65
73
4
40
47.5
49
22
74
0
49
-8.5
74
0
49
8.5
74
0
49
-8.5
74
0
0
LTYPE
5
6F
100
AcDbSymbolTableRecord
100
AcDbLinetypeTableRecord
70
0
2
DASHED
3
__ __ __ __ __ __ __ __ __
72
65
73
2
40
25.72
49
12.86
74
0
49
-12.86
74
0
0
ENDTAB
0
TABLE
2
LAYER
5
266
100
AcDbSymbolTable
0
LAYER
5
10
100
AcDbSymbolTableRecord
100
AcDbLayerTableRecord
2
0
70
0
62
7
6
Continuous
290
1
370
-3
390
0
0
LAYER
5
71
100
AcDbSymbolTableRecord
100
AcDbLayerTableRecord
2
80
70
0
62
-6
6
Continuous
290
1
370
-3
390
0
0
LAYER
5
73
100
AcDbSymbolTableRecord
100
AcDbLayerTableRecord
2
81
70
0
62
-3
6
Continuous
290
1
370
-3
390
0
0
LAYER
5
75
100
AcDbSymbolTableRecord
100
AcDbLayerTableRecord
2
1
70
0
62
4
6
Continuous
290
1
370
-3
390
0
0
LAYER
5
A9
100
AcDbSymbolTableRecord
100
AcDbLayerTableRecord
2
4
70
0
62
-2
6
CENTER
290
1
370
-3
390
0
0
LAYER
5
128
100
AcDbSymbolTableRecord
100
AcDbLayerTableRecord
2
Defpoints
70
0
62
7
6
Continuous
290
0
370
-3
390
0
0
LAYER
5
155
100
AcDbSymbolTableRecord
100
AcDbLayerTableRecord
2
2
70
0
62
7
6
Continuous
290
1
370
-3
390
0
0
LAYER
5
250
100
AcDbSymbolTableRecord
100
AcDbLayerTableRecord
2
SK1
70
0
62
4
6
Continuous
290
1
370
-3
390
0
0
LAYER
5
251
100
AcDbSymbolTableRecord
100
AcDbLayerTableRecord
2
SK4
70
0
62
2
6
CENTER
290
1
370
-3
390
0
0
LAYER
5
252
100
AcDbSymbolTableRecord
100
AcDbLayerTableRecord
2
SK2
70
0
62
7
6
Continuous
290
1
370
-3
390
0
0
LAYER
5
253
100
AcDbSymbolTableRecord
100
AcDbLayerTableRecord
2
SK6
70
0
62
5
6
Continuous
290
1
370
-3
390
0
0
ENDTAB
0
TABLE
2
STYLE
5
267
100
AcDbSymbolTable
0
STYLE
5
11
100
AcDbSymbolTableRecord
100
AcDbTextStyleTableRecord
2
Standard
3
txt
70
0
71
0
40
0
41
1
42
0
50
0
0
STYLE
5
119
100
AcDbSymbolTableRecord
100
AcDbTextStyleTableRecord
2
iso_b_vert
3
simplex.shx
70
0
71
0
40
0
41
1
42
0
50
0
0
STYLE
5
11A
100
AcDbSymbolTableRecord
100
AcDbTextStyleTableRecord
2
DWGDirectTextStyle
3
simplex
70
0
71
0
40
0
41
1
42
0
50
0
0
ENDTAB
0
TABLE
2
DIMSTYLE
5
268
100
AcDbSymbolTable
100
AcDbDimStyleTable
0
DIMSTYLE
105
27
100
AcDbSymbolTableRecord
100
AcDbDimStyleTableRecord
2
Standard
70
0
3
<>
41
0.18
42
0.0625
44
0.18
140
0.18
147
0.09
73
0
74
0
77
1
271
2
275
0
278
52
280
0
340
11
0
ENDTAB
0
TABLE
2
VIEW
5
269
100
AcDbSymbolTable
0
ENDTAB
0
TABLE
2
UCS
5
26a
100
AcDbSymbolTable
0
ENDTAB
0
TABLE
2
APPID
5
26b
100
AcDbSymbolTable
0
APPID
5
12
100
AcDbSymbolTableRecord
100
AcDbRegAppTableRecord
2
ACAD
70
0
0
APPID
5
11D
100
AcDbSymbolTableRecord
100
AcDbRegAppTableRecord
2
ACAD_DSTYLE_DIMBREAK
70
0
0
APPID
5
20F
100
AcDbSymbolTableRecord
100
AcDbRegAppTableRecord
2
ACAD_DSTYLE_DIM_LINETYPE
70
0
0
APPID
5
210
100
AcDbSymbolTableRecord
100
AcDbRegAppTableRecord
2
ACAD_DSTYLE_DIM_EXT1_LINETYPE
70
0
0
APPID
5
211
100
AcDbSymbolTableRecord
100
AcDbRegAppTableRecord
2
ACAD_DSTYLE_DIM_EXT2_LINETYPE
70
0
0
APPID
5
24C
100
AcDbSymbolTableRecord
100
AcDbRegAppTableRecord
2
ACAD_MLEADERVER
70
0
0
ENDTAB
0
TABLE
2
BLOCK_RECORD
5
26c
100
AcDbSymbolTable
0
BLOCK_RECORD
5
1F
100
AcDbSymbolTableRecord
100
AcDbBlockTableRecord
2
*Model_Space
340
0
70
0
0
BLOCK_RECORD
5
1B
100
AcDbSymbolTableRecord
100
AcDbBlockTableRecord
2
*Paper_Space
340
0
70
0
0
BLOCK_RECORD
5
23
100
AcDbSymbolTableRecord
100
AcDbBlockTableRecord
2
*Paper_Space0
340
0
70
0
0
BLOCK_RECORD
5
11F
100
AcDbSymbolTableRecord
100
AcDbBlockTableRecord
2
_Closed
340
0
70
0
0
BLOCK_RECORD
5
129
100
AcDbSymbolTableRecord
100
AcDbBlockTableRecord
2
*D2
340
0
70
0
0
BLOCK_RECORD
5
135
100
AcDbSymbolTableRecord
100
AcDbBlockTableRecord
2
_U0
340
0
70
0
0
BLOCK_RECORD
5
147
100
AcDbSymbolTableRecord
100
AcDbBlockTableRecord
2
*D4
340
0
70
0
0
BLOCK_RECORD
5
156
100
AcDbSymbolTableRecord
100
AcDbBlockTableRecord
2
_U1
340
0
70
0
0
BLOCK_RECORD
5
166
100
AcDbSymbolTableRecord
100
AcDbBlockTableRecord
2
*D6
340
0
70
0
0
BLOCK_RECORD
5
174
100
AcDbSymbolTableRecord
100
AcDbBlockTableRecord
2
_U2
340
0
70
0
0
BLOCK_RECORD
5
184
100
AcDbSymbolTableRecord
100
AcDbBlockTableRecord
2
*D8
340
0
70
0
0
BLOCK_RECORD
5
190
100
AcDbSymbolTableRecord
100
AcDbBlockTableRecord
2
_U3
340
0
70
0
0
BLOCK_RECORD
5
1A0
100
AcDbSymbolTableRecord
100
AcDbBlockTableRecord
2
*D10
340
0
70
0
0
BLOCK_RECORD
5
1AC
100
AcDbSymbolTableRecord
100
AcDbBlockTableRecord
2
_U4
340
0
70
0
0
BLOCK_RECORD
5
1BC
100
AcDbSymbolTableRecord
100
AcDbBlockTableRecord
2
*D12
340
0
70
0
0
BLOCK_RECORD
5
1C8
100
AcDbSymbolTableRecord
100
AcDbBlockTableRecord
2
_U5
340
0
70
0
0
BLOCK_RECORD
5
1D8
100
AcDbSymbolTableRecord
100
AcDbBlockTableRecord
2
*D14
340
0
70
0
0
BLOCK_RECORD
5
1E4
100
AcDbSymbolTableRecord
100
AcDbBlockTableRecord
2
_U6
340
0
70
0
0
ENDTAB
0
ENDSEC
0
SECTION
2
BLOCKS
0
BLOCK
5
20
100
AcDbEntity
8
0
100
AcDbBlockBegin
2
*Model_Space
70
0
10
0
20
0
30
0
3
*Model_Space
0
ENDBLK
5
21
100
AcDbEntity
8
0
100
AcDbBlockEnd
0
BLOCK
5
1C
100
AcDbEntity
8
0
100
AcDbBlockBegin
2
*Paper_Space
70
0
10
0
20
0
30
0
3
*Paper_Space
0
ENDBLK
5
1D
100
AcDbEntity
8
0
100
AcDbBlockEnd
0
BLOCK
5
24
100
AcDbEntity
8
0
100
AcDbBlockBegin
2
*Paper_Space0
70
0
10
0
20
0
30
0
3
*Paper_Space0
0
ENDBLK
5
25
100
AcDbEntity
8
0
100
AcDbBlockEnd
0
BLOCK
5
120
100
AcDbEntity
8
0
100
AcDbBlockBegin
2
_Closed
70
0
10
0
20
0
30
0
3
_Closed
0
LINE
5
122
100
AcDbEntity
8
0
62
256
6
ByLayer
370
-2
48
1
60
0
100
AcDbLine
10
-1
20
0.166667
30
0
11
0
21
0
31
0
39
0
210
0
220
0
230
1
0
LINE
5
123
100
AcDbEntity
8
0
62
256
6
ByLayer
370
-2
48
1
60
0
100
AcDbLine
10
0
20
0
30
0
11
-1
21
-0.166667
31
0
39
0
210
0
220
0
230
1
0
LINE
5
124
100
AcDbEntity
8
0
62
256
6
ByLayer
370
-2
48
1
60
0
100
AcDbLine
10
-1
20
0.166667
30
0
11
-1
21
-0.166667
31
0
39
0
210
0
220
0
230
1
0
LINE
5
125
100
AcDbEntity
8
0
62
256
6
ByLayer
370
-2
48
1
60
0
100
AcDbLine
10
0
20
0
30
0
11
-1
21
0
31
0
39
0
210
0
220
0
230
1
0
ENDBLK
5
121
100
AcDbEntity
8
0
100
AcDbBlockEnd
0
BLOCK
5
12A
100
AcDbEntity
8
0
100
AcDbBlockBegin
2
*D2
70
1
10
0
20
0
30
0
3
*D2
0
LINE
5
12C
100
AcDbEntity
8
0
62
256
6
ByLayer
370
-2
48
1
60
0
100
AcDbLine
10
0
20
-4.5875
30
0
11
0
21
-29.67512
31
0
39
0
210
0
220
0
230
1
0
LINE
5
12D
100
AcDbEntity
8
0
62
256
6
ByLayer
370
-2
48
1
60
0
100
AcDbLine
10
46
20
-1.5875
30
0
11
46
21
-29.67512
31
0
39
0
210
0
220
0
230
1
0
LINE
5
12E
100
AcDbEntity
8
0
62
256
6
ByLayer
370
-2
48
1
60
0
100
AcDbLine
10
3.175
20
-26.50012
30
0
11
42.825
21
-26.50012
31
0
39
0
210
0
220
0
230
1
0
SOLID
5
12F
100
AcDbEntity
8
0
62
256
6
ByLayer
370
-1
48
1
60
0
100
AcDbTrace
10
3.175
20
-25.970953
30
0
11
3.175
21
-27.029287
31
0
12
0
22
-26.50012
32
0
13
0
23
-26.50012
33
0
39
0
210
0
220
0
230
1
0
SOLID
5
130
100
AcDbEntity
8
0
62
256
6
ByLayer
370
-1
48
1
60
0
100
AcDbTrace
10
42.825
20
-27.029287
30
0
11
42.825
21
-25.970953
31
0
12
46
22
-26.50012
32
0
13
46
23
-26.50012
33
0
39
0
210
0
220
0
230
1
0
MTEXT
5
131
100
AcDbEntity
8
0
62
256
6
ByLayer
370
18
48
1
60
0
100
AcDbMText
10
23
20
-19.193619
30
0
210
0
220
0
230
1
1
\A1;46
40
3.50012
41
0
44
1
50
0
71
5
72
5
7
iso_b_vert
0
POINT
5
132
100
AcDbEntity
8
Defpoints
62
0
6
ByLayer
370
-1
48
1
60
0
100
AcDbPoint
10
0
20
-3
30
0
39
0
210
0
220
0
230
1
50
360
0
POINT
5
133
100
AcDbEntity
8
Defpoints
62
0
6
ByLayer
370
-1
48
1
60
0
100
AcDbPoint
10
46
20
0
30
0
39
0
210
0
220
0
230
1
50
360
0
POINT
5
134
100
AcDbEntity
8
Defpoints
62
0
6
ByLayer
370
-1
48
1
60
0
100
AcDbPoint
10
46
20
-26.50012
30
0
39
0
210
0
220
0
230
1
50
360
0
ENDBLK
5
12B
100
AcDbEntity
8
0
100
AcDbBlockEnd
0
BLOCK
5
142
100
AcDbEntity
8
0
100
AcDbBlockBegin
2
_U0
70
0
10
0
20
0
30
0
3
_U0
0
MTEXT
5
136
100
AcDbEntity
8
SK2
62
256
6
ByLayer
370
18
48
1
60
0
100
AcDbMText
10
17.586116
20
-25.467451
30
0
210
0
220
0
230
1
1
\W0.7694;46.00
40
3.50012
41
0
44
1.084337
50
0
71
7
72
5
7
iso_b_vert
0
MTEXT
5
137
100
AcDbEntity
8
SK2
62
256
6
ByLayer
370
18
48
1
60
0
100
AcDbMText
10
14.060056
20
-25.400814
30
0
210
0
220
0
230
1
1
\W0.1790;(
40
3.175
41
0
44
1.084337
50
0
71
7
72
5
7
iso_b_vert
0
MTEXT
5
138
100
AcDbEntity
8
SK2
62
256
6
ByLayer
370
18
48
1
60
0
100
AcDbMText
10
31.942666
20
-25.400814
30
0
210
0
220
0
230
1
1
\W0.1969;)
40
3.175
41
0
44
1.084337
50
0
71
7
72
5
7
iso_b_vert
0
LINE
5
139
100
AcDbEntity
8
SK2
62
256
6
ByLayer
370
13
48
1
60
0
100
AcDbLine
10
0
20
-4.5875
30
0
11
0
21
-29.67512
31
0
39
0
210
0
220
0
230
1
0
LINE
5
13A
100
AcDbEntity
8
SK2
62
256
6
ByLayer
370
13
48
1
60
0
100
AcDbLine
10
46
20
-1.5875
30
0
11
46
21
-29.67512
31
0
39
0
210
0
220
0
230
1
0
LINE
5
13B
100
AcDbEntity
8
SK2
62
256
6
ByLayer
370
13
48
1
60
0
100
AcDbLine
10
0
20
-26.50012
30
0
11
46
21
-26.50012
31
0
39
0
210
0
220
0
230
1
0
LINE
5
13C
100
AcDbEntity
8
SK2
62
256
6
ByLayer
370
13
48
1
60
0
100
AcDbLine
10
0
20
-26.50012
30
0
11
3.174998
21
-26.082123
31
0
39
0
210
0
220
0
230
1
0
LINE
5
13D
100
AcDbEntity
8
SK2
62
256
6
ByLayer
370
13
48
1
60
0
100
AcDbLine
10
0
20
-26.50012
30
0
11
3.175002
21
-26.918117
31
0
39
0
210
0
220
0
230
1
0
LINE
5
13E
100
AcDbEntity
8
SK2
62
256
6
ByLayer
370
13
48
1
60
0
100
AcDbLine
10
3.174998
20
-26.082123
30
0
11
3.175002
21
-26.918117
31
0
39
0
210
0
220
0
230
1
0
LINE
5
13F
100
AcDbEntity
8
SK2
62
256
6
ByLayer
370
13
48
1
60
0
100
AcDbLine
10
46
20
-26.50012
30
0
11
42.825002
21
-26.918117
31
0
39
0
210
0
220
0
230
1
0
LINE
5
140
100
AcDbEntity
8
SK2
62
256
6
ByLayer
370
13
48
1
60
0
100
AcDbLine
10
46
20
-26.50012
30
0
11
42.824998
21
-26.082123
31
0
39
0
210
0
220
0
230
1
0
LINE
5
141
100
AcDbEntity
8
SK2
62
256
6
ByLayer
370
13
48
1
60
0
100
AcDbLine
10
42.825002
20
-26.918117
30
0
11
42.824998
21
-26.082123
31
0
39
0
210
0
220
0
230
1
0
ENDBLK
5
143
100
AcDbEntity
8
0
100
AcDbBlockEnd
0
BLOCK
5
148
100
AcDbEntity
8
0
100
AcDbBlockBegin
2
*D4
70
1
10
0
20
0
30
0
3
*D4
0
LINE
5
14A
100
AcDbEntity
8
0
62
256
6
ByLayer
370
-2
48
1
60
0
100
AcDbLine
10
46.6958
20
-2.45
30
0
11
55.92506
21
-2.45
31
0
39
0
210
0
220
0
230
1
0
LINE
5
14B
100
AcDbEntity
8
0
62
256
6
ByLayer
370
-2
48
1
60
0
100
AcDbLine
10
46.6958
20
2.45
30
0
11
55.92506
21
2.45
31
0
39
0
210
0
220
0
230
1
0
LINE
5
14C
100
AcDbEntity
8
0
62
256
6
ByLayer
370
-2
48
1
60
0
100
AcDbLine
10
52.75006
20
2.45
30
0
11
52.75006
21
27.079793
31
0
39
0
210
0
220
0
230
1
0
LINE
5
14D
100
AcDbEntity
8
0
62
256
6
ByLayer
370
-2
48
1
60
0
100
AcDbLine
10
52.75006
20
-5.625
30
0
11
52.75006
21
-8.8
31
0
39
0
210
0
220
0
230
1
0
LINE
5
14E
100
AcDbEntity
8
0
62
256
6
ByLayer
370
-2
48
1
60
0
100
AcDbLine
10
52.75006
20
5.625
30
0
11
52.75006
21
8.8
31
0
39
0
210
0
220
0
230
1
0
SOLID
5
14F
100
AcDbEntity
8
0
62
256
6
ByLayer
370
-1
48
1
60
0
100
AcDbTrace
10
53.279227
20
-5.625
30
0
11
52.220893
21
-5.625
31
0
12
52.75006
22
-2.45
32
0
13
52.75006
23
-2.45
33
0
39
0
210
0
220
0
230
1
0
SOLID
5
150
100
AcDbEntity
8
0
62
256
6
ByLayer
370
-1
48
1
60
0
100
AcDbTrace
10
52.220893
20
5.625
30
0
11
53.279227
21
5.625
31
0
12
52.75006
22
2.45
32
0
13
52.75006
23
2.45
33
0
39
0
210
0
220
0
230
1
0
MTEXT
5
151
100
AcDbEntity
8
0
62
256
6
ByLayer
370
18
48
1
60
0
100
AcDbMText
10
45.443559
20
17.939897
30
0
210
0
220
0
230
1
1
\A1;4.9
40
3.50012
41
0
44
1
50
90
71
5
72
5
7
iso_b_vert
0
POINT
5
152
100
AcDbEntity
8
Defpoints
62
0
6
ByLayer
370
-1
48
1
60
0
100
AcDbPoint
10
45.1083
20
-2.45
30
0
39
0
210
0
220
0
230
1
50
360
0
POINT
5
153
100
AcDbEntity
8
Defpoints
62
0
6
ByLayer
370
-1
48
1
60
0
100
AcDbPoint
10
45.1083
20
2.45
30
0
39
0
210
0
220
0
230
1
50
360
0
POINT
5
154
100
AcDbEntity
8
Defpoints
62
0
6
ByLayer
370
-1
48
1
60
0
100
AcDbPoint
10
52.75006
20
2.45
30
0
39
0
210
0
220
0
230
1
50
360
0
ENDBLK
5
149
100
AcDbEntity
8
0
100
AcDbBlockEnd
0
BLOCK
5
161
100
AcDbEntity
8
0
100
AcDbBlockBegin
2
_U1
70
0
10
0
20
0
30
0
3
_U1
0
MTEXT
5
157
100
AcDbEntity
8
2
62
256
6
ByLayer
370
18
48
1
60
0
100
AcDbMText
10
52.060403
20
6.607505
30
0
210
0
220
0
230
1
1
\W0.7640;4.90
40
3.50012
41
0
44
1.084337
50
90
71
7
72
5
7
iso_b_vert
0
LINE
5
158
100
AcDbEntity
8
2
62
256
6
ByLayer
370
13
48
1
60
0
100
AcDbLine
10
46.6958
20
-2.45
30
0
11
55.92506
21
-2.45
31
0
39
0
210
0
220
0
230
1
0
LINE
5
159
100
AcDbEntity
8
2
62
256
6
ByLayer
370
13
48
1
60
0
100
AcDbLine
10
46.6958
20
2.45
30
0
11
55.92506
21
2.45
31
0
39
0
210
0
220
0
230
1
0
LINE
5
15A
100
AcDbEntity
8
2
62
256
6
ByLayer
370
13
48
1
60
0
100
AcDbLine
10
52.75006
20
15.033226
30
0
11
52.75006
21
-11.2003
31
0
39
0
210
0
220
0
230
1
0
LINE
5
15B
100
AcDbEntity
8
2
62
256
6
ByLayer
370
13
48
1
60
0
100
AcDbLine
10
52.75006
20
-2.45
30
0
11
53.168057
21
-5.624998
31
0
39
0
210
0
220
0
230
1
0
LINE
5
15C
100
AcDbEntity
8
2
62
256
6
ByLayer
370
13
48
1
60
0
100
AcDbLine
10
52.75006
20
-2.45
30
0
11
52.332063
21
-5.625002
31
0
39
0
210
0
220
0
230
1
0
LINE
5
15D
100
AcDbEntity
8
2
62
256
6
ByLayer
370
13
48
1
60
0
100
AcDbLine
10
53.168057
20
-5.624998
30
0
11
52.332063
21
-5.625002
31
0
39
0
210
0
220
0
230
1
0
LINE
5
15E
100
AcDbEntity
8
2
62
256
6
ByLayer
370
13
48
1
60
0
100
AcDbLine
10
52.75006
20
2.45
30
0
11
52.332063
21
5.624998
31
0
39
0
210
0
220
0
230
1
0
LINE
5
15F
100
AcDbEntity
8
2
62
256
6
ByLayer
370
13
48
1
60
0
100
AcDbLine
10
52.75006
20
2.45
30
0
11
53.168057
21
5.625002
31
0
39
0
210
0
220
0
230
1
0
LINE
5
160
100
AcDbEntity
8
2
62
256
6
ByLayer
370
13
48
1
60
0
100
AcDbLine
10
52.332063
20
5.624998
30
0
11
53.168057
21
5.625002
31
0
39
0
210
0
220
0
230
1
0
ENDBLK
5
162
100
AcDbEntity
8
0
100
AcDbBlockEnd
0
BLOCK
5
167
100
AcDbEntity
8
0
100
AcDbBlockBegin
2
*D6
70
1
10
0
20
0
30
0
3
*D6
0
LINE
5
169
100
AcDbEntity
8
0
62
256
6
ByLayer
370
-2
48
1
60
0
100
AcDbLine
10
-37.5875
20
3
30
0
11
-42.42494
21
3
31
0
39
0
210
0
220
0
230
1
0
LINE
5
16A
100
AcDbEntity
8
0
62
256
6
ByLayer
370
-2
48
1
60
0
100
AcDbLine
10
-37.5875
20
-3
30
0
11
-42.42494
21
-3
31
0
39
0
210
0
220
0
230
1
0
LINE
5
16B
100
AcDbEntity
8
0
62
256
6
ByLayer
370
-2
48
1
60
0
100
AcDbLine
10
-39.24994
20
3
30
0
11
-39.24994
21
23.747151
31
0
39
0
210
0
220
0
230
1
0
LINE
5
16C
100
AcDbEntity
8
0
62
256
6
ByLayer
370
-2
48
1
60
0
100
AcDbLine
10
-39.24994
20
6.175
30
0
11
-39.24994
21
9.35
31
0
39
0
210
0
220
0
230
1
0
LINE
5
16D
100
AcDbEntity
8
0
62
256
6
ByLayer
370
-2
48
1
60
0
100
AcDbLine
10
-39.24994
20
-6.175
30
0
11
-39.24994
21
-9.35
31
0
39
0
210
0
220
0
230
1
0
SOLID
5
16E
100
AcDbEntity
8
0
62
256
6
ByLayer
370
-1
48
1
60
0
100
AcDbTrace
10
-39.779107
20
6.175
30
0
11
-38.720773
21
6.175
31
0
12
-39.24994
22
3
32
0
13
-39.24994
23
3
33
0
39
0
210
0
220
0
230
1
0
SOLID
5
16F
100
AcDbEntity
8
0
62
256
6
ByLayer
370
-1
48
1
60
0
100
AcDbTrace
10
-38.720773
20
-6.175
30
0
11
-39.779107
21
-6.175
31
0
12
-39.24994
22
-3
32
0
13
-39.24994
23
-3
33
0
39
0
210
0
220
0
230
1
0
MTEXT
5
170
100
AcDbEntity
8
0
62
256
6
ByLayer
370
18
48
1
60
0
100
AcDbMText
10
-46.556441
20
17.10734
30
0
210
0
220
0
230
1
1
\A1;6
40
3.50012
41
0
44
1
50
90
71
5
72
5
7
iso_b_vert
0
POINT
5
171
100
AcDbEntity
8
Defpoints
62
0
6
ByLayer
370
-1
48
1
60
0
100
AcDbPoint
10
-36
20
3
30
0
39
0
210
0
220
0
230
1
50
360
0
POINT
5
172
100
AcDbEntity
8
Defpoints
62
0
6
ByLayer
370
-1
48
1
60
0
100
AcDbPoint
10
-36
20
-3
30
0
39
0
210
0
220
0
230
1
50
360
0
POINT
5
173
100
AcDbEntity
8
Defpoints
62
0
6
ByLayer
370
-1
48
1
60
0
100
AcDbPoint
10
-39.24994
20
-3
30
0
39
0
210
0
220
0
230
1
50
360
0
ENDBLK
5
168
100
AcDbEntity
8
0
100
AcDbBlockEnd
0
BLOCK
5
17F
100
AcDbEntity
8
0
100
AcDbBlockBegin
2
_U2
70
0
10
0
20
0
30
0
3
_U2
0
MTEXT
5
175
100
AcDbEntity
8
SK2
62
256
6
ByLayer
370
18
48
1
60
0
100
AcDbMText
10
-39.939597
20
13.157505
30
0
210
0
220
0
230
1
1
\W0.7346;6.00
40
3.50012
41
0
44
1.084337
50
90
71
7
72
5
7
iso_b_vert
0
LINE
5
176
100
AcDbEntity
8
SK2
62
256
6
ByLayer
370
13
48
1
60
0
100
AcDbLine
10
-37.5875
20
3
30
0
11
-42.42494
21
3
31
0
39
0
210
0
220
0
230
1
0
LINE
5
177
100
AcDbEntity
8
SK2
62
256
6
ByLayer
370
13
48
1
60
0
100
AcDbLine
10
-37.5875
20
-3
30
0
11
-42.42494
21
-3
31
0
39
0
210
0
220
0
230
1
0
LINE
5
178
100
AcDbEntity
8
SK2
62
256
6
ByLayer
370
13
48
1
60
0
100
AcDbLine
10
-39.24994
20
-11.7503
30
0
11
-39.24994
21
21.21468
31
0
39
0
210
0
220
0
230
1
0
LINE
5
179
100
AcDbEntity
8
SK2
62
256
6
ByLayer
370
13
48
1
60
0
100
AcDbLine
10
-39.24994
20
3
30
0
11
-39.667937
21
6.174998
31
0
39
0
210
0
220
0
230
1
0
LINE
5
17A
100
AcDbEntity
8
SK2
62
256
6
ByLayer
370
13
48
1
60
0
100
AcDbLine
10
-39.24994
20
3
30
0
11
-38.831943
21
6.175002
31
0
39
0
210
0
220
0
230
1
0
LINE
5
17B
100
AcDbEntity
8
SK2
62
256
6
ByLayer
370
13
48
1
60
0
100
AcDbLine
10
-39.667937
20
6.174998
30
0
11
-38.831943
21
6.175002
31
0
39
0
210
0
220
0
230
1
0
LINE
5
17C
100
AcDbEntity
8
SK2
62
256
6
ByLayer
370
13
48
1
60
0
100
AcDbLine
10
-39.24994
20
-3
30
0
11
-38.831943
21
-6.174998
31
0
39
0
210
0
220
0
230
1
0
LINE
5
17D
100
AcDbEntity
8
SK2
62
256
6
ByLayer
370
13
48
1
60
0
100
AcDbLine
10
-39.24994
20
-3
30
0
11
-39.667937
21
-6.175002
31
0
39
0
210
0
220
0
230
1
0
LINE
5
17E
100
AcDbEntity
8
SK2
62
256
6
ByLayer
370
13
48
1
60
0
100
AcDbLine
10
-38.831943
20
-6.174998
30
0
11
-39.667937
21
-6.175002
31
0
39
0
210
0
220
0
230
1
0
ENDBLK
5
180
100
AcDbEntity
8
0
100
AcDbBlockEnd
0
BLOCK
5
185
100
AcDbEntity
8
0
100
AcDbBlockBegin
2
*D8
70
1
10
0
20
0
30
0
3
*D8
0
LINE
5
187
100
AcDbEntity
8
0
62
256
6
ByLayer
370
-2
48
1
60
0
100
AcDbLine
10
-36
20
-4.5875
30
0
11
-36
21
-29.67512
31
0
39
0
210
0
220
0
230
1
0
LINE
5
188
100
AcDbEntity
8
0
62
256
6
ByLayer
370
-2
48
1
60
0
100
AcDbLine
10
0
20
-4.5875
30
0
11
0
21
-29.67512
31
0
39
0
210
0
220
0
230
1
0
LINE
5
189
100
AcDbEntity
8
0
62
256
6
ByLayer
370
-2
48
1
60
0
100
AcDbLine
10
-32.825
20
-26.50012
30
0
11
-3.175
21
-26.50012
31
0
39
0
210
0
220
0
230
1
0
SOLID
5
18A
100
AcDbEntity
8
0
62
256
6
ByLayer
370
-1
48
1
60
0
100
AcDbTrace
10
-32.825
20
-25.970953
30
0
11
-32.825
21
-27.029287
31
0
12
-36
22
-26.50012
32
0
13
-36
23
-26.50012
33
0
39
0
210
0
220
0
230
1
0
SOLID
5
18B
100
AcDbEntity
8
0
62
256
6
ByLayer
370
-1
48
1
60
0
100
AcDbTrace
10
-3.175
20
-27.029287
30
0
11
-3.175
21
-25.970953
31
0
12
0
22
-26.50012
32
0
13
0
23
-26.50012
33
0
39
0
210
0
220
0
230
1
0
MTEXT
5
18C
100
AcDbEntity
8
0
62
256
6
ByLayer
370
18
48
1
60
0
100
AcDbMText
10
-18
20
-19.193619
30
0
210
0
220
0
230
1
1
\A1;36
40
3.50012
41
0
44
1
50
0
71
5
72
5
7
iso_b_vert
0
POINT
5
18D
100
AcDbEntity
8
Defpoints
62
0
6
ByLayer
370
-1
48
1
60
0
100
AcDbPoint
10
-36
20
-3
30
0
39
0
210
0
220
0
230
1
50
360
0
POINT
5
18E
100
AcDbEntity
8
Defpoints
62
0
6
ByLayer
370
-1
48
1
60
0
100
AcDbPoint
10
0
20
-3
30
0
39
0
210
0
220
0
230
1
50
360
0
POINT
5
18F
100
AcDbEntity
8
Defpoints
62
0
6
ByLayer
370
-1
48
1
60
0
100
AcDbPoint
10
0
20
-26.50012
30
0
39
0
210
0
220
0
230
1
50
360
0
ENDBLK
5
186
100
AcDbEntity
8
0
100
AcDbBlockEnd
0
BLOCK
5
19B
100
AcDbEntity
8
0
100
AcDbBlockBegin
2
_U3
70
0
10
0
20
0
30
0
3
_U3
0
MTEXT
5
191
100
AcDbEntity
8
SK2
62
256
6
ByLayer
370
18
48
1
60
0
100
AcDbMText
10
-23.229611
20
-25.467451
30
0
210
0
220
0
230
1
1
\W0.7468;36.00
40
3.50012
41
0
44
1.084337
50
0
71
7
72
5
7
iso_b_vert
0
LINE
5
192
100
AcDbEntity
8
SK2
62
256
6
ByLayer
370
13
48
1
60
0
100
AcDbLine
10
-36
20
-4.5875
30
0
11
-36
21
-29.67512
31
0
39
0
210
0
220
0
230
1
0
LINE
5
193
100
AcDbEntity
8
SK2
62
256
6
ByLayer
370
13
48
1
60
0
100
AcDbLine
10
0
20
-4.5875
30
0
11
0
21
-29.67512
31
0
39
0
210
0
220
0
230
1
0
LINE
5
194
100
AcDbEntity
8
SK2
62
256
6
ByLayer
370
13
48
1
60
0
100
AcDbLine
10
-36
20
-26.50012
30
0
11
0
21
-26.50012
31
0
39
0
210
0
220
0
230
1
0
LINE
5
195
100
AcDbEntity
8
SK2
62
256
6
ByLayer
370
13
48
1
60
0
100
AcDbLine
10
-36
20
-26.50012
30
0
11
-32.825002
21
-26.082123
31
0
39
0
210
0
220
0
230
1
0
LINE
5
196
100
AcDbEntity
8
SK2
62
256
6
ByLayer
370
13
48
1
60
0
100
AcDbLine
10
-36
20
-26.50012
30
0
11
-32.824998
21
-26.918117
31
0
39
0
210
0
220
0
230
1
0
LINE
5
197
100
AcDbEntity
8
SK2
62
256
6
ByLayer
370
13
48
1
60
0
100
AcDbLine
10
-32.825002
20
-26.082123
30
0
11
-32.824998
21
-26.918117
31
0
39
0
210
0
220
0
230
1
0
LINE
5
198
100
AcDbEntity
8
SK2
62
256
6
ByLayer
370
13
48
1
60
0
100
AcDbLine
10
0
20
-26.50012
30
0
11
-3.174998
21
-26.918117
31
0
39
0
210
0
220
0
230
1
0
LINE
5
199
100
AcDbEntity
8
SK2
62
256
6
ByLayer
370
13
48
1
60
0
100
AcDbLine
10
0
20
-26.50012
30
0
11
-3.175002
21
-26.082123
31
0
39
0
210
0
220
0
230
1
0
LINE
5
19A
100
AcDbEntity
8
SK2
62
256
6
ByLayer
370
13
48
1
60
0
100
AcDbLine
10
-3.174998
20
-26.918117
30
0
11
-3.175002
21
-26.082123
31
0
39
0
210
0
220
0
230
1
0
ENDBLK
5
19C
100
AcDbEntity
8
0
100
AcDbBlockEnd
0
BLOCK
5
1A1
100
AcDbEntity
8
0
100
AcDbBlockBegin
2
*D10
70
1
10
0
20
0
30
0
3
*D10
0
LINE
5
1A3
100
AcDbEntity
8
0
62
256
6
ByLayer
370
-2
48
1
60
0
100
AcDbLine
10
2
20
1.3625
30
0
11
2
21
-20.92482
31
0
39
0
210
0
220
0
230
1
0
LINE
5
1A4
100
AcDbEntity
8
0
62
256
6
ByLayer
370
-2
48
1
60
0
100
AcDbLine
10
46
20
-1.5875
30
0
11
46
21
-20.92482
31
0
39
0
210
0
220
0
230
1
0
LINE
5
1A5
100
AcDbEntity
8
0
62
256
6
ByLayer
370
-2
48
1
60
0
100
AcDbLine
10
5.175
20
-17.74982
30
0
11
42.825
21
-17.74982
31
0
39
0
210
0
220
0
230
1
0
SOLID
5
1A6
100
AcDbEntity
8
0
62
256
6
ByLayer
370
-1
48
1
60
0
100
AcDbTrace
10
5.175
20
-17.220653
30
0
11
5.175
21
-18.278987
31
0
12
2
22
-17.74982
32
0
13
2
23
-17.74982
33
0
39
0
210
0
220
0
230
1
0
SOLID
5
1A7
100
AcDbEntity
8
0
62
256
6
ByLayer
370
-1
48
1
60
0
100
AcDbTrace
10
42.825
20
-18.278987
30
0
11
42.825
21
-17.220653
31
0
12
46
22
-17.74982
32
0
13
46
23
-17.74982
33
0
39
0
210
0
220
0
230
1
0
MTEXT
5
1A8
100
AcDbEntity
8
0
62
256
6
ByLayer
370
18
48
1
60
0
100
AcDbMText
10
24
20
-10.443319
30
0
210
0
220
0
230
1
1
\A1;44
40
3.50012
41
0
44
1
50
0
71
5
72
5
7
iso_b_vert
0
POINT
5
1A9
100
AcDbEntity
8
Defpoints
62
0
6
ByLayer
370
-1
48
1
60
0
100
AcDbPoint
10
2
20
2.95
30
0
39
0
210
0
220
0
230
1
50
360
0
POINT
5
1AA
100
AcDbEntity
8
Defpoints
62
0
6
ByLayer
370
-1
48
1
60
0
100
AcDbPoint
10
46
20
0
30
0
39
0
210
0
220
0
230
1
50
360
0
POINT
5
1AB
100
AcDbEntity
8
Defpoints
62
0
6
ByLayer
370
-1
48
1
60
0
100
AcDbPoint
10
46
20
-17.74982
30
0
39
0
210
0
220
0
230
1
50
360
0
ENDBLK
5
1A2
100
AcDbEntity
8
0
100
AcDbBlockEnd
0
BLOCK
5
1B7
100
AcDbEntity
8
0
100
AcDbBlockBegin
2
_U4
70
0
10
0
20
0
30
0
3
_U4
0
MTEXT
5
1AD
100
AcDbEntity
8
SK2
62
256
6
ByLayer
370
18
48
1
60
0
100
AcDbMText
10
18.401842
20
-16.717151
30
0
210
0
220
0
230
1
1
\W0.7958;44.00
40
3.50012
41
0
44
1.084337
50
0
71
7
72
5
7
iso_b_vert
0
LINE
5
1AE
100
AcDbEntity
8
SK2
62
256
6
ByLayer
370
13
48
1
60
0
100
AcDbLine
10
2
20
1.3625
30
0
11
2
21
-20.92482
31
0
39
0
210
0
220
0
230
1
0
LINE
5
1AF
100
AcDbEntity
8
SK2
62
256
6
ByLayer
370
13
48
1
60
0
100
AcDbLine
10
46
20
-1.5875
30
0
11
46
21
-20.92482
31
0
39
0
210
0
220
0
230
1
0
LINE
5
1B0
100
AcDbEntity
8
SK2
62
256
6
ByLayer
370
13
48
1
60
0
100
AcDbLine
10
2
20
-17.74982
30
0
11
46
21
-17.74982
31
0
39
0
210
0
220
0
230
1
0
LINE
5
1B1
100
AcDbEntity
8
SK2
62
256
6
ByLayer
370
13
48
1
60
0
100
AcDbLine
10
2
20
-17.74982
30
0
11
5.174998
21
-17.331823
31
0
39
0
210
0
220
0
230
1
0
LINE
5
1B2
100
AcDbEntity
8
SK2
62
256
6
ByLayer
370
13
48
1
60
0
100
AcDbLine
10
2
20
-17.74982
30
0
11
5.175002
21
-18.167817
31
0
39
0
210
0
220
0
230
1
0
LINE
5
1B3
100
AcDbEntity
8
SK2
62
256
6
ByLayer
370
13
48
1
60
0
100
AcDbLine
10
5.174998
20
-17.331823
30
0
11
5.175002
21
-18.167817
31
0
39
0
210
0
220
0
230
1
0
LINE
5
1B4
100
AcDbEntity
8
SK2
62
256
6
ByLayer
370
13
48
1
60
0
100
AcDbLine
10
46
20
-17.74982
30
0
11
42.825002
21
-18.167817
31
0
39
0
210
0
220
0
230
1
0
LINE
5
1B5
100
AcDbEntity
8
SK2
62
256
6
ByLayer
370
13
48
1
60
0
100
AcDbLine
10
46
20
-17.74982
30
0
11
42.824998
21
-17.331823
31
0
39
0
210
0
220
0
230
1
0
LINE
5
1B6
100
AcDbEntity
8
SK2
62
256
6
ByLayer
370
13
48
1
60
0
100
AcDbLine
10
42.825002
20
-18.167817
30
0
11
42.824998
21
-17.331823
31
0
39
0
210
0
220
0
230
1
0
ENDBLK
5
1B8
100
AcDbEntity
8
0
100
AcDbBlockEnd
0
BLOCK
5
1BD
100
AcDbEntity
8
0
100
AcDbBlockBegin
2
*D12
70
1
10
0
20
0
30
0
3
*D12
0
LINE
5
1BF
100
AcDbEntity
8
0
62
256
6
ByLayer
370
-2
48
1
60
0
100
AcDbLine
10
20.7
20
-4.0375
30
0
11
20.7
21
-10.32
31
0
39
0
210
0
220
0
230
1
0
LINE
5
1C0
100
AcDbEntity
8
0
62
256
6
ByLayer
370
-2
48
1
60
0
100
AcDbLine
10
46
20
-1.5875
30
0
11
46
21
-10.32
31
0
39
0
210
0
220
0
230
1
0
LINE
5
1C1
100
AcDbEntity
8
0
62
256
6
ByLayer
370
-2
48
1
60
0
100
AcDbLine
10
23.875
20
-9.82
30
0
11
42.825
21
-9.82
31
0
39
0
210
0
220
0
230
1
0
SOLID
5
1C2
100
AcDbEntity
8
0
62
256
6
ByLayer
370
-1
48
1
60
0
100
AcDbTrace
10
23.875
20
-9.290833
30
0
11
23.875
21
-10.349167
31
0
12
20.7
22
-9.82
32
0
13
20.7
23
-9.82
33
0
39
0
210
0
220
0
230
1
0
SOLID
5
1C3
100
AcDbEntity
8
0
62
256
6
ByLayer
370
-1
48
1
60
0
100
AcDbTrace
10
42.825
20
-10.349167
30
0
11
42.825
21
-9.290833
31
0
12
46
22
-9.82
32
0
13
46
23
-9.82
33
0
39
0
210
0
220
0
230
1
0
MTEXT
5
1C4
100
AcDbEntity
8
0
62
256
6
ByLayer
370
18
48
1
60
0
100
AcDbMText
10
33.35
20
-3.975
30
0
210
0
220
0
230
1
1
\A1;25.3
40
2.8
41
0
44
1
50
0
71
5
72
5
7
iso_b_vert
0
POINT
5
1C5
100
AcDbEntity
8
Defpoints
62
0
6
ByLayer
370
-1
48
1
60
0
100
AcDbPoint
10
20.7
20
-2.45
30
0
39
0
210
0
220
0
230
1
50
360
0
POINT
5
1C6
100
AcDbEntity
8
Defpoints
62
0
6
ByLayer
370
-1
48
1
60
0
100
AcDbPoint
10
46
20
0
30
0
39
0
210
0
220
0
230
1
50
360
0
POINT
5
1C7
100
AcDbEntity
8
Defpoints
62
0
6
ByLayer
370
-1
48
1
60
0
100
AcDbPoint
10
46
20
-9.82
30
0
39
0
210
0
220
0
230
1
50
360
0
ENDBLK
5
1BE
100
AcDbEntity
8
0
100
AcDbBlockEnd
0
BLOCK
5
1D3
100
AcDbEntity
8
0
100
AcDbBlockBegin
2
_U5
70
0
10
0
20
0
30
0
3
_U5
0
MTEXT
5
1C9
100
AcDbEntity
8
SK2
62
256
6
ByLayer
370
18
48
1
60
0
100
AcDbMText
10
29.166454
20
-9.973893
30
0
210
0
220
0
230
1
1
\W0.7468;25.30
40
2.8
41
0
44
1.084337
50
0
71
7
72
5
7
iso_b_vert
0
LINE
5
1CA
100
AcDbEntity
8
SK2
62
256
6
ByLayer
370
13
48
1
60
0
100
AcDbLine
10
20.7
20
-4.0375
30
0
11
20.7
21
-10.32
31
0
39
0
210
0
220
0
230
1
0
LINE
5
1CB
100
AcDbEntity
8
SK2
62
256
6
ByLayer
370
13
48
1
60
0
100
AcDbLine
10
46
20
-1.5875
30
0
11
46
21
-10.32
31
0
39
0
210
0
220
0
230
1
0
LINE
5
1CC
100
AcDbEntity
8
SK2
62
256
6
ByLayer
370
13
48
1
60
0
100
AcDbLine
10
20.7
20
-9.82
30
0
11
46
21
-9.82
31
0
39
0
210
0
220
0
230
1
0
LINE
5
1CD
100
AcDbEntity
8
SK2
62
256
6
ByLayer
370
13
48
1
60
0
100
AcDbLine
10
20.7
20
-9.82
30
0
11
23.874998
21
-9.402003
31
0
39
0
210
0
220
0
230
1
0
LINE
5
1CE
100
AcDbEntity
8
SK2
62
256
6
ByLayer
370
13
48
1
60
0
100
AcDbLine
10
20.7
20
-9.82
30
0
11
23.875002
21
-10.237997
31
0
39
0
210
0
220
0
230
1
0
LINE
5
1CF
100
AcDbEntity
8
SK2
62
256
6
ByLayer
370
13
48
1
60
0
100
AcDbLine
10
23.874998
20
-9.402003
30
0
11
23.875002
21
-10.237997
31
0
39
0
210
0
220
0
230
1
0
LINE
5
1D0
100
AcDbEntity
8
SK2
62
256
6
ByLayer
370
13
48
1
60
0
100
AcDbLine
10
46
20
-9.82
30
0
11
42.825002
21
-10.237997
31
0
39
0
210
0
220
0
230
1
0
LINE
5
1D1
100
AcDbEntity
8
SK2
62
256
6
ByLayer
370
13
48
1
60
0
100
AcDbLine
10
46
20
-9.82
30
0
11
42.824998
21
-9.402003
31
0
39
0
210
0
220
0
230
1
0
LINE
5
1D2
100
AcDbEntity
8
SK2
62
256
6
ByLayer
370
13
48
1
60
0
100
AcDbLine
10
42.825002
20
-10.237997
30
0
11
42.824998
21
-9.402003
31
0
39
0
210
0
220
0
230
1
0
ENDBLK
5
1D4
100
AcDbEntity
8
0
100
AcDbBlockEnd
0
BLOCK
5
1D9
100
AcDbEntity
8
0
100
AcDbBlockBegin
2
*D14
70
1
10
0
20
0
30
0
3
*D14
0
LINE
5
1DB
100
AcDbEntity
8
0
62
256
6
ByLayer
370
-2
48
1
60
0
100
AcDbLine
10
-36
20
-1.5875
30
0
11
-36
21
-39.67512
31
0
39
0
210
0
220
0
230
1
0
LINE
5
1DC
100
AcDbEntity
8
0
62
256
6
ByLayer
370
-2
48
1
60
0
100
AcDbLine
10
46
20
-1.5875
30
0
11
46
21
-39.67512
31
0
39
0
210
0
220
0
230
1
0
LINE
5
1DD
100
AcDbEntity
8
0
62
256
6
ByLayer
370
-2
48
1
60
0
100
AcDbLine
10
-32.825
20
-36.50012
30
0
11
42.825
21
-36.50012
31
0
39
0
210
0
220
0
230
1
0
SOLID
5
1DE
100
AcDbEntity
8
0
62
256
6
ByLayer
370
-1
48
1
60
0
100
AcDbTrace
10
-32.825
20
-35.970953
30
0
11
-32.825
21
-37.029287
31
0
12
-36
22
-36.50012
32
0
13
-36
23
-36.50012
33
0
39
0
210
0
220
0
230
1
0
SOLID
5
1DF
100
AcDbEntity
8
0
62
256
6
ByLayer
370
-1
48
1
60
0
100
AcDbTrace
10
42.825
20
-37.029287
30
0
11
42.825
21
-35.970953
31
0
12
46
22
-36.50012
32
0
13
46
23
-36.50012
33
0
39
0
210
0
220
0
230
1
0
MTEXT
5
1E0
100
AcDbEntity
8
0
62
256
6
ByLayer
370
18
48
1
60
0
100
AcDbMText
10
5
20
-29.19362
30
0
210
0
220
0
230
1
1
\A1;82
40
3.50012
41
0
44
1
50
0
71
5
72
5
7
iso_b_vert
0
POINT
5
1E1
100
AcDbEntity
8
Defpoints
62
0
6
ByLayer
370
-1
48
1
60
0
100
AcDbPoint
10
-36
20
0
30
0
39
0
210
0
220
0
230
1
50
360
0
POINT
5
1E2
100
AcDbEntity
8
Defpoints
62
0
6
ByLayer
370
-1
48
1
60
0
100
AcDbPoint
10
46
20
0
30
0
39
0
210
0
220
0
230
1
50
360
0
POINT
5
1E3
100
AcDbEntity
8
Defpoints
62
0
6
ByLayer
370
-1
48
1
60
0
100
AcDbPoint
10
46
20
-36.50012
30
0
39
0
210
0
220
0
230
1
50
360
0
ENDBLK
5
1DA
100
AcDbEntity
8
0
100
AcDbBlockEnd
0
BLOCK
5
1EF
100
AcDbEntity
8
0
100
AcDbBlockBegin
2
_U6
70
0
10
0
20
0
30
0
3
_U6
0
MTEXT
5
1E5
100
AcDbEntity
8
SK2
62
256
6
ByLayer
370
18
48
1
60
0
100
AcDbMText
10
-0.229611
20
-35.467451
30
0
210
0
220
0
230
1
1
\W0.7468;82.00
40
3.50012
41
0
44
1.084337
50
0
71
7
72
5
7
iso_b_vert
0
LINE
5
1E6
100
AcDbEntity
8
SK2
62
256
6
ByLayer
370
13
48
1
60
0
100
AcDbLine
10
-36
20
-1.5875
30
0
11
-36
21
-39.67512
31
0
39
0
210
0
220
0
230
1
0
LINE
5
1E7
100
AcDbEntity
8
SK2
62
256
6
ByLayer
370
13
48
1
60
0
100
AcDbLine
10
46
20
-1.5875
30
0
11
46
21
-39.67512
31
0
39
0
210
0
220
0
230
1
0
LINE
5
1E8
100
AcDbEntity
8
SK2
62
256
6
ByLayer
370
13
48
1
60
0
100
AcDbLine
10
-36
20
-36.50012
30
0
11
46
21
-36.50012
31
0
39
0
210
0
220
0
230
1
0
LINE
5
1E9
100
AcDbEntity
8
SK2
62
256
6
ByLayer
370
13
48
1
60
0
100
AcDbLine
10
-36
20
-36.50012
30
0
11
-32.825002
21
-36.082123
31
0
39
0
210
0
220
0
230
1
0
LINE
5
1EA
100
AcDbEntity
8
SK2
62
256
6
ByLayer
370
13
48
1
60
0
100
AcDbLine
10
-36
20
-36.50012
30
0
11
-32.824998
21
-36.918117
31
0
39
0
210
0
220
0
230
1
0
LINE
5
1EB
100
AcDbEntity
8
SK2
62
256
6
ByLayer
370
13
48
1
60
0
100
AcDbLine
10
-32.825002
20
-36.082123
30
0
11
-32.824998
21
-36.918117
31
0
39
0
210
0
220
0
230
1
0
LINE
5
1EC
100
AcDbEntity
8
SK2
62
256
6
ByLayer
370
13
48
1
60
0
100
AcDbLine
10
46
20
-36.50012
30
0
11
42.825002
21
-36.918117
31
0
39
0
210
0
220
0
230
1
0
LINE
5
1ED
100
AcDbEntity
8
SK2
62
256
6
ByLayer
370
13
48
1
60
0
100
AcDbLine
10
46
20
-36.50012
30
0
11
42.824998
21
-36.082123
31
0
39
0
210
0
220
0
230
1
0
LINE
5
1EE
100
AcDbEntity
8
SK2
62
256
6
ByLayer
370
13
48
1
60
0
100
AcDbLine
10
42.825002
20
-36.918117
30
0
11
42.824998
21
-36.082123
31
0
39
0
210
0
220
0
230
1
0
ENDBLK
5
1F0
100
AcDbEntity
8
0
100
AcDbBlockEnd
0
ENDSEC
0
SECTION
2
ENTITIES
0
ARC
5
B5
100
AcDbEntity
8
1
62
256
6
ByLayer
370
18
48
1
60
0
100
AcDbCircle
39
0
10
1.230585
20
3.222575
30
0
40
0.800000000000003
210
0
220
0
230
1
100
AcDbArc
50
219.725454
51
270.03581
0
ARC
5
B6
100
AcDbEntity
8
1
62
256
6
ByLayer
370
18
48
1
60
0
100
AcDbCircle
39
0
10
1.230585
20
-3.222575
30
0
40
0.800000000000003
210
0
220
0
230
1
100
AcDbArc
50
89.96419
51
140.274546
0
ARC
5
B7
100
AcDbEntity
8
1
62
256
6
ByLayer
370
18
48
1
60
0
100
AcDbCircle
39
0
10
0
20
2.2
30
0
40
0.800000000000003
210
0
220
0
230
1
100
AcDbArc
50
39.725454
51
90
0
ARC
5
B8
100
AcDbEntity
8
1
62
256
6
ByLayer
370
18
48
1
60
0
100
AcDbCircle
39
0
10
0
20
-2.2
30
0
40
0.800000000000003
210
0
220
0
230
1
100
AcDbArc
50
270
51
320.274546
0
ARC
5
B9
100
AcDbEntity
8
SK2
62
256
6
ByLayer
370
13
48
1
60
0
100
AcDbCircle
39
0
10
46
20
0
30
0
40
20
210
0
220
0
230
1
100
AcDbArc
50
9.606349
51
70.000559
0
ARC
5
BA
100
AcDbEntity
8
SK2
62
256
6
ByLayer
370
13
48
1
60
0
100
AcDbCircle
39
0
10
46
20
0
30
0
40
20
210
0
220
0
230
1
100
AcDbArc
50
289.999441
51
350.393651
0
ELLIPSE
5
BB
100
AcDbEntity
8
1
62
256
6
ByLayer
370
18
48
1
60
0
100
AcDbEllipse
10
3.639161
20
2.31227
30
0
11
0.000173909144006566
21
-0.00999848766612386
31
0
210
0
220
0
230
1
40
0.412125
41
-0.0218338925143613
42
1.5418345656936
0
ELLIPSE
5
BC
100
AcDbEntity
8
1
62
256
6
ByLayer
370
18
48
1
60
0
100
AcDbEllipse
10
3.602833
20
2.311785
30
0
11
-8.94557779171364E-05
21
0.00999959987518487
31
0
210
0
220
0
230
1
40
0.008532
41
3.11819441570342
42
-1.59479349870294
0
POINT
5
70
100
AcDbEntity
8
80
62
256
6
ByLayer
370
18
48
1
60
0
100
AcDbPoint
10
0
20
0
30
0
39
0
210
0
220
0
230
1
50
360
0
POINT
5
72
100
AcDbEntity
8
81
62
256
6
ByLayer
370
18
48
1
60
0
100
AcDbPoint
10
46
20
0
30
0
39
0
210
0
220
0
230
1
50
360
0
POINT
5
74
100
AcDbEntity
8
1
62
256
6
ByLayer
370
18
48
1
60
0
100
AcDbPoint
10
-36
20
0
30
0
39
0
210
0
220
0
230
1
50
360
0
POINT
5
76
100
AcDbEntity
8
1
62
256
6
ByLayer
370
18
48
1
60
1
100
AcDbPoint
10
0
20
-3
30
0
39
0
210
0
220
0
230
1
50
360
0
POINT
5
77
100
AcDbEntity
8
1
62
256
6
ByLayer
370
18
48
1
60
1
100
AcDbPoint
10
46
20
0
30
0
39
0
210
0
220
0
230
1
50
360
0
POINT
5
78
100
AcDbEntity
8
1
62
256
6
ByLayer
370
18
48
1
60
1
100
AcDbPoint
10
45.1083
20
-2.45
30
0
39
0
210
0
220
0
230
1
50
360
0
POINT
5
79
100
AcDbEntity
8
1
62
256
6
ByLayer
370
18
48
1
60
1
100
AcDbPoint
10
45.1083
20
2.45
30
0
39
0
210
0
220
0
230
1
50
360
0
POINT
5
7A
100
AcDbEntity
8
1
62
256
6
ByLayer
370
18
48
1
60
1
100
AcDbPoint
10
-36
20
3
30
0
39
0
210
0
220
0
230
1
50
360
0
POINT
5
7B
100
AcDbEntity
8
1
62
256
6
ByLayer
370
18
48
1
60
1
100
AcDbPoint
10
-36
20
-3
30
0
39
0
210
0
220
0
230
1
50
360
0
POINT
5
7C
100
AcDbEntity
8
1
62
256
6
ByLayer
370
18
48
1
60
1
100
AcDbPoint
10
-36
20
-3
30
0
39
0
210
0
220
0
230
1
50
360
0
POINT
5
7D
100
AcDbEntity
8
1
62
256
6
ByLayer
370
18
48
1
60
1
100
AcDbPoint
10
0
20
-3
30
0
39
0
210
0
220
0
230
1
50
360
0
POINT
5
7E
100
AcDbEntity
8
1
62
256
6
ByLayer
370
18
48
1
60
1
100
AcDbPoint
10
2
20
2.95
30
0
39
0
210
0
220
0
230
1
50
360
0
POINT
5
7F
100
AcDbEntity
8
1
62
256
6
ByLayer
370
18
48
1
60
1
100
AcDbPoint
10
46
20
0
30
0
39
0
210
0
220
0
230
1
50
360
0
POINT
5
80
100
AcDbEntity
8
1
62
256
6
ByLayer
370
18
48
1
60
1
100
AcDbPoint
10
20.7
20
-2.45
30
0
39
0
210
0
220
0
230
1
50
360
0
POINT
5
81
100
AcDbEntity
8
1
62
256
6
ByLayer
370
18
48
1
60
1
100
AcDbPoint
10
46
20
0
30
0
39
0
210
0
220
0
230
1
50
360
0
POINT
5
82
100
AcDbEntity
8
1
62
256
6
ByLayer
370
18
48
1
60
1
100
AcDbPoint
10
-36
20
0
30
0
39
0
210
0
220
0
230
1
50
360
0
POINT
5
83
100
AcDbEntity
8
1
62
256
6
ByLayer
370
18
48
1
60
1
100
AcDbPoint
10
46
20
0
30
0
39
0
210
0
220
0
230
1
50
360
0
SPLINE
5
BD
100
AcDbEntity
8
1
62
256
6
ByLayer
370
18
48
1
60
0
100
AcDbSpline
70
4
71
3
72
34
73
30
40
0
40
0
40
0
40
0
40
0.025597049945712
40
0.025597049945712
40
0.0849234082718901
40
0.0849234082718901
40
0.203576124924247
40
0.203576124924247
40
0.262902483250426
40
0.262902483250426
40
0.322228841576605
40
0.322228841576605
40
0.440881558228965
40
0.440881558228965
40
0.500207916555145
40
0.500207916555145
40
0.559534274881326
40
0.559534274881326
40
0.618860633207507
40
0.618860633207507
40
0.678186991533688
40
0.678186991533688
40
0.796839708186053
40
0.796839708186053
40
0.856166066512235
40
0.856166066512235
40
0.915492424838419
40
0.915492424838419
40
1
40
1
40
1
40
1
41
1
10
37.3349755868282
20
-0.207605808265953
30
0
41
1
10
37.2284689632294
20
-0.159698845838619
30
0
41
1
10
37.1219653875214
20
-0.111675927870522
30
0
41
1
10
36.7686688235733
20
0.0477164439395779
30
0
41
1
10
36.5215257151262
20
0.159039089587452
30
0
41
1
10
35.7833194325076
20
0.490440963145858
30
0
41
1
10
35.2935411873518
20
0.7066764329374
30
0
41
1
10
34.5570176904253
20
1.0124625529607
30
-1E-16
41
1
10
34.3114409046742
20
1.11204947352678
30
-1E-16
41
1
10
33.818732738851
20
1.30291028268252
30
-1E-16
41
1
10
33.5716367617262
20
1.39467877768945
30
-1E-16
41
1
10
32.8326592454267
20
1.65332437846891
30
-1E-16
41
1
10
32.341625746282
20
1.80598136890308
30
-1E-16
41
1
10
31.6018102011713
20
1.99545513680474
30
1E-16
41
1
10
31.3548266671682
20
2.05181542625337
30
1E-16
41
1
10
30.8624238949921
20
2.15129113093485
30
0
41
1
10
30.6165033893516
20
2.19394746386254
30
0
41
1
10
30.124318086983
20
2.26421089108334
30
0
41
1
10
29.8780414518295
20
2.29174758379975
30
0
41
1
10
29.3843243816894
20
2.33131852996826
30
0
41
1
10
29.1378247555191
20
2.3438445763382
30
0
41
1
10
28.399367608879
20
2.35613609657548
30
0
41
1
10
27.907727132055
20
2.33189515454939
30
0
41
1
10
27.1672148527304
20
2.25064447489515
30
0
41
1
10
26.9203524731815
20
2.21568770997541
30
0
41
1
10
26.4266956496928
20
2.13102338458708
30
0
41
1
10
26.1797958778615
20
2.08124182131402
30
1E-16
41
1
10
25.5832836692859
20
1.94493243951393
30
1E-16
41
1
10
25.2336523157992
20
1.85114990109761
30
0
41
1
10
24.8836201918824
20
1.74543391148416
30
-1E-16
0
SPLINE
5
BE
100
AcDbEntity
8
1
62
256
6
ByLayer
370
18
48
1
60
0
100
AcDbSpline
70
4
71
3
72
20
73
16
40
0
40
0
40
0
40
0
40
0.151357387553211
40
0.151357387553211
40
0.302714775106422
40
0.302714775106422
40
0.454072162659632
40
0.454072162659632
40
0.605429550212843
40
0.605429550212843
40
0.756786937766054
40
0.756786937766054
40
0.908144325319265
40
0.908144325319265
40
1
40
1
40
1
40
1
41
1
10
45.9559744565173
20
0.0380295665338508
30
0
41
1
10
45.9428088937199
20
-0.0058957521310958
30
0
41
1
10
45.9278413694896
20
-0.0489213000639097
30
0
41
1
10
45.8942949495387
20
-0.133104500921405
30
0
41
1
10
45.8754741142224
20
-0.174651034353701
30
0
41
1
10
45.8360934229514
20
-0.251154070405278
30
0
41
1
10
45.8153268552352
20
-0.286716915340747
30
0
41
1
10
45.7718272025873
20
-0.351148823693961
30
0
41
1
10
45.7501920683731
20
-0.378412575899972
30
0
41
1
10
45.7070862477628
20
-0.422920750308236
30
0
41
1
10
45.6857751052083
20
-0.439787385300633
30
0
41
1
10
45.6458383744441
20
-0.460975871389394
30
0
41
1
10
45.6267319693583
20
-0.465542580523078
30
0
41
1
10
45.598711399866
20
-0.463557329622603
30
0
41
1
10
45.5885800777695
20
-0.460681679324523
30
0
41
1
10
45.5789717558784
20
-0.455914501459461
30
0
0
SPLINE
5
BF
100
AcDbEntity
8
1
62
256
6
ByLayer
370
18
48
1
60
0
100
AcDbSpline
70
4
71
3
72
8
73
4
40
0
40
0
40
0
40
0
40
1
40
1
40
1
40
1
41
1
10
45.5446463216557
20
-0.428755534298091
30
0
41
1
10
45.5362722652475
20
-0.419409967875993
30
0
41
1
10
45.5283816466084
20
-0.408406204995401
30
0
41
1
10
45.520879088997
20
-0.395885133477066
30
0
0
SPLINE
5
C0
100
AcDbEntity
8
1
62
256
6
ByLayer
370
18
48
1
60
0
100
AcDbSpline
70
4
71
3
72
8
73
4
40
0
40
0
40
0
40
0
40
1
40
1
40
1
40
1
41
1
10
45.1485285513209
20
2.34866221635016
30
0
41
1
10
45.1494302697054
20
2.34805404724784
30
0
41
1
10
45.1503319981445
20
2.34744584234738
30
0
41
1
10
45.1512337366449
20
2.34683760169204
30
0
0
SPLINE
5
C1
100
AcDbEntity
8
1
62
256
6
ByLayer
370
18
48
1
60
0
100
AcDbSpline
70
4
71
3
72
8
73
4
40
0
40
0
40
0
40
0
40
1
40
1
40
1
40
1
41
1
10
45.7920680720072
20
0.76415423287807
30
0
41
1
10
45.8618726448722
20
0.568017119922501
30
0
41
1
10
45.9300022139962
20
0.371277668160502
30
0
41
1
10
45.9964339441499
20
0.17392766594196
30
0
0
SPLINE
5
C2
100
AcDbEntity
8
1
62
256
6
ByLayer
370
18
48
1
60
0
100
AcDbSpline
70
4
71
3
72
68
73
64
40
0
40
0
40
0
40
0
40
0.0281292370428592
40
0.0281292370428592
40
0.0584405311975168
40
0.0584405311975168
40
0.0887518253521743
40
0.0887518253521743
40
0.14937441366149
40
0.14937441366149
40
0.179685707816147
40
0.179685707816147
40
0.209997001970805
40
0.209997001970805
40
0.240308296125462
40
0.240308296125462
40
0.27061959028012
40
0.27061959028012
40
0.300930884434777
40
0.300930884434777
40
0.331242178589435
40
0.331242178589435
40
0.391864766898752
40
0.391864766898752
40
0.42217606105341
40
0.42217606105341
40
0.452487355208068
40
0.452487355208068
40
0.482798649362727
40
0.482798649362727
40
0.513109943517385
40
0.513109943517385
40
0.543421237672044
40
0.543421237672044
40
0.573732531826702
40
0.573732531826702
40
0.604043825981361
40
0.604043825981361
40
0.634355120136019
40
0.634355120136019
40
0.664666414290677
40
0.664666414290677
40
0.694977708445336
40
0.694977708445336
40
0.725289002599996
40
0.725289002599996
40
0.755600296754657
40
0.755600296754657
40
0.816222885063977
40
0.816222885063977
40
0.846534179218638
40
0.846534179218638
40
0.876845473373298
40
0.876845473373298
40
0.907156767527959
40
0.907156767527959
40
0.937468061682619
40
0.937468061682619
40
0.967779355837279
40
0.967779355837279
40
0.99809064999194
40
0.99809064999194
40
1
40
1
40
1
40
1
41
1
10
41.605872941044
20
-1.62465080028701
30
1E-16
41
1
10
41.4106322108291
20
-1.69350565758509
30
1E-16
41
1
10
41.2142816855841
20
-1.75896192098659
30
1E-16
41
1
10
40.8081446430541
20
-1.88615494034423
30
-1E-16
41
1
10
40.5982244652975
20
-1.94738480856415
30
-1E-16
41
1
10
40.1797267671484
20
-2.06029419721818
30
-1E-16
41
1
10
39.9712596078089
20
-2.11205143301606
30
-1E-16
41
1
10
39.3457535612262
20
-2.25054425052912
30
0
41
1
10
38.9288047561883
20
-2.32117319156697
30
0
41
1
10
38.3031426973276
20
-2.39400076959302
30
0
41
1
10
38.0942800955193
20
-2.41251847718391
30
0
41
1
10
37.6749601037422
20
-2.43764937657491
30
0
41
1
10
37.4645916127231
20
-2.44432710627461
30
0
41
1
10
37.0423282991204
20
-2.44568745800697
30
0
41
1
10
36.831426496996
20
-2.44031793957285
30
0
41
1
10
36.4118859776619
20
-2.41762400019886
30
0
41
1
10
36.202662670102
20
-2.40036019602479
30
0
41
1
10
35.7847014430358
20
-2.3546102061668
30
0
41
1
10
35.5760870103769
20
-2.32606846928843
30
0
41
1
10
35.1592138288802
20
-2.25794953983689
30
0
41
1
10
34.9512498638218
20
-2.21810032998209
30
-1E-16
41
1
10
34.3264066579477
20
-2.08307485583302
30
-1E-16
41
1
10
33.9083574342224
20
-1.97306945398228
30
-1E-16
41
1
10
33.2784419525346
20
-1.77816197876942
30
1E-16
41
1
10
33.0674756658303
20
-1.70793766871563
30
1E-16
41
1
10
32.6455697689251
20
-1.56038751276418
30
1E-16
41
1
10
32.4352661489847
20
-1.48323198078251
30
1E-16
41
1
10
32.0159361661273
20
-1.32232496943414
30
1E-16
41
1
10
31.8068572270618
20
-1.2386694039958
30
1E-16
41
1
10
31.3898191615347
20
-1.06502797719344
30
1E-16
41
1
10
31.1815511782295
20
-0.975632033309864
30
1E-16
41
1
10
30.7646802747492
20
-0.793449070126513
30
0
41
1
10
30.5561798287031
20
-0.700462940320762
30
0
41
1
10
30.1388808241947
20
-0.511045637398695
30
0
41
1
10
29.9302042263694
20
-0.414343366183431
30
0
41
1
10
29.5118842871594
20
-0.218833063995646
30
0
41
1
10
29.3020745942443
20
-0.120401670067508
30
0
41
1
10
28.880678762372
20
0.0767279609843854
30
0
41
1
10
28.6688150993848
20
0.175825065870271
30
0
41
1
10
28.2477776670764
20
0.371862200719448
30
0
41
1
10
28.038361137011
20
0.469631072647502
30
0
41
1
10
27.6200426652582
20
0.660926218498702
30
0
41
1
10
27.4111428009288
20
0.754490202910262
30
0
41
1
10
26.9937837595708
20
0.937411546851848
30
-1E-16
41
1
10
26.7852577464692
20
1.02663549344609
30
-1E-16
41
1
10
26.3686993692777
20
1.20091263676156
30
-1E-16
41
1
10
26.1604762637436
20
1.28556630302359
30
-1E-16
41
1
10
25.5340951971043
20
1.52854699019988
30
-1E-16
41
1
10
25.1146884112485
20
1.67690306056645
30
-1E-16
41
1
10
24.481697527546
20
1.87628814203873
30
1E-16
41
1
10
24.270691977855
20
1.93805463258852
30
1E-16
41
1
10
23.8504186836699
20
2.05074902083621
30
1E-16
41
1
10
23.6408825167006
20
2.10198162996463
30
1E-16
41
1
10
23.2227097482346
20
2.1940336792311
30
1E-16
41
1
10
23.0142937413533
20
2.23504474078331
30
0
41
1
10
22.5975720331797
20
2.30582452528421
30
0
41
1
10
22.3891566953719
20
2.3355438629205
30
0
41
1
10
21.9718796564518
20
2.38360935057955
30
0
41
1
10
21.7630746828186
20
2.40199201063621
30
0
41
1
10
21.3449193199925
20
2.42719836265817
30
0
41
1
10
21.1357574899935
20
2.43401181198249
30
0
41
1
10
20.9124222873665
20
2.43483114558211
30
0
41
1
10
20.8991822296019
20
2.43485590924905
30
0
41
1
10
20.8859370617111
20
2.43485689365261
30
0
0
SPLINE
5
C3
100
AcDbEntity
8
1
62
256
6
ByLayer
370
18
48
1
60
0
100
AcDbSpline
70
4
71
3
72
18
73
14
40
0
40
0
40
0
40
0
40
0.0208878612903857
40
0.0208878612903857
40
0.18407321774199
40
0.18407321774199
40
0.347258574193595
40
0.347258574193595
40
0.673629287096797
40
0.673629287096797
40
0.8368146435484
40
0.8368146435484
40
1
40
1
40
1
40
1
41
1
10
8.43604946541976
20
-1.77789645080483
30
0
41
1
10
8.40914641205623
20
-1.78640510772334
30
0
41
1
10
8.38223258921695
20
-1.79484529642494
30
0
41
1
10
8.14496013478643
20
-1.86861929418998
30
-1E-16
41
1
10
7.93351417830985
20
-1.92985544475928
30
-1E-16
41
1
10
7.5110420642612
20
-2.04325024304828
30
-1E-16
41
1
10
7.30060268911421
20
-2.0949455531659
30
-1E-16
41
1
10
6.66966550396799
20
-2.23308820155293
30
0
41
1
10
6.24980271194701
20
-2.30332761187992
30
0
41
1
10
5.62109211041971
20
-2.37543453583709
30
0
41
1
10
5.41154587345082
20
-2.39370371229188
30
0
41
1
10
4.99062223037524
20
-2.41807536234376
30
0
41
1
10
4.77937373244532
20
-2.42426888187981
30
0
41
1
10
4.56706485281586
20
-2.42462915660997
30
0
0
SPLINE
5
C4
100
AcDbEntity
8
1
62
256
6
ByLayer
370
18
48
1
60
0
100
AcDbSpline
70
4
71
3
72
12
73
8
40
0
40
0
40
0
40
0
40
0.500000000000029
40
0.500000000000029
40
0.750000000000014
40
0.750000000000014
40
1
40
1
40
1
40
1
41
1
10
3.50204610488211
20
2.4021768681651
30
0
41
1
10
3.50204610488211
20
2.3792386631585
30
0
41
1
10
3.50985859914502
20
2.35594654365357
30
0
41
1
10
3.53529782756595
20
2.32663623814287
30
0
41
1
10
3.54608351309025
20
2.31795448750131
30
0
41
1
10
3.57214898183085
20
2.30534995718742
30
0
41
1
10
3.58731516134645
20
2.30164902571883
30
0
41
1
10
3.60292045779238
20
2.30178829820125
30
0
0
SPLINE
5
C5
100
AcDbEntity
8
1
62
256
6
ByLayer
370
18
48
1
60
0
100
AcDbSpline
70
4
71
3
72
8
73
4
40
0
40
0
40
0
40
0
40
1
40
1
40
1
40
1
41
1
10
3.63924538417362
20
2.30227193518499
30
0
41
1
10
3.62777336160193
20
2.3020728351901
30
0
41
1
10
3.61550306969645
20
2.30190084711003
30
0
41
1
10
3.60292045779238
20
2.30178829820125
30
0
0
SPLINE
5
C6
100
AcDbEntity
8
1
62
256
6
ByLayer
370
18
48
1
60
0
100
AcDbSpline
70
4
71
3
72
24
73
20
40
0
40
0
40
0
40
0
40
0.125
40
0.125
40
0.25
40
0.25
40
0.374999999999999
40
0.374999999999999
40
0.499999999999999
40
0.499999999999999
40
0.624999999999999
40
0.624999999999999
40
0.687499999999999
40
0.687499999999999
40
0.749999999999999
40
0.749999999999999
40
0.875
40
0.875
40
1
40
1
40
1
40
1
41
1
10
3.60292045779238
20
2.30178829820125
30
0
41
1
10
3.60290530403904
20
2.30480888285143
30
0
41
1
10
3.60288690054725
20
2.29685618941062
30
0
41
1
10
3.60284609161863
20
2.26004784616177
30
0
41
1
10
3.60282365626216
20
2.23131648865535
30
0
41
1
10
3.60277560078978
20
2.15331711639592
30
0
41
1
10
3.60274977340609
20
2.10353530142183
30
0
41
1
10
3.60269648077718
20
1.98534513271179
30
1E-16
41
1
10
3.60266880584243
20
1.91655607495289
30
1E-16
41
1
10
3.60261194914568
20
1.76171618135817
30
-1E-16
41
1
10
3.60258311247085
20
1.67668873573987
30
-1E-16
41
1
10
3.60253860012659
20
1.53809066727143
30
-1E-16
41
1
10
3.60252354877645
20
1.49003867942071
30
-1E-16
41
1
10
3.60249285279434
20
1.39017170411535
30
-1E-16
41
1
10
3.60247714058522
20
1.33812866063809
30
-1E-16
41
1
10
3.60242930215546
20
1.17784777351969
30
-1E-16
41
1
10
3.60239673313265
20
1.06635741749014
30
-1E-16
41
1
10
3.60232862363333
20
0.834409487493673
30
-1E-16
41
1
10
3.60229300623962
20
0.713671607652572
30
0
41
1
10
3.60225507718815
20
0.588824056171404
30
0
0
SPLINE
5
C7
100
AcDbEntity
8
1
62
256
6
ByLayer
370
18
48
1
60
0
100
AcDbSpline
70
4
71
3
72
36
73
32
40
0
40
0
40
0
40
0
40
0.0832535509295033
40
0.0832535509295033
40
0.124880326394255
40
0.124880326394255
40
0.166507101859007
40
0.166507101859007
40
0.208133877323758
40
0.208133877323758
40
0.24976065278851
40
0.24976065278851
40
0.333014203718015
40
0.333014203718015
40
0.499521305577029
40
0.499521305577029
40
0.541148081041784
40
0.541148081041784
40
0.582774856506539
40
0.582774856506539
40
0.666028407436048
40
0.666028407436048
40
0.749281958365558
40
0.749281958365558
40
0.790908733830314
40
0.790908733830314
40
0.83253550929507
40
0.83253550929507
40
0.999042611154101
40
0.999042611154101
40
1
40
1
40
1
40
1
41
1
10
44.9871308273734
20
-2.4201549606891
30
0
41
1
10
44.5536986288472
20
-2.38809056636049
30
0
41
1
10
44.1213681678348
20
-2.3309508745979
30
0
41
1
10
43.4713797627662
20
-2.20991455942126
30
-1E-16
41
1
10
43.2541625504406
20
-2.16359784845198
30
-1E-16
41
1
10
42.8202358051171
20
-2.0600135897854
30
-1E-16
41
1
10
42.6036816176296
20
-2.00280076617838
30
-1E-16
41
1
10
42.1707352269747
20
-1.87839067919654
30
-1E-16
41
1
10
41.9543414954099
20
-1.8111982429732
30
1E-16
41
1
10
41.5211411692032
20
-1.66763409378277
30
1E-16
41
1
10
41.3040504342052
20
-1.59115195379383
30
1E-16
41
1
10
40.6530619876578
20
-1.35011551057167
30
1E-16
41
1
10
40.2226819491398
20
-1.17507228376752
30
1E-16
41
1
10
38.9353436538898
20
-0.62123991799254
30
0
41
1
10
38.0822849489389
20
-0.213362581038012
30
0
41
1
10
36.9984105752141
20
0.293635169887295
30
0
41
1
10
36.7809486431489
20
0.394794951991457
30
0
41
1
10
36.3488138405274
20
0.593445194136763
30
0
41
1
10
36.1335182177885
20
0.691216991273024
30
0
41
1
10
35.4889517653722
20
0.977841638170077
30
-1E-16
41
1
10
35.0609989819528
20
1.15998693050767
30
-1E-16
41
1
10
34.2038514502922
20
1.49729519115016
30
-1E-16
41
1
10
33.7747355266936
20
1.65261008196381
30
-1E-16
41
1
10
33.1267699436567
20
1.85919693369331
30
1E-16
41
1
10
32.9094880985659
20
1.92379915065177
30
1E-16
41
1
10
32.4757326556442
20
2.0423971759061
30
1E-16
41
1
10
32.2597352010722
20
2.09626943467001
30
1E-16
41
1
10
31.182630458576
20
2.33732980508122
30
0
41
1
10
30.3303314196802
20
2.43921472567467
30
0
41
1
10
29.463826380632
20
2.44021221059043
30
0
41
1
10
29.4588722983993
20
2.44021459698862
30
0
41
1
10
29.453917910402
20
2.44021366609857
30
0
0
SPLINE
5
C8
100
AcDbEntity
8
1
62
256
6
ByLayer
370
18
48
1
60
0
100
AcDbSpline
70
4
71
3
72
28
73
24
40
0
40
0
40
0
40
0
40
0.0556595354743653
40
0.0556595354743653
40
0.17370209354007
40
0.17370209354007
40
0.291744651605774
40
0.291744651605774
40
0.409787209671478
40
0.409787209671478
40
0.468808488704331
40
0.468808488704331
40
0.527829767737183
40
0.527829767737183
40
0.586851046770036
40
0.586851046770036
40
0.645872325802889
40
0.645872325802889
40
0.763914883868593
40
0.763914883868593
40
0.881957441934296
40
0.881957441934296
40
1
40
1
40
1
40
1
41
1
10
14.5367894984226
20
-2.33868385264398
30
0
41
1
10
14.3344754712463
20
-2.36435578869893
30
0
41
1
10
14.1323531193253
20
-2.38470642678092
30
0
41
1
10
13.5013260065576
20
-2.43117707388603
30
0
41
1
10
13.0722331685372
20
-2.4382829565821
30
0
41
1
10
12.2089471437988
20
-2.40227459014289
30
0
41
1
10
11.7731695375102
20
-2.35876853009222
30
0
41
1
10
10.9057367181371
20
-2.22396065924806
30
0
41
1
10
10.4727696673036
20
-2.1328028737986
30
-1E-16
41
1
10
9.82086455627362
20
-1.96370729388164
30
-1E-16
41
1
10
9.60336542016938
20
-1.90199202092984
30
-1E-16
41
1
10
9.16941971393791
20
-1.76932841686099
30
1E-16
41
1
10
8.95268425199694
20
-1.69830250445068
30
1E-16
41
1
10
8.51911385796086
20
-1.54775456508764
30
1E-16
41
1
10
8.30227397090238
20
-1.46823882686473
30
1E-16
41
1
10
7.86785583860635
20
-1.30174797713963
30
1E-16
41
1
10
7.65012356026503
20
-1.21468732275645
30
1E-16
41
1
10
7.00071906198747
20
-0.94624349437683
30
1E-16
41
1
10
6.57087850551639
20
-0.757088381375212
30
0
41
1
10
5.71294958062026
20
-0.368003129693278
30
0
41
1
10
5.28491155865874
20
-0.167957419114543
30
0
41
1
10
4.42577016959308
20
0.232363132332694
30
0
41
1
10
3.99459816387051
20
0.432471487680488
30
0
41
1
10
3.55981045216518
20
0.628074565944104
30
0
0
SPLINE
5
C9
100
AcDbEntity
8
1
62
256
6
ByLayer
370
18
48
1
60
0
100
AcDbSpline
70
4
71
3
72
8
73
4
40
0
40
0
40
0
40
0
40
1
40
1
40
1
40
1
41
1
10
45.9964339441499
20
0.17392766594196
30
0
41
1
10
46.0011957045873
20
0.0578047120794452
30
0
41
1
10
46.0011816866516
20
-0.0581465612918919
30
0
41
1
10
45.9964339441505
20
-0.173927665929426
30
0
0
SPLINE
5
CA
100
AcDbEntity
8
1
62
256
6
ByLayer
370
18
48
1
60
0
100
AcDbSpline
70
4
71
3
72
36
73
32
40
0
40
0
40
0
40
0
40
0.0287487674680433
40
0.0287487674680433
40
0.0675988167693222
40
0.0675988167693222
40
0.145298915371879
40
0.145298915371879
40
0.222999013974435
40
0.222999013974435
40
0.300699112576992
40
0.300699112576992
40
0.33954916187827
40
0.33954916187827
40
0.378399211179548
40
0.378399211179548
40
0.456099309782105
40
0.456099309782105
40
0.533799408384661
40
0.533799408384661
40
0.611499506987218
40
0.611499506987218
40
0.650349556288496
40
0.650349556288496
40
0.689199605589774
40
0.689199605589774
40
0.766899704192331
40
0.766899704192331
40
0.844599802794887
40
0.844599802794887
40
1
40
1
40
1
40
1
41
1
10
8.41902247235345
20
1.78387742013351
30
-1E-16
41
1
10
8.54451491669158
20
1.82367674391321
30
0
41
1
10
8.67016897834728
20
1.86200995246889
30
1E-16
41
1
10
8.96624762729013
20
1.94830452237309
30
1E-16
41
1
10
9.13728985853345
20
1.99491337972088
30
1E-16
41
1
10
9.64951070831552
20
2.12487780213593
30
1E-16
41
1
10
9.98884117831724
20
2.19793750751276
30
1E-16
41
1
10
10.6654089709929
20
2.31518133057713
30
0
41
1
10
11.0030300399377
20
2.35911058141275
30
0
41
1
10
11.6782940569682
20
2.41707268172215
30
0
41
1
10
12.0159481807834
20
2.43098754298305
30
0
41
1
10
12.5246959607963
20
2.42855341892306
30
0
41
1
10
12.6946608218205
20
2.42388114124972
30
0
41
1
10
13.0354322836424
20
2.40671285157705
30
0
41
1
10
13.2065852059363
20
2.39416689367516
30
0
41
1
10
13.7178125868266
20
2.345174007232
30
0
41
1
10
14.0564574097048
20
2.29730538590039
30
0
41
1
10
14.7321979380621
20
2.17388233517332
30
1E-16
41
1
10
15.0690544249453
20
2.09815503623142
30
1E-16
41
1
10
15.7428956039118
20
1.92092528771033
30
1E-16
41
1
10
16.0801942827706
20
1.81984498404609
30
1E-16
41
1
10
16.5879210768278
20
1.65106780917949
30
-1E-16
41
1
10
16.757460929683
20
1.59194129747309
30
-1E-16
41
1
10
17.0974963377096
20
1.46846217143281
30
-1E-16
41
1
10
17.2682076055701
20
1.40381846832642
30
-1E-16
41
1
10
17.7802361749278
20
1.20388481086121
30
-1E-16
41
1
10
18.1195104054662
20
1.0631741831684
30
-1E-16
41
1
10
18.7954993295561
20
0.77033173898468
30
0
41
1
10
19.1322791677278
20
0.618315597384139
30
0
41
1
10
20.143311009463
20
0.154776099689343
30
0
41
1
10
20.8169806319649
20
-0.167022732948396
30
0
41
1
10
21.5000000000142
20
-0.480389733335585
30
0
0
SPLINE
5
CB
100
AcDbEntity
8
1
62
256
6
ByLayer
370
18
48
1
60
0
100
AcDbSpline
70
4
71
3
72
28
73
24
40
0
40
0
40
0
40
0
40
0.125000000000003
40
0.125000000000003
40
0.187500000000003
40
0.187500000000003
40
0.250000000000004
40
0.250000000000004
40
0.375000000000004
40
0.375000000000004
40
0.437500000000004
40
0.437500000000004
40
0.500000000000004
40
0.500000000000004
40
0.625000000000003
40
0.625000000000003
40
0.687500000000003
40
0.687500000000003
40
0.750000000000002
40
0.750000000000002
40
0.875000000000001
40
0.875000000000001
40
1
40
1
40
1
40
1
41
1
10
44.8474750295462
20
-0.100732659263855
30
0
41
1
10
44.8516277970696
20
-0.237345091133989
30
0
41
1
10
44.8610061047479
20
-0.371061914641786
30
0
41
1
10
44.8792782578505
20
-0.56778474462169
30
0
41
1
10
44.8860838109721
20
-0.632711809014609
30
0
41
1
10
44.900650679879
20
-0.761297072830729
30
0
41
1
10
44.9084478271635
20
-0.825228401131966
30
1E-16
41
1
10
44.9323878480719
20
-1.01304085924488
30
1E-16
41
1
10
44.9489033706546
20
-1.13212905396233
30
1E-16
41
1
10
44.9725839867755
20
-1.30204873214069
30
1E-16
41
1
10
44.9803064163208
20
-1.35722611662274
30
1E-16
41
1
10
44.9952054597899
20
-1.46461287678633
30
1E-16
41
1
10
45.0024122432662
20
-1.51705118560204
30
1E-16
41
1
10
45.0226820882498
20
-1.66722147491669
30
1E-16
41
1
10
45.0344308703687
20
-1.75837264095145
30
1E-16
41
1
10
45.0497235465963
20
-1.88189296101873
30
-1E-16
41
1
10
45.0544421472394
20
-1.92085236589603
30
-1E-16
41
1
10
45.063295461272
20
-1.99422640282685
30
-1E-16
41
1
10
45.0674431904031
20
-2.02874303410442
30
-1E-16
41
1
10
45.0791990397721
20
-2.12345253713056
30
0
41
1
10
45.0861650762764
20
-2.17549546071155
30
0
41
1
10
45.101558532916
20
-2.25774499977516
30
0
41
1
10
45.11004559314
20
-2.28801953083246
30
0
41
1
10
45.1212530305593
20
-2.30636403597219
30
0
0
SPLINE
5
CC
100
AcDbEntity
8
1
62
256
6
ByLayer
370
18
48
1
60
0
100
AcDbSpline
70
4
71
3
72
16
73
12
40
0
40
0
40
0
40
0
40
0.189667415939869
40
0.189667415939869
40
0.379334831879739
40
0.379334831879739
40
0.758669663759478
40
0.758669663759478
40
0.948337079699342
40
0.948337079699342
40
1
40
1
40
1
40
1
41
1
10
45.1485285514182
20
2.34866221703601
30
0
41
1
10
44.9019066698361
20
2.350672532224
30
0
41
1
10
44.6549503860769
20
2.34523775499966
30
0
41
1
10
44.1611753444173
20
2.31790262241745
30
0
41
1
10
43.9144175472165
20
2.29641030214896
30
0
41
1
10
43.1737145320518
20
2.20833766286904
30
0
41
1
10
42.6825566079515
20
2.1195058478101
30
1E-16
41
1
10
41.9456861092043
20
1.94579337129787
30
1E-16
41
1
10
41.6998729518121
20
1.88110906579797
30
1E-16
41
1
10
41.386704027123
20
1.79112368257768
30
0
41
1
10
41.3195980374859
20
1.77138278211845
30
0
41
1
10
41.2524552004636
20
1.75118780248215
30
-1E-16
0
SPLINE
5
CD
100
AcDbEntity
8
1
62
256
6
ByLayer
370
18
48
1
60
0
100
AcDbSpline
70
4
71
3
72
10
73
6
40
0
40
0
40
0
40
0
40
0.40130066888797
40
0.40130066888797
40
1
40
1
40
1
40
1
41
1
10
3.50763163560293
20
-2.4239806152699
30
0
41
1
10
3.51502608550024
20
-2.42397745319309
30
0
41
1
10
3.52940130695788
20
-2.42372162796838
30
0
41
1
10
3.5771928361992
20
-2.42310835910391
30
0
41
1
10
3.6143015368001
20
-2.4230414223199
30
0
41
1
10
3.64491617059261
20
-2.42340451660669
30
0
0
SPLINE
5
CE
100
AcDbEntity
8
1
62
256
6
ByLayer
370
18
48
1
60
0
100
AcDbSpline
70
4
71
3
72
8
73
4
40
0
40
0
40
0
40
0
40
1
40
1
40
1
40
1
41
1
10
44.9871308273693
20
2.42015496069047
30
0
41
1
10
44.9909267192633
20
2.4381066167366
30
0
41
1
10
44.9941869592386
20
2.44809679672841
30
0
41
1
10
44.9969986601074
20
2.44969867547957
30
0
0
SPLINE
5
CF
100
AcDbEntity
8
1
62
256
6
ByLayer
370
18
48
1
60
0
100
AcDbSpline
70
4
71
3
72
10
73
6
40
0
40
0
40
0
40
0
40
0.5
40
0.5
40
1
40
1
40
1
40
1
41
1
10
45.1512337366449
20
-2.3468376016919
30
0
41
1
10
45.1417531624557
20
-2.35340925938939
30
0
41
1
10
45.1334850382639
20
-2.35685724795152
30
0
41
1
10
45.1191620361496
20
-2.35746418001523
30
0
41
1
10
45.1130988790246
20
-2.35465634248052
30
0
41
1
10
45.1078037996111
20
-2.34895647072125
30
0
0
SPLINE
5
D0
100
AcDbEntity
8
1
62
256
6
ByLayer
370
18
48
1
60
0
100
AcDbSpline
70
4
71
3
72
16
73
12
40
0
40
0
40
0
40
0
40
0.226098063933726
40
0.226098063933726
40
0.454493155402744
40
0.454493155402744
40
0.651400488799689
40
0.651400488799689
40
0.825316981529311
40
0.825316981529311
40
1
40
1
40
1
40
1
41
1
10
45.1212530305591
20
-2.30636403597168
30
0
41
1
10
45.1213535433023
20
-2.30652855676851
30
0
41
1
10
45.1213979598712
20
-2.30687128164314
30
0
41
1
10
45.1213452697833
20
-2.30792590552375
30
0
41
1
10
45.1212446091641
20
-2.30866193377321
30
0
41
1
10
45.1209162883971
20
-2.31032373465311
30
0
41
1
10
45.1207023847331
20
-2.31123562377738
30
0
41
1
10
45.1202200297238
20
-2.3130520529202
30
0
41
1
10
45.119954686698
20
-2.31396852754469
30
0
41
1
10
45.119391947337
20
-2.31577998161023
30
0
41
1
10
45.1190877687102
20
-2.31669685644906
30
0
41
1
10
45.1187837554446
20
-2.31756292348294
30
0
0
SPLINE
5
D1
100
AcDbEntity
8
1
62
256
6
ByLayer
370
18
48
1
60
0
100
AcDbSpline
70
4
71
3
72
8
73
4
40
0
40
0
40
0
40
0
40
1
40
1
40
1
40
1
41
1
10
44.7867215927718
20
-0.0659753754586916
30
0
41
1
10
44.8053310691659
20
-0.0737293886817554
30
0
41
1
10
44.8238527691497
20
-0.0810339823310073
30
0
41
1
10
44.8422981185732
20
-0.0878970204749407
30
0
0
SPLINE
5
D2
100
AcDbEntity
8
1
62
256
6
ByLayer
370
18
48
1
60
0
100
AcDbSpline
70
4
71
3
72
10
73
6
40
0
40
0
40
0
40
0
40
0.5
40
0.5
40
1
40
1
40
1
40
1
41
1
10
3.50204610488211
20
2.42377064721617
30
0
41
1
10
3.50204610488214
20
2.42423148450681
30
0
41
1
10
3.51996732302035
20
2.42384268642178
30
0
41
1
10
3.57719283619963
20
2.42310835910391
30
0
41
1
10
3.61430153680021
20
2.4230414223199
30
0
41
1
10
3.64491617059261
20
2.42340451660669
30
0
0
SPLINE
5
D3
100
AcDbEntity
8
1
62
256
6
ByLayer
370
18
48
1
60
0
100
AcDbSpline
70
4
71
3
72
14
73
10
40
0
40
0
40
0
40
0
40
0.275786524342562
40
0.275786524342562
40
0.51333085008814
40
0.51333085008814
40
0.784767048267978
40
0.784767048267978
40
1
40
1
40
1
40
1
41
1
10
44.8422981185732
20
-0.0878970204749692
30
0
41
1
10
44.8430297168341
20
-0.0881692292932996
30
0
41
1
10
44.8437488082899
20
-0.0888143978976927
30
0
41
1
10
44.8449389975285
20
-0.0904706498924952
30
0
41
1
10
44.8454472403612
20
-0.0914412520124586
30
0
41
1
10
44.8463744076185
20
-0.0937991898852317
30
0
41
1
10
44.8467850853793
20
-0.0952631460057773
30
0
41
1
10
44.8472885844508
20
-0.0980645936053293
30
0
41
1
10
44.8474344926049
20
-0.0993991268427123
30
0
41
1
10
44.8474750295462
20
-0.100732659263883
30
0
0
SPLINE
5
D4
100
AcDbEntity
8
1
62
256
6
ByLayer
370
18
48
1
60
0
100
AcDbSpline
70
4
71
3
72
12
73
8
40
0
40
0
40
0
40
0
40
0.454095733591003
40
0.454095733591003
40
0.908191467182005
40
0.908191467182005
40
1
40
1
40
1
40
1
41
1
10
45.0227861086784
20
0.365376185213989
30
0
41
1
10
44.9975155334181
20
0.385665505235465
30
0
41
1
10
44.9742772935428
20
0.403372307493214
30
0
41
1
10
44.9336572864792
20
0.431344008049479
30
0
41
1
10
44.9161624225681
20
0.441730584634172
30
0
41
1
10
44.899352230339
20
0.449417916785393
30
0
41
1
10
44.8965461733243
20
0.450686262071201
30
0
41
1
10
44.8938472132636
20
0.451829907528691
30
0
0
SPLINE
5
D5
100
AcDbEntity
8
1
62
256
6
ByLayer
370
18
48
1
60
0
100
AcDbSpline
70
4
71
3
72
22
73
18
40
0
40
0
40
0
40
0
40
0.175808731209716
40
0.175808731209716
40
0.263713096814573
40
0.263713096814573
40
0.35161746241943
40
0.35161746241943
40
0.527426193629146
40
0.527426193629146
40
0.703234924838861
40
0.703234924838861
40
0.879043656048576
40
0.879043656048576
40
0.966948021653434
40
0.966948021653434
40
1
40
1
40
1
40
1
41
1
10
45.1187837554314
20
-2.31756292348217
30
0
41
1
10
44.6838262489764
20
-2.29149139380613
30
0
41
1
10
44.2504513712518
20
-2.24203152865528
30
0
41
1
10
43.5999319046767
20
-2.13297011048977
30
0
41
1
10
43.3830171891672
20
-2.09098617738505
30
-1E-16
41
1
10
42.9484757307016
20
-1.99619926417776
30
-1E-16
41
1
10
42.7303667932372
20
-1.94325475807537
30
-1E-16
41
1
10
42.0777844487632
20
-1.76999984525136
30
1E-16
41
1
10
41.6462911515655
20
-1.63570947038283
30
1E-16
41
1
10
40.7860049545351
20
-1.33768681189809
30
1E-16
41
1
10
40.3571978490949
20
-1.17394933321666
30
1E-16
41
1
10
39.4982019435587
20
-0.825508505031365
30
1E-16
41
1
10
39.0679050529064
20
-0.640763763413048
30
0
41
1
10
38.4181282308984
20
-0.354550614108632
30
0
41
1
10
38.2002788365282
20
-0.257450728408941
30
0
41
1
10
37.9007297074216
20
-0.123434414582732
30
0
41
1
10
37.8190031450414
20
-0.0868196000331807
30
0
41
1
10
37.7373883212529
20
-0.0502449582305928
30
0
0
SPLINE
5
D6
100
AcDbEntity
8
1
62
256
6
ByLayer
370
18
48
1
60
0
100
AcDbSpline
70
4
71
3
72
10
73
6
40
0
40
0
40
0
40
0
40
0.93826721122247
40
0.93826721122247
40
1
40
1
40
1
40
1
41
1
10
13.3889781221141
20
-2.31406152185767
30
0
41
1
10
13.3724434174471
20
-2.3144621028772
30
0
41
1
10
13.3559149595494
20
-2.31482721649334
30
0
41
1
10
13.3383068336673
20
-2.31517844203998
30
0
41
1
10
13.3372198542485
20
-2.31519997176073
30
0
41
1
10
13.3361328940921
20
-2.31522134908806
30
0
0
SPLINE
5
D7
100
AcDbEntity
8
1
62
256
6
ByLayer
370
18
48
1
60
0
100
AcDbSpline
70
4
71
3
72
16
73
12
40
0
40
0
40
0
40
0
40
0.0768033209106076
40
0.0768033209106076
40
0.206320014461018
40
0.206320014461018
40
0.724386788662662
40
0.724386788662662
40
0.983420175763483
40
0.983420175763483
40
1
40
1
40
1
40
1
41
1
10
9.83744514114289
20
-1.87536219994132
30
-1E-16
41
1
10
9.70877293988104
20
-1.84172092277589
30
-1E-16
41
1
10
9.57985814682127
20
-1.8063009320748
30
-1E-16
41
1
10
9.23274220372485
20
-1.70652807165817
30
1E-16
41
1
10
9.01434992600656
20
-1.63908482658889
30
1E-16
41
1
10
7.92877561938982
20
-1.2834026036148
30
1E-16
41
1
10
7.07152043740965
20
-0.937101514471749
30
1E-16
41
1
10
5.77676102878811
20
-0.378955037082107
30
0
41
1
10
5.34378105987707
20
-0.186195150171699
30
0
41
1
10
4.87920003087663
20
0.0203778509667245
30
0
41
1
10
4.85125651875617
20
0.0328002873190769
30
0
41
1
10
4.82331638967446
20
0.0452172729157496
30
0
0
SPLINE
5
D8
100
AcDbEntity
8
1
62
256
6
ByLayer
370
18
48
1
60
0
100
AcDbSpline
70
4
71
3
72
8
73
4
40
0
40
0
40
0
40
0
40
1
40
1
40
1
40
1
41
1
10
45.9964339441499
20
0.17392766594196
30
0
41
1
10
45.9830304453897
20
0.128601439260251
30
0
41
1
10
45.9695438191883
20
0.0833021149673527
30
0
41
1
10
45.9559744565173
20
0.0380295665338508
30
0
0
SPLINE
5
D9
100
AcDbEntity
8
1
62
256
6
ByLayer
370
18
48
1
60
0
100
AcDbSpline
70
4
71
3
72
20
73
16
40
0
40
0
40
0
40
0
40
0.357895532790696
40
0.357895532790696
40
0.602540027757347
40
0.602540027757347
40
0.76607016672432
40
0.76607016672432
40
0.875397824964055
40
0.875397824964055
40
0.948498213600455
40
0.948498213600455
40
0.99737977900616
40
0.99737977900616
40
1
40
1
40
1
40
1
41
1
10
44.9969986601074
20
-2.4496986754796
30
0
41
1
10
45.0135458596869
20
-2.43880984009019
30
0
41
1
10
45.0301096789827
20
-2.42786083271056
30
0
41
1
10
45.0580264926745
20
-2.40932703729951
30
0
41
1
10
45.069370068796
20
-2.40177386967662
30
0
41
1
10
45.0883113822304
20
-2.38912558108726
30
0
41
1
10
45.0959041500891
20
-2.38404575127944
30
0
41
1
10
45.1085801732523
20
-2.37554922782113
30
0
41
1
10
45.1136610914984
20
-2.37213934032249
30
0
41
1
10
45.1221425749618
20
-2.36644031203124
30
0
41
1
10
45.1255420609456
20
-2.36415420376972
30
0
41
1
10
45.1312162472693
20
-2.36033530808305
30
0
41
1
10
45.1334904547782
20
-2.35880387327191
30
0
41
1
10
45.1358869948183
20
-2.35718919658871
30
0
41
1
10
45.1360089254094
20
-2.35710704310685
30
0
41
1
10
45.1361308586928
20
-2.35702488546181
30
0
0
SPLINE
5
DA
100
AcDbEntity
8
1
62
256
6
ByLayer
370
18
48
1
60
0
100
AcDbSpline
70
4
71
3
72
8
73
4
40
0
40
0
40
0
40
0
40
1
40
1
40
1
40
1
41
1
10
44.9871308273693
20
-2.42015496069047
30
0
41
1
10
44.9909267192633
20
-2.43810661673663
30
0
41
1
10
44.9941869592386
20
-2.44809679672841
30
0
41
1
10
44.9969986601074
20
-2.44969867547957
30
0
0
SPLINE
5
DB
100
AcDbEntity
8
1
62
256
6
ByLayer
370
18
48
1
60
0
100
AcDbSpline
70
4
71
3
72
8
73
4
40
0
40
0
40
0
40
0
40
1
40
1
40
1
40
1
41
1
10
44.9871308273721
20
2.42015496068689
30
0
41
1
10
45.0272761305717
20
2.39678290104578
30
0
41
1
10
45.0674969441723
20
2.37304719203462
30
0
41
1
10
45.1078037996109
20
2.34895647072136
30
0
0
SPLINE
5
DC
100
AcDbEntity
8
1
62
256
6
ByLayer
370
18
48
1
60
0
100
AcDbSpline
70
4
71
3
72
8
73
4
40
0
40
0
40
0
40
0
40
1
40
1
40
1
40
1
41
1
10
45.118783755443
20
-2.31756292348757
30
0
41
1
10
45.1151103422386
20
-2.32802767104627
30
0
41
1
10
45.1114502643833
20
-2.33849215816434
30
0
41
1
10
45.1078037996111
20
-2.34895647072139
30
0
0
SPLINE
5
DD
100
AcDbEntity
8
1
62
256
6
ByLayer
370
18
48
1
60
0
100
AcDbSpline
70
4
71
3
72
24
73
20
40
0
40
0
40
0
40
0
40
0.104651075743893
40
0.104651075743893
40
0.180156677287021
40
0.180156677287021
40
0.255662278830149
40
0.255662278830149
40
0.406673481916403
40
0.406673481916403
40
0.557684685002657
40
0.557684685002657
40
0.708695888088911
40
0.708695888088911
40
0.859707091175166
40
0.859707091175166
40
0.93521269271829
40
0.93521269271829
40
1
40
1
40
1
40
1
41
1
10
20.8777322559624
20
0.18685376769136
30
0
41
1
10
21.1766855967771
20
0.0544702826094579
30
0
41
1
10
21.4761836391644
20
-0.0792022957562324
30
0
41
1
10
21.9940452228676
20
-0.308334949300587
30
0
41
1
10
22.2121694152553
20
-0.404362383150584
30
0
41
1
10
22.6480839893911
20
-0.593682072755627
30
0
41
1
10
22.8657120870519
20
-0.686837770707427
30
0
41
1
10
23.5182973878335
20
-0.960159698928464
30
1E-16
41
1
10
23.9533378068082
20
-1.13434130006127
30
1E-16
41
1
10
24.8253577235259
20
-1.45611053596525
30
1E-16
41
1
10
25.2573650773166
20
-1.60191590606948
30
1E-16
41
1
10
26.1181541119205
20
-1.85689352120082
30
-1E-16
41
1
10
26.5466794226711
20
-1.96611814588886
30
-1E-16
41
1
10
27.4045420195077
20
-2.14313080933607
30
0
41
1
10
27.8338086751746
20
-2.21033427115964
30
0
41
1
10
28.4815161160768
20
-2.27740445163684
30
0
41
1
10
28.6980373689148
20
-2.29385613568783
30
0
41
1
10
29.1020061989788
20
-2.31325622169715
30
0
41
1
10
29.2893139446289
20
-2.31781881642388
30
0
41
1
10
29.4758750403035
20
-2.3179690054275
30
0
0
SPLINE
5
DE
100
AcDbEntity
8
1
62
256
6
ByLayer
370
18
48
1
60
0
100
AcDbSpline
70
4
71
3
72
8
73
4
40
0
40
0
40
0
40
0
40
1
40
1
40
1
40
1
41
1
10
3.64328540896861
20
2.31205171331476
30
0
41
1
10
3.63054291562349
20
2.31183844152403
30
0
41
1
10
3.61690695572946
20
2.31165890858841
30
0
41
1
10
3.60292045779238
20
2.31154600268053
30
0
0
SPLINE
5
DF
100
AcDbEntity
8
1
62
256
6
ByLayer
370
18
48
1
60
0
100
AcDbSpline
70
4
71
3
72
10
73
6
40
0
40
0
40
0
40
0
40
0.684924389678163
40
0.684924389678163
40
1
40
1
40
1
40
1
41
1
10
7.76499791963164
20
-1.53298085493663
30
0
41
1
10
7.02851136354317
20
-1.73318811272676
30
0
41
1
10
6.2962592170345
20
-1.93655493354936
30
0
41
1
10
5.23351085537291
20
-2.23553273984837
30
0
41
1
10
4.89972550284742
20
-2.32998942911576
30
0
41
1
10
4.56695382178265
20
-2.42459936037687
30
0
0
SPLINE
5
E0
100
AcDbEntity
8
1
62
256
6
ByLayer
370
18
48
1
60
0
100
AcDbSpline
70
4
71
3
72
28
73
24
40
0
40
0
40
0
40
0
40
0.0358085560157009
40
0.0358085560157009
40
0.107415577200411
40
0.107415577200411
40
0.250629619569827
40
0.250629619569827
40
0.393843661939247
40
0.393843661939247
40
0.537057704308667
40
0.537057704308667
40
0.680271746678087
40
0.680271746678087
40
0.751878767862796
40
0.751878767862796
40
0.823485789047506
40
0.823485789047506
40
0.895092810232214
40
0.895092810232214
40
0.966699831416924
40
0.966699831416924
40
1
40
1
40
1
40
1
41
1
10
29.0783725157076
20
-0.35905121487508
30
0
41
1
10
28.9702041806263
20
-0.311506385905176
30
0
41
1
10
28.8620543343276
20
-0.263683368215538
30
0
41
1
10
28.5387248583341
20
-0.11996070862557
30
0
41
1
10
28.3239318055874
20
-0.0241377303146919
30
0
41
1
10
27.6809528709639
20
0.261483227451094
30
0
41
1
10
27.2549661131194
20
0.450646868058754
30
0
41
1
10
26.4028527862887
20
0.815153372921912
30
0
41
1
10
25.977151485841
20
0.991022306169725
30
-1E-16
41
1
10
25.1218032517666
20
1.32057859623472
30
-1E-16
41
1
10
24.6918792912494
20
1.47441369896939
30
-1E-16
41
1
10
23.8259554283475
20
1.7506546811039
30
-1E-16
41
1
10
23.3950667578243
20
1.8710387485059
30
1E-16
41
1
10
22.7473521848889
20
2.0219102071747
30
1E-16
41
1
10
22.5314045731133
20
2.06694788669643
30
1E-16
41
1
10
22.0986723757577
20
2.14620536900375
30
0
41
1
10
21.882542437943
20
2.18056990301011
30
0
41
1
10
21.4520446869141
20
2.23759484761717
30
0
41
1
10
21.2375647859898
20
2.26004970145868
30
0
41
1
10
20.8092372906706
20
2.29346309934024
30
0
41
1
10
20.5953020911085
20
2.30466030161165
30
0
41
1
10
20.2820341471936
20
2.31251022654601
30
0
41
1
10
20.1826600143266
20
2.31358019959359
30
0
41
1
10
20.0832923289373
20
2.31334190734435
30
0
0
SPLINE
5
E1
100
AcDbEntity
8
1
62
256
6
ByLayer
370
18
48
1
60
0
100
AcDbSpline
70
4
71
3
72
56
73
52
40
0
40
0
40
0
40
0
40
0.0780948373527877
40
0.0780948373527877
40
0.117142256029181
40
0.117142256029181
40
0.156189674705574
40
0.156189674705574
40
0.195237093381968
40
0.195237093381968
40
0.234284512058361
40
0.234284512058361
40
0.273331930734754
40
0.273331930734754
40
0.312379349411147
40
0.312379349411147
40
0.351426768087541
40
0.351426768087541
40
0.390474186763934
40
0.390474186763934
40
0.429521605440328
40
0.429521605440328
40
0.468569024116721
40
0.468569024116721
40
0.507616442793114
40
0.507616442793114
40
0.546663861469507
40
0.546663861469507
40
0.585711280145901
40
0.585711280145901
40
0.624758698822294
40
0.624758698822294
40
0.663806117498687
40
0.663806117498687
40
0.702853536175081
40
0.702853536175081
40
0.741900954851474
40
0.741900954851474
40
0.780948373527867
40
0.780948373527867
40
0.81999579220426
40
0.81999579220426
40
0.859043210880654
40
0.859043210880654
40
0.898090629557047
40
0.898090629557047
40
0.93713804823344
40
0.93713804823344
40
0.976185466909834
40
0.976185466909834
40
1
40
1
40
1
40
1
41
1
10
3.64491617059261
20
2.42340451660669
30
0
41
1
10
4.07492510656706
20
2.42850448902459
30
0
41
1
10
4.50478165037345
20
2.40794997560889
30
0
41
1
10
5.15108619971343
20
2.3413246507819
30
0
41
1
10
5.36687530640941
20
2.31310172125023
30
0
41
1
10
5.7987076437517
20
2.24467430522628
30
0
41
1
10
6.01342165104742
20
2.20447928263607
30
1E-16
41
1
10
6.44181003056698
20
2.11348306337584
30
1E-16
41
1
10
6.65557979887041
20
2.06283361160317
30
1E-16
41
1
10
7.08220832340962
20
1.9513366864565
30
1E-16
41
1
10
7.2950773366754
20
1.89046495573518
30
1E-16
41
1
10
7.72093975198456
20
1.75990594021405
30
-1E-16
41
1
10
7.9339361055051
20
1.69025525091274
30
-1E-16
41
1
10
8.36009860661497
20
1.54224375935033
30
-1E-16
41
1
10
8.57325275893476
20
1.46382750762055
30
-1E-16
41
1
10
9.00081480526342
20
1.30000628722118
30
-1E-16
41
1
10
9.21524109043145
20
1.21467248824246
30
-1E-16
41
1
10
9.64543841772945
20
1.03710766999492
30
-1E-16
41
1
10
9.86156122558884
20
0.944625760303353
30
-1E-16
41
1
10
10.2913907094508
20
0.756871337730672
30
0
41
1
10
10.505665070465
20
0.661451632418988
30
0
41
1
10
10.933000131655
20
0.467679391994722
30
0
41
1
10
11.146033048604
20
0.369264917062736
30
0
41
1
10
11.5719040634217
20
0.17173913488449
30
0
41
1
10
11.7847698565261
20
0.0726896927771179
30
0
41
1
10
12.2104234555044
20
-0.125846099180166
30
0
41
1
10
12.4231839429468
20
-0.225393595273914
30
0
41
1
10
12.8496031105787
20
-0.422775725366051
30
0
41
1
10
13.0632878747244
20
-0.520551798763393
30
0
41
1
10
13.4917198605284
20
-0.714029426832695
30
0
41
1
10
13.7064403074232
20
-0.809791343392902
30
0
41
1
10
14.1379843069775
20
-0.996939959764973
30
1E-16
41
1
10
14.3536039714493
20
-1.08773129208296
30
1E-16
41
1
10
14.7839199528551
20
-1.26383527630847
30
1E-16
41
1
10
14.9987225054697
20
-1.34909774394367
30
1E-16
41
1
10
15.4289892891323
20
-1.51158034136492
30
1E-16
41
1
10
15.6443253837222
20
-1.58905697035604
30
1E-16
41
1
10
16.0754397321832
20
-1.73633325185747
30
1E-16
41
1
10
16.2910759026033
20
-1.80593964319579
30
1E-16
41
1
10
16.7217093717026
20
-1.93457806111462
30
-1E-16
41
1
10
16.9368505122163
20
-1.99396508742652
30
-1E-16
41
1
10
17.3668557689655
20
-2.10272994769332
30
-1E-16
41
1
10
17.5817871223589
20
-2.15198287383967
30
-1E-16
41
1
10
18.0128448631971
20
-2.23885686086283
30
0
41
1
10
18.2289132454144
20
-2.2767210193542
30
0
41
1
10
18.6594596589522
20
-2.34066906510901
30
0
41
1
10
18.8743016590531
20
-2.36671116815492
30
0
41
1
10
19.3045414905325
20
-2.40631570679111
30
0
41
1
10
19.5196938237677
20
-2.42003646349107
30
0
41
1
10
19.8662437219399
20
-2.43216580765042
30
0
41
1
10
19.9977596228995
20
-2.43442819363753
30
0
41
1
10
20.1291934509237
20
-2.43436712975739
30
0
0
SPLINE
5
E2
100
AcDbEntity
8
1
62
256
6
ByLayer
370
18
48
1
60
0
100
AcDbSpline
70
4
71
3
72
30
73
26
40
0
40
0
40
0
40
0
40
0.0105540058634353
40
0.0105540058634353
40
0.0765170721392038
40
0.0765170721392038
40
0.142480138414972
40
0.142480138414972
40
0.20844320469074
40
0.20844320469074
40
0.34036933724228
40
0.34036933724228
40
0.40633240351805
40
0.40633240351805
40
0.47229546979382
40
0.47229546979382
40
0.604221602345363
40
0.604221602345363
40
0.736147734896906
40
0.736147734896906
40
0.80211080117268
40
0.80211080117268
40
0.868073867448454
40
0.868073867448454
40
1
40
1
40
1
40
1
41
1
10
35.047638307527
20
2.35297546975576
30
0
41
1
10
35.0816657074403
20
2.35730905589952
30
0
41
1
10
35.1156986570035
20
2.36149175483737
30
0
41
1
10
35.3624949607147
20
2.39071077263719
30
0
41
1
10
35.575616485541
20
2.40995107497213
30
0
41
1
10
36.0025638018247
20
2.43641957956947
30
0
41
1
10
36.2162928037923
20
2.44363020756046
30
0
41
1
10
36.645317441523
20
2.44538846369954
30
0
41
1
10
36.8613097670462
20
2.4399108345018
30
0
41
1
10
37.5057896648838
20
2.40517215406871
30
0
41
1
10
37.9326958233353
20
2.35781008523946
30
0
41
1
10
38.5705742479762
20
2.25177542157374
30
0
41
1
10
38.7827602063483
20
2.21050666152311
30
1E-16
41
1
10
39.2075526876316
20
2.11725121303519
30
1E-16
41
1
10
39.4202064549236
20
2.06535620302267
30
1E-16
41
1
10
40.0592677210391
20
1.89436193155066
30
1E-16
41
1
10
40.4868021027128
20
1.75994741243346
30
-1E-16
41
1
10
41.3490039825605
20
1.45481885869339
30
-1E-16
41
1
10
41.778014242017
20
1.28583695323815
30
-1E-16
41
1
10
42.4222749782989
20
1.01563019869505
30
-1E-16
41
1
10
42.63708131273
20
0.922596638336159
30
-1E-16
41
1
10
43.0675765361396
20
0.732093708422781
30
0
41
1
10
43.2832708707146
20
0.634692010563384
30
0
41
1
10
43.9283793042756
20
0.339085651159337
30
0
41
1
10
44.3569943004306
20
0.136556740912567
30
0
41
1
10
44.7867215927719
20
-0.06597537545872
30
0
0
SPLINE
5
E3
100
AcDbEntity
8
1
62
256
6
ByLayer
370
18
48
1
60
0
100
AcDbSpline
70
4
71
3
72
57
73
53
40
0
40
0
40
0
40
0
40
0.124999999999985
40
0.124999999999985
40
0.187499999999978
40
0.187499999999978
40
0.24999999999997
40
0.24999999999997
40
0.312499999999963
40
0.312499999999963
40
0.343749999999959
40
0.343749999999959
40
0.374999999999955
40
0.374999999999955
40
0.406249999999952
40
0.406249999999952
40
0.437499999999948
40
0.437499999999948
40
0.453124999999946
40
0.453124999999946
40
0.468749999999945
40
0.484374999999943
40
0.484374999999943
40
0.499999999999941
40
0.499999999999941
40
0.531249999999939
40
0.531249999999939
40
0.562499999999937
40
0.562499999999937
40
0.624999999999932
40
0.624999999999932
40
0.687499999999927
40
0.687499999999927
40
0.749999999999922
40
0.749999999999922
40
0.765624999999922
40
0.765624999999922
40
0.769531249999922
40
0.769531249999922
40
0.773437499999922
40
0.773437499999922
40
0.781249999999925
40
0.781249999999925
40
0.789062499999928
40
0.789062499999928
40
0.796874999999931
40
0.796874999999931
40
0.812499999999937
40
0.812499999999937
40
0.874999999999958
40
0.874999999999958
40
1
40
1
40
1
40
1
41
1
10
4.56684865910671
20
-2.42462952764655
30
0
41
1
10
4.27403129384561
20
-2.42512928527719
30
0
41
1
10
3.98638675980723
20
-2.41464722669781
30
0
41
1
10
3.56570934468169
20
-2.37402043291848
30
0
41
1
10
3.42730032404216
20
-2.35628049844038
30
0
41
1
10
3.15516453874099
20
-2.30963088552789
30
0
41
1
10
3.02074058572686
20
-2.28058651695065
30
0
41
1
10
2.76196972312661
20
-2.20731556625165
30
-1E-16
41
1
10
2.63799860449311
20
-2.16340191876734
30
-1E-16
41
1
10
2.46432428544057
20
-2.08082704164139
30
-1E-16
41
1
10
2.40850460910698
20
-2.05048437163379
30
-1E-16
41
1
10
2.30239878879433
20
-1.98225467392476
30
-1E-16
41
1
10
2.25224696976983
20
-1.94436719149468
30
-1E-16
41
1
10
2.16239709278557
20
-1.86066738088653
30
-1E-16
41
1
10
2.12202653362371
20
-1.81419167676222
30
-1E-16
41
1
10
2.05634262248105
20
-1.71215839252614
30
1E-16
41
1
10
2.0312635388841
20
-1.65720519061415
30
1E-16
41
1
10
2.00805993158758
20
-1.5675135700817
30
1E-16
41
1
10
2.00273336932597
20
-1.5360859790951
30
1E-16
41
1
10
1.99767767030329
20
-1.472318834628
30
1E-16
41
1
10
1.99809362486468
20
-1.40770636379421
30
1E-16
41
1
10
2.0091737995628
20
-1.34146900336867
30
1E-16
41
1
10
2.02549721275932
20
-1.27444541240601
30
1E-16
41
1
10
2.03636874272866
20
-1.24039741157898
30
1E-16
41
1
10
2.07545395621332
20
-1.1400188784076
30
1E-16
41
1
10
2.11040092567291
20
-1.07423889512441
30
1E-16
41
1
10
2.1932893020834
20
-0.946208835454286
30
1E-16
41
1
10
2.24032079465425
20
-0.885196540832595
30
1E-16
41
1
10
2.39348462812762
20
-0.708715953481374
30
0
41
1
10
2.51243651657336
20
-0.599130666397627
30
0
41
1
10
2.76109075149253
20
-0.397896889051168
30
0
41
1
10
2.89199207156625
20
-0.305120205782856
30
0
41
1
10
3.16245902188513
20
-0.129980803813027
30
0
41
1
10
3.30234362397721
20
-0.0475816887567646
30
0
41
1
10
3.48007466356637
20
0.0498176940992607
30
0
41
1
10
3.51576950660592
20
0.0690169816758441
30
0
41
1
10
3.56056058814764
20
0.0926882124757924
30
0
41
1
10
3.56960406105608
20
0.0973905774515345
30
0
41
1
10
3.58881265621889
20
0.103657441115217
30
0
41
1
10
3.59864460461057
20
0.105421467846639
30
0
41
1
10
3.62858568408879
20
0.108035978576424
30
0
41
1
10
3.64874480598024
20
0.105706546510021
30
0
41
1
10
3.68755163590708
20
0.0959290110095878
30
0
41
1
10
3.70660790592169
20
0.089111689039413
30
0
41
1
10
3.74492449075015
20
0.0768019179650992
30
0
41
1
10
3.76406428756513
20
0.0705881605971399
30
0
41
1
10
3.82143516711403
20
0.0517986963593273
30
0
41
1
10
3.85961407047284
20
0.0390609682717695
30
0
41
1
10
4.05014804597931
20
-0.0256532137928502
30
0
41
1
10
4.20146777323203
20
-0.0807340949793911
30
0
41
1
10
4.65146362209691
20
-0.25442319169187
30
0
41
1
10
4.94665417884056
20
-0.381757531980526
30
0
41
1
10
5.23805195741505
20
-0.515627003620352
30
0
0
SPLINE
5
E4
100
AcDbEntity
8
1
62
256
6
ByLayer
370
18
48
1
60
0
100
AcDbSpline
70
4
71
3
72
8
73
4
40
0
40
0
40
0
40
0
40
1
40
1
40
1
40
1
41
1
10
45.3701387277303
20
0.684690557652857
30
0
41
1
10
45.5118945406813
20
0.704817489415404
30
0
41
1
10
45.6531295380075
20
0.729989549550226
30
0
41
1
10
45.7920680720069
20
0.7641542328779
30
0
0
SPLINE
5
E5
100
AcDbEntity
8
1
62
256
6
ByLayer
370
18
48
1
60
0
100
AcDbSpline
70
4
71
3
72
16
73
12
40
0
40
0
40
0
40
0
40
0.188700670863903
40
0.188700670863903
40
0.391525503147927
40
0.391525503147927
40
0.594350335431951
40
0.594350335431951
40
0.797175167715976
40
0.797175167715976
40
1
40
1
40
1
40
1
41
1
10
44.8811951658817
20
0.439925534011451
30
0
41
1
10
44.8968729823643
20
0.455361446408375
30
0
41
1
10
44.9158463512949
20
0.472115063361855
30
0
41
1
10
44.9621952951179
20
0.509271217556858
30
0
41
1
10
44.9898479927732
20
0.52995745438173
30
0
41
1
10
45.0510716941594
20
0.570557384705239
30
0
41
1
10
45.0855491908839
20
0.590914704586623
30
0
41
1
10
45.1597649914593
20
0.626897712464825
30
0
41
1
10
45.1991783372963
20
0.642649421709422
30
0
41
1
10
45.2826593393219
20
0.668592451467987
30
0
41
1
10
45.3260561701706
20
0.678431578853719
30
0
41
1
10
45.3701387277303
20
0.684690557652885
30
0
0
SPLINE
5
E6
100
AcDbEntity
8
1
62
256
6
ByLayer
370
18
48
1
60
0
100
AcDbSpline
70
4
71
3
72
12
73
8
40
0
40
0
40
0
40
0
40
0.25
40
0.25
40
0.5
40
0.5
40
1
40
1
40
1
40
1
41
1
10
3.60292045779238
20
2.31154600268053
30
0
41
1
10
3.58730696852609
20
2.31141996289642
30
0
41
1
10
3.57213609596454
20
2.31477179340715
30
0
41
1
10
3.54607312212454
20
2.32617102321922
30
0
41
1
10
3.53529310192201
20
2.33401660430238
30
0
41
1
10
3.50986414315688
20
2.36048318152467
30
0
41
1
10
3.50204610488211
20
2.38149597923666
30
0
41
1
10
3.50204610488211
20
2.4021768681651
30
0
0
SPLINE
5
E7
100
AcDbEntity
8
1
62
256
6
ByLayer
370
18
48
1
60
0
100
AcDbSpline
70
4
71
3
72
12
73
8
40
0
40
0
40
0
40
0
40
0.25
40
0.25
40
0.5
40
0.5
40
1
40
1
40
1
40
1
41
1
10
45.0227861086787
20
0.365376185213904
30
0
41
1
10
45.0025225815904
20
0.362487442090554
30
0
41
1
10
44.9823028777994
20
0.358222514901996
30
0
41
1
10
44.9420240640939
20
0.348246861265494
30
0
41
1
10
44.9219613993802
20
0.342454044497202
30
0
41
1
10
44.8621531491608
20
0.321378997329134
30
0
41
1
10
44.8226934219753
20
0.302956596042776
30
0
41
1
10
44.7846754093993
20
0.279796770747907
30
0
0
SPLINE
5
E8
100
AcDbEntity
8
1
62
256
6
ByLayer
370
18
48
1
60
0
100
AcDbSpline
70
4
71
3
72
18
73
14
40
0
40
0
40
0
40
0
40
0.249999999999993
40
0.249999999999993
40
0.37499999999999
40
0.37499999999999
40
0.499999999999987
40
0.499999999999987
40
0.749999999999989
40
0.749999999999989
40
0.874999999999994
40
0.874999999999994
40
1
40
1
40
1
40
1
41
1
10
45.1512337366445
20
2.34683760169233
30
0
41
1
10
45.1992394207711
20
2.21039263717117
30
0
41
1
10
45.2466927586341
20
2.07302751536244
30
0
41
1
10
45.317911442436
20
1.86627393136021
30
0
41
1
10
45.3416395371374
20
1.79728121014264
30
0
41
1
10
45.3891892775875
20
1.65920369324723
30
0
41
1
10
45.4136097708055
20
1.58982418840759
30
0
41
1
10
45.4892817602709
20
1.3848998533303
30
0
41
1
10
45.5428544961666
20
1.25239307965057
30
0
41
1
10
45.6311336266841
20
1.06069583730533
30
0
41
1
10
45.6620531452081
20
0.997686186094285
30
0
41
1
10
45.7255682575201
20
0.877250311668377
30
0
41
1
10
45.7582893002256
20
0.819525808843224
30
0
41
1
10
45.7920680720072
20
0.764154232878127
30
0
0
SPLINE
5
E9
100
AcDbEntity
8
1
62
256
6
ByLayer
370
18
48
1
60
0
100
AcDbSpline
70
4
71
3
72
8
73
4
40
0
40
0
40
0
40
0
40
1
40
1
40
1
40
1
41
1
10
45.5208790889972
20
-0.395885133476924
30
0
41
1
10
45.3855776843209
20
-0.170079661231284
30
0
41
1
10
45.2207933165457
20
0.0825403161847191
30
0
41
1
10
45.0227861086787
20
0.365376185213876
30
0
0
SPLINE
5
EA
100
AcDbEntity
8
1
62
256
6
ByLayer
370
18
48
1
60
0
100
AcDbSpline
70
4
71
3
72
8
73
4
40
0
40
0
40
0
40
0
40
1
40
1
40
1
40
1
41
1
10
44.9871308273722
20
-2.42015496068686
30
0
41
1
10
45.0272761305717
20
-2.39678290104575
30
0
41
1
10
45.0674969441724
20
-2.37304719203462
30
0
41
1
10
45.107803799611
20
-2.34895647072136
30
0
0
SPLINE
5
EB
100
AcDbEntity
8
1
62
256
6
ByLayer
370
18
48
1
60
0
100
AcDbSpline
70
4
71
3
72
26
73
22
40
0
40
0
40
0
40
0
40
0.0248229052475709
40
0.0248229052475709
40
0.10167508490456
40
0.10167508490456
40
0.178527264561549
40
0.178527264561549
40
0.332231623875523
40
0.332231623875523
40
0.485935983189496
40
0.485935983189496
40
0.63964034250347
40
0.63964034250347
40
0.793344701817444
40
0.793344701817444
40
0.870196881474429
40
0.870196881474429
40
0.947049061131416
40
0.947049061131416
40
1
40
1
40
1
40
1
41
1
10
29.7755732711626
20
-2.32366270763333
30
0
41
1
10
29.7055984010199
20
-2.32556945203103
30
0
41
1
10
29.6355540338052
20
-2.32683950354902
30
0
41
1
10
29.3483284259869
20
-2.32940174688531
30
0
41
1
10
29.1298647979226
20
-2.32531565249698
30
0
41
1
10
28.6949939883257
20
-2.30513879897043
30
0
41
1
10
28.4784592717617
20
-2.28901161457759
30
0
41
1
10
27.8307240563461
20
-2.22281859715795
30
0
41
1
10
27.4014654312226
20
-2.15606573516868
30
0
41
1
10
26.5436164021235
20
-1.97970281708052
30
-1E-16
41
1
10
26.1151060199687
20
-1.87066262649137
30
-1E-16
41
1
10
25.2543161242706
20
-1.61578442981141
30
1E-16
41
1
10
24.8223025968981
20
-1.46987254202835
30
1E-16
41
1
10
23.9502052527024
20
-1.147600668291
30
1E-16
41
1
10
23.5151251219573
20
-0.973006402751878
30
1E-16
41
1
10
22.8624838426165
20
-0.698896526552971
30
0
41
1
10
22.6448386370143
20
-0.605441145357105
30
0
41
1
10
22.2088863508222
20
-0.415456671003369
30
0
41
1
10
21.9907363515964
20
-0.319068772887704
30
0
41
1
10
21.624126130234
20
-0.156224929758963
30
0
41
1
10
21.4749037332402
20
-0.0896419254295893
30
0
41
1
10
21.325914557394
20
-0.0231354684507323
30
0
0
SPLINE
5
EC
100
AcDbEntity
8
1
62
256
6
ByLayer
370
18
48
1
60
0
100
AcDbSpline
70
4
71
3
72
32
73
28
40
0
40
0
40
0
40
0
40
0.328407510370653
40
0.328407510370653
40
0.552895055357955
40
0.552895055357955
40
0.702951484926703
40
0.702951484926703
40
0.803271329036197
40
0.803271329036197
40
0.870348770467335
40
0.870348770467335
40
0.915202845825046
40
0.915202845825046
40
0.945197877210764
40
0.945197877210764
40
0.965261822574023
40
0.965261822574023
40
0.978699299857841
40
0.978699299857841
40
0.987707152241188
40
0.987707152241188
40
0.993817147377554
40
0.993817147377554
40
0.999345561836796
40
0.999345561836796
40
1
40
1
40
1
40
1
41
1
10
44.9969986601074
20
2.44969867547957
30
0
41
1
10
45.0135458596868
20
2.43880984009019
30
0
41
1
10
45.0301096789826
20
2.42786083271059
30
0
41
1
10
45.0580264926745
20
2.40932703729953
30
0
41
1
10
45.069370068796
20
2.40177386967665
30
0
41
1
10
45.0883113822304
20
2.38912558108726
30
0
41
1
10
45.0959041500891
20
2.38404575127942
30
0
41
1
10
45.1085801732523
20
2.37554922782107
30
0
41
1
10
45.1136610914984
20
2.37213934032243
30
0
41
1
10
45.1221425749618
20
2.36644031203122
30
0
41
1
10
45.1255420609456
20
2.36415420376969
30
0
41
1
10
45.1312162472693
20
2.36033530808305
30
0
41
1
10
45.1334904547782
20
2.35880387327191
30
0
41
1
10
45.137286158109
20
2.35624650574951
30
0
41
1
10
45.1388077832343
20
2.35522094047175
30
0
41
1
10
45.1413457194923
20
2.35350977272438
30
0
41
1
10
45.14236239675
20
2.3528241268061
30
0
41
1
10
45.1440576085119
20
2.35168058600223
30
0
41
1
10
45.1447369271319
20
2.35122225862949
30
0
41
1
10
45.1458700562559
20
2.35045761176846
30
0
41
1
10
45.1463255875604
20
2.35015018622377
30
0
41
1
10
45.147081260654
20
2.34964007691207
30
0
41
1
10
45.1473845032475
20
2.34943534096678
30
0
41
1
10
45.1479457102561
20
2.34905628318111
30
0
41
1
10
45.1482079972187
20
2.34887906475956
30
0
41
1
10
45.148473427621
20
2.34869951485143
30
0
41
1
10
45.148501230182
20
2.34868070525675
30
0
41
1
10
45.1485285521221
20
2.34866221654735
30
0
0
SPLINE
5
ED
100
AcDbEntity
8
1
62
256
6
ByLayer
370
18
48
1
60
0
100
AcDbSpline
70
4
71
3
72
22
73
18
40
0
40
0
40
0
40
0
40
0.0573151816974738
40
0.0573151816974738
40
0.202410585348906
40
0.202410585348906
40
0.492601392651768
40
0.492601392651768
40
0.565149094477485
40
0.565149094477485
40
0.637696796303202
40
0.637696796303202
40
0.782792199954636
40
0.782792199954636
40
0.92788760360607
40
0.92788760360607
40
1
40
1
40
1
40
1
41
1
10
4.39403004845926
20
0.245329873188922
30
0
41
1
10
4.56631149479452
20
0.169620883235723
30
0
41
1
10
4.73862317747512
20
0.0934429057833768
30
0
41
1
10
5.3476699959071
20
-0.17619787141416
30
0
41
1
10
5.78063018541178
20
-0.368215802033234
30
0
41
1
10
7.07537234321168
20
-0.924488642554337
30
1E-16
41
1
10
7.93264809188344
20
-1.27005500504106
30
1E-16
41
1
10
9.01814949961408
20
-1.62548445965263
30
1E-16
41
1
10
9.23651652006663
20
-1.69291000369773
30
1E-16
41
1
10
9.67228036028598
20
-1.81821566175847
30
-1E-16
41
1
10
9.88931565076487
20
-1.87601339641193
30
-1E-16
41
1
10
10.5386992017085
20
-2.03400045388688
30
-1E-16
41
1
10
10.9693290646024
20
-2.11872921212503
30
0
41
1
10
11.8302754892684
20
-2.24333632037673
30
0
41
1
10
12.2605871764603
20
-2.28320839424589
30
0
41
1
10
12.9077110423524
20
-2.30734880822837
30
0
41
1
10
13.1230406138946
20
-2.30951040973329
30
0
41
1
10
13.3391259695377
20
-2.30567698735626
30
0
0
SPLINE
5
EE
100
AcDbEntity
8
1
62
256
6
ByLayer
370
18
48
1
60
0
100
AcDbSpline
70
4
71
3
72
24
73
20
40
0
40
0
40
0
40
0
40
0.0112063618327341
40
0.0112063618327341
40
0.0936058316800057
40
0.0936058316800057
40
0.176005301527278
40
0.176005301527278
40
0.340804241221822
40
0.340804241221822
40
0.505603180916365
40
0.505603180916365
40
0.670402120610908
40
0.670402120610908
40
0.75280159045818
40
0.75280159045818
40
0.835201060305452
40
0.835201060305452
40
1
40
1
40
1
40
1
41
1
10
37.2465233625065
20
0.179675630742253
30
0
41
1
10
37.2759001692497
20
0.166614245819062
30
0
41
1
10
37.3052880390987
20
0.153539275406899
30
0
41
1
10
37.5508606294971
20
0.0442240994845804
30
0
41
1
10
37.7676415302256
20
-0.0527108546290549
30
0
41
1
10
38.2029847602008
20
-0.246704996651857
30
0
41
1
10
38.4208209295197
20
-0.34343606104099
30
0
41
1
10
39.0705772032914
20
-0.628638306450171
30
0
41
1
10
39.5008760301707
20
-0.812848803887647
30
0
41
1
10
40.359882496555
20
-1.16048629006681
30
1E-16
41
1
10
40.7886957945756
20
-1.32395933948996
30
1E-16
41
1
10
41.6489740230445
20
-1.62172683739107
30
1E-16
41
1
10
42.0804517653603
20
-1.75602526128895
30
1E-16
41
1
10
42.7329672329524
20
-1.92950763413998
30
-1E-16
41
1
10
42.9510579027137
20
-1.98256688028465
30
-1E-16
41
1
10
43.3855709051888
20
-2.07765486177715
30
-1E-16
41
1
10
43.6024738763994
20
-2.1198246924983
30
0
41
1
10
44.2529610417597
20
-2.2295494566097
30
0
41
1
10
44.6862570164267
20
-2.27966680219976
30
0
41
1
10
45.1212530305662
20
-2.30636403597214
30
0
0
SPLINE
5
EF
100
AcDbEntity
8
1
62
256
6
ByLayer
370
18
48
1
60
0
100
AcDbSpline
70
4
71
3
72
28
73
24
40
0
40
0
40
0
40
0
40
0.0361912482381069
40
0.0361912482381069
40
0.114690048299156
40
0.114690048299156
40
0.193188848360205
40
0.193188848360205
40
0.271687648421254
40
0.271687648421254
40
0.350186448482303
40
0.350186448482303
40
0.5071840486044
40
0.5071840486044
40
0.585682848665451
40
0.585682848665451
40
0.664181648726501
40
0.664181648726501
40
0.821179248848599
40
0.821179248848599
40
0.978176848970697
40
0.978176848970697
40
1
40
1
40
1
40
1
41
1
10
20.086242579083
20
2.32329192799955
30
0
41
1
10
20.1847312432243
20
2.3237123404206
30
0
41
1
10
20.2832264825611
20
2.32284146887937
30
0
41
1
10
20.5955595229345
20
2.31562975401681
30
0
41
1
10
20.8094385619656
20
2.30482278855104
30
0
41
1
10
21.2376550502461
20
2.272151096323
30
0
41
1
10
21.4520803375516
20
2.25004894982848
30
0
41
1
10
21.8824752943365
20
2.19366019508388
30
0
41
1
10
22.098546765757
20
2.15957648066691
30
0
41
1
10
22.5312187621682
20
2.08081990585453
30
1E-16
41
1
10
22.7471328600223
20
2.0360079919499
30
1E-16
41
1
10
23.3947372250399
20
1.88568496178439
30
1E-16
41
1
10
23.8255388812249
20
1.76553258660482
30
-1E-16
41
1
10
24.4748605054932
20
1.55846714198427
30
-1E-16
41
1
10
24.6908324335585
20
1.48539202596186
30
-1E-16
41
1
10
25.1207270901876
20
1.3327136698941
30
-1E-16
41
1
10
25.3349793534922
20
1.25302956571193
30
-1E-16
41
1
10
25.9763499933176
20
1.0055397591351
30
-1E-16
41
1
10
26.4019375323116
20
0.829328788693743
30
-1E-16
41
1
10
27.253811200068
20
0.463866795744451
30
0
41
1
10
27.6796697697276
20
0.274099527588874
30
0
41
1
10
28.1677700745638
20
0.0563773145652533
30
0
41
1
10
28.2273737718516
20
0.029756558777791
30
0
41
1
10
28.287019792472
20
0.0030992604577591
30
0
0
SPLINE
5
F0
100
AcDbEntity
8
1
62
256
6
ByLayer
370
18
48
1
60
0
100
AcDbSpline
70
4
71
3
72
8
73
4
40
0
40
0
40
0
40
0
40
1
40
1
40
1
40
1
41
1
10
3.64491617059261
20
2.42340451660669
30
0
41
1
10
3.64437930719703
20
2.38628666773451
30
0
41
1
10
3.64383570584715
20
2.34916906089097
30
0
41
1
10
3.64328540896861
20
2.31205171331476
30
0
0
SPLINE
5
F1
100
AcDbEntity
8
1
62
256
6
ByLayer
370
18
48
1
60
0
100
AcDbSpline
70
4
71
3
72
8
73
4
40
0
40
0
40
0
40
0
40
1
40
1
40
1
40
1
41
1
10
45.7920680720072
20
-0.76415423287807
30
0
41
1
10
45.8618726448744
20
-0.568017119916647
30
0
41
1
10
45.9300022140002
20
-0.371277668148707
30
0
41
1
10
45.9964339441559
20
-0.173927665924253
30
0
0
SPLINE
5
F2
100
AcDbEntity
8
1
62
256
6
ByLayer
370
18
48
1
60
0
100
AcDbSpline
70
4
71
3
72
38
73
34
40
0
40
0
40
0
40
0
40
0.0852723103715768
40
0.0852723103715768
40
0.121466190103622
40
0.121466190103622
40
0.157660069835668
40
0.157660069835668
40
0.230047829299761
40
0.230047829299761
40
0.266241709031807
40
0.266241709031807
40
0.302435588763854
40
0.302435588763854
40
0.3386294684959
40
0.3386294684959
40
0.374823348227947
40
0.374823348227947
40
0.519598867156135
40
0.519598867156135
40
0.591986626620229
40
0.591986626620229
40
0.664374386084323
40
0.664374386084323
40
0.80914990501251
40
0.80914990501251
40
0.845343784744557
40
0.845343784744557
40
0.881537664476604
40
0.881537664476604
40
0.953925423940697
40
0.953925423940697
40
1
40
1
40
1
40
1
41
1
10
30.9853117281139
20
-2.33547833028285
30
0
41
1
10
30.4804721925544
20
-2.40403663251197
30
0
41
1
10
29.9762310536534
20
-2.43962235143317
30
0
41
1
10
29.2533923459785
20
-2.44045445358486
30
0
41
1
10
29.0374333346827
20
-2.43443325663441
30
0
41
1
10
28.6037780327376
20
-2.40967193860618
30
0
41
1
10
28.3862440183769
20
-2.39091759869515
30
0
41
1
10
27.7358006315863
20
-2.31635566225435
30
0
41
1
10
27.3033075285765
20
-2.24205000405937
30
0
41
1
10
26.6524050770833
20
-2.09659309332184
30
-1E-16
41
1
10
26.4349047810642
20
-2.04236889587804
30
-1E-16
41
1
10
26.0010588427679
20
-1.92389300794861
30
-1E-16
41
1
10
25.7844287650612
20
-1.85959614566724
30
-1E-16
41
1
10
25.3511132147477
20
-1.72182896069609
30
1E-16
41
1
10
25.1344814530396
20
-1.6482830529431
30
1E-16
41
1
10
24.7007116981411
20
-1.49266394684054
30
1E-16
41
1
10
24.4830632591234
20
-1.41049158747921
30
1E-16
41
1
10
23.3996173405188
20
-0.984571338073522
30
1E-16
41
1
10
22.5460635107051
20
-0.593773530694222
30
0
41
1
10
21.2571667339175
20
0.0073352677155754
30
0
41
1
10
20.8262499700012
20
0.2104822756678
30
0
41
1
10
19.9567213611875
20
0.611063699960312
30
0
41
1
10
19.5255248122782
20
0.805770988355704
30
0
41
1
10
18.2362957174724
20
1.35569528604276
30
-1E-16
41
1
10
17.3831511781912
20
1.67967815740863
30
-1E-16
41
1
10
16.3003935670586
20
1.98779897324752
30
1E-16
41
1
10
16.0825837205922
20
2.04484905037759
30
1E-16
41
1
10
15.6493487052399
20
2.14729812051547
30
1E-16
41
1
10
15.4334992935519
20
2.19282012344411
30
1E-16
41
1
10
14.787453238308
20
2.3118791595686
30
0
41
1
10
14.3589789349921
20
2.36801705148841
30
0
41
1
10
13.6572058056467
20
2.41969763823622
30
0
41
1
10
13.3841512249911
20
2.42988305525165
30
0
41
1
10
13.1103998216784
20
2.42998932915208
30
0
0
SPLINE
5
F3
100
AcDbEntity
8
1
62
256
6
ByLayer
370
18
48
1
60
0
100
AcDbSpline
70
4
71
3
72
10
73
6
40
0
40
0
40
0
40
0
40
0.5
40
0.5
40
1
40
1
40
1
40
1
41
1
10
3.55981045216507
20
0.628074565944161
30
0
41
1
10
3.54251541404577
20
0.635855288820522
30
0
41
1
10
3.52788767216777
20
0.648304635599175
30
0
41
1
10
3.50761358265362
20
0.6788584886948
30
0
41
1
10
3.50204610488206
20
0.696942888701358
30
0
41
1
10
3.50204610488214
20
0.715173899689319
30
0
0
SPLINE
5
F4
100
AcDbEntity
8
1
62
256
6
ByLayer
370
18
48
1
60
0
100
AcDbSpline
70
4
71
3
72
28
73
24
40
0
40
0
40
0
40
0
40
0.153127664631187
40
0.153127664631187
40
0.229691496946781
40
0.229691496946781
40
0.306255329262374
40
0.306255329262374
40
0.459382993893562
40
0.459382993893562
40
0.612510658524748
40
0.612510658524748
40
0.68907449084034
40
0.68907449084034
40
0.765638323155931
40
0.765638323155931
40
0.842202155471522
40
0.842202155471522
40
0.918765987787114
40
0.918765987787114
40
0.995329820102705
40
0.995329820102705
40
1
40
1
40
1
40
1
41
1
10
44.8474750295461
20
-0.100732659263827
30
0
41
1
10
44.4160316788039
20
0.0922990528372054
30
0
41
1
10
43.9859454547141
20
0.285380800621937
30
0
41
1
10
43.3395499110663
20
0.567767476088648
30
0
41
1
10
43.1239049004843
20
0.660738144771813
30
0
41
1
10
42.6918229542607
20
0.843283600278312
30
-1E-16
41
1
10
42.4750069261938
20
0.932980241849037
30
-1E-16
41
1
10
41.8280168213403
20
1.19258819500689
30
-1E-16
41
1
10
41.4001015256691
20
1.35354982486572
30
-1E-16
41
1
10
40.5459448192276
20
1.64470948210888
30
-1E-16
41
1
10
40.1197914399704
20
1.77482096293539
30
-1E-16
41
1
10
39.4793106564268
20
1.94183858617222
30
1E-16
41
1
10
39.2655822424271
20
1.9928054857177
30
1E-16
41
1
10
38.8372894777366
20
2.08376771504561
30
1E-16
41
1
10
38.622704326848
20
2.12386600375098
30
0
41
1
10
38.1917666238397
20
2.1941514549147
30
0
41
1
10
37.9748384318961
20
2.22431140617627
30
0
41
1
10
37.5428151343013
20
2.27296894401061
30
0
41
1
10
37.3275770945297
20
2.29152738397866
30
0
41
1
10
36.8985067641625
20
2.31647358296558
30
0
41
1
10
36.6846877311129
20
2.32277707445368
30
0
41
1
10
36.458425364366
20
2.32236898438384
30
0
41
1
10
36.4454185793911
20
2.32232328466125
30
0
41
1
10
36.4324128143929
20
2.32225559645079
30
0
0
SPLINE
5
F5
100
AcDbEntity
8
1
62
256
6
ByLayer
370
18
48
1
60
0
100
AcDbSpline
70
4
71
3
72
32
73
28
40
0
40
0
40
0
40
0
40
0.0489429093396363
40
0.0489429093396363
40
0.122101147082741
40
0.122101147082741
40
0.195259384825846
40
0.195259384825846
40
0.268417622568951
40
0.268417622568951
40
0.341575860312056
40
0.341575860312056
40
0.41473409805516
40
0.41473409805516
40
0.487892335798265
40
0.487892335798265
40
0.56105057354137
40
0.56105057354137
40
0.634208811284474
40
0.634208811284474
40
0.707367049027579
40
0.707367049027579
40
0.780525286770684
40
0.780525286770684
40
0.853683524513788
40
0.853683524513788
40
1
40
1
40
1
40
1
41
1
10
12.4425730781785
20
-0.233340967470355
30
0
41
1
10
12.2993310457349
20
-0.170008980324241
30
0
41
1
10
12.1562754065933
20
-0.10647284193675
30
0
41
1
10
11.7994734219109
20
0.0517093498622501
30
0
41
1
10
11.5858113487544
20
0.146277845847692
30
0
41
1
10
11.1586613806282
20
0.334723775911272
30
0
41
1
10
10.9451379945105
20
0.428530889718019
30
0
41
1
10
10.5172713756733
20
0.613316197292221
30
0
41
1
10
10.3029572992104
20
0.704350611809133
30
0
41
1
10
9.87337996699327
20
0.883132502389628
30
-1E-16
41
1
10
9.65809436757442
20
0.970840535462514
30
-1E-16
41
1
10
9.22572739546391
20
1.14120588610345
30
-1E-16
41
1
10
9.00900718329302
20
1.22373335013199
30
-1E-16
41
1
10
8.57838168433733
20
1.38114349646065
30
-1E-16
41
1
10
8.36389422533125
20
1.45624570817824
30
-1E-16
41
1
10
7.93543687368796
20
1.59848905554716
30
-1E-16
41
1
10
7.72150542969354
20
1.66561593860257
30
-1E-16
41
1
10
7.29424598739482
20
1.79083814610709
30
-1E-16
41
1
10
7.08089454511941
20
1.8489541257953
30
1E-16
41
1
10
6.65382082102258
20
1.95584193557929
30
1E-16
41
1
10
6.4401083762732
20
2.00460023486187
30
1E-16
41
1
10
6.01227376832338
20
2.09124079560982
30
0
41
1
10
5.79806425367724
20
2.12928736511
30
0
41
1
10
5.3680653185512
20
2.19549339094655
30
0
41
1
10
5.15239695897873
20
2.2234422958507
30
0
41
1
10
4.50289775711747
20
2.28964003565736
30
0
41
1
10
4.07079685643203
20
2.3097616254617
30
0
41
1
10
3.63924538417356
20
2.30227193518499
30
0
0
SPLINE
5
F6
100
AcDbEntity
8
1
62
256
6
ByLayer
370
18
48
1
60
0
100
AcDbSpline
70
4
71
3
72
10
73
6
40
0
40
0
40
0
40
0
40
0.5
40
0.5
40
1
40
1
40
1
40
1
41
1
10
45.1512337366449
20
2.34683760169196
30
0
41
1
10
45.1417531624557
20
2.35340925938945
30
0
41
1
10
45.1334850382639
20
2.3568572479515
30
0
41
1
10
45.1191620361497
20
2.35746418001523
30
0
41
1
10
45.1130988790246
20
2.35465634248055
30
0
41
1
10
45.1078037996111
20
2.34895647072125
30
0
0
SPLINE
5
F7
100
AcDbEntity
8
1
62
256
6
ByLayer
370
18
48
1
60
0
100
AcDbSpline
70
2053
71
3
72
46
73
42
40
0
40
0
40
0
40
0
40
0.0625000000000015
40
0.0625000000000015
40
0.125000000000003
40
0.125000000000003
40
0.187500000000005
40
0.187500000000005
40
0.250000000000006
40
0.250000000000006
40
0.281250000000008
40
0.281250000000008
40
0.312500000000009
40
0.312500000000009
40
0.343750000000011
40
0.343750000000011
40
0.375000000000012
40
0.375000000000012
40
0.406250000000014
40
0.406250000000014
40
0.437500000000015
40
0.437500000000015
40
0.500000000000014
40
0.500000000000014
40
0.625000000000004
40
0.625000000000004
40
0.656250000000004
40
0.656250000000004
40
0.687500000000004
40
0.687500000000004
40
0.750000000000004
40
0.750000000000004
40
0.781250000000004
40
0.781250000000004
40
0.812500000000003
40
0.812500000000003
40
0.875000000000002
40
0.875000000000002
40
0.937500000000001
40
0.937500000000001
40
1
40
1
40
1
40
1
41
1
10
45.3282167370373
20
-1.14907613058276
30
0
41
1
10
45.3080980497959
20
-1.17686439476421
30
0
41
1
10
45.2893195149936
20
-1.19601753038441
30
0
41
1
10
45.2536687689895
20
-1.21740669401456
30
1E-16
41
1
10
45.2377056938197
20
-1.21905260892379
30
1E-16
41
1
10
45.2085518126846
20
-1.20372701517758
30
1E-16
41
1
10
45.1960784496923
20
-1.18714925370134
30
1E-16
41
1
10
45.1747154617216
20
-1.13524641933341
30
1E-16
41
1
10
45.1663628500851
20
-1.10119917304883
30
1E-16
41
1
10
45.1577841413534
20
-1.03802133346539
30
1E-16
41
1
10
45.1556846567325
20
-1.015528529036
30
1E-16
41
1
10
45.153129873672
20
-0.967611131720105
30
1E-16
41
1
10
45.1526861191117
20
-0.941795428358631
30
1E-16
41
1
10
45.1538220926364
20
-0.889009483721225
30
1E-16
41
1
10
45.1553675087862
20
-0.862123513278277
30
1E-16
41
1
10
45.1607292004734
20
-0.807337548144034
30
0
41
1
10
45.1645825296192
20
-0.779514033425357
30
0
41
1
10
45.174436125301
20
-0.726094646029225
30
0
41
1
10
45.1805663209553
20
-0.699767166833453
30
0
41
1
10
45.1948425425718
20
-0.6502763679824
30
0
41
1
10
45.2029046138949
20
-0.627257033449524
30
0
41
1
10
45.2298484702857
20
-0.56307925602988
30
0
41
1
10
45.2509221519403
20
-0.528509864438945
30
0
41
1
10
45.3171864825173
20
-0.451874892049176
30
0
41
1
10
45.365561526057
20
-0.435812609634183
30
0
41
1
10
45.4151701086518
20
-0.45552892784201
30
0
41
1
10
45.424562914387
20
-0.461452610721011
30
0
41
1
10
45.4420980874633
20
-0.477529066168586
30
0
41
1
10
45.4502438148247
20
-0.487756598702589
30
0
41
1
10
45.4715360696418
20
-0.52429447981703
30
0
41
1
10
45.4820473616253
20
-0.557488583106249
30
0
41
1
10
45.489137325221
20
-0.618550805851328
30
0
41
1
10
45.4900910786778
20
-0.6411500351239
30
0
41
1
10
45.4888661225744
20
-0.688853444733525
30
0
41
1
10
45.4867421684825
20
-0.713829847116784
30
0
41
1
10
45.4758499190044
20
-0.792348168001354
30
0
41
1
10
45.4625378109504
20
-0.847869036247403
30
1E-16
41
1
10
45.4294352500077
20
-0.952003362371954
30
-1E-16
41
1
10
45.4096914451916
20
-1.00100078778018
30
0
41
1
10
45.3691923854692
20
-1.08546765225918
30
0
41
1
10
45.3483354242786
20
-1.1212878664013
30
0
41
1
10
45.3282167370373
20
-1.14907613058276
30
0
0
SPLINE
5
F8
100
AcDbEntity
8
1
62
256
6
ByLayer
370
18
48
1
60
0
100
AcDbSpline
70
4
71
3
72
20
73
16
40
0
40
0
40
0
40
0
40
0.203584062793728
40
0.203584062793728
40
0.305376094190592
40
0.305376094190592
40
0.407168125587457
40
0.407168125587457
40
0.610752188381185
40
0.610752188381185
40
0.814336251174912
40
0.814336251174912
40
0.916128282571776
40
0.916128282571776
40
1
40
1
40
1
40
1
41
1
10
21.5
20
-0.446273373849095
30
0
41
1
10
21.9907408661271
20
-0.672031786701439
30
0
41
1
10
22.4798342628931
20
-0.891304879479236
30
1E-16
41
1
10
23.216432909711
20
-1.19938961456353
30
1E-16
41
1
10
23.4614407896943
20
-1.2981730149915
30
1E-16
41
1
10
23.9496403404508
20
-1.48588184144609
30
1E-16
41
1
10
24.193082616094
20
-1.57491670281317
30
1E-16
41
1
10
24.9227192438461
20
-1.82554099550154
30
-1E-16
41
1
10
25.408243952759
20
-1.970587000477
30
-1E-16
41
1
10
26.3842278392518
20
-2.20685007579505
30
-1E-16
41
1
10
26.8762293524126
20
-2.29803368925135
30
0
41
1
10
27.6105372083632
20
-2.38680800028899
30
0
41
1
10
27.8551273726553
20
-2.40856384699561
30
0
41
1
10
28.3017461538143
20
-2.43358497601233
30
0
41
1
10
28.503938000751
20
-2.43942517065671
30
0
41
1
10
28.7060997491224
20
-2.43974060427237
30
0
0
SPLINE
5
F9
100
AcDbEntity
8
1
62
256
6
ByLayer
370
18
48
1
60
0
100
AcDbSpline
70
4
71
3
72
8
73
4
40
0
40
0
40
0
40
0
40
1
40
1
40
1
40
1
41
1
10
44.7867215927718
20
-0.0659753754586916
30
0
41
1
10
44.7818011478319
20
0.0492836938550738
30
0
41
1
10
44.7806387289072
20
0.16453246412766
30
0
41
1
10
44.7846754093993
20
0.279796770747907
30
0
0
SPLINE
5
FA
100
AcDbEntity
8
1
62
256
6
ByLayer
370
18
48
1
60
0
100
AcDbSpline
70
4
71
3
72
18
73
14
40
0
40
0
40
0
40
0
40
0.250000000000006
40
0.250000000000006
40
0.375000000000005
40
0.375000000000005
40
0.500000000000004
40
0.500000000000004
40
0.750000000000002
40
0.750000000000002
40
0.875000000000001
40
0.875000000000001
40
1
40
1
40
1
40
1
41
1
10
45.1512337366445
20
-2.34683760169239
30
0
41
1
10
45.1992394207711
20
-2.21039263717122
30
0
41
1
10
45.2466927586341
20
-2.0730275153625
30
0
41
1
10
45.317911442436
20
-1.86627393136027
30
0
41
1
10
45.3416395371374
20
-1.79728121014267
30
0
41
1
10
45.3891892775875
20
-1.65920369324726
30
0
41
1
10
45.4136097708055
20
-1.58982418840762
30
0
41
1
10
45.4892817602709
20
-1.38489985333032
30
0
41
1
10
45.5428544961666
20
-1.25239307965057
30
0
41
1
10
45.631133626684
20
-1.06069583730536
30
0
41
1
10
45.662053145208
20
-0.997686186094285
30
0
41
1
10
45.7255682575201
20
-0.877250311668405
30
0
41
1
10
45.7582893002256
20
-0.819525808843196
30
0
41
1
10
45.7920680720072
20
-0.764154232878099
30
0
0
SPLINE
5
FB
100
AcDbEntity
8
1
62
256
6
ByLayer
370
18
48
1
60
0
100
AcDbSpline
70
4
71
3
72
8
73
4
40
0
40
0
40
0
40
0
40
1
40
1
40
1
40
1
41
1
10
45.1485285502903
20
-2.34866221704524
30
0
41
1
10
45.1494302690184
20
-2.34805404771126
30
0
41
1
10
45.1503319978009
20
-2.34744584257913
30
0
41
1
10
45.1512337366448
20
-2.34683760169207
30
0
0
SPLINE
5
FC
100
AcDbEntity
8
1
62
256
6
ByLayer
370
18
48
1
60
0
100
AcDbSpline
70
4
71
3
72
26
73
22
40
0
40
0
40
0
40
0
40
0.16578221193575
40
0.16578221193575
40
0.3315644238715
40
0.3315644238715
40
0.414455529839373
40
0.414455529839373
40
0.497346635807246
40
0.497346635807246
40
0.580237741775118
40
0.580237741775118
40
0.663128847742991
40
0.663128847742991
40
0.828911059678737
40
0.828911059678737
40
0.91180216564661
40
0.91180216564661
40
0.994693271614482
40
0.994693271614482
40
1
40
1
40
1
40
1
41
1
10
44.7846754093993
20
0.279796770747907
30
0
41
1
10
44.3652133775777
20
0.475986034282329
30
0
41
1
10
43.9477570525169
20
0.667292399380017
30
0
41
1
10
43.1150918084347
20
1.03649825463887
30
-1E-16
41
1
10
42.6983888062252
20
1.21131425377331
30
-1E-16
41
1
10
42.07082528481
20
1.4551477558787
30
-1E-16
41
1
10
41.8614756777561
20
1.53380722968998
30
-1E-16
41
1
10
41.4411002394725
20
1.68332495682606
30
-1E-16
41
1
10
41.229446062154
20
1.75421277810963
30
-1E-16
41
1
10
40.8081446430543
20
1.8861549403442
30
1E-16
41
1
10
40.5982244652977
20
1.94738480856412
30
1E-16
41
1
10
40.1797267671486
20
2.06029419721813
30
1E-16
41
1
10
39.9712596078091
20
2.11205143301604
30
1E-16
41
1
10
39.3457535612264
20
2.25054425052912
30
0
41
1
10
38.9288047561884
20
2.32117319156694
30
0
41
1
10
38.3031426973278
20
2.39400076959302
30
0
41
1
10
38.0942800955196
20
2.41251847718388
30
0
41
1
10
37.6749601037425
20
2.43764937657491
30
0
41
1
10
37.4645916127234
20
2.44432710627461
30
0
41
1
10
37.2399432059265
20
2.44505082732616
30
0
41
1
10
37.2264273980182
20
2.44506957710229
30
0
41
1
10
37.2129127687964
20
2.44506355042546
30
0
0
SPLINE
5
FD
100
AcDbEntity
8
1
62
256
6
ByLayer
370
18
48
1
60
0
100
AcDbSpline
70
4
71
3
72
50
73
46
40
0
40
0
40
0
40
0
40
0.0361263770516588
40
0.0361263770516588
40
0.0746813219695934
40
0.0746813219695934
40
0.113236266887528
40
0.113236266887528
40
0.151791211805462
40
0.151791211805462
40
0.22890110164133
40
0.22890110164133
40
0.267456046559265
40
0.267456046559265
40
0.306010991477198
40
0.306010991477198
40
0.383120881313065
40
0.383120881313065
40
0.421675826230998
40
0.421675826230998
40
0.460230771148931
40
0.460230771148931
40
0.498785716066864
40
0.498785716066864
40
0.537340660984797
40
0.537340660984797
40
0.57589560590273
40
0.57589560590273
40
0.614450550820662
40
0.614450550820662
40
0.691560440656529
40
0.691560440656529
40
0.730115385574463
40
0.730115385574463
40
0.768670330492396
40
0.768670330492396
40
0.80722527541033
40
0.80722527541033
40
0.845780220328263
40
0.845780220328263
40
0.922890110164131
40
0.922890110164131
40
0.961445055082066
40
0.961445055082066
40
1
40
1
40
1
40
1
41
1
10
20.8859380599834
20
-2.43485689357834
30
0
41
1
10
20.6889133420866
20
-2.43487155456623
30
0
41
1
10
20.4907578938882
20
-2.42962452973924
30
0
41
1
10
20.0816326660502
20
-2.407966160304
30
0
41
1
10
19.8712251063616
20
-2.39091687741032
30
0
41
1
10
19.4521656948656
20
-2.34504276915101
30
0
41
1
10
19.2432347103254
20
-2.31631645112191
30
0
41
1
10
18.8255212161567
20
-2.24825092601
30
0
41
1
10
18.6168205593287
20
-2.20888727289622
30
-1E-16
41
1
10
17.9911065840701
20
-2.07500830367488
30
-1E-16
41
1
10
17.5748954790125
20
-1.96394160777334
30
-1E-16
41
1
10
16.9463701332557
20
-1.77120877421331
30
1E-16
41
1
10
16.7363367661956
20
-1.7024250322585
30
1E-16
41
1
10
16.3148427465636
20
-1.55617468205537
30
1E-16
41
1
10
16.1032327600931
20
-1.47801326250149
30
1E-16
41
1
10
15.4717034134468
20
-1.23526391928638
30
1E-16
41
1
10
15.0528019740353
20
-1.06265400543228
30
1E-16
41
1
10
14.4269180467599
20
-0.789296749696177
30
0
41
1
10
14.2187432242646
20
-0.695654028241194
30
0
41
1
10
13.8017665857456
20
-0.506547366668315
30
0
41
1
10
13.5930179770134
20
-0.410988453528887
30
0
41
1
10
13.1750316387267
20
-0.217806666858564
30
0
41
1
10
12.9657291006431
20
-0.120326734302893
30
0
41
1
10
12.5465181303995
20
0.0765428489996225
30
0
41
1
10
12.336292840833
20
0.175223669675347
30
0
41
1
10
11.9137242673674
20
0.371057657089466
30
0
41
1
10
11.7022239420719
20
0.468087728228454
30
0
41
1
10
11.281621706891
20
0.6587323396069
30
0
41
1
10
11.0721804240201
20
0.752788460010379
30
0
41
1
10
10.4451627060556
20
1.02839143653352
30
-1E-16
41
1
10
10.0279888496223
20
1.20159572939912
30
-1E-16
41
1
10
9.40192994321094
20
1.44296417319441
30
-1E-16
41
1
10
9.19347503353072
20
1.52081295234007
30
-1E-16
41
1
10
8.77534023048881
20
1.66822363545856
30
-1E-16
41
1
10
8.56565566591706
20
1.73781443001857
30
-1E-16
41
1
10
8.14496013478714
20
1.86861929418978
30
1E-16
41
1
10
7.9335141783107
20
1.92985544475906
30
1E-16
41
1
10
7.51104206426197
20
2.04325024304811
30
1E-16
41
1
10
7.30060268911495
20
2.09494555316576
30
1E-16
41
1
10
6.66966550396864
20
2.23308820155282
30
0
41
1
10
6.24980271194764
20
2.30332761187984
30
0
41
1
10
5.62109211042028
20
2.37543453583706
30
0
41
1
10
5.41154587345139
20
2.39370371229182
30
0
41
1
10
4.99062223037581
20
2.41807536234373
30
0
41
1
10
4.77937373244586
20
2.42426888187981
30
0
41
1
10
4.56706485281637
20
2.42462915660997
30
0
0
SPLINE
5
FE
100
AcDbEntity
8
1
62
256
6
ByLayer
370
18
48
1
60
0
100
AcDbSpline
70
4
71
3
72
40
73
36
40
0
40
0
40
0
40
0
40
0.007938668715803
40
0.007938668715803
40
0.0981260624689128
40
0.0981260624689128
40
0.143219759345468
40
0.143219759345468
40
0.188313456222023
40
0.188313456222023
40
0.233407153098577
40
0.233407153098577
40
0.278500849975132
40
0.278500849975132
40
0.368688243728242
40
0.368688243728242
40
0.458875637481352
40
0.458875637481352
40
0.549063031234461
40
0.549063031234461
40
0.594156728111015
40
0.594156728111015
40
0.639250424987569
40
0.639250424987569
40
0.729437818740677
40
0.729437818740677
40
0.774531515617231
40
0.774531515617231
40
0.819625212493785
40
0.819625212493785
40
0.864718909370338
40
0.864718909370338
40
0.909812606246892
40
0.909812606246892
40
1
40
1
40
1
40
1
41
1
10
28.7060997476576
20
2.4397406042701
30
0
41
1
10
28.7492943090104
20
2.43980800088653
30
0
41
1
10
28.7924874963024
20
2.43962318090473
30
0
41
1
10
29.3263044713073
20
2.43421371734317
30
0
41
1
10
29.8149690480554
20
2.39673297685269
30
0
41
1
10
30.5500251768675
20
2.2936554555848
30
0
41
1
10
30.79575712884
20
2.25140719345643
30
0
41
1
10
31.285904868521
20
2.15238928862271
30
1E-16
41
1
10
31.5305400400563
20
2.09560634915883
30
1E-16
41
1
10
32.0198445757438
20
1.96850413483477
30
1E-16
41
1
10
32.2645160553863
20
1.89818708125748
30
1E-16
41
1
10
32.7548165911943
20
1.74516157819173
30
-1E-16
41
1
10
33.0004605311192
20
1.66243061367086
30
-1E-16
41
1
10
33.735247244984
20
1.39929158284454
30
-1E-16
41
1
10
34.2237912421502
20
1.20329540528968
30
-1E-16
41
1
10
35.2052028658954
20
0.782496102313274
30
0
41
1
10
35.6943960962972
20
0.559487457954532
30
0
41
1
10
36.6734232002863
20
0.104202681845749
30
0
41
1
10
37.1646110957618
20
-0.128999090848168
30
0
41
1
10
37.8984973952709
20
-0.470380394265845
30
0
41
1
10
38.1430129697817
20
-0.582912839884415
30
0
41
1
10
38.6327286128085
20
-0.803549725546532
30
0
41
1
10
38.8783212693857
20
-0.911853931482995
30
1E-16
41
1
10
39.6137469898202
20
-1.22615646533671
30
1E-16
41
1
10
40.102047551521
20
-1.42159363716701
30
1E-16
41
1
10
40.8368624260059
20
-1.68389736714966
30
1E-16
41
1
10
41.0824728726443
20
-1.76622938230656
30
1E-16
41
1
10
41.5721579327578
20
-1.91808093566561
30
-1E-16
41
1
10
41.8165826546656
20
-1.98776385085222
30
-1E-16
41
1
10
42.3054410449455
20
-2.1136084133999
30
-1E-16
41
1
10
42.5498764875846
20
-2.16976586772833
30
-1E-16
41
1
10
43.0396559556019
20
-2.26752879565413
30
0
41
1
10
43.2852789039446
20
-2.30914644191407
30
0
41
1
10
44.0196813627774
20
-2.41021479473633
30
0
41
1
10
44.5074829744565
20
-2.44623228071384
30
0
41
1
10
44.9969986601074
20
-2.44969867547957
30
0
0
SPLINE
5
FF
100
AcDbEntity
8
1
62
256
6
ByLayer
370
18
48
1
60
0
100
AcDbSpline
70
4
71
3
72
22
73
18
40
0
40
0
40
0
40
0
40
0.144019549707551
40
0.144019549707551
40
0.288039099415102
40
0.288039099415102
40
0.432058649122654
40
0.432058649122654
40
0.504068423976428
40
0.504068423976428
40
0.576078198830203
40
0.576078198830203
40
0.720097748537749
40
0.720097748537749
40
0.864117298245295
40
0.864117298245295
40
1
40
1
40
1
40
1
41
1
10
5.23804824741336
20
-0.515629333119847
30
0
41
1
10
5.58010914184086
20
-0.671231000884433
30
0
41
1
10
5.91994920509063
20
-0.822539029297189
30
1E-16
41
1
10
6.59719462132509
20
-1.11259050730294
30
1E-16
41
1
10
6.93464665136753
20
-1.25119983570883
30
1E-16
41
1
10
7.61014891181202
20
-1.51016719217026
30
1E-16
41
1
10
7.94789824959474
20
-1.63109403361989
30
1E-16
41
1
10
8.45624685391726
20
-1.79653726906292
30
1E-16
41
1
10
8.62592598681425
20
-1.84911496683165
30
-1E-16
41
1
10
8.96624762728706
20
-1.94830452237221
30
-1E-16
41
1
10
9.13728985853027
20
-1.99491337972003
30
-1E-16
41
1
10
9.64951070831182
20
-2.12487780213507
30
-1E-16
41
1
10
9.98884117831321
20
-2.19793750751194
30
-1E-16
41
1
10
10.6654089709882
20
-2.31518133057645
30
0
41
1
10
11.0030300399327
20
-2.35911058141215
30
0
41
1
10
11.6592184500546
20
-2.41543530402481
30
0
41
1
10
11.9777945386045
20
-2.42936712123762
30
0
41
1
10
12.2976408828597
20
-2.42949113554519
30
0
0
SPLINE
5
100
100
AcDbEntity
8
1
62
256
6
ByLayer
370
18
48
1
60
0
100
AcDbSpline
70
4
71
3
72
30
73
26
40
0
40
0
40
0
40
0
40
0.155279505388644
40
0.155279505388644
40
0.232919258082966
40
0.232919258082966
40
0.310559010777288
40
0.310559010777288
40
0.388198763471609
40
0.388198763471609
40
0.465838516165931
40
0.465838516165931
40
0.543478268860253
40
0.543478268860253
40
0.621118021554575
40
0.621118021554575
40
0.698757774248896
40
0.698757774248896
40
0.776397526943218
40
0.776397526943218
40
0.854037279637539
40
0.854037279637539
40
0.931677032331861
40
0.931677032331861
40
1
40
1
40
1
40
1
41
1
10
3.64328540896943
20
2.31205171331479
30
0
41
1
10
4.0747489320334
20
2.32032796421615
30
0
41
1
10
4.50677385340381
20
2.30088750616051
30
0
41
1
10
5.15617753533948
20
2.23554005089255
30
0
41
1
10
5.37180773947608
20
2.20784477800507
30
0
41
1
10
5.80171404518728
20
2.14208081366152
30
0
41
1
10
6.01586713287523
20
2.10422411462792
30
0
41
1
10
6.44360054356986
20
2.017920483317
30
1E-16
41
1
10
6.65725989177304
20
1.96929599762731
30
1E-16
41
1
10
7.08421959422773
20
1.86260734937133
30
1E-16
41
1
10
7.2975127265085
20
1.80456111446693
30
-1E-16
41
1
10
7.72466315081107
20
1.67941950712842
30
-1E-16
41
1
10
7.93854185468743
20
1.61229897494204
30
-1E-16
41
1
10
8.36689229008101
20
1.46999186154716
30
-1E-16
41
1
10
8.5813272071791
20
1.39482426945946
30
-1E-16
41
1
10
9.01186291634136
20
1.23722368300108
30
-1E-16
41
1
10
9.22854637129632
20
1.15456411298354
30
-1E-16
41
1
10
9.66084347840336
20
0.983852817591355
30
-1E-16
41
1
10
9.87608635409163
20
0.895941388392345
30
-1E-16
41
1
10
10.3055763770867
20
0.716707144288165
30
0
41
1
10
10.5198437934276
20
0.625418119177851
30
0
41
1
10
10.9476050482702
20
0.440056890433198
30
0
41
1
10
11.1610714291827
20
0.345933351091133
30
0
41
1
10
11.5624896787656
20
0.168160093029826
30
0
41
1
10
11.7504555697959
20
0.0846595036527162
30
0
41
1
10
11.9385096686514
20
0.000961694327259
30
0
0
SPLINE
5
101
100
AcDbEntity
8
1
62
256
6
ByLayer
370
18
48
1
60
0
100
AcDbSpline
70
4
71
3
72
28
73
24
40
0
40
0
40
0
40
0
40
0.0105634665960901
40
0.0105634665960901
40
0.0888168976892885
40
0.0888168976892885
40
0.167070328782486
40
0.167070328782486
40
0.245323759875684
40
0.245323759875684
40
0.323577190968883
40
0.323577190968883
40
0.401830622062081
40
0.401830622062081
40
0.558337484248477
40
0.558337484248477
40
0.714844346434874
40
0.714844346434874
40
0.79309777752807
40
0.79309777752807
40
0.871351208621266
40
0.871351208621266
40
1
40
1
40
1
40
1
41
1
10
36.381820784224
20
2.33168746108984
30
0
41
1
10
36.4105894305548
20
2.33202435242203
30
0
41
1
10
36.4393622718728
20
2.33225521512674
30
0
41
1
10
36.6813285529731
20
2.33328297578419
30
0
41
1
10
36.8950813345508
20
2.3274876805834
30
0
41
1
10
37.3240258852013
20
2.30347381214139
30
0
41
1
10
37.5392041072128
20
2.28535121078102
30
0
41
1
10
37.9711153609787
20
2.23750360827461
30
0
41
1
10
38.1880285889887
20
2.20771161320585
30
0
41
1
10
38.6189190230356
20
2.13808160742525
30
0
41
1
10
38.833469159311
20
2.09828283536277
30
1E-16
41
1
10
39.2616842315995
20
2.0078819350247
30
1E-16
41
1
10
39.4753692068547
20
1.9571603131169
30
1E-16
41
1
10
40.1157032190252
20
1.79074050963689
30
-1E-16
41
1
10
40.5417385769875
20
1.66088753040123
30
-1E-16
41
1
10
41.3956486858157
20
1.3699137990663
30
-1E-16
41
1
10
41.8234274143761
20
1.20891001945037
30
-1E-16
41
1
10
42.470232121726
20
0.948978801174576
30
-1E-16
41
1
10
42.687008808463
20
0.859122073068562
30
-1E-16
41
1
10
43.11904226737
20
0.676170895598005
30
0
41
1
10
43.3346582506852
20
0.582962213225585
30
0
41
1
10
43.9042578873862
20
0.333353536744511
30
0
41
1
10
44.2578425272144
20
0.174792831258941
30
0
41
1
10
44.6120745362779
20
0.0155893294401892
30
0
0
SPLINE
5
102
100
AcDbEntity
8
1
62
256
6
ByLayer
370
18
48
1
60
0
100
AcDbSpline
70
4
71
3
72
8
73
4
40
0
40
0
40
0
40
0
40
1
40
1
40
1
40
1
41
1
10
3.64491617059261
20
-2.42340451660669
30
0
41
1
10
3.68576754251905
20
-2.42388902018936
30
0
41
1
10
3.72661753907093
20
-2.42414198610879
30
0
41
1
10
3.76746715959831
20
-2.42416495093946
30
0
0
SPLINE
5
103
100
AcDbEntity
8
1
62
256
6
ByLayer
370
18
48
1
60
0
100
AcDbSpline
70
4
71
3
72
50
73
46
40
0
40
0
40
0
40
0
40
0.0168644349568608
40
0.0168644349568608
40
0.0532055360533942
40
0.0532055360533942
40
0.0895466371499276
40
0.0895466371499276
40
0.162228839342995
40
0.162228839342995
40
0.234911041536063
40
0.234911041536063
40
0.307593243729131
40
0.307593243729131
40
0.380275445922198
40
0.380275445922198
40
0.416616547018731
40
0.416616547018731
40
0.452957648115264
40
0.452957648115264
40
0.525639850308331
40
0.525639850308331
40
0.561980951404865
40
0.561980951404865
40
0.598322052501398
40
0.598322052501398
40
0.671004254694463
40
0.671004254694463
40
0.743686456887528
40
0.743686456887528
40
0.780027557984061
40
0.780027557984061
40
0.816368659080594
40
0.816368659080594
40
0.852709760177128
40
0.852709760177128
40
0.889050861273661
40
0.889050861273661
40
0.925391962370195
40
0.925391962370195
40
0.961733063466728
40
0.961733063466728
40
0.998074164563261
40
0.998074164563261
40
1
40
1
40
1
40
1
41
1
10
18.7900449037957
20
2.35494464439009
30
0
41
1
10
18.8898245224522
20
2.36679081708351
30
0
41
1
10
18.9895931238804
20
2.37732400531942
30
0
41
1
10
19.3045414905325
20
2.40631570679111
30
0
41
1
10
19.5196938237677
20
2.42003646349107
30
0
41
1
10
19.9502206714368
20
2.43510502456343
30
0
41
1
10
20.1661008952165
20
2.43636803881691
30
0
41
1
10
20.8114726090979
20
2.42146531332688
30
0
41
1
10
21.238119520858
20
2.38657744171772
30
0
41
1
10
22.0901777581727
20
2.27048759974542
30
0
41
1
10
22.5149296406268
20
2.18886992007887
30
1E-16
41
1
10
23.3676989634346
20
1.98357178932778
30
1E-16
41
1
10
23.7949953166691
20
1.8590367945105
30
1E-16
41
1
10
24.6575911718605
20
1.57327802689912
30
-1E-16
41
1
10
25.0873690381827
20
1.41244351923592
30
-1E-16
41
1
10
25.7324033337362
20
1.15279992037333
30
-1E-16
41
1
10
25.9474107822866
20
1.06285476592205
30
-1E-16
41
1
10
26.378269152304
20
0.877734939054562
30
-1E-16
41
1
10
26.594048043772
20
0.782637852523806
30
0
41
1
10
27.2396681649935
20
0.492775343009328
30
0
41
1
10
27.6687489571234
20
0.292295006862588
30
0
41
1
10
28.3148855822781
20
-0.0097099460105028
30
0
41
1
10
28.5307951337086
20
-0.1111159177172
30
0
41
1
10
28.960128573869
20
-0.312094722813924
30
0
41
1
10
29.1741809704018
20
-0.411326643558652
30
0
41
1
10
29.8148882651939
20
-0.704584838245893
30
0
41
1
10
30.239686531974
20
-0.894967498439485
30
1E-16
41
1
10
31.0907267476333
20
-1.25296335944321
30
1E-16
41
1
10
31.5161447603869
20
-1.42218965716594
30
1E-16
41
1
10
32.1588824906581
20
-1.65222544615932
30
1E-16
41
1
10
32.3738693544085
20
-1.72544780680784
30
1E-16
41
1
10
32.8046969266474
20
-1.86315931591156
30
-1E-16
41
1
10
33.0194028734437
20
-1.92676322472755
30
-1E-16
41
1
10
33.4474498850225
20
-2.04379659232666
30
-1E-16
41
1
10
33.6606753283802
20
-2.09734082124055
30
-1E-16
41
1
10
34.0863637097853
20
-2.19349091582436
30
-1E-16
41
1
10
34.2991751427443
20
-2.23577359429208
30
0
41
1
10
34.7245281236657
20
-2.30918645378876
30
0
41
1
10
34.9369836210048
20
-2.34033309994905
30
0
41
1
10
35.3624949607146
20
-2.39071077263716
30
0
41
1
10
35.575616485541
20
-2.40995107497213
30
0
41
1
10
36.0025638018247
20
-2.43641957956947
30
0
41
1
10
36.2162928037923
20
-2.44363020756046
30
0
41
1
10
36.4421728416541
20
-2.4445559235412
30
0
41
1
10
36.4535447169407
20
-2.44458465982504
30
0
41
1
10
36.4649203547826
20
-2.44459558240493
30
0
0
SPLINE
5
104
100
AcDbEntity
8
SK1
62
256
6
ByLayer
370
18
48
1
60
0
100
AcDbSpline
70
4
71
3
72
8
73
4
40
0
40
0
40
0
40
0
40
1
40
1
40
1
40
1
41
1
10
-35.8509618943233
20
-2.03018854817472
30
0
41
1
10
-35.8173573567346
20
-2.05617552490404
30
0
41
1
10
-35.783701112187
20
-2.08212595929086
30
0
41
1
10
-35.7499999999999
20
-2.10804468481896
30
0
0
SPLINE
5
105
100
AcDbEntity
8
SK1
62
256
6
ByLayer
370
18
48
1
60
0
100
AcDbSpline
70
4
71
3
72
8
73
4
40
0
40
0
40
0
40
0
40
1
40
1
40
1
40
1
41
1
10
-35.75
20
-1.07903726166393
30
1E-16
41
1
10
-35.7837020247556
20
-1.05311783430108
30
1E-16
41
1
10
-35.8173583106351
20
-1.02716736408109
30
1E-16
41
1
10
-35.8509618943233
20
-1.00118112501977
30
1E-16
0
SPLINE
5
106
100
AcDbEntity
8
SK1
62
256
6
ByLayer
370
18
48
1
60
0
100
AcDbSpline
70
4
71
3
72
12
73
8
40
0
40
0
40
0
40
0
40
0.500000000000002
40
0.500000000000002
40
0.750000000000001
40
0.750000000000001
40
1
40
1
40
1
40
1
41
1
10
-35.75
20
-2.10804468481908
30
0
41
1
10
-35.7259913046562
20
-2.12650920259077
30
0
41
1
10
-35.7033433879313
20
-2.14032354894874
30
0
41
1
10
-35.6754686754417
20
-2.15074822944143
30
-1E-16
41
1
10
-35.667025596347
20
-2.15250739035079
30
-1E-16
41
1
10
-35.6543350076412
20
-2.15039781955832
30
-1E-16
41
1
10
-35.65
20
-2.14636640508797
30
-1E-16
41
1
10
-35.65
20
-2.13820736291373
30
-1E-16
0
SPLINE
5
107
100
AcDbEntity
8
SK1
62
256
6
ByLayer
370
18
48
1
60
0
100
AcDbSpline
70
4
71
3
72
8
73
4
40
0
40
0
40
0
40
0
40
1
40
1
40
1
40
1
41
1
10
-36.0000000000001
20
-0.668410297865364
30
0
41
1
10
-35.9478735570756
20
-0.7778629653358
30
0
41
1
10
-35.897619057052
20
-0.888492882686251
30
1E-16
41
1
10
-35.8509618943233
20
-1.0011811250198
30
1E-16
0
SPLINE
5
108
100
AcDbEntity
8
SK1
62
256
6
ByLayer
370
18
48
1
60
0
100
AcDbSpline
70
4
71
3
72
12
73
8
40
0
40
0
40
0
40
0
40
0.250000000000001
40
0.250000000000001
40
0.500000000000002
40
0.500000000000002
40
1
40
1
40
1
40
1
41
1
10
-35.65
20
-1.24640092951273
30
1E-16
41
1
10
-35.65
20
-1.23134505405938
30
1E-16
41
1
10
-35.6543403470552
20
-1.21418121637439
30
1E-16
41
1
10
-35.6670034572333
20
-1.18176499359691
30
1E-16
41
1
10
-35.6754069618006
20
-1.16603610754243
30
1E-16
41
1
10
-35.7033744297257
20
-1.12252778696578
30
1E-16
41
1
10
-35.7260009806424
20
-1.0974943378643
30
1E-16
41
1
10
-35.7500000000001
20
-1.07903726166393
30
1E-16
0
SPLINE
5
109
100
AcDbEntity
8
SK1
62
256
6
ByLayer
370
18
48
1
60
0
100
AcDbSpline
70
4
71
3
72
10
73
6
40
0
40
0
40
0
40
0
40
0.5
40
0.5
40
1
40
1
40
1
40
1
41
1
10
-35.8509618943233
20
-2.03018854817475
30
0
41
1
10
-35.8741904300927
20
-2.02928614100858
30
0
41
1
10
-35.8986222732874
20
-2.02511887356735
30
0
41
1
10
-35.9485161922248
20
-2.01133166888698
30
0
41
1
10
-35.974056478015
20
-2.00172040825188
30
0
41
1
10
-35.9999999999999
20
-1.98974914537081
30
0
0
SPLINE
5
10A
100
AcDbEntity
8
1
62
256
6
ByLayer
370
18
48
1
60
0
100
AcDbSpline
70
4
71
2
72
6
73
3
40
0
40
0
40
0
40
1
40
1
40
1
41
1
10
3.9612728467543
20
2.30323656685471
30
0
41
1
10
3.78202551799194
20
2.30198105021205
30
0
41
1
10
3.60288159615044
20
2.29980538228787
30
0
0
SPLINE
5
10B
100
AcDbEntity
8
1
62
256
6
ByLayer
370
18
48
1
60
0
100
AcDbSpline
70
4
71
1
72
4
73
2
40
0
40
0
40
1
40
1
41
1
10
25.9137262190788
20
1.38363026344061
30
-1E-16
41
1
10
25.7089299533334
20
1.45962812879105
30
-1E-16
0
SPLINE
5
10C
100
AcDbEntity
8
1
62
256
6
ByLayer
370
18
48
1
60
0
100
AcDbSpline
70
4
71
1
72
4
73
2
40
0
40
0
40
1
40
1
41
1
10
45.136130086416
20
-2.3570254346163
30
0
41
1
10
45.1518818674313
20
-2.34641198831952
30
0
0
SPLINE
5
10D
100
AcDbEntity
8
1
62
256
6
ByLayer
370
18
48
1
60
0
100
AcDbSpline
70
4
71
3
72
11
73
7
40
0
40
0
40
0
40
0
40
0.0818593680435313
40
0.316777711602259
40
0.637791511699267
40
1
40
1
40
1
40
1
41
1
10
44.8979203002432
20
0.451418859934336
30
0
41
1
10
44.8257170005401
20
0.474583541416706
30
0
41
1
10
44.5465730455303
20
0.564967430143923
30
0
41
1
10
43.9873648380012
20
0.754424590910219
30
0
41
1
10
43.1851061417995
20
1.03596042432161
30
-1E-16
41
1
10
42.5920778892813
20
1.25651283210726
30
-1E-16
41
1
10
42.2786695934776
20
1.37627432050999
30
-1E-16
0
SPLINE
5
10E
100
AcDbEntity
8
1
62
256
6
ByLayer
370
18
48
1
60
0
100
AcDbSpline
70
4
71
1
72
4
73
2
40
0
40
0
40
1
40
1
41
1
10
42.2786695934776
20
1.37627432050999
30
-1E-16
41
1
10
42.1322085412081
20
1.43069510315161
30
-1E-16
0
SPLINE
5
10F
100
AcDbEntity
8
1
62
256
6
ByLayer
370
18
48
1
60
0
100
AcDbSpline
70
4
71
3
72
26
73
22
40
0
40
0
40
0
40
0
40
6.17244955573E-05
40
0.0001099724828719
40
0.000188880370049
40
0.0002567389223067
40
0.0007504672271997
40
0.0011440470578352
40
0.0018630108771161
40
0.0031979644909235
40
0.0057449974653827
40
0.0108149143180531
40
0.0215370451683654
40
0.0475473769108675
40
0.121340134628047
40
0.227826529616548
40
0.332263885885773
40
0.471542363195117
40
0.606112293190833
40
0.796267865098832
40
1
40
1
40
1
40
1
41
1
10
13.8670423143456
20
-0.0637574437695321
30
0
41
1
10
13.8670535874567
20
-0.0637588972874426
30
0
41
1
10
13.8670609238713
20
-0.063757767316531
30
0
41
1
10
13.8669501584121
20
-0.0637208465896322
30
0
41
1
10
13.8667641891429
20
-0.0636631352469692
30
0
41
1
10
13.8659718881091
20
-0.06342642264147
30
0
41
1
10
13.864561699105
20
-0.0630190072866412
30
0
41
1
10
13.8623432325227
20
-0.0623710853566024
30
0
41
1
10
13.8589036530527
20
-0.0613700330820279
30
0
41
1
10
13.8524573830507
20
-0.0594944953966774
30
0
41
1
10
13.8398444999816
20
-0.0558321955824397
30
0
41
1
10
13.8138839182905
20
-0.0483063841742251
30
0
41
1
10
13.754315564808
20
-0.0310417558220877
30
0
41
1
10
13.5956840056708
20
0.0152419806199475
30
0
41
1
10
13.2985281458602
20
0.10377459325673
30
0
41
1
10
12.8886136382685
20
0.229713828901168
30
0
41
1
10
12.3857048407693
20
0.388889875801652
30
0
41
1
10
11.8440753932262
20
0.566159094164192
30
0
41
1
10
11.1822497145263
20
0.790807959866868
30
0
41
1
10
10.4315822779252
20
1.05582513605197
30
-1E-16
41
1
10
9.87558897731088
20
1.26313415156832
30
-1E-16
41
1
10
9.58888868131896
20
1.37284715663145
30
-1E-16
0
SPLINE
5
110
100
AcDbEntity
8
1
62
256
6
ByLayer
370
18
48
1
60
0
100
AcDbSpline
70
4
71
3
72
8
73
4
40
0
40
0
40
0
40
0
40
1
40
1
40
1
40
1
41
1
10
21.6099666829485
20
-0.144942141062217
30
0
41
1
10
21.5912531631585
20
-0.140517845582792
30
0
41
1
10
21.5725351986307
20
-0.136063912927568
30
0
41
1
10
21.553813461721
20
-0.131580730727563
30
0
0
SPLINE
5
111
100
AcDbEntity
8
1
62
256
6
ByLayer
370
18
48
1
60
0
100
AcDbSpline
70
4
71
3
72
24
73
20
40
0
40
0
40
0
40
0
40
4.09046478841E-05
40
0.0001067797691202
40
0.0001639754884177
40
0.0002173236421702
40
0.0004125735444883
40
0.0016709266465405
40
0.0026837940802142
40
0.0045465251192526
40
0.0080452063337809
40
0.0148428171060031
40
0.0287365953126558
40
0.0591507061203332
40
0.232560841170537
40
0.362082788722185
40
0.518210199449936
40
0.741873421117289
40
1
40
1
40
1
40
1
41
1
10
30.080375048963
20
-0.0257724026349422
30
0
41
1
10
30.0803766835758
20
-0.0257699510129044
30
0
41
1
10
30.0803719718485
20
-0.0257609192825612
30
0
41
1
10
30.0803191442363
20
-0.025733773263056
30
0
41
1
10
30.0801518391499
20
-0.0256753541174533
30
0
41
1
10
30.079817869483
20
-0.0255640553465355
30
0
41
1
10
30.0777539544246
20
-0.0249262129520105
30
0
41
1
10
30.0742986334487
20
-0.0238959369490601
30
0
41
1
10
30.0685574305862
20
-0.0221592367959147
30
0
41
1
10
30.0596800697113
20
-0.0194859902756832
30
0
41
1
10
30.0427424685947
20
-0.0143863933285218
30
0
41
1
10
30.0089865297539
20
-0.0042463877166199
30
0
41
1
10
29.937537808452
20
0.0171858628635277
30
0
41
1
10
29.6324521691606
20
0.108776751428366
30
0
41
1
10
29.164522401597
20
0.252439482975575
30
0
41
1
10
28.5232921940708
20
0.458049846864526
30
0
41
1
10
27.8140887005647
20
0.694090158067212
30
0
41
1
10
26.9300860585815
20
1.00210399706177
30
-1E-16
41
1
10
26.2674145654819
20
1.24812007109094
30
-1E-16
41
1
10
25.9137262190788
20
1.38363026344061
30
-1E-16
0
SPLINE
5
112
100
AcDbEntity
8
1
62
256
6
ByLayer
370
18
48
1
60
0
100
AcDbSpline
70
4
71
3
72
16
73
12
40
0
40
0
40
0
40
0
40
0.178061276705173
40
0.302481790905677
40
0.390358196812818
40
0.485292460016826
40
0.588140565298917
40
0.691120534100342
40
0.83917946360198
40
0.953535177983051
40
1
40
1
40
1
40
1
41
1
10
36.4712244046687
20
2.32242399192384
30
0
41
1
10
36.1456910201655
20
2.32161271859212
30
0
41
1
10
35.5926855328058
20
2.3207255541443
30
0
41
1
10
34.8790091679434
20
2.32053815272974
30
0
41
1
10
34.3173058614021
20
2.32114487985677
30
0
41
1
10
33.7950438216853
20
2.32042552889308
30
0
41
1
10
33.2451668220718
20
2.31991006554731
30
0
41
1
10
32.5981664298031
20
2.3200578075907
30
0
41
1
10
31.9301246587855
20
2.31936612375438
30
0
41
1
10
31.3654045597769
20
2.31921979354053
30
0
41
1
10
31.0713842490918
20
2.31895959946155
30
0
41
1
10
30.9864347483914
20
2.31888848489169
30
0
0
SPLINE
5
113
100
AcDbEntity
8
1
62
256
6
ByLayer
370
18
48
1
60
0
100
AcDbSpline
70
4
71
3
72
8
73
4
40
0
40
0
40
0
40
0
40
1
40
1
40
1
40
1
41
1
10
30.0759968922059
20
2.31840544194887
30
0
41
1
10
29.8670977981871
20
2.31828271590243
30
0
41
1
10
29.658202823925
20
2.31811567115136
30
0
41
1
10
29.4493100655176
20
2.31794150213568
30
0
0
SPLINE
5
114
100
AcDbEntity
8
1
62
256
6
ByLayer
370
18
48
1
60
0
100
AcDbSpline
70
4
71
3
72
17
73
13
40
0
40
0
40
0
40
0
40
0.138942448619164
40
0.2456071462207
40
0.32004348555443
40
0.432062030892188
40
0.577094974779643
40
0.677970268738481
40
0.778716394166494
40
0.871710418333822
40
0.957790831652092
40
1
40
1
40
1
40
1
41
1
10
29.4493100655176
20
-2.31794150213568
30
0
41
1
10
29.70862135275
20
-2.31815770872899
30
0
41
1
10
30.1670093005533
20
-2.31852048863951
30
0
41
1
10
30.7643499550148
20
-2.31865881314255
30
0
41
1
10
31.3114251990685
20
-2.31920580641412
30
0
41
1
10
31.9301246587855
20
-2.31936612375438
30
0
41
1
10
32.598166429803
20
-2.32005780759073
30
0
41
1
10
33.2451668220717
20
-2.31991006554731
30
0
41
1
10
33.7950438216853
20
-2.32042552889308
30
0
41
1
10
34.3173058614021
20
-2.32114487985677
30
0
41
1
10
34.7303142466431
20
-2.32069876642271
30
0
41
1
10
34.9697553752304
20
-2.3206384704894
30
0
41
1
10
35.048534886891
20
-2.32063788134207
30
0
0
SPLINE
5
115
100
AcDbEntity
8
1
62
256
6
ByLayer
370
18
48
1
60
0
100
AcDbSpline
70
4
71
3
72
16
73
12
40
0
40
0
40
0
40
0
40
0.158027885063338
40
0.268695049737393
40
0.338224745390281
40
0.405080893857328
40
0.475736622780858
40
0.554597600884824
40
0.694755965645272
40
0.83591419338638
40
1
40
1
40
1
40
1
41
1
10
20.1151920085742
20
2.31349901639339
30
0
41
1
10
19.8212342255864
20
2.31322556724632
30
0
41
1
10
19.3214112955139
20
2.31266556101124
30
0
41
1
10
18.6922317890457
20
2.31259073889365
30
0
41
1
10
18.2326537030186
20
2.3114450277794
30
0
41
1
10
17.8475053880133
20
2.31195687673079
30
0
41
1
10
17.4449981335482
20
2.31184586877942
30
0
41
1
10
16.9061320767705
20
2.31030309380128
30
0
41
1
10
16.2361114919009
20
2.31091254434227
30
0
41
1
10
15.4075510962757
20
2.30950794336405
30
0
41
1
10
14.839733594074
20
2.30902728758088
30
0
41
1
10
14.5344991659776
20
2.30876249068021
30
0
0
SPLINE
5
116
100
AcDbEntity
8
1
62
256
6
ByLayer
370
18
48
1
60
0
100
AcDbSpline
70
4
71
3
72
16
73
12
40
0
40
0
40
0
40
0
40
0.155868656773534
40
0.264564645395219
40
0.332784100076259
40
0.398656482388543
40
0.468121356815577
40
0.548163803927873
40
0.696289391608963
40
0.838711191635913
40
1
40
1
40
1
40
1
41
1
10
13.0947734430121
20
-2.30748845132013
30
0
41
1
10
13.3905241063304
20
-2.30781922668137
30
0
41
1
10
13.8925232141705
20
-2.3083769661271
30
0
41
1
10
14.5239793558688
20
-2.30864282465123
30
0
41
1
10
14.98466902381
20
-2.30934090654168
30
0
41
1
10
15.3709190096608
20
-2.30971735307207
30
0
41
1
10
15.7796017453484
20
-2.30968138455429
30
0
41
1
10
16.3443607544984
20
-2.31099774729884
30
0
41
1
10
17.0475591086448
20
-2.31052653165929
30
0
41
1
10
17.9049222614792
20
-2.31199745619378
30
0
41
1
10
18.4812069242803
20
-2.31254625698958
30
0
41
1
10
18.7872485274582
20
-2.31278788438118
30
0
0
SPLINE
5
117
100
AcDbEntity
8
1
62
256
6
ByLayer
370
18
48
1
60
0
100
AcDbSpline
70
4
71
2
72
6
73
3
40
0
40
0
40
0
40
1
40
1
40
1
41
1
10
4.90489692410972
20
0.0089505264560898
30
0
41
1
10
4.90489054352491
20
0.0090340222958218
30
0
41
1
10
4.90488416291828
20
0.0091175932863052
30
0
0
LINE
5
84
100
AcDbEntity
8
1
62
256
6
ByLayer
370
18
48
1
60
0
100
AcDbLine
10
0.615293
20
2.711288
30
0
11
0.615293
21
0
31
0
39
0
210
0
220
0
230
1
0
LINE
5
85
100
AcDbEntity
8
1
62
256
6
ByLayer
370
18
48
1
60
0
100
AcDbLine
10
0.615293
20
0
30
0
11
0.615293
21
-2.711288
31
0
39
0
210
0
220
0
230
1
0
LINE
5
86
100
AcDbEntity
8
1
62
256
6
ByLayer
370
18
48
1
60
0
100
AcDbLine
10
45.955974
20
0.03803
30
0
11
45.370139
21
0.684691
31
0
39
0
210
0
220
0
230
1
0
LINE
5
87
100
AcDbEntity
8
1
62
256
6
ByLayer
370
18
48
1
60
0
100
AcDbLine
10
21.5
20
-0.446273
30
0
11
21.5
21
-0.48039
31
0
39
0
210
0
220
0
230
1
0
LINE
5
88
100
AcDbEntity
8
1
62
256
6
ByLayer
370
18
48
1
60
0
100
AcDbLine
10
3.502046
20
0.715174
30
0
11
3.502046
21
2.423771
31
0
39
0
210
0
220
0
230
1
0
LINE
5
89
100
AcDbEntity
8
1
62
256
6
ByLayer
370
18
48
1
60
0
100
AcDbLine
10
0
20
3
30
0
11
0
21
0
31
0
39
0
210
0
220
0
230
1
0
LINE
5
8A
100
AcDbEntity
8
1
62
256
6
ByLayer
370
18
48
1
60
0
100
AcDbLine
10
0
20
0
30
0
11
0
21
-3
31
0
39
0
210
0
220
0
230
1
0
LINE
5
8B
100
AcDbEntity
8
1
62
256
6
ByLayer
370
18
48
1
60
0
100
AcDbLine
10
1.231085
20
2.422575
30
0
11
1.231085
21
0
31
0
39
0
210
0
220
0
230
1
0
LINE
5
8C
100
AcDbEntity
8
1
62
256
6
ByLayer
370
18
48
1
60
0
100
AcDbLine
10
1.231085
20
0
30
0
11
1.231085
21
-2.422575
31
0
39
0
210
0
220
0
230
1
0
LINE
5
8D
100
AcDbEntity
8
SK1
62
256
6
ByLayer
370
18
48
1
60
0
100
AcDbLine
10
-36
20
-1.989749
30
0
11
-36
21
-0.668395
31
0
39
0
210
0
220
0
230
1
0
LINE
5
8F
100
AcDbEntity
8
SK1
62
256
6
ByLayer
370
18
48
1
60
0
100
AcDbLine
10
-35.75
20
-2.108045
30
0
11
-35.75
21
-1.079016
31
0
39
0
210
0
220
0
230
1
0
LINE
5
90
100
AcDbEntity
8
SK1
62
256
6
ByLayer
370
18
48
1
60
0
100
AcDbLine
10
-36
20
-2.065
30
0
11
-36
21
-1.989749
31
0
39
0
210
0
220
0
230
1
0
LINE
5
91
100
AcDbEntity
8
SK1
62
256
6
ByLayer
370
18
48
1
60
0
100
AcDbLine
10
-36
20
2.065
30
0
11
-36
21
-0.66841
31
0
39
0
210
0
220
0
230
1
0
LINE
5
92
100
AcDbEntity
8
SK1
62
256
6
ByLayer
370
18
48
1
60
0
100
AcDbLine
10
-35.065
20
-3
30
0
11
-35.065
21
3
31
0
39
0
210
0
220
0
230
1
0
LINE
5
93
100
AcDbEntity
8
SK1
62
256
6
ByLayer
370
18
48
1
60
0
100
AcDbLine
10
-35.850962
20
-2.030189
30
0
11
-35.850962
21
-1.001181
31
0
39
0
210
0
220
0
230
1
0
LINE
5
94
100
AcDbEntity
8
SK1
62
256
6
ByLayer
370
18
48
1
60
0
100
AcDbLine
10
0
20
3
30
0
11
0
21
-3
31
0
39
0
210
0
220
0
230
1
0
LINE
5
95
100
AcDbEntity
8
SK1
62
256
6
ByLayer
370
18
48
1
60
0
100
AcDbLine
10
-35.65
20
-2.138207
30
0
11
-35.65
21
-1.246401
31
0
39
0
210
0
220
0
230
1
0
LINE
5
96
100
AcDbEntity
8
SK1
62
256
6
ByLayer
370
18
48
1
60
0
100
AcDbLine
10
-36
20
-2.065
30
0
11
-35.065
21
-3
31
0
39
0
210
0
220
0
230
1
0
LINE
5
97
100
AcDbEntity
8
SK1
62
256
6
ByLayer
370
18
48
1
60
0
100
AcDbLine
10
-35.065
20
3
30
0
11
-36
21
2.065
31
0
39
0
210
0
220
0
230
1
0
LINE
5
98
100
AcDbEntity
8
SK1
62
256
6
ByLayer
370
18
48
1
60
0
100
AcDbLine
10
-35.065
20
-3
30
0
11
0
21
-3
31
0
39
0
210
0
220
0
230
1
0
LINE
5
99
100
AcDbEntity
8
SK1
62
256
6
ByLayer
370
18
48
1
60
0
100
AcDbLine
10
0
20
3
30
0
11
-35.065
21
3
31
0
39
0
210
0
220
0
230
1
0
LINE
5
9A
100
AcDbEntity
8
1
62
256
6
ByLayer
370
18
48
1
60
0
100
AcDbLine
10
1.231085
20
-2.422575
30
0
11
3.507654
21
-2.423998
31
0
39
0
210
0
220
0
230
1
0
LINE
5
9B
100
AcDbEntity
8
1
62
256
6
ByLayer
370
18
48
1
60
0
100
AcDbLine
10
3.766764
20
-2.42416
30
0
11
4.591564
21
-2.424676
31
0
39
0
210
0
220
0
230
1
0
LINE
5
9C
100
AcDbEntity
8
1
62
256
6
ByLayer
370
18
48
1
60
0
100
AcDbLine
10
12.296143
20
-2.429491
30
0
11
13.099383
21
-2.429993
31
0
39
0
210
0
220
0
230
1
0
LINE
5
9D
100
AcDbEntity
8
1
62
256
6
ByLayer
370
18
48
1
60
0
100
AcDbLine
10
20.116545
20
-2.434379
30
0
11
20.87439
21
-2.434853
31
0
39
0
210
0
220
0
230
1
0
LINE
5
9E
100
AcDbEntity
8
1
62
256
6
ByLayer
370
18
48
1
60
0
100
AcDbLine
10
28.715612
20
-2.439753
30
0
11
29.447073
21
-2.44021
31
0
39
0
210
0
220
0
230
1
0
LINE
5
9F
100
AcDbEntity
8
1
62
256
6
ByLayer
370
18
48
1
60
0
100
AcDbLine
10
36.470483
20
-2.4446
30
0
11
37.210131
21
-2.445062
31
0
39
0
210
0
220
0
230
1
0
LINE
5
A0
100
AcDbEntity
8
1
62
256
6
ByLayer
370
18
48
1
60
0
100
AcDbLine
10
37.210131
20
2.445062
30
0
11
36.470483
21
2.4446
31
0
39
0
210
0
220
0
230
1
0
LINE
5
A1
100
AcDbEntity
8
1
62
256
6
ByLayer
370
18
48
1
60
0
100
AcDbLine
10
29.447073
20
2.44021
30
0
11
28.715612
21
2.439753
31
0
39
0
210
0
220
0
230
1
0
LINE
5
A2
100
AcDbEntity
8
1
62
256
6
ByLayer
370
18
48
1
60
0
100
AcDbLine
10
20.87439
20
2.434853
30
0
11
20.116545
21
2.434379
31
0
39
0
210
0
220
0
230
1
0
LINE
5
A3
100
AcDbEntity
8
1
62
256
6
ByLayer
370
18
48
1
60
0
100
AcDbLine
10
13.099383
20
2.429993
30
0
11
12.296143
21
2.429491
31
0
39
0
210
0
220
0
230
1
0
LINE
5
A4
100
AcDbEntity
8
1
62
256
6
ByLayer
370
18
48
1
60
0
100
AcDbLine
10
4.542488
20
2.424645
30
0
11
3.766764
21
2.42416
31
0
39
0
210
0
220
0
230
1
0
LINE
5
A5
100
AcDbEntity
8
1
62
256
6
ByLayer
370
18
48
1
60
0
100
AcDbLine
10
3.507654
20
2.423998
30
0
11
1.231085
21
2.422575
31
0
39
0
210
0
220
0
230
1
0
LINE
5
A6
100
AcDbEntity
8
SK4
62
256
6
ByLayer
370
18
48
0.05
60
0
100
AcDbLine
10
51
20
0
30
0
11
-41
21
0
31
0
39
0
210
0
220
0
230
1
0
LINE
5
A8
100
AcDbEntity
8
4
62
256
6
ByLayer
370
18
48
0.05
60
0
100
AcDbLine
10
-36
20
0
30
0
11
51
21
0
31
0
39
0
210
0
220
0
230
1
0
LINE
5
AA
100
AcDbEntity
8
80
62
256
6
ByLayer
370
18
48
1
60
0
100
AcDbLine
10
0
20
0
30
0
11
-6
21
0
31
0
39
0
210
0
220
0
230
1
0
LINE
5
AB
100
AcDbEntity
8
81
62
256
6
ByLayer
370
18
48
1
60
0
100
AcDbLine
10
46
20
0
30
0
11
52
21
0
31
0
39
0
210
0
220
0
230
1
0
LINE
5
AC
100
AcDbEntity
8
SK2
62
256
6
ByLayer
370
13
48
1
60
0
100
AcDbLine
10
46.542942
20
1.491767
30
0
11
53.926104
21
21.777454
31
0
39
0
210
0
220
0
230
1
0
LINE
5
AE
100
AcDbEntity
8
SK2
62
256
6
ByLayer
370
13
48
1
60
0
100
AcDbLine
10
46.542942
20
-1.491767
30
0
11
53.926104
21
-21.777454
31
0
39
0
210
0
220
0
230
1
0
LINE
5
AF
100
AcDbEntity
8
1
62
256
6
ByLayer
370
13
48
1
60
0
100
AcDbLine
10
52.840219
20
18.793919
30
0
11
55.936818
21
17.977577
31
0
39
0
210
0
220
0
230
1
0
LINE
5
B0
100
AcDbEntity
8
1
62
256
6
ByLayer
370
13
48
1
60
0
100
AcDbLine
10
52.840219
20
18.793919
30
0
11
55.620022
21
17.203933
31
0
39
0
210
0
220
0
230
1
0
LINE
5
B1
100
AcDbEntity
8
1
62
256
6
ByLayer
370
13
48
1
60
0
100
AcDbLine
10
55.936818
20
17.977577
30
0
11
55.620022
21
17.203933
31
0
39
0
210
0
220
0
230
1
0
LINE
5
B2
100
AcDbEntity
8
1
62
256
6
ByLayer
370
13
48
1
60
0
100
AcDbLine
10
52.840219
20
-18.793919
30
0
11
55.620019
21
-17.203935
31
0
39
0
210
0
220
0
230
1
0
LINE
5
B3
100
AcDbEntity
8
1
62
256
6
ByLayer
370
13
48
1
60
0
100
AcDbLine
10
52.840219
20
-18.793919
30
0
11
55.936821
21
-17.977576
31
0
39
0
210
0
220
0
230
1
0
LINE
5
B4
100
AcDbEntity
8
1
62
256
6
ByLayer
370
13
48
1
60
0
100
AcDbLine
10
55.620019
20
-17.203935
30
0
11
55.936821
21
-17.977576
31
0
39
0
210
0
220
0
230
1
0
MTEXT
5
118
100
AcDbEntity
8
SK2
62
256
6
ByLayer
370
18
48
1
60
0
100
AcDbMText
10
59.717388
20
-2.467451
30
0
210
0
220
0
230
1
1
\W0.7237;140.00
40
3.50012
41
0
44
1.084337
50
0
71
7
72
5
7
iso_b_vert
0
MTEXT
5
11B
100
AcDbEntity
8
SK6
62
256
6
ByLayer
370
18
48
1
60
0
100
AcDbMText
10
-34.331725
20
-124.127125
30
0
210
0
220
0
230
1
1
\W0.7494;860.1-0490-025A1-GM X1BM
40
3.175
41
0
44
1.084337
50
0
71
7
72
5
7
iso_b_vert
0
DIMENSION
5
11E
100
AcDbEntity
8
SK2
62
256
6
ByLayer
370
18
48
1
60
0
100
AcDbDimension
2
_U0
10
46
20
-26.50012
30
0
11
23
21
-26.50012
31
0
70
32
71
2
72
1
41
1
210
0
220
0
230
1
3
Standard
100
AcDbAlignedDimension
13
0
23
-3
33
0
14
46
24
0
34
0
50
0
100
AcDbRotatedDimension
1001
ACAD
1000
DSTYLE
1002
{
1070
   371
1070
    13
1070
   372
1070
    13
1070
     3
1000

1070
   170
1070
     0
1070
   144
1040
1.0
1070
   277
1070
     2
1070
   284
1070
     8
1070
   278
1070
    46
1070
   146
1040
0.999966
1070
   345
1005
16
1070
   347
1005
16
1070
   346
1005
16
1070
   344
1005
11F
1070
   343
1005
11F
1070
   172
1070
     1
1070
    76
1070
     0
1070
    75
1070
     0
1070
   282
1070
     0
1070
   281
1070
     0
1070
    71
1070
     0
1070
    74
1070
     0
1070
   279
1070
     0
1070
   173
1070
     1
1070
   340
1005
119
1070
   271
1070
     1
1070
   272
1070
     2
1070
    77
1070
     1
1070
    73
1070
     1
1070
   171
1070
     3
1070
   274
1070
     4
1070
   177
1070
   150
1070
   176
1070
     9
1070
   178
1070
    43
1070
    78
1070
     8
1070
    48
1040
-0.1
1070
    41
1040
3.175
1070
   147
1040
1.75006
1070
    42
1040
1.5875
1070
    44
1040
3.175
1070
   140
1040
3.50012
1002
}
1001
ACAD_DSTYLE_DIM_LINETYPE
1070
   380
1005
16
1001
ACAD_DSTYLE_DIM_EXT1_LINETYPE
1070
   381
1005
16
1001
ACAD_DSTYLE_DIM_EXT2_LINETYPE
1070
   382
1005
16
0
DIMENSION
5
144
100
AcDbEntity
8
2
62
256
6
ByLayer
370
18
48
1
60
0
100
AcDbDimension
2
_U1
10
52.75006
20
2.45
30
0
11
52.75006
21
17.939897
31
0
70
32
71
1
72
1
41
1
210
0
220
0
230
1
3
Standard
100
AcDbAlignedDimension
13
45.1083
23
-2.45
33
0
14
45.1083
24
2.45
34
0
50
90
100
AcDbRotatedDimension
1001
ACAD
1000
DSTYLE
1002
{
1070
   371
1070
    13
1070
   372
1070
    13
1070
     3
1000

1070
   170
1070
     0
1070
   144
1040
1.0
1070
   277
1070
     2
1070
   284
1070
     8
1070
   278
1070
    46
1070
   146
1040
0.999966
1070
   345
1005
16
1070
   347
1005
16
1070
   346
1005
16
1070
   344
1005
11F
1070
   343
1005
11F
1070
   172
1070
     1
1070
    76
1070
     0
1070
    75
1070
     0
1070
   282
1070
     0
1070
   281
1070
     0
1070
    71
1070
     0
1070
    74
1070
     0
1070
   279
1070
     0
1070
   173
1070
     1
1070
   340
1005
119
1070
   271
1070
     1
1070
   272
1070
     2
1070
    77
1070
     1
1070
    73
1070
     0
1070
   171
1070
     3
1070
   274
1070
     4
1070
   177
1070
   150
1070
   176
1070
     9
1070
   178
1070
    43
1070
    78
1070
     8
1070
    48
1040
-0.1
1070
    41
1040
3.175
1070
   147
1040
1.75006
1070
    42
1040
1.5875
1070
    44
1040
3.175
1070
   140
1040
3.50012
1002
}
1001
ACAD_DSTYLE_DIM_LINETYPE
1070
   380
1005
16
1001
ACAD_DSTYLE_DIM_EXT1_LINETYPE
1070
   381
1005
16
1001
ACAD_DSTYLE_DIM_EXT2_LINETYPE
1070
   382
1005
16
0
DIMENSION
5
163
100
AcDbEntity
8
SK2
62
256
6
ByLayer
370
18
48
1
60
0
100
AcDbDimension
2
_U2
10
-39.24994
20
-3
30
0
11
-39.24994
21
17.10734
31
0
70
32
71
1
72
1
41
1
210
0
220
0
230
1
3
Standard
100
AcDbAlignedDimension
13
-36
23
3
33
0
14
-36
24
-3
34
0
50
90
100
AcDbRotatedDimension
1001
ACAD
1000
DSTYLE
1002
{
1070
   371
1070
    13
1070
   372
1070
    13
1070
     3
1000

1070
   170
1070
     0
1070
   144
1040
1.0
1070
   277
1070
     2
1070
   284
1070
     8
1070
   278
1070
    46
1070
   146
1040
0.999966
1070
   345
1005
16
1070
   347
1005
16
1070
   346
1005
16
1070
   344
1005
11F
1070
   343
1005
11F
1070
   172
1070
     1
1070
    76
1070
     0
1070
    75
1070
     0
1070
   282
1070
     0
1070
   281
1070
     0
1070
    71
1070
     0
1070
    74
1070
     0
1070
   279
1070
     0
1070
   173
1070
     1
1070
   340
1005
119
1070
   271
1070
     1
1070
   272
1070
     2
1070
    77
1070
     1
1070
    73
1070
     0
1070
   171
1070
     3
1070
   274
1070
     4
1070
   177
1070
   150
1070
   176
1070
     9
1070
   178
1070
    43
1070
    78
1070
     8
1070
    48
1040
-0.1
1070
    41
1040
3.175
1070
   147
1040
1.75006
1070
    42
1040
1.5875
1070
    44
1040
3.175
1070
   140
1040
3.50012
1002
}
1001
ACAD_DSTYLE_DIM_LINETYPE
1070
   380
1005
16
1001
ACAD_DSTYLE_DIM_EXT1_LINETYPE
1070
   381
1005
16
1001
ACAD_DSTYLE_DIM_EXT2_LINETYPE
1070
   382
1005
16
0
DIMENSION
5
181
100
AcDbEntity
8
SK2
62
256
6
ByLayer
370
18
48
1
60
0
100
AcDbDimension
2
_U3
10
0
20
-26.50012
30
0
11
-18
21
-26.50012
31
0
70
32
71
1
72
1
41
1
210
0
220
0
230
1
3
Standard
100
AcDbAlignedDimension
13
-36
23
-3
33
0
14
0
24
-3
34
0
50
0
100
AcDbRotatedDimension
1001
ACAD
1000
DSTYLE
1002
{
1070
   371
1070
    13
1070
   372
1070
    13
1070
     3
1000

1070
   170
1070
     0
1070
   144
1040
1.0
1070
   277
1070
     2
1070
   284
1070
     8
1070
   278
1070
    46
1070
   146
1040
0.999966
1070
   345
1005
16
1070
   347
1005
16
1070
   346
1005
16
1070
   344
1005
11F
1070
   343
1005
11F
1070
   172
1070
     1
1070
    76
1070
     0
1070
    75
1070
     0
1070
   282
1070
     0
1070
   281
1070
     0
1070
    71
1070
     0
1070
    74
1070
     0
1070
   279
1070
     0
1070
   173
1070
     1
1070
   340
1005
119
1070
   271
1070
     1
1070
   272
1070
     2
1070
    77
1070
     1
1070
    73
1070
     1
1070
   171
1070
     3
1070
   274
1070
     4
1070
   177
1070
   150
1070
   176
1070
     9
1070
   178
1070
    43
1070
    78
1070
     8
1070
    48
1040
-0.1
1070
    41
1040
3.175
1070
   147
1040
1.75006
1070
    42
1040
1.5875
1070
    44
1040
3.175
1070
   140
1040
3.50012
1002
}
1001
ACAD_DSTYLE_DIM_LINETYPE
1070
   380
1005
16
1001
ACAD_DSTYLE_DIM_EXT1_LINETYPE
1070
   381
1005
16
1001
ACAD_DSTYLE_DIM_EXT2_LINETYPE
1070
   382
1005
16
0
DIMENSION
5
19D
100
AcDbEntity
8
SK2
62
256
6
ByLayer
370
18
48
1
60
0
100
AcDbDimension
2
_U4
10
46
20
-17.74982
30
0
11
24
21
-17.74982
31
0
70
32
71
1
72
1
41
1
210
0
220
0
230
1
3
Standard
100
AcDbAlignedDimension
13
2
23
2.95
33
0
14
46
24
0
34
0
50
0
100
AcDbRotatedDimension
1001
ACAD
1000
DSTYLE
1002
{
1070
   371
1070
    13
1070
   372
1070
    13
1070
     3
1000

1070
   170
1070
     0
1070
   144
1040
1.0
1070
   277
1070
     2
1070
   284
1070
     8
1070
   278
1070
    46
1070
   146
1040
0.999966
1070
   345
1005
16
1070
   347
1005
16
1070
   346
1005
16
1070
   344
1005
11F
1070
   343
1005
11F
1070
   172
1070
     1
1070
    76
1070
     0
1070
    75
1070
     0
1070
   282
1070
     0
1070
   281
1070
     0
1070
    71
1070
     0
1070
    74
1070
     0
1070
   279
1070
     0
1070
   173
1070
     1
1070
   340
1005
119
1070
   271
1070
     1
1070
   272
1070
     2
1070
    77
1070
     1
1070
    73
1070
     1
1070
   171
1070
     3
1070
   274
1070
     4
1070
   177
1070
   150
1070
   176
1070
     9
1070
   178
1070
    43
1070
    78
1070
     8
1070
    48
1040
-0.1
1070
    41
1040
3.175
1070
   147
1040
1.75006
1070
    42
1040
1.5875
1070
    44
1040
3.175
1070
   140
1040
3.50012
1002
}
1001
ACAD_DSTYLE_DIM_LINETYPE
1070
   380
1005
16
1001
ACAD_DSTYLE_DIM_EXT1_LINETYPE
1070
   381
1005
16
1001
ACAD_DSTYLE_DIM_EXT2_LINETYPE
1070
   382
1005
16
0
DIMENSION
5
1B9
100
AcDbEntity
8
SK2
62
256
6
ByLayer
370
18
48
1
60
0
100
AcDbDimension
2
_U5
10
46
20
-9.82
30
0
11
33.35
21
-9.82
31
0
70
32
71
1
72
1
41
1
210
0
220
0
230
1
3
Standard
100
AcDbAlignedDimension
13
20.7
23
-2.45
33
0
14
46
24
0
34
0
50
0
100
AcDbRotatedDimension
1001
ACAD
1000
DSTYLE
1002
{
1070
   371
1070
    13
1070
   372
1070
    13
1070
     3
1000

1070
   170
1070
     0
1070
   144
1040
1.0
1070
   277
1070
     2
1070
   284
1070
     8
1070
   278
1070
    46
1070
   146
1040
1.25
1070
   345
1005
16
1070
   347
1005
16
1070
   346
1005
16
1070
   344
1005
11F
1070
   343
1005
11F
1070
   172
1070
     1
1070
    76
1070
     0
1070
    75
1070
     0
1070
   282
1070
     0
1070
   281
1070
     0
1070
    71
1070
     0
1070
    74
1070
     0
1070
   279
1070
     0
1070
   173
1070
     1
1070
   340
1005
119
1070
   271
1070
     1
1070
   272
1070
     2
1070
    77
1070
     1
1070
    73
1070
     1
1070
   171
1070
     3
1070
   274
1070
     4
1070
   177
1070
   150
1070
   176
1070
     9
1070
   178
1070
    43
1070
    78
1070
     8
1070
    48
1040
-0.1
1070
    41
1040
3.175
1070
   147
1040
0.42
1070
    42
1040
1.5875
1070
    44
1040
0.5
1070
   140
1040
2.8
1002
}
1001
ACAD_DSTYLE_DIM_LINETYPE
1070
   380
1005
16
1001
ACAD_DSTYLE_DIM_EXT1_LINETYPE
1070
   381
1005
16
1001
ACAD_DSTYLE_DIM_EXT2_LINETYPE
1070
   382
1005
16
0
DIMENSION
5
1D5
100
AcDbEntity
8
SK2
62
256
6
ByLayer
370
18
48
1
60
0
100
AcDbDimension
2
_U6
10
46
20
-36.50012
30
0
11
5
21
-36.50012
31
0
70
32
71
1
72
1
41
1
210
0
220
0
230
1
3
Standard
100
AcDbAlignedDimension
13
-36
23
0
33
0
14
46
24
0
34
0
50
0
100
AcDbRotatedDimension
1001
ACAD
1000
DSTYLE
1002
{
1070
   371
1070
    13
1070
   372
1070
    13
1070
     3
1000

1070
   170
1070
     0
1070
   144
1040
1.0
1070
   277
1070
     2
1070
   284
1070
     8
1070
   278
1070
    46
1070
   146
1040
0.999966
1070
   345
1005
16
1070
   347
1005
16
1070
   346
1005
16
1070
   344
1005
11F
1070
   343
1005
11F
1070
   172
1070
     1
1070
    76
1070
     0
1070
    75
1070
     0
1070
   282
1070
     0
1070
   281
1070
     0
1070
    71
1070
     0
1070
    74
1070
     0
1070
   279
1070
     0
1070
   173
1070
     1
1070
   340
1005
119
1070
   271
1070
     1
1070
   272
1070
     2
1070
    77
1070
     1
1070
    73
1070
     1
1070
   171
1070
     3
1070
   274
1070
     4
1070
   177
1070
   150
1070
   176
1070
     9
1070
   178
1070
    43
1070
    78
1070
     8
1070
    48
1040
-0.1
1070
    41
1040
3.175
1070
   147
1040
1.75006
1070
    42
1040
1.5875
1070
    44
1040
3.175
1070
   140
1040
3.50012
1002
}
1001
ACAD_DSTYLE_DIM_LINETYPE
1070
   380
1005
16
1001
ACAD_DSTYLE_DIM_EXT1_LINETYPE
1070
   381
1005
16
1001
ACAD_DSTYLE_DIM_EXT2_LINETYPE
1070
   382
1005
16
0
ENDSEC
0
SECTION
2
OBJECTS
0
DICTIONARY
5
261
330
0
100
AcDbDictionary
280
0
281
1
3
ACAD_GROUP
350
262
3
ACAD_MLINESTYLE
350
263
0
DICTIONARY
5
262
330
0
100
AcDbDictionary
280
0
281
1
0
DICTIONARY
5
263
330
0
100
AcDbDictionary
280
0
281
1
3
Standard
350
18
0
MLINESTYLE
5
18
330
263
100
AcDbMlineStyle
2
Standard
70
0
3

62
256
51
90
52
90
71
2
49
-0.5
62
256
6
ByLayer
49
0.5
62
256
6
ByLayer
0
RASTERVARIABLES
5
24f
330

100
AcDbRasterVariables
90
0
70
1
71
1
72
1
0
ENDSEC
0
EOF
