0
SECTION
2
HEADER
9
$ACADVER
1
AC1015
9
$DWGCODEPAGE
3
ANSI_1252
9
$HANDSEED
5
253
9
$ANGBASE
50
0
9
$ANGDIR
70
0
9
$ATTMODE
70
1
9
$AUNITS
70
0
9
$AUPREC
70
0
9
$CECOLOR
62
256
9
$CELTSCALE
40
1
9
$CELTYPE
6
ByLayer
9
$CELWEIGHT
370
18
9
$CLAYER
8
0
9
$CMLJUST
70
0
9
$CMLSCALE
40
1
9
$CMLSTYLE
2
Standard
9
$DIMSTYLE
2
Standard
9
$TEXTSIZE
40
0.2
9
$TEXTSTYLE
7
Standard
9
$LUNITS
70
2
9
$LUPREC
70
4
9
$EXTNAMES
290
1
9
$INSUNITS
70
4
9
$LTSCALE
40
1
9
$LWDISPLAY
290
1
9
$PDMODE
70
0
9
$PDSIZE
40
0
9
$PLINEGEN
70
0
0
ENDSEC
0
SECTION
2
CLASSES
0
CLASS
1
RASTERVARIABLES
2
AcDbRasterVariables
3
ISM
90
0
280
0
281
0
0
ENDSEC
0
SECTION
2
TABLES
0
TABLE
2
VPORT
5
249
100
AcDbSymbolTable
0
VPORT
5
1
100
AcDbSymbolTableRecord
100
AcDbViewportTableRecord
2
*Active
70
0
10
0
20
0
11
1
21
1
12
-1
22
1
13
0
23
0
14
0.5
24
0.5
15
10
25
10
16
0
26
0
36
1
17
0
27
0
37
0
0
ENDTAB
0
TABLE
2
LTYPE
5
24a
100
AcDbSymbolTable
0
LTYPE
5
14
100
AcDbSymbolTableRecord
100
AcDbLinetypeTableRecord
70
0
2
ByBlock
3

72
65
73
0
40
0
0
LTYPE
5
15
100
AcDbSymbolTableRecord
100
AcDbLinetypeTableRecord
70
0
2
ByLayer
3

72
65
73
0
40
0
0
LTYPE
5
16
100
AcDbSymbolTableRecord
100
AcDbLinetypeTableRecord
70
0
2
Continuous
3
Solid line
72
65
73
0
40
0
0
LTYPE
5
6E
100
AcDbSymbolTableRecord
100
AcDbLinetypeTableRecord
70
0
2
CENTER
3
____ _ ____ _ ____ _ ____
72
65
73
4
40
47.5
49
22
74
0
49
-8.5
74
0
49
8.5
74
0
49
-8.5
74
0
0
LTYPE
5
6F
100
AcDbSymbolTableRecord
100
AcDbLinetypeTableRecord
70
0
2
DASHED
3
__ __ __ __ __ __ __ __ __
72
65
73
2
40
25.72
49
12.86
74
0
49
-12.86
74
0
0
ENDTAB
0
TABLE
2
LAYER
5
24b
100
AcDbSymbolTable
0
LAYER
5
10
100
AcDbSymbolTableRecord
100
AcDbLayerTableRecord
2
0
70
0
62
7
6
Continuous
290
1
370
-3
390
0
0
LAYER
5
71
100
AcDbSymbolTableRecord
100
AcDbLayerTableRecord
2
80
70
0
62
-6
6
Continuous
290
1
370
-3
390
0
0
LAYER
5
73
100
AcDbSymbolTableRecord
100
AcDbLayerTableRecord
2
81
70
0
62
-3
6
Continuous
290
1
370
-3
390
0
0
LAYER
5
75
100
AcDbSymbolTableRecord
100
AcDbLayerTableRecord
2
1
70
0
62
4
6
Continuous
290
1
370
-3
390
0
0
LAYER
5
A0
100
AcDbSymbolTableRecord
100
AcDbLayerTableRecord
2
4
70
0
62
-2
6
CENTER
290
1
370
-3
390
0
0
LAYER
5
10D
100
AcDbSymbolTableRecord
100
AcDbLayerTableRecord
2
Defpoints
70
0
62
7
6
Continuous
290
0
370
-3
390
0
0
LAYER
5
13A
100
AcDbSymbolTableRecord
100
AcDbLayerTableRecord
2
2
70
0
62
7
6
Continuous
290
1
370
-3
390
0
0
LAYER
5
235
100
AcDbSymbolTableRecord
100
AcDbLayerTableRecord
2
SK1
70
0
62
4
6
Continuous
290
1
370
-3
390
0
0
LAYER
5
236
100
AcDbSymbolTableRecord
100
AcDbLayerTableRecord
2
SK4
70
0
62
2
6
CENTER
290
1
370
-3
390
0
0
LAYER
5
237
100
AcDbSymbolTableRecord
100
AcDbLayerTableRecord
2
SK2
70
0
62
7
6
Continuous
290
1
370
-3
390
0
0
LAYER
5
238
100
AcDbSymbolTableRecord
100
AcDbLayerTableRecord
2
SK6
70
0
62
5
6
Continuous
290
1
370
-3
390
0
0
ENDTAB
0
TABLE
2
STYLE
5
24c
100
AcDbSymbolTable
0
STYLE
5
11
100
AcDbSymbolTableRecord
100
AcDbTextStyleTableRecord
2
Standard
3
txt
70
0
71
0
40
0
41
1
42
0
50
0
0
STYLE
5
FE
100
AcDbSymbolTableRecord
100
AcDbTextStyleTableRecord
2
iso_b_vert
3
simplex.shx
70
0
71
0
40
0
41
1
42
0
50
0
0
STYLE
5
FF
100
AcDbSymbolTableRecord
100
AcDbTextStyleTableRecord
2
DWGDirectTextStyle
3
simplex
70
0
71
0
40
0
41
1
42
0
50
0
0
ENDTAB
0
TABLE
2
DIMSTYLE
5
24d
100
AcDbSymbolTable
100
AcDbDimStyleTable
0
DIMSTYLE
105
27
100
AcDbSymbolTableRecord
100
AcDbDimStyleTableRecord
2
Standard
70
0
3
<>
41
0.18
42
0.0625
44
0.18
140
0.18
147
0.09
73
0
74
0
77
1
271
2
275
0
278
52
280
0
340
11
0
ENDTAB
0
TABLE
2
VIEW
5
24e
100
AcDbSymbolTable
0
ENDTAB
0
TABLE
2
UCS
5
24f
100
AcDbSymbolTable
0
ENDTAB
0
TABLE
2
APPID
5
250
100
AcDbSymbolTable
0
APPID
5
12
100
AcDbSymbolTableRecord
100
AcDbRegAppTableRecord
2
ACAD
70
0
0
APPID
5
102
100
AcDbSymbolTableRecord
100
AcDbRegAppTableRecord
2
ACAD_DSTYLE_DIMBREAK
70
0
0
APPID
5
1F4
100
AcDbSymbolTableRecord
100
AcDbRegAppTableRecord
2
ACAD_DSTYLE_DIM_LINETYPE
70
0
0
APPID
5
1F5
100
AcDbSymbolTableRecord
100
AcDbRegAppTableRecord
2
ACAD_DSTYLE_DIM_EXT1_LINETYPE
70
0
0
APPID
5
1F6
100
AcDbSymbolTableRecord
100
AcDbRegAppTableRecord
2
ACAD_DSTYLE_DIM_EXT2_LINETYPE
70
0
0
APPID
5
231
100
AcDbSymbolTableRecord
100
AcDbRegAppTableRecord
2
ACAD_MLEADERVER
70
0
0
ENDTAB
0
TABLE
2
BLOCK_RECORD
5
251
100
AcDbSymbolTable
0
BLOCK_RECORD
5
1F
100
AcDbSymbolTableRecord
100
AcDbBlockTableRecord
2
*Model_Space
340
0
70
0
0
BLOCK_RECORD
5
1B
100
AcDbSymbolTableRecord
100
AcDbBlockTableRecord
2
*Paper_Space
340
0
70
0
0
BLOCK_RECORD
5
23
100
AcDbSymbolTableRecord
100
AcDbBlockTableRecord
2
*Paper_Space0
340
0
70
0
0
BLOCK_RECORD
5
104
100
AcDbSymbolTableRecord
100
AcDbBlockTableRecord
2
_Closed
340
0
70
0
0
BLOCK_RECORD
5
10E
100
AcDbSymbolTableRecord
100
AcDbBlockTableRecord
2
*D2
340
0
70
0
0
BLOCK_RECORD
5
11A
100
AcDbSymbolTableRecord
100
AcDbBlockTableRecord
2
_U0
340
0
70
0
0
BLOCK_RECORD
5
12C
100
AcDbSymbolTableRecord
100
AcDbBlockTableRecord
2
*D4
340
0
70
0
0
BLOCK_RECORD
5
13B
100
AcDbSymbolTableRecord
100
AcDbBlockTableRecord
2
_U1
340
0
70
0
0
BLOCK_RECORD
5
14B
100
AcDbSymbolTableRecord
100
AcDbBlockTableRecord
2
*D6
340
0
70
0
0
BLOCK_RECORD
5
159
100
AcDbSymbolTableRecord
100
AcDbBlockTableRecord
2
_U2
340
0
70
0
0
BLOCK_RECORD
5
169
100
AcDbSymbolTableRecord
100
AcDbBlockTableRecord
2
*D8
340
0
70
0
0
BLOCK_RECORD
5
175
100
AcDbSymbolTableRecord
100
AcDbBlockTableRecord
2
_U3
340
0
70
0
0
BLOCK_RECORD
5
185
100
AcDbSymbolTableRecord
100
AcDbBlockTableRecord
2
*D10
340
0
70
0
0
BLOCK_RECORD
5
191
100
AcDbSymbolTableRecord
100
AcDbBlockTableRecord
2
_U4
340
0
70
0
0
BLOCK_RECORD
5
1A1
100
AcDbSymbolTableRecord
100
AcDbBlockTableRecord
2
*D12
340
0
70
0
0
BLOCK_RECORD
5
1AD
100
AcDbSymbolTableRecord
100
AcDbBlockTableRecord
2
_U5
340
0
70
0
0
BLOCK_RECORD
5
1BD
100
AcDbSymbolTableRecord
100
AcDbBlockTableRecord
2
*D14
340
0
70
0
0
BLOCK_RECORD
5
1C9
100
AcDbSymbolTableRecord
100
AcDbBlockTableRecord
2
_U6
340
0
70
0
0
ENDTAB
0
ENDSEC
0
SECTION
2
BLOCKS
0
BLOCK
5
20
100
AcDbEntity
8
0
100
AcDbBlockBegin
2
*Model_Space
70
0
10
0
20
0
30
0
3
*Model_Space
0
ENDBLK
5
21
100
AcDbEntity
8
0
100
AcDbBlockEnd
0
BLOCK
5
1C
100
AcDbEntity
8
0
100
AcDbBlockBegin
2
*Paper_Space
70
0
10
0
20
0
30
0
3
*Paper_Space
0
ENDBLK
5
1D
100
AcDbEntity
8
0
100
AcDbBlockEnd
0
BLOCK
5
24
100
AcDbEntity
8
0
100
AcDbBlockBegin
2
*Paper_Space0
70
0
10
0
20
0
30
0
3
*Paper_Space0
0
ENDBLK
5
25
100
AcDbEntity
8
0
100
AcDbBlockEnd
0
BLOCK
5
105
100
AcDbEntity
8
0
100
AcDbBlockBegin
2
_Closed
70
0
10
0
20
0
30
0
3
_Closed
0
LINE
5
107
100
AcDbEntity
8
0
62
256
6
ByLayer
370
-2
48
1
60
0
100
AcDbLine
10
-1
20
0.166667
30
0
11
0
21
0
31
0
39
0
210
0
220
0
230
1
0
LINE
5
108
100
AcDbEntity
8
0
62
256
6
ByLayer
370
-2
48
1
60
0
100
AcDbLine
10
0
20
0
30
0
11
-1
21
-0.166667
31
0
39
0
210
0
220
0
230
1
0
LINE
5
109
100
AcDbEntity
8
0
62
256
6
ByLayer
370
-2
48
1
60
0
100
AcDbLine
10
-1
20
0.166667
30
0
11
-1
21
-0.166667
31
0
39
0
210
0
220
0
230
1
0
LINE
5
10A
100
AcDbEntity
8
0
62
256
6
ByLayer
370
-2
48
1
60
0
100
AcDbLine
10
0
20
0
30
0
11
-1
21
0
31
0
39
0
210
0
220
0
230
1
0
ENDBLK
5
106
100
AcDbEntity
8
0
100
AcDbBlockEnd
0
BLOCK
5
10F
100
AcDbEntity
8
0
100
AcDbBlockBegin
2
*D2
70
1
10
0
20
0
30
0
3
*D2
0
LINE
5
111
100
AcDbEntity
8
0
62
256
6
ByLayer
370
-2
48
1
60
0
100
AcDbLine
10
0
20
-4.5875
30
0
11
0
21
-29.67512
31
0
39
0
210
0
220
0
230
1
0
LINE
5
112
100
AcDbEntity
8
0
62
256
6
ByLayer
370
-2
48
1
60
0
100
AcDbLine
10
30
20
-1.5875
30
0
11
30
21
-29.67512
31
0
39
0
210
0
220
0
230
1
0
LINE
5
113
100
AcDbEntity
8
0
62
256
6
ByLayer
370
-2
48
1
60
0
100
AcDbLine
10
3.175
20
-26.50012
30
0
11
26.825
21
-26.50012
31
0
39
0
210
0
220
0
230
1
0
SOLID
5
114
100
AcDbEntity
8
0
62
256
6
ByLayer
370
-1
48
1
60
0
100
AcDbTrace
10
3.175
20
-25.970953
30
0
11
3.175
21
-27.029287
31
0
12
0
22
-26.50012
32
0
13
0
23
-26.50012
33
0
39
0
210
0
220
0
230
1
0
SOLID
5
115
100
AcDbEntity
8
0
62
256
6
ByLayer
370
-1
48
1
60
0
100
AcDbTrace
10
26.825
20
-27.029287
30
0
11
26.825
21
-25.970953
31
0
12
30
22
-26.50012
32
0
13
30
23
-26.50012
33
0
39
0
210
0
220
0
230
1
0
MTEXT
5
116
100
AcDbEntity
8
0
62
256
6
ByLayer
370
18
48
1
60
0
100
AcDbMText
10
15
20
-19.19362
30
0
210
0
220
0
230
1
1
\A1;30
40
3.50012
41
0
44
1
50
0
71
5
72
5
7
iso_b_vert
0
POINT
5
117
100
AcDbEntity
8
Defpoints
62
0
6
ByLayer
370
-1
48
1
60
0
100
AcDbPoint
10
0
20
-3
30
0
39
0
210
0
220
0
230
1
50
360
0
POINT
5
118
100
AcDbEntity
8
Defpoints
62
0
6
ByLayer
370
-1
48
1
60
0
100
AcDbPoint
10
30
20
0
30
0
39
0
210
0
220
0
230
1
50
360
0
POINT
5
119
100
AcDbEntity
8
Defpoints
62
0
6
ByLayer
370
-1
48
1
60
0
100
AcDbPoint
10
30
20
-26.50012
30
0
39
0
210
0
220
0
230
1
50
360
0
ENDBLK
5
110
100
AcDbEntity
8
0
100
AcDbBlockEnd
0
BLOCK
5
127
100
AcDbEntity
8
0
100
AcDbBlockBegin
2
_U0
70
0
10
0
20
0
30
0
3
_U0
0
MTEXT
5
11B
100
AcDbEntity
8
SK2
62
256
6
ByLayer
370
18
48
1
60
0
100
AcDbMText
10
9.770389
20
-25.467451
30
0
210
0
220
0
230
1
1
\W0.7468;30.00
40
3.50012
41
0
44
1.084337
50
0
71
7
72
5
7
iso_b_vert
0
MTEXT
5
11C
100
AcDbEntity
8
SK2
62
256
6
ByLayer
370
18
48
1
60
0
100
AcDbMText
10
6.244329
20
-25.400814
30
0
210
0
220
0
230
1
1
\W0.1790;(
40
3.175
41
0
44
1.084337
50
0
71
7
72
5
7
iso_b_vert
0
MTEXT
5
11D
100
AcDbEntity
8
SK2
62
256
6
ByLayer
370
18
48
1
60
0
100
AcDbMText
10
23.758393
20
-25.400814
30
0
210
0
220
0
230
1
1
\W0.1969;)
40
3.175
41
0
44
1.084337
50
0
71
7
72
5
7
iso_b_vert
0
LINE
5
11E
100
AcDbEntity
8
SK2
62
256
6
ByLayer
370
13
48
1
60
0
100
AcDbLine
10
0
20
-4.5875
30
0
11
0
21
-29.67512
31
0
39
0
210
0
220
0
230
1
0
LINE
5
11F
100
AcDbEntity
8
SK2
62
256
6
ByLayer
370
13
48
1
60
0
100
AcDbLine
10
30
20
-1.5875
30
0
11
30
21
-29.67512
31
0
39
0
210
0
220
0
230
1
0
LINE
5
120
100
AcDbEntity
8
SK2
62
256
6
ByLayer
370
13
48
1
60
0
100
AcDbLine
10
0
20
-26.50012
30
0
11
30
21
-26.50012
31
0
39
0
210
0
220
0
230
1
0
LINE
5
121
100
AcDbEntity
8
SK2
62
256
6
ByLayer
370
13
48
1
60
0
100
AcDbLine
10
0
20
-26.50012
30
0
11
3.174998
21
-26.082123
31
0
39
0
210
0
220
0
230
1
0
LINE
5
122
100
AcDbEntity
8
SK2
62
256
6
ByLayer
370
13
48
1
60
0
100
AcDbLine
10
0
20
-26.50012
30
0
11
3.175002
21
-26.918117
31
0
39
0
210
0
220
0
230
1
0
LINE
5
123
100
AcDbEntity
8
SK2
62
256
6
ByLayer
370
13
48
1
60
0
100
AcDbLine
10
3.174998
20
-26.082123
30
0
11
3.175002
21
-26.918117
31
0
39
0
210
0
220
0
230
1
0
LINE
5
124
100
AcDbEntity
8
SK2
62
256
6
ByLayer
370
13
48
1
60
0
100
AcDbLine
10
30
20
-26.50012
30
0
11
26.825002
21
-26.918117
31
0
39
0
210
0
220
0
230
1
0
LINE
5
125
100
AcDbEntity
8
SK2
62
256
6
ByLayer
370
13
48
1
60
0
100
AcDbLine
10
30
20
-26.50012
30
0
11
26.824998
21
-26.082123
31
0
39
0
210
0
220
0
230
1
0
LINE
5
126
100
AcDbEntity
8
SK2
62
256
6
ByLayer
370
13
48
1
60
0
100
AcDbLine
10
26.825002
20
-26.918117
30
0
11
26.824998
21
-26.082123
31
0
39
0
210
0
220
0
230
1
0
ENDBLK
5
128
100
AcDbEntity
8
0
100
AcDbBlockEnd
0
BLOCK
5
12D
100
AcDbEntity
8
0
100
AcDbBlockBegin
2
*D4
70
1
10
0
20
0
30
0
3
*D4
0
LINE
5
12F
100
AcDbEntity
8
0
62
256
6
ByLayer
370
-2
48
1
60
0
100
AcDbLine
10
30.532
20
-2.9
30
0
11
39.92506
21
-2.9
31
0
39
0
210
0
220
0
230
1
0
LINE
5
130
100
AcDbEntity
8
0
62
256
6
ByLayer
370
-2
48
1
60
0
100
AcDbLine
10
30.532
20
2.9
30
0
11
39.92506
21
2.9
31
0
39
0
210
0
220
0
230
1
0
LINE
5
131
100
AcDbEntity
8
0
62
256
6
ByLayer
370
-2
48
1
60
0
100
AcDbLine
10
36.75006
20
2.9
30
0
11
36.75006
21
27.696466
31
0
39
0
210
0
220
0
230
1
0
LINE
5
132
100
AcDbEntity
8
0
62
256
6
ByLayer
370
-2
48
1
60
0
100
AcDbLine
10
36.75006
20
-6.075
30
0
11
36.75006
21
-9.25
31
0
39
0
210
0
220
0
230
1
0
LINE
5
133
100
AcDbEntity
8
0
62
256
6
ByLayer
370
-2
48
1
60
0
100
AcDbLine
10
36.75006
20
6.075
30
0
11
36.75006
21
9.25
31
0
39
0
210
0
220
0
230
1
0
SOLID
5
134
100
AcDbEntity
8
0
62
256
6
ByLayer
370
-1
48
1
60
0
100
AcDbTrace
10
37.279227
20
-6.075
30
0
11
36.220893
21
-6.075
31
0
12
36.75006
22
-2.9
32
0
13
36.75006
23
-2.9
33
0
39
0
210
0
220
0
230
1
0
SOLID
5
135
100
AcDbEntity
8
0
62
256
6
ByLayer
370
-1
48
1
60
0
100
AcDbTrace
10
36.220893
20
6.075
30
0
11
37.279227
21
6.075
31
0
12
36.75006
22
2.9
32
0
13
36.75006
23
2.9
33
0
39
0
210
0
220
0
230
1
0
MTEXT
5
136
100
AcDbEntity
8
0
62
256
6
ByLayer
370
18
48
1
60
0
100
AcDbMText
10
29.443559
20
18.473233
30
0
210
0
220
0
230
1
1
\A1;5.8
40
3.50012
41
0
44
1
50
90
71
5
72
5
7
iso_b_vert
0
POINT
5
137
100
AcDbEntity
8
Defpoints
62
0
6
ByLayer
370
-1
48
1
60
0
100
AcDbPoint
10
28.9445
20
-2.9
30
0
39
0
210
0
220
0
230
1
50
360
0
POINT
5
138
100
AcDbEntity
8
Defpoints
62
0
6
ByLayer
370
-1
48
1
60
0
100
AcDbPoint
10
28.9445
20
2.9
30
0
39
0
210
0
220
0
230
1
50
360
0
POINT
5
139
100
AcDbEntity
8
Defpoints
62
0
6
ByLayer
370
-1
48
1
60
0
100
AcDbPoint
10
36.75006
20
2.9
30
0
39
0
210
0
220
0
230
1
50
360
0
ENDBLK
5
12E
100
AcDbEntity
8
0
100
AcDbBlockEnd
0
BLOCK
5
146
100
AcDbEntity
8
0
100
AcDbBlockBegin
2
_U1
70
0
10
0
20
0
30
0
3
_U1
0
MTEXT
5
13C
100
AcDbEntity
8
2
62
256
6
ByLayer
370
18
48
1
60
0
100
AcDbMText
10
36.060403
20
7.057505
30
0
210
0
220
0
230
1
1
\W0.7346;5.80
40
3.50012
41
0
44
1.084337
50
90
71
7
72
5
7
iso_b_vert
0
LINE
5
13D
100
AcDbEntity
8
2
62
256
6
ByLayer
370
13
48
1
60
0
100
AcDbLine
10
30.532
20
-2.9
30
0
11
39.92506
21
-2.9
31
0
39
0
210
0
220
0
230
1
0
LINE
5
13E
100
AcDbEntity
8
2
62
256
6
ByLayer
370
13
48
1
60
0
100
AcDbLine
10
30.532
20
2.9
30
0
11
39.92506
21
2.9
31
0
39
0
210
0
220
0
230
1
0
LINE
5
13F
100
AcDbEntity
8
2
62
256
6
ByLayer
370
13
48
1
60
0
100
AcDbLine
10
36.75006
20
15.11468
30
0
11
36.75006
21
-11.6503
31
0
39
0
210
0
220
0
230
1
0
LINE
5
140
100
AcDbEntity
8
2
62
256
6
ByLayer
370
13
48
1
60
0
100
AcDbLine
10
36.75006
20
-2.9
30
0
11
37.168057
21
-6.074998
31
0
39
0
210
0
220
0
230
1
0
LINE
5
141
100
AcDbEntity
8
2
62
256
6
ByLayer
370
13
48
1
60
0
100
AcDbLine
10
36.75006
20
-2.9
30
0
11
36.332063
21
-6.075002
31
0
39
0
210
0
220
0
230
1
0
LINE
5
142
100
AcDbEntity
8
2
62
256
6
ByLayer
370
13
48
1
60
0
100
AcDbLine
10
37.168057
20
-6.074998
30
0
11
36.332063
21
-6.075002
31
0
39
0
210
0
220
0
230
1
0
LINE
5
143
100
AcDbEntity
8
2
62
256
6
ByLayer
370
13
48
1
60
0
100
AcDbLine
10
36.75006
20
2.9
30
0
11
36.332063
21
6.074998
31
0
39
0
210
0
220
0
230
1
0
LINE
5
144
100
AcDbEntity
8
2
62
256
6
ByLayer
370
13
48
1
60
0
100
AcDbLine
10
36.75006
20
2.9
30
0
11
37.168057
21
6.075002
31
0
39
0
210
0
220
0
230
1
0
LINE
5
145
100
AcDbEntity
8
2
62
256
6
ByLayer
370
13
48
1
60
0
100
AcDbLine
10
36.332063
20
6.074998
30
0
11
37.168057
21
6.075002
31
0
39
0
210
0
220
0
230
1
0
ENDBLK
5
147
100
AcDbEntity
8
0
100
AcDbBlockEnd
0
BLOCK
5
14C
100
AcDbEntity
8
0
100
AcDbBlockBegin
2
*D6
70
1
10
0
20
0
30
0
3
*D6
0
LINE
5
14E
100
AcDbEntity
8
0
62
256
6
ByLayer
370
-2
48
1
60
0
100
AcDbLine
10
-37.5875
20
3
30
0
11
-42.42494
21
3
31
0
39
0
210
0
220
0
230
1
0
LINE
5
14F
100
AcDbEntity
8
0
62
256
6
ByLayer
370
-2
48
1
60
0
100
AcDbLine
10
-37.5875
20
-3
30
0
11
-42.42494
21
-3
31
0
39
0
210
0
220
0
230
1
0
LINE
5
150
100
AcDbEntity
8
0
62
256
6
ByLayer
370
-2
48
1
60
0
100
AcDbLine
10
-39.24994
20
3
30
0
11
-39.24994
21
23.747151
31
0
39
0
210
0
220
0
230
1
0
LINE
5
151
100
AcDbEntity
8
0
62
256
6
ByLayer
370
-2
48
1
60
0
100
AcDbLine
10
-39.24994
20
6.175
30
0
11
-39.24994
21
9.35
31
0
39
0
210
0
220
0
230
1
0
LINE
5
152
100
AcDbEntity
8
0
62
256
6
ByLayer
370
-2
48
1
60
0
100
AcDbLine
10
-39.24994
20
-6.175
30
0
11
-39.24994
21
-9.35
31
0
39
0
210
0
220
0
230
1
0
SOLID
5
153
100
AcDbEntity
8
0
62
256
6
ByLayer
370
-1
48
1
60
0
100
AcDbTrace
10
-39.779107
20
6.175
30
0
11
-38.720773
21
6.175
31
0
12
-39.24994
22
3
32
0
13
-39.24994
23
3
33
0
39
0
210
0
220
0
230
1
0
SOLID
5
154
100
AcDbEntity
8
0
62
256
6
ByLayer
370
-1
48
1
60
0
100
AcDbTrace
10
-38.720773
20
-6.175
30
0
11
-39.779107
21
-6.175
31
0
12
-39.24994
22
-3
32
0
13
-39.24994
23
-3
33
0
39
0
210
0
220
0
230
1
0
MTEXT
5
155
100
AcDbEntity
8
0
62
256
6
ByLayer
370
18
48
1
60
0
100
AcDbMText
10
-46.556441
20
17.10734
30
0
210
0
220
0
230
1
1
\A1;6
40
3.50012
41
0
44
1
50
90
71
5
72
5
7
iso_b_vert
0
POINT
5
156
100
AcDbEntity
8
Defpoints
62
0
6
ByLayer
370
-1
48
1
60
0
100
AcDbPoint
10
-36
20
3
30
0
39
0
210
0
220
0
230
1
50
360
0
POINT
5
157
100
AcDbEntity
8
Defpoints
62
0
6
ByLayer
370
-1
48
1
60
0
100
AcDbPoint
10
-36
20
-3
30
0
39
0
210
0
220
0
230
1
50
360
0
POINT
5
158
100
AcDbEntity
8
Defpoints
62
0
6
ByLayer
370
-1
48
1
60
0
100
AcDbPoint
10
-39.24994
20
-3
30
0
39
0
210
0
220
0
230
1
50
360
0
ENDBLK
5
14D
100
AcDbEntity
8
0
100
AcDbBlockEnd
0
BLOCK
5
164
100
AcDbEntity
8
0
100
AcDbBlockBegin
2
_U2
70
0
10
0
20
0
30
0
3
_U2
0
MTEXT
5
15A
100
AcDbEntity
8
SK2
62
256
6
ByLayer
370
18
48
1
60
0
100
AcDbMText
10
-39.939597
20
13.157505
30
0
210
0
220
0
230
1
1
\W0.7346;6.00
40
3.50012
41
0
44
1.084337
50
90
71
7
72
5
7
iso_b_vert
0
LINE
5
15B
100
AcDbEntity
8
SK2
62
256
6
ByLayer
370
13
48
1
60
0
100
AcDbLine
10
-37.5875
20
3
30
0
11
-42.42494
21
3
31
0
39
0
210
0
220
0
230
1
0
LINE
5
15C
100
AcDbEntity
8
SK2
62
256
6
ByLayer
370
13
48
1
60
0
100
AcDbLine
10
-37.5875
20
-3
30
0
11
-42.42494
21
-3
31
0
39
0
210
0
220
0
230
1
0
LINE
5
15D
100
AcDbEntity
8
SK2
62
256
6
ByLayer
370
13
48
1
60
0
100
AcDbLine
10
-39.24994
20
-11.7503
30
0
11
-39.24994
21
21.21468
31
0
39
0
210
0
220
0
230
1
0
LINE
5
15E
100
AcDbEntity
8
SK2
62
256
6
ByLayer
370
13
48
1
60
0
100
AcDbLine
10
-39.24994
20
3
30
0
11
-39.667937
21
6.174998
31
0
39
0
210
0
220
0
230
1
0
LINE
5
15F
100
AcDbEntity
8
SK2
62
256
6
ByLayer
370
13
48
1
60
0
100
AcDbLine
10
-39.24994
20
3
30
0
11
-38.831943
21
6.175002
31
0
39
0
210
0
220
0
230
1
0
LINE
5
160
100
AcDbEntity
8
SK2
62
256
6
ByLayer
370
13
48
1
60
0
100
AcDbLine
10
-39.667937
20
6.174998
30
0
11
-38.831943
21
6.175002
31
0
39
0
210
0
220
0
230
1
0
LINE
5
161
100
AcDbEntity
8
SK2
62
256
6
ByLayer
370
13
48
1
60
0
100
AcDbLine
10
-39.24994
20
-3
30
0
11
-38.831943
21
-6.174998
31
0
39
0
210
0
220
0
230
1
0
LINE
5
162
100
AcDbEntity
8
SK2
62
256
6
ByLayer
370
13
48
1
60
0
100
AcDbLine
10
-39.24994
20
-3
30
0
11
-39.667937
21
-6.175002
31
0
39
0
210
0
220
0
230
1
0
LINE
5
163
100
AcDbEntity
8
SK2
62
256
6
ByLayer
370
13
48
1
60
0
100
AcDbLine
10
-38.831943
20
-6.174998
30
0
11
-39.667937
21
-6.175002
31
0
39
0
210
0
220
0
230
1
0
ENDBLK
5
165
100
AcDbEntity
8
0
100
AcDbBlockEnd
0
BLOCK
5
16A
100
AcDbEntity
8
0
100
AcDbBlockBegin
2
*D8
70
1
10
0
20
0
30
0
3
*D8
0
LINE
5
16C
100
AcDbEntity
8
0
62
256
6
ByLayer
370
-2
48
1
60
0
100
AcDbLine
10
-36
20
-4.5875
30
0
11
-36
21
-29.67512
31
0
39
0
210
0
220
0
230
1
0
LINE
5
16D
100
AcDbEntity
8
0
62
256
6
ByLayer
370
-2
48
1
60
0
100
AcDbLine
10
0
20
-4.5875
30
0
11
0
21
-29.67512
31
0
39
0
210
0
220
0
230
1
0
LINE
5
16E
100
AcDbEntity
8
0
62
256
6
ByLayer
370
-2
48
1
60
0
100
AcDbLine
10
-32.825
20
-26.50012
30
0
11
-3.175
21
-26.50012
31
0
39
0
210
0
220
0
230
1
0
SOLID
5
16F
100
AcDbEntity
8
0
62
256
6
ByLayer
370
-1
48
1
60
0
100
AcDbTrace
10
-32.825
20
-25.970953
30
0
11
-32.825
21
-27.029287
31
0
12
-36
22
-26.50012
32
0
13
-36
23
-26.50012
33
0
39
0
210
0
220
0
230
1
0
SOLID
5
170
100
AcDbEntity
8
0
62
256
6
ByLayer
370
-1
48
1
60
0
100
AcDbTrace
10
-3.175
20
-27.029287
30
0
11
-3.175
21
-25.970953
31
0
12
0
22
-26.50012
32
0
13
0
23
-26.50012
33
0
39
0
210
0
220
0
230
1
0
MTEXT
5
171
100
AcDbEntity
8
0
62
256
6
ByLayer
370
18
48
1
60
0
100
AcDbMText
10
-18
20
-19.193619
30
0
210
0
220
0
230
1
1
\A1;36
40
3.50012
41
0
44
1
50
0
71
5
72
5
7
iso_b_vert
0
POINT
5
172
100
AcDbEntity
8
Defpoints
62
0
6
ByLayer
370
-1
48
1
60
0
100
AcDbPoint
10
-36
20
-3
30
0
39
0
210
0
220
0
230
1
50
360
0
POINT
5
173
100
AcDbEntity
8
Defpoints
62
0
6
ByLayer
370
-1
48
1
60
0
100
AcDbPoint
10
0
20
-3
30
0
39
0
210
0
220
0
230
1
50
360
0
POINT
5
174
100
AcDbEntity
8
Defpoints
62
0
6
ByLayer
370
-1
48
1
60
0
100
AcDbPoint
10
0
20
-26.50012
30
0
39
0
210
0
220
0
230
1
50
360
0
ENDBLK
5
16B
100
AcDbEntity
8
0
100
AcDbBlockEnd
0
BLOCK
5
180
100
AcDbEntity
8
0
100
AcDbBlockBegin
2
_U3
70
0
10
0
20
0
30
0
3
_U3
0
MTEXT
5
176
100
AcDbEntity
8
SK2
62
256
6
ByLayer
370
18
48
1
60
0
100
AcDbMText
10
-23.229611
20
-25.467451
30
0
210
0
220
0
230
1
1
\W0.7468;36.00
40
3.50012
41
0
44
1.084337
50
0
71
7
72
5
7
iso_b_vert
0
LINE
5
177
100
AcDbEntity
8
SK2
62
256
6
ByLayer
370
13
48
1
60
0
100
AcDbLine
10
-36
20
-4.5875
30
0
11
-36
21
-29.67512
31
0
39
0
210
0
220
0
230
1
0
LINE
5
178
100
AcDbEntity
8
SK2
62
256
6
ByLayer
370
13
48
1
60
0
100
AcDbLine
10
0
20
-4.5875
30
0
11
0
21
-29.67512
31
0
39
0
210
0
220
0
230
1
0
LINE
5
179
100
AcDbEntity
8
SK2
62
256
6
ByLayer
370
13
48
1
60
0
100
AcDbLine
10
-36
20
-26.50012
30
0
11
0
21
-26.50012
31
0
39
0
210
0
220
0
230
1
0
LINE
5
17A
100
AcDbEntity
8
SK2
62
256
6
ByLayer
370
13
48
1
60
0
100
AcDbLine
10
-36
20
-26.50012
30
0
11
-32.825002
21
-26.082123
31
0
39
0
210
0
220
0
230
1
0
LINE
5
17B
100
AcDbEntity
8
SK2
62
256
6
ByLayer
370
13
48
1
60
0
100
AcDbLine
10
-36
20
-26.50012
30
0
11
-32.824998
21
-26.918117
31
0
39
0
210
0
220
0
230
1
0
LINE
5
17C
100
AcDbEntity
8
SK2
62
256
6
ByLayer
370
13
48
1
60
0
100
AcDbLine
10
-32.825002
20
-26.082123
30
0
11
-32.824998
21
-26.918117
31
0
39
0
210
0
220
0
230
1
0
LINE
5
17D
100
AcDbEntity
8
SK2
62
256
6
ByLayer
370
13
48
1
60
0
100
AcDbLine
10
0
20
-26.50012
30
0
11
-3.174998
21
-26.918117
31
0
39
0
210
0
220
0
230
1
0
LINE
5
17E
100
AcDbEntity
8
SK2
62
256
6
ByLayer
370
13
48
1
60
0
100
AcDbLine
10
0
20
-26.50012
30
0
11
-3.175002
21
-26.082123
31
0
39
0
210
0
220
0
230
1
0
LINE
5
17F
100
AcDbEntity
8
SK2
62
256
6
ByLayer
370
13
48
1
60
0
100
AcDbLine
10
-3.174998
20
-26.918117
30
0
11
-3.175002
21
-26.082123
31
0
39
0
210
0
220
0
230
1
0
ENDBLK
5
181
100
AcDbEntity
8
0
100
AcDbBlockEnd
0
BLOCK
5
186
100
AcDbEntity
8
0
100
AcDbBlockBegin
2
*D10
70
1
10
0
20
0
30
0
3
*D10
0
LINE
5
188
100
AcDbEntity
8
0
62
256
6
ByLayer
370
-2
48
1
60
0
100
AcDbLine
10
2
20
1.8125
30
0
11
2
21
-20.92482
31
0
39
0
210
0
220
0
230
1
0
LINE
5
189
100
AcDbEntity
8
0
62
256
6
ByLayer
370
-2
48
1
60
0
100
AcDbLine
10
30
20
-1.5875
30
0
11
30
21
-20.92482
31
0
39
0
210
0
220
0
230
1
0
LINE
5
18A
100
AcDbEntity
8
0
62
256
6
ByLayer
370
-2
48
1
60
0
100
AcDbLine
10
5.175
20
-17.74982
30
0
11
26.825
21
-17.74982
31
0
39
0
210
0
220
0
230
1
0
SOLID
5
18B
100
AcDbEntity
8
0
62
256
6
ByLayer
370
-1
48
1
60
0
100
AcDbTrace
10
5.175
20
-17.220653
30
0
11
5.175
21
-18.278987
31
0
12
2
22
-17.74982
32
0
13
2
23
-17.74982
33
0
39
0
210
0
220
0
230
1
0
SOLID
5
18C
100
AcDbEntity
8
0
62
256
6
ByLayer
370
-1
48
1
60
0
100
AcDbTrace
10
26.825
20
-18.278987
30
0
11
26.825
21
-17.220653
31
0
12
30
22
-17.74982
32
0
13
30
23
-17.74982
33
0
39
0
210
0
220
0
230
1
0
MTEXT
5
18D
100
AcDbEntity
8
0
62
256
6
ByLayer
370
18
48
1
60
0
100
AcDbMText
10
16
20
-10.44332
30
0
210
0
220
0
230
1
1
\A1;28
40
3.50012
41
0
44
1
50
0
71
5
72
5
7
iso_b_vert
0
POINT
5
18E
100
AcDbEntity
8
Defpoints
62
0
6
ByLayer
370
-1
48
1
60
0
100
AcDbPoint
10
2
20
3.4
30
0
39
0
210
0
220
0
230
1
50
360
0
POINT
5
18F
100
AcDbEntity
8
Defpoints
62
0
6
ByLayer
370
-1
48
1
60
0
100
AcDbPoint
10
30
20
0
30
0
39
0
210
0
220
0
230
1
50
360
0
POINT
5
190
100
AcDbEntity
8
Defpoints
62
0
6
ByLayer
370
-1
48
1
60
0
100
AcDbPoint
10
30
20
-17.74982
30
0
39
0
210
0
220
0
230
1
50
360
0
ENDBLK
5
187
100
AcDbEntity
8
0
100
AcDbBlockEnd
0
BLOCK
5
19C
100
AcDbEntity
8
0
100
AcDbBlockBegin
2
_U4
70
0
10
0
20
0
30
0
3
_U4
0
MTEXT
5
192
100
AcDbEntity
8
SK2
62
256
6
ByLayer
370
18
48
1
60
0
100
AcDbMText
10
10.770389
20
-16.717151
30
0
210
0
220
0
230
1
1
\W0.7468;28.00
40
3.50012
41
0
44
1.084337
50
0
71
7
72
5
7
iso_b_vert
0
LINE
5
193
100
AcDbEntity
8
SK2
62
256
6
ByLayer
370
13
48
1
60
0
100
AcDbLine
10
2
20
1.8125
30
0
11
2
21
-20.92482
31
0
39
0
210
0
220
0
230
1
0
LINE
5
194
100
AcDbEntity
8
SK2
62
256
6
ByLayer
370
13
48
1
60
0
100
AcDbLine
10
30
20
-1.5875
30
0
11
30
21
-20.92482
31
0
39
0
210
0
220
0
230
1
0
LINE
5
195
100
AcDbEntity
8
SK2
62
256
6
ByLayer
370
13
48
1
60
0
100
AcDbLine
10
2
20
-17.74982
30
0
11
30
21
-17.74982
31
0
39
0
210
0
220
0
230
1
0
LINE
5
196
100
AcDbEntity
8
SK2
62
256
6
ByLayer
370
13
48
1
60
0
100
AcDbLine
10
2
20
-17.74982
30
0
11
5.174998
21
-17.331823
31
0
39
0
210
0
220
0
230
1
0
LINE
5
197
100
AcDbEntity
8
SK2
62
256
6
ByLayer
370
13
48
1
60
0
100
AcDbLine
10
2
20
-17.74982
30
0
11
5.175002
21
-18.167817
31
0
39
0
210
0
220
0
230
1
0
LINE
5
198
100
AcDbEntity
8
SK2
62
256
6
ByLayer
370
13
48
1
60
0
100
AcDbLine
10
5.174998
20
-17.331823
30
0
11
5.175002
21
-18.167817
31
0
39
0
210
0
220
0
230
1
0
LINE
5
199
100
AcDbEntity
8
SK2
62
256
6
ByLayer
370
13
48
1
60
0
100
AcDbLine
10
30
20
-17.74982
30
0
11
26.825002
21
-18.167817
31
0
39
0
210
0
220
0
230
1
0
LINE
5
19A
100
AcDbEntity
8
SK2
62
256
6
ByLayer
370
13
48
1
60
0
100
AcDbLine
10
30
20
-17.74982
30
0
11
26.824998
21
-17.331823
31
0
39
0
210
0
220
0
230
1
0
LINE
5
19B
100
AcDbEntity
8
SK2
62
256
6
ByLayer
370
13
48
1
60
0
100
AcDbLine
10
26.825002
20
-18.167817
30
0
11
26.824998
21
-17.331823
31
0
39
0
210
0
220
0
230
1
0
ENDBLK
5
19D
100
AcDbEntity
8
0
100
AcDbBlockEnd
0
BLOCK
5
1A2
100
AcDbEntity
8
0
100
AcDbBlockBegin
2
*D12
70
1
10
0
20
0
30
0
3
*D12
0
LINE
5
1A4
100
AcDbEntity
8
0
62
256
6
ByLayer
370
-2
48
1
60
0
100
AcDbLine
10
11.6
20
-4.4875
30
0
11
11.6
21
-10.32
31
0
39
0
210
0
220
0
230
1
0
LINE
5
1A5
100
AcDbEntity
8
0
62
256
6
ByLayer
370
-2
48
1
60
0
100
AcDbLine
10
30
20
-1.5875
30
0
11
30
21
-10.32
31
0
39
0
210
0
220
0
230
1
0
LINE
5
1A6
100
AcDbEntity
8
0
62
256
6
ByLayer
370
-2
48
1
60
0
100
AcDbLine
10
14.775
20
-9.82
30
0
11
26.825
21
-9.82
31
0
39
0
210
0
220
0
230
1
0
SOLID
5
1A7
100
AcDbEntity
8
0
62
256
6
ByLayer
370
-1
48
1
60
0
100
AcDbTrace
10
14.775
20
-9.290833
30
0
11
14.775
21
-10.349167
31
0
12
11.6
22
-9.82
32
0
13
11.6
23
-9.82
33
0
39
0
210
0
220
0
230
1
0
SOLID
5
1A8
100
AcDbEntity
8
0
62
256
6
ByLayer
370
-1
48
1
60
0
100
AcDbTrace
10
26.825
20
-10.349167
30
0
11
26.825
21
-9.290833
31
0
12
30
22
-9.82
32
0
13
30
23
-9.82
33
0
39
0
210
0
220
0
230
1
0
MTEXT
5
1A9
100
AcDbEntity
8
0
62
256
6
ByLayer
370
18
48
1
60
0
100
AcDbMText
10
20.8
20
-3.975
30
0
210
0
220
0
230
1
1
\A1;18.4
40
2.8
41
0
44
1
50
0
71
5
72
5
7
iso_b_vert
0
POINT
5
1AA
100
AcDbEntity
8
Defpoints
62
0
6
ByLayer
370
-1
48
1
60
0
100
AcDbPoint
10
11.6
20
-2.9
30
0
39
0
210
0
220
0
230
1
50
360
0
POINT
5
1AB
100
AcDbEntity
8
Defpoints
62
0
6
ByLayer
370
-1
48
1
60
0
100
AcDbPoint
10
30
20
0
30
0
39
0
210
0
220
0
230
1
50
360
0
POINT
5
1AC
100
AcDbEntity
8
Defpoints
62
0
6
ByLayer
370
-1
48
1
60
0
100
AcDbPoint
10
30
20
-9.82
30
0
39
0
210
0
220
0
230
1
50
360
0
ENDBLK
5
1A3
100
AcDbEntity
8
0
100
AcDbBlockEnd
0
BLOCK
5
1B8
100
AcDbEntity
8
0
100
AcDbBlockBegin
2
_U5
70
0
10
0
20
0
30
0
3
_U5
0
MTEXT
5
1AE
100
AcDbEntity
8
SK2
62
256
6
ByLayer
370
18
48
1
60
0
100
AcDbMText
10
16.818988
20
-9.973893
30
0
210
0
220
0
230
1
1
\W0.7091;18.40
40
2.8
41
0
44
1.084337
50
0
71
7
72
5
7
iso_b_vert
0
LINE
5
1AF
100
AcDbEntity
8
SK2
62
256
6
ByLayer
370
13
48
1
60
0
100
AcDbLine
10
11.6
20
-4.4875
30
0
11
11.6
21
-10.32
31
0
39
0
210
0
220
0
230
1
0
LINE
5
1B0
100
AcDbEntity
8
SK2
62
256
6
ByLayer
370
13
48
1
60
0
100
AcDbLine
10
30
20
-1.5875
30
0
11
30
21
-10.32
31
0
39
0
210
0
220
0
230
1
0
LINE
5
1B1
100
AcDbEntity
8
SK2
62
256
6
ByLayer
370
13
48
1
60
0
100
AcDbLine
10
11.6
20
-9.82
30
0
11
30
21
-9.82
31
0
39
0
210
0
220
0
230
1
0
LINE
5
1B2
100
AcDbEntity
8
SK2
62
256
6
ByLayer
370
13
48
1
60
0
100
AcDbLine
10
11.6
20
-9.82
30
0
11
14.774998
21
-9.402003
31
0
39
0
210
0
220
0
230
1
0
LINE
5
1B3
100
AcDbEntity
8
SK2
62
256
6
ByLayer
370
13
48
1
60
0
100
AcDbLine
10
11.6
20
-9.82
30
0
11
14.775002
21
-10.237997
31
0
39
0
210
0
220
0
230
1
0
LINE
5
1B4
100
AcDbEntity
8
SK2
62
256
6
ByLayer
370
13
48
1
60
0
100
AcDbLine
10
14.774998
20
-9.402003
30
0
11
14.775002
21
-10.237997
31
0
39
0
210
0
220
0
230
1
0
LINE
5
1B5
100
AcDbEntity
8
SK2
62
256
6
ByLayer
370
13
48
1
60
0
100
AcDbLine
10
30
20
-9.82
30
0
11
26.825002
21
-10.237997
31
0
39
0
210
0
220
0
230
1
0
LINE
5
1B6
100
AcDbEntity
8
SK2
62
256
6
ByLayer
370
13
48
1
60
0
100
AcDbLine
10
30
20
-9.82
30
0
11
26.824998
21
-9.402003
31
0
39
0
210
0
220
0
230
1
0
LINE
5
1B7
100
AcDbEntity
8
SK2
62
256
6
ByLayer
370
13
48
1
60
0
100
AcDbLine
10
26.825002
20
-10.237997
30
0
11
26.824998
21
-9.402003
31
0
39
0
210
0
220
0
230
1
0
ENDBLK
5
1B9
100
AcDbEntity
8
0
100
AcDbBlockEnd
0
BLOCK
5
1BE
100
AcDbEntity
8
0
100
AcDbBlockBegin
2
*D14
70
1
10
0
20
0
30
0
3
*D14
0
LINE
5
1C0
100
AcDbEntity
8
0
62
256
6
ByLayer
370
-2
48
1
60
0
100
AcDbLine
10
-36
20
-1.5875
30
0
11
-36
21
-39.67512
31
0
39
0
210
0
220
0
230
1
0
LINE
5
1C1
100
AcDbEntity
8
0
62
256
6
ByLayer
370
-2
48
1
60
0
100
AcDbLine
10
30
20
-1.5875
30
0
11
30
21
-39.67512
31
0
39
0
210
0
220
0
230
1
0
LINE
5
1C2
100
AcDbEntity
8
0
62
256
6
ByLayer
370
-2
48
1
60
0
100
AcDbLine
10
-32.825
20
-36.50012
30
0
11
26.825
21
-36.50012
31
0
39
0
210
0
220
0
230
1
0
SOLID
5
1C3
100
AcDbEntity
8
0
62
256
6
ByLayer
370
-1
48
1
60
0
100
AcDbTrace
10
-32.825
20
-35.970953
30
0
11
-32.825
21
-37.029287
31
0
12
-36
22
-36.50012
32
0
13
-36
23
-36.50012
33
0
39
0
210
0
220
0
230
1
0
SOLID
5
1C4
100
AcDbEntity
8
0
62
256
6
ByLayer
370
-1
48
1
60
0
100
AcDbTrace
10
26.825
20
-37.029287
30
0
11
26.825
21
-35.970953
31
0
12
30
22
-36.50012
32
0
13
30
23
-36.50012
33
0
39
0
210
0
220
0
230
1
0
MTEXT
5
1C5
100
AcDbEntity
8
0
62
256
6
ByLayer
370
18
48
1
60
0
100
AcDbMText
10
-3
20
-29.19362
30
0
210
0
220
0
230
1
1
\A1;66
40
3.50012
41
0
44
1
50
0
71
5
72
5
7
iso_b_vert
0
POINT
5
1C6
100
AcDbEntity
8
Defpoints
62
0
6
ByLayer
370
-1
48
1
60
0
100
AcDbPoint
10
-36
20
0
30
0
39
0
210
0
220
0
230
1
50
360
0
POINT
5
1C7
100
AcDbEntity
8
Defpoints
62
0
6
ByLayer
370
-1
48
1
60
0
100
AcDbPoint
10
30
20
0
30
0
39
0
210
0
220
0
230
1
50
360
0
POINT
5
1C8
100
AcDbEntity
8
Defpoints
62
0
6
ByLayer
370
-1
48
1
60
0
100
AcDbPoint
10
30
20
-36.50012
30
0
39
0
210
0
220
0
230
1
50
360
0
ENDBLK
5
1BF
100
AcDbEntity
8
0
100
AcDbBlockEnd
0
BLOCK
5
1D4
100
AcDbEntity
8
0
100
AcDbBlockBegin
2
_U6
70
0
10
0
20
0
30
0
3
_U6
0
MTEXT
5
1CA
100
AcDbEntity
8
SK2
62
256
6
ByLayer
370
18
48
1
60
0
100
AcDbMText
10
-8.229611
20
-35.467451
30
0
210
0
220
0
230
1
1
\W0.7468;66.00
40
3.50012
41
0
44
1.084337
50
0
71
7
72
5
7
iso_b_vert
0
LINE
5
1CB
100
AcDbEntity
8
SK2
62
256
6
ByLayer
370
13
48
1
60
0
100
AcDbLine
10
-36
20
-1.5875
30
0
11
-36
21
-39.67512
31
0
39
0
210
0
220
0
230
1
0
LINE
5
1CC
100
AcDbEntity
8
SK2
62
256
6
ByLayer
370
13
48
1
60
0
100
AcDbLine
10
30
20
-1.5875
30
0
11
30
21
-39.67512
31
0
39
0
210
0
220
0
230
1
0
LINE
5
1CD
100
AcDbEntity
8
SK2
62
256
6
ByLayer
370
13
48
1
60
0
100
AcDbLine
10
-36
20
-36.50012
30
0
11
30
21
-36.50012
31
0
39
0
210
0
220
0
230
1
0
LINE
5
1CE
100
AcDbEntity
8
SK2
62
256
6
ByLayer
370
13
48
1
60
0
100
AcDbLine
10
-36
20
-36.50012
30
0
11
-32.825002
21
-36.082123
31
0
39
0
210
0
220
0
230
1
0
LINE
5
1CF
100
AcDbEntity
8
SK2
62
256
6
ByLayer
370
13
48
1
60
0
100
AcDbLine
10
-36
20
-36.50012
30
0
11
-32.824998
21
-36.918117
31
0
39
0
210
0
220
0
230
1
0
LINE
5
1D0
100
AcDbEntity
8
SK2
62
256
6
ByLayer
370
13
48
1
60
0
100
AcDbLine
10
-32.825002
20
-36.082123
30
0
11
-32.824998
21
-36.918117
31
0
39
0
210
0
220
0
230
1
0
LINE
5
1D1
100
AcDbEntity
8
SK2
62
256
6
ByLayer
370
13
48
1
60
0
100
AcDbLine
10
30
20
-36.50012
30
0
11
26.825002
21
-36.918117
31
0
39
0
210
0
220
0
230
1
0
LINE
5
1D2
100
AcDbEntity
8
SK2
62
256
6
ByLayer
370
13
48
1
60
0
100
AcDbLine
10
30
20
-36.50012
30
0
11
26.824998
21
-36.082123
31
0
39
0
210
0
220
0
230
1
0
LINE
5
1D3
100
AcDbEntity
8
SK2
62
256
6
ByLayer
370
13
48
1
60
0
100
AcDbLine
10
26.825002
20
-36.918117
30
0
11
26.824998
21
-36.082123
31
0
39
0
210
0
220
0
230
1
0
ENDBLK
5
1D5
100
AcDbEntity
8
0
100
AcDbBlockEnd
0
ENDSEC
0
SECTION
2
ENTITIES
0
ARC
5
AC
100
AcDbEntity
8
1
62
256
6
ByLayer
370
18
48
1
60
0
100
AcDbCircle
39
0
10
0.283598
20
3.082086
30
0
40
0.200000000000001
210
0
220
0
230
1
100
AcDbArc
50
224.846852
51
270.03581
0
ARC
5
AD
100
AcDbEntity
8
1
62
256
6
ByLayer
370
18
48
1
60
0
100
AcDbCircle
39
0
10
0.283598
20
-3.082086
30
0
40
0.200000000000001
210
0
220
0
230
1
100
AcDbArc
50
89.96419
51
135.153148
0
ARC
5
AE
100
AcDbEntity
8
1
62
256
6
ByLayer
370
18
48
1
60
0
100
AcDbCircle
39
0
10
0
20
2.8
30
0
40
0.200000000000001
210
0
220
0
230
1
100
AcDbArc
50
44.846852
51
90
0
ARC
5
AF
100
AcDbEntity
8
1
62
256
6
ByLayer
370
18
48
1
60
0
100
AcDbCircle
39
0
10
0
20
-2.8
30
0
40
0.200000000000001
210
0
220
0
230
1
100
AcDbArc
50
270
51
315.153148
0
ARC
5
B0
100
AcDbEntity
8
SK2
62
256
6
ByLayer
370
13
48
1
60
0
100
AcDbCircle
39
0
10
30
20
0
30
0
40
20
210
0
220
0
230
1
100
AcDbArc
50
9.606349
51
70.000239
0
ARC
5
B1
100
AcDbEntity
8
SK2
62
256
6
ByLayer
370
13
48
1
60
0
100
AcDbCircle
39
0
10
30
20
0
30
0
40
20
210
0
220
0
230
1
100
AcDbArc
50
289.999761
51
350.393651
0
ELLIPSE
5
B2
100
AcDbEntity
8
1
62
256
6
ByLayer
370
18
48
1
60
0
100
AcDbEllipse
10
3.644511
20
2.747527
30
0
11
0.000297039099176398
21
-0.00999558741513276
31
0
210
0
220
0
230
1
40
0.470898
41
-0.0491256435087477
42
1.51572935763138
0
ELLIPSE
5
B3
100
AcDbEntity
8
1
62
256
6
ByLayer
370
18
48
1
60
0
100
AcDbEllipse
10
3.602691
20
2.746763
30
0
11
-7.2642855751535E-05
21
0.0099997361472945
31
0
210
0
220
0
230
1
40
0.006613
41
3.09435672446172
42
-1.61741254609406
0
ELLIPSE
5
B4
100
AcDbEntity
8
1
62
256
6
ByLayer
370
18
48
1
60
0
100
AcDbEllipse
10
3.602066
20
2.839396
30
0
11
-0.1
21
1.22460635382238E-17
31
0
210
0
220
0
230
1
40
0.999848
41
0.0565243571906984
42
1.59121287519824
0
POINT
5
70
100
AcDbEntity
8
80
62
256
6
ByLayer
370
18
48
1
60
0
100
AcDbPoint
10
0
20
0
30
0
39
0
210
0
220
0
230
1
50
360
0
POINT
5
72
100
AcDbEntity
8
81
62
256
6
ByLayer
370
18
48
1
60
0
100
AcDbPoint
10
30
20
0
30
0
39
0
210
0
220
0
230
1
50
360
0
POINT
5
74
100
AcDbEntity
8
1
62
256
6
ByLayer
370
18
48
1
60
0
100
AcDbPoint
10
-36
20
0
30
0
39
0
210
0
220
0
230
1
50
360
0
POINT
5
76
100
AcDbEntity
8
1
62
256
6
ByLayer
370
18
48
1
60
1
100
AcDbPoint
10
0
20
-3
30
0
39
0
210
0
220
0
230
1
50
360
0
POINT
5
77
100
AcDbEntity
8
1
62
256
6
ByLayer
370
18
48
1
60
1
100
AcDbPoint
10
30
20
0
30
0
39
0
210
0
220
0
230
1
50
360
0
POINT
5
78
100
AcDbEntity
8
1
62
256
6
ByLayer
370
18
48
1
60
1
100
AcDbPoint
10
28.9445
20
-2.9
30
0
39
0
210
0
220
0
230
1
50
360
0
POINT
5
79
100
AcDbEntity
8
1
62
256
6
ByLayer
370
18
48
1
60
1
100
AcDbPoint
10
28.9445
20
2.9
30
0
39
0
210
0
220
0
230
1
50
360
0
POINT
5
7A
100
AcDbEntity
8
1
62
256
6
ByLayer
370
18
48
1
60
1
100
AcDbPoint
10
-36
20
3
30
0
39
0
210
0
220
0
230
1
50
360
0
POINT
5
7B
100
AcDbEntity
8
1
62
256
6
ByLayer
370
18
48
1
60
1
100
AcDbPoint
10
-36
20
-3
30
0
39
0
210
0
220
0
230
1
50
360
0
POINT
5
7C
100
AcDbEntity
8
1
62
256
6
ByLayer
370
18
48
1
60
1
100
AcDbPoint
10
-36
20
-3
30
0
39
0
210
0
220
0
230
1
50
360
0
POINT
5
7D
100
AcDbEntity
8
1
62
256
6
ByLayer
370
18
48
1
60
1
100
AcDbPoint
10
0
20
-3
30
0
39
0
210
0
220
0
230
1
50
360
0
POINT
5
7E
100
AcDbEntity
8
1
62
256
6
ByLayer
370
18
48
1
60
1
100
AcDbPoint
10
2
20
3.4
30
0
39
0
210
0
220
0
230
1
50
360
0
POINT
5
7F
100
AcDbEntity
8
1
62
256
6
ByLayer
370
18
48
1
60
1
100
AcDbPoint
10
30
20
0
30
0
39
0
210
0
220
0
230
1
50
360
0
POINT
5
80
100
AcDbEntity
8
1
62
256
6
ByLayer
370
18
48
1
60
1
100
AcDbPoint
10
11.6
20
-2.9
30
0
39
0
210
0
220
0
230
1
50
360
0
POINT
5
81
100
AcDbEntity
8
1
62
256
6
ByLayer
370
18
48
1
60
1
100
AcDbPoint
10
30
20
0
30
0
39
0
210
0
220
0
230
1
50
360
0
POINT
5
82
100
AcDbEntity
8
1
62
256
6
ByLayer
370
18
48
1
60
1
100
AcDbPoint
10
-36
20
0
30
0
39
0
210
0
220
0
230
1
50
360
0
POINT
5
83
100
AcDbEntity
8
1
62
256
6
ByLayer
370
18
48
1
60
1
100
AcDbPoint
10
30
20
0
30
0
39
0
210
0
220
0
230
1
50
360
0
SPLINE
5
B5
100
AcDbEntity
8
1
62
256
6
ByLayer
370
18
48
1
60
0
100
AcDbSpline
70
4
71
3
72
36
73
32
40
0
40
0
40
0
40
0
40
0.0625000000000001
40
0.0625000000000001
40
0.125
40
0.125
40
0.1875
40
0.1875
40
0.250000000000001
40
0.250000000000001
40
0.312500000000001
40
0.312500000000001
40
0.375000000000001
40
0.375000000000001
40
0.437500000000001
40
0.437500000000001
40
0.500000000000001
40
0.500000000000001
40
0.562500000000001
40
0.562500000000001
40
0.625000000000001
40
0.625000000000001
40
0.687500000000002
40
0.687500000000002
40
0.750000000000002
40
0.750000000000002
40
0.812500000000002
40
0.812500000000002
40
0.875000000000002
40
0.875000000000002
40
1
40
1
40
1
40
1
41
1
10
13.6
20
2.83279790400249
30
0
41
1
10
13.9174348888505
20
2.79794111996407
30
1E-16
41
1
10
14.2351062743036
20
2.74717503625141
30
1E-16
41
1
10
14.8691805786996
20
2.61591898584712
30
1E-16
41
1
10
15.1857502564522
20
2.53544339508548
30
1E-16
41
1
10
15.8204982581902
20
2.34681965968889
30
1E-16
41
1
10
16.1377571166672
20
2.23895422336707
30
1E-16
41
1
10
16.7715707602379
20
1.99977054609539
30
-1E-16
41
1
10
17.0892506574063
20
1.86797097815256
30
-1E-16
41
1
10
17.7231456759623
20
1.5855191017244
30
-1E-16
41
1
10
18.0392861432316
20
1.43498101410714
30
-1E-16
41
1
10
18.6724886162016
20
1.1192302401341
30
-1E-16
41
1
10
18.9902585794678
20
0.953597895586881
30
-1E-16
41
1
10
19.6237251031683
20
0.614508275985884
30
0
41
1
10
19.9398100241757
20
0.440903023320431
30
0
41
1
10
20.5732512057219
20
0.0901385563057318
30
0
41
1
10
20.8910559488683
20
-0.0872777006361503
30
0
41
1
10
21.5243022153154
20
-0.437993742364341
30
0
41
1
10
21.8404331648911
20
-0.611662140817884
30
0
41
1
10
22.4742137570363
20
-0.951155999334901
30
1E-16
41
1
10
22.7918497946701
20
-1.11691996347724
30
1E-16
41
1
10
23.4248111929038
20
-1.43330313252613
30
1E-16
41
1
10
23.7408767823543
20
-1.5844072797999
30
1E-16
41
1
10
24.3747858496585
20
-1.86828094985441
30
1E-16
41
1
10
24.6921098737361
20
-2.00074379652773
30
1E-16
41
1
10
25.326713144566
20
-2.24172063949848
30
-1E-16
41
1
10
25.6439056777624
20
-2.35022741083358
30
-1E-16
41
1
10
26.2787022431872
20
-2.54018497135124
30
-1E-16
41
1
10
26.5953757102193
20
-2.62135322981334
30
-1E-16
41
1
10
27.5450566504018
20
-2.82005073680799
30
0
41
1
10
28.1803391538791
20
-2.89248338176179
30
0
41
1
10
28.8145778626333
20
-2.8994210907567
30
0
0
SPLINE
5
B6
100
AcDbEntity
8
1
62
256
6
ByLayer
370
18
48
1
60
0
100
AcDbSpline
70
4
71
3
72
14
73
10
40
0
40
0
40
0
40
0
40
0.2674078329461
40
0.2674078329461
40
0.499900216811828
40
0.499900216811828
40
0.777602477663489
40
0.777602477663489
40
1
40
1
40
1
40
1
41
1
10
28.6312496243947
20
-0.111502503173739
30
0
41
1
10
28.6319760133773
20
-0.111829797907319
30
0
41
1
10
28.6326832843316
20
-0.112531972737941
30
0
41
1
10
28.6338556858302
20
-0.114272948891482
30
0
41
1
10
28.634356427727
20
-0.115279155919381
30
0
41
1
10
28.6352965252951
20
-0.117750021458278
30
0
41
1
10
28.6357200393211
20
-0.119303324640157
30
0
41
1
10
28.6362459621293
20
-0.122276898163989
30
0
41
1
10
28.6364005960444
20
-0.123696673367078
30
0
41
1
10
28.6364449038209
20
-0.125116684000631
30
0
0
SPLINE
5
B7
100
AcDbEntity
8
1
62
256
6
ByLayer
370
18
48
1
60
0
100
AcDbSpline
70
4
71
3
72
20
73
16
40
0
40
0
40
0
40
0
40
0.249999999999991
40
0.249999999999991
40
0.499999999999982
40
0.499999999999982
40
0.562499999999981
40
0.562499999999981
40
0.62499999999998
40
0.62499999999998
40
0.749999999999987
40
0.749999999999987
40
0.874999999999993
40
0.874999999999993
40
1
40
1
40
1
40
1
41
1
10
28.9945664929113
20
2.77990587868013
30
0
41
1
10
29.0523713192309
20
2.6154984721625
30
0
41
1
10
29.1098014774341
20
2.44991393737231
30
0
41
1
10
29.226165433187
20
2.11750425711887
30
0
41
1
10
29.2850591375535
20
1.95086339549374
30
0
41
1
10
29.3600567250387
20
1.74328678496647
30
0
41
1
10
29.3750255646743
20
1.70176079692664
30
0
41
1
10
29.4056876238493
20
1.61895892979737
30
0
41
1
10
29.4213159332787
20
1.57785679955649
30
0
41
1
10
29.4691269132047
20
1.45611031948331
30
0
41
1
10
29.5023129953589
20
1.37680202252679
30
0
41
1
10
29.5722090010995
20
1.22226566074096
30
0
41
1
10
29.6090646804869
20
1.14670907238488
30
0
41
1
10
29.6862743275777
20
1.00119581969065
30
0
41
1
10
29.7260723061613
20
0.932295469758799
30
0
41
1
10
29.7671971550165
20
0.867026057912454
30
0
0
SPLINE
5
B8
100
AcDbEntity
8
1
62
256
6
ByLayer
370
18
48
1
60
0
100
AcDbSpline
70
4
71
3
72
10
73
6
40
0
40
0
40
0
40
0
40
0.34709224303971
40
0.34709224303971
40
1
40
1
40
1
40
1
41
1
10
7.8191821042729
20
-1.78842098280884
30
0
41
1
10
7.38915461723971
20
-1.91117231934521
30
0
41
1
10
6.96069048912818
20
-2.03507769289791
30
0
41
1
10
5.73101064540091
20
-2.39431703737674
30
0
41
1
10
4.93321990079247
20
-2.63183900098252
30
0
41
1
10
4.14087051360025
20
-2.87055912834524
30
0
0
SPLINE
5
B9
100
AcDbEntity
8
1
62
256
6
ByLayer
370
18
48
1
60
0
100
AcDbSpline
70
4
71
3
72
16
73
12
40
0
40
0
40
0
40
0
40
0.243783542869682
40
0.243783542869682
40
0.487567085739365
40
0.487567085739365
40
0.731350628609047
40
0.731350628609047
40
0.975134171478729
40
0.975134171478729
40
1
40
1
40
1
40
1
41
1
10
28.9891334325351
20
2.78357002190606
30
0
41
1
10
28.6680294922429
20
2.78679485067471
30
0
41
1
10
28.3468112178353
20
2.77409431518387
30
0
41
1
10
27.7053486739599
20
2.71674341062805
30
-1E-16
41
1
10
27.3847105646888
20
2.67234705772444
30
-1E-16
41
1
10
26.7425274109306
20
2.55403116917967
30
1E-16
41
1
10
26.4214460393011
20
2.48010543586011
30
1E-16
41
1
10
25.7797599909537
20
2.30534332930625
30
1E-16
41
1
10
25.4585253532591
20
2.20420246327328
30
1E-16
41
1
10
25.1057325852329
20
2.07954089330895
30
1E-16
41
1
10
25.0730837546498
20
2.06787817776251
30
1E-16
41
1
10
25.0404387926062
20
2.05609342241334
30
1E-16
0
SPLINE
5
BA
100
AcDbEntity
8
1
62
256
6
ByLayer
370
18
48
1
60
0
100
AcDbSpline
70
4
71
3
72
28
73
24
40
0
40
0
40
0
40
0
40
0.0927816485578945
40
0.0927816485578945
40
0.185563297115789
40
0.185563297115789
40
0.278344945673683
40
0.278344945673683
40
0.37112659423158
40
0.37112659423158
40
0.463908242789476
40
0.463908242789476
40
0.556689891347373
40
0.556689891347373
40
0.649471539905269
40
0.649471539905269
40
0.742253188463165
40
0.742253188463165
40
0.835034837021062
40
0.835034837021062
40
0.927816485578958
40
0.927816485578958
40
1
40
1
40
1
40
1
41
1
10
28.636444903821
20
-0.125116684000744
30
0
41
1
10
28.3749667735567
20
0.013767733914392
30
0
41
1
10
28.1133828843849
20
0.152422402045744
30
0
41
1
10
27.5891294691006
20
0.427617779333815
30
0
41
1
10
27.3269301140033
20
0.563916812311817
30
0
41
1
10
26.8063565891675
20
0.8300119988603
30
-1E-16
41
1
10
26.5475858233026
20
0.960160336442186
30
-1E-16
41
1
10
26.0299549534646
20
1.21152971258752
30
-1E-16
41
1
10
25.771217042529
20
1.3329285882736
30
-1E-16
41
1
10
25.2536482321234
20
1.56530132681189
30
-1E-16
41
1
10
24.9949357106882
20
1.67611469144143
30
-1E-16
41
1
10
24.4753177590169
20
1.88527749470717
30
-1E-16
41
1
10
24.2145223299752
20
1.98363542011751
30
1E-16
41
1
10
23.6901281216845
20
2.16548951457116
30
1E-16
41
1
10
23.4289285906531
20
2.24782730724576
30
1E-16
41
1
10
22.9062719713509
20
2.39566985808452
30
1E-16
41
1
10
22.6448762906915
20
2.46108449913911
30
1E-16
41
1
10
22.121454741839
20
2.5724279523395
30
0
41
1
10
21.859323739593
20
2.6176800978871
30
0
41
1
10
21.3377025126412
20
2.68972953213205
30
-1E-16
41
1
10
21.0776762258212
20
2.71629893699225
30
0
41
1
10
20.6169968220898
20
2.74393528302605
30
0
41
1
10
20.4160448606161
20
2.74892072197369
30
0
41
1
10
20.2149485660009
20
2.74826050032294
30
0
0
SPLINE
5
BB
100
AcDbEntity
8
1
62
256
6
ByLayer
370
18
48
1
60
0
100
AcDbSpline
70
4
71
3
72
26
73
22
40
0
40
0
40
0
40
0
40
0.0025932154082633
40
0.0025932154082633
40
0.102333893867437
40
0.102333893867437
40
0.152204233097024
40
0.152204233097024
40
0.20207457232661
40
0.20207457232661
40
0.301815250785784
40
0.301815250785784
40
0.401555929244958
40
0.401555929244958
40
0.601037286163305
40
0.601037286163305
40
0.800518643081653
40
0.800518643081653
40
0.900259321540826
40
0.900259321540826
40
1
40
1
40
1
40
1
41
1
10
21.0059652223183
20
0.254696212716056
30
0
41
1
10
21.0128073586134
20
0.251097560511511
30
0
41
1
10
21.0196499797144
20
0.247498030776285
30
0
41
1
10
21.2896942234395
20
0.10541905823294
30
0
41
1
10
21.5535864724192
20
-0.034413257436853
30
0
41
1
10
21.9514314210893
20
-0.244484693287887
30
0
41
1
10
22.0845496308602
20
-0.314623669767144
30
0
41
1
10
22.3503502177364
20
-0.453716169796706
30
0
41
1
10
22.4831323851036
20
-0.522756459075254
30
0
41
1
10
22.8811649086337
20
-0.7281581073523
30
0
41
1
10
23.1461354573999
20
-0.862761771287751
30
1E-16
41
1
10
23.6767374488742
20
-1.12465862795841
30
1E-16
41
1
10
23.9432777073188
20
-1.25219062753368
30
1E-16
41
1
10
24.7382802734407
20
-1.6166367890666
30
1E-16
41
1
10
25.2627281644805
20
-1.83583918685227
30
1E-16
41
1
10
26.3121851858694
20
-2.21271030881292
30
-1E-16
41
1
10
26.836845569328
20
-2.37011830303064
30
-1E-16
41
1
10
27.6319192879798
20
-2.55047387440081
30
-1E-16
41
1
10
27.8983575601483
20
-2.60115964823336
30
0
41
1
10
28.4291478775709
20
-2.6813102107607
30
1E-16
41
1
10
28.6942039073422
20
-2.71064384523862
30
1E-16
41
1
10
28.9598002136966
20
-2.72989574791782
30
0
0
SPLINE
5
BC
100
AcDbEntity
8
1
62
256
6
ByLayer
370
18
48
1
60
0
100
AcDbSpline
70
4
71
3
72
48
73
44
40
0
40
0
40
0
40
0
40
0.0938610977724965
40
0.0938610977724965
40
0.140791646658745
40
0.140791646658745
40
0.187722195544994
40
0.187722195544994
40
0.234652744431243
40
0.234652744431243
40
0.281583293317491
40
0.281583293317491
40
0.32851384220374
40
0.32851384220374
40
0.375444391089989
40
0.375444391089989
40
0.422374939976238
40
0.422374939976238
40
0.469305488862486
40
0.469305488862486
40
0.516236037748735
40
0.516236037748735
40
0.539701312191859
40
0.539701312191859
40
0.563166586634984
40
0.563166586634984
40
0.610097135521233
40
0.610097135521233
40
0.657027684407481
40
0.657027684407481
40
0.70395823329373
40
0.70395823329373
40
0.750888782179979
40
0.750888782179979
40
0.797819331066228
40
0.797819331066228
40
0.844749879952476
40
0.844749879952476
40
0.938610977724973
40
0.938610977724973
40
0.985541526611221
40
0.985541526611221
40
1
40
1
40
1
40
1
41
1
10
3.65099105437525
20
2.88109658413617
30
0
41
1
10
4.1727219465084
20
2.89497460003696
30
0
41
1
10
4.6937934133957
20
2.86459837872124
30
0
41
1
10
5.47833306421771
20
2.75586986156725
30
1E-16
41
1
10
5.74028596001835
20
2.70864738572706
30
1E-16
41
1
10
6.26038473218605
20
2.59488847912482
30
1E-16
41
1
10
6.51941079856601
20
2.52837482142382
30
1E-16
41
1
10
7.03676604547235
20
2.37774969592348
30
1E-16
41
1
10
7.29506809034368
20
2.29362641746843
30
1E-16
41
1
10
7.81180856892831
20
2.10877038451491
30
1E-16
41
1
10
8.06987362184398
20
2.00751965229045
30
-1E-16
41
1
10
8.58831778802733
20
1.79085355444408
30
-1E-16
41
1
10
8.84886395003491
20
1.67579033964324
30
-1E-16
41
1
10
9.37244582871168
20
1.43160253725125
30
-1E-16
41
1
10
9.63271296081058
20
1.30305510239256
30
-1E-16
41
1
10
10.1513471434815
20
1.03953028515812
30
-1E-16
41
1
10
10.4102560011227
20
0.904788256054218
30
-1E-16
41
1
10
10.9271535300206
20
0.629284695074887
30
0
41
1
10
11.1850091723012
20
0.488267489471781
30
0
41
1
10
11.7014277244657
20
0.203052436233889
30
0
41
1
10
11.9599898037473
20
0.0588547041591596
30
0
41
1
10
12.3496571652931
20
-0.157457932234962
30
0
41
1
10
12.4799366479949
20
-0.229399371463927
30
0
41
1
10
12.7412246990362
20
-0.37305916558617
30
0
41
1
10
12.872443460705
20
-0.444901507825875
30
0
41
1
10
13.2642534305338
20
-0.658533755732122
30
0
41
1
10
13.5234800457792
20
-0.799260123569951
30
0
41
1
10
14.0409873539871
20
-1.07195160895193
30
1E-16
41
1
10
14.2995293323723
20
-1.20353025571646
30
1E-16
41
1
10
14.8158864154069
20
-1.45785768014011
30
1E-16
41
1
10
15.0736416597652
20
-1.58064630178751
30
1E-16
41
1
10
15.5906685411021
20
-1.8136404220393
30
1E-16
41
1
10
15.8501782556565
20
-1.92354264450142
30
1E-16
41
1
10
16.371119687584
20
-2.13007700887539
30
-1E-16
41
1
10
16.6331294367038
20
-2.22695219073796
30
-1E-16
41
1
10
17.1535024088443
20
-2.400908517597
30
-1E-16
41
1
10
17.4128903337494
20
-2.47836650054597
30
-1E-16
41
1
10
18.1887273447337
20
-2.68294961393269
30
-1E-16
41
1
10
18.7027158015218
20
-2.78180856622444
30
-1E-16
41
1
10
19.4798606842545
20
-2.86648676779868
30
0
41
1
10
19.739984131568
20
-2.88424363112495
30
0
41
1
10
20.0816890621922
20
-2.89337024475319
30
0
41
1
10
20.1622583006646
20
-2.89448427699597
30
0
41
1
10
20.24271453291
20
-2.89455637240667
30
0
0
SPLINE
5
BD
100
AcDbEntity
8
1
62
256
6
ByLayer
370
18
48
1
60
0
100
AcDbSpline
70
4
71
3
72
10
73
6
40
0
40
0
40
0
40
0
40
0.5
40
0.5
40
1
40
1
40
1
40
1
41
1
10
28.8049327971896
20
0.487109139328339
30
0
41
1
10
28.7624689082359
20
0.46865134143053
30
0
41
1
10
28.7205498854559
20
0.445879754745192
30
0
41
1
10
28.6387598963139
20
0.39315895580711
30
0
41
1
10
28.599224605289
20
0.362679322146818
30
0
41
1
10
28.5613391795056
20
0.327921426471647
30
0
0
SPLINE
5
BE
100
AcDbEntity
8
1
62
256
6
ByLayer
370
18
48
1
60
0
100
AcDbSpline
70
4
71
3
72
8
73
4
40
0
40
0
40
0
40
0
40
1
40
1
40
1
40
1
41
1
10
28.5639281599114
20
-0.0793490596983588
30
0
41
1
10
28.586485745663
20
-0.0907276736161577
30
0
41
1
10
28.6089174096557
20
-0.101440103482531
30
0
41
1
10
28.6312496243947
20
-0.111502503173739
30
0
0
SPLINE
5
BF
100
AcDbEntity
8
1
62
256
6
ByLayer
370
18
48
1
60
0
100
AcDbSpline
70
4
71
3
72
8
73
4
40
0
40
0
40
0
40
0
40
1
40
1
40
1
40
1
41
1
10
29.7671971550165
20
0.867026057912454
30
0
41
1
10
29.845174974466
20
0.64728362302796
30
0
41
1
10
29.9213765474265
20
0.426902206655939
30
0
41
1
10
29.9957789542948
20
0.205873563768335
30
0
0
SPLINE
5
C0
100
AcDbEntity
8
1
62
256
6
ByLayer
370
18
48
1
60
0
100
AcDbSpline
70
4
71
3
72
8
73
4
40
0
40
0
40
0
40
0
40
1
40
1
40
1
40
1
41
1
10
28.9573446080125
20
-2.74112601772782
30
0
41
1
10
28.9525441054646
20
-2.75465652943768
30
0
41
1
10
28.9477646833945
20
-2.76818553298628
30
0
41
1
10
28.9430068354464
20
-2.7817131902641
30
0
0
SPLINE
5
C1
100
AcDbEntity
8
1
62
256
6
ByLayer
370
18
48
1
60
0
100
AcDbSpline
70
4
71
3
72
10
73
6
40
0
40
0
40
0
40
0
40
0.5
40
0.5
40
1
40
1
40
1
40
1
41
1
10
3.50206616643567
20
-2.88372447572308
30
0
41
1
10
3.5020661664357
20
-2.88316138709268
30
0
41
1
10
3.52143474230925
20
-2.88186897678992
30
0
41
1
10
3.58160704638638
20
-2.88028572080955
30
0
41
1
10
3.62044298390685
20
-2.88028400697408
30
0
41
1
10
3.65099105437525
20
-2.88109658413617
30
0
0
SPLINE
5
C2
100
AcDbEntity
8
1
62
256
6
ByLayer
370
18
48
1
60
0
100
AcDbSpline
70
4
71
3
72
26
73
22
40
0
40
0
40
0
40
0
40
0.100644103977315
40
0.100644103977315
40
0.20128820795463
40
0.20128820795463
40
0.301932311931945
40
0.301932311931945
40
0.352254363920603
40
0.352254363920603
40
0.402576415909262
40
0.402576415909262
40
0.503220519886577
40
0.503220519886577
40
0.603864623863892
40
0.603864623863892
40
0.80515283181852
40
0.80515283181852
40
0.905796935795834
40
0.905796935795834
40
1
40
1
40
1
40
1
41
1
10
28.5613391794961
20
0.327921426462922
30
0
41
1
10
28.3069721244336
20
0.468964584109074
30
0
41
1
10
28.053299909226
20
0.607856184920053
30
0
41
1
10
27.5470566343264
20
0.880907996018635
30
-1E-16
41
1
10
27.294253412231
20
1.01463643076679
30
-1E-16
41
1
10
26.7876317739134
20
1.27367870764911
30
-1E-16
41
1
10
26.5342034881728
20
1.39964628424525
30
-1E-16
41
1
10
26.1524148883293
20
1.58075750620415
30
-1E-16
41
1
10
26.0248752822211
20
1.63982021624582
30
-1E-16
41
1
10
25.7691094655782
20
1.75510463322001
30
-1E-16
41
1
10
25.6406853685043
20
1.81152190948313
30
-1E-16
41
1
10
25.2565456912421
20
1.9754432477005
30
-1E-16
41
1
10
25.0017530293231
20
2.07710737176817
30
-1E-16
41
1
10
24.4935710365515
20
2.26419330952709
30
1E-16
41
1
10
24.2405229960423
20
2.34999127141657
30
1E-16
41
1
10
23.4811005772538
20
2.5805772633201
30
1E-16
41
1
10
22.9753959229136
20
2.69962626481652
30
1E-16
41
1
10
22.2098793085933
20
2.8189605675642
30
0
41
1
10
21.9528224919885
20
2.84898528095965
30
0
41
1
10
21.4580197044824
20
2.88632547176457
30
0
41
1
10
21.2199561073723
20
2.89521178435365
30
0
41
1
10
20.9824823301275
20
2.89502224173916
30
0
0
SPLINE
5
C3
100
AcDbEntity
8
1
62
256
6
ByLayer
370
18
48
1
60
0
100
AcDbSpline
70
4
71
3
72
20
73
16
40
0
40
0
40
0
40
0
40
0.132320588187492
40
0.132320588187492
40
0.219088529368742
40
0.219088529368742
40
0.305856470549991
40
0.305856470549991
40
0.479392352912493
40
0.479392352912493
40
0.652928235274995
40
0.652928235274995
40
0.826464117637497
40
0.826464117637497
40
1
40
1
40
1
40
1
41
1
10
8.54895440752196
20
-2.11317196932609
30
0
41
1
10
8.35539910804027
20
-2.18627435179542
30
-1E-16
41
1
10
8.1614793767146
20
-2.25509002791651
30
-1E-16
41
1
10
7.83955178950109
20
-2.36153025491097
30
-1E-16
41
1
10
7.71175023524427
20
-2.40163623939893
30
-1E-16
41
1
10
7.45538292902404
20
-2.47755107170144
30
-1E-16
41
1
10
7.3267437078062
20
-2.51334244341373
30
-1E-16
41
1
10
6.9425647900872
20
-2.61343937859465
30
-1E-16
41
1
10
6.68787223281834
20
-2.67077007916174
30
-1E-16
41
1
10
6.17904365068858
20
-2.76532077338751
30
-1E-16
41
1
10
5.92511170967896
20
-2.80272634000266
30
-1E-16
41
1
10
5.41726018688382
20
-2.85739220853793
30
0
41
1
10
5.16309800667094
20
-2.87458120972687
30
0
41
1
10
4.6536915419079
20
-2.88828653700287
30
0
41
1
10
4.39820276467691
20
-2.88472747298712
30
0
41
1
10
4.14104121072091
20
-2.87067410043505
30
0
0
SPLINE
5
C4
100
AcDbEntity
8
1
62
256
6
ByLayer
370
18
48
1
60
0
100
AcDbSpline
70
4
71
3
72
28
73
24
40
0
40
0
40
0
40
0
40
0.0715029816229284
40
0.0715029816229284
40
0.117136160832464
40
0.117136160832464
40
0.162769340041999
40
0.162769340041999
40
0.25403569846107
40
0.25403569846107
40
0.436568415299214
40
0.436568415299214
40
0.527834773718285
40
0.527834773718285
40
0.573467952927821
40
0.573467952927821
40
0.619101132137358
40
0.619101132137358
40
0.801633848975504
40
0.801633848975504
40
0.984166565813649
40
0.984166565813649
40
1
40
1
40
1
40
1
41
1
10
13.7253161676371
20
-2.74610950669444
30
0
41
1
10
13.5194388210807
20
-2.75506534602229
30
0
41
1
10
13.3132588528636
20
-2.75757247356265
30
0
41
1
10
12.97449831745
20
-2.7508681866442
30
0
41
1
10
12.8422678082125
20
-2.745614656621
30
0
41
1
10
12.5771288512399
20
-2.72979209721544
30
0
41
1
10
12.4439651957451
20
-2.71919429761303
30
0
41
1
10
12.0452606454094
20
-2.6795356248409
30
1E-16
41
1
10
11.7809322591655
20
-2.64255643692744
30
1E-16
41
1
10
10.9904893237458
20
-2.50196546306427
30
-1E-16
41
1
10
10.466770629469
20
-2.36909094809823
30
-1E-16
41
1
10
9.67830835185438
20
-2.11840049097006
30
-1E-16
41
1
10
9.41503583855183
20
-2.02621917331615
30
-1E-16
41
1
10
9.01842478409353
20
-1.87611291603162
30
1E-16
41
1
10
8.88592615447152
20
-1.82411426498456
30
1E-16
41
1
10
8.62018299805104
20
-1.71639024472157
30
1E-16
41
1
10
8.48694857303869
20
-1.66066066237767
30
1E-16
41
1
10
7.82374521971315
20
-1.37552621162456
30
1E-16
41
1
10
7.29864555160623
20
-1.12447738867593
30
1E-16
41
1
10
6.24835454732698
20
-0.596974242737446
30
0
41
1
10
5.72319680034494
20
-0.320313818105262
30
0
41
1
10
5.14705769635069
20
-0.015692295284282
30
0
41
1
10
5.10102285244534
20
0.0086515595833703
30
0
41
1
10
5.05495257575043
20
0.0330087733934761
30
0
0
SPLINE
5
C5
100
AcDbEntity
8
1
62
256
6
ByLayer
370
18
48
1
60
0
100
AcDbSpline
70
4
71
3
72
8
73
4
40
0
40
0
40
0
40
0
40
1
40
1
40
1
40
1
41
1
10
29.9957789542948
20
0.205873563768307
30
0
41
1
10
30.0014086331011
20
0.068585067026504
30
0
41
1
10
30.0014053982949
20
-0.0686639528115904
30
0
41
1
10
29.9957789542953
20
-0.205873563757052
30
0
0
SPLINE
5
C6
100
AcDbEntity
8
1
62
256
6
ByLayer
370
18
48
1
60
0
100
AcDbSpline
70
4
71
3
72
22
73
18
40
0
40
0
40
0
40
0
40
0.51551692260203
40
0.51551692260203
40
0.689177092177527
40
0.689177092177527
40
0.805101467458242
40
0.805101467458242
40
0.882498808133779
40
0.882498808133779
40
0.93418507067714
40
0.93418507067714
40
0.968728319880799
40
0.968728319880799
40
0.991822252365648
40
0.991822252365648
40
1
40
1
40
1
40
1
41
1
10
28.8145778626327
20
-2.89942109074295
30
0
41
1
10
28.8434241460091
20
-2.88060401688128
30
0
41
1
10
28.87231963678
20
-2.86158642613862
30
0
41
1
10
28.9110116073435
20
-2.8359060005024
30
0
41
1
10
28.9207670267872
20
-2.82941294183405
30
0
41
1
10
28.9370435343424
20
-2.81854959535059
30
0
41
1
10
28.9435616707977
20
-2.81419122965045
30
0
41
1
10
28.9544356860366
20
-2.80690709789221
30
0
41
1
10
28.9587902403183
20
-2.80398660393311
30
0
41
1
10
28.9660545803623
20
-2.79910874766477
30
0
41
1
10
28.9689650217722
20
-2.79715288296072
30
0
41
1
10
28.9738076820816
20
-2.79389602049423
30
0
41
1
10
28.9757413349228
20
-2.79259490201301
30
0
41
1
10
28.978967848676
20
-2.79042262026349
30
0
41
1
10
28.9802626945117
20
-2.78955051763501
30
0
41
1
10
28.9820271270489
20
-2.78836171114909
30
0
41
1
10
28.9824895698128
20
-2.78805009603966
30
0
41
1
10
28.9829531834801
20
-2.78773765550474
30
0
0
SPLINE
5
C7
100
AcDbEntity
8
1
62
256
6
ByLayer
370
18
48
1
60
0
100
AcDbSpline
70
4
71
3
72
8
73
4
40
0
40
0
40
0
40
0
40
1
40
1
40
1
40
1
41
1
10
28.8027241080491
20
-2.86227875243242
30
0
41
1
10
28.8071867574143
20
-2.88430455956495
30
0
41
1
10
28.8110940271675
20
-2.89685372886271
30
0
41
1
10
28.8145778626124
20
-2.89942109075676
30
0
0
SPLINE
5
C8
100
AcDbEntity
8
1
62
256
6
ByLayer
370
18
48
1
60
0
100
AcDbSpline
70
4
71
3
72
8
73
4
40
0
40
0
40
0
40
0
40
1
40
1
40
1
40
1
41
1
10
29.7671971550165
20
-0.867026057912454
30
0
41
1
10
29.8451749744679
20
-0.647283623022616
30
0
41
1
10
29.9213765474302
20
-0.426902206645224
30
0
41
1
10
29.9957789543002
20
-0.205873563752249
30
0
0
SPLINE
5
C9
100
AcDbEntity
8
1
62
256
6
ByLayer
370
18
48
1
60
0
100
AcDbSpline
70
4
71
3
72
30
73
26
40
0
40
0
40
0
40
0
40
0.0128678255930396
40
0.0128678255930396
40
0.153886707651179
40
0.153886707651179
40
0.189141428165713
40
0.189141428165713
40
0.224396148680248
40
0.224396148680248
40
0.294905589709317
40
0.294905589709317
40
0.435924471767453
40
0.435924471767453
40
0.506433912796521
40
0.506433912796521
40
0.57694335382559
40
0.57694335382559
40
0.717962235883726
40
0.717962235883726
40
0.858981117941862
40
0.858981117941862
40
0.929490558970931
40
0.929490558970931
40
1
40
1
40
1
40
1
41
1
10
14.7468733497287
20
-2.77888595486422
30
0
41
1
10
14.6990871223021
20
-2.78618206156833
30
0
41
1
10
14.6513164946199
20
-2.79312443602584
30
0
41
1
10
14.080160989724
20
-2.87189891803942
30
0
41
1
10
13.5580752052204
20
-2.90138468807385
30
0
41
1
10
12.9002310611457
20
-2.88270135109099
30
0
41
1
10
12.7683845455883
20
-2.87618984951936
30
0
41
1
10
12.50397080395
20
-2.85757306643657
30
0
41
1
10
12.3711412667611
20
-2.8454328992419
30
0
41
1
10
11.9740774701538
20
-2.80088798491451
30
-1E-16
41
1
10
11.7108395238395
20
-2.76039437555863
30
-1E-16
41
1
10
10.9235462237687
20
-2.60830606279651
30
-1E-16
41
1
10
10.4016479687639
20
-2.4662756499078
30
-1E-16
41
1
10
9.61525538062781
20
-2.1996484357488
30
-1E-16
41
1
10
9.35255727658941
20
-2.10180410650446
30
-1E-16
41
1
10
8.82442912073307
20
-1.88975772995238
30
1E-16
41
1
10
8.55843464871168
20
-1.77525187876927
30
1E-16
41
1
10
7.76714238064369
20
-1.4153622113254
30
1E-16
41
1
10
7.24459504196204
20
-1.15206740454062
30
1E-16
41
1
10
6.19781535276991
20
-0.598823503905152
30
0
41
1
10
5.67370921147872
20
-0.308678718938012
30
0
41
1
10
4.87823617311841
20
0.132490325763712
30
0
41
1
10
4.61318779503057
20
0.279487193715028
30
0
41
1
10
4.08369642325374
20
0.569579883550091
30
0
41
1
10
3.81894310589428
20
0.712840115115938
30
0
41
1
10
3.55359397264434
20
0.853259092526798
30
-1E-16
0
SPLINE
5
CA
100
AcDbEntity
8
1
62
256
6
ByLayer
370
18
48
1
60
0
100
AcDbSpline
70
4
71
3
72
16
73
12
40
0
40
0
40
0
40
0
40
0.0810431464088547
40
0.0810431464088547
40
0.310782359806641
40
0.310782359806641
40
0.540521573204427
40
0.540521573204427
40
0.770260786602214
40
0.770260786602214
40
1
40
1
40
1
40
1
41
1
10
28.6920221605704
20
0.576975640314458
30
0
41
1
10
28.7036731575964
20
0.581361508501914
30
0
41
1
10
28.7157318815406
20
0.586088798329968
30
0
41
1
10
28.7634406239994
20
0.605342249669093
30
0
41
1
10
28.8024511608256
20
0.622348553319029
30
0
41
1
10
28.8862223067524
20
0.658172619968809
30
0
41
1
10
28.9306123804954
20
0.676787922943532
30
0
41
1
10
29.0252814014835
20
0.712624610552609
30
0
41
1
10
29.0757192889788
20
0.729754197034509
30
0
41
1
10
29.1782708259362
20
0.757851148741338
30
0
41
1
10
29.2309719558148
20
0.769066369176585
30
0
41
1
10
29.2852050070748
20
0.77650177117809
30
0
0
SPLINE
5
CB
100
AcDbEntity
8
1
62
256
6
ByLayer
370
18
48
1
60
0
100
AcDbSpline
70
4
71
3
72
8
73
4
40
0
40
0
40
0
40
0
40
1
40
1
40
1
40
1
41
1
10
3.6445767176063
20
2.73753623695723
30
0
41
1
10
3.63167048667839
20
2.73715376566935
30
0
41
1
10
3.61738423309529
20
2.73688084429193
30
0
41
1
10
3.60276056102441
20
2.73677463366258
30
0
0
SPLINE
5
CC
100
AcDbEntity
8
1
62
256
6
ByLayer
370
18
48
1
60
0
100
AcDbSpline
70
4
71
3
72
22
73
18
40
0
40
0
40
0
40
0
40
0.125
40
0.125
40
0.25
40
0.25
40
0.375
40
0.375
40
0.5
40
0.5
40
0.625
40
0.625
40
0.75
40
0.75
40
0.875
40
0.875
40
1
40
1
40
1
40
1
41
1
10
28.6364449038209
20
-0.125116684000744
30
0
41
1
10
28.6414579655596
20
-0.285779248048556
30
0
41
1
10
28.6525358946523
20
-0.443022146239173
30
0
41
1
10
28.681204329809
20
-0.751437372578863
30
0
41
1
10
28.6988916289996
20
-0.903130974117147
30
1E-16
41
1
10
28.7364359214729
20
-1.19824302023375
30
1E-16
41
1
10
28.756065632896
20
-1.34009366987928
30
1E-16
41
1
10
28.7935675848204
20
-1.60961532261288
30
1E-16
41
1
10
28.811385013882
20
-1.73695747699028
30
1E-16
41
1
10
28.8432298091744
20
-1.97321701839803
30
-1E-16
41
1
10
28.857256781671
20
-2.0821679791886
30
-1E-16
41
1
10
28.8814516674608
20
-2.2778808580658
30
-1E-16
41
1
10
28.8916564264007
20
-2.36488982337431
30
-1E-16
41
1
10
28.9101294484698
20
-2.51378747576481
30
-1E-16
41
1
10
28.9184678286471
20
-2.57603479078432
30
0
41
1
10
28.9367106295986
20
-2.67314317034402
30
1E-16
41
1
10
28.9466322153189
20
-2.70829920985824
30
1E-16
41
1
10
28.9598002136966
20
-2.72989574791782
30
0
0
SPLINE
5
CD
100
AcDbEntity
8
1
62
256
6
ByLayer
370
18
48
1
60
0
100
AcDbSpline
70
4
71
3
72
26
73
22
40
0
40
0
40
0
40
0
40
0.0035381956089995
40
0.0035381956089995
40
0.0125541274650735
40
0.0125541274650735
40
0.0214935696899272
40
0.0214935696899272
40
0.0323996729933842
40
0.0323996729933842
40
0.0598310423575544
40
0.0598310423575544
40
0.101483301579526
40
0.101483301579526
40
0.275229769627579
40
0.275229769627579
40
0.448766734855661
40
0.448766734855661
40
0.710728117611282
40
0.710728117611282
40
1
40
1
40
1
40
1
41
1
10
13.6
20
-2.72661113178936
30
-1E-16
41
1
10
13.6
20
-2.72662203757901
30
-1E-16
41
1
10
13.6
20
-2.72663389254336
30
-1E-16
41
1
10
13.6
20
-2.72667927403805
30
-1E-16
41
1
10
13.6
20
-2.72671935211562
30
-1E-16
41
1
10
13.6
20
-2.72680939352767
30
-1E-16
41
1
10
13.6
20
-2.72686014627826
30
-1E-16
41
1
10
13.6
20
-2.72697417012262
30
-1E-16
41
1
10
13.6
20
-2.72703909496534
30
-1E-16
41
1
10
13.6
20
-2.72726491788811
30
-1E-16
41
1
10
13.6
20
-2.72742595353452
30
-1E-16
41
1
10
13.6
20
-2.72782699698874
30
-1E-16
41
1
10
13.6
20
-2.72806721334069
30
-1E-16
41
1
10
13.6
20
-2.7293081625171
30
-1E-16
41
1
10
13.6
20
-2.73031877101246
30
-1E-16
41
1
10
13.6
20
-2.73234836153483
30
-1E-16
41
1
10
13.6
20
-2.73336748731046
30
-1E-16
41
1
10
13.6
20
-2.73592515074867
30
-1E-16
41
1
10
13.6
20
-2.73746294519168
30
-1E-16
41
1
10
13.6
20
-2.74069399241986
30
-1E-16
41
1
10
13.6
20
-2.74238876209748
30
-1E-16
41
1
10
13.6
20
-2.74408313178935
30
-1E-16
0
SPLINE
5
CE
100
AcDbEntity
8
1
62
256
6
ByLayer
370
18
48
1
60
0
100
AcDbSpline
70
4
71
3
72
8
73
4
40
0
40
0
40
0
40
0
40
1
40
1
40
1
40
1
41
1
10
3.65099105437525
20
2.88109658413617
30
0
41
1
10
3.65041275894225
20
2.83643591435015
30
0
41
1
10
3.64982485716507
20
2.79177575508467
30
0
41
1
10
3.64922728511999
20
2.7471161485673
30
0
0
SPLINE
5
CF
100
AcDbEntity
8
1
62
256
6
ByLayer
370
18
48
1
60
0
100
AcDbSpline
70
4
71
3
72
8
73
4
40
0
40
0
40
0
40
0
40
1
40
1
40
1
40
1
41
1
10
3.5020661664357
20
2.83948622749617
30
0
41
1
10
3.50206616643572
20
2.83499270392309
30
0
41
1
10
3.50235088672582
20
2.83048693250811
30
0
41
1
10
3.50292999168525
20
2.82599813520483
30
0
0
SPLINE
5
D0
100
AcDbEntity
8
1
62
256
6
ByLayer
370
18
48
1
60
0
100
AcDbSpline
70
4
71
3
72
24
73
20
40
0
40
0
40
0
40
0
40
0.105752953662088
40
0.105752953662088
40
0.211505907324174
40
0.211505907324174
40
0.423011814648344
40
0.423011814648344
40
0.634517721972514
40
0.634517721972514
40
0.740270675634598
40
0.740270675634598
40
0.846023629296682
40
0.846023629296682
40
0.898900106127723
40
0.898900106127723
40
0.951776582958765
40
0.951776582958765
40
1
40
1
40
1
40
1
41
1
10
28.9573446079983
20
-2.74112601772069
30
0
41
1
10
28.6917848454164
20
-2.72223869750786
30
-1E-16
41
1
10
28.4266462525272
20
-2.69336438265603
30
1E-16
41
1
10
27.8958007888575
20
-2.61389040461248
30
0
41
1
10
27.6293256893907
20
-2.56349331583473
30
-1E-16
41
1
10
26.8341384840332
20
-2.38384138838816
30
-1E-16
41
1
10
26.3094530462866
20
-2.22667634628834
30
-1E-16
41
1
10
25.2599363738378
20
-1.84989265043075
30
1E-16
41
1
10
24.7354755163389
20
-1.6305036100384
30
1E-16
41
1
10
23.9404010785288
20
-1.26546563733595
30
1E-16
41
1
10
23.6738247739996
20
-1.13766562347052
30
1E-16
41
1
10
23.1431629166918
20
-0.875143203683194
30
1E-16
41
1
10
22.8781622788127
20
-0.740184435347089
30
0
41
1
10
22.4800836012951
20
-0.534181574520829
30
0
41
1
10
22.3472858835453
20
-0.464929358447591
30
0
41
1
10
22.0814569968013
20
-0.325382743399388
30
0
41
1
10
21.9483222296802
20
-0.255000182751331
30
0
41
1
10
21.6947303853781
20
-0.120639975097816
30
0
41
1
10
21.5740493146045
20
-0.0565915924580906
30
0
41
1
10
21.4535863365577
20
0.0073099786573607
30
0
0
SPLINE
5
D1
100
AcDbEntity
8
1
62
256
6
ByLayer
370
18
48
1
60
0
100
AcDbSpline
70
4
71
3
72
8
73
4
40
0
40
0
40
0
40
0
40
1
40
1
40
1
40
1
41
1
10
28.9891334321817
20
2.78357002134393
30
0
41
1
10
28.9909444248169
20
2.78234881436489
30
0
41
1
10
28.9927554449045
20
2.78112743350411
30
0
41
1
10
28.9945664929113
20
2.77990587867993
30
0
0
SPLINE
5
D2
100
AcDbEntity
8
1
62
256
6
ByLayer
370
18
48
1
60
0
100
AcDbSpline
70
4
71
3
72
8
73
4
40
0
40
0
40
0
40
0
40
1
40
1
40
1
40
1
41
1
10
3.65099105437525
20
-2.88109658413617
30
0
41
1
10
3.73120514274436
20
-2.88323027491555
30
0
41
1
10
3.81140364371024
20
-2.88431789012702
30
0
41
1
10
3.89159605857324
20
-2.884367224394
30
0
0
SPLINE
5
D3
100
AcDbEntity
8
1
62
256
6
ByLayer
370
18
48
1
60
0
100
AcDbSpline
70
4
71
3
72
36
73
32
40
0
40
0
40
0
40
0
40
0.0421043124873535
40
0.0421043124873535
40
0.121928953113406
40
0.121928953113406
40
0.161841273426433
40
0.161841273426433
40
0.20175359373946
40
0.20175359373946
40
0.281578234365514
40
0.281578234365514
40
0.361402874991568
40
0.361402874991568
40
0.441227515617623
40
0.441227515617623
40
0.48113983593065
40
0.48113983593065
40
0.521052156243676
40
0.521052156243676
40
0.600876796869729
40
0.600876796869729
40
0.680701437495782
40
0.680701437495782
40
0.760526078121835
40
0.760526078121835
40
0.840350718747888
40
0.840350718747888
40
0.920175359373944
40
0.920175359373944
40
1
40
1
40
1
40
1
41
1
10
18.8116219619958
20
2.78483715683311
30
0
41
1
10
18.9478228495884
20
2.80553490825884
30
0
41
1
10
19.0841747522547
20
2.82337257653992
30
0
41
1
10
19.4798606842589
20
2.86648676779905
30
0
41
1
10
19.7399841315726
20
2.8842436311252
30
0
41
1
10
20.131822917003
20
2.89470927232207
30
0
41
1
10
20.2626733344407
20
2.89547040483518
30
0
41
1
10
20.5231121410378
20
2.89148270023188
30
0
41
1
10
20.6530292589218
20
2.88675078960679
30
0
41
1
10
21.0423266594434
20
2.86459713612626
30
0
41
1
10
21.3012292206997
20
2.83928590595511
30
0
41
1
10
21.8177189196431
20
2.76792860068892
30
1E-16
41
1
10
22.075105157571
20
2.72164553520326
30
1E-16
41
1
10
22.5914210230253
20
2.60974142056273
30
1E-16
41
1
10
22.8501334895311
20
2.54408651951718
30
1E-16
41
1
10
23.2393697568202
20
2.43110960777793
30
1E-16
41
1
10
23.369293447463
20
2.39100734793189
30
1E-16
41
1
10
23.629748867574
20
2.30606554049265
30
1E-16
41
1
10
23.7605920351503
20
2.26118602465843
30
1E-16
41
1
10
24.1524833177591
20
2.12084348500898
30
1E-16
41
1
10
24.4124290809205
20
2.01969615754987
30
-1E-16
41
1
10
24.930314080349
20
1.80335056248259
30
-1E-16
41
1
10
25.1880968299107
20
1.68787884405435
30
-1E-16
41
1
10
25.7041691200753
20
1.44663328735061
30
-1E-16
41
1
10
25.9622957098664
20
1.32066764421887
30
-1E-16
41
1
10
26.4790068421674
20
1.05841538656628
30
-1E-16
41
1
10
26.7374878509091
20
0.921890137045409
30
-1E-16
41
1
10
27.257692987985
20
0.643072682158817
30
0
41
1
10
27.5199356106097
20
0.50019176062338
30
0
41
1
10
28.0424324603638
20
0.212013172634727
30
0
41
1
10
28.3031478587428
20
0.0665066868470774
30
0
41
1
10
28.5639281599109
20
-0.0793490596985578
30
0
0
SPLINE
5
D4
100
AcDbEntity
8
1
62
256
6
ByLayer
370
18
48
1
60
0
100
AcDbSpline
70
4
71
3
72
12
73
8
40
0
40
0
40
0
40
0
40
0.342637085459643
40
0.342637085459643
40
0.685274170919286
40
0.685274170919286
40
1
40
1
40
1
40
1
41
1
10
3.60276056102441
20
2.74629773746406
30
0
41
1
10
3.58714352477639
20
2.74619512536518
30
0
41
1
10
3.57198259374636
20
2.74965641100402
30
0
41
1
10
3.54595425731492
20
2.76138336183061
30
0
41
1
10
3.53519874763111
20
2.76944240112118
30
0
41
1
10
3.51898056275587
20
2.78682983217226
30
0
41
1
10
3.51314249040723
20
2.7958839839406
30
0
41
1
10
3.50909918568922
20
2.80530224046714
30
0
0
SPLINE
5
D5
100
AcDbEntity
8
1
62
256
6
ByLayer
370
18
48
1
60
0
100
AcDbSpline
70
4
71
3
72
8
73
4
40
0
40
0
40
0
40
0
40
1
40
1
40
1
40
1
41
1
10
3.5038542018776
20
2.82196276632561
30
0
41
1
10
3.50265276482335
20
2.82777545257221
30
0
41
1
10
3.50206616643572
20
2.83364267963734
30
0
41
1
10
3.5020661664357
20
2.83948622749617
30
0
0
SPLINE
5
D6
100
AcDbEntity
8
1
62
256
6
ByLayer
370
18
48
1
60
0
100
AcDbSpline
70
4
71
3
72
8
73
4
40
0
40
0
40
0
40
0
40
1
40
1
40
1
40
1
41
1
10
28.5639281599039
20
-0.0793490596972219
30
0
41
1
10
28.5580748866732
20
0.0571178377380761
30
0
41
1
10
28.5567073997355
20
0.192877893554936
30
0
41
1
10
28.5613391794965
20
0.327921426472898
30
0
0
SPLINE
5
D7
100
AcDbEntity
8
1
62
256
6
ByLayer
370
18
48
1
60
0
100
AcDbSpline
70
4
71
3
72
10
73
6
40
0
40
0
40
0
40
0
40
0.5
40
0.5
40
1
40
1
40
1
40
1
41
1
10
28.9945664929115
20
2.77990587867978
30
0
41
1
10
28.9832758669915
20
2.78765413181904
30
0
41
1
10
28.9734472947392
20
2.79164168676434
30
0
41
1
10
28.9564753998403
20
2.79211348548881
30
0
41
1
10
28.9492867767387
20
2.78864602108553
30
0
41
1
10
28.9430068354465
20
2.78171319026379
30
0
0
SPLINE
5
D8
100
AcDbEntity
8
1
62
256
6
ByLayer
370
18
48
1
60
0
100
AcDbSpline
70
4
71
3
72
22
73
18
40
0
40
0
40
0
40
0
40
0.151357397317384
40
0.151357397317384
40
0.302714794634767
40
0.302714794634767
40
0.454072191952151
40
0.454072191952151
40
0.605429589269534
40
0.605429589269534
40
0.681108287928217
40
0.681108287928217
40
0.756786986586899
40
0.756786986586899
40
0.908144383904247
40
0.908144383904247
40
1
40
1
40
1
40
1
41
1
10
29.9478881322004
20
0.0450145889626299
30
0
41
1
10
29.9323044048076
20
-0.006978645375483
30
0
41
1
10
29.9145877434738
20
-0.057906844969466
30
0
41
1
10
29.8748797361852
20
-0.157552266392685
30
0
41
1
10
29.8526020127495
20
-0.206729795761532
30
0
41
1
10
29.805988133286
20
-0.297284409863494
30
0
41
1
10
29.7814072980302
20
-0.339379205909609
30
0
41
1
10
29.7299179132633
20
-0.415645546409479
30
0
41
1
10
29.7043089788874
20
-0.447916926571736
30
0
41
1
10
29.6660415667131
20
-0.48742928548532
30
0
41
1
10
29.6532107905033
20
-0.49916048844932
30
0
41
1
10
29.6283460942564
20
-0.518815484823762
30
0
41
1
10
29.6162423164459
20
-0.526834722358245
30
0
41
1
10
29.5807882799512
20
-0.54564490898818
30
0
41
1
10
29.5581725351557
20
-0.551050401432178
30
0
41
1
10
29.525005339248
20
-0.548700513234593
30
0
41
1
10
29.5130131701195
20
-0.545296686427236
30
0
41
1
10
29.5016400615295
20
-0.539653911572316
30
0
0
SPLINE
5
D9
100
AcDbEntity
8
1
62
256
6
ByLayer
370
18
48
1
60
0
100
AcDbSpline
70
4
71
3
72
8
73
4
40
0
40
0
40
0
40
0
40
1
40
1
40
1
40
1
41
1
10
29.4610095640356
20
-0.507506140419622
30
0
41
1
10
29.4510975523586
20
-0.496444129640139
30
0
41
1
10
29.4417577575949
20
-0.483419406310105
30
0
41
1
10
29.4328772890141
20
-0.468598729418687
30
0
0
SPLINE
5
DA
100
AcDbEntity
8
1
62
256
6
ByLayer
370
18
48
1
60
0
100
AcDbSpline
70
4
71
3
72
8
73
4
40
0
40
0
40
0
40
0
40
1
40
1
40
1
40
1
41
1
10
29.9957789542948
20
0.205873563768335
30
0
41
1
10
29.9799137092267
20
0.152222520322056
30
0
41
1
10
29.9639499489058
20
0.0986029108583182
30
0
41
1
10
29.9478881322004
20
0.0450145889626299
30
0
0
SPLINE
5
DB
100
AcDbEntity
8
1
62
256
6
ByLayer
370
18
48
1
60
0
100
AcDbSpline
70
4
71
3
72
8
73
4
40
0
40
0
40
0
40
0
40
1
40
1
40
1
40
1
41
1
10
28.8027241080508
20
-2.8622787524304
30
0
41
1
10
28.8493621218405
20
-2.83597461248098
30
0
41
1
10
28.8961166425699
20
-2.80911588319293
30
0
41
1
10
28.9430068354462
20
-2.78171319026399
30
0
0
SPLINE
5
DC
100
AcDbEntity
8
1
62
256
6
ByLayer
370
18
48
1
60
0
100
AcDbSpline
70
4
71
3
72
34
73
30
40
0
40
0
40
0
40
0
40
0.0300186456173254
40
0.0300186456173254
40
0.118198768743022
40
0.118198768743022
40
0.206378891868718
40
0.206378891868718
40
0.294559014994415
40
0.294559014994415
40
0.338649076557263
40
0.338649076557263
40
0.382739138120111
40
0.382739138120111
40
0.47091926124581
40
0.47091926124581
40
0.515009322808659
40
0.515009322808659
40
0.559099384371508
40
0.559099384371508
40
0.647279507497207
40
0.647279507497207
40
0.735459630622905
40
0.735459630622905
40
0.823639753748603
40
0.823639753748603
40
0.911819876874302
40
0.911819876874302
40
1
40
1
40
1
40
1
41
1
10
12.4925743954865
20
-0.235710645809519
30
0
41
1
10
12.4032650604954
20
-0.188955739685184
30
0
41
1
10
12.313992768624
20
-0.142053622404262
30
0
41
1
10
11.9638102015297
20
0.0426270639076449
30
0
41
1
10
11.7040371143724
20
0.180335976241139
30
0
41
1
10
11.1856692850001
20
0.452356316113679
30
0
41
1
10
10.9270536439498
20
0.586693722871303
30
0
41
1
10
10.4093709725945
20
0.849456856368846
30
-1E-16
41
1
10
10.1504736512743
20
0.978130207656989
30
-1E-16
41
1
10
9.76188731652181
20
1.16583384059729
30
-1E-16
41
1
10
9.63232010333746
20
1.22750697609331
30
-1E-16
41
1
10
9.37257152817767
20
1.34852035728608
30
-1E-16
41
1
10
9.24238613255966
20
1.40785626178589
30
-1E-16
41
1
10
8.85084816828268
20
1.58214489078634
30
-1E-16
41
1
10
8.58760533764632
20
1.69373163863008
30
-1E-16
41
1
10
8.19646247982737
20
1.84926620486999
30
-1E-16
41
1
10
8.06654523986163
20
1.89921722203928
30
1E-16
41
1
10
7.80692638891051
20
1.99543195143292
30
1E-16
41
1
10
7.6772107274447
20
2.04169914344334
30
1E-16
41
1
10
7.28840832119107
20
2.17465022641449
30
1E-16
41
1
10
7.02968493408125
20
2.25549086618946
30
1E-16
41
1
10
6.51241612878866
20
2.39965316392627
30
1E-16
41
1
10
6.25388437048534
20
2.46297021363034
30
1E-16
41
1
10
5.73566060293859
20
2.57062188570975
30
0
41
1
10
5.47588720674332
20
2.61511099510625
30
0
41
1
10
4.95329964588188
20
2.68592586400146
30
-1E-16
41
1
10
4.69048402599157
20
2.71174444873171
30
0
41
1
10
4.16709573861988
20
2.7413695645788
30
0
41
1
10
3.90586362012977
20
2.74527937580817
30
0
41
1
10
3.64457671760627
20
2.73753623695723
30
0
0
SPLINE
5
DD
100
AcDbEntity
8
1
62
256
6
ByLayer
370
18
48
1
60
0
100
AcDbSpline
70
4
71
3
72
14
73
10
40
0
40
0
40
0
40
0
40
0.594204064835606
40
0.594204064835606
40
0.742755081044507
40
0.742755081044507
40
0.891306097253408
40
0.891306097253408
40
1
40
1
40
1
40
1
41
1
10
6.49282899691818
20
-1.1792203928388
30
1E-16
41
1
10
7.68462625623084
20
-1.78308053216563
30
1E-16
41
1
10
8.84382837953711
20
-2.27664388556815
30
-1E-16
41
1
10
10.3312625847867
20
-2.65088940256467
30
-1E-16
41
1
10
10.6288026876488
20
-2.71307058297313
30
-1E-16
41
1
10
11.2225243109272
20
-2.81015563435184
30
0
41
1
10
11.5192762002546
20
-2.84519027809137
30
0
41
1
10
12.0346864780674
20
-2.88161430888738
30
0
41
1
10
12.2523469202453
20
-2.88943797306516
30
0
41
1
10
12.4697577510715
20
-2.88969562762784
30
0
0
SPLINE
5
DE
100
AcDbEntity
8
1
62
256
6
ByLayer
370
18
48
1
60
0
100
AcDbSpline
70
4
71
3
72
24
73
20
40
0
40
0
40
0
40
0
40
0.0102710417857977
40
0.0102710417857977
40
0.133987161562573
40
0.133987161562573
40
0.257703281339348
40
0.257703281339348
40
0.381419401116124
40
0.381419401116124
40
0.505135520892899
40
0.505135520892899
40
0.628851640669674
40
0.628851640669674
40
0.752567760446449
40
0.752567760446449
40
0.876283880223225
40
0.876283880223225
40
1
40
1
40
1
40
1
41
1
10
21.3711099968866
20
-0.348847250426786
30
0
41
1
10
21.344479713311
20
-0.334721797492307
30
0
41
1
10
21.317847668713
20
-0.320582276043638
30
0
41
1
10
20.9704034517517
20
-0.135967017863663
30
0
41
1
10
20.6503146284956
20
0.0359059017711161
30
0
41
1
10
20.0091453045843
20
0.377906746540276
30
0
41
1
10
19.6878040969264
20
0.548173423017772
30
0
41
1
10
19.0461849483149
20
0.87995744004337
30
-1E-16
41
1
10
18.7249876526602
20
1.04191895986176
30
-1E-16
41
1
10
18.0844337856415
20
1.35122641543862
30
-1E-16
41
1
10
17.7646947061554
20
1.49870795011151
30
-1E-16
41
1
10
17.1238853716388
20
1.77576792649134
30
-1E-16
41
1
10
16.8026205239255
20
1.90532406931027
30
-1E-16
41
1
10
16.1622953274485
20
2.1407904971316
30
1E-16
41
1
10
15.8425074919805
20
2.24695661039272
30
1E-16
41
1
10
15.2013365574793
20
2.43292914658198
30
1E-16
41
1
10
14.880373220185
20
2.51259773618938
30
1E-16
41
1
10
14.2403867848544
20
2.64214417346111
30
-1E-16
41
1
10
13.9206823063916
20
2.6922128508088
30
-1E-16
41
1
10
13.6
20
2.72661113180791
30
1E-16
0
SPLINE
5
DF
100
AcDbEntity
8
1
62
256
6
ByLayer
370
18
48
1
60
0
100
AcDbSpline
70
4
71
3
72
32
73
28
40
0
40
0
40
0
40
0
40
0.0920301572355939
40
0.0920301572355939
40
0.184060314471189
40
0.184060314471189
40
0.276090471706783
40
0.276090471706783
40
0.368120628942377
40
0.368120628942377
40
0.460150786177972
40
0.460150786177972
40
0.506165864795769
40
0.506165864795769
40
0.552180943413565
40
0.552180943413565
40
0.64421110064916
40
0.64421110064916
40
0.690226179266956
40
0.690226179266956
40
0.736241257884754
40
0.736241257884754
40
0.828271415120349
40
0.828271415120349
40
0.920301572355946
40
0.920301572355946
40
1
40
1
40
1
40
1
41
1
10
3.64922728511996
20
2.7471161485673
30
0
41
1
10
3.91041252848811
20
2.75532692880262
30
0
41
1
10
4.17154688397045
20
2.75185404268694
30
0
41
1
10
4.6947472596591
20
2.72303239502844
30
0
41
1
10
4.95747683773379
20
2.6975805384113
30
-1E-16
41
1
10
5.47987206972911
20
2.62741591238495
30
0
41
1
10
5.73953505168777
20
2.58321250906764
30
0
41
1
10
6.25754652849326
20
2.47606738835188
30
1E-16
41
1
10
6.51596833145763
20
2.41296175360435
30
1E-16
41
1
10
7.03301933048945
20
2.26914206845001
30
1E-16
41
1
10
7.29163331806694
20
2.18843019537005
30
1E-16
41
1
10
7.6802682072823
20
2.05559437464817
30
1E-16
41
1
10
7.80992710532729
20
2.00935178881755
30
1E-16
41
1
10
8.06943196965594
20
1.9131636559282
30
1E-16
41
1
10
8.19929440729055
20
1.86322042405126
30
-1E-16
41
1
10
8.5902855613092
20
1.70768708385168
30
-1E-16
41
1
10
8.85344616490599
20
1.59603574832761
30
-1E-16
41
1
10
9.24484277717971
20
1.42156677991946
30
-1E-16
41
1
10
9.37497827879395
20
1.36215910494059
30
-1E-16
41
1
10
9.63462042229949
20
1.24097736716746
30
-1E-16
41
1
10
9.76413410636491
20
1.17921416288749
30
-1E-16
41
1
10
10.1525712321259
20
0.991232250574427
30
-1E-16
41
1
10
10.4113634897244
20
0.862317814861512
30
-1E-16
41
1
10
10.9288240914986
20
0.59897406862359
30
0
41
1
10
11.1873209787466
20
0.464294711663371
30
0
41
1
10
11.6707478779853
20
0.20980732647476
30
0
41
1
10
11.895543924059
20
0.090386947414828
30
0
41
1
10
12.1213619857633
20
-0.0292743944093843
30
0
0
SPLINE
5
E0
100
AcDbEntity
8
1
62
256
6
ByLayer
370
18
48
1
60
0
100
AcDbSpline
70
4
71
3
72
18
73
14
40
0
40
0
40
0
40
0
40
0.237840342644247
40
0.237840342644247
40
0.433147152292772
40
0.433147152292772
40
0.630309011581345
40
0.630309011581345
40
0.800746550286725
40
0.800746550286725
40
0.964268223860825
40
0.964268223860825
40
1
40
1
40
1
40
1
41
1
10
28.9598002136968
20
-2.72989574791779
30
0
41
1
10
28.9599072881949
20
-2.73007135839458
30
0
41
1
10
28.9599557565282
20
-2.73043361651469
30
0
41
1
10
28.9599044080591
20
-2.73145625101151
30
0
41
1
10
28.9598281012336
20
-2.73206527592009
30
0
41
1
10
28.9595598306426
20
-2.73353682629758
30
0
41
1
10
28.9593614914239
20
-2.7344270978661
30
0
41
1
10
28.9589014763923
20
-2.7362145163743
30
0
41
1
10
28.9586458045447
20
-2.737118361786
30
0
41
1
10
28.9581089823364
20
-2.7388754722011
30
0
41
1
10
28.9578229783372
20
-2.73975058353804
30
0
41
1
10
28.9574721728051
20
-2.74076425441385
30
0
41
1
10
28.957408430784
20
-2.74094612932078
30
0
41
1
10
28.9573446080129
20
-2.74112601772663
30
0
0
SPLINE
5
E1
100
AcDbEntity
8
1
62
256
6
ByLayer
370
18
48
1
60
0
100
AcDbSpline
70
4
71
3
72
8
73
4
40
0
40
0
40
0
40
0
40
1
40
1
40
1
40
1
41
1
10
3.64922728511999
20
2.7471161485673
30
0
41
1
10
3.63489268365342
20
2.74669707568566
30
0
41
1
10
3.61901590273891
20
2.74640454356384
30
0
41
1
10
3.60276056102441
20
2.74629773746406
30
0
0
SPLINE
5
E2
100
AcDbEntity
8
1
62
256
6
ByLayer
370
18
48
1
60
0
100
AcDbSpline
70
4
71
3
72
16
73
12
40
0
40
0
40
0
40
0
40
0.245738800005771
40
0.245738800005771
40
0.491477600011542
40
0.491477600011542
40
0.737216400017313
40
0.737216400017313
40
0.982955200023084
40
0.982955200023084
40
1
40
1
40
1
40
1
41
1
10
28.8049327971896
20
0.487109139328368
30
0
41
1
10
28.7635715152577
20
0.524477598263104
30
0
41
1
10
28.7235388084928
20
0.55989509710642
30
0
41
1
10
28.6467870769898
20
0.625864083783625
30
0
41
1
10
28.6094205738481
20
0.6572263545103
30
0
41
1
10
28.5405683448864
20
0.712618125685481
30
0
41
1
10
28.5092632560238
20
0.736333430723647
30
0
41
1
10
28.454356153653
20
0.773939478083378
30
0
41
1
10
28.4285060925466
20
0.790406165748379
30
0
41
1
10
28.4092599254128
20
0.798402716011566
30
0
41
1
10
28.4080526686891
20
0.798874312625145
30
0
41
1
10
28.4068844831181
20
0.799301151165139
30
0
0
SPLINE
5
E3
100
AcDbEntity
8
1
62
256
6
ByLayer
370
18
48
1
60
0
100
AcDbSpline
70
4
71
3
72
10
73
6
40
0
40
0
40
0
40
0
40
0.5
40
0.5
40
1
40
1
40
1
40
1
41
1
10
3.50206616643567
20
2.88372447572308
30
0
41
1
10
3.50206616643567
20
2.88316138709268
30
0
41
1
10
3.52143474230925
20
2.88186897678992
30
0
41
1
10
3.58160704638641
20
2.88028572080955
30
0
41
1
10
3.6204429839068
20
2.88028400697408
30
0
41
1
10
3.65099105437525
20
2.88109658413617
30
0
0
SPLINE
5
E4
100
AcDbEntity
8
1
62
256
6
ByLayer
370
18
48
1
60
0
100
AcDbSpline
70
4
71
3
72
10
73
6
40
0
40
0
40
0
40
0
40
0.5
40
0.5
40
1
40
1
40
1
40
1
41
1
10
28.9945664929114
20
-2.77990587867981
30
0
41
1
10
28.9832758669915
20
-2.78765413181904
30
0
41
1
10
28.9734472947392
20
-2.79164168676431
30
0
41
1
10
28.9564753998403
20
-2.79211348548881
30
0
41
1
10
28.9492867767387
20
-2.78864602108553
30
0
41
1
10
28.9430068354465
20
-2.78171319026376
30
0
0
SPLINE
5
E5
100
AcDbEntity
8
1
62
256
6
ByLayer
370
18
48
1
60
0
100
AcDbSpline
70
4
71
3
72
16
73
12
40
0
40
0
40
0
40
0
40
0.29767113407228
40
0.29767113407228
40
0.47325335055421
40
0.47325335055421
40
0.64883556703614
40
0.64883556703614
40
0.82441778351807
40
0.82441778351807
40
1
40
1
40
1
40
1
41
1
10
8.53250021181572
20
2.09710443344832
30
0
41
1
10
9.0306174272705
20
2.28737200543154
30
0
41
1
10
9.52943511561392
20
2.44914579959797
30
1E-16
41
1
10
10.3312625847809
20
2.65088940256337
30
1E-16
41
1
10
10.6288026876425
20
2.71307058297191
30
1E-16
41
1
10
11.2225243109201
20
2.81015563435088
30
0
41
1
10
11.5192762002471
20
2.84519027809057
30
0
41
1
10
12.1145433164596
20
2.88725778955941
30
0
41
1
10
12.4119596861393
20
2.89415828721442
30
0
41
1
10
13.0056773080304
20
2.87969583616604
30
0
41
1
10
13.3023833728084
20
2.85835903624891
30
0
41
1
10
13.6
20
2.82305584775244
30
0
0
SPLINE
5
E6
100
AcDbEntity
8
1
62
256
6
ByLayer
370
18
48
1
60
0
100
AcDbSpline
70
4
71
3
72
64
73
60
40
0
40
0
40
0
40
0
40
0.024865096018401
40
0.024865096018401
40
0.0618939484256759
40
0.0618939484256759
40
0.135951653240225
40
0.135951653240225
40
0.172980505647499
40
0.172980505647499
40
0.210009358054773
40
0.210009358054773
40
0.247038210462047
40
0.247038210462047
40
0.284067062869321
40
0.284067062869321
40
0.321095915276595
40
0.321095915276595
40
0.339610341480233
40
0.339610341480233
40
0.35812476768387
40
0.35812476768387
40
0.395153620091143
40
0.395153620091143
40
0.432182472498416
40
0.432182472498416
40
0.506240177312964
40
0.506240177312964
40
0.524754603516601
40
0.524754603516601
40
0.543269029720238
40
0.543269029720238
40
0.580297882127513
40
0.580297882127513
40
0.617326734534788
40
0.617326734534788
40
0.654355586942062
40
0.654355586942062
40
0.691384439349337
40
0.691384439349337
40
0.728413291756612
40
0.728413291756612
40
0.765442144163887
40
0.765442144163887
40
0.802470996571162
40
0.802470996571162
40
0.839499848978437
40
0.839499848978437
40
0.858014275182075
40
0.858014275182075
40
0.876528701385712
40
0.876528701385712
40
0.913557553792987
40
0.913557553792987
40
0.950586406200262
40
0.950586406200262
40
0.987615258607537
40
0.987615258607537
40
1
40
1
40
1
40
1
41
1
10
25.2606634044634
20
-1.97137309552579
30
1E-16
41
1
10
25.0892256779039
20
-2.0413590200483
30
1E-16
41
1
10
24.9182856578084
20
-2.10783567716706
30
1E-16
41
1
10
24.4935710365515
20
-2.26419330952706
30
-1E-16
41
1
10
24.2405229960424
20
-2.34999127141651
30
-1E-16
41
1
10
23.4811005772539
20
-2.58057726332007
30
-1E-16
41
1
10
22.9753959229137
20
-2.69962626481649
30
-1E-16
41
1
10
22.2098793085935
20
-2.81896056756418
30
0
41
1
10
21.9528224919886
20
-2.84898528095965
30
0
41
1
10
21.4416630673092
20
-2.88755982203176
30
0
41
1
10
21.1874068098813
20
-2.89638411580668
30
0
41
1
10
20.6801518465278
20
-2.89332808906863
30
0
41
1
10
20.4268877390154
20
-2.88150085721179
30
0
41
1
10
19.9208040117881
20
-2.83743358737769
30
0
41
1
10
19.6677835485523
20
-2.80518658343829
30
-1E-16
41
1
10
19.1600584724236
20
-2.72094018747171
30
-1E-16
41
1
10
18.9057427927936
20
-2.66871951813056
30
-1E-16
41
1
10
18.5221499745182
20
-2.57581499553515
30
-1E-16
41
1
10
18.3936734220779
20
-2.54235752321969
30
-1E-16
41
1
10
18.1372826433957
20
-2.47107466581088
30
-1E-16
41
1
10
18.0094780151744
20
-2.43322601194944
30
-1E-16
41
1
10
17.6270728970073
20
-2.3132660405025
30
-1E-16
41
1
10
17.3731304185299
20
-2.22511325164118
30
-1E-16
41
1
10
16.8660096642458
20
-2.03423054182267
30
1E-16
41
1
10
16.6131935328218
20
-1.93101656172897
30
1E-16
41
1
10
15.8535953288265
20
-1.60260534867055
30
1E-16
41
1
10
15.3465970906926
20
-1.35739411630229
30
1E-16
41
1
10
14.7054744322045
20
-1.02743193710808
30
1E-16
41
1
10
14.5771180478137
20
-0.960147897115462
30
1E-16
41
1
10
14.3214457589677
20
-0.824719121564698
30
1E-16
41
1
10
14.1939008113083
20
-0.756426019492807
30
0
41
1
10
13.811900589112
20
-0.550249794442436
30
0
41
1
10
13.5582497054572
20
-0.41075922700719
30
0
41
1
10
13.0516674571515
20
-0.130105768177259
30
0
41
1
10
12.7984510636131
20
0.0105337639721199
30
0
41
1
10
12.2918805837913
20
0.29191099457401
30
0
41
1
10
12.0383562319304
20
0.432336892445619
30
0
41
1
10
11.5290328732561
20
0.709360517567973
30
0
41
1
10
11.2731262110878
20
0.846927684879546
30
-1E-16
41
1
10
10.7600447189138
20
1.1150457006147
30
-1E-16
41
1
10
10.5047652457427
20
1.24437152976665
30
-1E-16
41
1
10
9.99640294333886
20
1.49332072710621
30
-1E-16
41
1
10
9.74293954123493
20
1.61228800404723
30
-1E-16
41
1
10
9.23619106436422
20
1.83750213239563
30
-1E-16
41
1
10
8.98328391922033
20
1.94427808331071
30
-1E-16
41
1
10
8.47615394696726
20
2.14296534721666
30
1E-16
41
1
10
8.22204092344813
20
2.23506631749999
30
1E-16
41
1
10
7.83955178950151
20
2.36153025491083
30
1E-16
41
1
10
7.71175023524467
20
2.40163623939878
30
1E-16
41
1
10
7.45538292902447
20
2.47755107170133
30
1E-16
41
1
10
7.32674370780666
20
2.51334244341359
30
1E-16
41
1
10
6.94256479008766
20
2.61343937859456
30
1E-16
41
1
10
6.68787223281876
20
2.67077007916166
30
1E-16
41
1
10
6.17904365068904
20
2.76532077338743
30
1E-16
41
1
10
5.92511170967944
20
2.80272634000261
30
1E-16
41
1
10
5.41726018688433
20
2.8573922085379
30
0
41
1
10
5.16309800667142
20
2.87458120972684
30
0
41
1
10
4.82320623994988
20
2.88372582846173
30
0
41
1
10
4.73792983080671
20
2.8848530779172
30
0
41
1
10
4.65253235151397
20
2.88481253200797
30
0
0
SPLINE
5
E7
100
AcDbEntity
8
1
62
256
6
ByLayer
370
18
48
1
60
0
100
AcDbSpline
70
4
71
3
72
20
73
16
40
0
40
0
40
0
40
0
40
0.25
40
0.25
40
0.5
40
0.5
40
0.5625
40
0.5625
40
0.625
40
0.625
40
0.75
40
0.75
40
0.875
40
0.875
40
1
40
1
40
1
40
1
41
1
10
28.9945664929112
20
-2.77990587868015
30
0
41
1
10
29.0523713192308
20
-2.61549847216259
30
0
41
1
10
29.109801477434
20
-2.44991393737243
30
0
41
1
10
29.226165433187
20
-2.11750425711909
30
0
41
1
10
29.2850591375534
20
-1.95086339549403
30
0
41
1
10
29.3600567250386
20
-1.74328678496681
30
0
41
1
10
29.3750255646742
20
-1.70176079692695
30
0
41
1
10
29.4056876238492
20
-1.61895892979774
30
0
41
1
10
29.4213159332787
20
-1.57785679955671
30
0
41
1
10
29.4691269132047
20
-1.45611031948337
30
0
41
1
10
29.5023129953589
20
-1.37680202252682
30
0
41
1
10
29.5722090010995
20
-1.22226566074104
30
0
41
1
10
29.6090646804867
20
-1.14670907238522
30
0
41
1
10
29.6862743275777
20
-1.00119581969074
30
0
41
1
10
29.7260723061613
20
-0.932295469758827
30
0
41
1
10
29.7671971550165
20
-0.867026057912483
30
0
0
SPLINE
5
E8
100
AcDbEntity
8
1
62
256
6
ByLayer
370
18
48
1
60
0
100
AcDbSpline
70
4
71
3
72
8
73
4
40
0
40
0
40
0
40
0
40
1
40
1
40
1
40
1
41
1
10
13.6
20
2.82305584775557
30
0
41
1
10
13.6
20
2.79128810676624
30
1E-16
41
1
10
13.6
20
2.75913948391405
30
1E-16
41
1
10
13.6
20
2.72661113180828
30
1E-16
0
SPLINE
5
E9
100
AcDbEntity
8
1
62
256
6
ByLayer
370
18
48
1
60
0
100
AcDbSpline
70
4
71
3
72
8
73
4
40
0
40
0
40
0
40
0
40
1
40
1
40
1
40
1
41
1
10
29.2852050070748
20
0.77650177117809
30
0
41
1
10
29.4471517855988
20
0.798704825831976
30
0
41
1
10
29.6086999510254
20
0.826196552639573
30
0
41
1
10
29.7671971550164
20
0.867026057912398
30
0
0
SPLINE
5
EA
100
AcDbEntity
8
1
62
256
6
ByLayer
370
18
48
1
60
0
100
AcDbSpline
70
4
71
3
72
36
73
32
40
0
40
0
40
0
40
0
40
0.496901133508459
40
0.496901133508459
40
0.664290275006715
40
0.664290275006715
40
0.776028514721353
40
0.776028514721353
40
0.850630966403557
40
0.850630966403557
40
0.900450790578114
40
0.900450790578114
40
0.933746651355393
40
0.933746651355393
40
0.956006640746712
40
0.956006640746712
40
0.970828427103006
40
0.970828427103006
40
0.980684058447995
40
0.980684058447995
40
0.987237157714971
40
0.987237157714971
40
0.99161971250058
40
0.99161971250058
40
0.994603052072783
40
0.994603052072783
40
0.997565191765212
40
0.997565191765212
40
0.998934853936546
40
0.998934853936546
40
1
40
1
40
1
40
1
41
1
10
28.8145778626265
20
2.89942109074701
30
0
41
1
10
28.8434241460048
20
2.88060401688412
30
0
41
1
10
28.8723196367776
20
2.86158642614021
30
0
41
1
10
28.9110116073431
20
2.83590600050266
30
0
41
1
10
28.9207670267869
20
2.82941294183428
30
0
41
1
10
28.9370435343421
20
2.81854959535073
30
0
41
1
10
28.9435616707976
20
2.81419122965059
30
0
41
1
10
28.9544356860365
20
2.80690709789229
30
0
41
1
10
28.9587902403181
20
2.8039866039332
30
0
41
1
10
28.9660545803621
20
2.79910874766483
30
0
41
1
10
28.9689650217722
20
2.79715288296077
30
0
41
1
10
28.9738076820815
20
2.79389602049426
30
0
41
1
10
28.9757413349227
20
2.79259490201306
30
0
41
1
10
28.978967848676
20
2.79042262026351
30
0
41
1
10
28.9802626945117
20
2.78955051763504
30
0
41
1
10
28.9824333326391
20
2.78808802551359
30
0
41
1
10
28.9833045965798
20
2.78750086349584
30
0
41
1
10
28.9847628310041
20
2.78651792976478
30
0
41
1
10
28.9853472738877
20
2.78612392884696
30
0
41
1
10
28.9863238884616
20
2.78546546862796
30
0
41
1
10
28.9867152967842
20
2.78520155131829
30
0
41
1
10
28.9873662274428
20
2.78476260212452
30
0
41
1
10
28.9876266967216
20
2.784586946149
30
0
41
1
10
28.9880603873461
20
2.78429444243514
30
0
41
1
10
28.9882350126624
20
2.78417665746432
30
0
41
1
10
28.9885726544071
20
2.78394887602153
30
0
41
1
10
28.988739945522
20
2.78383600341266
30
0
41
1
10
28.9889466764425
20
2.78369640779354
30
0
41
1
10
28.9890064641135
20
2.78365601235876
30
0
41
1
10
28.989088427189
20
2.78360056551222
30
0
41
1
10
28.9891163466659
20
2.78358164699466
30
0
41
1
10
28.9891334334628
20
2.78357002109669
30
0
0
SPLINE
5
EB
100
AcDbEntity
8
1
62
256
6
ByLayer
370
18
48
1
60
0
100
AcDbSpline
70
4
71
3
72
8
73
4
40
0
40
0
40
0
40
0
40
1
40
1
40
1
40
1
41
1
10
29.4328772890142
20
-0.468598729418574
30
0
41
1
10
29.2639940330324
20
-0.186748267757679
30
0
41
1
10
29.0563352431961
20
0.130317051803502
30
0
41
1
10
28.8049327971896
20
0.487109139328396
30
0
0
SPLINE
5
EC
100
AcDbEntity
8
1
62
256
6
ByLayer
370
18
48
1
60
0
100
AcDbSpline
70
4
71
3
72
8
73
4
40
0
40
0
40
0
40
0
40
1
40
1
40
1
40
1
41
1
10
3.55359397264428
20
0.853259092526827
30
-1E-16
41
1
10
3.52226327489558
20
0.869838850996587
30
-1E-16
41
1
10
3.50206616643558
20
0.902529305059915
30
-1E-16
41
1
10
3.50206616643564
20
0.936408742405575
30
-1E-16
0
SPLINE
5
ED
100
AcDbEntity
8
1
62
256
6
ByLayer
370
18
48
1
60
0
100
AcDbSpline
70
4
71
3
72
36
73
32
40
0
40
0
40
0
40
0
40
0.101716342386199
40
0.101716342386199
40
0.127145427982749
40
0.127145427982749
40
0.152574513579299
40
0.152574513579299
40
0.203432684772401
40
0.203432684772401
40
0.305149027158605
40
0.305149027158605
40
0.356007198351707
40
0.356007198351707
40
0.406865369544809
40
0.406865369544809
40
0.508581711931013
40
0.508581711931013
40
0.559439883124115
40
0.559439883124115
40
0.610298054317217
40
0.610298054317217
40
0.813730739089625
40
0.813730739089625
40
0.839159824686177
40
0.839159824686177
40
0.864588910282728
40
0.864588910282728
40
0.915447081475831
40
0.915447081475831
40
1
40
1
40
1
40
1
41
1
10
28.8027241080515
20
-2.86227875243171
30
0
41
1
10
28.2735878633576
20
-2.8144953090092
30
0
41
1
10
27.7470123933699
20
-2.72260404986005
30
-1E-16
41
1
10
27.0853348244
20
-2.55683527443773
30
-1E-16
41
1
10
26.9526283896239
20
-2.52105853239755
30
-1E-16
41
1
10
26.6880861441885
20
-2.44486562538651
30
-1E-16
41
1
10
26.5561977281453
20
-2.40446167243974
30
-1E-16
41
1
10
26.1613131977391
20
-2.27680221659605
30
-1E-16
41
1
10
25.8991846192734
20
-2.18300595283213
30
-1E-16
41
1
10
25.1139806432591
20
-1.87857645975754
30
1E-16
41
1
10
24.5924471072283
20
-1.6443672728698
30
1E-16
41
1
10
23.8038491849181
20
-1.25916921194363
30
1E-16
41
1
10
23.5396223770941
20
-1.12452946738841
30
1E-16
41
1
10
23.0099278973242
20
-0.847039378041842
30
1E-16
41
1
10
22.746578893339
20
-0.705438572158414
30
0
41
1
10
21.9589616697606
20
-0.275858210509853
30
0
41
1
10
21.4375361748913
20
0.0176566834118148
30
0
41
1
10
20.6518585065139
20
0.452076683239113
30
0
41
1
10
20.3894732825332
20
0.596086370825134
30
0
41
1
10
19.8621602676926
20
0.879653944512881
30
-1E-16
41
1
10
19.5962974759055
20
1.01964849366652
30
-1E-16
41
1
10
18.2767734914175
20
1.69176626766225
30
-1E-16
41
1
10
17.2419877392941
20
2.14735303891189
30
-1E-16
41
1
10
16.0507511437108
20
2.49595301229647
30
1E-16
41
1
10
15.9179983460762
20
2.53238157343083
30
1E-16
41
1
10
15.6537206127011
20
2.59991559266047
30
1E-16
41
1
10
15.5219217217848
20
2.63110435824092
30
1E-16
41
1
10
15.1272918519955
20
2.71685475395057
30
1E-16
41
1
10
14.8652552192173
20
2.76361773939357
30
1E-16
41
1
10
14.1684778698917
20
2.85971814340164
30
0
41
1
10
13.7343040568719
20
2.89021811572698
30
0
41
1
10
13.2978765675542
20
2.89021723753024
30
0
0
SPLINE
5
EE
100
AcDbEntity
8
1
62
256
6
ByLayer
370
18
48
1
60
0
100
AcDbSpline
70
4
71
3
72
28
73
24
40
0
40
0
40
0
40
0
40
0.0625081429323574
40
0.0625081429323574
40
0.245380013716195
40
0.245380013716195
40
0.428251884500032
40
0.428251884500032
40
0.473969852195993
40
0.473969852195993
40
0.519687819891952
40
0.519687819891952
40
0.61112375528387
40
0.61112375528387
40
0.793995626067706
40
0.793995626067706
40
0.885431561459625
40
0.885431561459625
40
0.931149529155584
40
0.931149529155584
40
0.976867496851544
40
0.976867496851544
40
1
40
1
40
1
40
1
41
1
10
4.652471298401
20
0.255781827387466
30
0
41
1
10
4.83438540918553
20
0.160419127196661
30
0
41
1
10
5.01631735232155
20
0.064525285928994
30
0
41
1
10
5.72760406809348
20
-0.310213036759393
30
0
41
1
10
6.25273913761353
20
-0.586000608450234
30
0
41
1
10
7.30297035585548
20
-1.112132971215
30
1E-16
41
1
10
7.82804008153826
20
-1.36267194859224
30
1E-16
41
1
10
8.49116819610694
20
-1.64740472370866
30
1E-16
41
1
10
8.62438309056296
20
-1.70306648223968
30
1E-16
41
1
10
8.89009471575423
20
-1.81068571615509
30
1E-16
41
1
10
9.02257946041922
20
-1.86264656033342
30
1E-16
41
1
10
9.41915521208225
20
-2.0126798594375
30
-1E-16
41
1
10
9.68241451593966
20
-2.10486830776156
30
-1E-16
41
1
10
10.4708343134519
20
-2.35574284725902
30
-1E-16
41
1
10
10.994528925463
20
-2.48894642752575
30
-1E-16
41
1
10
11.7849130662352
20
-2.6303328945445
30
1E-16
41
1
10
12.0492134390162
20
-2.66763100770552
30
1E-16
41
1
10
12.447865474065
20
-2.70783215236705
30
0
41
1
10
12.581013115822
20
-2.71862263869326
30
0
41
1
10
12.8461254269848
20
-2.73485160137181
30
0
41
1
10
12.9783445007045
20
-2.74031910306738
30
0
41
1
10
13.1770775556996
20
-2.74459135348789
30
0
41
1
10
13.2437851904675
20
-2.74534113858647
30
0
41
1
10
13.3104399955418
20
-2.74541029547987
30
0
0
SPLINE
5
EF
100
AcDbEntity
8
1
62
256
6
ByLayer
370
18
48
1
60
0
100
AcDbSpline
70
4
71
3
72
8
73
4
40
0
40
0
40
0
40
0
40
1
40
1
40
1
40
1
41
1
10
28.8027241080491
20
2.86227875243242
30
0
41
1
10
28.8071867574142
20
2.88430455956473
30
0
41
1
10
28.8110940271674
20
2.89685372886245
30
0
41
1
10
28.8145778626123
20
2.8994210907567
30
0
0
SPLINE
5
F0
100
AcDbEntity
8
1
62
256
6
ByLayer
370
18
48
1
60
0
100
AcDbSpline
70
4
71
3
72
8
73
4
40
0
40
0
40
0
40
0
40
1
40
1
40
1
40
1
41
1
10
28.8027241080508
20
2.8622787524304
30
0
41
1
10
28.8493621218405
20
2.83597461248098
30
0
41
1
10
28.8961166425699
20
2.80911588319293
30
0
41
1
10
28.9430068354462
20
2.78171319026399
30
0
0
SPLINE
5
F1
100
AcDbEntity
8
1
62
256
6
ByLayer
370
18
48
1
60
0
100
AcDbSpline
70
4
71
3
72
58
73
54
40
0
40
0
40
0
40
0
40
0.0625000000000027
40
0.0625000000000027
40
0.125000000000005
40
0.125000000000005
40
0.187500000000008
40
0.187500000000008
40
0.21875000000001
40
0.21875000000001
40
0.250000000000011
40
0.250000000000011
40
0.281250000000012
40
0.281250000000012
40
0.296875000000012
40
0.296875000000012
40
0.312500000000012
40
0.312500000000012
40
0.343750000000012
40
0.343750000000012
40
0.359375000000013
40
0.359375000000013
40
0.375000000000013
40
0.375000000000013
40
0.406250000000013
40
0.406250000000013
40
0.437500000000013
40
0.437500000000013
40
0.468750000000014
40
0.468750000000014
40
0.500000000000014
40
0.500000000000014
40
0.562500000000017
40
0.562500000000017
40
0.625000000000019
40
0.625000000000019
40
0.656250000000019
40
0.656250000000019
40
0.664062500000019
40
0.664062500000019
40
0.66796875000002
40
0.66796875000002
40
0.671875000000021
40
0.671875000000021
40
0.67968750000002
40
0.67968750000002
40
0.687500000000019
40
0.687500000000019
40
0.750000000000015
40
0.750000000000015
40
0.875000000000008
40
0.875000000000008
40
1
40
1
40
1
40
1
41
1
10
4.14057287867666
20
-2.87064863631681
30
0
41
1
10
3.97646685038052
20
-2.8617214377893
30
0
41
1
10
3.81492378215469
20
-2.84831470422267
30
0
41
1
10
3.49812850987422
20
-2.81012369767566
30
0
41
1
10
3.34285354940803
20
-2.78538273659297
30
-1E-16
41
1
10
3.04059975707304
20
-2.72049904092978
30
-1E-16
41
1
10
2.89317051953517
20
-2.68035097057253
30
-1E-16
41
1
10
2.68252398803543
20
-2.60304387235203
30
-1E-16
41
1
10
2.61455784277547
20
-2.5745679779526
30
-1E-16
41
1
10
2.48423113228671
20
-2.51084316761199
30
-1E-16
41
1
10
2.42161265325791
20
-2.47544198963547
30
-1E-16
41
1
10
2.30491480635735
20
-2.3965191989995
30
-1E-16
41
1
10
2.25113672480333
20
-2.35326490973009
30
-1E-16
41
1
10
2.17929896093074
20
-2.28106644309571
30
-1E-16
41
1
10
2.15683379478864
20
-2.25577335538517
30
-1E-16
41
1
10
2.11536075875969
20
-2.20232744427088
30
-1E-16
41
1
10
2.09626150407939
20
-2.17399374228856
30
-1E-16
41
1
10
2.04608554544578
20
-2.08565458270442
30
-1E-16
41
1
10
2.02186660275009
20
-2.02227689900778
30
1E-16
41
1
10
2.00235337947558
20
-1.91911534833935
30
1E-16
41
1
10
1.99874157250241
20
-1.88342524442089
30
1E-16
41
1
10
1.99760903016391
20
-1.81147733593727
30
1E-16
41
1
10
2.00002611136623
20
-1.77495509086188
30
1E-16
41
1
10
2.01609173783436
20
-1.66379223673971
30
1E-16
41
1
10
2.03907822039159
20
-1.58682124929615
30
1E-16
41
1
10
2.10399921298532
20
-1.43681055639161
30
1E-16
41
1
10
2.14635171506086
20
-1.36220947866278
30
1E-16
41
1
10
2.24389156394346
20
-1.21845052176931
30
1E-16
41
1
10
2.29874950245048
20
-1.14944928520688
30
1E-16
41
1
10
2.41751585993262
20
-1.01578987719955
30
1E-16
41
1
10
2.48172210074279
20
-0.950900107503998
30
1E-16
41
1
10
2.68333128526695
20
-0.763222340598674
30
0
41
1
10
2.82757532678681
20
-0.648781711143556
30
0
41
1
10
3.12816609349414
20
-0.433198464877933
30
0
41
1
10
3.28477025100804
20
-0.332149042979154
30
0
41
1
10
3.52601863010324
20
-0.188209205209233
30
0
41
1
10
3.60732228460114
20
-0.141630538961948
30
0
41
1
10
3.70984723375682
20
-0.0849570166371336
30
0
41
1
10
3.73030524395301
20
-0.0735291021347564
30
0
41
1
10
3.7613413067084
20
-0.0570318170106816
30
0
41
1
10
3.77236545566831
20
-0.052764741521429
30
0
41
1
10
3.79496317302835
20
-0.0479742564783407
30
0
41
1
10
3.80664574648097
20
-0.0471008728798381
30
0
41
1
10
3.84145564321045
20
-0.047875883917186
30
0
41
1
10
3.86391102796844
20
-0.0538466062042744
30
0
41
1
10
3.90835409880572
20
-0.067696807126822
30
0
41
1
10
3.93058496030562
20
-0.0745913032926921
30
0
41
1
10
4.13032598808684
20
-0.137709588244263
30
0
41
1
10
4.30634044957748
20
-0.198411634340886
30
0
41
1
10
4.82958441646278
20
-0.392872457405843
30
0
41
1
10
5.17075787837823
20
-0.538735726837785
30
0
41
1
10
5.83954048253401
20
-0.849116302839889
30
1E-16
41
1
10
6.16765772527862
20
-1.01359144103233
30
1E-16
41
1
10
6.49283482788405
20
-1.1792234792137
30
1E-16
0
SPLINE
5
F2
100
AcDbEntity
8
1
62
256
6
ByLayer
370
18
48
1
60
0
100
AcDbSpline
70
4
71
3
72
28
73
24
40
0
40
0
40
0
40
0
40
0.0919738901520755
40
0.0919738901520755
40
0.185300997463919
40
0.185300997463919
40
0.278628104775762
40
0.278628104775762
40
0.371955212087605
40
0.371955212087605
40
0.465282319399449
40
0.465282319399449
40
0.558609426711292
40
0.558609426711292
40
0.651936534023136
40
0.651936534023136
40
0.745263641334979
40
0.745263641334979
40
0.838590748646822
40
0.838590748646822
40
0.931917855958665
40
0.931917855958665
40
1
40
1
40
1
40
1
41
1
10
20.0522212939808
20
2.7561044791619
30
0
41
1
10
20.3070136657053
20
2.76122052097551
30
0
41
1
10
20.5612345901616
20
2.75790059531965
30
0
41
1
10
21.0754426803659
20
2.72819026083994
30
0
41
1
10
21.3353505201291
20
2.70215632263697
30
-1E-16
41
1
10
21.8567375839381
20
2.63107048135581
30
-1E-16
41
1
10
22.1187582930024
20
2.58628228938358
30
0
41
1
10
22.6420091890753
20
2.47576474665786
30
1E-16
41
1
10
22.9033123073537
20
2.41070353874497
30
1E-16
41
1
10
23.4257746735522
20
2.26346256255656
30
1E-16
41
1
10
23.6868202951749
20
2.18140748612427
30
1E-16
41
1
10
24.2110943671786
20
1.99994169101168
30
1E-16
41
1
10
24.4718147590329
20
1.90171421473514
30
-1E-16
41
1
10
24.991262278984
20
1.69270857847491
30
-1E-16
41
1
10
25.2498769887688
20
1.58193224080679
30
-1E-16
41
1
10
25.7672362048866
20
1.34952354866741
30
-1E-16
41
1
10
26.0258628779445
20
1.22804018451504
30
-1E-16
41
1
10
26.543261390902
20
0.976399489068427
30
-1E-16
41
1
10
26.8019066819771
20
0.846071453693412
30
-1E-16
41
1
10
27.3222220304436
20
0.579498375612189
30
0
41
1
10
27.5842802322698
20
0.442899798300687
30
0
41
1
10
28.0374901343934
20
0.204264595405675
30
0
41
1
10
28.2283593746023
20
0.103020700550729
30
0
41
1
10
28.4191052409941
20
0.0015108325614221
30
0
0
SPLINE
5
F3
100
AcDbEntity
8
1
62
256
6
ByLayer
370
18
48
1
60
0
100
AcDbSpline
70
4
71
3
72
26
73
22
40
0
40
0
40
0
40
0
40
0.117941948258911
40
0.117941948258911
40
0.24395024136478
40
0.24395024136478
40
0.36995853447065
40
0.36995853447065
40
0.432962681023585
40
0.432962681023585
40
0.49596682757652
40
0.49596682757652
40
0.621975120682389
40
0.621975120682389
40
0.684979267235325
40
0.684979267235325
40
0.747983413788259
40
0.747983413788259
40
0.87399170689413
40
0.87399170689413
40
1
40
1
40
1
40
1
41
1
10
3.60275811913223
20
2.73799973136118
30
0
41
1
10
3.60274609367298
20
2.74321137731604
30
0
41
1
10
3.60273226340942
20
2.73732997188782
30
0
41
1
10
3.60270079999486
20
2.70300122619344
30
0
41
1
10
3.60268289592852
20
2.6728747191548
30
-1E-16
41
1
10
3.60264461966284
20
2.58772258520597
30
0
41
1
10
3.60262462124254
20
2.53359690688603
30
1E-16
41
1
10
3.60259343010284
20
2.43563815240066
30
1E-16
41
1
10
3.60258282956585
20
2.40017547362942
30
1E-16
41
1
10
3.60256118283979
20
2.32354831077225
30
1E-16
41
1
10
3.60255008663154
20
2.28218482209431
30
1E-16
41
1
10
3.60251641131117
20
2.15081073858798
30
1E-16
41
1
10
3.60249356082687
20
2.05405129671217
30
1E-16
41
1
10
3.60245813249671
20
1.89557910437762
30
1E-16
41
1
10
3.60244612783882
20
1.84052121101209
30
-1E-16
41
1
10
3.60242159391728
20
1.72587130212656
30
-1E-16
41
1
10
3.60240901642533
20
1.66604576968689
30
-1E-16
41
1
10
3.60237058893108
20
1.4811858550988
30
-1E-16
41
1
10
3.60234432581703
20
1.35216392432483
30
-1E-16
41
1
10
3.60228928120387
20
1.082956633544
30
-1E-16
41
1
10
3.60226046443131
20
0.942574664456572
30
-1E-16
41
1
10
3.60222972247095
20
0.796753567884537
30
0
0
SPLINE
5
F4
100
AcDbEntity
8
1
62
256
6
ByLayer
370
18
48
1
60
0
100
AcDbSpline
70
4
71
2
72
6
73
3
40
0
40
0
40
0
40
1
40
1
40
1
41
1
10
4.08366327602533
20
2.74015885234718
30
0
41
1
10
3.84311570256972
20
2.73967500568338
30
0
41
1
10
3.60256156623402
20
2.73792085760132
30
0
0
SPLINE
5
F5
100
AcDbEntity
8
1
62
256
6
ByLayer
370
18
48
1
60
0
100
AcDbSpline
70
4
71
2
72
6
73
3
40
0
40
0
40
0
40
1
40
1
40
1
41
1
10
13.6001065655474
20
2.74889994634637
30
1E-16
41
1
10
13.8186883577648
20
2.71416849378303
30
-1E-16
41
1
10
14.0370155422162
20
2.66976608316645
30
-1E-16
0
SPLINE
5
F6
100
AcDbEntity
8
1
62
256
6
ByLayer
370
18
48
1
60
0
100
AcDbSpline
70
4
71
1
72
4
73
2
40
0
40
0
40
1
40
1
41
1
10
21.4671976689382
20
9.26806112034E-05
30
0
41
1
10
21.4671817450713
20
9.62484550655E-05
30
0
0
SPLINE
5
F7
100
AcDbEntity
8
1
62
256
6
ByLayer
370
18
48
1
60
0
100
AcDbSpline
70
4
71
1
72
4
73
2
40
0
40
0
40
1
40
1
41
1
10
28.982955896015
20
-2.78773588121817
30
0
41
1
10
28.995427189094
20
-2.7793311446369
30
0
0
SPLINE
5
F8
100
AcDbEntity
8
1
62
256
6
ByLayer
370
18
48
1
60
0
100
AcDbSpline
70
4
71
3
72
11
73
7
40
0
40
0
40
0
40
0
40
0.11046989811729
40
0.3232267624466
40
0.62636121984518
40
1
40
1
40
1
40
1
41
1
10
28.4132322974006
20
0.798366431438581
30
0
41
1
10
28.2960942339335
20
0.837738098513483
30
-1E-16
41
1
10
27.9538214289251
20
0.954284565962951
30
-1E-16
41
1
10
27.2936990532076
20
1.18935431502734
30
-1E-16
41
1
10
26.3604255551945
20
1.5350748468696
30
-1E-16
41
1
10
25.6557625700648
20
1.81250583612385
30
-1E-16
41
1
10
25.2682565907487
20
1.96982208061689
30
-1E-16
0
SPLINE
5
F9
100
AcDbEntity
8
1
62
256
6
ByLayer
370
18
48
1
60
0
100
AcDbSpline
70
4
71
3
72
26
73
22
40
0
40
0
40
0
40
0
40
5.36519877252E-05
40
0.0001082066385029
40
0.0001590289085924
40
0.000247830668027
40
0.0011156217278069
40
0.0018207837386069
40
0.0031343196944322
40
0.0056535080968432
40
0.0106523202769638
40
0.020900043298344
40
0.0433887507297855
40
0.0969133700891596
40
0.223201818989334
40
0.338419000541075
40
0.41845298480321
40
0.514257797331529
40
0.647723597794554
40
0.818893215138968
40
1
40
1
40
1
40
1
41
1
10
14.4050352516058
20
0.0549133323827675
30
0
41
1
10
14.4050371387137
20
0.0549148896775193
30
0
41
1
10
14.4050187943437
20
0.0549244912500058
30
0
41
1
10
14.4049224057998
20
0.0549585204849166
30
0
41
1
10
14.4047341725519
20
0.0550200164238959
30
0
41
1
10
14.4032039161801
20
0.0554920596708257
30
0
41
1
10
14.3998915276096
20
0.056466592105096
30
0
41
1
10
14.3947204090032
20
0.0580104098887659
30
0
41
1
10
14.3863572795091
20
0.0604941544365829
30
0
41
1
10
14.3701896213594
20
0.0652922539368035
30
0
41
1
10
14.3374789096379
20
0.0749772498436414
30
0
41
1
10
14.2680335783138
20
0.0955730498813523
30
0
41
1
10
14.1090188508037
20
0.142888619041628
30
0
41
1
10
13.7359944005799
20
0.255181103535762
30
0
41
1
10
13.192625544523
20
0.424044412458585
30
0
41
1
10
12.6029443950658
20
0.615402755156055
30
0
41
1
10
12.0707672441008
20
0.793898292879618
30
0
41
1
10
11.5068199541448
20
0.98857087559216
30
-1E-16
41
1
10
10.7795474300887
20
1.24897472613219
30
-1E-16
41
1
10
9.90178304588599
20
1.57752356067422
30
-1E-16
41
1
10
9.26960688715516
20
1.82736448667555
30
-1E-16
41
1
10
8.94570773887614
20
1.95878475349775
30
-1E-16
0
SPLINE
5
FA
100
AcDbEntity
8
1
62
256
6
ByLayer
370
18
48
1
60
0
100
AcDbSpline
70
4
71
3
72
19
73
15
40
0
40
0
40
0
40
0
40
0.158916383591643
40
0.265620404709337
40
0.348724599719982
40
0.437786861585728
40
0.528033707093276
40
0.618235532294956
40
0.695549897266971
40
0.772872723225
40
0.850120307815754
40
0.924156037396435
40
0.996439344441452
40
1
40
1
40
1
40
1
41
1
10
13.2932494751011
20
-2.74541481129032
30
0
41
1
10
13.5856945395546
20
-2.74562776231485
30
0
41
1
10
14.074524928537
20
-2.74597833627965
30
0
41
1
10
14.7165325419759
20
-2.74598667103982
30
0
41
1
10
15.2297035579283
20
-2.74661273536876
30
0
41
1
10
15.712821339314
20
-2.74697312978873
30
0
41
1
10
16.208946193806
20
-2.74648481123839
30
0
41
1
10
16.6834600850943
20
-2.74750024688697
30
0
41
1
10
17.1341789511801
20
-2.74799189701528
30
0
41
1
10
17.5610514718942
20
-2.74722798223291
30
0
41
1
10
17.9818845093897
20
-2.74728725045978
30
0
41
1
10
18.3934557750565
20
-2.74790529551967
30
0
41
1
10
18.6692153799221
20
-2.74840382505056
30
0
41
1
10
18.8088037183253
20
-2.74855647198046
30
0
41
1
10
18.8153570830783
20
-2.74856342450644
30
0
0
SPLINE
5
FB
100
AcDbEntity
8
1
62
256
6
ByLayer
370
18
48
1
60
0
100
AcDbSpline
70
4
71
3
72
19
73
15
40
0
40
0
40
0
40
0
40
0.155343160353061
40
0.263639899469186
40
0.336254577972962
40
0.410629712718056
40
0.488231426717627
40
0.565908727016699
40
0.643577527541699
40
0.734192868831978
40
0.824853436816627
40
0.914323990621987
40
0.997809163751307
40
1
40
1
40
1
40
1
41
1
10
20.2448135977897
20
2.74833807213292
30
0
41
1
10
19.9602652496423
20
2.74863037732936
30
0
41
1
10
19.4773220583464
20
2.74881992923875
30
0
41
1
10
18.8610072041491
20
2.74875055418156
30
0
41
1
10
18.3934557750565
20
2.74790529551967
30
0
41
1
10
17.9818845093897
20
2.74728725045978
30
0
41
1
10
17.5610514718942
20
2.74722798223291
30
0
41
1
10
17.1341789511801
20
2.74799189701528
30
0
41
1
10
16.6834600850943
20
2.74750024688697
30
0
41
1
10
16.2089461938061
20
2.74648481123839
30
0
41
1
10
15.712821339314
20
2.74697312978873
30
0
41
1
10
15.2297035579283
20
2.74661273536876
30
0
41
1
10
14.9088736896701
20
2.74622132562439
30
0
41
1
10
14.7519019805817
20
2.74611497423919
30
0
41
1
10
14.7478880091535
20
2.746112308752
30
0
0
SPLINE
5
FC
100
AcDbEntity
8
1
62
256
6
ByLayer
370
18
48
1
60
0
100
AcDbSpline
70
4
71
1
72
4
73
2
40
0
40
0
40
1
40
1
41
1
10
21.4671817450713
20
-9.62484550655E-05
30
0
41
1
10
21.4671976689382
20
-9.26806112034E-05
30
0
0
LINE
5
84
100
AcDbEntity
8
SK1
62
256
6
ByLayer
370
18
48
1
60
0
100
AcDbLine
10
0
20
3
30
0
11
0
21
-3
31
0
39
0
210
0
220
0
230
1
0
LINE
5
86
100
AcDbEntity
8
SK1
62
256
6
ByLayer
370
18
48
1
60
0
100
AcDbLine
10
-35.065
20
-3
30
0
11
-35.065
21
3
31
0
39
0
210
0
220
0
230
1
0
LINE
5
87
100
AcDbEntity
8
SK1
62
256
6
ByLayer
370
18
48
1
60
0
100
AcDbLine
10
-36
20
-2.065
30
0
11
-36
21
2.065
31
0
39
0
210
0
220
0
230
1
0
LINE
5
88
100
AcDbEntity
8
1
62
256
6
ByLayer
370
18
48
1
60
0
100
AcDbLine
10
0.283723
20
2.882086
30
0
11
0.283723
21
0
31
0
39
0
210
0
220
0
230
1
0
LINE
5
89
100
AcDbEntity
8
1
62
256
6
ByLayer
370
18
48
1
60
0
100
AcDbLine
10
0.283723
20
0
30
0
11
0.283723
21
-2.882086
31
0
39
0
210
0
220
0
230
1
0
LINE
5
8A
100
AcDbEntity
8
1
62
256
6
ByLayer
370
18
48
1
60
0
100
AcDbLine
10
13.6
20
2.832798
30
0
11
13.6
21
2.823056
31
0
39
0
210
0
220
0
230
1
0
LINE
5
8B
100
AcDbEntity
8
1
62
256
6
ByLayer
370
18
48
1
60
0
100
AcDbLine
10
29.947888
20
0.045015
30
0
11
29.285205
21
0.776502
31
0
39
0
210
0
220
0
230
1
0
LINE
5
8C
100
AcDbEntity
8
1
62
256
6
ByLayer
370
18
48
1
60
0
100
AcDbLine
10
3.502066
20
2.884097
30
0
11
3.502066
21
0.936409
31
0
39
0
210
0
220
0
230
1
0
LINE
5
8D
100
AcDbEntity
8
1
62
256
6
ByLayer
370
18
48
1
60
0
100
AcDbLine
10
0.141799
20
2.941043
30
0
11
0.141799
21
0
31
0
39
0
210
0
220
0
230
1
0
LINE
5
8E
100
AcDbEntity
8
1
62
256
6
ByLayer
370
18
48
1
60
0
100
AcDbLine
10
0.141799
20
0
30
0
11
0.141799
21
-2.941043
31
0
39
0
210
0
220
0
230
1
0
LINE
5
8F
100
AcDbEntity
8
1
62
256
6
ByLayer
370
18
48
1
60
0
100
AcDbLine
10
0
20
3
30
0
11
0
21
0
31
0
39
0
210
0
220
0
230
1
0
LINE
5
90
100
AcDbEntity
8
1
62
256
6
ByLayer
370
18
48
1
60
0
100
AcDbLine
10
0
20
0
30
0
11
0
21
-3
31
0
39
0
210
0
220
0
230
1
0
LINE
5
91
100
AcDbEntity
8
SK1
62
256
6
ByLayer
370
18
48
1
60
0
100
AcDbLine
10
-36
20
-2.065
30
0
11
-35.065
21
-3
31
0
39
0
210
0
220
0
230
1
0
LINE
5
92
100
AcDbEntity
8
SK1
62
256
6
ByLayer
370
18
48
1
60
0
100
AcDbLine
10
-35.065
20
3
30
0
11
-36
21
2.065
31
0
39
0
210
0
220
0
230
1
0
LINE
5
93
100
AcDbEntity
8
SK1
62
256
6
ByLayer
370
18
48
1
60
0
100
AcDbLine
10
-35.065
20
-3
30
0
11
0
21
-3
31
0
39
0
210
0
220
0
230
1
0
LINE
5
94
100
AcDbEntity
8
SK1
62
256
6
ByLayer
370
18
48
1
60
0
100
AcDbLine
10
0
20
3
30
0
11
-35.065
21
3
31
0
39
0
210
0
220
0
230
1
0
LINE
5
95
100
AcDbEntity
8
1
62
256
6
ByLayer
370
18
48
1
60
0
100
AcDbLine
10
0.283723
20
-2.882086
30
0
11
3.502066
21
-2.884097
31
0
39
0
210
0
220
0
230
1
0
LINE
5
96
100
AcDbEntity
8
1
62
256
6
ByLayer
370
18
48
1
60
0
100
AcDbLine
10
3.890259
20
-2.88434
30
0
11
4.649052
21
-2.884814
31
0
39
0
210
0
220
0
230
1
0
LINE
5
97
100
AcDbEntity
8
1
62
256
6
ByLayer
370
18
48
1
60
0
100
AcDbLine
10
12.473493
20
-2.889704
30
0
11
13.291628
21
-2.890216
31
0
39
0
210
0
220
0
230
1
0
LINE
5
98
100
AcDbEntity
8
1
62
256
6
ByLayer
370
18
48
1
60
0
100
AcDbLine
10
20.244433
20
-2.894561
30
0
11
20.983019
21
-2.895023
31
0
39
0
210
0
220
0
230
1
0
LINE
5
99
100
AcDbEntity
8
1
62
256
6
ByLayer
370
18
48
1
60
0
100
AcDbLine
10
20.983019
20
2.895023
30
0
11
20.244433
21
2.894561
31
0
39
0
210
0
220
0
230
1
0
LINE
5
9A
100
AcDbEntity
8
1
62
256
6
ByLayer
370
18
48
1
60
0
100
AcDbLine
10
13.291628
20
2.890216
30
0
11
12.473493
21
2.889704
31
0
39
0
210
0
220
0
230
1
0
LINE
5
9B
100
AcDbEntity
8
1
62
256
6
ByLayer
370
18
48
1
60
0
100
AcDbLine
10
4.649052
20
2.884814
30
0
11
3.890259
21
2.88434
31
0
39
0
210
0
220
0
230
1
0
LINE
5
9C
100
AcDbEntity
8
1
62
256
6
ByLayer
370
18
48
1
60
0
100
AcDbLine
10
3.502066
20
2.884097
30
0
11
0.283723
21
2.882086
31
0
39
0
210
0
220
0
230
1
0
LINE
5
9D
100
AcDbEntity
8
SK4
62
256
6
ByLayer
370
18
48
0.05
60
0
100
AcDbLine
10
35
20
0
30
0
11
-41
21
0
31
0
39
0
210
0
220
0
230
1
0
LINE
5
9F
100
AcDbEntity
8
4
62
256
6
ByLayer
370
18
48
0.05
60
0
100
AcDbLine
10
-36
20
0
30
0
11
35
21
0
31
0
39
0
210
0
220
0
230
1
0
LINE
5
A1
100
AcDbEntity
8
80
62
256
6
ByLayer
370
18
48
1
60
0
100
AcDbLine
10
0
20
0
30
0
11
-6
21
0
31
0
39
0
210
0
220
0
230
1
0
LINE
5
A2
100
AcDbEntity
8
81
62
256
6
ByLayer
370
18
48
1
60
0
100
AcDbLine
10
30
20
0
30
0
11
36
21
0
31
0
39
0
210
0
220
0
230
1
0
LINE
5
A3
100
AcDbEntity
8
SK2
62
256
6
ByLayer
370
13
48
1
60
0
100
AcDbLine
10
30.542951
20
1.491764
30
0
11
37.926226
21
21.77741
31
0
39
0
210
0
220
0
230
1
0
LINE
5
A5
100
AcDbEntity
8
SK2
62
256
6
ByLayer
370
13
48
1
60
0
100
AcDbLine
10
30.542951
20
-1.491764
30
0
11
37.926226
21
-21.77741
31
0
39
0
210
0
220
0
230
1
0
LINE
5
A6
100
AcDbEntity
8
1
62
256
6
ByLayer
370
13
48
1
60
0
100
AcDbLine
10
36.840325
20
18.793881
30
0
11
39.936919
21
17.977522
31
0
39
0
210
0
220
0
230
1
0
LINE
5
A7
100
AcDbEntity
8
1
62
256
6
ByLayer
370
13
48
1
60
0
100
AcDbLine
10
36.840325
20
18.793881
30
0
11
39.620118
21
17.20388
31
0
39
0
210
0
220
0
230
1
0
LINE
5
A8
100
AcDbEntity
8
1
62
256
6
ByLayer
370
13
48
1
60
0
100
AcDbLine
10
39.936919
20
17.977522
30
0
11
39.620118
21
17.20388
31
0
39
0
210
0
220
0
230
1
0
LINE
5
A9
100
AcDbEntity
8
1
62
256
6
ByLayer
370
13
48
1
60
0
100
AcDbLine
10
36.840325
20
-18.793881
30
0
11
39.620115
21
-17.203881
31
0
39
0
210
0
220
0
230
1
0
LINE
5
AA
100
AcDbEntity
8
1
62
256
6
ByLayer
370
13
48
1
60
0
100
AcDbLine
10
36.840325
20
-18.793881
30
0
11
39.936921
21
-17.977521
31
0
39
0
210
0
220
0
230
1
0
LINE
5
AB
100
AcDbEntity
8
1
62
256
6
ByLayer
370
13
48
1
60
0
100
AcDbLine
10
39.620115
20
-17.203881
30
0
11
39.936921
21
-17.977521
31
0
39
0
210
0
220
0
230
1
0
MTEXT
5
FD
100
AcDbEntity
8
SK2
62
256
6
ByLayer
370
18
48
1
60
0
100
AcDbMText
10
43.717388
20
-2.467451
30
0
210
0
220
0
230
1
1
\W0.7237;140.00
40
3.50012
41
0
44
1.084337
50
0
71
7
72
5
7
iso_b_vert
0
MTEXT
5
100
100
AcDbEntity
8
SK6
62
256
6
ByLayer
370
18
48
1
60
0
100
AcDbMText
10
-42.331725
20
-52.806718
30
0
210
0
220
0
230
1
1
\W0.7454;860.1-0580-016A0-GM X1BM
40
3.175
41
0
44
1.084337
50
0
71
7
72
5
7
iso_b_vert
0
DIMENSION
5
103
100
AcDbEntity
8
SK2
62
256
6
ByLayer
370
18
48
1
60
0
100
AcDbDimension
2
_U0
10
30
20
-26.50012
30
0
11
15
21
-26.50012
31
0
70
32
71
2
72
1
41
1
210
0
220
0
230
1
3
Standard
100
AcDbAlignedDimension
13
0
23
-3
33
0
14
30
24
0
34
0
50
0
100
AcDbRotatedDimension
1001
ACAD
1000
DSTYLE
1002
{
1070
   371
1070
    13
1070
   372
1070
    13
1070
     3
1000

1070
   170
1070
     0
1070
   144
1040
1.0
1070
   277
1070
     2
1070
   284
1070
     8
1070
   278
1070
    46
1070
   146
1040
0.999966
1070
   345
1005
16
1070
   347
1005
16
1070
   346
1005
16
1070
   344
1005
104
1070
   343
1005
104
1070
   172
1070
     1
1070
    76
1070
     0
1070
    75
1070
     0
1070
   282
1070
     0
1070
   281
1070
     0
1070
    71
1070
     0
1070
    74
1070
     0
1070
   279
1070
     0
1070
   173
1070
     1
1070
   340
1005
FE
1070
   271
1070
     1
1070
   272
1070
     2
1070
    77
1070
     1
1070
    73
1070
     1
1070
   171
1070
     3
1070
   274
1070
     4
1070
   177
1070
   150
1070
   176
1070
     9
1070
   178
1070
    43
1070
    78
1070
     8
1070
    48
1040
-0.1
1070
    41
1040
3.175
1070
   147
1040
1.75006
1070
    42
1040
1.5875
1070
    44
1040
3.175
1070
   140
1040
3.50012
1002
}
1001
ACAD_DSTYLE_DIM_LINETYPE
1070
   380
1005
16
1001
ACAD_DSTYLE_DIM_EXT1_LINETYPE
1070
   381
1005
16
1001
ACAD_DSTYLE_DIM_EXT2_LINETYPE
1070
   382
1005
16
0
DIMENSION
5
129
100
AcDbEntity
8
2
62
256
6
ByLayer
370
18
48
1
60
0
100
AcDbDimension
2
_U1
10
36.75006
20
2.9
30
0
11
36.75006
21
18.473233
31
0
70
32
71
1
72
1
41
1
210
0
220
0
230
1
3
Standard
100
AcDbAlignedDimension
13
28.9445
23
-2.9
33
0
14
28.9445
24
2.9
34
0
50
90
100
AcDbRotatedDimension
1001
ACAD
1000
DSTYLE
1002
{
1070
   371
1070
    13
1070
   372
1070
    13
1070
     3
1000

1070
   170
1070
     0
1070
   144
1040
1.0
1070
   277
1070
     2
1070
   284
1070
     8
1070
   278
1070
    46
1070
   146
1040
0.999966
1070
   345
1005
16
1070
   347
1005
16
1070
   346
1005
16
1070
   344
1005
104
1070
   343
1005
104
1070
   172
1070
     1
1070
    76
1070
     0
1070
    75
1070
     0
1070
   282
1070
     0
1070
   281
1070
     0
1070
    71
1070
     0
1070
    74
1070
     0
1070
   279
1070
     0
1070
   173
1070
     1
1070
   340
1005
FE
1070
   271
1070
     1
1070
   272
1070
     2
1070
    77
1070
     1
1070
    73
1070
     0
1070
   171
1070
     3
1070
   274
1070
     4
1070
   177
1070
   150
1070
   176
1070
     9
1070
   178
1070
    43
1070
    78
1070
     8
1070
    48
1040
-0.1
1070
    41
1040
3.175
1070
   147
1040
1.75006
1070
    42
1040
1.5875
1070
    44
1040
3.175
1070
   140
1040
3.50012
1002
}
1001
ACAD_DSTYLE_DIM_LINETYPE
1070
   380
1005
16
1001
ACAD_DSTYLE_DIM_EXT1_LINETYPE
1070
   381
1005
16
1001
ACAD_DSTYLE_DIM_EXT2_LINETYPE
1070
   382
1005
16
0
DIMENSION
5
148
100
AcDbEntity
8
SK2
62
256
6
ByLayer
370
18
48
1
60
0
100
AcDbDimension
2
_U2
10
-39.24994
20
-3
30
0
11
-39.24994
21
17.10734
31
0
70
32
71
1
72
1
41
1
210
0
220
0
230
1
3
Standard
100
AcDbAlignedDimension
13
-36
23
3
33
0
14
-36
24
-3
34
0
50
90
100
AcDbRotatedDimension
1001
ACAD
1000
DSTYLE
1002
{
1070
   371
1070
    13
1070
   372
1070
    13
1070
     3
1000

1070
   170
1070
     0
1070
   144
1040
1.0
1070
   277
1070
     2
1070
   284
1070
     8
1070
   278
1070
    46
1070
   146
1040
0.999966
1070
   345
1005
16
1070
   347
1005
16
1070
   346
1005
16
1070
   344
1005
104
1070
   343
1005
104
1070
   172
1070
     1
1070
    76
1070
     0
1070
    75
1070
     0
1070
   282
1070
     0
1070
   281
1070
     0
1070
    71
1070
     0
1070
    74
1070
     0
1070
   279
1070
     0
1070
   173
1070
     1
1070
   340
1005
FE
1070
   271
1070
     1
1070
   272
1070
     2
1070
    77
1070
     1
1070
    73
1070
     0
1070
   171
1070
     3
1070
   274
1070
     4
1070
   177
1070
   150
1070
   176
1070
     9
1070
   178
1070
    43
1070
    78
1070
     8
1070
    48
1040
-0.1
1070
    41
1040
3.175
1070
   147
1040
1.75006
1070
    42
1040
1.5875
1070
    44
1040
3.175
1070
   140
1040
3.50012
1002
}
1001
ACAD_DSTYLE_DIM_LINETYPE
1070
   380
1005
16
1001
ACAD_DSTYLE_DIM_EXT1_LINETYPE
1070
   381
1005
16
1001
ACAD_DSTYLE_DIM_EXT2_LINETYPE
1070
   382
1005
16
0
DIMENSION
5
166
100
AcDbEntity
8
SK2
62
256
6
ByLayer
370
18
48
1
60
0
100
AcDbDimension
2
_U3
10
0
20
-26.50012
30
0
11
-18
21
-26.50012
31
0
70
32
71
1
72
1
41
1
210
0
220
0
230
1
3
Standard
100
AcDbAlignedDimension
13
-36
23
-3
33
0
14
0
24
-3
34
0
50
0
100
AcDbRotatedDimension
1001
ACAD
1000
DSTYLE
1002
{
1070
   371
1070
    13
1070
   372
1070
    13
1070
     3
1000

1070
   170
1070
     0
1070
   144
1040
1.0
1070
   277
1070
     2
1070
   284
1070
     8
1070
   278
1070
    46
1070
   146
1040
0.999966
1070
   345
1005
16
1070
   347
1005
16
1070
   346
1005
16
1070
   344
1005
104
1070
   343
1005
104
1070
   172
1070
     1
1070
    76
1070
     0
1070
    75
1070
     0
1070
   282
1070
     0
1070
   281
1070
     0
1070
    71
1070
     0
1070
    74
1070
     0
1070
   279
1070
     0
1070
   173
1070
     1
1070
   340
1005
FE
1070
   271
1070
     1
1070
   272
1070
     2
1070
    77
1070
     1
1070
    73
1070
     1
1070
   171
1070
     3
1070
   274
1070
     4
1070
   177
1070
   150
1070
   176
1070
     9
1070
   178
1070
    43
1070
    78
1070
     8
1070
    48
1040
-0.1
1070
    41
1040
3.175
1070
   147
1040
1.75006
1070
    42
1040
1.5875
1070
    44
1040
3.175
1070
   140
1040
3.50012
1002
}
1001
ACAD_DSTYLE_DIM_LINETYPE
1070
   380
1005
16
1001
ACAD_DSTYLE_DIM_EXT1_LINETYPE
1070
   381
1005
16
1001
ACAD_DSTYLE_DIM_EXT2_LINETYPE
1070
   382
1005
16
0
DIMENSION
5
182
100
AcDbEntity
8
SK2
62
256
6
ByLayer
370
18
48
1
60
0
100
AcDbDimension
2
_U4
10
30
20
-17.74982
30
0
11
16
21
-17.74982
31
0
70
32
71
1
72
1
41
1
210
0
220
0
230
1
3
Standard
100
AcDbAlignedDimension
13
2
23
3.4
33
0
14
30
24
0
34
0
50
0
100
AcDbRotatedDimension
1001
ACAD
1000
DSTYLE
1002
{
1070
   371
1070
    13
1070
   372
1070
    13
1070
     3
1000

1070
   170
1070
     0
1070
   144
1040
1.0
1070
   277
1070
     2
1070
   284
1070
     8
1070
   278
1070
    46
1070
   146
1040
0.999966
1070
   345
1005
16
1070
   347
1005
16
1070
   346
1005
16
1070
   344
1005
104
1070
   343
1005
104
1070
   172
1070
     1
1070
    76
1070
     0
1070
    75
1070
     0
1070
   282
1070
     0
1070
   281
1070
     0
1070
    71
1070
     0
1070
    74
1070
     0
1070
   279
1070
     0
1070
   173
1070
     1
1070
   340
1005
FE
1070
   271
1070
     1
1070
   272
1070
     2
1070
    77
1070
     1
1070
    73
1070
     1
1070
   171
1070
     3
1070
   274
1070
     4
1070
   177
1070
   150
1070
   176
1070
     9
1070
   178
1070
    43
1070
    78
1070
     8
1070
    48
1040
-0.1
1070
    41
1040
3.175
1070
   147
1040
1.75006
1070
    42
1040
1.5875
1070
    44
1040
3.175
1070
   140
1040
3.50012
1002
}
1001
ACAD_DSTYLE_DIM_LINETYPE
1070
   380
1005
16
1001
ACAD_DSTYLE_DIM_EXT1_LINETYPE
1070
   381
1005
16
1001
ACAD_DSTYLE_DIM_EXT2_LINETYPE
1070
   382
1005
16
0
DIMENSION
5
19E
100
AcDbEntity
8
SK2
62
256
6
ByLayer
370
18
48
1
60
0
100
AcDbDimension
2
_U5
10
30
20
-9.82
30
0
11
20.8
21
-9.82
31
0
70
32
71
1
72
1
41
1
210
0
220
0
230
1
3
Standard
100
AcDbAlignedDimension
13
11.6
23
-2.9
33
0
14
30
24
0
34
0
50
0
100
AcDbRotatedDimension
1001
ACAD
1000
DSTYLE
1002
{
1070
   371
1070
    13
1070
   372
1070
    13
1070
     3
1000

1070
   170
1070
     0
1070
   144
1040
1.0
1070
   277
1070
     2
1070
   284
1070
     8
1070
   278
1070
    46
1070
   146
1040
1.25
1070
   345
1005
16
1070
   347
1005
16
1070
   346
1005
16
1070
   344
1005
104
1070
   343
1005
104
1070
   172
1070
     1
1070
    76
1070
     0
1070
    75
1070
     0
1070
   282
1070
     0
1070
   281
1070
     0
1070
    71
1070
     0
1070
    74
1070
     0
1070
   279
1070
     0
1070
   173
1070
     1
1070
   340
1005
FE
1070
   271
1070
     1
1070
   272
1070
     2
1070
    77
1070
     1
1070
    73
1070
     1
1070
   171
1070
     3
1070
   274
1070
     4
1070
   177
1070
   150
1070
   176
1070
     9
1070
   178
1070
    43
1070
    78
1070
     8
1070
    48
1040
-0.1
1070
    41
1040
3.175
1070
   147
1040
0.42
1070
    42
1040
1.5875
1070
    44
1040
0.5
1070
   140
1040
2.8
1002
}
1001
ACAD_DSTYLE_DIM_LINETYPE
1070
   380
1005
16
1001
ACAD_DSTYLE_DIM_EXT1_LINETYPE
1070
   381
1005
16
1001
ACAD_DSTYLE_DIM_EXT2_LINETYPE
1070
   382
1005
16
0
DIMENSION
5
1BA
100
AcDbEntity
8
SK2
62
256
6
ByLayer
370
18
48
1
60
0
100
AcDbDimension
2
_U6
10
30
20
-36.50012
30
0
11
-3
21
-36.50012
31
0
70
32
71
1
72
1
41
1
210
0
220
0
230
1
3
Standard
100
AcDbAlignedDimension
13
-36
23
0
33
0
14
30
24
0
34
0
50
0
100
AcDbRotatedDimension
1001
ACAD
1000
DSTYLE
1002
{
1070
   371
1070
    13
1070
   372
1070
    13
1070
     3
1000

1070
   170
1070
     0
1070
   144
1040
1.0
1070
   277
1070
     2
1070
   284
1070
     8
1070
   278
1070
    46
1070
   146
1040
0.999966
1070
   345
1005
16
1070
   347
1005
16
1070
   346
1005
16
1070
   344
1005
104
1070
   343
1005
104
1070
   172
1070
     1
1070
    76
1070
     0
1070
    75
1070
     0
1070
   282
1070
     0
1070
   281
1070
     0
1070
    71
1070
     0
1070
    74
1070
     0
1070
   279
1070
     0
1070
   173
1070
     1
1070
   340
1005
FE
1070
   271
1070
     1
1070
   272
1070
     2
1070
    77
1070
     1
1070
    73
1070
     1
1070
   171
1070
     3
1070
   274
1070
     4
1070
   177
1070
   150
1070
   176
1070
     9
1070
   178
1070
    43
1070
    78
1070
     8
1070
    48
1040
-0.1
1070
    41
1040
3.175
1070
   147
1040
1.75006
1070
    42
1040
1.5875
1070
    44
1040
3.175
1070
   140
1040
3.50012
1002
}
1001
ACAD_DSTYLE_DIM_LINETYPE
1070
   380
1005
16
1001
ACAD_DSTYLE_DIM_EXT1_LINETYPE
1070
   381
1005
16
1001
ACAD_DSTYLE_DIM_EXT2_LINETYPE
1070
   382
1005
16
0
ENDSEC
0
SECTION
2
OBJECTS
0
DICTIONARY
5
246
330
0
100
AcDbDictionary
280
0
281
1
3
ACAD_GROUP
350
247
3
ACAD_MLINESTYLE
350
248
0
DICTIONARY
5
247
330
0
100
AcDbDictionary
280
0
281
1
0
DICTIONARY
5
248
330
0
100
AcDbDictionary
280
0
281
1
3
Standard
350
18
0
MLINESTYLE
5
18
330
248
100
AcDbMlineStyle
2
Standard
70
0
3

62
256
51
90
52
90
71
2
49
-0.5
62
256
6
ByLayer
49
0.5
62
256
6
ByLayer
0
RASTERVARIABLES
5
234
330

100
AcDbRasterVariables
90
0
70
1
71
1
72
1
0
ENDSEC
0
EOF
