0
SECTION
2
HEADER
9
$ACADVER
1
AC1015
9
$DWGCODEPAGE
3
ANSI_1252
9
$HANDSEED
5
250
9
$ANGBASE
50
0
9
$ANGDIR
70
0
9
$ATTMODE
70
1
9
$AUNITS
70
0
9
$AUPREC
70
0
9
$CECOLOR
62
256
9
$CELTSCALE
40
1
9
$CELTYPE
6
ByLayer
9
$CELWEIGHT
370
18
9
$CLAYER
8
0
9
$CMLJUST
70
0
9
$CMLSCALE
40
1
9
$CMLSTYLE
2
Standard
9
$DIMSTYLE
2
Standard
9
$TEXTSIZE
40
0.2
9
$TEXTSTYLE
7
Standard
9
$LUNITS
70
2
9
$LUPREC
70
4
9
$EXTNAMES
290
1
9
$INSUNITS
70
4
9
$LTSCALE
40
1
9
$LWDISPLAY
290
1
9
$PDMODE
70
0
9
$PDSIZE
40
0
9
$PLINEGEN
70
0
0
ENDSEC
0
SECTION
2
CLASSES
0
CLASS
1
RASTERVARIABLES
2
AcDbRasterVariables
3
ISM
90
0
280
0
281
0
0
ENDSEC
0
SECTION
2
TABLES
0
TABLE
2
VPORT
5
246
100
AcDbSymbolTable
0
VPORT
5
1
100
AcDbSymbolTableRecord
100
AcDbViewportTableRecord
2
*Active
70
0
10
0
20
0
11
1
21
1
12
-1
22
1
13
0
23
0
14
0.5
24
0.5
15
10
25
10
16
0
26
0
36
1
17
0
27
0
37
0
0
ENDTAB
0
TABLE
2
LTYPE
5
247
100
AcDbSymbolTable
0
LTYPE
5
14
100
AcDbSymbolTableRecord
100
AcDbLinetypeTableRecord
70
0
2
ByBlock
3

72
65
73
0
40
0
0
LTYPE
5
15
100
AcDbSymbolTableRecord
100
AcDbLinetypeTableRecord
70
0
2
ByLayer
3

72
65
73
0
40
0
0
LTYPE
5
16
100
AcDbSymbolTableRecord
100
AcDbLinetypeTableRecord
70
0
2
Continuous
3
Solid line
72
65
73
0
40
0
0
LTYPE
5
6E
100
AcDbSymbolTableRecord
100
AcDbLinetypeTableRecord
70
0
2
CENTER
3
____ _ ____ _ ____ _ ____
72
65
73
4
40
47.5
49
22
74
0
49
-8.5
74
0
49
8.5
74
0
49
-8.5
74
0
0
LTYPE
5
6F
100
AcDbSymbolTableRecord
100
AcDbLinetypeTableRecord
70
0
2
DASHED
3
__ __ __ __ __ __ __ __ __
72
65
73
2
40
25.72
49
12.86
74
0
49
-12.86
74
0
0
ENDTAB
0
TABLE
2
LAYER
5
248
100
AcDbSymbolTable
0
LAYER
5
10
100
AcDbSymbolTableRecord
100
AcDbLayerTableRecord
2
0
70
0
62
7
6
Continuous
290
1
370
-3
390
0
0
LAYER
5
71
100
AcDbSymbolTableRecord
100
AcDbLayerTableRecord
2
80
70
0
62
-6
6
Continuous
290
1
370
-3
390
0
0
LAYER
5
73
100
AcDbSymbolTableRecord
100
AcDbLayerTableRecord
2
81
70
0
62
-3
6
Continuous
290
1
370
-3
390
0
0
LAYER
5
75
100
AcDbSymbolTableRecord
100
AcDbLayerTableRecord
2
1
70
0
62
4
6
Continuous
290
1
370
-3
390
0
0
LAYER
5
A1
100
AcDbSymbolTableRecord
100
AcDbLayerTableRecord
2
4
70
0
62
-2
6
CENTER
290
1
370
-3
390
0
0
LAYER
5
10A
100
AcDbSymbolTableRecord
100
AcDbLayerTableRecord
2
Defpoints
70
0
62
7
6
Continuous
290
0
370
-3
390
0
0
LAYER
5
137
100
AcDbSymbolTableRecord
100
AcDbLayerTableRecord
2
2
70
0
62
7
6
Continuous
290
1
370
-3
390
0
0
LAYER
5
232
100
AcDbSymbolTableRecord
100
AcDbLayerTableRecord
2
SK1
70
0
62
4
6
Continuous
290
1
370
-3
390
0
0
LAYER
5
233
100
AcDbSymbolTableRecord
100
AcDbLayerTableRecord
2
SK4
70
0
62
2
6
CENTER
290
1
370
-3
390
0
0
LAYER
5
234
100
AcDbSymbolTableRecord
100
AcDbLayerTableRecord
2
SK2
70
0
62
7
6
Continuous
290
1
370
-3
390
0
0
LAYER
5
235
100
AcDbSymbolTableRecord
100
AcDbLayerTableRecord
2
SK6
70
0
62
5
6
Continuous
290
1
370
-3
390
0
0
ENDTAB
0
TABLE
2
STYLE
5
249
100
AcDbSymbolTable
0
STYLE
5
11
100
AcDbSymbolTableRecord
100
AcDbTextStyleTableRecord
2
Standard
3
txt
70
0
71
0
40
0
41
1
42
0
50
0
0
STYLE
5
FB
100
AcDbSymbolTableRecord
100
AcDbTextStyleTableRecord
2
iso_b_vert
3
simplex.shx
70
0
71
0
40
0
41
1
42
0
50
0
0
STYLE
5
FC
100
AcDbSymbolTableRecord
100
AcDbTextStyleTableRecord
2
DWGDirectTextStyle
3
simplex
70
0
71
0
40
0
41
1
42
0
50
0
0
ENDTAB
0
TABLE
2
DIMSTYLE
5
24a
100
AcDbSymbolTable
100
AcDbDimStyleTable
0
DIMSTYLE
105
27
100
AcDbSymbolTableRecord
100
AcDbDimStyleTableRecord
2
Standard
70
0
3
<>
41
0.18
42
0.0625
44
0.18
140
0.18
147
0.09
73
0
74
0
77
1
271
2
275
0
278
52
280
0
340
11
0
ENDTAB
0
TABLE
2
VIEW
5
24b
100
AcDbSymbolTable
0
ENDTAB
0
TABLE
2
UCS
5
24c
100
AcDbSymbolTable
0
ENDTAB
0
TABLE
2
APPID
5
24d
100
AcDbSymbolTable
0
APPID
5
12
100
AcDbSymbolTableRecord
100
AcDbRegAppTableRecord
2
ACAD
70
0
0
APPID
5
FF
100
AcDbSymbolTableRecord
100
AcDbRegAppTableRecord
2
ACAD_DSTYLE_DIMBREAK
70
0
0
APPID
5
1F1
100
AcDbSymbolTableRecord
100
AcDbRegAppTableRecord
2
ACAD_DSTYLE_DIM_LINETYPE
70
0
0
APPID
5
1F2
100
AcDbSymbolTableRecord
100
AcDbRegAppTableRecord
2
ACAD_DSTYLE_DIM_EXT1_LINETYPE
70
0
0
APPID
5
1F3
100
AcDbSymbolTableRecord
100
AcDbRegAppTableRecord
2
ACAD_DSTYLE_DIM_EXT2_LINETYPE
70
0
0
APPID
5
22E
100
AcDbSymbolTableRecord
100
AcDbRegAppTableRecord
2
ACAD_MLEADERVER
70
0
0
ENDTAB
0
TABLE
2
BLOCK_RECORD
5
24e
100
AcDbSymbolTable
0
BLOCK_RECORD
5
1F
100
AcDbSymbolTableRecord
100
AcDbBlockTableRecord
2
*Model_Space
340
0
70
0
0
BLOCK_RECORD
5
1B
100
AcDbSymbolTableRecord
100
AcDbBlockTableRecord
2
*Paper_Space
340
0
70
0
0
BLOCK_RECORD
5
23
100
AcDbSymbolTableRecord
100
AcDbBlockTableRecord
2
*Paper_Space0
340
0
70
0
0
BLOCK_RECORD
5
101
100
AcDbSymbolTableRecord
100
AcDbBlockTableRecord
2
_Closed
340
0
70
0
0
BLOCK_RECORD
5
10B
100
AcDbSymbolTableRecord
100
AcDbBlockTableRecord
2
*D2
340
0
70
0
0
BLOCK_RECORD
5
117
100
AcDbSymbolTableRecord
100
AcDbBlockTableRecord
2
_U0
340
0
70
0
0
BLOCK_RECORD
5
129
100
AcDbSymbolTableRecord
100
AcDbBlockTableRecord
2
*D4
340
0
70
0
0
BLOCK_RECORD
5
138
100
AcDbSymbolTableRecord
100
AcDbBlockTableRecord
2
_U1
340
0
70
0
0
BLOCK_RECORD
5
148
100
AcDbSymbolTableRecord
100
AcDbBlockTableRecord
2
*D6
340
0
70
0
0
BLOCK_RECORD
5
156
100
AcDbSymbolTableRecord
100
AcDbBlockTableRecord
2
_U2
340
0
70
0
0
BLOCK_RECORD
5
166
100
AcDbSymbolTableRecord
100
AcDbBlockTableRecord
2
*D8
340
0
70
0
0
BLOCK_RECORD
5
172
100
AcDbSymbolTableRecord
100
AcDbBlockTableRecord
2
_U3
340
0
70
0
0
BLOCK_RECORD
5
182
100
AcDbSymbolTableRecord
100
AcDbBlockTableRecord
2
*D10
340
0
70
0
0
BLOCK_RECORD
5
18E
100
AcDbSymbolTableRecord
100
AcDbBlockTableRecord
2
_U4
340
0
70
0
0
BLOCK_RECORD
5
19E
100
AcDbSymbolTableRecord
100
AcDbBlockTableRecord
2
*D12
340
0
70
0
0
BLOCK_RECORD
5
1AA
100
AcDbSymbolTableRecord
100
AcDbBlockTableRecord
2
_U5
340
0
70
0
0
BLOCK_RECORD
5
1BA
100
AcDbSymbolTableRecord
100
AcDbBlockTableRecord
2
*D14
340
0
70
0
0
BLOCK_RECORD
5
1C6
100
AcDbSymbolTableRecord
100
AcDbBlockTableRecord
2
_U6
340
0
70
0
0
ENDTAB
0
ENDSEC
0
SECTION
2
BLOCKS
0
BLOCK
5
20
100
AcDbEntity
8
0
100
AcDbBlockBegin
2
*Model_Space
70
0
10
0
20
0
30
0
3
*Model_Space
0
ENDBLK
5
21
100
AcDbEntity
8
0
100
AcDbBlockEnd
0
BLOCK
5
1C
100
AcDbEntity
8
0
100
AcDbBlockBegin
2
*Paper_Space
70
0
10
0
20
0
30
0
3
*Paper_Space
0
ENDBLK
5
1D
100
AcDbEntity
8
0
100
AcDbBlockEnd
0
BLOCK
5
24
100
AcDbEntity
8
0
100
AcDbBlockBegin
2
*Paper_Space0
70
0
10
0
20
0
30
0
3
*Paper_Space0
0
ENDBLK
5
25
100
AcDbEntity
8
0
100
AcDbBlockEnd
0
BLOCK
5
102
100
AcDbEntity
8
0
100
AcDbBlockBegin
2
_Closed
70
0
10
0
20
0
30
0
3
_Closed
0
LINE
5
104
100
AcDbEntity
8
0
62
256
6
ByLayer
370
-2
48
1
60
0
100
AcDbLine
10
-1
20
0.166667
30
0
11
0
21
0
31
0
39
0
210
0
220
0
230
1
0
LINE
5
105
100
AcDbEntity
8
0
62
256
6
ByLayer
370
-2
48
1
60
0
100
AcDbLine
10
0
20
0
30
0
11
-1
21
-0.166667
31
0
39
0
210
0
220
0
230
1
0
LINE
5
106
100
AcDbEntity
8
0
62
256
6
ByLayer
370
-2
48
1
60
0
100
AcDbLine
10
-1
20
0.166667
30
0
11
-1
21
-0.166667
31
0
39
0
210
0
220
0
230
1
0
LINE
5
107
100
AcDbEntity
8
0
62
256
6
ByLayer
370
-2
48
1
60
0
100
AcDbLine
10
0
20
0
30
0
11
-1
21
0
31
0
39
0
210
0
220
0
230
1
0
ENDBLK
5
103
100
AcDbEntity
8
0
100
AcDbBlockEnd
0
BLOCK
5
10C
100
AcDbEntity
8
0
100
AcDbBlockBegin
2
*D2
70
1
10
0
20
0
30
0
3
*D2
0
LINE
5
10E
100
AcDbEntity
8
0
62
256
6
ByLayer
370
-2
48
1
60
0
100
AcDbLine
10
0
20
-4.5875
30
0
11
0
21
-29.67512
31
0
39
0
210
0
220
0
230
1
0
LINE
5
10F
100
AcDbEntity
8
0
62
256
6
ByLayer
370
-2
48
1
60
0
100
AcDbLine
10
30
20
-1.5875
30
0
11
30
21
-29.67512
31
0
39
0
210
0
220
0
230
1
0
LINE
5
110
100
AcDbEntity
8
0
62
256
6
ByLayer
370
-2
48
1
60
0
100
AcDbLine
10
3.175
20
-26.50012
30
0
11
26.825
21
-26.50012
31
0
39
0
210
0
220
0
230
1
0
SOLID
5
111
100
AcDbEntity
8
0
62
256
6
ByLayer
370
-1
48
1
60
0
100
AcDbTrace
10
3.175
20
-25.970953
30
0
11
3.175
21
-27.029287
31
0
12
0
22
-26.50012
32
0
13
0
23
-26.50012
33
0
39
0
210
0
220
0
230
1
0
SOLID
5
112
100
AcDbEntity
8
0
62
256
6
ByLayer
370
-1
48
1
60
0
100
AcDbTrace
10
26.825
20
-27.029287
30
0
11
26.825
21
-25.970953
31
0
12
30
22
-26.50012
32
0
13
30
23
-26.50012
33
0
39
0
210
0
220
0
230
1
0
MTEXT
5
113
100
AcDbEntity
8
0
62
256
6
ByLayer
370
18
48
1
60
0
100
AcDbMText
10
15
20
-19.19362
30
0
210
0
220
0
230
1
1
\A1;30
40
3.50012
41
0
44
1
50
0
71
5
72
5
7
iso_b_vert
0
POINT
5
114
100
AcDbEntity
8
Defpoints
62
0
6
ByLayer
370
-1
48
1
60
0
100
AcDbPoint
10
0
20
-3
30
0
39
0
210
0
220
0
230
1
50
360
0
POINT
5
115
100
AcDbEntity
8
Defpoints
62
0
6
ByLayer
370
-1
48
1
60
0
100
AcDbPoint
10
30
20
0
30
0
39
0
210
0
220
0
230
1
50
360
0
POINT
5
116
100
AcDbEntity
8
Defpoints
62
0
6
ByLayer
370
-1
48
1
60
0
100
AcDbPoint
10
30
20
-26.50012
30
0
39
0
210
0
220
0
230
1
50
360
0
ENDBLK
5
10D
100
AcDbEntity
8
0
100
AcDbBlockEnd
0
BLOCK
5
124
100
AcDbEntity
8
0
100
AcDbBlockBegin
2
_U0
70
0
10
0
20
0
30
0
3
_U0
0
MTEXT
5
118
100
AcDbEntity
8
SK2
62
256
6
ByLayer
370
18
48
1
60
0
100
AcDbMText
10
9.770389
20
-25.467451
30
0
210
0
220
0
230
1
1
\W0.7468;30.00
40
3.50012
41
0
44
1.084337
50
0
71
7
72
5
7
iso_b_vert
0
MTEXT
5
119
100
AcDbEntity
8
SK2
62
256
6
ByLayer
370
18
48
1
60
0
100
AcDbMText
10
6.244329
20
-25.400814
30
0
210
0
220
0
230
1
1
\W0.1790;(
40
3.175
41
0
44
1.084337
50
0
71
7
72
5
7
iso_b_vert
0
MTEXT
5
11A
100
AcDbEntity
8
SK2
62
256
6
ByLayer
370
18
48
1
60
0
100
AcDbMText
10
23.758393
20
-25.400814
30
0
210
0
220
0
230
1
1
\W0.1969;)
40
3.175
41
0
44
1.084337
50
0
71
7
72
5
7
iso_b_vert
0
LINE
5
11B
100
AcDbEntity
8
SK2
62
256
6
ByLayer
370
13
48
1
60
0
100
AcDbLine
10
0
20
-4.5875
30
0
11
0
21
-29.67512
31
0
39
0
210
0
220
0
230
1
0
LINE
5
11C
100
AcDbEntity
8
SK2
62
256
6
ByLayer
370
13
48
1
60
0
100
AcDbLine
10
30
20
-1.5875
30
0
11
30
21
-29.67512
31
0
39
0
210
0
220
0
230
1
0
LINE
5
11D
100
AcDbEntity
8
SK2
62
256
6
ByLayer
370
13
48
1
60
0
100
AcDbLine
10
0
20
-26.50012
30
0
11
30
21
-26.50012
31
0
39
0
210
0
220
0
230
1
0
LINE
5
11E
100
AcDbEntity
8
SK2
62
256
6
ByLayer
370
13
48
1
60
0
100
AcDbLine
10
0
20
-26.50012
30
0
11
3.174998
21
-26.082123
31
0
39
0
210
0
220
0
230
1
0
LINE
5
11F
100
AcDbEntity
8
SK2
62
256
6
ByLayer
370
13
48
1
60
0
100
AcDbLine
10
0
20
-26.50012
30
0
11
3.175002
21
-26.918117
31
0
39
0
210
0
220
0
230
1
0
LINE
5
120
100
AcDbEntity
8
SK2
62
256
6
ByLayer
370
13
48
1
60
0
100
AcDbLine
10
3.174998
20
-26.082123
30
0
11
3.175002
21
-26.918117
31
0
39
0
210
0
220
0
230
1
0
LINE
5
121
100
AcDbEntity
8
SK2
62
256
6
ByLayer
370
13
48
1
60
0
100
AcDbLine
10
30
20
-26.50012
30
0
11
26.825002
21
-26.918117
31
0
39
0
210
0
220
0
230
1
0
LINE
5
122
100
AcDbEntity
8
SK2
62
256
6
ByLayer
370
13
48
1
60
0
100
AcDbLine
10
30
20
-26.50012
30
0
11
26.824998
21
-26.082123
31
0
39
0
210
0
220
0
230
1
0
LINE
5
123
100
AcDbEntity
8
SK2
62
256
6
ByLayer
370
13
48
1
60
0
100
AcDbLine
10
26.825002
20
-26.918117
30
0
11
26.824998
21
-26.082123
31
0
39
0
210
0
220
0
230
1
0
ENDBLK
5
125
100
AcDbEntity
8
0
100
AcDbBlockEnd
0
BLOCK
5
12A
100
AcDbEntity
8
0
100
AcDbBlockBegin
2
*D4
70
1
10
0
20
0
30
0
3
*D4
0
LINE
5
12C
100
AcDbEntity
8
0
62
256
6
ByLayer
370
-2
48
1
60
0
100
AcDbLine
10
30.6958
20
-2.45
30
0
11
39.92506
21
-2.45
31
0
39
0
210
0
220
0
230
1
0
LINE
5
12D
100
AcDbEntity
8
0
62
256
6
ByLayer
370
-2
48
1
60
0
100
AcDbLine
10
30.6958
20
2.45
30
0
11
39.92506
21
2.45
31
0
39
0
210
0
220
0
230
1
0
LINE
5
12E
100
AcDbEntity
8
0
62
256
6
ByLayer
370
-2
48
1
60
0
100
AcDbLine
10
36.75006
20
2.45
30
0
11
36.75006
21
27.079793
31
0
39
0
210
0
220
0
230
1
0
LINE
5
12F
100
AcDbEntity
8
0
62
256
6
ByLayer
370
-2
48
1
60
0
100
AcDbLine
10
36.75006
20
-5.625
30
0
11
36.75006
21
-8.8
31
0
39
0
210
0
220
0
230
1
0
LINE
5
130
100
AcDbEntity
8
0
62
256
6
ByLayer
370
-2
48
1
60
0
100
AcDbLine
10
36.75006
20
5.625
30
0
11
36.75006
21
8.8
31
0
39
0
210
0
220
0
230
1
0
SOLID
5
131
100
AcDbEntity
8
0
62
256
6
ByLayer
370
-1
48
1
60
0
100
AcDbTrace
10
37.279227
20
-5.625
30
0
11
36.220893
21
-5.625
31
0
12
36.75006
22
-2.45
32
0
13
36.75006
23
-2.45
33
0
39
0
210
0
220
0
230
1
0
SOLID
5
132
100
AcDbEntity
8
0
62
256
6
ByLayer
370
-1
48
1
60
0
100
AcDbTrace
10
36.220893
20
5.625
30
0
11
37.279227
21
5.625
31
0
12
36.75006
22
2.45
32
0
13
36.75006
23
2.45
33
0
39
0
210
0
220
0
230
1
0
MTEXT
5
133
100
AcDbEntity
8
0
62
256
6
ByLayer
370
18
48
1
60
0
100
AcDbMText
10
29.443559
20
17.939897
30
0
210
0
220
0
230
1
1
\A1;4.9
40
3.50012
41
0
44
1
50
90
71
5
72
5
7
iso_b_vert
0
POINT
5
134
100
AcDbEntity
8
Defpoints
62
0
6
ByLayer
370
-1
48
1
60
0
100
AcDbPoint
10
29.1083
20
-2.45
30
0
39
0
210
0
220
0
230
1
50
360
0
POINT
5
135
100
AcDbEntity
8
Defpoints
62
0
6
ByLayer
370
-1
48
1
60
0
100
AcDbPoint
10
29.1083
20
2.45
30
0
39
0
210
0
220
0
230
1
50
360
0
POINT
5
136
100
AcDbEntity
8
Defpoints
62
0
6
ByLayer
370
-1
48
1
60
0
100
AcDbPoint
10
36.75006
20
2.45
30
0
39
0
210
0
220
0
230
1
50
360
0
ENDBLK
5
12B
100
AcDbEntity
8
0
100
AcDbBlockEnd
0
BLOCK
5
143
100
AcDbEntity
8
0
100
AcDbBlockBegin
2
_U1
70
0
10
0
20
0
30
0
3
_U1
0
MTEXT
5
139
100
AcDbEntity
8
2
62
256
6
ByLayer
370
18
48
1
60
0
100
AcDbMText
10
36.060403
20
6.607505
30
0
210
0
220
0
230
1
1
\W0.7640;4.90
40
3.50012
41
0
44
1.084337
50
90
71
7
72
5
7
iso_b_vert
0
LINE
5
13A
100
AcDbEntity
8
2
62
256
6
ByLayer
370
13
48
1
60
0
100
AcDbLine
10
30.6958
20
-2.45
30
0
11
39.92506
21
-2.45
31
0
39
0
210
0
220
0
230
1
0
LINE
5
13B
100
AcDbEntity
8
2
62
256
6
ByLayer
370
13
48
1
60
0
100
AcDbLine
10
30.6958
20
2.45
30
0
11
39.92506
21
2.45
31
0
39
0
210
0
220
0
230
1
0
LINE
5
13C
100
AcDbEntity
8
2
62
256
6
ByLayer
370
13
48
1
60
0
100
AcDbLine
10
36.75006
20
15.033226
30
0
11
36.75006
21
-11.2003
31
0
39
0
210
0
220
0
230
1
0
LINE
5
13D
100
AcDbEntity
8
2
62
256
6
ByLayer
370
13
48
1
60
0
100
AcDbLine
10
36.75006
20
-2.45
30
0
11
37.168057
21
-5.624998
31
0
39
0
210
0
220
0
230
1
0
LINE
5
13E
100
AcDbEntity
8
2
62
256
6
ByLayer
370
13
48
1
60
0
100
AcDbLine
10
36.75006
20
-2.45
30
0
11
36.332063
21
-5.625002
31
0
39
0
210
0
220
0
230
1
0
LINE
5
13F
100
AcDbEntity
8
2
62
256
6
ByLayer
370
13
48
1
60
0
100
AcDbLine
10
37.168057
20
-5.624998
30
0
11
36.332063
21
-5.625002
31
0
39
0
210
0
220
0
230
1
0
LINE
5
140
100
AcDbEntity
8
2
62
256
6
ByLayer
370
13
48
1
60
0
100
AcDbLine
10
36.75006
20
2.45
30
0
11
36.332063
21
5.624998
31
0
39
0
210
0
220
0
230
1
0
LINE
5
141
100
AcDbEntity
8
2
62
256
6
ByLayer
370
13
48
1
60
0
100
AcDbLine
10
36.75006
20
2.45
30
0
11
37.168057
21
5.625002
31
0
39
0
210
0
220
0
230
1
0
LINE
5
142
100
AcDbEntity
8
2
62
256
6
ByLayer
370
13
48
1
60
0
100
AcDbLine
10
36.332063
20
5.624998
30
0
11
37.168057
21
5.625002
31
0
39
0
210
0
220
0
230
1
0
ENDBLK
5
144
100
AcDbEntity
8
0
100
AcDbBlockEnd
0
BLOCK
5
149
100
AcDbEntity
8
0
100
AcDbBlockBegin
2
*D6
70
1
10
0
20
0
30
0
3
*D6
0
LINE
5
14B
100
AcDbEntity
8
0
62
256
6
ByLayer
370
-2
48
1
60
0
100
AcDbLine
10
-37.5875
20
3
30
0
11
-42.42494
21
3
31
0
39
0
210
0
220
0
230
1
0
LINE
5
14C
100
AcDbEntity
8
0
62
256
6
ByLayer
370
-2
48
1
60
0
100
AcDbLine
10
-37.5875
20
-3
30
0
11
-42.42494
21
-3
31
0
39
0
210
0
220
0
230
1
0
LINE
5
14D
100
AcDbEntity
8
0
62
256
6
ByLayer
370
-2
48
1
60
0
100
AcDbLine
10
-39.24994
20
3
30
0
11
-39.24994
21
23.747151
31
0
39
0
210
0
220
0
230
1
0
LINE
5
14E
100
AcDbEntity
8
0
62
256
6
ByLayer
370
-2
48
1
60
0
100
AcDbLine
10
-39.24994
20
6.175
30
0
11
-39.24994
21
9.35
31
0
39
0
210
0
220
0
230
1
0
LINE
5
14F
100
AcDbEntity
8
0
62
256
6
ByLayer
370
-2
48
1
60
0
100
AcDbLine
10
-39.24994
20
-6.175
30
0
11
-39.24994
21
-9.35
31
0
39
0
210
0
220
0
230
1
0
SOLID
5
150
100
AcDbEntity
8
0
62
256
6
ByLayer
370
-1
48
1
60
0
100
AcDbTrace
10
-39.779107
20
6.175
30
0
11
-38.720773
21
6.175
31
0
12
-39.24994
22
3
32
0
13
-39.24994
23
3
33
0
39
0
210
0
220
0
230
1
0
SOLID
5
151
100
AcDbEntity
8
0
62
256
6
ByLayer
370
-1
48
1
60
0
100
AcDbTrace
10
-38.720773
20
-6.175
30
0
11
-39.779107
21
-6.175
31
0
12
-39.24994
22
-3
32
0
13
-39.24994
23
-3
33
0
39
0
210
0
220
0
230
1
0
MTEXT
5
152
100
AcDbEntity
8
0
62
256
6
ByLayer
370
18
48
1
60
0
100
AcDbMText
10
-46.556441
20
17.10734
30
0
210
0
220
0
230
1
1
\A1;6
40
3.50012
41
0
44
1
50
90
71
5
72
5
7
iso_b_vert
0
POINT
5
153
100
AcDbEntity
8
Defpoints
62
0
6
ByLayer
370
-1
48
1
60
0
100
AcDbPoint
10
-36
20
3
30
0
39
0
210
0
220
0
230
1
50
360
0
POINT
5
154
100
AcDbEntity
8
Defpoints
62
0
6
ByLayer
370
-1
48
1
60
0
100
AcDbPoint
10
-36
20
-3
30
0
39
0
210
0
220
0
230
1
50
360
0
POINT
5
155
100
AcDbEntity
8
Defpoints
62
0
6
ByLayer
370
-1
48
1
60
0
100
AcDbPoint
10
-39.24994
20
-3
30
0
39
0
210
0
220
0
230
1
50
360
0
ENDBLK
5
14A
100
AcDbEntity
8
0
100
AcDbBlockEnd
0
BLOCK
5
161
100
AcDbEntity
8
0
100
AcDbBlockBegin
2
_U2
70
0
10
0
20
0
30
0
3
_U2
0
MTEXT
5
157
100
AcDbEntity
8
SK2
62
256
6
ByLayer
370
18
48
1
60
0
100
AcDbMText
10
-39.939597
20
13.157505
30
0
210
0
220
0
230
1
1
\W0.7346;6.00
40
3.50012
41
0
44
1.084337
50
90
71
7
72
5
7
iso_b_vert
0
LINE
5
158
100
AcDbEntity
8
SK2
62
256
6
ByLayer
370
13
48
1
60
0
100
AcDbLine
10
-37.5875
20
3
30
0
11
-42.42494
21
3
31
0
39
0
210
0
220
0
230
1
0
LINE
5
159
100
AcDbEntity
8
SK2
62
256
6
ByLayer
370
13
48
1
60
0
100
AcDbLine
10
-37.5875
20
-3
30
0
11
-42.42494
21
-3
31
0
39
0
210
0
220
0
230
1
0
LINE
5
15A
100
AcDbEntity
8
SK2
62
256
6
ByLayer
370
13
48
1
60
0
100
AcDbLine
10
-39.24994
20
-11.7503
30
0
11
-39.24994
21
21.21468
31
0
39
0
210
0
220
0
230
1
0
LINE
5
15B
100
AcDbEntity
8
SK2
62
256
6
ByLayer
370
13
48
1
60
0
100
AcDbLine
10
-39.24994
20
3
30
0
11
-39.667937
21
6.174998
31
0
39
0
210
0
220
0
230
1
0
LINE
5
15C
100
AcDbEntity
8
SK2
62
256
6
ByLayer
370
13
48
1
60
0
100
AcDbLine
10
-39.24994
20
3
30
0
11
-38.831943
21
6.175002
31
0
39
0
210
0
220
0
230
1
0
LINE
5
15D
100
AcDbEntity
8
SK2
62
256
6
ByLayer
370
13
48
1
60
0
100
AcDbLine
10
-39.667937
20
6.174998
30
0
11
-38.831943
21
6.175002
31
0
39
0
210
0
220
0
230
1
0
LINE
5
15E
100
AcDbEntity
8
SK2
62
256
6
ByLayer
370
13
48
1
60
0
100
AcDbLine
10
-39.24994
20
-3
30
0
11
-38.831943
21
-6.174998
31
0
39
0
210
0
220
0
230
1
0
LINE
5
15F
100
AcDbEntity
8
SK2
62
256
6
ByLayer
370
13
48
1
60
0
100
AcDbLine
10
-39.24994
20
-3
30
0
11
-39.667937
21
-6.175002
31
0
39
0
210
0
220
0
230
1
0
LINE
5
160
100
AcDbEntity
8
SK2
62
256
6
ByLayer
370
13
48
1
60
0
100
AcDbLine
10
-38.831943
20
-6.174998
30
0
11
-39.667937
21
-6.175002
31
0
39
0
210
0
220
0
230
1
0
ENDBLK
5
162
100
AcDbEntity
8
0
100
AcDbBlockEnd
0
BLOCK
5
167
100
AcDbEntity
8
0
100
AcDbBlockBegin
2
*D8
70
1
10
0
20
0
30
0
3
*D8
0
LINE
5
169
100
AcDbEntity
8
0
62
256
6
ByLayer
370
-2
48
1
60
0
100
AcDbLine
10
-36
20
-4.5875
30
0
11
-36
21
-29.67512
31
0
39
0
210
0
220
0
230
1
0
LINE
5
16A
100
AcDbEntity
8
0
62
256
6
ByLayer
370
-2
48
1
60
0
100
AcDbLine
10
0
20
-4.5875
30
0
11
0
21
-29.67512
31
0
39
0
210
0
220
0
230
1
0
LINE
5
16B
100
AcDbEntity
8
0
62
256
6
ByLayer
370
-2
48
1
60
0
100
AcDbLine
10
-32.825
20
-26.50012
30
0
11
-3.175
21
-26.50012
31
0
39
0
210
0
220
0
230
1
0
SOLID
5
16C
100
AcDbEntity
8
0
62
256
6
ByLayer
370
-1
48
1
60
0
100
AcDbTrace
10
-32.825
20
-25.970953
30
0
11
-32.825
21
-27.029287
31
0
12
-36
22
-26.50012
32
0
13
-36
23
-26.50012
33
0
39
0
210
0
220
0
230
1
0
SOLID
5
16D
100
AcDbEntity
8
0
62
256
6
ByLayer
370
-1
48
1
60
0
100
AcDbTrace
10
-3.175
20
-27.029287
30
0
11
-3.175
21
-25.970953
31
0
12
0
22
-26.50012
32
0
13
0
23
-26.50012
33
0
39
0
210
0
220
0
230
1
0
MTEXT
5
16E
100
AcDbEntity
8
0
62
256
6
ByLayer
370
18
48
1
60
0
100
AcDbMText
10
-18
20
-19.193619
30
0
210
0
220
0
230
1
1
\A1;36
40
3.50012
41
0
44
1
50
0
71
5
72
5
7
iso_b_vert
0
POINT
5
16F
100
AcDbEntity
8
Defpoints
62
0
6
ByLayer
370
-1
48
1
60
0
100
AcDbPoint
10
-36
20
-3
30
0
39
0
210
0
220
0
230
1
50
360
0
POINT
5
170
100
AcDbEntity
8
Defpoints
62
0
6
ByLayer
370
-1
48
1
60
0
100
AcDbPoint
10
0
20
-3
30
0
39
0
210
0
220
0
230
1
50
360
0
POINT
5
171
100
AcDbEntity
8
Defpoints
62
0
6
ByLayer
370
-1
48
1
60
0
100
AcDbPoint
10
0
20
-26.50012
30
0
39
0
210
0
220
0
230
1
50
360
0
ENDBLK
5
168
100
AcDbEntity
8
0
100
AcDbBlockEnd
0
BLOCK
5
17D
100
AcDbEntity
8
0
100
AcDbBlockBegin
2
_U3
70
0
10
0
20
0
30
0
3
_U3
0
MTEXT
5
173
100
AcDbEntity
8
SK2
62
256
6
ByLayer
370
18
48
1
60
0
100
AcDbMText
10
-23.229611
20
-25.467451
30
0
210
0
220
0
230
1
1
\W0.7468;36.00
40
3.50012
41
0
44
1.084337
50
0
71
7
72
5
7
iso_b_vert
0
LINE
5
174
100
AcDbEntity
8
SK2
62
256
6
ByLayer
370
13
48
1
60
0
100
AcDbLine
10
-36
20
-4.5875
30
0
11
-36
21
-29.67512
31
0
39
0
210
0
220
0
230
1
0
LINE
5
175
100
AcDbEntity
8
SK2
62
256
6
ByLayer
370
13
48
1
60
0
100
AcDbLine
10
0
20
-4.5875
30
0
11
0
21
-29.67512
31
0
39
0
210
0
220
0
230
1
0
LINE
5
176
100
AcDbEntity
8
SK2
62
256
6
ByLayer
370
13
48
1
60
0
100
AcDbLine
10
-36
20
-26.50012
30
0
11
0
21
-26.50012
31
0
39
0
210
0
220
0
230
1
0
LINE
5
177
100
AcDbEntity
8
SK2
62
256
6
ByLayer
370
13
48
1
60
0
100
AcDbLine
10
-36
20
-26.50012
30
0
11
-32.825002
21
-26.082123
31
0
39
0
210
0
220
0
230
1
0
LINE
5
178
100
AcDbEntity
8
SK2
62
256
6
ByLayer
370
13
48
1
60
0
100
AcDbLine
10
-36
20
-26.50012
30
0
11
-32.824998
21
-26.918117
31
0
39
0
210
0
220
0
230
1
0
LINE
5
179
100
AcDbEntity
8
SK2
62
256
6
ByLayer
370
13
48
1
60
0
100
AcDbLine
10
-32.825002
20
-26.082123
30
0
11
-32.824998
21
-26.918117
31
0
39
0
210
0
220
0
230
1
0
LINE
5
17A
100
AcDbEntity
8
SK2
62
256
6
ByLayer
370
13
48
1
60
0
100
AcDbLine
10
0
20
-26.50012
30
0
11
-3.174998
21
-26.918117
31
0
39
0
210
0
220
0
230
1
0
LINE
5
17B
100
AcDbEntity
8
SK2
62
256
6
ByLayer
370
13
48
1
60
0
100
AcDbLine
10
0
20
-26.50012
30
0
11
-3.175002
21
-26.082123
31
0
39
0
210
0
220
0
230
1
0
LINE
5
17C
100
AcDbEntity
8
SK2
62
256
6
ByLayer
370
13
48
1
60
0
100
AcDbLine
10
-3.174998
20
-26.918117
30
0
11
-3.175002
21
-26.082123
31
0
39
0
210
0
220
0
230
1
0
ENDBLK
5
17E
100
AcDbEntity
8
0
100
AcDbBlockEnd
0
BLOCK
5
183
100
AcDbEntity
8
0
100
AcDbBlockBegin
2
*D10
70
1
10
0
20
0
30
0
3
*D10
0
LINE
5
185
100
AcDbEntity
8
0
62
256
6
ByLayer
370
-2
48
1
60
0
100
AcDbLine
10
2
20
1.3625
30
0
11
2
21
-20.92482
31
0
39
0
210
0
220
0
230
1
0
LINE
5
186
100
AcDbEntity
8
0
62
256
6
ByLayer
370
-2
48
1
60
0
100
AcDbLine
10
30
20
-1.5875
30
0
11
30
21
-20.92482
31
0
39
0
210
0
220
0
230
1
0
LINE
5
187
100
AcDbEntity
8
0
62
256
6
ByLayer
370
-2
48
1
60
0
100
AcDbLine
10
5.175
20
-17.74982
30
0
11
26.825
21
-17.74982
31
0
39
0
210
0
220
0
230
1
0
SOLID
5
188
100
AcDbEntity
8
0
62
256
6
ByLayer
370
-1
48
1
60
0
100
AcDbTrace
10
5.175
20
-17.220653
30
0
11
5.175
21
-18.278987
31
0
12
2
22
-17.74982
32
0
13
2
23
-17.74982
33
0
39
0
210
0
220
0
230
1
0
SOLID
5
189
100
AcDbEntity
8
0
62
256
6
ByLayer
370
-1
48
1
60
0
100
AcDbTrace
10
26.825
20
-18.278987
30
0
11
26.825
21
-17.220653
31
0
12
30
22
-17.74982
32
0
13
30
23
-17.74982
33
0
39
0
210
0
220
0
230
1
0
MTEXT
5
18A
100
AcDbEntity
8
0
62
256
6
ByLayer
370
18
48
1
60
0
100
AcDbMText
10
16
20
-10.44332
30
0
210
0
220
0
230
1
1
\A1;28
40
3.50012
41
0
44
1
50
0
71
5
72
5
7
iso_b_vert
0
POINT
5
18B
100
AcDbEntity
8
Defpoints
62
0
6
ByLayer
370
-1
48
1
60
0
100
AcDbPoint
10
2
20
2.95
30
0
39
0
210
0
220
0
230
1
50
360
0
POINT
5
18C
100
AcDbEntity
8
Defpoints
62
0
6
ByLayer
370
-1
48
1
60
0
100
AcDbPoint
10
30
20
0
30
0
39
0
210
0
220
0
230
1
50
360
0
POINT
5
18D
100
AcDbEntity
8
Defpoints
62
0
6
ByLayer
370
-1
48
1
60
0
100
AcDbPoint
10
30
20
-17.74982
30
0
39
0
210
0
220
0
230
1
50
360
0
ENDBLK
5
184
100
AcDbEntity
8
0
100
AcDbBlockEnd
0
BLOCK
5
199
100
AcDbEntity
8
0
100
AcDbBlockBegin
2
_U4
70
0
10
0
20
0
30
0
3
_U4
0
MTEXT
5
18F
100
AcDbEntity
8
SK2
62
256
6
ByLayer
370
18
48
1
60
0
100
AcDbMText
10
10.770389
20
-16.717151
30
0
210
0
220
0
230
1
1
\W0.7468;28.00
40
3.50012
41
0
44
1.084337
50
0
71
7
72
5
7
iso_b_vert
0
LINE
5
190
100
AcDbEntity
8
SK2
62
256
6
ByLayer
370
13
48
1
60
0
100
AcDbLine
10
2
20
1.3625
30
0
11
2
21
-20.92482
31
0
39
0
210
0
220
0
230
1
0
LINE
5
191
100
AcDbEntity
8
SK2
62
256
6
ByLayer
370
13
48
1
60
0
100
AcDbLine
10
30
20
-1.5875
30
0
11
30
21
-20.92482
31
0
39
0
210
0
220
0
230
1
0
LINE
5
192
100
AcDbEntity
8
SK2
62
256
6
ByLayer
370
13
48
1
60
0
100
AcDbLine
10
2
20
-17.74982
30
0
11
30
21
-17.74982
31
0
39
0
210
0
220
0
230
1
0
LINE
5
193
100
AcDbEntity
8
SK2
62
256
6
ByLayer
370
13
48
1
60
0
100
AcDbLine
10
2
20
-17.74982
30
0
11
5.174998
21
-17.331823
31
0
39
0
210
0
220
0
230
1
0
LINE
5
194
100
AcDbEntity
8
SK2
62
256
6
ByLayer
370
13
48
1
60
0
100
AcDbLine
10
2
20
-17.74982
30
0
11
5.175002
21
-18.167817
31
0
39
0
210
0
220
0
230
1
0
LINE
5
195
100
AcDbEntity
8
SK2
62
256
6
ByLayer
370
13
48
1
60
0
100
AcDbLine
10
5.174998
20
-17.331823
30
0
11
5.175002
21
-18.167817
31
0
39
0
210
0
220
0
230
1
0
LINE
5
196
100
AcDbEntity
8
SK2
62
256
6
ByLayer
370
13
48
1
60
0
100
AcDbLine
10
30
20
-17.74982
30
0
11
26.825002
21
-18.167817
31
0
39
0
210
0
220
0
230
1
0
LINE
5
197
100
AcDbEntity
8
SK2
62
256
6
ByLayer
370
13
48
1
60
0
100
AcDbLine
10
30
20
-17.74982
30
0
11
26.824998
21
-17.331823
31
0
39
0
210
0
220
0
230
1
0
LINE
5
198
100
AcDbEntity
8
SK2
62
256
6
ByLayer
370
13
48
1
60
0
100
AcDbLine
10
26.825002
20
-18.167817
30
0
11
26.824998
21
-17.331823
31
0
39
0
210
0
220
0
230
1
0
ENDBLK
5
19A
100
AcDbEntity
8
0
100
AcDbBlockEnd
0
BLOCK
5
19F
100
AcDbEntity
8
0
100
AcDbBlockBegin
2
*D12
70
1
10
0
20
0
30
0
3
*D12
0
LINE
5
1A1
100
AcDbEntity
8
0
62
256
6
ByLayer
370
-2
48
1
60
0
100
AcDbLine
10
14.5
20
-4.0375
30
0
11
14.5
21
-10.32
31
0
39
0
210
0
220
0
230
1
0
LINE
5
1A2
100
AcDbEntity
8
0
62
256
6
ByLayer
370
-2
48
1
60
0
100
AcDbLine
10
30
20
-1.5875
30
0
11
30
21
-10.32
31
0
39
0
210
0
220
0
230
1
0
LINE
5
1A3
100
AcDbEntity
8
0
62
256
6
ByLayer
370
-2
48
1
60
0
100
AcDbLine
10
17.675
20
-9.82
30
0
11
26.825
21
-9.82
31
0
39
0
210
0
220
0
230
1
0
SOLID
5
1A4
100
AcDbEntity
8
0
62
256
6
ByLayer
370
-1
48
1
60
0
100
AcDbTrace
10
17.675
20
-9.290833
30
0
11
17.675
21
-10.349167
31
0
12
14.5
22
-9.82
32
0
13
14.5
23
-9.82
33
0
39
0
210
0
220
0
230
1
0
SOLID
5
1A5
100
AcDbEntity
8
0
62
256
6
ByLayer
370
-1
48
1
60
0
100
AcDbTrace
10
26.825
20
-10.349167
30
0
11
26.825
21
-9.290833
31
0
12
30
22
-9.82
32
0
13
30
23
-9.82
33
0
39
0
210
0
220
0
230
1
0
MTEXT
5
1A6
100
AcDbEntity
8
0
62
256
6
ByLayer
370
18
48
1
60
0
100
AcDbMText
10
22.25
20
-3.975
30
0
210
0
220
0
230
1
1
\A1;15.5
40
2.8
41
0
44
1
50
0
71
5
72
5
7
iso_b_vert
0
POINT
5
1A7
100
AcDbEntity
8
Defpoints
62
0
6
ByLayer
370
-1
48
1
60
0
100
AcDbPoint
10
14.5
20
-2.45
30
0
39
0
210
0
220
0
230
1
50
360
0
POINT
5
1A8
100
AcDbEntity
8
Defpoints
62
0
6
ByLayer
370
-1
48
1
60
0
100
AcDbPoint
10
30
20
0
30
0
39
0
210
0
220
0
230
1
50
360
0
POINT
5
1A9
100
AcDbEntity
8
Defpoints
62
0
6
ByLayer
370
-1
48
1
60
0
100
AcDbPoint
10
30
20
-9.82
30
0
39
0
210
0
220
0
230
1
50
360
0
ENDBLK
5
1A0
100
AcDbEntity
8
0
100
AcDbBlockEnd
0
BLOCK
5
1B5
100
AcDbEntity
8
0
100
AcDbBlockBegin
2
_U5
70
0
10
0
20
0
30
0
3
_U5
0
MTEXT
5
1AB
100
AcDbEntity
8
SK2
62
256
6
ByLayer
370
18
48
1
60
0
100
AcDbMText
10
18.416401
20
-9.973893
30
0
210
0
220
0
230
1
1
\W0.6864;15.50
40
2.8
41
0
44
1.084337
50
0
71
7
72
5
7
iso_b_vert
0
LINE
5
1AC
100
AcDbEntity
8
SK2
62
256
6
ByLayer
370
13
48
1
60
0
100
AcDbLine
10
14.5
20
-4.0375
30
0
11
14.5
21
-10.32
31
0
39
0
210
0
220
0
230
1
0
LINE
5
1AD
100
AcDbEntity
8
SK2
62
256
6
ByLayer
370
13
48
1
60
0
100
AcDbLine
10
30
20
-1.5875
30
0
11
30
21
-10.32
31
0
39
0
210
0
220
0
230
1
0
LINE
5
1AE
100
AcDbEntity
8
SK2
62
256
6
ByLayer
370
13
48
1
60
0
100
AcDbLine
10
7.5
20
-9.82
30
0
11
37
21
-9.82
31
0
39
0
210
0
220
0
230
1
0
LINE
5
1AF
100
AcDbEntity
8
SK2
62
256
6
ByLayer
370
13
48
1
60
0
100
AcDbLine
10
14.5
20
-9.82
30
0
11
11.325002
21
-10.237997
31
0
39
0
210
0
220
0
230
1
0
LINE
5
1B0
100
AcDbEntity
8
SK2
62
256
6
ByLayer
370
13
48
1
60
0
100
AcDbLine
10
14.5
20
-9.82
30
0
11
11.324998
21
-9.402003
31
0
39
0
210
0
220
0
230
1
0
LINE
5
1B1
100
AcDbEntity
8
SK2
62
256
6
ByLayer
370
13
48
1
60
0
100
AcDbLine
10
11.325002
20
-10.237997
30
0
11
11.324998
21
-9.402003
31
0
39
0
210
0
220
0
230
1
0
LINE
5
1B2
100
AcDbEntity
8
SK2
62
256
6
ByLayer
370
13
48
1
60
0
100
AcDbLine
10
30
20
-9.82
30
0
11
33.174998
21
-9.402003
31
0
39
0
210
0
220
0
230
1
0
LINE
5
1B3
100
AcDbEntity
8
SK2
62
256
6
ByLayer
370
13
48
1
60
0
100
AcDbLine
10
30
20
-9.82
30
0
11
33.175002
21
-10.237997
31
0
39
0
210
0
220
0
230
1
0
LINE
5
1B4
100
AcDbEntity
8
SK2
62
256
6
ByLayer
370
13
48
1
60
0
100
AcDbLine
10
33.174998
20
-9.402003
30
0
11
33.175002
21
-10.237997
31
0
39
0
210
0
220
0
230
1
0
ENDBLK
5
1B6
100
AcDbEntity
8
0
100
AcDbBlockEnd
0
BLOCK
5
1BB
100
AcDbEntity
8
0
100
AcDbBlockBegin
2
*D14
70
1
10
0
20
0
30
0
3
*D14
0
LINE
5
1BD
100
AcDbEntity
8
0
62
256
6
ByLayer
370
-2
48
1
60
0
100
AcDbLine
10
-36
20
-1.5875
30
0
11
-36
21
-39.67512
31
0
39
0
210
0
220
0
230
1
0
LINE
5
1BE
100
AcDbEntity
8
0
62
256
6
ByLayer
370
-2
48
1
60
0
100
AcDbLine
10
30
20
-1.5875
30
0
11
30
21
-39.67512
31
0
39
0
210
0
220
0
230
1
0
LINE
5
1BF
100
AcDbEntity
8
0
62
256
6
ByLayer
370
-2
48
1
60
0
100
AcDbLine
10
-32.825
20
-36.50012
30
0
11
26.825
21
-36.50012
31
0
39
0
210
0
220
0
230
1
0
SOLID
5
1C0
100
AcDbEntity
8
0
62
256
6
ByLayer
370
-1
48
1
60
0
100
AcDbTrace
10
-32.825
20
-35.970953
30
0
11
-32.825
21
-37.029287
31
0
12
-36
22
-36.50012
32
0
13
-36
23
-36.50012
33
0
39
0
210
0
220
0
230
1
0
SOLID
5
1C1
100
AcDbEntity
8
0
62
256
6
ByLayer
370
-1
48
1
60
0
100
AcDbTrace
10
26.825
20
-37.029287
30
0
11
26.825
21
-35.970953
31
0
12
30
22
-36.50012
32
0
13
30
23
-36.50012
33
0
39
0
210
0
220
0
230
1
0
MTEXT
5
1C2
100
AcDbEntity
8
0
62
256
6
ByLayer
370
18
48
1
60
0
100
AcDbMText
10
-3
20
-29.19362
30
0
210
0
220
0
230
1
1
\A1;66
40
3.50012
41
0
44
1
50
0
71
5
72
5
7
iso_b_vert
0
POINT
5
1C3
100
AcDbEntity
8
Defpoints
62
0
6
ByLayer
370
-1
48
1
60
0
100
AcDbPoint
10
-36
20
0
30
0
39
0
210
0
220
0
230
1
50
360
0
POINT
5
1C4
100
AcDbEntity
8
Defpoints
62
0
6
ByLayer
370
-1
48
1
60
0
100
AcDbPoint
10
30
20
0
30
0
39
0
210
0
220
0
230
1
50
360
0
POINT
5
1C5
100
AcDbEntity
8
Defpoints
62
0
6
ByLayer
370
-1
48
1
60
0
100
AcDbPoint
10
30
20
-36.50012
30
0
39
0
210
0
220
0
230
1
50
360
0
ENDBLK
5
1BC
100
AcDbEntity
8
0
100
AcDbBlockEnd
0
BLOCK
5
1D1
100
AcDbEntity
8
0
100
AcDbBlockBegin
2
_U6
70
0
10
0
20
0
30
0
3
_U6
0
MTEXT
5
1C7
100
AcDbEntity
8
SK2
62
256
6
ByLayer
370
18
48
1
60
0
100
AcDbMText
10
-8.229611
20
-35.467451
30
0
210
0
220
0
230
1
1
\W0.7468;66.00
40
3.50012
41
0
44
1.084337
50
0
71
7
72
5
7
iso_b_vert
0
LINE
5
1C8
100
AcDbEntity
8
SK2
62
256
6
ByLayer
370
13
48
1
60
0
100
AcDbLine
10
-36
20
-1.5875
30
0
11
-36
21
-39.67512
31
0
39
0
210
0
220
0
230
1
0
LINE
5
1C9
100
AcDbEntity
8
SK2
62
256
6
ByLayer
370
13
48
1
60
0
100
AcDbLine
10
30
20
-1.5875
30
0
11
30
21
-39.67512
31
0
39
0
210
0
220
0
230
1
0
LINE
5
1CA
100
AcDbEntity
8
SK2
62
256
6
ByLayer
370
13
48
1
60
0
100
AcDbLine
10
-36
20
-36.50012
30
0
11
30
21
-36.50012
31
0
39
0
210
0
220
0
230
1
0
LINE
5
1CB
100
AcDbEntity
8
SK2
62
256
6
ByLayer
370
13
48
1
60
0
100
AcDbLine
10
-36
20
-36.50012
30
0
11
-32.825002
21
-36.082123
31
0
39
0
210
0
220
0
230
1
0
LINE
5
1CC
100
AcDbEntity
8
SK2
62
256
6
ByLayer
370
13
48
1
60
0
100
AcDbLine
10
-36
20
-36.50012
30
0
11
-32.824998
21
-36.918117
31
0
39
0
210
0
220
0
230
1
0
LINE
5
1CD
100
AcDbEntity
8
SK2
62
256
6
ByLayer
370
13
48
1
60
0
100
AcDbLine
10
-32.825002
20
-36.082123
30
0
11
-32.824998
21
-36.918117
31
0
39
0
210
0
220
0
230
1
0
LINE
5
1CE
100
AcDbEntity
8
SK2
62
256
6
ByLayer
370
13
48
1
60
0
100
AcDbLine
10
30
20
-36.50012
30
0
11
26.825002
21
-36.918117
31
0
39
0
210
0
220
0
230
1
0
LINE
5
1CF
100
AcDbEntity
8
SK2
62
256
6
ByLayer
370
13
48
1
60
0
100
AcDbLine
10
30
20
-36.50012
30
0
11
26.824998
21
-36.082123
31
0
39
0
210
0
220
0
230
1
0
LINE
5
1D0
100
AcDbEntity
8
SK2
62
256
6
ByLayer
370
13
48
1
60
0
100
AcDbLine
10
26.825002
20
-36.918117
30
0
11
26.824998
21
-36.082123
31
0
39
0
210
0
220
0
230
1
0
ENDBLK
5
1D2
100
AcDbEntity
8
0
100
AcDbBlockEnd
0
ENDSEC
0
SECTION
2
ENTITIES
0
ARC
5
AD
100
AcDbEntity
8
1
62
256
6
ByLayer
370
18
48
1
60
0
100
AcDbCircle
39
0
10
1.222211
20
3.23257
30
0
40
0.799999999999999
210
0
220
0
230
1
100
AcDbArc
50
220.192394
51
270.03581
0
ARC
5
AE
100
AcDbEntity
8
1
62
256
6
ByLayer
370
18
48
1
60
0
100
AcDbCircle
39
0
10
1.222211
20
-3.23257
30
0
40
0.799999999999999
210
0
220
0
230
1
100
AcDbArc
50
89.96419
51
139.807606
0
ARC
5
AF
100
AcDbEntity
8
1
62
256
6
ByLayer
370
18
48
1
60
0
100
AcDbCircle
39
0
10
0
20
2.2
30
0
40
0.8
210
0
220
0
230
1
100
AcDbArc
50
40.192394
51
90
0
ARC
5
B0
100
AcDbEntity
8
1
62
256
6
ByLayer
370
18
48
1
60
0
100
AcDbCircle
39
0
10
0
20
-2.2
30
0
40
0.8
210
0
220
0
230
1
100
AcDbArc
50
270
51
319.807606
0
ARC
5
B1
100
AcDbEntity
8
SK2
62
256
6
ByLayer
370
13
48
1
60
0
100
AcDbCircle
39
0
10
30
20
0
30
0
40
20
210
0
220
0
230
1
100
AcDbArc
50
9.606349
51
70.000559
0
ARC
5
B2
100
AcDbEntity
8
SK2
62
256
6
ByLayer
370
13
48
1
60
0
100
AcDbCircle
39
0
10
30
20
0
30
0
40
20
210
0
220
0
230
1
100
AcDbArc
50
289.999441
51
350.393651
0
ELLIPSE
5
B3
100
AcDbEntity
8
1
62
256
6
ByLayer
370
18
48
1
60
0
100
AcDbEllipse
10
3.602744
20
2.31265
30
0
11
-8.42814458709701E-05
21
0.00999964482558665
31
0
210
0
220
0
230
1
40
0.007011
41
3.05033414284583
42
-1.66258359649204
0
ELLIPSE
5
B4
100
AcDbEntity
8
1
62
256
6
ByLayer
370
18
48
1
60
0
100
AcDbEllipse
10
3.639166
20
2.31364
30
0
11
0.000469463968279113
21
-0.00998897410060151
31
0
210
0
220
0
230
1
40
0.410246
41
-0.0962769381425202
42
1.46789954658128
0
ELLIPSE
5
B5
100
AcDbEntity
8
1
62
256
6
ByLayer
370
18
48
1
60
0
100
AcDbEllipse
10
3.602046
20
2.412306
30
0
11
-0.1
21
1.22460635382238E-17
31
0
210
0
220
0
230
1
40
0.999999
41
7.59240061931251E-05
42
1.57939671497076
0
POINT
5
70
100
AcDbEntity
8
80
62
256
6
ByLayer
370
18
48
1
60
0
100
AcDbPoint
10
0
20
0
30
0
39
0
210
0
220
0
230
1
50
360
0
POINT
5
72
100
AcDbEntity
8
81
62
256
6
ByLayer
370
18
48
1
60
0
100
AcDbPoint
10
30
20
0
30
0
39
0
210
0
220
0
230
1
50
360
0
POINT
5
74
100
AcDbEntity
8
1
62
256
6
ByLayer
370
18
48
1
60
0
100
AcDbPoint
10
-36
20
0
30
0
39
0
210
0
220
0
230
1
50
360
0
POINT
5
76
100
AcDbEntity
8
1
62
256
6
ByLayer
370
18
48
1
60
1
100
AcDbPoint
10
0
20
-3
30
0
39
0
210
0
220
0
230
1
50
360
0
POINT
5
77
100
AcDbEntity
8
1
62
256
6
ByLayer
370
18
48
1
60
1
100
AcDbPoint
10
30
20
0
30
0
39
0
210
0
220
0
230
1
50
360
0
POINT
5
78
100
AcDbEntity
8
1
62
256
6
ByLayer
370
18
48
1
60
1
100
AcDbPoint
10
29.1083
20
-2.45
30
0
39
0
210
0
220
0
230
1
50
360
0
POINT
5
79
100
AcDbEntity
8
1
62
256
6
ByLayer
370
18
48
1
60
1
100
AcDbPoint
10
29.1083
20
2.45
30
0
39
0
210
0
220
0
230
1
50
360
0
POINT
5
7A
100
AcDbEntity
8
1
62
256
6
ByLayer
370
18
48
1
60
1
100
AcDbPoint
10
-36
20
3
30
0
39
0
210
0
220
0
230
1
50
360
0
POINT
5
7B
100
AcDbEntity
8
1
62
256
6
ByLayer
370
18
48
1
60
1
100
AcDbPoint
10
-36
20
-3
30
0
39
0
210
0
220
0
230
1
50
360
0
POINT
5
7C
100
AcDbEntity
8
1
62
256
6
ByLayer
370
18
48
1
60
1
100
AcDbPoint
10
-36
20
-3
30
0
39
0
210
0
220
0
230
1
50
360
0
POINT
5
7D
100
AcDbEntity
8
1
62
256
6
ByLayer
370
18
48
1
60
1
100
AcDbPoint
10
0
20
-3
30
0
39
0
210
0
220
0
230
1
50
360
0
POINT
5
7E
100
AcDbEntity
8
1
62
256
6
ByLayer
370
18
48
1
60
1
100
AcDbPoint
10
2
20
2.95
30
0
39
0
210
0
220
0
230
1
50
360
0
POINT
5
7F
100
AcDbEntity
8
1
62
256
6
ByLayer
370
18
48
1
60
1
100
AcDbPoint
10
30
20
0
30
0
39
0
210
0
220
0
230
1
50
360
0
POINT
5
80
100
AcDbEntity
8
1
62
256
6
ByLayer
370
18
48
1
60
1
100
AcDbPoint
10
14.5
20
-2.45
30
0
39
0
210
0
220
0
230
1
50
360
0
POINT
5
81
100
AcDbEntity
8
1
62
256
6
ByLayer
370
18
48
1
60
1
100
AcDbPoint
10
30
20
0
30
0
39
0
210
0
220
0
230
1
50
360
0
POINT
5
82
100
AcDbEntity
8
1
62
256
6
ByLayer
370
18
48
1
60
1
100
AcDbPoint
10
-36
20
0
30
0
39
0
210
0
220
0
230
1
50
360
0
POINT
5
83
100
AcDbEntity
8
1
62
256
6
ByLayer
370
18
48
1
60
1
100
AcDbPoint
10
30
20
0
30
0
39
0
210
0
220
0
230
1
50
360
0
SPLINE
5
B6
100
AcDbEntity
8
1
62
256
6
ByLayer
370
18
48
1
60
0
100
AcDbSpline
70
4
71
3
72
24
73
20
40
0
40
0
40
0
40
0
40
0.0826031220704527
40
0.0826031220704527
40
0.176632464617006
40
0.176632464617006
40
0.27066180716356
40
0.27066180716356
40
0.458720492256668
40
0.458720492256668
40
0.646779177349776
40
0.646779177349776
40
0.693793848623053
40
0.693793848623053
40
0.74080851989633
40
0.74080851989633
40
0.834837862442883
40
0.834837862442883
40
1
40
1
40
1
40
1
41
1
10
13.8615937509646
20
-2.32083437787926
30
0
41
1
10
13.6287049786405
20
-2.32897046449747
30
0
41
1
10
13.3955818833453
20
-2.33012609144845
30
0
41
1
10
12.8958410843898
20
-2.31728080705122
30
0
41
1
10
12.6290663870046
20
-2.30143816973378
30
0
41
1
10
12.0930077801993
20
-2.25152571017944
30
0
41
1
10
11.8261627241661
20
-2.21751842825944
30
0
41
1
10
11.0289368203913
20
-2.09031755255069
30
-1E-16
41
1
10
10.5012217125027
20
-1.97222993751097
30
-1E-16
41
1
10
9.44537308118188
20
-1.67959638544514
30
1E-16
41
1
10
8.91728448616175
20
-1.50481898426938
30
1E-16
41
1
10
8.25194438686634
20
-1.2590178475763
30
1E-16
41
1
10
8.11862492587841
20
-1.20849601261713
30
1E-16
41
1
10
7.85129717559568
20
-1.10485601662268
30
1E-16
41
1
10
7.71706560573199
20
-1.0516365104836
30
1E-16
41
1
10
7.31564416718172
20
-0.889519400237447
30
1E-16
41
1
10
7.04926986412826
20
-0.778027679061069
30
0
41
1
10
6.31693599092333
20
-0.464618531214967
30
0
41
1
10
5.85255165232104
20
-0.257830583385584
30
0
41
1
10
5.3876680071545
20
-0.0503530602954925
30
0
0
SPLINE
5
B7
100
AcDbEntity
8
1
62
256
6
ByLayer
370
18
48
1
60
0
100
AcDbSpline
70
4
71
3
72
8
73
4
40
0
40
0
40
0
40
0
40
1
40
1
40
1
40
1
41
1
10
29.9964339441625
20
0.173927665951936
30
0
41
1
10
30.0011957046003
20
0.0578047120873464
30
0
41
1
10
30.0011816866649
20
-0.0581465612859802
30
0
41
1
10
29.9964339441636
20
-0.173927665925504
30
0
0
SPLINE
5
B8
100
AcDbEntity
8
1
62
256
6
ByLayer
370
18
48
1
60
0
100
AcDbSpline
70
4
71
3
72
10
73
6
40
0
40
0
40
0
40
0
40
0.58752439630305
40
0.58752439630305
40
1
40
1
40
1
40
1
41
1
10
11.8
20
-2.40153464237187
30
0
41
1
10
11.9803924567893
20
-2.41643829522732
30
0
41
1
10
12.1606742661506
20
-2.42701252403879
30
0
41
1
10
12.467639336198
20
-2.43755227181589
30
0
41
1
10
12.5943562747406
20
-2.43973292379135
30
0
41
1
10
12.7208476497881
20
-2.43975259659552
30
0
0
SPLINE
5
B9
100
AcDbEntity
8
1
62
256
6
ByLayer
370
18
48
1
60
0
100
AcDbSpline
70
4
71
3
72
8
73
4
40
0
40
0
40
0
40
0
40
1
40
1
40
1
40
1
41
1
10
27.6852310719806
20
2.3631924959216
30
0
41
1
10
28.1220641118583
20
2.4174101740511
30
0
41
1
10
28.5584710962042
20
2.44665629482631
30
0
41
1
10
28.997014022552
20
2.44970734681681
30
0
0
SPLINE
5
BA
100
AcDbEntity
8
1
62
256
6
ByLayer
370
18
48
1
60
0
100
AcDbSpline
70
4
71
3
72
8
73
4
40
0
40
0
40
0
40
0
40
1
40
1
40
1
40
1
41
1
10
28.987131241786
20
-2.42015692060267
30
0
41
1
10
29.0272743507702
20
-2.39678676316453
30
0
41
1
10
29.0674946792234
20
-2.37305066105489
30
0
41
1
10
29.1078038754851
20
-2.34895655239865
30
0
0
SPLINE
5
BB
100
AcDbEntity
8
1
62
256
6
ByLayer
370
18
48
1
60
0
100
AcDbSpline
70
4
71
3
72
24
73
20
40
0
40
0
40
0
40
0
40
0.21294401445518
40
0.21294401445518
40
0.306875988557256
40
0.306875988557256
40
0.353841975608294
40
0.353841975608294
40
0.400807962659331
40
0.400807962659331
40
0.588671910863489
40
0.588671910863489
40
0.776535859067646
40
0.776535859067646
40
0.870467833169724
40
0.870467833169724
40
0.964399807271802
40
0.964399807271802
40
1
40
1
40
1
40
1
41
1
10
4.98559452239121
20
0.139380759459613
30
0
41
1
10
5.58601962626656
20
-0.126898372079864
30
0
41
1
10
6.18428976212181
20
-0.395313528336175
30
0
41
1
10
7.05188469781694
20
-0.765479364294833
30
0
41
1
10
7.3181427757508
20
-0.876619636824273
30
1E-16
41
1
10
7.7193718323667
20
-1.03829119685378
30
1E-16
41
1
10
7.85353951244059
20
-1.09137894036834
30
1E-16
41
1
10
8.12075364489058
20
-1.19478530018816
30
1E-16
41
1
10
8.2540199826081
20
-1.24520255750937
30
1E-16
41
1
10
8.91909843888317
20
-1.49056358172248
30
1E-16
41
1
10
9.44700165908512
20
-1.66524373409922
30
1E-16
41
1
10
10.5024744715842
20
-1.95815482189323
30
-1E-16
41
1
10
11.029993260316
20
-2.07661465983367
30
-1E-16
41
1
10
11.8268728389171
20
-2.20472476989227
30
0
41
1
10
12.0935668828921
20
-2.23909905834924
30
0
41
1
10
12.6293977177904
20
-2.28985196927178
30
0
41
1
10
12.8960643927171
20
-2.30616471285032
30
0
41
1
10
13.262783082734
20
-2.31631502962759
30
0
41
1
10
13.3634629001098
20
-2.31777839656061
30
0
41
1
10
13.464062523231
20
-2.317929711099
30
0
0
SPLINE
5
BC
100
AcDbEntity
8
1
62
256
6
ByLayer
370
18
48
1
60
0
100
AcDbSpline
70
4
71
3
72
38
73
34
40
0
40
0
40
0
40
0
40
0.0312500000000011
40
0.0312500000000011
40
0.0625000000000021
40
0.0625000000000021
40
0.125000000000004
40
0.125000000000004
40
0.250000000000007
40
0.250000000000007
40
0.281250000000007
40
0.281250000000007
40
0.312500000000008
40
0.312500000000008
40
0.375000000000008
40
0.375000000000008
40
0.437500000000008
40
0.437500000000008
40
0.500000000000008
40
0.500000000000008
40
0.562500000000008
40
0.562500000000008
40
0.593750000000008
40
0.593750000000008
40
0.625000000000008
40
0.625000000000008
40
0.750000000000006
40
0.750000000000006
40
0.812500000000004
40
0.812500000000004
40
0.875000000000003
40
0.875000000000003
40
1
40
1
40
1
40
1
41
1
10
11.8
20
2.40153464237187
30
0
41
1
10
11.9803924567893
20
2.41643829522732
30
0
41
1
10
12.1606742661506
20
2.42701252403882
30
0
41
1
10
12.5213732010821
20
2.43939724193865
30
0
41
1
10
12.7019282665385
20
2.4411935628064
30
0
41
1
10
13.2413761360197
20
2.43344432853672
30
0
41
1
10
13.5989900587546
20
2.41081478870055
30
0
41
1
10
14.6698363872176
20
2.29299354041487
30
0
41
1
10
15.3808495128241
20
2.14753273007753
30
1E-16
41
1
10
16.2794697320771
20
1.89272854762638
30
1E-16
41
1
10
16.4599883798443
20
1.83803162105286
30
1E-16
41
1
10
16.8204032915997
20
1.72236528185854
30
-1E-16
41
1
10
17.0003618024489
20
1.66139294163287
30
-1E-16
41
1
10
17.5400352447348
20
1.46994441596101
30
-1E-16
41
1
10
17.8995632221506
20
1.33095526480122
30
-1E-16
41
1
10
18.6208745354964
20
1.03500450418412
30
-1E-16
41
1
10
18.9800824190127
20
0.879034840107465
30
-1E-16
41
1
10
19.6950868017663
20
0.55832710943784
30
0
41
1
10
20.0514156888723
20
0.393400131848722
30
0
41
1
10
20.7643837531054
20
0.0601297486742283
30
0
41
1
10
21.1209979168804
20
-0.108268248961394
30
0
41
1
10
21.6581417467242
20
-0.359104199619196
30
0
41
1
10
21.8375625658905
20
-0.442416873740569
30
0
41
1
10
22.1975026475317
20
-0.607670768272953
30
0
41
1
10
22.3780702360248
20
-0.68962458458725
30
0
41
1
10
23.2760740961144
20
-1.09034754597084
30
1E-16
41
1
10
23.9856917402968
20
-1.3850389061877
30
1E-16
41
1
10
25.0532862100161
20
-1.75887546296812
30
1E-16
41
1
10
25.4096475609932
20
-1.87222100497118
30
-1E-16
41
1
10
26.1259330618975
20
-2.0720937611502
30
-1E-16
41
1
10
26.4872873394667
20
-2.15879958484595
30
-1E-16
41
1
10
27.5651763181124
20
-2.36933427179028
30
0
41
1
10
28.278226129384
20
-2.44470656103178
30
0
41
1
10
28.997014022552
20
-2.44970734681681
30
0
0
SPLINE
5
BD
100
AcDbEntity
8
1
62
256
6
ByLayer
370
18
48
1
60
0
100
AcDbSpline
70
4
71
3
72
10
73
6
40
0
40
0
40
0
40
0
40
0.5
40
0.5
40
1
40
1
40
1
40
1
41
1
10
29.1512147512205
20
2.34685075881563
30
0
41
1
10
29.1417389335524
20
2.35341610824386
30
0
41
1
10
29.1334745409771
20
2.35685975889058
30
0
41
1
10
29.1191580180887
20
2.3574622820619
30
0
41
1
10
29.1130971793426
20
2.35465447752299
30
0
41
1
10
29.1078038754852
20
2.34895655239856
30
0
0
SPLINE
5
BE
100
AcDbEntity
8
1
62
256
6
ByLayer
370
18
48
1
60
0
100
AcDbSpline
70
4
71
3
72
14
73
10
40
0
40
0
40
0
40
0
40
0.276110931617499
40
0.276110931617499
40
0.513393931334951
40
0.513393931334951
40
0.784771065844695
40
0.784771065844695
40
1
40
1
40
1
40
1
41
1
10
28.8427516037992
20
-0.0860146522971093
30
0
41
1
10
28.8434833940549
20
-0.0862903293615034
30
0
41
1
10
28.8442022553526
20
-0.0869399124858887
30
0
41
1
10
28.8453897081026
20
-0.088602483753391
30
0
41
1
10
28.8458958297334
20
-0.0895742737911007
30
0
41
1
10
28.8468190214179
20
-0.0919338772027629
30
0
41
1
10
28.8472276026742
20
-0.0933982676787366
30
0
41
1
10
28.8477279152601
20
-0.0961989431208394
30
0
41
1
10
28.8478725446193
20
-0.0975325022602647
30
0
41
1
10
28.8479122470816
20
-0.0988647972216654
30
0
0
SPLINE
5
BF
100
AcDbEntity
8
1
62
256
6
ByLayer
370
18
48
1
60
0
100
AcDbSpline
70
4
71
3
72
34
73
30
40
0
40
0
40
0
40
0
40
0.0999300434979878
40
0.0999300434979878
40
0.199860086995976
40
0.199860086995976
40
0.299790130493963
40
0.299790130493963
40
0.349755152242957
40
0.349755152242957
40
0.399720173991951
40
0.399720173991951
40
0.449685195740945
40
0.449685195740945
40
0.499650217489939
40
0.499650217489939
40
0.599580260987927
40
0.599580260987927
40
0.649545282736921
40
0.649545282736921
40
0.699510304485914
40
0.699510304485914
40
0.799440347983902
40
0.799440347983902
40
0.89937039148189
40
0.89937039148189
40
0.999300434979878
40
0.999300434979878
40
1
40
1
40
1
40
1
41
1
10
28.7846853142716
20
0.280079297729685
30
0
41
1
10
28.5318421653566
20
0.398302844066876
30
0
41
1
10
28.2797048172074
20
0.514687994629384
30
0
41
1
10
27.7770927757776
20
0.744356979191309
30
0
41
1
10
27.525819203535
20
0.855938220320468
30
-1E-16
41
1
10
27.0233650321751
20
1.07279229750654
30
-1E-16
41
1
10
26.7726131127285
20
1.17886325909745
30
-1E-16
41
1
10
26.3949591474814
20
1.33004831779138
30
-1E-16
41
1
10
26.2688454232876
20
1.37918594522122
30
-1E-16
41
1
10
26.0164731548723
20
1.47551114519018
30
-1E-16
41
1
10
25.8902904175934
20
1.52282569375473
30
-1E-16
41
1
10
25.6372171317559
20
1.61444716783779
30
-1E-16
41
1
10
25.5103659607108
20
1.6588298728027
30
-1E-16
41
1
10
25.2559434922482
20
1.74458348356211
30
-1E-16
41
1
10
25.1284105385673
20
1.7858555103798
30
-1E-16
41
1
10
24.7477807639901
20
1.90509632130926
30
1E-16
41
1
10
24.4954035431299
20
1.97800707333971
30
1E-16
41
1
10
24.117150092724
20
2.0754696128823
30
1E-16
41
1
10
23.9911512209139
20
2.1060461649254
30
1E-16
41
1
10
23.7397449952908
20
2.1638317054954
30
1E-16
41
1
10
23.6142366810383
20
2.19090845319704
30
1E-16
41
1
10
23.2374934792383
20
2.26592358337143
30
0
41
1
10
22.9860219550924
20
2.30777000264584
30
0
41
1
10
22.4836131497442
20
2.37593871285981
30
0
41
1
10
22.2320837305267
20
2.40175410678134
30
0
41
1
10
21.7268635483672
20
2.43622085724792
30
0
41
1
10
21.4739584239017
20
2.44508129975313
30
0
41
1
10
21.2177207290667
20
2.44506634382944
30
0
41
1
10
21.215939398819
20
2.44506581235288
30
0
41
1
10
21.2141580727829
20
2.44506485339281
30
0
0
SPLINE
5
C0
100
AcDbEntity
8
1
62
256
6
ByLayer
370
18
48
1
60
0
100
AcDbSpline
70
4
71
3
72
20
73
16
40
0
40
0
40
0
40
0
40
0.0131876146657038
40
0.0131876146657038
40
0.102897831514278
40
0.102897831514278
40
0.282318265211423
40
0.282318265211423
40
0.461738698908567
40
0.461738698908567
40
0.641159132605711
40
0.641159132605711
40
0.820579566302855
40
0.820579566302855
40
1
40
1
40
1
40
1
41
1
10
8.78328099891462
20
-1.78140843003365
30
0
41
1
10
8.76458493313541
20
-1.78736033487107
30
0
41
1
10
8.7458833370423
20
-1.79328130194128
30
0
41
1
10
8.5999212935784
20
-1.83924257579824
30
-1E-16
41
1
10
8.47252208133224
20
-1.87809844489001
30
-1E-16
41
1
10
8.09161318037178
20
-1.98872468672158
30
-1E-16
41
1
10
7.83834916979259
20
-2.0546850204795
30
-1E-16
41
1
10
7.33351476142221
20
-2.17201645086038
30
-1E-16
41
1
10
7.0821453163685
20
-2.22344618383062
30
-1E-16
41
1
10
6.57873131316555
20
-2.30940384026459
30
0
41
1
10
6.32713171591686
20
-2.3444052832927
30
0
41
1
10
5.82367156100307
20
-2.39799746046052
30
0
41
1
10
5.57138515592072
20
-2.41641757116582
30
0
41
1
10
5.06604949114774
20
-2.43627151260506
30
0
41
1
10
4.81246636824014
20
-2.4374821481625
30
0
41
1
10
4.55706361168799
20
-2.43009729915525
30
0
0
SPLINE
5
C1
100
AcDbEntity
8
1
62
256
6
ByLayer
370
18
48
1
60
0
100
AcDbSpline
70
4
71
3
72
16
73
12
40
0
40
0
40
0
40
0
40
0.212967626191727
40
0.212967626191727
40
0.425935252383452
40
0.425935252383452
40
0.638902878575178
40
0.638902878575178
40
0.851870504766903
40
0.851870504766903
40
1
40
1
40
1
40
1
41
1
10
29.0225982300304
20
0.36564454819225
30
0
41
1
10
29.0105019461326
20
0.375188951125267
30
0
41
1
10
28.9988125383741
20
0.384170709934409
30
0
41
1
10
28.9758899614145
20
0.401603116122061
30
0
41
1
10
28.9646900205984
20
0.409993291775919
30
0
41
1
10
28.9438758472633
20
0.424795494858728
30
0
41
1
10
28.9342044689547
20
0.431278810835863
30
0
41
1
10
28.91668802931
20
0.441967138714347
30
0
41
1
10
28.9090468201738
20
0.445917878040262
30
0
41
1
10
28.8973897937283
20
0.451185003230648
30
0
41
1
10
28.8925631707995
20
0.453396714601439
30
0
41
1
10
28.88824775058
20
0.455024463799816
30
0
0
SPLINE
5
C2
100
AcDbEntity
8
1
62
256
6
ByLayer
370
18
48
1
60
0
100
AcDbSpline
70
4
71
3
72
22
73
18
40
0
40
0
40
0
40
0
40
0.107985536213586
40
0.107985536213586
40
0.215971072427173
40
0.215971072427173
40
0.431942144854346
40
0.431942144854346
40
0.539927681067931
40
0.539927681067931
40
0.647913217281517
40
0.647913217281517
40
0.86388428970869
40
0.86388428970869
40
0.971869825922276
40
0.971869825922276
40
1
40
1
40
1
40
1
41
1
10
29.1187847720148
20
-2.31755878641181
30
0
41
1
10
28.8517737122307
20
-2.30164953490808
30
0
41
1
10
28.5859954497008
20
-2.27708751279721
30
0
41
1
10
28.0560441486218
20
-2.21005857144539
30
0
41
1
10
27.791828005931
20
-2.16786230273755
30
0
41
1
10
27.000116241659
20
-2.01710221336123
30
-1E-16
41
1
10
26.4734332580358
20
-1.88423448967509
30
-1E-16
41
1
10
25.6795981920797
20
-1.64338490511434
30
1E-16
41
1
10
25.4142646071755
20
-1.55611584473579
30
1E-16
41
1
10
24.8811403456411
20
-1.36939805976166
30
1E-16
41
1
10
24.6127463972498
20
-1.26971711721171
30
1E-16
41
1
10
23.8103613662573
20
-0.957848366935082
30
1E-16
41
1
10
23.2773341601364
20
-0.731976185677468
30
0
41
1
10
22.4741529570341
20
-0.379995638832099
30
0
41
1
10
22.2064485430705
20
-0.260731299421735
30
0
41
1
10
21.8709405332237
20
-0.110498015643657
30
0
41
1
10
21.8016666043917
20
-0.0794414547597739
30
0
41
1
10
21.7324457521703
20
-0.0484001001258036
30
0
0
SPLINE
5
C3
100
AcDbEntity
8
1
62
256
6
ByLayer
370
18
48
1
60
0
100
AcDbSpline
70
4
71
3
72
10
73
6
40
0
40
0
40
0
40
0
40
0.700309938274596
40
0.700309938274596
40
1
40
1
40
1
40
1
41
1
10
8.03860456584545
20
-1.51222243008132
30
0
41
1
10
7.21817957705994
20
-1.72404391354337
30
0
41
1
10
6.40297956951454
20
-1.93869954928786
30
0
41
1
10
5.24661153012192
20
-2.24584889869553
30
0
41
1
10
4.90119571830772
20
-2.33793774131493
30
0
41
1
10
4.55686392851183
20
-2.42995639034663
30
0
0
SPLINE
5
C4
100
AcDbEntity
8
1
62
256
6
ByLayer
370
18
48
1
60
0
100
AcDbSpline
70
4
71
3
72
8
73
4
40
0
40
0
40
0
40
0
40
1
40
1
40
1
40
1
41
1
10
3.64491851140536
20
2.42390058832422
30
0
41
1
10
3.64438270976973
20
2.38686810888345
30
0
41
1
10
3.64384015961951
20
2.34983645177462
30
0
41
1
10
3.64329090039556
20
2.31280566490733
30
0
0
SPLINE
5
C5
100
AcDbEntity
8
1
62
256
6
ByLayer
370
18
48
1
60
0
100
AcDbSpline
70
4
71
3
72
8
73
4
40
0
40
0
40
0
40
0
40
1
40
1
40
1
40
1
41
1
10
29.1187847720148
20
-2.31755878641175
30
0
41
1
10
29.1151110558754
20
-2.32802501293938
30
0
41
1
10
29.1114506634332
20
-2.33849090953322
30
0
41
1
10
29.1078038754852
20
-2.3489565523987
30
0
0
SPLINE
5
C6
100
AcDbEntity
8
1
62
256
6
ByLayer
370
18
48
1
60
0
100
AcDbSpline
70
4
71
3
72
8
73
4
40
0
40
0
40
0
40
0
40
1
40
1
40
1
40
1
41
1
10
29.7920441780457
20
-0.764221370020408
30
0
41
1
10
29.8618570998835
20
-0.568062009717039
30
0
41
1
10
29.9299946361737
20
-0.371300179772248
30
0
41
1
10
29.9964339441689
20
-0.17392766592053
30
0
0
SPLINE
5
C7
100
AcDbEntity
8
1
62
256
6
ByLayer
370
18
48
1
60
0
100
AcDbSpline
70
4
71
3
72
18
73
14
40
0
40
0
40
0
40
0
40
0.249999999999994
40
0.249999999999994
40
0.374999999999995
40
0.374999999999995
40
0.499999999999996
40
0.499999999999996
40
0.749999999999998
40
0.749999999999998
40
0.874999999999999
40
0.874999999999999
40
1
40
1
40
1
40
1
41
1
10
29.1512147512201
20
2.34685075881606
30
0
41
1
10
29.199227058369
20
2.21039363019875
30
0
41
1
10
29.2466920939027
20
2.07301295287934
30
0
41
1
10
29.3179361602028
20
1.86624748339239
30
0
41
1
10
29.3416747017348
20
1.79725005155777
30
0
41
1
10
29.3892459837196
20
1.6591618273159
30
0
41
1
10
29.4136434082892
20
1.58978700227291
30
0
41
1
10
29.4892175355001
20
1.38493549656289
30
0
41
1
10
29.5426804285031
20
1.2523458383489
30
0
41
1
10
29.630984555805
20
1.06062936479131
30
0
41
1
10
29.6619386320398
20
0.997658404176406
30
0
41
1
10
29.7254970014098
20
0.877322862159843
30
0
41
1
10
29.7582406718017
20
0.819607667081783
30
0
41
1
10
29.7920441780457
20
0.764221370020465
30
0
0
SPLINE
5
C8
100
AcDbEntity
8
1
62
256
6
ByLayer
370
18
48
1
60
0
100
AcDbSpline
70
4
71
3
72
8
73
4
40
0
40
0
40
0
40
0
40
1
40
1
40
1
40
1
41
1
10
28.9871312417845
20
-2.42015692060445
30
0
41
1
10
28.9909338831881
20
-2.43814004219252
30
0
41
1
10
28.9941986916875
20
-2.44813307706897
30
0
41
1
10
28.9970140225521
20
-2.44970734681681
30
0
0
SPLINE
5
C9
100
AcDbEntity
8
1
62
256
6
ByLayer
370
18
48
1
60
0
100
AcDbSpline
70
4
71
3
72
16
73
12
40
0
40
0
40
0
40
0
40
0.226024792144511
40
0.226024792144511
40
0.454343480378489
40
0.454343480378489
40
0.651224449544707
40
0.651224449544707
40
0.825161547347798
40
0.825161547347798
40
1
40
1
40
1
40
1
41
1
10
29.1212539591536
20
-2.30636075014817
30
0
41
1
10
29.1213544470388
20
-2.30652513932972
30
0
41
1
10
29.1213988645144
20
-2.30686765383263
30
0
41
1
10
29.1213462485131
20
-2.3079216761372
30
0
41
1
10
29.1212456663436
20
-2.30865728686567
30
0
41
1
10
29.1209175609401
20
-2.310318285139
30
0
41
1
10
29.1207037647799
20
-2.31122983704958
30
0
41
1
10
29.1202215809562
20
-2.31304586760845
30
0
41
1
10
29.1199562855
20
-2.31396229015925
30
0
41
1
10
29.1193934065466
20
-2.31577441951276
30
0
41
1
10
29.119089008595
20
-2.3166920321919
30
0
41
1
10
29.1187847720148
20
-2.31755878641181
30
0
0
SPLINE
5
CA
100
AcDbEntity
8
1
62
256
6
ByLayer
370
18
48
1
60
0
100
AcDbSpline
70
4
71
3
72
10
73
6
40
0
40
0
40
0
40
0
40
0.5
40
0.5
40
1
40
1
40
1
40
1
41
1
10
3.50204610487788
20
2.43039684631981
30
0
41
1
10
3.50204610487788
20
2.42855500263255
30
0
41
1
10
3.51996786715841
20
2.42596010327429
30
0
41
1
10
3.57719468377096
20
2.42277379805881
30
0
41
1
10
3.61430388235001
20
2.42255398321728
30
0
41
1
10
3.64491851140536
20
2.42390058832422
30
0
0
SPLINE
5
CB
100
AcDbEntity
8
1
62
256
6
ByLayer
370
18
48
1
60
0
100
AcDbSpline
70
4
71
3
72
50
73
46
40
0
40
0
40
0
40
0
40
0.0934056539898524
40
0.0934056539898524
40
0.140108480984779
40
0.140108480984779
40
0.186811307979705
40
0.186811307979705
40
0.233514134974631
40
0.233514134974631
40
0.280216961969557
40
0.280216961969557
40
0.326919788964483
40
0.326919788964483
40
0.350271202461947
40
0.350271202461947
40
0.373622615959411
40
0.373622615959411
40
0.420325442954338
40
0.420325442954338
40
0.467028269949265
40
0.467028269949265
40
0.513731096944192
40
0.513731096944192
40
0.56043392393912
40
0.56043392393912
40
0.607136750934047
40
0.607136750934047
40
0.653839577928974
40
0.653839577928974
40
0.700542404923901
40
0.700542404923901
40
0.747245231918828
40
0.747245231918828
40
0.793948058913756
40
0.793948058913756
40
0.840650885908683
40
0.840650885908683
40
0.88735371290361
40
0.88735371290361
40
0.934056539898537
40
0.934056539898537
40
0.980759366893464
40
0.980759366893464
40
1
40
1
40
1
40
1
41
1
10
3.64491851140536
20
2.42390058832422
30
0
41
1
10
4.17158680387905
20
2.44706644837865
30
0
41
1
10
4.69802644607938
20
2.43188383897029
30
0
41
1
10
5.48980983722339
20
2.35455864142386
30
0
41
1
10
5.75412469723614
20
2.31928874042322
30
0
41
1
10
6.27938467088327
20
2.23167442197527
30
0
41
1
10
6.54104071075892
20
2.17938079777338
30
1E-16
41
1
10
7.06349279867567
20
2.05932272625645
30
1E-16
41
1
10
7.32426285385969
20
1.99154630816332
30
1E-16
41
1
10
7.84555549475806
20
1.84140506597666
30
1E-16
41
1
10
8.10574403156417
20
1.75851203774698
30
-1E-16
41
1
10
8.62763658181723
20
1.58049058681186
30
-1E-16
41
1
10
8.88943512357946
20
1.48562617346565
30
-1E-16
41
1
10
9.28332412530023
20
1.33429829226034
30
-1E-16
41
1
10
9.41482604565658
20
1.282353905055
30
-1E-16
41
1
10
9.67827842347148
20
1.17542084912924
30
-1E-16
41
1
10
9.81034361951598
20
1.12042042137225
30
-1E-16
41
1
10
10.2053046115364
20
0.953771816051812
30
-1E-16
41
1
10
10.4677494759165
20
0.839906155464575
30
-1E-16
41
1
10
10.9909347621366
20
0.606750699442188
30
0
41
1
10
11.251547990768
20
0.487179921289368
30
0
41
1
10
11.7723822378034
20
0.245421672149689
30
0
41
1
10
12.0325575302323
20
0.123135798545348
30
0
41
1
10
12.5538396545817
20
-0.121147957299854
30
0
41
1
10
12.8151474887446
20
-0.242694556899721
30
0
41
1
10
13.338907336089
20
-0.485033621722266
30
0
41
1
10
13.6012274227919
20
-0.60613437005216
30
0
41
1
10
14.129021017224
20
-0.843148572268319
30
1E-16
41
1
10
14.3924236556134
20
-0.957475668309712
30
1E-16
41
1
10
14.916448234794
20
-1.17824269721777
30
1E-16
41
1
10
15.1772526824642
20
-1.28481520125999
30
1E-16
41
1
10
15.6985380718576
20
-1.48641890097412
30
1E-16
41
1
10
15.959112121423
20
-1.58136012180543
30
1E-16
41
1
10
16.4800318413386
20
-1.75973327031022
30
1E-16
41
1
10
16.7403149773399
20
-1.84318439364202
30
-1E-16
41
1
10
17.2627038116084
20
-1.99520450874579
30
-1E-16
41
1
10
17.5248921864649
20
-2.06373891877143
30
-1E-16
41
1
10
18.05128492716
20
-2.18565485778348
30
-1E-16
41
1
10
18.3157574780996
20
-2.23896501451571
30
0
41
1
10
18.840634109489
20
-2.3272636338601
30
0
41
1
10
19.1019575766748
20
-2.36247713584032
30
0
41
1
10
19.6239597176608
20
-2.41457467279122
30
0
41
1
10
19.8846334746934
20
-2.43154961929236
30
0
41
1
10
20.2522043732485
20
-2.44273281254689
30
0
41
1
10
20.3593797239536
20
-2.44443546057613
30
0
41
1
10
20.4665763319972
20
-2.44457788512003
30
0
0
SPLINE
5
CC
100
AcDbEntity
8
1
62
256
6
ByLayer
370
18
48
1
60
0
100
AcDbSpline
70
4
71
3
72
16
73
12
40
0
40
0
40
0
40
0
40
0.388009349235994
40
0.388009349235994
40
0.582014023853989
40
0.582014023853989
40
0.776018698471984
40
0.776018698471984
40
0.970023373089979
40
0.970023373089979
40
1
40
1
40
1
40
1
41
1
10
3.64329090039558
20
2.31280566490733
30
0
41
1
10
4.17099778913021
20
2.33854400076797
30
0
41
1
10
4.69550618384858
20
2.32206912893295
30
0
41
1
10
5.48162820745802
20
2.24760977009907
30
0
41
1
10
5.7432634754677
20
2.21499407874441
30
0
41
1
10
6.26731829682692
20
2.13286981845448
30
0
41
1
10
6.52982871681931
20
2.08318396759299
30
1E-16
41
1
10
7.05695003580081
20
1.96749026033581
30
1E-16
41
1
10
7.32229569909561
20
1.90125679104227
30
1E-16
41
1
10
7.62671123731684
20
1.81728671276193
30
0
41
1
10
7.66741914086674
20
1.80589466235716
30
0
41
1
10
7.70809659957271
20
1.79435055229703
30
0
0
SPLINE
5
CD
100
AcDbEntity
8
1
62
256
6
ByLayer
370
18
48
1
60
0
100
AcDbSpline
70
4
71
3
72
20
73
16
40
0
40
0
40
0
40
0
40
0.0467440423466198
40
0.0467440423466198
40
0.276444311430369
40
0.276444311430369
40
0.506144580514118
40
0.506144580514118
40
0.735844849597867
40
0.735844849597867
40
0.850694984139744
40
0.850694984139744
40
0.965545118681622
40
0.965545118681622
40
1
40
1
40
1
40
1
41
1
10
8.99824632039724
20
1.37721684217684
30
-1E-16
41
1
10
9.05137858704748
20
1.35809731539513
30
-1E-16
41
1
10
9.10449614528017
20
1.33876873714149
30
-1E-16
41
1
10
9.41855196317309
20
1.22328469718167
30
-1E-16
41
1
10
9.67887832622534
20
1.12233433779821
30
-1E-16
41
1
10
10.2004993650604
20
0.912611613947121
30
-1E-16
41
1
10
10.4619946684727
20
0.803979408662229
30
0
41
1
10
10.9862550487913
20
0.580797681345501
30
0
41
1
10
11.248849632248
20
0.465999797932
30
0
41
1
10
11.6445391371285
20
0.290822120338021
30
0
41
1
10
11.7770091676688
20
0.231892684595181
30
0
41
1
10
12.0410593202099
20
0.113919927640154
30
0
41
1
10
12.1727365208764
20
0.0548234668647183
30
0
41
1
10
12.3436320286089
20
-0.0215899567443785
30
0
41
1
10
12.3830498967409
20
-0.0391936854827861
30
0
41
1
10
12.4224488149369
20
-0.0567686383522243
30
0
0
SPLINE
5
CE
100
AcDbEntity
8
1
62
256
6
ByLayer
370
18
48
1
60
0
100
AcDbSpline
70
4
71
3
72
8
73
4
40
0
40
0
40
0
40
0
40
1
40
1
40
1
40
1
41
1
10
3.64491851140536
20
-2.42390058832422
30
0
41
1
10
3.80383645112559
20
-2.43089070108456
30
0
41
1
10
3.9627335726432
20
-2.43438925358609
30
0
41
1
10
4.12165505823563
20
-2.43445066853755
30
0
0
SPLINE
5
CF
100
AcDbEntity
8
1
62
256
6
ByLayer
370
18
48
1
60
0
100
AcDbSpline
70
4
71
3
72
30
73
26
40
0
40
0
40
0
40
0
40
0.0200087650539829
40
0.0200087650539829
40
0.101674701299488
40
0.101674701299488
40
0.183340637544992
40
0.183340637544992
40
0.265006573790497
40
0.265006573790497
40
0.305839541913248
40
0.305839541913248
40
0.346672510036
40
0.346672510036
40
0.428338446281501
40
0.428338446281501
40
0.510004382527002
40
0.510004382527002
40
0.673336255018004
40
0.673336255018004
40
0.755002191263505
40
0.755002191263505
40
0.836668127509005
40
0.836668127509005
40
1
40
1
40
1
40
1
41
1
10
19.171047291201
20
2.36773240192335
30
0
41
1
10
19.2350448662091
20
2.37521147148379
30
0
41
1
10
19.2990114332119
20
2.3821437612547
30
0
41
1
10
19.6239597176649
20
2.41457467279153
30
0
41
1
10
19.8846334746976
20
2.43154961929258
30
0
41
1
10
20.4052794965223
20
2.44739006014927
30
0
41
1
10
20.6651751346722
20
2.44611716683122
30
0
41
1
10
21.1867944003917
20
2.42518805044793
30
0
41
1
10
21.4483552806061
20
2.40565777236506
30
0
41
1
10
21.8417337101127
20
2.36244486819936
30
0
41
1
10
21.9729977678541
20
2.34567888645589
30
0
41
1
10
22.2361758015807
20
2.30752951465027
30
0
41
1
10
22.3683023294873
20
2.28616300314343
30
0
41
1
10
22.7634636297784
20
2.21609537508854
30
1E-16
41
1
10
23.0260447049433
20
2.16138702174456
30
1E-16
41
1
10
23.548728579386
20
2.03543406966514
30
1E-16
41
1
10
23.8085918096836
20
1.96372212174501
30
1E-16
41
1
10
24.5894754843985
20
1.72978833908974
30
-1E-16
41
1
10
25.1103871828584
20
1.54757812101465
30
-1E-16
41
1
10
25.8950802222531
20
1.23902223528046
30
-1E-16
41
1
10
26.1571273882543
20
1.13002540746572
30
-1E-16
41
1
10
26.6845230905292
20
0.904020364891011
30
-1E-16
41
1
10
26.9480440427647
20
0.787545160700859
30
0
41
1
10
27.7366130778745
20
0.431710096497284
30
0
41
1
10
28.2608840281597
20
0.185526074822604
30
0
41
1
10
28.7866208202483
20
-0.0636023023362213
30
0
0
SPLINE
5
D0
100
AcDbEntity
8
1
62
256
6
ByLayer
370
18
48
1
60
0
100
AcDbSpline
70
4
71
3
72
28
73
24
40
0
40
0
40
0
40
0
40
0.0210811760001588
40
0.0210811760001588
40
0.0910039491430049
40
0.0910039491430049
40
0.160926722285851
40
0.160926722285851
40
0.300772268571544
40
0.300772268571544
40
0.370695041714389
40
0.370695041714389
40
0.440617814857234
40
0.440617814857234
40
0.580463361142925
40
0.580463361142925
40
0.720308907428617
40
0.720308907428617
40
0.790231680571462
40
0.790231680571462
40
0.860154453714307
40
0.860154453714307
40
1
40
1
40
1
40
1
41
1
10
14.9314861761914
20
-2.34278595664006
30
0
41
1
10
14.8512854280548
20
-2.35330642505519
30
0
41
1
10
14.7709759307656
20
-2.36300718101077
30
0
41
1
10
14.4237619334801
20
-2.40127569327888
30
0
41
1
10
14.1572230280112
20
-2.42124035293014
30
0
41
1
10
13.6272112057721
20
-2.44205257686056
30
0
41
1
10
13.3631701172533
20
-2.44295104303487
30
0
41
1
10
12.5721642009835
20
-2.41754898381356
30
0
41
1
10
12.0463691197577
20
-2.36313330425341
30
0
41
1
10
11.2537716492571
20
-2.22796736127486
30
0
41
1
10
10.9888996284891
20
-2.17401167942867
30
-1E-16
41
1
10
10.4566822991241
20
-2.04902892575552
30
-1E-16
41
1
10
10.1890018969534
20
-1.97781600613718
30
-1E-16
41
1
10
9.39207487936397
20
-1.74340692100154
30
1E-16
41
1
10
8.86519031428836
20
-1.55875631485557
30
1E-16
41
1
10
7.81154410378932
20
-1.14803626132428
30
1E-16
41
1
10
7.28483754566929
20
-0.921858372762642
30
1E-16
41
1
10
6.48836338004088
20
-0.563930680837956
30
0
41
1
10
6.22100184442391
20
-0.441178063980374
30
0
41
1
10
5.68762702799444
20
-0.193651662536922
30
0
41
1
10
5.42171330514753
20
-0.0690006468078082
30
0
41
1
10
4.62457226473373
20
0.303893066527905
30
0
41
1
10
4.09387347542602
20
0.55092059097484
30
0
41
1
10
3.55967204139125
20
0.78728724819166
30
0
0
SPLINE
5
D1
100
AcDbEntity
8
1
62
256
6
ByLayer
370
18
48
1
60
0
100
AcDbSpline
70
4
71
3
72
28
73
24
40
0
40
0
40
0
40
0
40
0.124999999999999
40
0.124999999999999
40
0.1875
40
0.1875
40
0.25
40
0.25
40
0.375
40
0.375
40
0.4375
40
0.4375
40
0.5
40
0.5
40
0.624999999999999
40
0.624999999999999
40
0.687499999999999
40
0.687499999999999
40
0.749999999999999
40
0.749999999999999
40
0.875
40
0.875
40
1
40
1
40
1
40
1
41
1
10
28.8479122470816
20
-0.0988647972216654
30
0
41
1
10
28.8519850457791
20
-0.235535644942445
30
0
41
1
10
28.861294737983
20
-0.369325851296367
30
0
41
1
10
28.8794822326402
20
-0.566176060416268
30
0
41
1
10
28.8862625590345
20
-0.631148509715644
30
0
41
1
10
28.900784750466
20
-0.759829892594041
30
0
41
1
10
28.9085624218446
20
-0.823812533864071
30
1E-16
41
1
10
28.9324522350806
20
-1.01178147029773
30
1E-16
41
1
10
28.948945474292
20
-1.13097777141803
30
1E-16
41
1
10
28.9726037779084
20
-1.30106098870291
30
1E-16
41
1
10
28.9803206260517
20
-1.35629313072136
30
1E-16
41
1
10
28.9952113191194
20
-1.46378930592471
30
1E-16
41
1
10
29.0024153684664
20
-1.51628283012613
30
1E-16
41
1
10
29.022679253453
20
-1.66660946993028
30
1E-16
41
1
10
29.0344271901854
20
-1.75785531974884
30
1E-16
41
1
10
29.0497194192259
20
-1.88150411114569
30
-1E-16
41
1
10
29.0544380319765
20
-1.92050408139471
30
-1E-16
41
1
10
29.0632913692134
20
-1.99395470064243
30
-1E-16
41
1
10
29.0674388931082
20
-2.02850562132397
30
-1E-16
41
1
10
29.0791933249946
20
-2.12330367105014
30
0
41
1
10
29.086158026897
20
-2.17539504006331
30
0
41
1
10
29.1015513996335
20
-2.25771741368928
30
0
41
1
10
29.1100400493443
20
-2.28801579788757
30
0
41
1
10
29.1212539591537
20
-2.30636075014817
30
0
0
SPLINE
5
D2
100
AcDbEntity
8
1
62
256
6
ByLayer
370
18
48
1
60
0
100
AcDbSpline
70
4
71
3
72
16
73
12
40
0
40
0
40
0
40
0
40
0.163060659491682
40
0.163060659491682
40
0.372295494618762
40
0.372295494618762
40
0.581530329745841
40
0.581530329745841
40
0.790765164872921
40
0.790765164872921
40
1
40
1
40
1
40
1
41
1
10
28.8886264112653
20
0.447965897754756
30
0
41
1
10
28.9026282622559
20
0.461277386807893
30
0
41
1
10
28.9189539864368
20
0.475481300751625
30
0
41
1
10
28.9616339575102
20
0.509702227841757
30
0
41
1
10
28.9894883489503
20
0.530138804850054
30
0
41
1
10
29.0511790939634
20
0.569948937827348
30
0
41
1
10
29.0858077182563
20
0.589880400521423
30
0
41
1
10
29.1599485954587
20
0.625984067691689
30
0
41
1
10
29.1992131684507
20
0.642063386750351
30
0
41
1
10
29.2824830903187
20
0.668485966424669
30
0
41
1
10
29.325848997569
20
0.678545455960347
30
0
41
1
10
29.369904350765
20
0.684949269153691
30
0
0
SPLINE
5
D3
100
AcDbEntity
8
1
62
256
6
ByLayer
370
18
48
1
60
0
100
AcDbSpline
70
4
71
3
72
8
73
4
40
0
40
0
40
0
40
0
40
1
40
1
40
1
40
1
41
1
10
29.7920441780456
20
0.764221370020408
30
0
41
1
10
29.8618570998791
20
0.568062009729601
30
0
41
1
10
29.929994636165
20
0.371300179797458
30
0
41
1
10
29.9964339441561
20
0.173927665958445
30
0
0
SPLINE
5
D4
100
AcDbEntity
8
1
62
256
6
ByLayer
370
18
48
1
60
0
100
AcDbSpline
70
4
71
3
72
36
73
32
40
0
40
0
40
0
40
0
40
0.10225735286526
40
0.10225735286526
40
0.153386029297891
40
0.153386029297891
40
0.204514705730521
40
0.204514705730521
40
0.306772058595783
40
0.306772058595783
40
0.357900735028413
40
0.357900735028413
40
0.409029411461044
40
0.409029411461044
40
0.511286764326305
40
0.511286764326305
40
0.613544117191565
40
0.613544117191565
40
0.63910845540788
40
0.63910845540788
40
0.664672793624195
40
0.664672793624195
40
0.715801470056825
40
0.715801470056825
40
0.818058822922085
40
0.818058822922085
40
0.920316175787346
40
0.920316175787346
40
0.971444852219976
40
0.971444852219976
40
1
40
1
40
1
40
1
41
1
10
28.9871312417866
20
-2.42015692060377
30
0
41
1
10
28.4540888935484
20
-2.38072818933492
30
0
41
1
10
27.9230846139706
20
-2.30333346798943
30
0
41
1
10
27.123427567752
20
-2.13489744048195
30
-1E-16
41
1
10
26.8562990494372
20
-2.06995587521044
30
-1E-16
41
1
10
26.3255607177228
20
-1.925410607418
30
-1E-16
41
1
10
26.0613250817963
20
-1.84554530264359
30
-1E-16
41
1
10
25.2700944452232
20
-1.58618673645088
30
1E-16
41
1
10
24.7444733482205
20
-1.38710454311541
30
1E-16
41
1
10
23.9526839753465
20
-1.06002641464175
30
1E-16
41
1
10
23.6882425254764
20
-0.946162177967551
30
1E-16
41
1
10
23.1570837836255
20
-0.711078687730492
30
0
41
1
10
22.8895000129771
20
-0.589479544852679
30
0
41
1
10
22.0918931273787
20
-0.221512808473733
30
0
41
1
10
21.5650669225561
20
0.0291279316281816
30
0
41
1
10
20.5117040462283
20
0.520231646806394
30
0
41
1
10
19.9857172410149
20
0.761886831726599
30
0
41
1
10
19.323039672192
20
1.04606044659209
30
-1E-16
41
1
10
19.1902610802406
20
1.10203689630973
30
-1E-16
41
1
10
18.9241168129281
20
1.21205433353245
30
-1E-16
41
1
10
18.790504912994
20
1.26617690555358
30
-1E-16
41
1
10
18.3906231314284
20
1.42417262133975
30
-1E-16
41
1
10
18.1253589413597
20
1.52370433318907
30
-1E-16
41
1
10
17.331871677968
20
1.80251019186127
30
-1E-16
41
1
10
16.8060696987847
20
1.96213988049712
30
1E-16
41
1
10
15.7522543289636
20
2.21747765116078
30
1E-16
41
1
10
15.2241062853301
20
2.31306499933535
30
0
41
1
10
14.4237619334801
20
2.40127569327888
30
0
41
1
10
14.1572230280112
20
2.42124035293014
30
0
41
1
10
13.7442124454903
20
2.43745823405729
30
0
41
1
10
13.5965087191302
20
2.44030440223452
30
0
41
1
10
13.4490027437459
20
2.44020967626136
30
0
0
SPLINE
5
D5
100
AcDbEntity
8
1
62
256
6
ByLayer
370
18
48
1
60
0
100
AcDbSpline
70
4
71
3
72
8
73
4
40
0
40
0
40
0
40
0
40
1
40
1
40
1
40
1
41
1
10
29.1466495628921
20
2.34992977478683
30
0
41
1
10
29.1481712638928
20
2.3489035384635
30
0
41
1
10
29.1496929932831
20
2.34787719976447
30
0
41
1
10
29.1512147512205
20
2.34685075881575
30
0
0
SPLINE
5
D6
100
AcDbEntity
8
1
62
256
6
ByLayer
370
18
48
1
60
0
100
AcDbSpline
70
4
71
3
72
8
73
4
40
0
40
0
40
0
40
0
40
1
40
1
40
1
40
1
41
1
10
29.5208790890054
20
-0.395885133486019
30
0
41
1
10
29.3855344929374
20
-0.170007578819934
30
0
41
1
10
29.2206883330461
20
0.0827011066449472
30
0
41
1
10
29.0225982300307
20
0.365644548192137
30
0
0
SPLINE
5
D7
100
AcDbEntity
8
1
62
256
6
ByLayer
370
18
48
1
60
0
100
AcDbSpline
70
4
71
3
72
30
73
26
40
0
40
0
40
0
40
0
40
0.0723561846563724
40
0.0723561846563724
40
0.114521812626536
40
0.114521812626536
40
0.1566874405967
40
0.1566874405967
40
0.24101869653703
40
0.24101869653703
40
0.32534995247736
40
0.32534995247736
40
0.409681208417691
40
0.409681208417691
40
0.49401246435802
40
0.49401246435802
40
0.57834372029835
40
0.57834372029835
40
0.66267497623868
40
0.66267497623868
40
0.74700623217901
40
0.74700623217901
40
0.83133748811934
40
0.83133748811934
40
1
40
1
40
1
40
1
41
1
10
12.9813673774388
20
-0.31433747326335
30
0
41
1
10
12.7568222302614
20
-0.215624018925212
30
0
41
1
10
12.5317375758281
20
-0.116143123590888
30
0
41
1
10
12.1744870368367
20
0.0429069002245797
30
0
41
1
10
12.0427335324431
20
0.10179380682203
30
0
41
1
10
11.7785362787205
20
0.219368249275931
30
0
41
1
10
11.6459816205849
20
0.278114459101545
30
0
41
1
10
11.2500150295722
20
0.45279399599039
30
0
41
1
10
10.9872344804939
20
0.567304775314909
30
0
41
1
10
10.4626007531299
20
0.790017158058447
30
0
41
1
10
10.2009188441531
20
0.898468344414312
30
-1E-16
41
1
10
9.678919809306
20
1.10794347472745
30
-1E-16
41
1
10
9.41840025983066
20
1.2087944969586
30
-1E-16
41
1
10
8.89612787063874
20
1.40061834461835
30
-1E-16
41
1
10
8.6346661447173
20
1.4917871221044
30
-1E-16
41
1
10
8.11086562918865
20
1.66217024957166
30
-1E-16
41
1
10
7.8484263356188
20
1.74143260642612
30
-1E-16
41
1
10
7.32075630496789
20
1.88716773107595
30
1E-16
41
1
10
7.05525409471943
20
1.95359134432411
30
1E-16
41
1
10
6.52778585408115
20
2.06975751140692
30
1E-16
41
1
10
6.26509475796385
20
2.11972046136447
30
0
41
1
10
5.7406730644507
20
2.20247813141174
30
0
41
1
10
5.47884690240767
20
2.23543952647222
30
0
41
1
10
4.69216904790457
20
2.31103587819635
30
0
41
1
10
4.16730244688219
20
2.32840868981634
30
0
41
1
10
3.63923978346642
20
2.30367887993992
30
0
0
SPLINE
5
D8
100
AcDbEntity
8
1
62
256
6
ByLayer
370
18
48
1
60
0
100
AcDbSpline
70
4
71
3
72
10
73
6
40
0
40
0
40
0
40
0
40
0.5
40
0.5
40
1
40
1
40
1
40
1
41
1
10
3.50204610487788
20
-2.43039684631981
30
0
41
1
10
3.50204610487788
20
-2.42855500263255
30
0
41
1
10
3.51996786715841
20
-2.42596010327429
30
0
41
1
10
3.57719468377098
20
-2.42277379805881
30
0
41
1
10
3.61430388235004
20
-2.42255398321728
30
0
41
1
10
3.64491851140536
20
-2.42390058832422
30
0
0
SPLINE
5
D9
100
AcDbEntity
8
1
62
256
6
ByLayer
370
18
48
1
60
0
100
AcDbSpline
70
4
71
3
72
76
73
72
40
0
40
0
40
0
40
0
40
0.0130104484690422
40
0.0130104484690422
40
0.0312323987626949
40
0.0312323987626949
40
0.0676762993500014
40
0.0676762993500014
40
0.0858982496436545
40
0.0858982496436545
40
0.104120199937308
40
0.104120199937308
40
0.140564100524615
40
0.140564100524615
40
0.177008001111922
40
0.177008001111922
40
0.213451901699229
40
0.213451901699229
40
0.249895802286536
40
0.249895802286536
40
0.286339702873844
40
0.286339702873844
40
0.322783603461151
40
0.322783603461151
40
0.359227504048458
40
0.359227504048458
40
0.395671404635765
40
0.395671404635765
40
0.413893354929419
40
0.413893354929419
40
0.432115305223072
40
0.432115305223072
40
0.450337255516726
40
0.450337255516726
40
0.46855920581038
40
0.46855920581038
40
0.505003106397686
40
0.505003106397686
40
0.541447006984992
40
0.541447006984992
40
0.559668957278646
40
0.559668957278646
40
0.577890907572299
40
0.577890907572299
40
0.614334808159606
40
0.614334808159606
40
0.632556758453259
40
0.632556758453259
40
0.650778708746912
40
0.650778708746912
40
0.687222609334218
40
0.687222609334218
40
0.723666509921525
40
0.723666509921525
40
0.760110410508831
40
0.760110410508831
40
0.796554311096137
40
0.796554311096137
40
0.814776261389791
40
0.814776261389791
40
0.832998211683444
40
0.832998211683444
40
0.869442112270752
40
0.869442112270752
40
0.90588601285806
40
0.90588601285806
40
0.942329913445368
40
0.942329913445368
40
0.978773814032676
40
0.978773814032676
40
1
40
1
40
1
40
1
41
1
10
25.6551065868359
20
-1.60758997769625
30
1E-16
41
1
10
25.5646284752024
20
-1.63971101448911
30
1E-16
41
1
10
25.4739833798876
20
-1.67109269570975
30
1E-16
41
1
10
25.2559434922479
20
-1.74458348356222
30
1E-16
41
1
10
25.1284105385669
20
-1.78585551037995
30
1E-16
41
1
10
24.7477807639897
20
-1.90509632130937
30
-1E-16
41
1
10
24.4954035431295
20
-1.97800707333982
30
-1E-16
41
1
10
24.1171500927235
20
-2.07546961288242
30
-1E-16
41
1
10
23.9911512209135
20
-2.10604616492552
30
-1E-16
41
1
10
23.7397449952903
20
-2.16383170549551
30
-1E-16
41
1
10
23.6142366810378
20
-2.19090845319715
30
-1E-16
41
1
10
23.2374934792378
20
-2.26592358337155
30
0
41
1
10
22.9860219550918
20
-2.30777000264595
30
0
41
1
10
22.4836131497436
20
-2.37593871285989
30
0
41
1
10
22.232083730526
20
-2.4017541067814
30
0
41
1
10
21.7268635483664
20
-2.43622085724795
30
0
41
1
10
21.473958423901
20
-2.44508129975313
30
0
41
1
10
20.9650457019345
20
-2.44505159584935
30
0
41
1
10
20.7106628814115
20
-2.43631352165454
30
0
41
1
10
20.2055860834483
20
-2.40151469611757
30
0
41
1
10
19.9536500362957
20
-2.3756466418605
30
0
41
1
10
19.4503705471168
20
-2.30785687868013
30
0
41
1
10
19.1997075268832
20
-2.26538678969223
30
0
41
1
10
18.6973289006354
20
-2.16559571937796
30
-1E-16
41
1
10
18.44592046566
20
-2.10814327141819
30
-1E-16
41
1
10
17.942783479455
20
-1.97769484731745
30
-1E-16
41
1
10
17.6902716563837
20
-1.90565163928099
30
-1E-16
41
1
10
17.3101970039201
20
-1.78717876428877
30
1E-16
41
1
10
17.1834498520742
20
-1.74567767104352
30
1E-16
41
1
10
16.9291549498219
20
-1.65964943451212
30
1E-16
41
1
10
16.8017466727705
20
-1.61514127798961
30
1E-16
41
1
10
16.5478015413016
20
-1.52386614484047
30
1E-16
41
1
10
16.4210095462871
20
-1.47711993759666
30
1E-16
41
1
10
16.1681559955171
20
-1.38075087254629
30
1E-16
41
1
10
16.0421248299971
20
-1.33106147777403
30
1E-16
41
1
10
15.6641733379967
20
-1.17944280247758
30
1E-16
41
1
10
15.4123641781489
20
-1.07507756059036
30
1E-16
41
1
10
14.9099853675302
20
-0.858044784368019
30
1E-16
41
1
10
14.6591689806556
20
-0.745818100058301
30
0
41
1
10
14.2818980108263
20
-0.575282082767046
30
0
41
1
10
14.156009281981
20
-0.517990705561886
30
0
41
1
10
13.9043633173777
20
-0.401637725289106
30
0
41
1
10
13.7784868090627
20
-0.342827441118374
30
0
41
1
10
13.3999503563209
20
-0.166133152097075
30
0
41
1
10
13.1463810543323
20
-0.0480446234953149
30
0
41
1
10
12.7650143146296
20
0.131510006794627
30
0
41
1
10
12.6376356711995
20
0.191474631669706
30
0
41
1
10
12.3836964480751
20
0.310025772122088
30
0
41
1
10
12.2569469031273
20
0.368788994396624
30
0
41
1
10
11.877258344211
20
0.5433850614275
30
0
41
1
10
11.6255533708823
20
0.658988777265733
30
0
41
1
10
11.1222889932589
20
0.882805488161381
30
-1E-16
41
1
10
10.8707576284144
20
0.99116003774688
30
-1E-16
41
1
10
10.368675842205
20
1.2022906108846
30
-1E-16
41
1
10
10.1172790445943
20
1.30338199649847
30
-1E-16
41
1
10
9.6133632417731
20
1.49595136269156
30
-1E-16
41
1
10
9.36147093141591
20
1.58850489869988
30
-1E-16
41
1
10
8.98144523812871
20
1.71762032327132
30
-1E-16
41
1
10
8.85443174103889
20
1.75910102599815
30
-1E-16
41
1
10
8.59992129357636
20
1.83924257579886
30
1E-16
41
1
10
8.47252208133023
20
1.87809844489061
30
1E-16
41
1
10
8.09161318036971
20
1.98872468672215
30
1E-16
41
1
10
7.83834916979055
20
2.05468502048001
30
1E-16
41
1
10
7.33351476142013
20
2.17201645086084
30
1E-16
41
1
10
7.08214531636639
20
2.22344618383104
30
1E-16
41
1
10
6.57873131316336
20
2.30940384026491
30
0
41
1
10
6.32713171591467
20
2.34440528329299
30
0
41
1
10
5.82367156100082
20
2.39799746046069
30
0
41
1
10
5.57138515591848
20
2.41641757116596
30
0
41
1
10
5.17155485431852
20
2.43212635237208
30
0
41
1
10
5.02408189112248
20
2.43495132068048
30
0
41
1
10
4.8761197545069
20
2.4348433243812
30
0
0
SPLINE
5
DA
100
AcDbEntity
8
1
62
256
6
ByLayer
370
18
48
1
60
0
100
AcDbSpline
70
4
71
3
72
12
73
8
40
0
40
0
40
0
40
0
40
0.189287091262549
40
0.189287091262549
40
0.459524727508368
40
0.459524727508368
40
1
40
1
40
1
40
1
41
1
10
8.7759912221814
20
1.79580759201448
30
-1E-16
41
1
10
8.96735920550049
20
1.85651787504346
30
0
41
1
10
9.1592542995306
20
1.9137832408353
30
1E-16
41
1
10
9.62612975803071
20
2.04322514908677
30
1E-16
41
1
10
9.89927171942188
20
2.11071611983169
30
1E-16
41
1
10
10.7161110917828
20
2.28601794575997
30
0
41
1
10
11.2573510364002
20
2.3664295134312
30
0
41
1
10
11.8000000000145
20
2.40757576640755
30
0
0
SPLINE
5
DB
100
AcDbEntity
8
1
62
256
6
ByLayer
370
18
48
1
60
0
100
AcDbSpline
70
4
71
3
72
16
73
12
40
0
40
0
40
0
40
0
40
0.249999999999999
40
0.249999999999999
40
0.499999999999997
40
0.499999999999997
40
0.624999999999998
40
0.624999999999998
40
0.749999999999999
40
0.749999999999999
40
1
40
1
40
1
40
1
41
1
10
5.26574218282104
20
-0.372635853278723
30
0
41
1
10
5.81541618830636
20
-0.626669321716122
30
0
41
1
10
6.35897158663292
20
-0.872293709785765
30
1E-16
41
1
10
7.44426584068273
20
-1.32592023638415
30
1E-16
41
1
10
7.98569385939925
20
-1.53456752173133
30
1E-16
41
1
10
8.80330423561571
20
-1.80681599502296
30
1E-16
41
1
10
9.07700883907447
20
-1.89098056583356
30
-1E-16
41
1
10
9.62612975803069
20
-2.04322514908677
30
-1E-16
41
1
10
9.89927171942185
20
-2.11071611983167
30
-1E-16
41
1
10
10.7161110917828
20
-2.28601794575994
30
0
41
1
10
11.2573510364002
20
-2.3664295134312
30
0
41
1
10
11.8000000000145
20
-2.40757576640755
30
0
0
SPLINE
5
DC
100
AcDbEntity
8
1
62
256
6
ByLayer
370
18
48
1
60
0
100
AcDbSpline
70
4
71
3
72
55
73
51
40
0
40
0
40
0
40
0
40
0.124999999999985
40
0.124999999999985
40
0.187499999999977
40
0.187499999999977
40
0.249999999999969
40
0.249999999999969
40
0.312499999999962
40
0.312499999999962
40
0.343749999999959
40
0.343749999999959
40
0.374999999999956
40
0.374999999999956
40
0.406249999999953
40
0.406249999999953
40
0.43749999999995
40
0.43749999999995
40
0.453124999999949
40
0.453124999999949
40
0.468749999999948
40
0.468749999999948
40
0.499999999999945
40
0.499999999999945
40
0.531249999999943
40
0.531249999999943
40
0.562499999999941
40
0.562499999999941
40
0.593749999999938
40
0.593749999999938
40
0.624999999999936
40
0.624999999999936
40
0.687499999999931
40
0.687499999999931
40
0.749999999999927
40
0.749999999999927
40
0.757812499999926
40
0.761718749999926
40
0.761718749999926
40
0.765624999999926
40
0.765624999999926
40
0.773437499999927
40
0.773437499999927
40
0.781249999999929
40
0.781249999999929
40
0.812499999999939
40
0.812499999999939
40
0.87499999999996
40
0.87499999999996
40
1
40
1
40
1
40
1
41
1
10
4.55640872908282
20
-2.43007826599498
30
0
41
1
10
4.26243099252511
20
-2.42152526967072
30
0
41
1
10
3.97369936362935
20
-2.40138490003014
30
0
41
1
10
3.5515906474551
20
-2.34490221799095
30
0
41
1
10
3.41273828358015
20
-2.32164612798246
30
0
41
1
10
3.13982173342839
20
-2.2633240056677
30
0
41
1
10
3.00501961396947
20
-2.22807176235506
30
0
41
1
10
2.74627407891245
20
-2.14178847529874
30
-1E-16
41
1
10
2.62238229568604
20
-2.09102519226701
30
-1E-16
41
1
10
2.44912679462493
20
-1.99719627339149
30
-1E-16
41
1
10
2.39349788692198
20
-1.96293620182337
30
-1E-16
41
1
10
2.28796773184388
20
-1.8863490387651
30
-1E-16
41
1
10
2.23875237996668
20
-1.84448249377337
30
-1E-16
41
1
10
2.15061869239074
20
-1.75217814742678
30
1E-16
41
1
10
2.11121987540949
20
-1.70100832904549
30
1E-16
41
1
10
2.04860328059112
20
-1.59052379823254
30
1E-16
41
1
10
2.02516467454757
20
-1.53127058024015
30
1E-16
41
1
10
2.00482196219329
20
-1.43488891540798
30
1E-16
41
1
10
2.00057204578721
20
-1.40132887843214
30
1E-16
41
1
10
1.99769262075699
20
-1.33401872754112
30
1E-16
41
1
10
1.99897638291174
20
-1.29999265220894
30
1E-16
41
1
10
2.01082124044714
20
-1.19684149833887
30
1E-16
41
1
10
2.02988924162372
20
-1.12563766983277
30
1E-16
41
1
10
2.08565524608258
20
-0.987360631451622
30
1E-16
41
1
10
2.12242261930004
20
-0.919370697277543
30
1E-16
41
1
10
2.20783344419294
20
-0.788682014840418
30
0
41
1
10
2.25595629663741
20
-0.726512611764434
30
0
41
1
10
2.36008696047219
20
-0.606833194809013
30
0
41
1
10
2.41629387557924
20
-0.549184185466373
30
0
41
1
10
2.53419286325249
20
-0.438278260795812
30
0
41
1
10
2.59529865280064
20
-0.385540346438404
30
0
41
1
10
2.78352351804927
20
-0.233518759928216
30
0
41
1
10
2.91547495977102
20
-0.140333250788842
30
0
41
1
10
3.18797873519716
20
0.0351359446302695
30
0
41
1
10
3.32881494958701
20
0.117432531711472
30
0
41
1
10
3.48970389207435
20
0.204711809240194
30
0
41
1
10
3.5165739050633
20
0.219148843237718
30
0
41
1
10
3.54352390079959
20
0.2334272457054
30
0
41
1
10
3.56150804760677
20
0.242911514812022
30
0
41
1
10
3.57039264203064
20
0.247961708008205
30
0
41
1
10
3.59856111917478
20
0.259457423712917
30
0
41
1
10
3.61904406250616
20
0.26170760241925
30
0
41
1
10
3.65929923494866
20
0.259699662585064
30
0
41
1
10
3.67900562721451
20
0.254754569953718
30
0
41
1
10
3.77480130878689
20
0.22436156022502
30
0
41
1
10
3.85122967369344
20
0.199329876839812
30
0
41
1
10
4.07957182868552
20
0.121487614317658
30
0
41
1
10
4.23068691884544
20
0.0662018874686225
30
0
41
1
10
4.68003606894882
20
-0.108456251131884
30
0
41
1
10
4.97475064658286
20
-0.236890236149406
30
0
41
1
10
5.26574745284896
20
-0.372631553547507
30
0
0
SPLINE
5
DD
100
AcDbEntity
8
1
62
256
6
ByLayer
370
18
48
1
60
0
100
AcDbSpline
70
4
71
3
72
22
73
18
40
0
40
0
40
0
40
0
40
0.0871748010957269
40
0.0871748010957269
40
0.188599823196201
40
0.188599823196201
40
0.391449867397151
40
0.391449867397151
40
0.492874889497626
40
0.492874889497626
40
0.594299911598099
40
0.594299911598099
40
0.797149955799047
40
0.797149955799047
40
0.898574977899524
40
0.898574977899524
40
1
40
1
40
1
40
1
41
1
10
21.2524445404067
20
0.176799721039458
30
0
41
1
10
21.4801121687678
20
0.0755478411438446
30
0
41
1
10
21.7080937439883
20
-0.0265000580224353
30
0
41
1
10
22.2027999798693
20
-0.247133678671588
30
0
41
1
10
22.4703424951714
20
-0.365901945250016
30
0
41
1
10
23.2731863005314
20
-0.716646099605725
30
0
41
1
10
23.8059940981357
20
-0.941925523589987
30
1E-16
41
1
10
24.6079846247202
20
-1.25330648007454
30
1E-16
41
1
10
24.876239387824
20
-1.35289163236118
30
1E-16
41
1
10
25.4093811535991
20
-1.53965232610995
30
1E-16
41
1
10
25.6748213291463
20
-1.62704353226394
30
1E-16
41
1
10
26.4692760057696
20
-1.86850201173917
30
-1E-16
41
1
10
26.9967469194112
20
-2.00211050880336
30
-1E-16
41
1
10
27.790217944867
20
-2.15419930043507
30
0
41
1
10
28.0551163988125
20
-2.19687643854212
30
0
41
1
10
28.5866366462628
20
-2.26489212338757
30
0
41
1
10
28.8534875294363
20
-2.2900187218186
30
0
41
1
10
29.1212539591537
20
-2.30636075014817
30
0
0
SPLINE
5
DE
100
AcDbEntity
8
1
62
256
6
ByLayer
370
18
48
1
60
0
100
AcDbSpline
70
4
71
3
72
14
73
10
40
0
40
0
40
0
40
0
40
0.560577621745728
40
0.560577621745728
40
0.700722027182165
40
0.700722027182165
40
0.840866432618601
40
0.840866432618601
40
1
40
1
40
1
40
1
41
1
10
29.146649563084
20
2.34992977412802
30
0
41
1
10
28.4226787836439
20
2.35624535463998
30
0
41
1
10
27.7053761898662
20
2.29350345831549
30
0
41
1
10
26.8035611512921
20
2.13569541430755
30
0
41
1
10
26.6229689484418
20
2.10022884076952
30
1E-16
41
1
10
26.2609595849101
20
2.02169059180991
30
1E-16
41
1
10
26.0792186634766
20
1.97851837494986
30
1E-16
41
1
10
25.6915560362418
20
1.87894857016246
30
1E-16
41
1
10
25.4860675508917
20
1.82172327631955
30
0
41
1
10
25.2809848129924
20
1.76051554269341
30
0
0
SPLINE
5
DF
100
AcDbEntity
8
1
62
256
6
ByLayer
370
18
48
1
60
0
100
AcDbSpline
70
4
71
3
72
8
73
4
40
0
40
0
40
0
40
0
40
1
40
1
40
1
40
1
41
1
10
13.9628639210891
20
-2.28126575096579
30
0
41
1
10
13.6122474206748
20
-2.3194226183293
30
0
41
1
10
13.262574934732
20
-2.34201620292714
30
0
41
1
10
12.9132447372592
20
-2.34829138088477
30
0
0
SPLINE
5
E0
100
AcDbEntity
8
1
62
256
6
ByLayer
370
18
48
1
60
0
100
AcDbSpline
70
4
71
3
72
18
73
14
40
0
40
0
40
0
40
0
40
0.249999999999994
40
0.249999999999994
40
0.374999999999995
40
0.374999999999995
40
0.499999999999996
40
0.499999999999996
40
0.749999999999998
40
0.749999999999998
40
0.874999999999999
40
0.874999999999999
40
1
40
1
40
1
40
1
41
1
10
29.1512147512201
20
-2.34685075881612
30
0
41
1
10
29.199227058369
20
-2.21039363019881
30
0
41
1
10
29.2466920939027
20
-2.07301295287937
30
0
41
1
10
29.3179361602028
20
-1.86624748339241
30
0
41
1
10
29.3416747017348
20
-1.79725005155782
30
0
41
1
10
29.3892459837196
20
-1.65916182731595
30
0
41
1
10
29.4136434082891
20
-1.58978700227297
30
0
41
1
10
29.4892175355001
20
-1.38493549656292
30
0
41
1
10
29.5426804285031
20
-1.2523458383489
30
0
41
1
10
29.630984555805
20
-1.06062936479134
30
0
41
1
10
29.6619386320398
20
-0.997658404176462
30
0
41
1
10
29.7254970014098
20
-0.877322862159872
30
0
41
1
10
29.7582406718017
20
-0.819607667081783
30
0
41
1
10
29.7920441780457
20
-0.764221370020437
30
0
0
SPLINE
5
E1
100
AcDbEntity
8
1
62
256
6
ByLayer
370
18
48
1
60
0
100
AcDbSpline
70
4
71
3
72
10
73
6
40
0
40
0
40
0
40
0
40
0.5
40
0.5
40
1
40
1
40
1
40
1
41
1
10
3.55967204139119
20
0.787287248191689
30
0
41
1
10
3.54241252371932
20
0.794924020085887
30
0
41
1
10
3.52782005838265
20
0.807116311069535
30
0
41
1
10
3.50759848562774
20
0.83698931782547
30
-1E-16
41
1
10
3.50204610487793
20
0.85465135680144
30
-1E-16
41
1
10
3.50204610487788
20
0.872439993014382
30
-1E-16
0
SPLINE
5
E2
100
AcDbEntity
8
1
62
256
6
ByLayer
370
18
48
1
60
0
100
AcDbSpline
70
4
71
3
72
22
73
18
40
0
40
0
40
0
40
0
40
0.483618830541008
40
0.483618830541008
40
0.73854874664141
40
0.73854874664141
40
0.868729641383131
40
0.868729641383131
40
0.935427852890395
40
0.935427852890395
40
0.969842307160643
40
0.969842307160643
40
0.987802291558691
40
0.987802291558691
40
0.99721130549614
40
0.99721130549614
40
1
40
1
40
1
40
1
41
1
10
28.997014022552
20
2.44970734681687
30
0
41
1
10
29.0210672966195
20
2.43387544211453
30
0
41
1
10
29.0451562748926
20
2.41791613366601
30
0
41
1
10
29.0820048708776
20
2.39335247754678
30
0
41
1
10
29.0947358954879
20
2.38483845166507
30
0
41
1
10
29.1139863947253
20
2.37192440917857
30
0
41
1
10
29.1204969812682
20
2.36754993106788
30
0
41
1
10
29.1303482383812
20
2.3609206018275
30
0
41
1
10
29.1336865663079
20
2.3586723216597
30
0
41
1
10
29.1387484938573
20
2.3552605724756
30
0
41
1
10
29.1404712615281
20
2.35409895909754
30
0
41
1
10
29.1430866592553
20
2.35233471096566
30
0
41
1
10
29.1439836312753
20
2.3517295191827
30
0
41
1
10
29.1453431961715
20
2.35081195664549
30
0
41
1
10
29.1458095027302
20
2.35049720129533
30
0
41
1
10
29.1463904732856
20
2.35010482171518
30
0
41
1
10
29.1465216343453
20
2.35001622014363
30
0
41
1
10
29.1466495628911
20
2.34992977478782
30
0
0
SPLINE
5
E3
100
AcDbEntity
8
1
62
256
6
ByLayer
370
18
48
1
60
0
100
AcDbSpline
70
4
71
3
72
8
73
4
40
0
40
0
40
0
40
0
40
1
40
1
40
1
40
1
41
1
10
28.9871312417845
20
2.42015692060445
30
0
41
1
10
28.9909338831881
20
2.43814004219252
30
0
41
1
10
28.9941986916876
20
2.44813307706897
30
0
41
1
10
28.9970140225521
20
2.44970734681681
30
0
0
SPLINE
5
E4
100
AcDbEntity
8
1
62
256
6
ByLayer
370
18
48
1
60
0
100
AcDbSpline
70
4
71
3
72
20
73
16
40
0
40
0
40
0
40
0
40
0.151357387549168
40
0.151357387549168
40
0.302714775098336
40
0.302714775098336
40
0.454072162647504
40
0.454072162647504
40
0.605429550196672
40
0.605429550196672
40
0.75678693774584
40
0.75678693774584
40
0.908144325295008
40
0.908144325295008
40
1
40
1
40
1
40
1
41
1
10
29.9559744565274
20
0.0380295665226811
30
0
41
1
10
29.9428088937297
20
-0.005895752142095
30
0
41
1
10
29.9278413694991
20
-0.0489213000747384
30
0
41
1
10
29.8942949495477
20
-0.133104500931836
30
0
41
1
10
29.8754741142311
20
-0.174651034363876
30
0
41
1
10
29.8360934229596
20
-0.25115407041497
30
0
41
1
10
29.8153268552432
20
-0.28671691535024
30
0
41
1
10
29.771827202595
20
-0.351148823702914
30
0
41
1
10
29.7501920683807
20
-0.378412575908698
30
0
41
1
10
29.7070862477703
20
-0.422920750316621
30
0
41
1
10
29.6857751052157
20
-0.439787385308875
30
0
41
1
10
29.6458383744516
20
-0.460975871397494
30
0
41
1
10
29.6267319693658
20
-0.465542580531206
30
0
41
1
10
29.5987113998705
20
-0.463557329630561
30
0
41
1
10
29.5885800777713
20
-0.460681679331088
30
0
41
1
10
29.5789717558777
20
-0.45591450146361
30
0
0
SPLINE
5
E5
100
AcDbEntity
8
1
62
256
6
ByLayer
370
18
48
1
60
0
100
AcDbSpline
70
4
71
3
72
8
73
4
40
0
40
0
40
0
40
0
40
1
40
1
40
1
40
1
41
1
10
29.5446463216662
20
-0.428755534309289
30
0
41
1
10
29.5362722652571
20
-0.419409967886736
30
0
41
1
10
29.5283816466173
20
-0.40840620500532
30
0
41
1
10
29.5208790890054
20
-0.395885133485933
30
0
0
SPLINE
5
E6
100
AcDbEntity
8
1
62
256
6
ByLayer
370
18
48
1
60
0
100
AcDbSpline
70
4
71
3
72
26
73
22
40
0
40
0
40
0
40
0
40
0.0750482716868124
40
0.0750482716868124
40
0.16915260299059
40
0.16915260299059
40
0.263256934294368
40
0.263256934294368
40
0.357361265598146
40
0.357361265598146
40
0.451465596901924
40
0.451465596901924
40
0.545569928205702
40
0.545569928205702
40
0.63967425950948
40
0.63967425950948
40
0.733778590813258
40
0.733778590813258
40
0.827882922117034
40
0.827882922117034
40
1
40
1
40
1
40
1
41
1
10
20.3367764729142
20
2.3298457621612
30
0
41
1
10
20.5448775779386
20
2.33273140559436
30
0
41
1
10
20.7528002667965
20
2.33047114187465
30
0
41
1
10
21.2224331910253
20
2.31083975806217
30
0
41
1
10
21.484296399182
20
2.29048522377408
30
0
41
1
10
22.0088488265679
20
2.23388144862994
30
0
41
1
10
22.2713520939977
20
2.19796884597432
30
0
41
1
10
22.8004405515628
20
2.10628844752034
30
1E-16
41
1
10
23.0650153689036
20
2.05152996885704
30
1E-16
41
1
10
23.5924731921378
20
1.92862681763958
30
1E-16
41
1
10
23.8553259214079
20
1.8604580487891
30
1E-16
41
1
10
24.3828811707396
20
1.7083644665247
30
-1E-16
41
1
10
24.6479410377388
20
1.6248095955489
30
-1E-16
41
1
10
25.1762727421699
20
1.44658420208469
30
-1E-16
41
1
10
25.4392559634689
20
1.35209179197875
30
-1E-16
41
1
10
25.9634499964355
20
1.15399299577385
30
-1E-16
41
1
10
26.2245787913771
20
1.05031399163093
30
-1E-16
41
1
10
26.7467575235079
20
0.836076122334021
30
-1E-16
41
1
10
27.007721808105
20
0.725528809315279
30
0
41
1
10
27.7469037971254
20
0.40626435352226
30
0
41
1
10
28.2259852319955
20
0.192370650272352
30
0
41
1
10
28.7076019615918
20
-0.0249689837816049
30
0
0
SPLINE
5
E7
100
AcDbEntity
8
1
62
256
6
ByLayer
370
18
48
1
60
0
100
AcDbSpline
70
4
71
3
72
8
73
4
40
0
40
0
40
0
40
0
40
1
40
1
40
1
40
1
41
1
10
29.369904350765
20
0.684949269153663
30
0
41
1
10
29.5116581542333
20
0.705554367308594
30
0
41
1
10
29.6530048311092
20
0.730119660215991
30
0
41
1
10
29.7920441780453
20
0.764221370020266
30
0
0
SPLINE
5
E8
100
AcDbEntity
8
1
62
256
6
ByLayer
370
18
48
1
60
0
100
AcDbSpline
70
4
71
3
72
10
73
6
40
0
40
0
40
0
40
0
40
0.5
40
0.5
40
1
40
1
40
1
40
1
41
1
10
29.1512147512205
20
-2.34685075881563
30
0
41
1
10
29.1417389335524
20
-2.35341610824386
30
0
41
1
10
29.1334745409771
20
-2.35685975889058
30
0
41
1
10
29.1191580180888
20
-2.35746228206187
30
0
41
1
10
29.1130971793427
20
-2.35465447752296
30
0
41
1
10
29.1078038754852
20
-2.34895655239853
30
0
0
SPLINE
5
E9
100
AcDbEntity
8
1
62
256
6
ByLayer
370
18
48
1
60
0
100
AcDbSpline
70
4
71
3
72
10
73
6
40
0
40
0
40
0
40
0
40
0.5
40
0.5
40
1
40
1
40
1
40
1
41
1
10
29.0225982300307
20
0.365644548192137
30
0
41
1
10
28.9821229246644
20
0.361146368460425
30
0
41
1
10
28.9417487422855
20
0.350880334947703
30
0
41
1
10
28.8620100648967
20
0.321170343908534
30
0
41
1
10
28.8226340206057
20
0.303181344644543
30
0
41
1
10
28.7846853142849
20
0.280079297737785
30
0
0
SPLINE
5
EA
100
AcDbEntity
8
1
62
256
6
ByLayer
370
18
48
1
60
0
100
AcDbSpline
70
4
71
3
72
22
73
18
40
0
40
0
40
0
40
0
40
0.0817790526378756
40
0.0817790526378756
40
0.196556671058141
40
0.196556671058141
40
0.311334289478406
40
0.311334289478406
40
0.426111907898671
40
0.426111907898671
40
0.540889526318936
40
0.540889526318936
40
0.770444763159468
40
0.770444763159468
40
0.885222381579734
40
0.885222381579734
40
1
40
1
40
1
40
1
41
1
10
21.2482340862633
20
-0.169015944652273
30
0
41
1
10
20.9901265426662
20
-0.0527548224302166
30
0
41
1
10
20.7319422770267
20
0.0641760707282515
30
0
41
1
10
20.1099705135531
20
0.34412495639512
30
0
41
1
10
19.7470285133866
20
0.506373878144387
30
0
41
1
10
19.0224561683323
20
0.820178966639901
30
-1E-16
41
1
10
18.660361028381
20
0.972398863116837
30
-1E-16
41
1
10
17.9336939552924
20
1.26109069156976
30
-1E-16
41
1
10
17.5719118152698
20
1.39685909422818
30
-1E-16
41
1
10
16.852111136319
20
1.64440272080179
30
-1E-16
41
1
10
16.4935649578234
20
1.75702378273257
30
-1E-16
41
1
10
15.4179605826847
20
2.05456444637943
30
1E-16
41
1
10
14.7012935677377
20
2.20018447023858
30
0
41
1
10
13.6112274589612
20
2.31988474108226
30
0
41
1
10
13.248893024149
20
2.34308113613449
30
0
41
1
10
12.5249268160969
20
2.35438592380339
30
0
41
1
10
12.1630921161938
20
2.34321685670542
30
0
41
1
10
11.8000000000001
20
2.31505498234873
30
0
0
SPLINE
5
EB
100
AcDbEntity
8
1
62
256
6
ByLayer
370
18
48
1
60
0
100
AcDbSpline
70
4
71
3
72
26
73
22
40
0
40
0
40
0
40
0
40
0.187634608168055
40
0.187634608168055
40
0.281451912252082
40
0.281451912252082
40
0.37526921633611
40
0.37526921633611
40
0.469086520420137
40
0.469086520420137
40
0.562903824504165
40
0.562903824504165
40
0.656721128588193
40
0.656721128588193
40
0.75053843267222
40
0.75053843267222
40
0.844355736756248
40
0.844355736756248
40
0.938173040840275
40
0.938173040840275
40
1
40
1
40
1
40
1
41
1
10
28.8479122470816
20
-0.0988647972216938
30
0
41
1
10
28.3223192861767
20
0.137694866106614
30
0
41
1
10
27.7995366845184
20
0.370969139135752
30
0
41
1
10
27.0169196009953
20
0.708119202405896
30
0
41
1
10
26.7562769132364
20
0.818306926024775
30
-1E-16
41
1
10
26.2345563741089
20
1.03205710086343
30
-1E-16
41
1
10
25.9735599505734
20
1.13561028244479
30
-1E-16
41
1
10
25.4495110632845
20
1.33363588781495
30
-1E-16
41
1
10
25.1865309347451
20
1.42818541625411
30
-1E-16
41
1
10
24.6580599695499
20
1.60671739493643
30
-1E-16
41
1
10
24.3927766486254
20
1.69054556549565
30
-1E-16
41
1
10
23.8648524511427
20
1.84330698436469
30
1E-16
41
1
10
23.6018208401722
20
1.91186052530011
30
1E-16
41
1
10
23.0740619066783
20
2.03554525723558
30
1E-16
41
1
10
22.8094042271729
20
2.09075294028864
30
1E-16
41
1
10
22.2798926703343
20
2.18354941024509
30
0
41
1
10
22.0171755028878
20
2.22005851552879
30
0
41
1
10
21.4922403279097
20
2.27783173628893
30
0
41
1
10
21.2301832617549
20
2.29883070369092
30
0
41
1
10
20.7964082238215
20
2.31809750631899
30
0
41
1
10
20.6244014472394
20
2.32136094063714
30
0
41
1
10
20.4523517842465
20
2.32095361248966
30
0
0
SPLINE
5
EC
100
AcDbEntity
8
1
62
256
6
ByLayer
370
18
48
1
60
0
100
AcDbSpline
70
4
71
3
72
8
73
4
40
0
40
0
40
0
40
0
40
1
40
1
40
1
40
1
41
1
10
11.8
20
2.40757576640644
30
0
41
1
10
11.8
20
2.37684682020026
30
0
41
1
10
11.8
20
2.34600557189688
30
0
41
1
10
11.8
20
2.31505498234984
30
0
0
SPLINE
5
ED
100
AcDbEntity
8
1
62
256
6
ByLayer
370
18
48
1
60
0
100
AcDbSpline
70
4
71
3
72
8
73
4
40
0
40
0
40
0
40
0
40
1
40
1
40
1
40
1
41
1
10
29.9964339441681
20
0.173927665954551
30
0
41
1
10
29.9830304454833
20
0.128601439528893
30
0
41
1
10
29.96954381928
20
0.0833021152273545
30
0
41
1
10
29.9559744565274
20
0.0380295665226811
30
0
0
SPLINE
5
EE
100
AcDbEntity
8
1
62
256
6
ByLayer
370
18
48
1
60
0
100
AcDbSpline
70
4
71
3
72
24
73
20
40
0
40
0
40
0
40
0
40
0.125
40
0.125
40
0.25
40
0.25
40
0.375000000000001
40
0.375000000000001
40
0.500000000000001
40
0.500000000000001
40
0.625000000000001
40
0.625000000000001
40
0.687500000000001
40
0.687500000000001
40
0.750000000000001
40
0.750000000000001
40
0.875
40
0.875
40
1
40
1
40
1
40
1
41
1
10
3.60282151841318
20
2.30269235977826
30
0
41
1
10
3.60281098404644
20
2.31451444246528
30
0
41
1
10
3.6027976097518
20
2.3153629301836
30
0
41
1
10
3.60276653580684
20
2.29568612990792
30
0
41
1
10
3.6027488249095
20
2.27531870451477
30
0
41
1
10
3.60270929913065
20
2.21365135298382
30
0
41
1
10
3.60268729508971
20
2.17189125388859
30
0
41
1
10
3.6026401261559
20
2.06889811782284
30
1E-16
41
1
10
3.6026147861337
20
2.00735756254431
30
1E-16
41
1
10
3.60256103035275
20
1.86607428945049
30
1E-16
41
1
10
3.60253295139634
20
1.78728012372804
30
-1E-16
41
1
10
3.60248864252685
20
1.65724027928471
30
-1E-16
41
1
10
3.60247350479719
20
1.61190837166348
30
-1E-16
41
1
10
3.60244238826948
20
1.51721207715181
30
-1E-16
41
1
10
3.60242633967806
20
1.46762848850304
30
-1E-16
41
1
10
3.6023772500663
20
1.31424264449967
30
-1E-16
41
1
10
3.60234352975004
20
1.20667083740165
30
-1E-16
41
1
10
3.60227330738786
20
0.981248198542914
30
-1E-16
41
1
10
3.60223672201633
20
0.863116946043561
30
-1E-16
41
1
10
3.60219841730273
20
0.740187366505126
30
0
0
SPLINE
5
EF
100
AcDbEntity
8
1
62
256
6
ByLayer
370
18
48
1
60
0
100
AcDbSpline
70
4
71
3
72
8
73
4
40
0
40
0
40
0
40
0
40
1
40
1
40
1
40
1
41
1
10
28.7866208202493
20
-0.0636023023363066
30
0
41
1
10
28.8054174772222
20
-0.0715289842856919
30
0
41
1
10
28.8241238284983
20
-0.078997272151895
30
0
41
1
10
28.8427516037992
20
-0.0860146522971377
30
0
0
SPLINE
5
F0
100
AcDbEntity
8
1
62
256
6
ByLayer
370
18
48
1
60
0
100
AcDbSpline
70
4
71
3
72
14
73
10
40
0
40
0
40
0
40
0
40
0.524435929395604
40
0.524435929395604
40
0.800881756226542
40
0.800881756226542
40
0.942049829532878
40
0.942049829532878
40
1
40
1
40
1
40
1
41
1
10
28.997014022552
20
-2.44970734681687
30
0
41
1
10
29.0210672966197
20
-2.43387544211436
30
0
41
1
10
29.0451562748931
20
-2.41791613366567
30
0
41
1
10
29.0820048708784
20
-2.39335247754627
30
0
41
1
10
29.0947358954887
20
-2.38483845166451
30
0
41
1
10
29.1139863947261
20
-2.37192440917801
30
0
41
1
10
29.120496981269
20
-2.36754993106734
30
0
41
1
10
29.1296848291562
20
-2.36136703806642
30
0
41
1
10
29.1323594117449
20
-2.35956605676864
30
0
41
1
10
29.1350344924496
20
-2.35776360806975
30
0
0
SPLINE
5
F1
100
AcDbEntity
8
1
62
256
6
ByLayer
370
18
48
1
60
0
100
AcDbSpline
70
4
71
3
72
8
73
4
40
0
40
0
40
0
40
0
40
1
40
1
40
1
40
1
41
1
10
28.7866208202419
20
-0.0636023023363066
30
0
41
1
10
28.7817817749719
20
0.0509597744408552
30
0
41
1
10
28.7806645515166
20
0.165511850909525
30
0
41
1
10
28.7846853142719
20
0.280079297737785
30
0
0
SPLINE
5
F2
100
AcDbEntity
8
1
62
256
6
ByLayer
370
18
48
1
60
0
100
AcDbSpline
70
4
71
2
72
6
73
3
40
0
40
0
40
0
40
1
40
1
40
1
41
1
10
4.19920236140266
20
2.31471919310363
30
0
41
1
10
3.90097989115239
20
2.3143529148843
30
0
41
1
10
3.60276803869661
20
2.31189024796089
30
0
0
SPLINE
5
F3
100
AcDbEntity
8
1
62
256
6
ByLayer
370
18
48
1
60
0
100
AcDbSpline
70
4
71
1
72
4
73
2
40
0
40
0
40
1
40
1
41
1
10
9.95866977633162
20
1.36639705860296
30
-1E-16
41
1
10
9.74935628534703
20
1.44396991574507
30
-1E-16
0
SPLINE
5
F4
100
AcDbEntity
8
1
62
256
6
ByLayer
370
18
48
1
60
0
100
AcDbSpline
70
4
71
1
72
4
73
2
40
0
40
0
40
1
40
1
41
1
10
29.1350358693591
20
-2.3577627108339
30
0
41
1
10
29.1518671609122
20
-2.34642189744227
30
0
0
SPLINE
5
F5
100
AcDbEntity
8
1
62
256
6
ByLayer
370
18
48
1
60
0
100
AcDbSpline
70
4
71
3
72
11
73
7
40
0
40
0
40
0
40
0
40
0.127456565610487
40
0.341632308017965
40
0.644486736505769
40
1
40
1
40
1
40
1
41
1
10
28.892421817869
20
0.4547121965538
30
0
41
1
10
28.7770540853879
20
0.491843016517493
30
0
41
1
10
28.4682327594207
20
0.592575015059481
30
0
41
1
10
27.8880746737556
20
0.789861766954573
30
0
41
1
10
27.1056554794964
20
1.06570120561903
30
-1E-16
41
1
10
26.5192105494701
20
1.28445665260025
30
-1E-16
41
1
10
26.2035856794047
20
1.40547623747344
30
-1E-16
0
SPLINE
5
F6
100
AcDbEntity
8
1
62
256
6
ByLayer
370
18
48
1
60
0
100
AcDbSpline
70
4
71
1
72
4
73
2
40
0
40
0
40
1
40
1
41
1
10
26.2035856794047
20
1.40547623747344
30
-1E-16
41
1
10
26.0589160073424
20
1.45940447397067
30
-1E-16
0
SPLINE
5
F7
100
AcDbEntity
8
1
62
256
6
ByLayer
370
18
48
1
60
0
100
AcDbSpline
70
4
71
3
72
21
73
17
40
0
40
0
40
0
40
0
40
2.72292315972E-05
40
7.80501268387E-05
40
0.000149359285931
40
0.0003465024817953
40
0.0045035765339186
40
0.008876403047195
40
0.0191563062908745
40
0.0630803709361717
40
0.133375797019743
40
0.226324046144848
40
0.401557976966229
40
0.553932267840281
40
0.759206412011252
40
1
40
1
40
1
40
1
41
1
10
14.2804053047563
20
-0.0813947290675685
30
0
41
1
10
14.2804105700212
20
-0.0813959830922215
30
0
41
1
10
14.280416950264
20
-0.0813970801673349
30
0
41
1
10
14.280363067605
20
-0.0813802578027492
30
0
41
1
10
14.2801478253366
20
-0.0813163471035239
30
0
41
1
10
14.2738024314592
20
-0.0795054731813707
30
0
41
1
10
14.2625488940958
20
-0.0763224463059942
30
0
41
1
10
14.2356204067554
20
-0.068719280105114
30
0
41
1
10
14.15172475687
20
-0.0448030042173571
30
0
41
1
10
13.9702253911229
20
0.0081485825872392
30
0
41
1
10
13.6692101559525
20
0.0979570881027314
30
0
41
1
10
13.1767087630448
20
0.248991647165781
30
0
41
1
10
12.5670470185898
20
0.443231855309222
30
0
41
1
10
11.7977508217083
20
0.699654260091677
30
0
41
1
10
10.9378036717914
20
0.999378701888503
30
-1E-16
41
1
10
10.3011431875156
20
1.2354396476062
30
-1E-16
41
1
10
9.95866977633162
20
1.36639705860296
30
-1E-16
0
SPLINE
5
F8
100
AcDbEntity
8
1
62
256
6
ByLayer
370
18
48
1
60
0
100
AcDbSpline
70
4
71
3
72
19
73
15
40
0
40
0
40
0
40
0
40
0.146846818312505
40
0.247778291095314
40
0.332721396384532
40
0.423446899642546
40
0.51487229324294
40
0.606264194610459
40
0.684206626871147
40
0.757816265346876
40
0.826462734975475
40
0.891735613532752
40
0.956723977385101
40
1
40
1
40
1
40
1
41
1
10
13.44977020774
20
-2.31797039094354
30
0
41
1
10
13.7297654131395
20
-2.31812967077244
30
0
41
1
10
14.2022193699002
20
-2.31842468851593
30
0
41
1
10
14.8367022514332
20
-2.31848751667448
30
0
41
1
10
15.3641226636129
20
-2.31917826058762
30
0
41
1
10
15.8734699277244
20
-2.31937606185701
30
0
41
1
10
16.3951008969758
20
-2.31906487298741
30
0
41
1
10
16.8923578746472
20
-2.3201609287502
30
0
41
1
10
17.3556413315279
20
-2.32031761378212
30
0
41
1
10
17.7755488547978
20
-2.31969849736006
30
0
41
1
10
18.1712969951547
20
-2.31971681191428
30
0
41
1
10
18.5506039861068
20
-2.32024929029575
30
0
41
1
10
18.8815309107092
20
-2.32104459902982
30
0
41
1
10
19.0879836481394
20
-2.32115857037397
30
0
41
1
10
19.1705078262619
20
-2.32117201813793
30
0
0
SPLINE
5
F9
100
AcDbEntity
8
1
62
256
6
ByLayer
370
18
48
1
60
0
100
AcDbSpline
70
4
71
3
72
18
73
14
40
0
40
0
40
0
40
0
40
0.169064613553274
40
0.279783952315358
40
0.346785731788501
40
0.414080840565689
40
0.484854058216838
40
0.560744209498556
40
0.64110138959094
40
0.735324719094076
40
0.829582578458685
40
0.923118864058446
40
1
40
1
40
1
40
1
41
1
10
20.4754100658363
20
2.32108077990696
30
0
41
1
10
20.1627086848004
20
2.32113207952415
30
0
41
1
10
19.6452179422813
20
2.32098931058278
30
0
41
1
10
19.0037972737498
20
2.32133843884515
30
0
41
1
10
18.5506039861144
20
2.32024929029575
30
0
41
1
10
18.1712969951643
20
2.31971681191428
30
0
41
1
10
17.7755488548081
20
2.31969849736006
30
0
41
1
10
17.355641331538
20
2.32031761378212
30
0
41
1
10
16.892357874657
20
2.32016092875023
30
0
41
1
10
16.3951008969851
20
2.31906487298741
30
0
41
1
10
15.8734699277334
20
2.31937606185701
30
0
41
1
10
15.3839025273986
20
2.31918594195247
30
0
41
1
10
15.068713887467
20
2.31879029812734
30
0
41
1
10
14.9265182794816
20
2.31866564785977
30
0
0
LINE
5
84
100
AcDbEntity
8
SK1
62
256
6
ByLayer
370
18
48
1
60
0
100
AcDbLine
10
-35.065
20
-3
30
0
11
-35.065
21
3
31
0
39
0
210
0
220
0
230
1
0
LINE
5
86
100
AcDbEntity
8
SK1
62
256
6
ByLayer
370
18
48
1
60
0
100
AcDbLine
10
0
20
3
30
0
11
0
21
-3
31
0
39
0
210
0
220
0
230
1
0
LINE
5
87
100
AcDbEntity
8
SK1
62
256
6
ByLayer
370
18
48
1
60
0
100
AcDbLine
10
-36
20
-2.065
30
0
11
-36
21
2.065
31
0
39
0
210
0
220
0
230
1
0
LINE
5
88
100
AcDbEntity
8
1
62
256
6
ByLayer
370
18
48
1
60
0
100
AcDbLine
10
29.955974
20
0.03803
30
0
11
29.369904
21
0.684949
31
0
39
0
210
0
220
0
230
1
0
LINE
5
89
100
AcDbEntity
8
1
62
256
6
ByLayer
370
18
48
1
60
0
100
AcDbLine
10
11.8
20
-2.401535
30
0
11
11.8
21
-2.407576
31
0
39
0
210
0
220
0
230
1
0
LINE
5
8A
100
AcDbEntity
8
1
62
256
6
ByLayer
370
18
48
1
60
0
100
AcDbLine
10
0.611105
20
2.716285
30
0
11
0.611105
21
0
31
0
39
0
210
0
220
0
230
1
0
LINE
5
8B
100
AcDbEntity
8
1
62
256
6
ByLayer
370
18
48
1
60
0
100
AcDbLine
10
0.611105
20
0
30
0
11
0.611105
21
-2.716285
31
0
39
0
210
0
220
0
230
1
0
LINE
5
8C
100
AcDbEntity
8
1
62
256
6
ByLayer
370
18
48
1
60
0
100
AcDbLine
10
3.502046
20
2.433995
30
0
11
3.502046
21
0.87244
31
0
39
0
210
0
220
0
230
1
0
LINE
5
8D
100
AcDbEntity
8
1
62
256
6
ByLayer
370
18
48
1
60
0
100
AcDbLine
10
1.222711
20
2.43257
30
0
11
1.222711
21
0
31
0
39
0
210
0
220
0
230
1
0
LINE
5
8E
100
AcDbEntity
8
1
62
256
6
ByLayer
370
18
48
1
60
0
100
AcDbLine
10
1.222711
20
0
30
0
11
1.222711
21
-2.43257
31
0
39
0
210
0
220
0
230
1
0
LINE
5
8F
100
AcDbEntity
8
1
62
256
6
ByLayer
370
18
48
1
60
0
100
AcDbLine
10
0
20
3
30
0
11
0
21
0
31
0
39
0
210
0
220
0
230
1
0
LINE
5
90
100
AcDbEntity
8
1
62
256
6
ByLayer
370
18
48
1
60
0
100
AcDbLine
10
0
20
0
30
0
11
0
21
-3
31
0
39
0
210
0
220
0
230
1
0
LINE
5
91
100
AcDbEntity
8
1
62
256
6
ByLayer
370
18
48
1
60
0
100
AcDbLine
10
3.502046
20
-2.430397
30
0
11
3.502046
21
-2.433995
31
0
39
0
210
0
220
0
230
1
0
LINE
5
92
100
AcDbEntity
8
SK1
62
256
6
ByLayer
370
18
48
1
60
0
100
AcDbLine
10
-35.065
20
-3
30
0
11
0
21
-3
31
0
39
0
210
0
220
0
230
1
0
LINE
5
93
100
AcDbEntity
8
SK1
62
256
6
ByLayer
370
18
48
1
60
0
100
AcDbLine
10
0
20
3
30
0
11
-35.065
21
3
31
0
39
0
210
0
220
0
230
1
0
LINE
5
94
100
AcDbEntity
8
SK1
62
256
6
ByLayer
370
18
48
1
60
0
100
AcDbLine
10
-36
20
-2.065
30
0
11
-35.065
21
-3
31
0
39
0
210
0
220
0
230
1
0
LINE
5
95
100
AcDbEntity
8
SK1
62
256
6
ByLayer
370
18
48
1
60
0
100
AcDbLine
10
-35.065
20
3
30
0
11
-36
21
2.065
31
0
39
0
210
0
220
0
230
1
0
LINE
5
96
100
AcDbEntity
8
1
62
256
6
ByLayer
370
18
48
1
60
0
100
AcDbLine
10
1.222711
20
-2.43257
30
0
11
3.502046
21
-2.433995
31
0
39
0
210
0
220
0
230
1
0
LINE
5
97
100
AcDbEntity
8
1
62
256
6
ByLayer
370
18
48
1
60
0
100
AcDbLine
10
4.118868
20
-2.43438
30
0
11
4.873066
21
-2.434852
31
0
39
0
210
0
220
0
230
1
0
LINE
5
98
100
AcDbEntity
8
1
62
256
6
ByLayer
370
18
48
1
60
0
100
AcDbLine
10
12.714226
20
-2.439752
30
0
11
13.448136
21
-2.440211
31
0
39
0
210
0
220
0
230
1
0
LINE
5
99
100
AcDbEntity
8
1
62
256
6
ByLayer
370
18
48
1
60
0
100
AcDbLine
10
20.472361
20
-2.444601
30
0
11
21.212335
21
-2.445064
31
0
39
0
210
0
220
0
230
1
0
LINE
5
9A
100
AcDbEntity
8
1
62
256
6
ByLayer
370
18
48
1
60
0
100
AcDbLine
10
21.212335
20
2.445064
30
0
11
20.472361
21
2.444601
31
0
39
0
210
0
220
0
230
1
0
LINE
5
9B
100
AcDbEntity
8
1
62
256
6
ByLayer
370
18
48
1
60
0
100
AcDbLine
10
13.448136
20
2.440211
30
0
11
12.714226
21
2.439752
31
0
39
0
210
0
220
0
230
1
0
LINE
5
9C
100
AcDbEntity
8
1
62
256
6
ByLayer
370
18
48
1
60
0
100
AcDbLine
10
4.873066
20
2.434852
30
0
11
4.118868
21
2.43438
31
0
39
0
210
0
220
0
230
1
0
LINE
5
9D
100
AcDbEntity
8
1
62
256
6
ByLayer
370
18
48
1
60
0
100
AcDbLine
10
3.502046
20
2.433995
30
0
11
1.222711
21
2.43257
31
0
39
0
210
0
220
0
230
1
0
LINE
5
9E
100
AcDbEntity
8
SK4
62
256
6
ByLayer
370
18
48
0.05
60
0
100
AcDbLine
10
35
20
0
30
0
11
-41
21
0
31
0
39
0
210
0
220
0
230
1
0
LINE
5
A0
100
AcDbEntity
8
4
62
256
6
ByLayer
370
18
48
0.05
60
0
100
AcDbLine
10
-36
20
0
30
0
11
35
21
0
31
0
39
0
210
0
220
0
230
1
0
LINE
5
A2
100
AcDbEntity
8
80
62
256
6
ByLayer
370
18
48
1
60
0
100
AcDbLine
10
0
20
0
30
0
11
-6
21
0
31
0
39
0
210
0
220
0
230
1
0
LINE
5
A3
100
AcDbEntity
8
81
62
256
6
ByLayer
370
18
48
1
60
0
100
AcDbLine
10
30
20
0
30
0
11
36
21
0
31
0
39
0
210
0
220
0
230
1
0
LINE
5
A4
100
AcDbEntity
8
SK2
62
256
6
ByLayer
370
13
48
1
60
0
100
AcDbLine
10
30.542942
20
1.491767
30
0
11
37.926104
21
21.777454
31
0
39
0
210
0
220
0
230
1
0
LINE
5
A6
100
AcDbEntity
8
SK2
62
256
6
ByLayer
370
13
48
1
60
0
100
AcDbLine
10
30.542942
20
-1.491767
30
0
11
37.926104
21
-21.777454
31
0
39
0
210
0
220
0
230
1
0
LINE
5
A7
100
AcDbEntity
8
1
62
256
6
ByLayer
370
13
48
1
60
0
100
AcDbLine
10
36.840219
20
18.793919
30
0
11
39.936818
21
17.977577
31
0
39
0
210
0
220
0
230
1
0
LINE
5
A8
100
AcDbEntity
8
1
62
256
6
ByLayer
370
13
48
1
60
0
100
AcDbLine
10
36.840219
20
18.793919
30
0
11
39.620022
21
17.203933
31
0
39
0
210
0
220
0
230
1
0
LINE
5
A9
100
AcDbEntity
8
1
62
256
6
ByLayer
370
13
48
1
60
0
100
AcDbLine
10
39.936818
20
17.977577
30
0
11
39.620022
21
17.203933
31
0
39
0
210
0
220
0
230
1
0
LINE
5
AA
100
AcDbEntity
8
1
62
256
6
ByLayer
370
13
48
1
60
0
100
AcDbLine
10
36.840219
20
-18.793919
30
0
11
39.620019
21
-17.203935
31
0
39
0
210
0
220
0
230
1
0
LINE
5
AB
100
AcDbEntity
8
1
62
256
6
ByLayer
370
13
48
1
60
0
100
AcDbLine
10
36.840219
20
-18.793919
30
0
11
39.936821
21
-17.977576
31
0
39
0
210
0
220
0
230
1
0
LINE
5
AC
100
AcDbEntity
8
1
62
256
6
ByLayer
370
13
48
1
60
0
100
AcDbLine
10
39.620019
20
-17.203935
30
0
11
39.936821
21
-17.977576
31
0
39
0
210
0
220
0
230
1
0
MTEXT
5
FA
100
AcDbEntity
8
SK2
62
256
6
ByLayer
370
18
48
1
60
0
100
AcDbMText
10
43.717388
20
-2.467451
30
0
210
0
220
0
230
1
1
\W0.7237;140.00
40
3.50012
41
0
44
1.084337
50
0
71
7
72
5
7
iso_b_vert
0
MTEXT
5
FD
100
AcDbEntity
8
SK6
62
256
6
ByLayer
370
18
48
1
60
0
100
AcDbMText
10
-42.331725
20
-54.456051
30
0
210
0
220
0
230
1
1
\W0.7494;860.1-0490-015A0-GM X1BM
40
3.175
41
0
44
1.084337
50
0
71
7
72
5
7
iso_b_vert
0
DIMENSION
5
100
100
AcDbEntity
8
SK2
62
256
6
ByLayer
370
18
48
1
60
0
100
AcDbDimension
2
_U0
10
30
20
-26.50012
30
0
11
15
21
-26.50012
31
0
70
32
71
2
72
1
41
1
210
0
220
0
230
1
3
Standard
100
AcDbAlignedDimension
13
0
23
-3
33
0
14
30
24
0
34
0
50
0
100
AcDbRotatedDimension
1001
ACAD
1000
DSTYLE
1002
{
1070
   371
1070
    13
1070
   372
1070
    13
1070
     3
1000

1070
   170
1070
     0
1070
   144
1040
1.0
1070
   277
1070
     2
1070
   284
1070
     8
1070
   278
1070
    46
1070
   146
1040
0.999966
1070
   345
1005
16
1070
   347
1005
16
1070
   346
1005
16
1070
   344
1005
101
1070
   343
1005
101
1070
   172
1070
     1
1070
    76
1070
     0
1070
    75
1070
     0
1070
   282
1070
     0
1070
   281
1070
     0
1070
    71
1070
     0
1070
    74
1070
     0
1070
   279
1070
     0
1070
   173
1070
     1
1070
   340
1005
FB
1070
   271
1070
     1
1070
   272
1070
     2
1070
    77
1070
     1
1070
    73
1070
     1
1070
   171
1070
     3
1070
   274
1070
     4
1070
   177
1070
   150
1070
   176
1070
     9
1070
   178
1070
    43
1070
    78
1070
     8
1070
    48
1040
-0.1
1070
    41
1040
3.175
1070
   147
1040
1.75006
1070
    42
1040
1.5875
1070
    44
1040
3.175
1070
   140
1040
3.50012
1002
}
1001
ACAD_DSTYLE_DIM_LINETYPE
1070
   380
1005
16
1001
ACAD_DSTYLE_DIM_EXT1_LINETYPE
1070
   381
1005
16
1001
ACAD_DSTYLE_DIM_EXT2_LINETYPE
1070
   382
1005
16
0
DIMENSION
5
126
100
AcDbEntity
8
2
62
256
6
ByLayer
370
18
48
1
60
0
100
AcDbDimension
2
_U1
10
36.75006
20
2.45
30
0
11
36.75006
21
17.939897
31
0
70
32
71
1
72
1
41
1
210
0
220
0
230
1
3
Standard
100
AcDbAlignedDimension
13
29.1083
23
-2.45
33
0
14
29.1083
24
2.45
34
0
50
90
100
AcDbRotatedDimension
1001
ACAD
1000
DSTYLE
1002
{
1070
   371
1070
    13
1070
   372
1070
    13
1070
     3
1000

1070
   170
1070
     0
1070
   144
1040
1.0
1070
   277
1070
     2
1070
   284
1070
     8
1070
   278
1070
    46
1070
   146
1040
0.999966
1070
   345
1005
16
1070
   347
1005
16
1070
   346
1005
16
1070
   344
1005
101
1070
   343
1005
101
1070
   172
1070
     1
1070
    76
1070
     0
1070
    75
1070
     0
1070
   282
1070
     0
1070
   281
1070
     0
1070
    71
1070
     0
1070
    74
1070
     0
1070
   279
1070
     0
1070
   173
1070
     1
1070
   340
1005
FB
1070
   271
1070
     1
1070
   272
1070
     2
1070
    77
1070
     1
1070
    73
1070
     0
1070
   171
1070
     3
1070
   274
1070
     4
1070
   177
1070
   150
1070
   176
1070
     9
1070
   178
1070
    43
1070
    78
1070
     8
1070
    48
1040
-0.1
1070
    41
1040
3.175
1070
   147
1040
1.75006
1070
    42
1040
1.5875
1070
    44
1040
3.175
1070
   140
1040
3.50012
1002
}
1001
ACAD_DSTYLE_DIM_LINETYPE
1070
   380
1005
16
1001
ACAD_DSTYLE_DIM_EXT1_LINETYPE
1070
   381
1005
16
1001
ACAD_DSTYLE_DIM_EXT2_LINETYPE
1070
   382
1005
16
0
DIMENSION
5
145
100
AcDbEntity
8
SK2
62
256
6
ByLayer
370
18
48
1
60
0
100
AcDbDimension
2
_U2
10
-39.24994
20
-3
30
0
11
-39.24994
21
17.10734
31
0
70
32
71
1
72
1
41
1
210
0
220
0
230
1
3
Standard
100
AcDbAlignedDimension
13
-36
23
3
33
0
14
-36
24
-3
34
0
50
90
100
AcDbRotatedDimension
1001
ACAD
1000
DSTYLE
1002
{
1070
   371
1070
    13
1070
   372
1070
    13
1070
     3
1000

1070
   170
1070
     0
1070
   144
1040
1.0
1070
   277
1070
     2
1070
   284
1070
     8
1070
   278
1070
    46
1070
   146
1040
0.999966
1070
   345
1005
16
1070
   347
1005
16
1070
   346
1005
16
1070
   344
1005
101
1070
   343
1005
101
1070
   172
1070
     1
1070
    76
1070
     0
1070
    75
1070
     0
1070
   282
1070
     0
1070
   281
1070
     0
1070
    71
1070
     0
1070
    74
1070
     0
1070
   279
1070
     0
1070
   173
1070
     1
1070
   340
1005
FB
1070
   271
1070
     1
1070
   272
1070
     2
1070
    77
1070
     1
1070
    73
1070
     0
1070
   171
1070
     3
1070
   274
1070
     4
1070
   177
1070
   150
1070
   176
1070
     9
1070
   178
1070
    43
1070
    78
1070
     8
1070
    48
1040
-0.1
1070
    41
1040
3.175
1070
   147
1040
1.75006
1070
    42
1040
1.5875
1070
    44
1040
3.175
1070
   140
1040
3.50012
1002
}
1001
ACAD_DSTYLE_DIM_LINETYPE
1070
   380
1005
16
1001
ACAD_DSTYLE_DIM_EXT1_LINETYPE
1070
   381
1005
16
1001
ACAD_DSTYLE_DIM_EXT2_LINETYPE
1070
   382
1005
16
0
DIMENSION
5
163
100
AcDbEntity
8
SK2
62
256
6
ByLayer
370
18
48
1
60
0
100
AcDbDimension
2
_U3
10
0
20
-26.50012
30
0
11
-18
21
-26.50012
31
0
70
32
71
1
72
1
41
1
210
0
220
0
230
1
3
Standard
100
AcDbAlignedDimension
13
-36
23
-3
33
0
14
0
24
-3
34
0
50
0
100
AcDbRotatedDimension
1001
ACAD
1000
DSTYLE
1002
{
1070
   371
1070
    13
1070
   372
1070
    13
1070
     3
1000

1070
   170
1070
     0
1070
   144
1040
1.0
1070
   277
1070
     2
1070
   284
1070
     8
1070
   278
1070
    46
1070
   146
1040
0.999966
1070
   345
1005
16
1070
   347
1005
16
1070
   346
1005
16
1070
   344
1005
101
1070
   343
1005
101
1070
   172
1070
     1
1070
    76
1070
     0
1070
    75
1070
     0
1070
   282
1070
     0
1070
   281
1070
     0
1070
    71
1070
     0
1070
    74
1070
     0
1070
   279
1070
     0
1070
   173
1070
     1
1070
   340
1005
FB
1070
   271
1070
     1
1070
   272
1070
     2
1070
    77
1070
     1
1070
    73
1070
     1
1070
   171
1070
     3
1070
   274
1070
     4
1070
   177
1070
   150
1070
   176
1070
     9
1070
   178
1070
    43
1070
    78
1070
     8
1070
    48
1040
-0.1
1070
    41
1040
3.175
1070
   147
1040
1.75006
1070
    42
1040
1.5875
1070
    44
1040
3.175
1070
   140
1040
3.50012
1002
}
1001
ACAD_DSTYLE_DIM_LINETYPE
1070
   380
1005
16
1001
ACAD_DSTYLE_DIM_EXT1_LINETYPE
1070
   381
1005
16
1001
ACAD_DSTYLE_DIM_EXT2_LINETYPE
1070
   382
1005
16
0
DIMENSION
5
17F
100
AcDbEntity
8
SK2
62
256
6
ByLayer
370
18
48
1
60
0
100
AcDbDimension
2
_U4
10
30
20
-17.74982
30
0
11
16
21
-17.74982
31
0
70
32
71
1
72
1
41
1
210
0
220
0
230
1
3
Standard
100
AcDbAlignedDimension
13
2
23
2.95
33
0
14
30
24
0
34
0
50
0
100
AcDbRotatedDimension
1001
ACAD
1000
DSTYLE
1002
{
1070
   371
1070
    13
1070
   372
1070
    13
1070
     3
1000

1070
   170
1070
     0
1070
   144
1040
1.0
1070
   277
1070
     2
1070
   284
1070
     8
1070
   278
1070
    46
1070
   146
1040
0.999966
1070
   345
1005
16
1070
   347
1005
16
1070
   346
1005
16
1070
   344
1005
101
1070
   343
1005
101
1070
   172
1070
     1
1070
    76
1070
     0
1070
    75
1070
     0
1070
   282
1070
     0
1070
   281
1070
     0
1070
    71
1070
     0
1070
    74
1070
     0
1070
   279
1070
     0
1070
   173
1070
     1
1070
   340
1005
FB
1070
   271
1070
     1
1070
   272
1070
     2
1070
    77
1070
     1
1070
    73
1070
     1
1070
   171
1070
     3
1070
   274
1070
     4
1070
   177
1070
   150
1070
   176
1070
     9
1070
   178
1070
    43
1070
    78
1070
     8
1070
    48
1040
-0.1
1070
    41
1040
3.175
1070
   147
1040
1.75006
1070
    42
1040
1.5875
1070
    44
1040
3.175
1070
   140
1040
3.50012
1002
}
1001
ACAD_DSTYLE_DIM_LINETYPE
1070
   380
1005
16
1001
ACAD_DSTYLE_DIM_EXT1_LINETYPE
1070
   381
1005
16
1001
ACAD_DSTYLE_DIM_EXT2_LINETYPE
1070
   382
1005
16
0
DIMENSION
5
19B
100
AcDbEntity
8
SK2
62
256
6
ByLayer
370
18
48
1
60
0
100
AcDbDimension
2
_U5
10
30
20
-9.82
30
0
11
22.25
21
-9.82
31
0
70
32
71
1
72
1
41
1
210
0
220
0
230
1
3
Standard
100
AcDbAlignedDimension
13
14.5
23
-2.45
33
0
14
30
24
0
34
0
50
0
100
AcDbRotatedDimension
1001
ACAD
1000
DSTYLE
1002
{
1070
   371
1070
    13
1070
   372
1070
    13
1070
     3
1000

1070
   170
1070
     0
1070
   144
1040
1.0
1070
   277
1070
     2
1070
   284
1070
     8
1070
   278
1070
    46
1070
   146
1040
1.25
1070
   345
1005
16
1070
   347
1005
16
1070
   346
1005
16
1070
   344
1005
101
1070
   343
1005
101
1070
   172
1070
     1
1070
    76
1070
     0
1070
    75
1070
     0
1070
   282
1070
     0
1070
   281
1070
     0
1070
    71
1070
     0
1070
    74
1070
     0
1070
   279
1070
     0
1070
   173
1070
     1
1070
   340
1005
FB
1070
   271
1070
     1
1070
   272
1070
     2
1070
    77
1070
     1
1070
    73
1070
     1
1070
   171
1070
     3
1070
   274
1070
     4
1070
   177
1070
   150
1070
   176
1070
     9
1070
   178
1070
    43
1070
    78
1070
     8
1070
    48
1040
-0.1
1070
    41
1040
3.175
1070
   147
1040
0.42
1070
    42
1040
1.5875
1070
    44
1040
0.5
1070
   140
1040
2.8
1002
}
1001
ACAD_DSTYLE_DIM_LINETYPE
1070
   380
1005
16
1001
ACAD_DSTYLE_DIM_EXT1_LINETYPE
1070
   381
1005
16
1001
ACAD_DSTYLE_DIM_EXT2_LINETYPE
1070
   382
1005
16
0
DIMENSION
5
1B7
100
AcDbEntity
8
SK2
62
256
6
ByLayer
370
18
48
1
60
0
100
AcDbDimension
2
_U6
10
30
20
-36.50012
30
0
11
-3
21
-36.50012
31
0
70
32
71
1
72
1
41
1
210
0
220
0
230
1
3
Standard
100
AcDbAlignedDimension
13
-36
23
0
33
0
14
30
24
0
34
0
50
0
100
AcDbRotatedDimension
1001
ACAD
1000
DSTYLE
1002
{
1070
   371
1070
    13
1070
   372
1070
    13
1070
     3
1000

1070
   170
1070
     0
1070
   144
1040
1.0
1070
   277
1070
     2
1070
   284
1070
     8
1070
   278
1070
    46
1070
   146
1040
0.999966
1070
   345
1005
16
1070
   347
1005
16
1070
   346
1005
16
1070
   344
1005
101
1070
   343
1005
101
1070
   172
1070
     1
1070
    76
1070
     0
1070
    75
1070
     0
1070
   282
1070
     0
1070
   281
1070
     0
1070
    71
1070
     0
1070
    74
1070
     0
1070
   279
1070
     0
1070
   173
1070
     1
1070
   340
1005
FB
1070
   271
1070
     1
1070
   272
1070
     2
1070
    77
1070
     1
1070
    73
1070
     1
1070
   171
1070
     3
1070
   274
1070
     4
1070
   177
1070
   150
1070
   176
1070
     9
1070
   178
1070
    43
1070
    78
1070
     8
1070
    48
1040
-0.1
1070
    41
1040
3.175
1070
   147
1040
1.75006
1070
    42
1040
1.5875
1070
    44
1040
3.175
1070
   140
1040
3.50012
1002
}
1001
ACAD_DSTYLE_DIM_LINETYPE
1070
   380
1005
16
1001
ACAD_DSTYLE_DIM_EXT1_LINETYPE
1070
   381
1005
16
1001
ACAD_DSTYLE_DIM_EXT2_LINETYPE
1070
   382
1005
16
0
ENDSEC
0
SECTION
2
OBJECTS
0
DICTIONARY
5
243
330
0
100
AcDbDictionary
280
0
281
1
3
ACAD_GROUP
350
244
3
ACAD_MLINESTYLE
350
245
0
DICTIONARY
5
244
330
0
100
AcDbDictionary
280
0
281
1
0
DICTIONARY
5
245
330
0
100
AcDbDictionary
280
0
281
1
3
Standard
350
18
0
MLINESTYLE
5
18
330
245
100
AcDbMlineStyle
2
Standard
70
0
3

62
256
51
90
52
90
71
2
49
-0.5
62
256
6
ByLayer
49
0.5
62
256
6
ByLayer
0
RASTERVARIABLES
5
231
330

100
AcDbRasterVariables
90
0
70
1
71
1
72
1
0
ENDSEC
0
EOF
