0
SECTION
2
HEADER
9
$ACADVER
1
AC1015
9
$DWGCODEPAGE
3
ANSI_1252
9
$HANDSEED
5
25a
9
$ANGBASE
50
0
9
$ANGDIR
70
0
9
$ATTMODE
70
1
9
$AUNITS
70
0
9
$AUPREC
70
0
9
$CECOLOR
62
256
9
$CELTSCALE
40
1
9
$CELTYPE
6
ByLayer
9
$CELWEIGHT
370
18
9
$CLAYER
8
0
9
$CMLJUST
70
0
9
$CMLSCALE
40
1
9
$CMLSTYLE
2
Standard
9
$DIMSTYLE
2
Standard
9
$TEXTSIZE
40
0.2
9
$TEXTSTYLE
7
Standard
9
$LUNITS
70
2
9
$LUPREC
70
4
9
$EXTNAMES
290
1
9
$INSUNITS
70
4
9
$LTSCALE
40
1
9
$LWDISPLAY
290
1
9
$PDMODE
70
0
9
$PDSIZE
40
0
9
$PLINEGEN
70
0
0
ENDSEC
0
SECTION
2
CLASSES
0
CLASS
1
RASTERVARIABLES
2
AcDbRasterVariables
3
ISM
90
0
280
0
281
0
0
ENDSEC
0
SECTION
2
TABLES
0
TABLE
2
VPORT
5
250
100
AcDbSymbolTable
0
VPORT
5
1
100
AcDbSymbolTableRecord
100
AcDbViewportTableRecord
2
*Active
70
0
10
0
20
0
11
1
21
1
12
-1
22
1
13
0
23
0
14
0.5
24
0.5
15
10
25
10
16
0
26
0
36
1
17
0
27
0
37
0
0
ENDTAB
0
TABLE
2
LTYPE
5
251
100
AcDbSymbolTable
0
LTYPE
5
14
100
AcDbSymbolTableRecord
100
AcDbLinetypeTableRecord
70
0
2
ByBlock
3

72
65
73
0
40
0
0
LTYPE
5
15
100
AcDbSymbolTableRecord
100
AcDbLinetypeTableRecord
70
0
2
ByLayer
3

72
65
73
0
40
0
0
LTYPE
5
16
100
AcDbSymbolTableRecord
100
AcDbLinetypeTableRecord
70
0
2
Continuous
3
Solid line
72
65
73
0
40
0
0
LTYPE
5
6E
100
AcDbSymbolTableRecord
100
AcDbLinetypeTableRecord
70
0
2
CENTER
3
____ _ ____ _ ____ _ ____
72
65
73
4
40
47.5
49
22
74
0
49
-8.5
74
0
49
8.5
74
0
49
-8.5
74
0
0
LTYPE
5
6F
100
AcDbSymbolTableRecord
100
AcDbLinetypeTableRecord
70
0
2
DASHED
3
__ __ __ __ __ __ __ __ __
72
65
73
2
40
25.72
49
12.86
74
0
49
-12.86
74
0
0
ENDTAB
0
TABLE
2
LAYER
5
252
100
AcDbSymbolTable
0
LAYER
5
10
100
AcDbSymbolTableRecord
100
AcDbLayerTableRecord
2
0
70
0
62
7
6
Continuous
290
1
370
-3
390
0
0
LAYER
5
71
100
AcDbSymbolTableRecord
100
AcDbLayerTableRecord
2
80
70
0
62
-6
6
Continuous
290
1
370
-3
390
0
0
LAYER
5
73
100
AcDbSymbolTableRecord
100
AcDbLayerTableRecord
2
81
70
0
62
-3
6
Continuous
290
1
370
-3
390
0
0
LAYER
5
75
100
AcDbSymbolTableRecord
100
AcDbLayerTableRecord
2
1
70
0
62
4
6
Continuous
290
1
370
-3
390
0
0
LAYER
5
A2
100
AcDbSymbolTableRecord
100
AcDbLayerTableRecord
2
4
70
0
62
-2
6
CENTER
290
1
370
-3
390
0
0
LAYER
5
114
100
AcDbSymbolTableRecord
100
AcDbLayerTableRecord
2
Defpoints
70
0
62
7
6
Continuous
290
0
370
-3
390
0
0
LAYER
5
141
100
AcDbSymbolTableRecord
100
AcDbLayerTableRecord
2
2
70
0
62
7
6
Continuous
290
1
370
-3
390
0
0
LAYER
5
23c
100
AcDbSymbolTableRecord
100
AcDbLayerTableRecord
2
SK1
70
0
62
4
6
Continuous
290
1
370
-3
390
0
0
LAYER
5
23d
100
AcDbSymbolTableRecord
100
AcDbLayerTableRecord
2
SK4
70
0
62
2
6
CENTER
290
1
370
-3
390
0
0
LAYER
5
23e
100
AcDbSymbolTableRecord
100
AcDbLayerTableRecord
2
SK2
70
0
62
7
6
Continuous
290
1
370
-3
390
0
0
LAYER
5
23f
100
AcDbSymbolTableRecord
100
AcDbLayerTableRecord
2
SK6
70
0
62
5
6
Continuous
290
1
370
-3
390
0
0
ENDTAB
0
TABLE
2
STYLE
5
253
100
AcDbSymbolTable
0
STYLE
5
11
100
AcDbSymbolTableRecord
100
AcDbTextStyleTableRecord
2
Standard
3
txt
70
0
71
0
40
0
41
1
42
0
50
0
0
STYLE
5
105
100
AcDbSymbolTableRecord
100
AcDbTextStyleTableRecord
2
iso_b_vert
3
simplex.shx
70
0
71
0
40
0
41
1
42
0
50
0
0
STYLE
5
106
100
AcDbSymbolTableRecord
100
AcDbTextStyleTableRecord
2
DWGDirectTextStyle
3
simplex
70
0
71
0
40
0
41
1
42
0
50
0
0
ENDTAB
0
TABLE
2
DIMSTYLE
5
254
100
AcDbSymbolTable
100
AcDbDimStyleTable
0
DIMSTYLE
105
27
100
AcDbSymbolTableRecord
100
AcDbDimStyleTableRecord
2
Standard
70
0
3
<>
41
0.18
42
0.0625
44
0.18
140
0.18
147
0.09
73
0
74
0
77
1
271
2
275
0
278
52
280
0
340
11
0
ENDTAB
0
TABLE
2
VIEW
5
255
100
AcDbSymbolTable
0
ENDTAB
0
TABLE
2
UCS
5
256
100
AcDbSymbolTable
0
ENDTAB
0
TABLE
2
APPID
5
257
100
AcDbSymbolTable
0
APPID
5
12
100
AcDbSymbolTableRecord
100
AcDbRegAppTableRecord
2
ACAD
70
0
0
APPID
5
109
100
AcDbSymbolTableRecord
100
AcDbRegAppTableRecord
2
ACAD_DSTYLE_DIMBREAK
70
0
0
APPID
5
1FB
100
AcDbSymbolTableRecord
100
AcDbRegAppTableRecord
2
ACAD_DSTYLE_DIM_LINETYPE
70
0
0
APPID
5
1FC
100
AcDbSymbolTableRecord
100
AcDbRegAppTableRecord
2
ACAD_DSTYLE_DIM_EXT1_LINETYPE
70
0
0
APPID
5
1FD
100
AcDbSymbolTableRecord
100
AcDbRegAppTableRecord
2
ACAD_DSTYLE_DIM_EXT2_LINETYPE
70
0
0
APPID
5
238
100
AcDbSymbolTableRecord
100
AcDbRegAppTableRecord
2
ACAD_MLEADERVER
70
0
0
ENDTAB
0
TABLE
2
BLOCK_RECORD
5
258
100
AcDbSymbolTable
0
BLOCK_RECORD
5
1F
100
AcDbSymbolTableRecord
100
AcDbBlockTableRecord
2
*Model_Space
340
0
70
0
0
BLOCK_RECORD
5
1B
100
AcDbSymbolTableRecord
100
AcDbBlockTableRecord
2
*Paper_Space
340
0
70
0
0
BLOCK_RECORD
5
23
100
AcDbSymbolTableRecord
100
AcDbBlockTableRecord
2
*Paper_Space0
340
0
70
0
0
BLOCK_RECORD
5
10B
100
AcDbSymbolTableRecord
100
AcDbBlockTableRecord
2
_Closed
340
0
70
0
0
BLOCK_RECORD
5
115
100
AcDbSymbolTableRecord
100
AcDbBlockTableRecord
2
*D2
340
0
70
0
0
BLOCK_RECORD
5
121
100
AcDbSymbolTableRecord
100
AcDbBlockTableRecord
2
_U0
340
0
70
0
0
BLOCK_RECORD
5
133
100
AcDbSymbolTableRecord
100
AcDbBlockTableRecord
2
*D4
340
0
70
0
0
BLOCK_RECORD
5
142
100
AcDbSymbolTableRecord
100
AcDbBlockTableRecord
2
_U1
340
0
70
0
0
BLOCK_RECORD
5
152
100
AcDbSymbolTableRecord
100
AcDbBlockTableRecord
2
*D6
340
0
70
0
0
BLOCK_RECORD
5
160
100
AcDbSymbolTableRecord
100
AcDbBlockTableRecord
2
_U2
340
0
70
0
0
BLOCK_RECORD
5
170
100
AcDbSymbolTableRecord
100
AcDbBlockTableRecord
2
*D8
340
0
70
0
0
BLOCK_RECORD
5
17C
100
AcDbSymbolTableRecord
100
AcDbBlockTableRecord
2
_U3
340
0
70
0
0
BLOCK_RECORD
5
18C
100
AcDbSymbolTableRecord
100
AcDbBlockTableRecord
2
*D10
340
0
70
0
0
BLOCK_RECORD
5
198
100
AcDbSymbolTableRecord
100
AcDbBlockTableRecord
2
_U4
340
0
70
0
0
BLOCK_RECORD
5
1A8
100
AcDbSymbolTableRecord
100
AcDbBlockTableRecord
2
*D12
340
0
70
0
0
BLOCK_RECORD
5
1B4
100
AcDbSymbolTableRecord
100
AcDbBlockTableRecord
2
_U5
340
0
70
0
0
BLOCK_RECORD
5
1C4
100
AcDbSymbolTableRecord
100
AcDbBlockTableRecord
2
*D14
340
0
70
0
0
BLOCK_RECORD
5
1D0
100
AcDbSymbolTableRecord
100
AcDbBlockTableRecord
2
_U6
340
0
70
0
0
ENDTAB
0
ENDSEC
0
SECTION
2
BLOCKS
0
BLOCK
5
20
100
AcDbEntity
8
0
100
AcDbBlockBegin
2
*Model_Space
70
0
10
0
20
0
30
0
3
*Model_Space
0
ENDBLK
5
21
100
AcDbEntity
8
0
100
AcDbBlockEnd
0
BLOCK
5
1C
100
AcDbEntity
8
0
100
AcDbBlockBegin
2
*Paper_Space
70
0
10
0
20
0
30
0
3
*Paper_Space
0
ENDBLK
5
1D
100
AcDbEntity
8
0
100
AcDbBlockEnd
0
BLOCK
5
24
100
AcDbEntity
8
0
100
AcDbBlockBegin
2
*Paper_Space0
70
0
10
0
20
0
30
0
3
*Paper_Space0
0
ENDBLK
5
25
100
AcDbEntity
8
0
100
AcDbBlockEnd
0
BLOCK
5
10C
100
AcDbEntity
8
0
100
AcDbBlockBegin
2
_Closed
70
0
10
0
20
0
30
0
3
_Closed
0
LINE
5
10E
100
AcDbEntity
8
0
62
256
6
ByLayer
370
-2
48
1
60
0
100
AcDbLine
10
-1
20
0.166667
30
0
11
0
21
0
31
0
39
0
210
0
220
0
230
1
0
LINE
5
10F
100
AcDbEntity
8
0
62
256
6
ByLayer
370
-2
48
1
60
0
100
AcDbLine
10
0
20
0
30
0
11
-1
21
-0.166667
31
0
39
0
210
0
220
0
230
1
0
LINE
5
110
100
AcDbEntity
8
0
62
256
6
ByLayer
370
-2
48
1
60
0
100
AcDbLine
10
-1
20
0.166667
30
0
11
-1
21
-0.166667
31
0
39
0
210
0
220
0
230
1
0
LINE
5
111
100
AcDbEntity
8
0
62
256
6
ByLayer
370
-2
48
1
60
0
100
AcDbLine
10
0
20
0
30
0
11
-1
21
0
31
0
39
0
210
0
220
0
230
1
0
ENDBLK
5
10D
100
AcDbEntity
8
0
100
AcDbBlockEnd
0
BLOCK
5
116
100
AcDbEntity
8
0
100
AcDbBlockBegin
2
*D2
70
1
10
0
20
0
30
0
3
*D2
0
LINE
5
118
100
AcDbEntity
8
0
62
256
6
ByLayer
370
-2
48
1
60
0
100
AcDbLine
10
0
20
-9.5875
30
0
11
0
21
-34.67512
31
0
39
0
210
0
220
0
230
1
0
LINE
5
119
100
AcDbEntity
8
0
62
256
6
ByLayer
370
-2
48
1
60
0
100
AcDbLine
10
67
20
-1.5875
30
0
11
67
21
-34.67512
31
0
39
0
210
0
220
0
230
1
0
LINE
5
11A
100
AcDbEntity
8
0
62
256
6
ByLayer
370
-2
48
1
60
0
100
AcDbLine
10
3.175
20
-31.50012
30
0
11
63.825
21
-31.50012
31
0
39
0
210
0
220
0
230
1
0
SOLID
5
11B
100
AcDbEntity
8
0
62
256
6
ByLayer
370
-1
48
1
60
0
100
AcDbTrace
10
3.175
20
-30.970953
30
0
11
3.175
21
-32.029287
31
0
12
0
22
-31.50012
32
0
13
0
23
-31.50012
33
0
39
0
210
0
220
0
230
1
0
SOLID
5
11C
100
AcDbEntity
8
0
62
256
6
ByLayer
370
-1
48
1
60
0
100
AcDbTrace
10
63.825
20
-32.029287
30
0
11
63.825
21
-30.970953
31
0
12
67
22
-31.50012
32
0
13
67
23
-31.50012
33
0
39
0
210
0
220
0
230
1
0
MTEXT
5
11D
100
AcDbEntity
8
0
62
256
6
ByLayer
370
18
48
1
60
0
100
AcDbMText
10
33.5
20
-24.193619
30
0
210
0
220
0
230
1
1
\A1;67
40
3.50012
41
0
44
1
50
0
71
5
72
5
7
iso_b_vert
0
POINT
5
11E
100
AcDbEntity
8
Defpoints
62
0
6
ByLayer
370
-1
48
1
60
0
100
AcDbPoint
10
0
20
-8
30
0
39
0
210
0
220
0
230
1
50
360
0
POINT
5
11F
100
AcDbEntity
8
Defpoints
62
0
6
ByLayer
370
-1
48
1
60
0
100
AcDbPoint
10
67
20
0
30
0
39
0
210
0
220
0
230
1
50
360
0
POINT
5
120
100
AcDbEntity
8
Defpoints
62
0
6
ByLayer
370
-1
48
1
60
0
100
AcDbPoint
10
67
20
-31.50012
30
0
39
0
210
0
220
0
230
1
50
360
0
ENDBLK
5
117
100
AcDbEntity
8
0
100
AcDbBlockEnd
0
BLOCK
5
12E
100
AcDbEntity
8
0
100
AcDbBlockBegin
2
_U0
70
0
10
0
20
0
30
0
3
_U0
0
MTEXT
5
122
100
AcDbEntity
8
SK2
62
256
6
ByLayer
370
18
48
1
60
0
100
AcDbMText
10
28.270389
20
-30.467451
30
0
210
0
220
0
230
1
1
\W0.7468;67.00
40
3.50012
41
0
44
1.084337
50
0
71
7
72
5
7
iso_b_vert
0
MTEXT
5
123
100
AcDbEntity
8
SK2
62
256
6
ByLayer
370
18
48
1
60
0
100
AcDbMText
10
24.744329
20
-30.400814
30
0
210
0
220
0
230
1
1
\W0.1790;(
40
3.175
41
0
44
1.084337
50
0
71
7
72
5
7
iso_b_vert
0
MTEXT
5
124
100
AcDbEntity
8
SK2
62
256
6
ByLayer
370
18
48
1
60
0
100
AcDbMText
10
42.258393
20
-30.400814
30
0
210
0
220
0
230
1
1
\W0.1969;)
40
3.175
41
0
44
1.084337
50
0
71
7
72
5
7
iso_b_vert
0
LINE
5
125
100
AcDbEntity
8
SK2
62
256
6
ByLayer
370
13
48
1
60
0
100
AcDbLine
10
0
20
-9.5875
30
0
11
0
21
-34.67512
31
0
39
0
210
0
220
0
230
1
0
LINE
5
126
100
AcDbEntity
8
SK2
62
256
6
ByLayer
370
13
48
1
60
0
100
AcDbLine
10
67
20
-1.5875
30
0
11
67
21
-34.67512
31
0
39
0
210
0
220
0
230
1
0
LINE
5
127
100
AcDbEntity
8
SK2
62
256
6
ByLayer
370
13
48
1
60
0
100
AcDbLine
10
0
20
-31.50012
30
0
11
67
21
-31.50012
31
0
39
0
210
0
220
0
230
1
0
LINE
5
128
100
AcDbEntity
8
SK2
62
256
6
ByLayer
370
13
48
1
60
0
100
AcDbLine
10
0
20
-31.50012
30
0
11
3.174998
21
-31.082123
31
0
39
0
210
0
220
0
230
1
0
LINE
5
129
100
AcDbEntity
8
SK2
62
256
6
ByLayer
370
13
48
1
60
0
100
AcDbLine
10
0
20
-31.50012
30
0
11
3.175002
21
-31.918117
31
0
39
0
210
0
220
0
230
1
0
LINE
5
12A
100
AcDbEntity
8
SK2
62
256
6
ByLayer
370
13
48
1
60
0
100
AcDbLine
10
3.174998
20
-31.082123
30
0
11
3.175002
21
-31.918117
31
0
39
0
210
0
220
0
230
1
0
LINE
5
12B
100
AcDbEntity
8
SK2
62
256
6
ByLayer
370
13
48
1
60
0
100
AcDbLine
10
67
20
-31.50012
30
0
11
63.825002
21
-31.918117
31
0
39
0
210
0
220
0
230
1
0
LINE
5
12C
100
AcDbEntity
8
SK2
62
256
6
ByLayer
370
13
48
1
60
0
100
AcDbLine
10
67
20
-31.50012
30
0
11
63.824998
21
-31.082123
31
0
39
0
210
0
220
0
230
1
0
LINE
5
12D
100
AcDbEntity
8
SK2
62
256
6
ByLayer
370
13
48
1
60
0
100
AcDbLine
10
63.825002
20
-31.918117
30
0
11
63.824998
21
-31.082123
31
0
39
0
210
0
220
0
230
1
0
ENDBLK
5
12F
100
AcDbEntity
8
0
100
AcDbBlockEnd
0
BLOCK
5
134
100
AcDbEntity
8
0
100
AcDbBlockBegin
2
*D4
70
1
10
0
20
0
30
0
3
*D4
0
LINE
5
136
100
AcDbEntity
8
0
62
256
6
ByLayer
370
-2
48
1
60
0
100
AcDbLine
10
65.6994
20
-7.935
30
0
11
76.92506
21
-7.935
31
0
39
0
210
0
220
0
230
1
0
LINE
5
137
100
AcDbEntity
8
0
62
256
6
ByLayer
370
-2
48
1
60
0
100
AcDbLine
10
65.6994
20
7.935
30
0
11
76.92506
21
7.935
31
0
39
0
210
0
220
0
230
1
0
LINE
5
138
100
AcDbEntity
8
0
62
256
6
ByLayer
370
-2
48
1
60
0
100
AcDbLine
10
73.75006
20
7.935
30
0
11
73.75006
21
35.398224
31
0
39
0
210
0
220
0
230
1
0
LINE
5
139
100
AcDbEntity
8
0
62
256
6
ByLayer
370
-2
48
1
60
0
100
AcDbLine
10
73.75006
20
-11.11
30
0
11
73.75006
21
-14.285
31
0
39
0
210
0
220
0
230
1
0
LINE
5
13A
100
AcDbEntity
8
0
62
256
6
ByLayer
370
-2
48
1
60
0
100
AcDbLine
10
73.75006
20
11.11
30
0
11
73.75006
21
14.285
31
0
39
0
210
0
220
0
230
1
0
SOLID
5
13B
100
AcDbEntity
8
0
62
256
6
ByLayer
370
-1
48
1
60
0
100
AcDbTrace
10
74.279227
20
-11.11
30
0
11
73.220893
21
-11.11
31
0
12
73.75006
22
-7.935
32
0
13
73.75006
23
-7.935
33
0
39
0
210
0
220
0
230
1
0
SOLID
5
13C
100
AcDbEntity
8
0
62
256
6
ByLayer
370
-1
48
1
60
0
100
AcDbTrace
10
73.220893
20
11.11
30
0
11
74.279227
21
11.11
31
0
12
73.75006
22
7.935
32
0
13
73.75006
23
7.935
33
0
39
0
210
0
220
0
230
1
0
MTEXT
5
13D
100
AcDbEntity
8
0
62
256
6
ByLayer
370
18
48
1
60
0
100
AcDbMText
10
66.44356
20
24.841612
30
0
210
0
220
0
230
1
1
\A1;15.9
40
3.50012
41
0
44
1
50
90
71
5
72
5
7
iso_b_vert
0
POINT
5
13E
100
AcDbEntity
8
Defpoints
62
0
6
ByLayer
370
-1
48
1
60
0
100
AcDbPoint
10
64.1119
20
-7.935
30
0
39
0
210
0
220
0
230
1
50
360
0
POINT
5
13F
100
AcDbEntity
8
Defpoints
62
0
6
ByLayer
370
-1
48
1
60
0
100
AcDbPoint
10
64.1119
20
7.935
30
0
39
0
210
0
220
0
230
1
50
360
0
POINT
5
140
100
AcDbEntity
8
Defpoints
62
0
6
ByLayer
370
-1
48
1
60
0
100
AcDbPoint
10
73.75006
20
7.935
30
0
39
0
210
0
220
0
230
1
50
360
0
ENDBLK
5
135
100
AcDbEntity
8
0
100
AcDbBlockEnd
0
BLOCK
5
14D
100
AcDbEntity
8
0
100
AcDbBlockBegin
2
_U1
70
0
10
0
20
0
30
0
3
_U1
0
MTEXT
5
143
100
AcDbEntity
8
2
62
256
6
ByLayer
370
18
48
1
60
0
100
AcDbMText
10
73.060403
20
12.092505
30
0
210
0
220
0
230
1
1
\W0.6864;15.87
40
3.50012
41
0
44
1.084337
50
90
71
7
72
5
7
iso_b_vert
0
LINE
5
144
100
AcDbEntity
8
2
62
256
6
ByLayer
370
13
48
1
60
0
100
AcDbLine
10
65.6994
20
-7.935
30
0
11
76.92506
21
-7.935
31
0
39
0
210
0
220
0
230
1
0
LINE
5
145
100
AcDbEntity
8
2
62
256
6
ByLayer
370
13
48
1
60
0
100
AcDbLine
10
65.6994
20
7.935
30
0
11
76.92506
21
7.935
31
0
39
0
210
0
220
0
230
1
0
LINE
5
146
100
AcDbEntity
8
2
62
256
6
ByLayer
370
13
48
1
60
0
100
AcDbLine
10
73.75006
20
-7.935
30
0
11
73.75006
21
21.890339
31
0
39
0
210
0
220
0
230
1
0
LINE
5
147
100
AcDbEntity
8
2
62
256
6
ByLayer
370
13
48
1
60
0
100
AcDbLine
10
73.75006
20
-7.935
30
0
11
73.332063
21
-4.760002
31
0
39
0
210
0
220
0
230
1
0
LINE
5
148
100
AcDbEntity
8
2
62
256
6
ByLayer
370
13
48
1
60
0
100
AcDbLine
10
73.75006
20
-7.935
30
0
11
74.168057
21
-4.759998
31
0
39
0
210
0
220
0
230
1
0
LINE
5
149
100
AcDbEntity
8
2
62
256
6
ByLayer
370
13
48
1
60
0
100
AcDbLine
10
73.332063
20
-4.760002
30
0
11
74.168057
21
-4.759998
31
0
39
0
210
0
220
0
230
1
0
LINE
5
14A
100
AcDbEntity
8
2
62
256
6
ByLayer
370
13
48
1
60
0
100
AcDbLine
10
73.75006
20
7.935
30
0
11
74.168057
21
4.760002
31
0
39
0
210
0
220
0
230
1
0
LINE
5
14B
100
AcDbEntity
8
2
62
256
6
ByLayer
370
13
48
1
60
0
100
AcDbLine
10
73.75006
20
7.935
30
0
11
73.332063
21
4.759998
31
0
39
0
210
0
220
0
230
1
0
LINE
5
14C
100
AcDbEntity
8
2
62
256
6
ByLayer
370
13
48
1
60
0
100
AcDbLine
10
74.168057
20
4.760002
30
0
11
73.332063
21
4.759998
31
0
39
0
210
0
220
0
230
1
0
ENDBLK
5
14E
100
AcDbEntity
8
0
100
AcDbBlockEnd
0
BLOCK
5
153
100
AcDbEntity
8
0
100
AcDbBlockBegin
2
*D6
70
1
10
0
20
0
30
0
3
*D6
0
LINE
5
155
100
AcDbEntity
8
0
62
256
6
ByLayer
370
-2
48
1
60
0
100
AcDbLine
10
-49.5875
20
8
30
0
11
-54.42494
21
8
31
0
39
0
210
0
220
0
230
1
0
LINE
5
156
100
AcDbEntity
8
0
62
256
6
ByLayer
370
-2
48
1
60
0
100
AcDbLine
10
-49.5875
20
-8
30
0
11
-54.42494
21
-8
31
0
39
0
210
0
220
0
230
1
0
LINE
5
157
100
AcDbEntity
8
0
62
256
6
ByLayer
370
-2
48
1
60
0
100
AcDbLine
10
-51.24994
20
8
30
0
11
-51.24994
21
31.117532
31
0
39
0
210
0
220
0
230
1
0
LINE
5
158
100
AcDbEntity
8
0
62
256
6
ByLayer
370
-2
48
1
60
0
100
AcDbLine
10
-51.24994
20
11.175
30
0
11
-51.24994
21
14.35
31
0
39
0
210
0
220
0
230
1
0
LINE
5
159
100
AcDbEntity
8
0
62
256
6
ByLayer
370
-2
48
1
60
0
100
AcDbLine
10
-51.24994
20
-11.175
30
0
11
-51.24994
21
-14.35
31
0
39
0
210
0
220
0
230
1
0
SOLID
5
15A
100
AcDbEntity
8
0
62
256
6
ByLayer
370
-1
48
1
60
0
100
AcDbTrace
10
-51.779107
20
11.175
30
0
11
-50.720773
21
11.175
31
0
12
-51.24994
22
8
32
0
13
-51.24994
23
8
33
0
39
0
210
0
220
0
230
1
0
SOLID
5
15B
100
AcDbEntity
8
0
62
256
6
ByLayer
370
-1
48
1
60
0
100
AcDbTrace
10
-50.720773
20
-11.175
30
0
11
-51.779107
21
-11.175
31
0
12
-51.24994
22
-8
32
0
13
-51.24994
23
-8
33
0
39
0
210
0
220
0
230
1
0
MTEXT
5
15C
100
AcDbEntity
8
0
62
256
6
ByLayer
370
18
48
1
60
0
100
AcDbMText
10
-58.556441
20
22.97767
30
0
210
0
220
0
230
1
1
\A1;16
40
3.50012
41
0
44
1
50
90
71
5
72
5
7
iso_b_vert
0
POINT
5
15D
100
AcDbEntity
8
Defpoints
62
0
6
ByLayer
370
-1
48
1
60
0
100
AcDbPoint
10
-48
20
8
30
0
39
0
210
0
220
0
230
1
50
360
0
POINT
5
15E
100
AcDbEntity
8
Defpoints
62
0
6
ByLayer
370
-1
48
1
60
0
100
AcDbPoint
10
-48
20
-8
30
0
39
0
210
0
220
0
230
1
50
360
0
POINT
5
15F
100
AcDbEntity
8
Defpoints
62
0
6
ByLayer
370
-1
48
1
60
0
100
AcDbPoint
10
-51.24994
20
-8
30
0
39
0
210
0
220
0
230
1
50
360
0
ENDBLK
5
154
100
AcDbEntity
8
0
100
AcDbBlockEnd
0
BLOCK
5
16B
100
AcDbEntity
8
0
100
AcDbBlockBegin
2
_U2
70
0
10
0
20
0
30
0
3
_U2
0
MTEXT
5
161
100
AcDbEntity
8
SK2
62
256
6
ByLayer
370
18
48
1
60
0
100
AcDbMText
10
-51.939597
20
18.157505
30
0
210
0
220
0
230
1
1
\W0.6864;16.00
40
3.50012
41
0
44
1.084337
50
90
71
7
72
5
7
iso_b_vert
0
LINE
5
162
100
AcDbEntity
8
SK2
62
256
6
ByLayer
370
13
48
1
60
0
100
AcDbLine
10
-49.5875
20
8
30
0
11
-54.42494
21
8
31
0
39
0
210
0
220
0
230
1
0
LINE
5
163
100
AcDbEntity
8
SK2
62
256
6
ByLayer
370
13
48
1
60
0
100
AcDbLine
10
-49.5875
20
-8
30
0
11
-54.42494
21
-8
31
0
39
0
210
0
220
0
230
1
0
LINE
5
164
100
AcDbEntity
8
SK2
62
256
6
ByLayer
370
13
48
1
60
0
100
AcDbLine
10
-51.24994
20
-8
30
0
11
-51.24994
21
27.955339
31
0
39
0
210
0
220
0
230
1
0
LINE
5
165
100
AcDbEntity
8
SK2
62
256
6
ByLayer
370
13
48
1
60
0
100
AcDbLine
10
-51.24994
20
8
30
0
11
-50.831943
21
4.825002
31
0
39
0
210
0
220
0
230
1
0
LINE
5
166
100
AcDbEntity
8
SK2
62
256
6
ByLayer
370
13
48
1
60
0
100
AcDbLine
10
-51.24994
20
8
30
0
11
-51.667937
21
4.824998
31
0
39
0
210
0
220
0
230
1
0
LINE
5
167
100
AcDbEntity
8
SK2
62
256
6
ByLayer
370
13
48
1
60
0
100
AcDbLine
10
-50.831943
20
4.825002
30
0
11
-51.667937
21
4.824998
31
0
39
0
210
0
220
0
230
1
0
LINE
5
168
100
AcDbEntity
8
SK2
62
256
6
ByLayer
370
13
48
1
60
0
100
AcDbLine
10
-51.24994
20
-8
30
0
11
-51.667937
21
-4.825002
31
0
39
0
210
0
220
0
230
1
0
LINE
5
169
100
AcDbEntity
8
SK2
62
256
6
ByLayer
370
13
48
1
60
0
100
AcDbLine
10
-51.24994
20
-8
30
0
11
-50.831943
21
-4.824998
31
0
39
0
210
0
220
0
230
1
0
LINE
5
16A
100
AcDbEntity
8
SK2
62
256
6
ByLayer
370
13
48
1
60
0
100
AcDbLine
10
-51.667937
20
-4.825002
30
0
11
-50.831943
21
-4.824998
31
0
39
0
210
0
220
0
230
1
0
ENDBLK
5
16C
100
AcDbEntity
8
0
100
AcDbBlockEnd
0
BLOCK
5
171
100
AcDbEntity
8
0
100
AcDbBlockBegin
2
*D8
70
1
10
0
20
0
30
0
3
*D8
0
LINE
5
173
100
AcDbEntity
8
0
62
256
6
ByLayer
370
-2
48
1
60
0
100
AcDbLine
10
-48
20
-9.5875
30
0
11
-48
21
-34.67512
31
0
39
0
210
0
220
0
230
1
0
LINE
5
174
100
AcDbEntity
8
0
62
256
6
ByLayer
370
-2
48
1
60
0
100
AcDbLine
10
0
20
-9.5875
30
0
11
0
21
-34.67512
31
0
39
0
210
0
220
0
230
1
0
LINE
5
175
100
AcDbEntity
8
0
62
256
6
ByLayer
370
-2
48
1
60
0
100
AcDbLine
10
-44.825
20
-31.50012
30
0
11
-3.175
21
-31.50012
31
0
39
0
210
0
220
0
230
1
0
SOLID
5
176
100
AcDbEntity
8
0
62
256
6
ByLayer
370
-1
48
1
60
0
100
AcDbTrace
10
-44.825
20
-30.970953
30
0
11
-44.825
21
-32.029287
31
0
12
-48
22
-31.50012
32
0
13
-48
23
-31.50012
33
0
39
0
210
0
220
0
230
1
0
SOLID
5
177
100
AcDbEntity
8
0
62
256
6
ByLayer
370
-1
48
1
60
0
100
AcDbTrace
10
-3.175
20
-32.029287
30
0
11
-3.175
21
-30.970953
31
0
12
0
22
-31.50012
32
0
13
0
23
-31.50012
33
0
39
0
210
0
220
0
230
1
0
MTEXT
5
178
100
AcDbEntity
8
0
62
256
6
ByLayer
370
18
48
1
60
0
100
AcDbMText
10
-24
20
-24.193619
30
0
210
0
220
0
230
1
1
\A1;48
40
3.50012
41
0
44
1
50
0
71
5
72
5
7
iso_b_vert
0
POINT
5
179
100
AcDbEntity
8
Defpoints
62
0
6
ByLayer
370
-1
48
1
60
0
100
AcDbPoint
10
-48
20
-8
30
0
39
0
210
0
220
0
230
1
50
360
0
POINT
5
17A
100
AcDbEntity
8
Defpoints
62
0
6
ByLayer
370
-1
48
1
60
0
100
AcDbPoint
10
0
20
-8
30
0
39
0
210
0
220
0
230
1
50
360
0
POINT
5
17B
100
AcDbEntity
8
Defpoints
62
0
6
ByLayer
370
-1
48
1
60
0
100
AcDbPoint
10
0
20
-31.50012
30
0
39
0
210
0
220
0
230
1
50
360
0
ENDBLK
5
172
100
AcDbEntity
8
0
100
AcDbBlockEnd
0
BLOCK
5
187
100
AcDbEntity
8
0
100
AcDbBlockBegin
2
_U3
70
0
10
0
20
0
30
0
3
_U3
0
MTEXT
5
17D
100
AcDbEntity
8
SK2
62
256
6
ByLayer
370
18
48
1
60
0
100
AcDbMText
10
-29.413884
20
-30.467451
30
0
210
0
220
0
230
1
1
\W0.7694;48.00
40
3.50012
41
0
44
1.084337
50
0
71
7
72
5
7
iso_b_vert
0
LINE
5
17E
100
AcDbEntity
8
SK2
62
256
6
ByLayer
370
13
48
1
60
0
100
AcDbLine
10
-48
20
-9.5875
30
0
11
-48
21
-34.67512
31
0
39
0
210
0
220
0
230
1
0
LINE
5
17F
100
AcDbEntity
8
SK2
62
256
6
ByLayer
370
13
48
1
60
0
100
AcDbLine
10
0
20
-9.5875
30
0
11
0
21
-34.67512
31
0
39
0
210
0
220
0
230
1
0
LINE
5
180
100
AcDbEntity
8
SK2
62
256
6
ByLayer
370
13
48
1
60
0
100
AcDbLine
10
-48
20
-31.50012
30
0
11
0
21
-31.50012
31
0
39
0
210
0
220
0
230
1
0
LINE
5
181
100
AcDbEntity
8
SK2
62
256
6
ByLayer
370
13
48
1
60
0
100
AcDbLine
10
-48
20
-31.50012
30
0
11
-44.825002
21
-31.082123
31
0
39
0
210
0
220
0
230
1
0
LINE
5
182
100
AcDbEntity
8
SK2
62
256
6
ByLayer
370
13
48
1
60
0
100
AcDbLine
10
-48
20
-31.50012
30
0
11
-44.824998
21
-31.918117
31
0
39
0
210
0
220
0
230
1
0
LINE
5
183
100
AcDbEntity
8
SK2
62
256
6
ByLayer
370
13
48
1
60
0
100
AcDbLine
10
-44.825002
20
-31.082123
30
0
11
-44.824998
21
-31.918117
31
0
39
0
210
0
220
0
230
1
0
LINE
5
184
100
AcDbEntity
8
SK2
62
256
6
ByLayer
370
13
48
1
60
0
100
AcDbLine
10
0
20
-31.50012
30
0
11
-3.174998
21
-31.918117
31
0
39
0
210
0
220
0
230
1
0
LINE
5
185
100
AcDbEntity
8
SK2
62
256
6
ByLayer
370
13
48
1
60
0
100
AcDbLine
10
0
20
-31.50012
30
0
11
-3.175002
21
-31.082123
31
0
39
0
210
0
220
0
230
1
0
LINE
5
186
100
AcDbEntity
8
SK2
62
256
6
ByLayer
370
13
48
1
60
0
100
AcDbLine
10
-3.174998
20
-31.918117
30
0
11
-3.175002
21
-31.082123
31
0
39
0
210
0
220
0
230
1
0
ENDBLK
5
188
100
AcDbEntity
8
0
100
AcDbBlockEnd
0
BLOCK
5
18D
100
AcDbEntity
8
0
100
AcDbBlockBegin
2
*D10
70
1
10
0
20
0
30
0
3
*D10
0
LINE
5
18F
100
AcDbEntity
8
0
62
256
6
ByLayer
370
-2
48
1
60
0
100
AcDbLine
10
2
20
6.8475
30
0
11
2
21
-25.92482
31
0
39
0
210
0
220
0
230
1
0
LINE
5
190
100
AcDbEntity
8
0
62
256
6
ByLayer
370
-2
48
1
60
0
100
AcDbLine
10
67
20
-1.5875
30
0
11
67
21
-25.92482
31
0
39
0
210
0
220
0
230
1
0
LINE
5
191
100
AcDbEntity
8
0
62
256
6
ByLayer
370
-2
48
1
60
0
100
AcDbLine
10
5.175
20
-22.74982
30
0
11
63.825
21
-22.74982
31
0
39
0
210
0
220
0
230
1
0
SOLID
5
192
100
AcDbEntity
8
0
62
256
6
ByLayer
370
-1
48
1
60
0
100
AcDbTrace
10
5.175
20
-22.220653
30
0
11
5.175
21
-23.278987
31
0
12
2
22
-22.74982
32
0
13
2
23
-22.74982
33
0
39
0
210
0
220
0
230
1
0
SOLID
5
193
100
AcDbEntity
8
0
62
256
6
ByLayer
370
-1
48
1
60
0
100
AcDbTrace
10
63.825
20
-23.278987
30
0
11
63.825
21
-22.220653
31
0
12
67
22
-22.74982
32
0
13
67
23
-22.74982
33
0
39
0
210
0
220
0
230
1
0
MTEXT
5
194
100
AcDbEntity
8
0
62
256
6
ByLayer
370
18
48
1
60
0
100
AcDbMText
10
34.5
20
-15.44332
30
0
210
0
220
0
230
1
1
\A1;65
40
3.50012
41
0
44
1
50
0
71
5
72
5
7
iso_b_vert
0
POINT
5
195
100
AcDbEntity
8
Defpoints
62
0
6
ByLayer
370
-1
48
1
60
0
100
AcDbPoint
10
2
20
8.435
30
0
39
0
210
0
220
0
230
1
50
360
0
POINT
5
196
100
AcDbEntity
8
Defpoints
62
0
6
ByLayer
370
-1
48
1
60
0
100
AcDbPoint
10
67
20
0
30
0
39
0
210
0
220
0
230
1
50
360
0
POINT
5
197
100
AcDbEntity
8
Defpoints
62
0
6
ByLayer
370
-1
48
1
60
0
100
AcDbPoint
10
67
20
-22.74982
30
0
39
0
210
0
220
0
230
1
50
360
0
ENDBLK
5
18E
100
AcDbEntity
8
0
100
AcDbBlockEnd
0
BLOCK
5
1A3
100
AcDbEntity
8
0
100
AcDbBlockBegin
2
_U4
70
0
10
0
20
0
30
0
3
_U4
0
MTEXT
5
199
100
AcDbEntity
8
SK2
62
256
6
ByLayer
370
18
48
1
60
0
100
AcDbMText
10
29.270389
20
-21.717151
30
0
210
0
220
0
230
1
1
\W0.7468;65.00
40
3.50012
41
0
44
1.084337
50
0
71
7
72
5
7
iso_b_vert
0
LINE
5
19A
100
AcDbEntity
8
SK2
62
256
6
ByLayer
370
13
48
1
60
0
100
AcDbLine
10
2
20
6.8475
30
0
11
2
21
-25.92482
31
0
39
0
210
0
220
0
230
1
0
LINE
5
19B
100
AcDbEntity
8
SK2
62
256
6
ByLayer
370
13
48
1
60
0
100
AcDbLine
10
67
20
-1.5875
30
0
11
67
21
-25.92482
31
0
39
0
210
0
220
0
230
1
0
LINE
5
19C
100
AcDbEntity
8
SK2
62
256
6
ByLayer
370
13
48
1
60
0
100
AcDbLine
10
2
20
-22.74982
30
0
11
67
21
-22.74982
31
0
39
0
210
0
220
0
230
1
0
LINE
5
19D
100
AcDbEntity
8
SK2
62
256
6
ByLayer
370
13
48
1
60
0
100
AcDbLine
10
2
20
-22.74982
30
0
11
5.174998
21
-22.331823
31
0
39
0
210
0
220
0
230
1
0
LINE
5
19E
100
AcDbEntity
8
SK2
62
256
6
ByLayer
370
13
48
1
60
0
100
AcDbLine
10
2
20
-22.74982
30
0
11
5.175002
21
-23.167817
31
0
39
0
210
0
220
0
230
1
0
LINE
5
19F
100
AcDbEntity
8
SK2
62
256
6
ByLayer
370
13
48
1
60
0
100
AcDbLine
10
5.174998
20
-22.331823
30
0
11
5.175002
21
-23.167817
31
0
39
0
210
0
220
0
230
1
0
LINE
5
1A0
100
AcDbEntity
8
SK2
62
256
6
ByLayer
370
13
48
1
60
0
100
AcDbLine
10
67
20
-22.74982
30
0
11
63.825002
21
-23.167817
31
0
39
0
210
0
220
0
230
1
0
LINE
5
1A1
100
AcDbEntity
8
SK2
62
256
6
ByLayer
370
13
48
1
60
0
100
AcDbLine
10
67
20
-22.74982
30
0
11
63.824998
21
-22.331823
31
0
39
0
210
0
220
0
230
1
0
LINE
5
1A2
100
AcDbEntity
8
SK2
62
256
6
ByLayer
370
13
48
1
60
0
100
AcDbLine
10
63.825002
20
-23.167817
30
0
11
63.824998
21
-22.331823
31
0
39
0
210
0
220
0
230
1
0
ENDBLK
5
1A4
100
AcDbEntity
8
0
100
AcDbBlockEnd
0
BLOCK
5
1A9
100
AcDbEntity
8
0
100
AcDbBlockBegin
2
*D12
70
1
10
0
20
0
30
0
3
*D12
0
LINE
5
1AB
100
AcDbEntity
8
0
62
256
6
ByLayer
370
-2
48
1
60
0
100
AcDbLine
10
22
20
-9.5225
30
0
11
22
21
-15.32
31
0
39
0
210
0
220
0
230
1
0
LINE
5
1AC
100
AcDbEntity
8
0
62
256
6
ByLayer
370
-2
48
1
60
0
100
AcDbLine
10
67
20
-1.5875
30
0
11
67
21
-15.32
31
0
39
0
210
0
220
0
230
1
0
LINE
5
1AD
100
AcDbEntity
8
0
62
256
6
ByLayer
370
-2
48
1
60
0
100
AcDbLine
10
25.175
20
-14.82
30
0
11
63.825
21
-14.82
31
0
39
0
210
0
220
0
230
1
0
SOLID
5
1AE
100
AcDbEntity
8
0
62
256
6
ByLayer
370
-1
48
1
60
0
100
AcDbTrace
10
25.175
20
-14.290833
30
0
11
25.175
21
-15.349167
31
0
12
22
22
-14.82
32
0
13
22
23
-14.82
33
0
39
0
210
0
220
0
230
1
0
SOLID
5
1AF
100
AcDbEntity
8
0
62
256
6
ByLayer
370
-1
48
1
60
0
100
AcDbTrace
10
63.825
20
-15.349167
30
0
11
63.825
21
-14.290833
31
0
12
67
22
-14.82
32
0
13
67
23
-14.82
33
0
39
0
210
0
220
0
230
1
0
MTEXT
5
1B0
100
AcDbEntity
8
0
62
256
6
ByLayer
370
18
48
1
60
0
100
AcDbMText
10
44.5
20
-8.975
30
0
210
0
220
0
230
1
1
\A1;45
40
2.8
41
0
44
1
50
0
71
5
72
5
7
iso_b_vert
0
POINT
5
1B1
100
AcDbEntity
8
Defpoints
62
0
6
ByLayer
370
-1
48
1
60
0
100
AcDbPoint
10
22
20
-7.935
30
0
39
0
210
0
220
0
230
1
50
360
0
POINT
5
1B2
100
AcDbEntity
8
Defpoints
62
0
6
ByLayer
370
-1
48
1
60
0
100
AcDbPoint
10
67
20
0
30
0
39
0
210
0
220
0
230
1
50
360
0
POINT
5
1B3
100
AcDbEntity
8
Defpoints
62
0
6
ByLayer
370
-1
48
1
60
0
100
AcDbPoint
10
67
20
-14.82
30
0
39
0
210
0
220
0
230
1
50
360
0
ENDBLK
5
1AA
100
AcDbEntity
8
0
100
AcDbBlockEnd
0
BLOCK
5
1BF
100
AcDbEntity
8
0
100
AcDbBlockBegin
2
_U5
70
0
10
0
20
0
30
0
3
_U5
0
MTEXT
5
1B5
100
AcDbEntity
8
SK2
62
256
6
ByLayer
370
18
48
1
60
0
100
AcDbMText
10
40.169041
20
-14.973893
30
0
210
0
220
0
230
1
1
\W0.7694;45.00
40
2.8
41
0
44
1.084337
50
0
71
7
72
5
7
iso_b_vert
0
LINE
5
1B6
100
AcDbEntity
8
SK2
62
256
6
ByLayer
370
13
48
1
60
0
100
AcDbLine
10
22
20
-9.5225
30
0
11
22
21
-15.32
31
0
39
0
210
0
220
0
230
1
0
LINE
5
1B7
100
AcDbEntity
8
SK2
62
256
6
ByLayer
370
13
48
1
60
0
100
AcDbLine
10
67
20
-1.5875
30
0
11
67
21
-15.32
31
0
39
0
210
0
220
0
230
1
0
LINE
5
1B8
100
AcDbEntity
8
SK2
62
256
6
ByLayer
370
13
48
1
60
0
100
AcDbLine
10
22
20
-14.82
30
0
11
67
21
-14.82
31
0
39
0
210
0
220
0
230
1
0
LINE
5
1B9
100
AcDbEntity
8
SK2
62
256
6
ByLayer
370
13
48
1
60
0
100
AcDbLine
10
22
20
-14.82
30
0
11
25.174998
21
-14.402003
31
0
39
0
210
0
220
0
230
1
0
LINE
5
1BA
100
AcDbEntity
8
SK2
62
256
6
ByLayer
370
13
48
1
60
0
100
AcDbLine
10
22
20
-14.82
30
0
11
25.175002
21
-15.237997
31
0
39
0
210
0
220
0
230
1
0
LINE
5
1BB
100
AcDbEntity
8
SK2
62
256
6
ByLayer
370
13
48
1
60
0
100
AcDbLine
10
25.174998
20
-14.402003
30
0
11
25.175002
21
-15.237997
31
0
39
0
210
0
220
0
230
1
0
LINE
5
1BC
100
AcDbEntity
8
SK2
62
256
6
ByLayer
370
13
48
1
60
0
100
AcDbLine
10
67
20
-14.82
30
0
11
63.825002
21
-15.237997
31
0
39
0
210
0
220
0
230
1
0
LINE
5
1BD
100
AcDbEntity
8
SK2
62
256
6
ByLayer
370
13
48
1
60
0
100
AcDbLine
10
67
20
-14.82
30
0
11
63.824998
21
-14.402003
31
0
39
0
210
0
220
0
230
1
0
LINE
5
1BE
100
AcDbEntity
8
SK2
62
256
6
ByLayer
370
13
48
1
60
0
100
AcDbLine
10
63.825002
20
-15.237997
30
0
11
63.824998
21
-14.402003
31
0
39
0
210
0
220
0
230
1
0
ENDBLK
5
1C0
100
AcDbEntity
8
0
100
AcDbBlockEnd
0
BLOCK
5
1C5
100
AcDbEntity
8
0
100
AcDbBlockBegin
2
*D14
70
1
10
0
20
0
30
0
3
*D14
0
LINE
5
1C7
100
AcDbEntity
8
0
62
256
6
ByLayer
370
-2
48
1
60
0
100
AcDbLine
10
-48
20
-1.5875
30
0
11
-48
21
-44.67512
31
0
39
0
210
0
220
0
230
1
0
LINE
5
1C8
100
AcDbEntity
8
0
62
256
6
ByLayer
370
-2
48
1
60
0
100
AcDbLine
10
67
20
-1.5875
30
0
11
67
21
-44.67512
31
0
39
0
210
0
220
0
230
1
0
LINE
5
1C9
100
AcDbEntity
8
0
62
256
6
ByLayer
370
-2
48
1
60
0
100
AcDbLine
10
-44.825
20
-41.50012
30
0
11
63.825
21
-41.50012
31
0
39
0
210
0
220
0
230
1
0
SOLID
5
1CA
100
AcDbEntity
8
0
62
256
6
ByLayer
370
-1
48
1
60
0
100
AcDbTrace
10
-44.825
20
-40.970953
30
0
11
-44.825
21
-42.029287
31
0
12
-48
22
-41.50012
32
0
13
-48
23
-41.50012
33
0
39
0
210
0
220
0
230
1
0
SOLID
5
1CB
100
AcDbEntity
8
0
62
256
6
ByLayer
370
-1
48
1
60
0
100
AcDbTrace
10
63.825
20
-42.029287
30
0
11
63.825
21
-40.970953
31
0
12
67
22
-41.50012
32
0
13
67
23
-41.50012
33
0
39
0
210
0
220
0
230
1
0
MTEXT
5
1CC
100
AcDbEntity
8
0
62
256
6
ByLayer
370
18
48
1
60
0
100
AcDbMText
10
9.5
20
-34.19362
30
0
210
0
220
0
230
1
1
\A1;115
40
3.50012
41
0
44
1
50
0
71
5
72
5
7
iso_b_vert
0
POINT
5
1CD
100
AcDbEntity
8
Defpoints
62
0
6
ByLayer
370
-1
48
1
60
0
100
AcDbPoint
10
-48
20
0
30
0
39
0
210
0
220
0
230
1
50
360
0
POINT
5
1CE
100
AcDbEntity
8
Defpoints
62
0
6
ByLayer
370
-1
48
1
60
0
100
AcDbPoint
10
67
20
0
30
0
39
0
210
0
220
0
230
1
50
360
0
POINT
5
1CF
100
AcDbEntity
8
Defpoints
62
0
6
ByLayer
370
-1
48
1
60
0
100
AcDbPoint
10
67
20
-41.50012
30
0
39
0
210
0
220
0
230
1
50
360
0
ENDBLK
5
1C6
100
AcDbEntity
8
0
100
AcDbBlockEnd
0
BLOCK
5
1DB
100
AcDbEntity
8
0
100
AcDbBlockBegin
2
_U6
70
0
10
0
20
0
30
0
3
_U6
0
MTEXT
5
1D1
100
AcDbEntity
8
SK2
62
256
6
ByLayer
370
18
48
1
60
0
100
AcDbMText
10
3.837507
20
-40.467451
30
0
210
0
220
0
230
1
1
\W0.6532;115.00
40
3.50012
41
0
44
1.084337
50
0
71
7
72
5
7
iso_b_vert
0
LINE
5
1D2
100
AcDbEntity
8
SK2
62
256
6
ByLayer
370
13
48
1
60
0
100
AcDbLine
10
-48
20
-1.5875
30
0
11
-48
21
-44.67512
31
0
39
0
210
0
220
0
230
1
0
LINE
5
1D3
100
AcDbEntity
8
SK2
62
256
6
ByLayer
370
13
48
1
60
0
100
AcDbLine
10
67
20
-1.5875
30
0
11
67
21
-44.67512
31
0
39
0
210
0
220
0
230
1
0
LINE
5
1D4
100
AcDbEntity
8
SK2
62
256
6
ByLayer
370
13
48
1
60
0
100
AcDbLine
10
-48
20
-41.50012
30
0
11
67
21
-41.50012
31
0
39
0
210
0
220
0
230
1
0
LINE
5
1D5
100
AcDbEntity
8
SK2
62
256
6
ByLayer
370
13
48
1
60
0
100
AcDbLine
10
-48
20
-41.50012
30
0
11
-44.825002
21
-41.082123
31
0
39
0
210
0
220
0
230
1
0
LINE
5
1D6
100
AcDbEntity
8
SK2
62
256
6
ByLayer
370
13
48
1
60
0
100
AcDbLine
10
-48
20
-41.50012
30
0
11
-44.824998
21
-41.918117
31
0
39
0
210
0
220
0
230
1
0
LINE
5
1D7
100
AcDbEntity
8
SK2
62
256
6
ByLayer
370
13
48
1
60
0
100
AcDbLine
10
-44.825002
20
-41.082123
30
0
11
-44.824998
21
-41.918117
31
0
39
0
210
0
220
0
230
1
0
LINE
5
1D8
100
AcDbEntity
8
SK2
62
256
6
ByLayer
370
13
48
1
60
0
100
AcDbLine
10
67
20
-41.50012
30
0
11
63.825002
21
-41.918117
31
0
39
0
210
0
220
0
230
1
0
LINE
5
1D9
100
AcDbEntity
8
SK2
62
256
6
ByLayer
370
13
48
1
60
0
100
AcDbLine
10
67
20
-41.50012
30
0
11
63.824998
21
-41.082123
31
0
39
0
210
0
220
0
230
1
0
LINE
5
1DA
100
AcDbEntity
8
SK2
62
256
6
ByLayer
370
13
48
1
60
0
100
AcDbLine
10
63.825002
20
-41.918117
30
0
11
63.824998
21
-41.082123
31
0
39
0
210
0
220
0
230
1
0
ENDBLK
5
1DC
100
AcDbEntity
8
0
100
AcDbBlockEnd
0
ENDSEC
0
SECTION
2
ENTITIES
0
ARC
5
AE
100
AcDbEntity
8
1
62
256
6
ByLayer
370
18
48
1
60
0
100
AcDbCircle
39
0
10
0.270032
20
8.095098
30
0
40
0.199999999999999
210
0
220
0
230
1
100
AcDbArc
50
227.53964
51
270.03581
0
ARC
5
AF
100
AcDbEntity
8
1
62
256
6
ByLayer
370
18
48
1
60
0
100
AcDbCircle
39
0
10
0.270032
20
-8.095098
30
0
40
0.199999999999999
210
0
220
0
230
1
100
AcDbArc
50
89.96419
51
132.46036
0
ARC
5
B0
100
AcDbEntity
8
1
62
256
6
ByLayer
370
18
48
1
60
0
100
AcDbCircle
39
0
10
0
20
7.8
30
0
40
0.200000000000004
210
0
220
0
230
1
100
AcDbArc
50
47.53964
51
90
0
ARC
5
B1
100
AcDbEntity
8
1
62
256
6
ByLayer
370
18
48
1
60
0
100
AcDbCircle
39
0
10
0
20
-7.8
30
0
40
0.200000000000004
210
0
220
0
230
1
100
AcDbArc
50
270
51
312.46036
0
ARC
5
B2
100
AcDbEntity
8
SK2
62
256
6
ByLayer
370
13
48
1
60
0
100
AcDbCircle
39
0
10
67
20
0
30
0
40
20
210
0
220
0
230
1
100
AcDbArc
50
9.606349
51
70.000024
0
ARC
5
B3
100
AcDbEntity
8
SK2
62
256
6
ByLayer
370
13
48
1
60
0
100
AcDbCircle
39
0
10
67
20
0
30
0
40
20
210
0
220
0
230
1
100
AcDbArc
50
289.999976
51
350.393651
0
ELLIPSE
5
B4
100
AcDbEntity
8
1
62
256
6
ByLayer
370
18
48
1
60
0
100
AcDbEllipse
10
3.60176
20
-1.549129
30
0
11
-0.00468379004742166
21
-0.00883527649774889
31
0
210
0
220
0
230
1
40
0.097366
41
-1.754558635777
42
-0.184344766609964
0
ELLIPSE
5
B5
100
AcDbEntity
8
1
62
256
6
ByLayer
370
18
48
1
60
0
100
AcDbEllipse
10
3.644695
20
6.748702
30
0
11
-0.00229773172708789
21
-0.00973244208358487
31
0
210
0
220
0
230
1
40
0.430758
41
0.507947251246709
42
2.07618076170247
0
ELLIPSE
5
B6
100
AcDbEntity
8
1
62
256
6
ByLayer
370
18
48
1
60
0
100
AcDbEllipse
10
3.601963
20
6.753378
30
0
11
-1.50825798710131E-05
21
0.00999998862578276
31
0
210
0
220
0
230
1
40
0.00437
41
-2.68863035389255
42
-1.11758279801971
0
ELLIPSE
5
B7
100
AcDbEntity
8
1
62
256
6
ByLayer
370
18
48
1
60
0
100
AcDbEllipse
10
3.558761
20
-1.528561
30
0
11
0.00387367523137223
21
0.00921925377684405
31
0
210
0
220
0
230
1
40
0.508838
41
1.59075926250135
42
2.93132447039982
0
POINT
5
70
100
AcDbEntity
8
80
62
256
6
ByLayer
370
18
48
1
60
0
100
AcDbPoint
10
0
20
0
30
0
39
0
210
0
220
0
230
1
50
360
0
POINT
5
72
100
AcDbEntity
8
81
62
256
6
ByLayer
370
18
48
1
60
0
100
AcDbPoint
10
67
20
0
30
0
39
0
210
0
220
0
230
1
50
360
0
POINT
5
74
100
AcDbEntity
8
1
62
256
6
ByLayer
370
18
48
1
60
0
100
AcDbPoint
10
-48
20
0
30
0
39
0
210
0
220
0
230
1
50
360
0
POINT
5
76
100
AcDbEntity
8
1
62
256
6
ByLayer
370
18
48
1
60
1
100
AcDbPoint
10
0
20
-8
30
0
39
0
210
0
220
0
230
1
50
360
0
POINT
5
77
100
AcDbEntity
8
1
62
256
6
ByLayer
370
18
48
1
60
1
100
AcDbPoint
10
67
20
0
30
0
39
0
210
0
220
0
230
1
50
360
0
POINT
5
78
100
AcDbEntity
8
1
62
256
6
ByLayer
370
18
48
1
60
1
100
AcDbPoint
10
64.1119
20
-7.935
30
0
39
0
210
0
220
0
230
1
50
360
0
POINT
5
79
100
AcDbEntity
8
1
62
256
6
ByLayer
370
18
48
1
60
1
100
AcDbPoint
10
64.1119
20
7.935
30
0
39
0
210
0
220
0
230
1
50
360
0
POINT
5
7A
100
AcDbEntity
8
1
62
256
6
ByLayer
370
18
48
1
60
1
100
AcDbPoint
10
-48
20
8
30
0
39
0
210
0
220
0
230
1
50
360
0
POINT
5
7B
100
AcDbEntity
8
1
62
256
6
ByLayer
370
18
48
1
60
1
100
AcDbPoint
10
-48
20
-8
30
0
39
0
210
0
220
0
230
1
50
360
0
POINT
5
7C
100
AcDbEntity
8
1
62
256
6
ByLayer
370
18
48
1
60
1
100
AcDbPoint
10
-48
20
-8
30
0
39
0
210
0
220
0
230
1
50
360
0
POINT
5
7D
100
AcDbEntity
8
1
62
256
6
ByLayer
370
18
48
1
60
1
100
AcDbPoint
10
0
20
-8
30
0
39
0
210
0
220
0
230
1
50
360
0
POINT
5
7E
100
AcDbEntity
8
1
62
256
6
ByLayer
370
18
48
1
60
1
100
AcDbPoint
10
2
20
8.435
30
0
39
0
210
0
220
0
230
1
50
360
0
POINT
5
7F
100
AcDbEntity
8
1
62
256
6
ByLayer
370
18
48
1
60
1
100
AcDbPoint
10
67
20
0
30
0
39
0
210
0
220
0
230
1
50
360
0
POINT
5
80
100
AcDbEntity
8
1
62
256
6
ByLayer
370
18
48
1
60
1
100
AcDbPoint
10
22
20
-7.935
30
0
39
0
210
0
220
0
230
1
50
360
0
POINT
5
81
100
AcDbEntity
8
1
62
256
6
ByLayer
370
18
48
1
60
1
100
AcDbPoint
10
67
20
0
30
0
39
0
210
0
220
0
230
1
50
360
0
POINT
5
82
100
AcDbEntity
8
1
62
256
6
ByLayer
370
18
48
1
60
1
100
AcDbPoint
10
-48
20
0
30
0
39
0
210
0
220
0
230
1
50
360
0
POINT
5
83
100
AcDbEntity
8
1
62
256
6
ByLayer
370
18
48
1
60
1
100
AcDbPoint
10
67
20
0
30
0
39
0
210
0
220
0
230
1
50
360
0
SPLINE
5
B8
100
AcDbEntity
8
1
62
256
6
ByLayer
370
18
48
1
60
0
100
AcDbSpline
70
4
71
3
72
34
73
30
40
0
40
0
40
0
40
0
40
0.120279045787589
40
0.120279045787589
40
0.180418568681384
40
0.180418568681384
40
0.240558091575179
40
0.240558091575179
40
0.36083713736277
40
0.36083713736277
40
0.420976660256565
40
0.420976660256565
40
0.48111618315036
40
0.48111618315036
40
0.541255706044156
40
0.541255706044156
40
0.601395228937951
40
0.601395228937951
40
0.661534751831747
40
0.661534751831747
40
0.721674274725542
40
0.721674274725542
40
0.781813797619337
40
0.781813797619337
40
0.841953320513133
40
0.841953320513133
40
0.962232366300724
40
0.962232366300724
40
1
40
1
40
1
40
1
41
1
10
3.64947556975358
20
6.75254771293004
30
0
41
1
10
4.27504635522439
20
6.60521468105156
30
0
41
1
10
4.89835928701686
20
6.43673975881583
30
0
41
1
10
5.831365333446
20
6.15634236675854
30
-4E-16
41
1
10
6.14202884963279
20
6.05825869550353
30
-4E-16
41
1
10
6.76268475559877
20
5.85353886775005
30
-4E-16
41
1
10
7.07269569129284
20
5.74688966630742
30
-4E-16
41
1
10
8.00286604997973
20
5.41399947706307
30
-3E-16
41
1
10
8.62324582280397
20
5.17481478788596
30
-3E-16
41
1
10
9.5553847085009
20
4.79324428188809
30
-3E-16
41
1
10
9.86635892402708
20
4.66226259150918
30
-3E-16
41
1
10
10.4887521906518
20
4.39313580438662
30
-3E-16
41
1
10
10.8000872232543
20
4.25499979306775
30
-3E-16
41
1
10
11.4242422537243
20
3.97187134646012
30
-2E-16
41
1
10
11.7376714653509
20
3.8266071561851
30
-2E-16
41
1
10
12.3631462083227
20
3.5311788256092
30
-2E-16
41
1
10
12.6751475508674
20
3.38104964803591
30
-2E-16
41
1
10
13.2979363769211
20
3.07655010810797
30
-2E-16
41
1
10
13.6087284570772
20
2.922187087385
30
-2E-16
41
1
10
14.2292145693418
20
2.60956377721334
30
-2E-16
41
1
10
14.5388913967661
20
2.45128499856412
30
-2E-16
41
1
10
15.157665553069
20
2.13162080361531
30
-1E-16
41
1
10
15.4667854180164
20
1.97025917894223
30
-1E-16
41
1
10
16.0845608102059
20
1.64475114828542
30
-1E-16
41
1
10
16.3931744102618
20
1.48055057019116
30
-1E-16
41
1
10
17.3194806745233
20
0.985547677146059
30
-1E-16
41
1
10
17.9378435559804
20
0.652639211558977
30
0
41
1
10
18.7517240552414
20
0.212615194959596
30
0
41
1
10
18.9463224462082
20
0.107283215492885
30
0
41
1
10
19.1410122609508
20
0.0017541647576991
30
0
0
SPLINE
5
B9
100
AcDbEntity
8
1
62
256
6
ByLayer
370
18
48
1
60
0
100
AcDbSpline
70
4
71
3
72
8
73
4
40
0
40
0
40
0
40
0
40
1
40
1
40
1
40
1
41
1
10
63.0745825798128
20
-0.215701906771642
30
0
41
1
10
63.1396022295106
20
-0.249512789574681
30
0
41
1
10
63.204185130709
20
-0.281232904785099
30
0
41
1
10
63.2684215390989
20
-0.310920001789071
30
0
0
SPLINE
5
BA
100
AcDbEntity
8
1
62
256
6
ByLayer
370
18
48
1
60
0
100
AcDbSpline
70
4
71
3
72
46
73
42
40
0
40
0
40
0
40
0
40
0.0455798905158658
40
0.0455798905158658
40
0.0911597810317316
40
0.0911597810317316
40
0.136739671547597
40
0.136739671547597
40
0.182319562063463
40
0.182319562063463
40
0.273479343095194
40
0.273479343095194
40
0.364639124126925
40
0.364639124126925
40
0.41021901464279
40
0.41021901464279
40
0.455798905158656
40
0.455798905158656
40
0.501378795674521
40
0.501378795674521
40
0.546958686190387
40
0.546958686190387
40
0.592538576706252
40
0.592538576706252
40
0.638118467222118
40
0.638118467222118
40
0.683698357737983
40
0.683698357737983
40
0.729278248253848
40
0.729278248253848
40
0.82043802928558
40
0.82043802928558
40
0.866017919801446
40
0.866017919801446
40
0.911597810317312
40
0.911597810317312
40
0.934387755575246
40
0.934387755575246
40
0.95717770083318
40
0.95717770083318
40
1
40
1
40
1
40
1
41
1
10
63.7202304619033
20
-7.82521991020263
30
0
41
1
10
63.0927147711363
20
-7.76529890219825
30
0
41
1
10
62.4656370282359
20
-7.68140159003715
30
0
41
1
10
61.2097781004476
20
-7.46679889039069
30
0
41
1
10
60.582931550878
20
-7.33638259894269
30
0
41
1
10
59.3309070627687
20
-7.03190521379557
30
0
41
1
10
58.7053008981165
20
-6.85783801019318
30
4E-16
41
1
10
57.452216343626
20
-6.46822025943655
30
4E-16
41
1
10
56.8236160872763
20
-6.25232663649405
30
4E-16
41
1
10
54.9431019410819
20
-5.55112256617204
30
3E-16
41
1
10
53.6940443651193
20
-5.01134632616876
30
3E-16
41
1
10
51.1817585532793
20
-3.81722802686826
30
2E-16
41
1
10
49.9321048544592
20
-3.16887708431943
30
2E-16
41
1
10
48.0516486770449
20
-2.14800861186237
30
1E-16
41
1
10
47.4229237127453
20
-1.7990081083552
30
1E-16
41
1
10
46.1693494865632
20
-1.09420958594097
30
1E-16
41
1
10
45.5435754616303
20
-0.738039923031067
30
0
41
1
10
44.2912362251457
20
-0.0230977587125665
30
0
41
1
10
43.6645136460063
20
0.33577178693514
30
0
41
1
10
42.4081776435416
20
1.05091572090319
30
-1E-16
41
1
10
41.7817534646779
20
1.40538157214431
30
-1E-16
41
1
10
40.5293786292228
20
2.10296402718396
30
-1E-16
41
1
10
39.9034546149094
20
2.44612859448026
30
-1E-16
41
1
10
38.6493631521145
20
3.11649605902471
30
-2E-16
41
1
10
38.0206122030209
20
3.44417089017713
30
-2E-16
41
1
10
36.7669877407593
20
4.07410092854246
30
-2E-16
41
1
10
36.1411601994314
20
4.37703663635315
30
-3E-16
41
1
10
34.8884832194216
20
4.95448783888824
30
-3E-16
41
1
10
34.2612073718319
20
5.22924197291889
30
-3E-16
41
1
10
32.3767910975115
20
6.00388578062888
30
-4E-16
41
1
10
31.1272753639296
20
6.4500715772939
30
-4E-16
41
1
10
29.2453663537534
20
6.9952412838625
30
0
41
1
10
28.6166571327179
20
7.15655480474069
30
0
41
1
10
27.3630021972832
20
7.43303042481625
30
0
41
1
10
26.7369768645405
20
7.54861644278901
30
0
41
1
10
25.7971467599339
20
7.68700448329093
30
0
41
1
10
25.4837953956822
20
7.72732501670387
30
0
41
1
10
24.8564903193079
20
7.79610049692525
30
0
41
1
10
24.5422592665347
20
7.824572583075
30
0
41
1
10
23.6381881268994
20
7.889055289982
30
0
41
1
10
23.0494558211245
20
7.90969463324401
30
0
41
1
10
22.460950126989
20
7.9089625467391
30
0
0
SPLINE
5
BB
100
AcDbEntity
8
1
62
256
6
ByLayer
370
18
48
1
60
0
100
AcDbSpline
70
4
71
3
72
8
73
4
40
0
40
0
40
0
40
0
40
1
40
1
40
1
40
1
41
1
10
3.55216921433964
20
-1.61296387271361
30
1E-16
41
1
10
3.5213901194916
20
-1.59579516665775
30
1E-16
41
1
10
3.50166890487011
20
-1.56255600695209
30
1E-16
41
1
10
3.50166890487011
20
-1.52780197422899
30
1E-16
0
SPLINE
5
BC
100
AcDbEntity
8
1
62
256
6
ByLayer
370
18
48
1
60
0
100
AcDbSpline
70
4
71
3
72
68
73
64
40
0
40
0
40
0
40
0
40
0.0625000000000083
40
0.0625000000000083
40
0.125000000000016
40
0.125000000000016
40
0.15625000000002
40
0.15625000000002
40
0.187500000000024
40
0.187500000000024
40
0.218750000000028
40
0.218750000000028
40
0.250000000000032
40
0.250000000000032
40
0.281250000000035
40
0.281250000000035
40
0.296875000000037
40
0.296875000000037
40
0.312500000000039
40
0.312500000000039
40
0.343750000000043
40
0.343750000000043
40
0.359375000000045
40
0.359375000000045
40
0.375000000000047
40
0.390625000000049
40
0.390625000000049
40
0.40625000000005
40
0.40625000000005
40
0.437500000000054
40
0.437500000000054
40
0.468750000000058
40
0.468750000000058
40
0.500000000000061
40
0.500000000000061
40
0.531250000000065
40
0.531250000000065
40
0.562500000000069
40
0.562500000000069
40
0.625000000000077
40
0.625000000000077
40
0.632812500000078
40
0.632812500000078
40
0.636718750000078
40
0.636718750000078
40
0.638671875000078
40
0.638671875000078
40
0.640625000000079
40
0.640625000000079
40
0.642578125000079
40
0.642578125000079
40
0.644531250000079
40
0.644531250000079
40
0.648437500000079
40
0.656250000000077
40
0.656250000000077
40
0.68750000000007
40
0.68750000000007
40
0.750000000000056
40
0.750000000000056
40
0.875000000000028
40
0.875000000000028
40
1
40
1
40
1
40
1
41
1
10
7.33869746285799
20
-6.6295464253445
30
4E-16
41
1
10
6.90358162852232
20
-6.76387256557791
30
4E-16
41
1
10
6.47722728219429
20
-6.89448592042109
30
0
41
1
10
5.64588832830745
20
-7.14420136323545
30
0
41
1
10
5.24082988957261
20
-7.26337024541491
30
0
41
1
10
4.65415942788891
20
-7.42858362047269
30
0
41
1
10
4.46211492856744
20
-7.48137412357445
30
0
41
1
10
4.08643132692251
20
-7.58106170104989
30
0
41
1
10
3.90275944661926
20
-7.62795054341737
30
0
41
1
10
3.55105283444365
20
-7.71273765529477
30
0
41
1
10
3.38235886826871
20
-7.75082386144663
30
0
41
1
10
3.06248942279242
20
-7.81594292761514
30
0
41
1
10
2.91086947702527
20
-7.84300248685577
30
0
41
1
10
2.63618505355166
20
-7.8817038119418
30
0
41
1
10
2.51228264022396
20
-7.89355815775502
30
0
41
1
10
2.35117988046915
20
-7.89715885928351
30
0
41
1
10
2.30162434081854
20
-7.89598380491242
30
0
41
1
10
2.21192064099208
20
-7.88818925747117
30
0
41
1
10
2.17208569448451
20
-7.88155854159555
30
0
41
1
10
2.07048436663561
20
-7.85320271113696
30
0
41
1
10
2.02568842830075
20
-7.8229960746238
30
0
41
1
10
1.99716568472579
20
-7.75848357857421
30
0
41
1
10
1.99425942730582
20
-7.73377927761143
30
0
41
1
10
2.00162727137396
20
-7.67919556447288
30
0
41
1
10
2.02201371198663
20
-7.6191744004565
30
0
41
1
10
2.0675653804154
20
-7.5486723715928
30
0
41
1
10
2.12539696549189
20
-7.47308485215291
30
0
41
1
10
2.1605650229246
20
-7.43268577137996
30
0
41
1
10
2.28086422906023
20
-7.30720417058583
30
0
41
1
10
2.38129538238547
20
-7.2169784151898
30
0
41
1
10
2.61537325909265
20
-7.02610007657881
30
0
41
1
10
2.75007077913065
20
-6.92478367900827
30
0
41
1
10
3.03958800409063
20
-6.71942134784192
30
4E-16
41
1
10
3.19499882634082
20
-6.61481840109519
30
4E-16
41
1
10
3.52285806978912
20
-6.40291570208004
30
4E-16
41
1
10
3.69533729386302
20
-6.29560939419477
30
4E-16
41
1
10
4.054618017054
20
-6.07907842455708
30
4E-16
41
1
10
4.24147818284948
20
-5.96984430422958
30
4E-16
41
1
10
4.81486745058009
20
-5.64336164388931
30
3E-16
41
1
10
5.21630719040962
20
-5.42602569851192
30
3E-16
41
1
10
5.68093316972269
20
-5.18456187397786
30
3E-16
41
1
10
5.73275260855706
20
-5.15776842785556
30
3E-16
41
1
10
5.81073899458485
20
-5.11764614706928
30
3E-16
41
1
10
5.83677858571056
20
-5.10428271775766
30
3E-16
41
1
10
5.87590180730271
20
-5.08425434419419
30
3E-16
41
1
10
5.88895463706385
20
-5.07758228297357
30
3E-16
41
1
10
5.91507673620404
20
-5.06423856913062
30
3E-16
41
1
10
5.92932405288335
20
-5.05875373169744
30
3E-16
41
1
10
5.95956932393014
20
-5.05336131643332
30
3E-16
41
1
10
5.97534870988804
20
-5.05270014528821
30
3E-16
41
1
10
6.00631490239235
20
-5.05438701791093
30
3E-16
41
1
10
6.0215095047524
20
-5.05709450677986
30
3E-16
41
1
10
6.0670679000786
20
-5.06531803377604
30
3E-16
41
1
10
6.15813955836535
20
-5.08189369077706
30
3E-16
41
1
10
6.24907677127183
20
-5.09884404620226
30
3E-16
41
1
10
6.5518816412457
20
-5.15615513744467
30
3E-16
41
1
10
6.79314824768525
20
-5.2046106547819
30
3E-16
41
1
10
7.51327896420622
20
-5.35681228396749
30
3E-16
41
1
10
7.98920936489063
20
-5.46759003718057
30
3E-16
41
1
10
9.40059764604888
20
-5.81882409135292
30
4E-16
41
1
10
10.3147794070858
20
-6.07714418507308
30
4E-16
41
1
10
12.10403536657
20
-6.58808859550393
30
4E-16
41
1
10
12.9791571279222
20
-6.84029919587286
30
0
41
1
10
13.8452017826046
20
-7.06282185381164
30
0
0
SPLINE
5
BD
100
AcDbEntity
8
1
62
256
6
ByLayer
370
18
48
1
60
0
100
AcDbSpline
70
4
71
3
72
14
73
10
40
0
40
0
40
0
40
0
40
0.263321326923392
40
0.263321326923392
40
0.492792863473964
40
0.492792863473964
40
0.772112059887737
40
0.772112059887737
40
1
40
1
40
1
40
1
41
1
10
63.2684215390989
20
-0.3109200017891
30
0
41
1
10
63.269150582583
20
-0.311256931968984
30
0
41
1
10
63.2698643972323
20
-0.311970350752432
30
0
41
1
10
63.2710577110989
20
-0.313725426222192
30
0
41
1
10
63.2715717528696
20
-0.314736462564383
30
0
41
1
10
63.2725593836745
20
-0.317236747092068
30
0
41
1
10
63.2730156299517
20
-0.318819577963552
30
0
41
1
10
63.2736086396388
20
-0.321874073590976
30
0
41
1
10
63.2737947502725
20
-0.323348479169283
30
0
41
1
10
63.2738654413681
20
-0.324824673911877
30
0
0
SPLINE
5
BE
100
AcDbEntity
8
1
62
256
6
ByLayer
370
18
48
1
60
0
100
AcDbSpline
70
4
71
3
72
8
73
4
40
0
40
0
40
0
40
0
40
1
40
1
40
1
40
1
41
1
10
3.59699764955096
20
-1.55773072046517
30
1E-16
41
1
10
3.58208281691839
20
-1.54982599152189
30
1E-16
41
1
10
3.56745959306306
20
-1.54282249336106
30
1E-16
41
1
10
3.5539939536327
20
-1.53716596474641
30
1E-16
0
SPLINE
5
BF
100
AcDbEntity
8
1
62
256
6
ByLayer
370
18
48
1
60
0
100
AcDbSpline
70
4
71
3
72
8
73
4
40
0
40
0
40
0
40
0
40
1
40
1
40
1
40
1
41
1
10
3.60176986301173
20
-1.54706590504901
30
1E-16
41
1
10
3.58517235160161
20
-1.53915723749634
30
1E-16
41
1
10
3.56891746997744
20
-1.53224509383727
30
1E-16
41
1
10
3.5539939536327
20
-1.52677452323167
30
1E-16
0
SPLINE
5
C0
100
AcDbEntity
8
1
62
256
6
ByLayer
370
18
48
1
60
0
100
AcDbSpline
70
4
71
3
72
20
73
16
40
0
40
0
40
0
40
0
40
0.0906577673494431
40
0.0906577673494431
40
0.181315534698886
40
0.181315534698886
40
0.362631069397776
40
0.362631069397776
40
0.543946604096665
40
0.543946604096665
40
0.725262138795555
40
0.725262138795555
40
0.906577673494444
40
0.906577673494444
40
1
40
1
40
1
40
1
41
1
10
64.2284311375052
20
7.61610928959215
30
0
41
1
10
63.9110409684275
20
7.61864435191811
30
0
41
1
10
63.5935766220973
20
7.61516939053408
30
0
41
1
10
62.9581243194097
20
7.5961373711026
30
0
41
1
10
62.6400245046205
20
7.58057200766484
30
0
41
1
10
61.6870162313154
20
7.51616390296331
30
0
41
1
10
61.0526114660199
20
7.44961993917767
30
0
41
1
10
59.7827948059142
20
7.26994365676205
30
0
41
1
10
59.1465951499472
20
7.15672309593418
30
0
41
1
10
57.8763253700541
20
6.88611284552024
30
0
41
1
10
57.2419182978852
20
6.72881318542062
30
0
41
1
10
55.971908128503
20
6.37292694024526
30
-4E-16
41
1
10
55.3356123026448
20
6.17397884147101
30
-4E-16
41
1
10
54.3734606309338
20
5.84441210468233
30
-4E-16
41
1
10
54.0464672046597
20
5.72738723651338
30
-4E-16
41
1
10
53.7194453225793
20
5.60565590299012
30
-3E-16
0
SPLINE
5
C1
100
AcDbEntity
8
1
62
256
6
ByLayer
370
18
48
1
60
0
100
AcDbSpline
70
4
71
3
72
8
73
4
40
0
40
0
40
0
40
0
40
1
40
1
40
1
40
1
41
1
10
64.2429901684056
20
-7.60630261416455
30
0
41
1
10
64.2381370899406
20
-7.60957198040907
30
0
41
1
10
64.2332840800525
20
-7.61284087212766
30
0
41
1
10
64.2284311376953
20
-7.61610928946416
30
0
0
SPLINE
5
C2
100
AcDbEntity
8
1
62
256
6
ByLayer
370
18
48
1
60
0
100
AcDbSpline
70
4
71
3
72
42
73
38
40
0
40
0
40
0
40
0
40
0.0624999999999993
40
0.0624999999999993
40
0.124999999999999
40
0.124999999999999
40
0.156249999999998
40
0.156249999999998
40
0.187499999999998
40
0.187499999999998
40
0.249999999999998
40
0.249999999999998
40
0.281249999999998
40
0.281249999999998
40
0.312499999999998
40
0.312499999999998
40
0.374999999999998
40
0.374999999999998
40
0.437499999999998
40
0.437499999999998
40
0.499999999999998
40
0.499999999999998
40
0.562499999999999
40
0.562499999999999
40
0.624999999999999
40
0.624999999999999
40
0.687499999999999
40
0.687499999999999
40
0.75
40
0.75
40
0.8125
40
0.8125
40
0.84375
40
0.84375
40
0.875
40
0.875
40
1
40
1
40
1
40
1
41
1
10
33.74
20
4.58368144399594
30
-3E-16
41
1
10
34.3662838239029
20
4.2923678303687
30
-3E-16
41
1
10
34.9923117642227
20
3.98704770486415
30
-2E-16
41
1
10
36.2425545700854
20
3.35484596948416
30
-2E-16
41
1
10
36.8673301908192
20
3.02772061284105
30
-2E-16
41
1
10
37.8060517092746
20
2.52378393988369
30
-2E-16
41
1
10
38.1193330135571
20
2.35352515652525
30
-1E-16
41
1
10
38.7449812113177
20
2.01010331980453
30
-1E-16
41
1
10
39.0575537031878
20
1.83683182541975
30
-1E-16
41
1
10
39.9950483201836
20
1.31325061469559
30
-1E-16
41
1
10
40.6197462922821
20
0.959171122306429
30
-1E-16
41
1
10
41.5585341201727
20
0.424287393882764
30
0
41
1
10
41.8716985488236
20
0.24539819671034
30
0
41
1
10
42.4971651613195
20
-0.111968043033045
30
0
41
1
10
42.8096921501139
20
-0.290570330549457
30
0
41
1
10
43.747165988702
20
-0.825239349026674
30
1E-16
41
1
10
44.3719871812533
20
-1.18020079550496
30
1E-16
41
1
10
45.6240543240263
20
-1.88234361177146
30
1E-16
41
1
10
46.2493810229118
20
-2.22841701179809
30
1E-16
41
1
10
47.4991560615847
20
-2.90452267886141
30
2E-16
41
1
10
48.1239690768894
20
-3.2347730891068
30
2E-16
41
1
10
49.3762584424489
20
-3.87500530773625
30
2E-16
41
1
10
50.0011062746084
20
-4.18360125678001
30
3E-16
41
1
10
51.2508044007123
20
-4.77355277628203
30
3E-16
41
1
10
51.8759802985541
20
-5.05509291241052
30
3E-16
41
1
10
53.1278730107977
20
-5.58636188451607
30
3E-16
41
1
10
53.7525378575901
20
-5.83521642341222
30
4E-16
41
1
10
55.0021775598577
20
-6.29606401889049
30
4E-16
41
1
10
55.6277287602769
20
-6.508243810485
30
4E-16
41
1
10
56.8792289074852
20
-6.89183521306057
30
0
41
1
10
57.5037738810324
20
-7.06284323757052
30
0
41
1
10
58.4409322112804
20
-7.28650191350533
30
0
41
1
10
58.7533756428834
20
-7.35557929410848
30
0
41
1
10
59.3787365209828
20
-7.48250932117176
30
0
41
1
10
59.6919049098635
20
-7.54039839851777
30
0
41
1
10
61.2553273893083
20
-7.80042350315321
30
0
41
1
10
62.4999857638635
20
-7.91479395637185
30
0
41
1
10
63.7498140216757
20
-7.93254024070143
30
0
0
SPLINE
5
C3
100
AcDbEntity
8
1
62
256
6
ByLayer
370
18
48
1
60
0
100
AcDbSpline
70
4
71
3
72
12
73
8
40
0
40
0
40
0
40
0
40
0.249999999999999
40
0.249999999999999
40
0.499999999999997
40
0.499999999999997
40
1
40
1
40
1
40
1
41
1
10
3.60199578247546
20
6.75775671083784
30
0
41
1
10
3.58636464157701
20
6.75773772971954
30
0
41
1
10
3.57121583716597
20
6.75911922132164
30
0
41
1
10
3.54524477739108
20
6.76375997528879
30
0
41
1
10
3.53453449579615
20
6.76693814400193
30
0
41
1
10
3.50932145987562
20
6.77763859875191
30
0
41
1
10
3.50166890487011
20
6.78610206708512
30
0
41
1
10
3.50166890487011
20
6.79442495269336
30
0
0
SPLINE
5
C4
100
AcDbEntity
8
1
62
256
6
ByLayer
370
18
48
1
60
0
100
AcDbSpline
70
4
71
3
72
10
73
6
40
0
40
0
40
0
40
0
40
0.878063616237558
40
0.878063616237558
40
1
40
1
40
1
40
1
41
1
10
3.55399395363273
20
-1.53716596474641
30
1E-16
41
1
10
3.55345058161871
20
-1.55936043627062
30
1E-16
41
1
10
3.55291539229307
20
-1.58154649876016
30
1E-16
41
1
10
3.55231513189463
20
-1.60680457067463
30
1E-16
41
1
10
3.55224209491456
20
-1.60988429687006
30
1E-16
41
1
10
3.55216921433964
20
-1.61296387271361
30
1E-16
0
SPLINE
5
C5
100
AcDbEntity
8
1
62
256
6
ByLayer
370
18
48
1
60
0
100
AcDbSpline
70
4
71
3
72
18
73
14
40
0
40
0
40
0
40
0
40
0.0184048540147548
40
0.0184048540147548
40
0.214723883211804
40
0.214723883211804
40
0.411042912408853
40
0.411042912408853
40
0.607361941605902
40
0.607361941605902
40
0.803680970802951
40
0.803680970802951
40
1
40
1
40
1
40
1
41
1
10
43.4459262701055
20
-0.653722088729324
30
0
41
1
10
43.3864282138291
20
-0.621155282296627
30
0
41
1
10
43.3269271103263
20
-0.588568433800788
30
0
41
1
10
42.6326970212209
20
-0.208177033321846
30
0
41
1
10
41.9969026796536
20
0.141997650377618
30
0
41
1
10
40.7251986551057
20
0.839460707130087
30
-1E-16
41
1
10
40.0889350954617
20
1.18678346742766
30
-1E-16
41
1
10
38.8175843650491
20
1.87106487342001
30
-1E-16
41
1
10
38.1834912597655
20
2.20763430497578
30
-1E-16
41
1
10
36.9156805570154
20
2.8644452255399
30
-2E-16
41
1
10
36.2820175389041
20
3.18483422169774
30
-2E-16
41
1
10
35.012261482412
20
3.80473490004582
30
-2E-16
41
1
10
34.375977210134
20
4.10420688924836
30
-3E-16
41
1
10
33.7399999999915
20
4.38986334844159
30
-3E-16
0
SPLINE
5
C6
100
AcDbEntity
8
1
62
256
6
ByLayer
370
18
48
1
60
0
100
AcDbSpline
70
4
71
3
72
8
73
4
40
0
40
0
40
0
40
0
40
1
40
1
40
1
40
1
41
1
10
33.74
20
4.47295462691039
30
-3E-16
41
1
10
33.74
20
4.44724266603873
30
-3E-16
41
1
10
33.74
20
4.41953540433408
30
-3E-16
41
1
10
33.74
20
4.38986334842073
30
-3E-16
0
SPLINE
5
C7
100
AcDbEntity
8
1
62
256
6
ByLayer
370
18
48
1
60
0
100
AcDbSpline
70
4
71
3
72
20
73
16
40
0
40
0
40
0
40
0
40
0.0518675694604968
40
0.0518675694604968
40
0.235386939900198
40
0.235386939900198
40
0.4189063103399
40
0.4189063103399
40
0.602425680779601
40
0.602425680779601
40
0.785945051219302
40
0.785945051219302
40
0.969464421659003
40
0.969464421659003
40
1
40
1
40
1
40
1
41
1
10
13.8452019237004
20
7.06282196304366
30
0
41
1
10
13.8312501835113
20
7.01774813279866
30
0
41
1
10
13.8172619368491
20
6.97267441431228
30
0
41
1
10
13.7536049387585
20
6.76812327054307
30
0
41
1
10
13.7036603940881
20
6.60859676115763
30
0
41
1
10
13.5971975394742
20
6.29149491661357
30
1E-16
41
1
10
13.5414970202692
20
6.13363812365918
30
1E-16
41
1
10
13.4260278614104
20
5.81900962189294
30
1E-16
41
1
10
13.3660947639137
20
5.66183366893037
30
1E-16
41
1
10
13.2435175588833
20
5.35028671411956
30
1E-16
41
1
10
13.1811006893992
20
5.19646429750156
30
1E-16
41
1
10
13.0545770908282
20
4.89249737064293
30
1E-16
41
1
10
12.9907112479699
20
4.74228465871246
30
2E-16
41
1
10
12.9130140729224
20
4.56986668215566
30
2E-16
41
1
10
12.9018741996924
20
4.54533077673708
30
2E-16
41
1
10
12.890678733286
20
4.52085476029725
30
2E-16
0
SPLINE
5
C8
100
AcDbEntity
8
1
62
256
6
ByLayer
370
18
48
1
60
0
100
AcDbSpline
70
4
71
3
72
34
73
30
40
0
40
0
40
0
40
0
40
0.125
40
0.125
40
0.1875
40
0.1875
40
0.21875
40
0.21875
40
0.25
40
0.25
40
0.375
40
0.375
40
0.4375
40
0.4375
40
0.46875
40
0.46875
40
0.5
40
0.5
40
0.625
40
0.625
40
0.6875
40
0.6875
40
0.75
40
0.75
40
0.875
40
0.875
40
0.9375
40
0.9375
40
1
40
1
40
1
40
1
41
1
10
63.2738654413687
20
-0.324824673922961
30
0
41
1
10
63.295053589524
20
-0.767282561976572
30
0
41
1
10
63.3328841982551
20
-1.19996384064228
30
1E-16
41
1
10
63.4023252147854
20
-1.8362210800926
30
1E-16
41
1
10
63.4276356115462
20
-2.0461611060787
30
1E-16
41
1
10
63.4676425274939
20
-2.35794245200714
30
1E-16
41
1
10
63.4813201735426
20
-2.46134717547716
30
2E-16
41
1
10
63.5091778515917
20
-2.66711544305235
30
2E-16
41
1
10
63.5233928422747
20
-2.76972408694883
30
2E-16
41
1
10
63.5947716418112
20
-3.27645609258974
30
2E-16
41
1
10
63.6526528932969
20
-3.66197035437105
30
2E-16
41
1
10
63.7341805448823
20
-4.21204786446842
30
3E-16
41
1
10
63.7605095936039
20
-4.39067352913702
30
3E-16
41
1
10
63.7982074608927
20
-4.65141438748034
30
3E-16
41
1
10
63.8104759062036
20
-4.73712637328148
30
3E-16
41
1
10
63.8343514448884
20
-4.90610545938148
30
3E-16
41
1
10
63.8459585162494
20
-4.98938113252049
30
3E-16
41
1
10
63.9016715877018
20
-5.39548138382347
30
3E-16
41
1
10
63.9391451409435
20
-5.69113737301498
30
3E-16
41
1
10
63.9858213337561
20
-6.09167451628286
30
4E-16
41
1
10
63.9998216668213
20
-6.21798684057134
30
4E-16
41
1
10
64.0252833415567
20
-6.45585306154408
30
0
41
1
10
64.0367882031495
20
-6.56785454911952
30
0
41
1
10
64.0682993498731
20
-6.87554233561102
30
0
41
1
10
64.0853705982465
20
-7.04450101479003
30
0
41
1
10
64.1132864193622
20
-7.24475172154766
30
0
41
1
10
64.1229998643312
20
-7.3025879122728
30
0
41
1
10
64.1449582210803
20
-7.40003622189636
30
0
41
1
10
64.157232262812
20
-7.43963055467674
30
0
41
1
10
64.1715994710894
20
-7.46946633736695
30
0
0
SPLINE
5
C9
100
AcDbEntity
8
1
62
256
6
ByLayer
370
18
48
1
60
0
100
AcDbSpline
70
4
71
3
72
30
73
26
40
0
40
0
40
0
40
0
40
0.0229328868546139
40
0.0229328868546139
40
0.0694598922424892
40
0.0694598922424892
40
0.255567913793991
40
0.255567913793991
40
0.441675935345493
40
0.441675935345493
40
0.488202940733368
40
0.488202940733368
40
0.534729946121243
40
0.534729946121243
40
0.627783956896994
40
0.627783956896994
40
0.813891978448496
40
0.813891978448496
40
0.906945989224248
40
0.906945989224248
40
0.953472994612123
40
0.953472994612123
40
0.976736497306061
40
0.976736497306061
40
1
40
1
40
1
40
1
41
1
10
43.8715272557984
20
0.2174555530178
30
0
41
1
10
44.0280023429081
20
0.132533733689712
30
0
41
1
10
44.1843819267347
20
0.0476161065970189
30
0
41
1
10
44.6571592889528
20
-0.209099790373017
30
0
41
1
10
44.9730950501371
20
-0.380632606177301
30
0
41
1
10
46.5499251747969
20
-1.23453939241199
30
1E-16
41
1
10
47.802033172977
20
-1.90602982424562
30
1E-16
41
1
10
50.3088026671084
20
-3.18751288380278
30
2E-16
41
1
10
51.5631181817686
20
-3.79815067297525
30
2E-16
41
1
10
53.1456628684057
20
-4.49967721523319
30
3E-16
41
1
10
53.4634445704091
20
-4.63712057880696
30
3E-16
41
1
10
54.0979640855537
20
-4.90411565778825
30
3E-16
41
1
10
54.4144023137668
20
-5.03354793669425
30
3E-16
41
1
10
55.3617229232574
20
-5.40904434476829
30
3E-16
41
1
10
55.9907743042294
20
-5.64243314681715
30
3E-16
41
1
10
57.8740952638433
20
-6.2872805251138
30
4E-16
41
1
10
59.1244432502738
20
-6.64291124816151
30
0
41
1
10
61.0079997108609
20
-7.05125064695693
30
0
41
1
10
61.6372012961208
20
-7.16644783676682
30
0
41
1
10
62.5849482182063
20
-7.3057434489329
30
0
41
1
10
62.9015218193005
20
-7.34659161265699
30
0
41
1
10
63.3776193134685
20
-7.39924028369595
30
0
41
1
10
63.5364901338279
20
-7.41534677282533
30
0
41
1
10
63.8540521168454
20
-7.44459174064511
30
0
41
1
10
64.0128123205089
20
-7.45744548386312
30
0
41
1
10
64.1715994710752
20
-7.46946633736704
30
0
0
SPLINE
5
CA
100
AcDbEntity
8
1
62
256
6
ByLayer
370
18
48
1
60
0
100
AcDbSpline
70
4
71
3
72
8
73
4
40
0
40
0
40
0
40
0
40
1
40
1
40
1
40
1
41
1
10
64.2429901684056
20
7.60630261416455
30
0
41
1
10
64.2381370898772
20
7.60957198045176
30
0
41
1
10
64.2332840799258
20
7.61284087221298
30
0
41
1
10
64.2284311375052
20
7.61610928959215
30
0
0
SPLINE
5
CB
100
AcDbEntity
8
1
62
256
6
ByLayer
370
18
48
1
60
0
100
AcDbSpline
70
4
71
3
72
8
73
4
40
0
40
0
40
0
40
0
40
1
40
1
40
1
40
1
41
1
10
63.7202304619034
20
-7.82521991020261
30
0
41
1
10
63.8568238285673
20
-7.74870967132085
30
0
41
1
10
63.9938032882577
20
-7.6703793656514
30
0
41
1
10
64.1312381933315
20
-7.59027188797231
30
0
0
SPLINE
5
CC
100
AcDbEntity
8
1
62
256
6
ByLayer
370
18
48
1
60
0
100
AcDbSpline
70
4
71
3
72
12
73
8
40
0
40
0
40
0
40
0
40
0.500000000000002
40
0.500000000000002
40
0.750000000000001
40
0.750000000000001
40
1
40
1
40
1
40
1
41
1
10
64.2429901684056
20
-7.60630261416455
30
0
41
1
10
64.2175871735249
20
-7.62295340503294
30
0
41
1
10
64.196205862415
20
-7.62973547702532
30
0
41
1
10
64.1687122582193
20
-7.62559679501953
30
0
41
1
10
64.1603125217403
20
-7.6218278244057
30
0
41
1
10
64.144817766104
20
-7.60954544047726
30
0
41
1
10
64.1377279507414
20
-7.60100873676905
30
0
41
1
10
64.1312381933315
20
-7.59027188797231
30
0
0
SPLINE
5
CD
100
AcDbEntity
8
1
62
256
6
ByLayer
370
18
48
1
60
0
100
AcDbSpline
70
4
71
3
72
8
73
4
40
0
40
0
40
0
40
0
40
1
40
1
40
1
40
1
41
1
10
3.64947556975361
20
6.7525477129316
30
0
41
1
10
3.63487345812067
20
6.75599839164573
30
0
41
1
10
3.61862063130135
20
6.75777689862994
30
0
41
1
10
3.60199578247546
20
6.75775671083784
30
0
0
SPLINE
5
CE
100
AcDbEntity
8
1
62
256
6
ByLayer
370
18
48
1
60
0
100
AcDbSpline
70
4
71
3
72
10
73
6
40
0
40
0
40
0
40
0
40
0.5
40
0.5
40
1
40
1
40
1
40
1
41
1
10
66.3345384731958
20
2.35989851085458
30
0
41
1
10
66.123017397914
20
2.30577306552666
30
0
41
1
10
65.910267207887
20
2.26096226920856
30
0
41
1
10
65.4832248552394
20
2.18302626861933
30
0
41
1
10
65.2689004648524
20
2.15014529730931
30
0
41
1
10
65.0540312676785
20
2.12139305687367
30
0
0
SPLINE
5
CF
100
AcDbEntity
8
1
62
256
6
ByLayer
370
18
48
1
60
0
100
AcDbSpline
70
4
71
3
72
8
73
4
40
0
40
0
40
0
40
0
40
1
40
1
40
1
40
1
41
1
10
66.3345384731958
20
2.35989851085463
30
0
41
1
10
66.5596949101787
20
1.72136141819465
30
0
41
1
10
66.7791036686452
20
1.08076712435289
30
0
41
1
10
66.9926826128558
20
0.438086231418652
30
0
0
SPLINE
5
D0
100
AcDbEntity
8
1
62
256
6
ByLayer
370
18
48
1
60
0
100
AcDbSpline
70
4
71
3
72
66
73
62
40
0
40
0
40
0
40
0
40
0.0498367855117963
40
0.0498367855117963
40
0.0747551782676943
40
0.0747551782676943
40
0.0996735710235923
40
0.0996735710235923
40
0.149510356535389
40
0.149510356535389
40
0.174428749291287
40
0.174428749291287
40
0.199347142047185
40
0.199347142047185
40
0.249183927558981
40
0.249183927558981
40
0.299020713070777
40
0.299020713070777
40
0.323939105826675
40
0.323939105826675
40
0.348857498582573
40
0.348857498582573
40
0.398694284094369
40
0.398694284094369
40
0.423612676850267
40
0.423612676850267
40
0.448531069606165
40
0.448531069606165
40
0.498367855117962
40
0.498367855117962
40
0.548204640629758
40
0.548204640629758
40
0.573123033385657
40
0.573123033385657
40
0.598041426141555
40
0.598041426141555
40
0.647878211653353
40
0.647878211653353
40
0.672796604409252
40
0.672796604409252
40
0.697714997165151
40
0.697714997165151
40
0.74755178267695
40
0.74755178267695
40
0.772470175432849
40
0.772470175432849
40
0.797388568188748
40
0.797388568188748
40
0.822306960944648
40
0.822306960944648
40
0.847225353700547
40
0.847225353700547
40
0.897062139212346
40
0.897062139212346
40
0.921980531968245
40
0.921980531968245
40
0.946898924724145
40
0.946898924724145
40
0.996735710235943
40
0.996735710235943
40
1
40
1
40
1
40
1
41
1
10
3.65133875505927
20
7.09944267531881
30
0
41
1
10
4.27117155819727
20
6.94442779609247
30
0
41
1
10
4.89103659633693
20
6.7688007871665
30
-4E-16
41
1
10
5.82180937566025
20
6.47568850473434
30
-4E-16
41
1
10
6.13235432099762
20
6.37297364640651
30
-4E-16
41
1
10
6.75206940512712
20
6.15812494746052
30
-4E-16
41
1
10
7.06145372001188
20
6.04595450041092
30
-4E-16
41
1
10
7.98943245399667
20
5.69665552068696
30
-3E-16
41
1
10
8.60790589955516
20
5.44686126125342
30
-3E-16
41
1
10
9.5364970540968
20
5.04834827909909
30
-3E-16
41
1
10
9.84617624157008
20
4.9115393676089
30
-3E-16
41
1
10
10.4658632707166
20
4.62992748465248
30
-3E-16
41
1
10
10.7759922290848
20
4.48490426728347
30
-3E-16
41
1
10
11.7050818678363
20
4.04140115944557
30
-2E-16
41
1
10
12.3238945838524
20
3.73448388603126
30
-2E-16
41
1
10
13.5614349360998
20
3.10016172524357
30
-2E-16
41
1
10
14.179929283216
20
2.77235764561513
30
-2E-16
41
1
10
15.1093067199634
20
2.2678192710261
30
-1E-16
41
1
10
15.4197039573584
20
2.0975854954801
30
-1E-16
41
1
10
16.0392127650592
20
1.75452507967859
30
-1E-16
41
1
10
16.3484849734232
20
1.58148686611744
30
-1E-16
41
1
10
17.2762772086955
20
1.0603213850662
30
-1E-16
41
1
10
17.8949868328253
20
0.71053097248938
30
0
41
1
10
18.8235792000177
20
0.182805513137851
30
0
41
1
10
19.1332275722567
20
0.0064408185304217
30
0
41
1
10
19.7527429909625
20
-0.347247993823629
30
0
41
1
10
20.0627456088374
20
-0.524864829992566
30
0
41
1
10
20.9918024445522
20
-1.05399341320046
30
1E-16
41
1
10
21.6103610274244
20
-1.40288569030156
30
1E-16
41
1
10
22.8473082868536
20
-2.09055981427375
30
1E-16
41
1
10
23.4658738793622
20
-2.42903447410947
30
1E-16
41
1
10
24.3952280453418
20
-2.92631169902393
30
2E-16
41
1
10
24.705628990502
20
-3.09024137257643
30
2E-16
41
1
10
25.3251431342542
20
-3.41303332266662
30
2E-16
41
1
10
25.6342856209808
20
-3.57223476713153
30
2E-16
41
1
10
26.5620318938827
20
-4.03987512357048
30
2E-16
41
1
10
27.1805737290528
20
-4.33903616227957
30
3E-16
41
1
10
28.1087651599737
20
-4.76851527950842
30
3E-16
41
1
10
28.4182386073382
20
-4.90843551511588
30
3E-16
41
1
10
29.0375283079526
20
-5.18145353215357
30
3E-16
41
1
10
29.3474554013041
20
-5.314821765755
30
3E-16
41
1
10
30.2766001251766
20
-5.70075357459396
30
3E-16
41
1
10
30.89557574597
20
-5.94000058801589
30
4E-16
41
1
10
31.8232440677435
20
-6.27232255719835
30
4E-16
41
1
10
32.1323667967441
20
-6.37861891115992
30
4E-16
41
1
10
32.7504350446426
20
-6.58212491325639
30
4E-16
41
1
10
33.0594103329384
20
-6.67928410124833
30
4E-16
41
1
10
33.6785833122617
20
-6.86309314168614
30
0
41
1
10
33.988999509885
20
-6.94985811375631
30
0
41
1
10
34.6089760181467
20
-7.11248877227663
30
0
41
1
10
34.9187096256524
20
-7.18839508363345
30
0
41
1
10
35.8471307647758
20
-7.399993320834
30
0
41
1
10
36.4646553031601
20
-7.51975166579032
30
0
41
1
10
37.3919702538789
20
-7.66524821404946
30
0
41
1
10
37.7012465746694
20
-7.70807325646672
30
0
41
1
10
38.3203596677889
20
-7.782217937941
30
0
41
1
10
38.6304602671264
20
-7.81354001859833
30
0
41
1
10
39.5599436175661
20
-7.88954152102664
30
0
41
1
10
40.1788574381228
20
-7.9165548799073
30
0
41
1
10
40.8376740968748
20
-7.92034079157358
30
0
41
1
10
40.8781716549544
20
-7.92047257049464
30
0
41
1
10
40.9186672583219
20
-7.92050323408361
30
0
0
SPLINE
5
D1
100
AcDbEntity
8
1
62
256
6
ByLayer
370
18
48
1
60
0
100
AcDbSpline
70
4
71
3
72
22
73
18
40
0
40
0
40
0
40
0
40
0.125000000000003
40
0.125000000000003
40
0.250000000000007
40
0.250000000000007
40
0.312500000000009
40
0.312500000000009
40
0.34375000000001
40
0.34375000000001
40
0.37500000000001
40
0.37500000000001
40
0.500000000000009
40
0.500000000000009
40
0.750000000000005
40
0.750000000000005
40
1
40
1
40
1
40
1
41
1
10
66.3345384731958
20
2.35989851085461
30
0
41
1
10
66.2227200695154
20
2.53621102377696
30
0
41
1
10
66.1156029542512
20
2.72333246703118
30
0
41
1
10
65.9096225698603
20
3.11980113411804
30
0
41
1
10
65.8102986948586
20
3.33061607638985
30
0
41
1
10
65.6701910089855
20
3.65499380419658
30
0
41
1
10
65.6247795140936
20
3.76478448423077
30
0
41
1
10
65.558400023082
20
3.93162830417165
30
0
41
1
10
65.5366119236959
20
3.9874731573573
30
0
41
1
10
65.4936406720632
20
4.09958965881427
30
0
41
1
10
65.4725177496231
20
4.15591045266316
30
0
41
1
10
65.3675040345545
20
4.4379020187375
30
0
41
1
10
65.2845122854548
20
4.66390268626117
30
0
41
1
10
65.0380843085636
20
5.34296388543683
30
0
41
1
10
64.8772254075957
20
5.79740061118093
30
0
41
1
10
64.5590727228557
20
6.70450068623418
30
0
41
1
10
64.4015098528897
20
7.15766990965634
30
0
41
1
10
64.2429901684055
20
7.60630261416458
30
0
0
SPLINE
5
D2
100
AcDbEntity
8
1
62
256
6
ByLayer
370
18
48
1
60
0
100
AcDbSpline
70
4
71
3
72
12
73
8
40
0
40
0
40
0
40
0
40
0.499999999999969
40
0.499999999999969
40
0.749999999999984
40
0.749999999999984
40
1
40
1
40
1
40
1
41
1
10
3.50166890487011
20
6.79442495269336
30
0
41
1
10
3.50166890487014
20
6.78304158376585
30
0
41
1
10
3.50931975834547
20
6.77148387111654
30
0
41
1
10
3.5345359839763
20
6.75689101093394
30
0
41
1
10
3.54524802007367
20
6.75256054300695
30
0
41
1
10
3.57121986372599
20
6.74624041381645
30
0
41
1
10
3.5863672269152
20
6.74436074512059
30
0
41
1
10
3.60199578247546
20
6.74438658011985
30
0
0
SPLINE
5
D3
100
AcDbEntity
8
1
62
256
6
ByLayer
370
18
48
1
60
0
100
AcDbSpline
70
4
71
3
72
8
73
4
40
0
40
0
40
0
40
0
40
1
40
1
40
1
40
1
41
1
10
66.3345384731958
20
-2.35989851085463
30
0
41
1
10
66.5596949101764
20
-1.72136141820124
30
0
41
1
10
66.7791036686406
20
-1.08076712436619
30
0
41
1
10
66.9926826128491
20
-0.438086231438632
30
0
0
SPLINE
5
D4
100
AcDbEntity
8
1
62
256
6
ByLayer
370
18
48
1
60
0
100
AcDbSpline
70
4
71
3
72
32
73
28
40
0
40
0
40
0
40
0
40
0.125000000000004
40
0.125000000000004
40
0.187500000000004
40
0.187500000000004
40
0.250000000000004
40
0.250000000000004
40
0.312500000000003
40
0.312500000000003
40
0.375000000000003
40
0.375000000000003
40
0.437500000000003
40
0.437500000000003
40
0.500000000000002
40
0.500000000000002
40
0.562500000000002
40
0.562500000000002
40
0.625000000000002
40
0.625000000000002
40
0.687500000000001
40
0.687500000000001
40
0.750000000000001
40
0.750000000000001
40
0.875000000000001
40
0.875000000000001
40
1
40
1
40
1
40
1
41
1
10
66.8893459008685
20
0.0955241632655657
30
0
41
1
10
66.8509354403019
20
-0.0311204949787225
30
0
41
1
10
66.806774756764
20
-0.154869775946565
30
0
41
1
10
66.7315836668392
20
-0.335838454041635
30
0
41
1
10
66.7047770845907
20
-0.395846332169782
30
0
41
1
10
66.649379862409
20
-0.511069054075421
30
0
41
1
10
66.6207756461565
20
-0.566405374585372
30
0
41
1
10
66.561797878087
20
-0.672386596930693
30
0
41
1
10
66.5314255409733
20
-0.72303457884928
30
0
41
1
10
66.4688207483432
20
-0.819223719344933
30
1E-16
41
1
10
66.4366619791806
20
-0.864546772881681
30
1E-16
41
1
10
66.3730755831904
20
-0.946104844935093
30
-1E-16
41
1
10
66.3413262549594
20
-0.982855068610689
30
-1E-16
41
1
10
66.2778730835362
20
-1.04813073024363
30
0
41
1
10
66.2458800676099
20
-1.07683498745976
30
0
41
1
10
66.183951069309
20
-1.12390275647482
30
0
41
1
10
66.153866217118
20
-1.14250092516519
30
0
41
1
10
66.0952250535683
20
-1.17021236886543
30
1E-16
41
1
10
66.0664552719538
20
-1.17932824518863
30
1E-16
41
1
10
66.0116209117347
20
-1.18785634490857
30
1E-16
41
1
10
65.9854975182993
20
-1.18738052641987
30
1E-16
41
1
10
65.9354269389113
20
-1.17768843240921
30
1E-16
41
1
10
65.9113379922186
20
-1.16837110010454
30
1E-16
41
1
10
65.8430329310674
20
-1.12851267671903
30
1E-16
41
1
10
65.8029332492793
20
-1.08668688355533
30
1E-16
41
1
10
65.7303398074804
20
-0.97794517172548
30
1E-16
41
1
10
65.6979556903488
20
-0.910764689333462
30
1E-16
41
1
10
65.6693203311277
20
-0.834325865999006
30
1E-16
0
SPLINE
5
D5
100
AcDbEntity
8
1
62
256
6
ByLayer
370
18
48
1
60
0
100
AcDbSpline
70
4
71
3
72
8
73
4
40
0
40
0
40
0
40
0
40
1
40
1
40
1
40
1
41
1
10
66.9926826128496
20
0.438086231424592
30
0
41
1
10
67.0024352103068
20
0.146146050105756
30
0
41
1
10
67.002443050961
20
-0.145911343206251
30
0
41
1
10
66.9926826128491
20
-0.438086231438604
30
0
0
SPLINE
5
D6
100
AcDbEntity
8
1
62
256
6
ByLayer
370
18
48
1
60
0
100
AcDbSpline
70
4
71
3
72
17
73
13
40
0
40
0
40
0
40
0
40
0.500000000000049
40
0.500000000000049
40
0.750000000000072
40
0.875000000000084
40
0.93750000000009
40
0.96875000000007
40
0.96875000000007
40
0.984375000000035
40
0.984375000000035
40
1
40
1
40
1
40
1
41
1
10
63.749814021676
20
-7.93254024068594
30
0
41
1
10
63.8293071480723
20
-7.88092908099804
30
0
41
1
10
63.9089389177558
20
-7.82873992343264
30
0
41
1
10
64.0286110536897
20
-7.74960972830891
30
0
41
1
10
64.0885002485719
20
-7.70983497267648
30
0
41
1
10
64.1584642751247
20
-7.66307078773005
30
0
41
1
10
64.1934693621159
20
-7.63959963481128
30
0
41
1
10
64.2084765400608
20
-7.62952153932915
30
0
41
1
10
64.2159809629707
20
-7.62447932690714
30
0
41
1
10
64.2184759425464
20
-7.6228025891204
30
0
41
1
10
64.2235320181353
20
-7.61940307948518
30
0
41
1
10
64.2263070671505
20
-7.61753510574451
30
0
41
1
10
64.2284311376624
20
-7.61610928948667
30
0
0
SPLINE
5
D7
100
AcDbEntity
8
1
62
256
6
ByLayer
370
18
48
1
60
0
100
AcDbSpline
70
4
71
3
72
18
73
14
40
0
40
0
40
0
40
0
40
0.236921192903934
40
0.236921192903934
40
0.432831730498443
40
0.432831730498443
40
0.630553039674536
40
0.630553039674536
40
0.801967069403051
40
0.801967069403051
40
0.966479364528472
40
0.966479364528472
40
1
40
1
40
1
40
1
41
1
10
64.1715994710899
20
-7.46946633736815
30
0
41
1
10
64.1716839427143
20
-7.46964175607016
30
0
41
1
10
64.1717101229245
20
-7.47000401953019
30
0
41
1
10
64.1716232211144
20
-7.47102771057374
30
0
41
1
10
64.1715316571699
20
-7.47164009038724
30
0
41
1
10
64.1712384123831
20
-7.47311864401919
30
0
41
1
10
64.1710301451603
20
-7.47401248808421
30
0
41
1
10
64.1705583617069
20
-7.47580885925649
30
0
41
1
10
64.1702994909479
20
-7.47671855483028
30
0
41
1
10
64.169761505795
20
-7.47848735731989
30
0
41
1
10
64.1694772504175
20
-7.47936851129964
30
0
41
1
10
64.1691351895567
20
-7.48037635887468
30
0
41
1
10
64.169076607924
20
-7.48054716335608
30
0
41
1
10
64.1690180254361
20
-7.48071623323403
30
0
0
SPLINE
5
D8
100
AcDbEntity
8
1
62
256
6
ByLayer
370
18
48
1
60
0
100
AcDbSpline
70
4
71
3
72
10
73
6
40
0
40
0
40
0
40
0
40
0.5
40
0.5
40
1
40
1
40
1
40
1
41
1
10
63.7202304619034
20
-7.82521991020263
30
0
41
1
10
63.7255069795507
20
-7.85626180821774
30
0
41
1
10
63.7306440636675
20
-7.88081118509331
30
0
41
1
10
63.7404439641163
20
-7.91669905748097
30
0
41
1
10
63.7451702458984
20
-7.92804451304005
30
0
41
1
10
63.7498140216531
20
-7.93254024070151
30
0
0
SPLINE
5
D9
100
AcDbEntity
8
1
62
256
6
ByLayer
370
18
48
1
60
0
100
AcDbSpline
70
2053
71
3
72
72
73
68
40
0
40
0
40
0
40
0
40
0.0625000000000035
40
0.0625000000000035
40
0.125000000000007
40
0.125000000000007
40
0.187500000000011
40
0.187500000000011
40
0.218750000000012
40
0.218750000000012
40
0.250000000000013
40
0.250000000000013
40
0.281250000000014
40
0.281250000000014
40
0.296875000000014
40
0.296875000000014
40
0.312500000000015
40
0.312500000000015
40
0.343750000000017
40
0.343750000000017
40
0.375000000000018
40
0.375000000000018
40
0.390625000000019
40
0.390625000000019
40
0.406250000000019
40
0.406250000000019
40
0.437500000000019
40
0.437500000000019
40
0.468750000000018
40
0.468750000000018
40
0.500000000000017
40
0.500000000000017
40
0.531250000000016
40
0.531250000000016
40
0.562500000000015
40
0.562500000000015
40
0.593750000000014
40
0.593750000000014
40
0.625000000000013
40
0.625000000000013
40
0.656250000000012
40
0.656250000000012
40
0.687500000000011
40
0.687500000000011
40
0.71875000000001
40
0.71875000000001
40
0.750000000000009
40
0.750000000000009
40
0.765625000000009
40
0.765625000000009
40
0.781250000000008
40
0.781250000000008
40
0.812500000000007
40
0.812500000000007
40
0.828125000000007
40
0.828125000000007
40
0.843750000000006
40
0.843750000000006
40
0.875000000000005
40
0.875000000000005
40
0.906250000000004
40
0.906250000000004
40
0.937500000000002
40
0.937500000000002
40
0.968750000000001
40
0.968750000000001
40
1
40
1
40
1
40
1
41
1
10
64.9410492429129
20
-2.96876761051301
30
2E-16
41
1
10
64.8892550136159
20
-3.02406436015596
30
2E-16
41
1
10
64.8408198566748
20
-3.05693243636222
30
2E-16
41
1
10
64.7484257310612
20
-3.07967148350988
30
2E-16
41
1
10
64.7068627965946
20
-3.06885908654994
30
2E-16
41
1
10
64.6310192011476
20
-3.00199222907625
30
2E-16
41
1
10
64.5986370419671
20
-2.94763576605123
30
2E-16
41
1
10
64.5580027141122
20
-2.83292991913203
30
2E-16
41
1
10
64.5461155971535
20
-2.78978244022227
30
2E-16
41
1
10
64.5260464251917
20
-2.69491983330138
30
2E-16
41
1
10
64.5177873475535
20
-2.64302102080038
30
2E-16
41
1
10
64.5053641037324
20
-2.52917787781846
30
2E-16
41
1
10
64.5014113657025
20
-2.46892821985509
30
2E-16
41
1
10
64.4992343857411
20
-2.37463104828276
30
1E-16
41
1
10
64.4991329824866
20
-2.34247938485197
30
1E-16
41
1
10
64.5002985855591
20
-2.27665485694973
30
1E-16
41
1
10
64.5015841100817
20
-2.24271520201995
30
1E-16
41
1
10
64.5076214474316
20
-2.1407494491792
30
1E-16
41
1
10
64.5144683107887
20
-2.07267493749677
30
1E-16
41
1
10
64.534398871465
20
-1.93638353879461
30
1E-16
41
1
10
64.5476639926631
20
-1.86789465813914
30
1E-16
41
1
10
64.5715515871304
20
-1.77115055285265
30
1E-16
41
1
10
64.5802123586937
20
-1.73964105884409
30
1E-16
41
1
10
64.5989655913592
20
-1.67809921061206
30
1E-16
41
1
10
64.6091242739637
20
-1.647910783463
30
1E-16
41
1
10
64.6410531610923
20
-1.56166520793732
30
1E-16
41
1
10
64.6643954139045
20
-1.50931957205429
30
1E-16
41
1
10
64.7149794565544
20
-1.4140950234241
30
1E-16
41
1
10
64.7418034610258
20
-1.37210997989663
30
1E-16
41
1
10
64.7970540266309
20
-1.2996766845217
30
1E-16
41
1
10
64.8258986777787
20
-1.26875207279994
30
1E-16
41
1
10
64.8836584336899
20
-1.21861609105036
30
1E-16
41
1
10
64.9126588197099
20
-1.1991865755291
30
1E-16
41
1
10
64.9706932147962
20
-1.17069026434766
30
1E-16
41
1
10
64.9997009196825
20
-1.16173961337856
30
1E-16
41
1
10
65.0558191745278
20
-1.15423212838778
30
1E-16
41
1
10
65.0831590751941
20
-1.15554719923153
30
1E-16
41
1
10
65.1361596100434
20
-1.16824638746806
30
1E-16
41
1
10
65.1618125788667
20
-1.17974451719064
30
1E-16
41
1
10
65.209497693892
20
-1.21232789338046
30
1E-16
41
1
10
65.2317570440875
20
-1.23343495063278
30
1E-16
41
1
10
65.2726981303574
20
-1.28588348864554
30
1E-16
41
1
10
65.2915257865549
20
-1.3176190237499
30
1E-16
41
1
10
65.3237329145686
20
-1.39053753052983
30
1E-16
41
1
10
65.3372323712307
20
-1.43169611114556
30
1E-16
41
1
10
65.3583388921343
20
-1.52456313394819
30
1E-16
41
1
10
65.3658574187383
20
-1.57647888625542
30
1E-16
41
1
10
65.3716197056232
20
-1.65966126129396
30
1E-16
41
1
10
65.3726534974057
20
-1.68840613091663
30
1E-16
41
1
10
65.3728613972195
20
-1.74806350052936
30
1E-16
41
1
10
65.3720173085045
20
-1.77921123587231
30
1E-16
41
1
10
65.3666358882463
20
-1.87397372709839
30
1E-16
41
1
10
65.3593417622288
20
-1.93899861301321
30
1E-16
41
1
10
65.3429750635525
20
-2.03944323187105
30
1E-16
41
1
10
65.336549772272
20
-2.07366504178998
30
1E-16
41
1
10
65.322210555318
20
-2.14140790975253
30
1E-16
41
1
10
65.3142954377638
20
-2.17501975128005
30
1E-16
41
1
10
65.2884755781323
20
-2.27512469239471
30
1E-16
41
1
10
65.268214438036
20
-2.34169546066707
30
1E-16
41
1
10
65.2243067986163
20
-2.46795036386163
30
2E-16
41
1
10
65.2006980041326
20
-2.52781997889048
30
2E-16
41
1
10
65.1506397339665
20
-2.64148798367242
30
2E-16
41
1
10
65.1249598535
20
-2.69353428087683
30
2E-16
41
1
10
65.0726938693532
20
-2.78886310800593
30
2E-16
41
1
10
65.0459036707239
20
-2.83237467136158
30
2E-16
41
1
10
64.9931609736394
20
-2.90826489295998
30
2E-16
41
1
10
64.9669463575615
20
-2.94111923569153
30
2E-16
41
1
10
64.9410492429129
20
-2.96876761051301
30
2E-16
0
SPLINE
5
DA
100
AcDbEntity
8
1
62
256
6
ByLayer
370
18
48
1
60
0
100
AcDbSpline
70
4
71
3
72
28
73
24
40
0
40
0
40
0
40
0
40
0.125
40
0.125
40
0.25
40
0.25
40
0.375
40
0.375
40
0.4375
40
0.4375
40
0.5
40
0.5
40
0.625
40
0.625
40
0.6875
40
0.6875
40
0.75
40
0.75
40
0.875
40
0.875
40
0.9375
40
0.9375
40
1
40
1
40
1
40
1
41
1
10
3.60199578247543
20
6.74438658011985
30
0
41
1
10
3.6019858786002
20
6.56199012478831
30
0
41
1
10
3.60197498659184
20
6.35012390694166
30
-4E-16
41
1
10
3.60195232119153
20
5.86801982895028
30
-4E-16
41
1
10
3.60194054177998
20
5.59727555014268
30
-3E-16
41
1
10
3.60191743814678
20
5.00913117498257
30
-3E-16
41
1
10
3.60190621009514
20
4.694538087745
30
-3E-16
41
1
10
3.60189013811322
20
4.19293439260352
30
-3E-16
41
1
10
3.60188490637435
20
4.02075466074166
30
-2E-16
41
1
10
3.60187471025705
20
3.66630774154834
30
-2E-16
41
1
10
3.60186973693197
20
3.48369031853244
30
-2E-16
41
1
10
3.60185526997046
20
2.92247238772759
30
-2E-16
41
1
10
3.60184637538342
20
2.53605174947378
30
-2E-16
41
1
10
3.60183383759178
20
1.93809358623338
30
-1E-16
41
1
10
3.60182979234142
20
1.73573811694382
30
-1E-16
41
1
10
3.60182199519991
20
1.33092373869019
30
-1E-16
41
1
10
3.60181822721071
20
1.12771484022741
30
-1E-16
41
1
10
3.60180714869068
20
0.51572505468269
30
0
41
1
10
3.60180007244432
20
0.104597257292255
30
0
41
1
10
3.60178913130446
20
-0.51692024150131
30
0
41
1
10
3.60178542197531
20
-0.725175446682044
30
0
41
1
10
3.60177782978042
20
-1.13795179746572
30
1E-16
41
1
10
3.60177393581233
20
-1.34312173949436
30
1E-16
41
1
10
3.60176986301173
20
-1.54706590504901
30
1E-16
0
SPLINE
5
DB
100
AcDbEntity
8
1
62
256
6
ByLayer
370
18
48
1
60
0
100
AcDbSpline
70
4
71
3
72
50
73
46
40
0
40
0
40
0
40
0
40
0.0190239105426285
40
0.0190239105426285
40
0.0540587708803909
40
0.0540587708803909
40
0.0890936312181533
40
0.0890936312181533
40
0.159163351893678
40
0.159163351893678
40
0.194198212231441
40
0.194198212231441
40
0.229233072569204
40
0.229233072569204
40
0.264267932906967
40
0.264267932906967
40
0.299302793244731
40
0.299302793244731
40
0.334337653582494
40
0.334337653582494
40
0.369372513920257
40
0.369372513920257
40
0.40440737425802
40
0.40440737425802
40
0.439442234595783
40
0.439442234595783
40
0.50951195527131
40
0.50951195527131
40
0.579581675946838
40
0.579581675946838
40
0.614616536284601
40
0.614616536284601
40
0.649651396622365
40
0.649651396622365
40
0.719721117297892
40
0.719721117297892
40
0.754755977635655
40
0.754755977635655
40
0.789790837973418
40
0.789790837973418
40
0.859860558648946
40
0.859860558648946
40
0.929930279324473
40
0.929930279324473
40
1
40
1
40
1
40
1
41
1
10
36.5794431247672
20
7.53274069942009
30
0
41
1
10
36.7472281111173
20
7.56240193056115
30
0
41
1
10
36.915021428513
20
7.59041451517166
30
0
41
1
10
37.391970253879
20
7.66524821404948
30
0
41
1
10
37.7012465746694
20
7.70807325646672
30
0
41
1
10
38.3203596677889
20
7.782217937941
30
0
41
1
10
38.6304602671264
20
7.81354001859833
30
0
41
1
10
39.5599436175662
20
7.88954152102664
30
0
41
1
10
40.1788574381228
20
7.91655487990727
30
0
41
1
10
41.1063331345165
20
7.92188464959744
30
0
41
1
10
41.4153769183859
20
7.91777847220135
30
0
41
1
10
42.0332482954902
20
7.89765611961951
30
0
41
1
10
42.3420501230704
20
7.88160179696507
30
0
41
1
10
42.9611912389818
20
7.83779734469351
30
0
41
1
10
43.2715900974974
20
7.810003204433
30
0
41
1
10
43.8915282281122
20
7.74292779614493
30
0
41
1
10
44.2011873726568
20
7.70364696896516
30
0
41
1
10
44.8199274635139
20
7.61365449047813
30
0
41
1
10
45.1290065310925
20
7.56294002418775
30
0
41
1
10
45.7467266677944
20
7.45006665593186
30
0
41
1
10
46.0553326238552
20
7.38786271421674
30
0
41
1
10
46.6735417570461
20
7.25287331028349
30
0
41
1
10
46.9829701014647
20
7.17999874729955
30
0
41
1
10
47.6024242412385
20
7.02345017790105
30
0
41
1
10
47.9127725882117
20
6.93972649657542
30
0
41
1
10
48.8423693652445
20
6.67348690973057
30
-4E-16
41
1
10
49.4597947257744
20
6.4750466239224
30
-4E-16
41
1
10
50.6956146651347
20
6.0418722352195
30
-4E-16
41
1
10
51.3139705582997
20
5.80723435330182
30
-4E-16
41
1
10
52.2430001425847
20
5.42910249992062
30
-3E-16
41
1
10
52.5531999482708
20
5.2985544903276
30
-3E-16
41
1
10
53.1724880229033
20
5.02976634643917
30
-3E-16
41
1
10
53.4817115253666
20
4.89156831980478
30
-3E-16
41
1
10
54.4091141333811
20
4.46699633187777
30
-3E-16
41
1
10
55.0265642168675
20
4.16999295543613
30
-3E-16
41
1
10
55.9540577526128
20
3.70738662357994
30
-2E-16
41
1
10
56.263447558122
20
3.55034886307647
30
-2E-16
41
1
10
56.8827945793409
20
3.23076417076871
30
-2E-16
41
1
10
57.1930005142619
20
3.06808802854917
30
-2E-16
41
1
10
58.1223727333098
20
2.57347657549917
30
-2E-16
41
1
10
58.7401100266069
20
2.23417095015626
30
-1E-16
41
1
10
59.9779716787105
20
1.54662539205242
30
-1E-16
41
1
10
60.5985595686819
20
1.19727702834217
30
-1E-16
41
1
10
61.8376918687333
20
0.493607597872511
30
0
41
1
10
62.4561492707341
20
0.13926262876285
30
0
41
1
10
63.0745825798128
20
-0.21570190677167
30
0
0
SPLINE
5
DC
100
AcDbEntity
8
1
62
256
6
ByLayer
370
18
48
1
60
0
100
AcDbSpline
70
4
71
3
72
22
73
18
40
0
40
0
40
0
40
0
40
0.219322377503904
40
0.219322377503904
40
0.438644755007808
40
0.438644755007808
40
0.548305943759759
40
0.548305943759759
40
0.65796713251171
40
0.65796713251171
40
0.76762832126366
40
0.76762832126366
40
0.877289510015611
40
0.877289510015611
40
0.986950698767562
40
0.986950698767562
40
1
40
1
40
1
40
1
41
1
10
7.33869746285799
20
6.6295464253445
30
-4E-16
41
1
10
6.90358162852223
20
6.76387256557794
30
-4E-16
41
1
10
6.47722728219409
20
6.89448592042115
30
0
41
1
10
5.64588832830711
20
7.14420136323557
30
0
41
1
10
5.24082988957215
20
7.26337024541499
30
0
41
1
10
4.6541594278884
20
7.42858362047283
30
0
41
1
10
4.46211492856688
20
7.4813741235746
30
0
41
1
10
4.08643132692194
20
7.58106170105003
30
0
41
1
10
3.9027594466186
20
7.62795054341754
30
0
41
1
10
3.55105283444297
20
7.71273765529494
30
0
41
1
10
3.382358868268
20
7.75082386144678
30
0
41
1
10
3.06248942279174
20
7.81594292761528
30
0
41
1
10
2.91086947702459
20
7.84300248685588
30
0
41
1
10
2.636185053551
20
7.88170381194186
30
0
41
1
10
2.51228264022333
20
7.89355815775508
30
0
41
1
10
2.39210035384147
20
7.89624427277212
30
0
41
1
10
2.37955470453281
20
7.89639538211839
30
0
41
1
10
2.36725137852477
20
7.8964072768153
30
0
0
SPLINE
5
DD
100
AcDbEntity
8
1
62
256
6
ByLayer
370
18
48
1
60
0
100
AcDbSpline
70
4
71
3
72
10
73
6
40
0
40
0
40
0
40
0
40
0.378585548377891
40
0.378585548377891
40
1
40
1
40
1
40
1
41
1
10
9.55090070983951
20
5.86862785965727
30
-4E-16
41
1
10
10.1120778084034
20
6.0202756898276
30
-4E-16
41
1
10
10.6643714234382
20
6.17697455631748
30
-4E-16
41
1
10
12.1040353665706
20
6.5880885955041
30
-4E-16
41
1
10
12.9791571279224
20
6.84029919587294
30
0
41
1
10
13.8452017826046
20
7.06282185381164
30
0
0
SPLINE
5
DE
100
AcDbEntity
8
1
62
256
6
ByLayer
370
18
48
1
60
0
100
AcDbSpline
70
4
71
3
72
14
73
10
40
0
40
0
40
0
40
0
40
0.228621320697353
40
0.228621320697353
40
0.421465990523015
40
0.421465990523015
40
0.614310660348677
40
0.614310660348677
40
1
40
1
40
1
40
1
41
1
10
20.3200156681449
20
-7.90761571758597
30
0
41
1
10
19.8308023587742
20
-7.90782010804244
30
0
41
1
10
19.340975708761
20
-7.8932412257939
30
0
41
1
10
18.4356301082456
20
-7.83890679147299
30
0
41
1
10
18.020482106663
20
-7.80344394535686
30
0
41
1
10
17.1874661689898
20
-7.71122529546412
30
0
41
1
10
16.768988777803
20
-7.6543501757312
30
0
41
1
10
15.5157410734488
20
-7.4528453379034
30
0
41
1
10
14.6814579315331
20
-7.27740822967507
30
0
41
1
10
13.8452019237004
20
-7.06282196304366
30
0
0
SPLINE
5
DF
100
AcDbEntity
8
1
62
256
6
ByLayer
370
18
48
1
60
0
100
AcDbSpline
70
4
71
3
72
10
73
6
40
0
40
0
40
0
40
0
40
0.5
40
0.5
40
1
40
1
40
1
40
1
41
1
10
3.50166890487011
20
7.06091584650949
30
0
41
1
10
3.50166890487011
20
7.07666529232299
30
0
41
1
10
3.5212301252856
20
7.09155346990758
30
0
41
1
10
3.58176357346056
20
7.10696622215679
30
0
41
1
10
3.62081608548996
20
7.10707613374984
30
0
41
1
10
3.65133875505927
20
7.09944267531881
30
0
0
SPLINE
5
E0
100
AcDbEntity
8
1
62
256
6
ByLayer
370
18
48
1
60
0
100
AcDbSpline
70
4
71
3
72
8
73
4
40
0
40
0
40
0
40
0
40
1
40
1
40
1
40
1
41
1
10
66.9926826128442
20
0.438086231422176
30
0
41
1
10
66.9584081818327
20
0.323846898201452
30
0
41
1
10
66.9239624016719
20
0.209659605777603
30
0
41
1
10
66.8893459008685
20
0.0955241632655657
30
0
0
SPLINE
5
E1
100
AcDbEntity
8
1
62
256
6
ByLayer
370
18
48
1
60
0
100
AcDbSpline
70
4
71
3
72
40
73
36
40
0
40
0
40
0
40
0
40
0.08326741358364
40
0.08326741358364
40
0.16653482716728
40
0.16653482716728
40
0.249802240750919
40
0.249802240750919
40
0.333069654334559
40
0.333069654334559
40
0.416337067918198
40
0.416337067918198
40
0.457970774710018
40
0.457970774710018
40
0.499604481501838
40
0.499604481501838
40
0.58287189508548
40
0.58287189508548
40
0.666139308669121
40
0.666139308669121
40
0.749406722252762
40
0.749406722252762
40
0.791040429044582
40
0.791040429044582
40
0.832674135836403
40
0.832674135836403
40
0.874307842628223
40
0.874307842628223
40
0.915941549420044
40
0.915941549420044
40
0.957575256211864
40
0.957575256211864
40
0.999208963003685
40
0.999208963003685
40
1
40
1
40
1
40
1
41
1
10
63.2738654413854
20
-0.324824673921285
30
0
41
1
10
62.6484132879816
20
0.0161434315372446
30
0
41
1
10
62.0247881952202
20
0.355559321106142
30
0
41
1
10
60.7819230204305
20
1.02698490266448
30
-1E-16
41
1
10
60.1623796455644
20
1.35923792646383
30
-1E-16
41
1
10
58.9259112470808
20
2.01356866593028
30
-1E-16
41
1
10
58.3093656553218
20
2.33582156324115
30
-1E-16
41
1
10
57.0741480249401
20
2.96377959124129
30
-2E-16
41
1
10
56.455781131139
20
3.26979749526265
30
-2E-16
41
1
10
55.2161758069718
20
3.86225004288903
30
-2E-16
41
1
10
54.5949924251656
20
4.14859855668024
30
-3E-16
41
1
10
53.6587517024921
20
4.5597292979258
30
-3E-16
41
1
10
53.3454317615847
20
4.69390932123491
30
-3E-16
41
1
10
52.7201066094146
20
4.95432538415429
30
-3E-16
41
1
10
52.4081224096116
20
5.0805805883347
30
-3E-16
41
1
10
51.4736928241697
20
5.44699245240074
30
-3E-16
41
1
10
50.8529014287806
20
5.67478483722431
30
-3E-16
41
1
10
49.6147708412436
20
6.09342894642805
30
-4E-16
41
1
10
48.9976222651155
20
6.28378402461976
30
-4E-16
41
1
10
47.7615649195909
20
6.62832025619841
30
0
41
1
10
47.1433554607372
20
6.78173235174711
30
0
41
1
10
46.2146306668405
20
6.98022964738908
30
0
41
1
10
45.9049544865383
20
7.04071436947117
30
0
41
1
10
45.284527568036
20
7.15145555848383
30
0
41
1
10
44.9736948609063
20
7.20199764357139
30
0
41
1
10
44.3506438598842
20
7.29288062412897
30
0
41
1
10
44.0384251683315
20
7.33317501824942
30
0
41
1
10
43.4124436627417
20
7.40251134379989
30
0
41
1
10
43.0988523888142
20
7.43153329829033
30
0
41
1
10
42.4746961680399
20
7.47694883666202
30
0
41
1
10
42.1637754933567
20
7.49291215181608
30
0
41
1
10
41.5427410388031
20
7.51399578963733
30
0
41
1
10
41.2323999475956
20
7.51967456731765
30
0
41
1
10
40.9164371962254
20
7.52006690767229
30
0
41
1
10
40.9105459531017
20
7.52007232659037
30
0
41
1
10
40.9046547982003
20
7.52007584653879
30
0
0
SPLINE
5
E2
100
AcDbEntity
8
1
62
256
6
ByLayer
370
18
48
1
60
0
100
AcDbSpline
70
4
71
3
72
22
73
18
40
0
40
0
40
0
40
0
40
0.250000000000004
40
0.250000000000004
40
0.312500000000004
40
0.312500000000004
40
0.375000000000005
40
0.375000000000005
40
0.500000000000004
40
0.500000000000004
40
0.750000000000001
40
0.750000000000001
40
0.812500000000001
40
0.812500000000001
40
0.875000000000001
40
0.875000000000001
40
1
40
1
40
1
40
1
41
1
10
33.7400000000061
20
4.472954626914
30
-3E-16
41
1
10
32.084951198124
20
5.25257877944748
30
-3E-16
41
1
10
30.4428243812339
20
5.92960906735158
30
-4E-16
41
1
10
28.3748554250202
20
6.60802792352604
30
-4E-16
41
1
10
27.9604782363564
20
6.73529742707882
30
-4E-16
41
1
10
27.1293026761597
20
6.9719616805441
30
0
41
1
10
26.7119741060654
20
7.08150640092401
30
0
41
1
10
25.458829871388
20
7.38102094128519
30
0
41
1
10
24.6293615436368
20
7.53998442940039
30
0
41
1
10
22.1493754710275
20
7.89309544770464
30
0
41
1
10
20.5068657160447
20
7.96321226667604
30
0
41
1
10
18.4356301082455
20
7.83890679147299
30
0
41
1
10
18.020482106663
20
7.80344394535686
30
0
41
1
10
17.1874661689898
20
7.71122529546412
30
0
41
1
10
16.768988777803
20
7.6543501757312
30
0
41
1
10
15.5157410734488
20
7.4528453379034
30
0
41
1
10
14.6814579315331
20
7.27740822967507
30
0
41
1
10
13.8452019237004
20
7.06282196304369
30
0
0
SPLINE
5
E3
100
AcDbEntity
8
1
62
256
6
ByLayer
370
18
48
1
60
0
100
AcDbSpline
70
4
71
3
72
17
73
13
40
0
40
0
40
0
40
0
40
0.499999999999977
40
0.499999999999977
40
0.749999999999966
40
0.874999999999983
40
0.93749999999999
40
0.968749999999995
40
0.968749999999995
40
0.984374999999998
40
0.984374999999998
40
1
40
1
40
1
40
1
41
1
10
63.749814021662
20
7.93254024069498
30
0
41
1
10
63.8293071480301
20
7.8809290810255
30
0
41
1
10
63.9089389176851
20
7.82873992347896
30
0
41
1
10
64.0286110535763
20
7.74960972838412
30
0
41
1
10
64.0885002484369
20
7.70983497276629
30
0
41
1
10
64.1584642749648
20
7.66307078783709
30
0
41
1
10
64.1934693619433
20
7.63959963492704
30
0
41
1
10
64.2084765398829
20
7.62952153944863
30
0
41
1
10
64.21598096279
20
7.6244793270285
30
0
41
1
10
64.2184759423646
20
7.62280258924255
30
0
41
1
10
64.2235320179484
20
7.61940307961083
30
0
41
1
10
64.2263070668999
20
7.61753510591342
30
0
41
1
10
64.2284311375053
20
7.61610928959215
30
0
0
SPLINE
5
E4
100
AcDbEntity
8
1
62
256
6
ByLayer
370
18
48
1
60
0
100
AcDbSpline
70
4
71
3
72
18
73
14
40
0
40
0
40
0
40
0
40
0.0885060864578522
40
0.0885060864578522
40
0.270804869166282
40
0.270804869166282
40
0.453103651874712
40
0.453103651874712
40
0.544253043228928
40
0.544253043228928
40
0.635402434583142
40
0.635402434583142
40
1
40
1
40
1
40
1
41
1
10
53.4672525307278
20
5.71718381636603
30
-4E-16
41
1
10
53.7706939812139
20
5.83755432684274
30
-4E-16
41
1
10
54.074007576898
20
5.95376943264617
30
-4E-16
41
1
10
55.0021775598504
20
6.29606401888793
30
-4E-16
41
1
10
55.6277287602694
20
6.50824381048253
30
-4E-16
41
1
10
56.8792289074773
20
6.89183521305833
30
0
41
1
10
57.5037738810242
20
7.06284323756839
30
0
41
1
10
58.4409322112719
20
7.28650191350343
30
0
41
1
10
58.7533756428748
20
7.35557929410663
30
0
41
1
10
59.3787365209741
20
7.48250932117008
30
0
41
1
10
59.6919049098546
20
7.54039839851615
30
0
41
1
10
61.2553273892989
20
7.80042350315208
30
0
41
1
10
62.4999857638536
20
7.91479395637117
30
0
41
1
10
63.7498140216654
20
7.93254024070126
30
0
0
SPLINE
5
E5
100
AcDbEntity
8
1
62
256
6
ByLayer
370
18
48
1
60
0
100
AcDbSpline
70
4
71
3
72
8
73
4
40
0
40
0
40
0
40
0
40
1
40
1
40
1
40
1
41
1
10
63.0745825798128
20
-0.21570190677167
30
0
41
1
10
63.0516020689175
20
0.157982288451848
30
0
41
1
10
63.0406605088753
20
0.532999219157318
30
0
41
1
10
63.0470507904918
20
0.909668270690275
30
-1E-16
0
SPLINE
5
E6
100
AcDbEntity
8
1
62
256
6
ByLayer
370
18
48
1
60
0
100
AcDbSpline
70
4
71
3
72
16
73
12
40
0
40
0
40
0
40
0
40
0.250000000000003
40
0.250000000000003
40
0.375000000000005
40
0.375000000000005
40
0.500000000000006
40
0.500000000000006
40
0.750000000000003
40
0.750000000000003
40
1
40
1
40
1
40
1
41
1
10
63.0470507904918
20
0.909668270690361
30
-1E-16
41
1
10
63.1655769096368
20
1.00731871299783
30
-1E-16
41
1
10
63.2883265556925
20
1.09266243786391
30
-1E-16
41
1
10
63.4771811599074
20
1.20400989294586
30
-1E-16
41
1
10
63.5409307112982
20
1.23827966895107
30
-1E-16
41
1
10
63.6697944175748
20
1.30120838479502
30
-1E-16
41
1
10
63.7349307773352
20
1.3295774323087
30
-1E-16
41
1
10
63.9318775218906
20
1.40857560015877
30
-1E-16
41
1
10
64.0653743710479
20
1.45175311067896
30
-1E-16
41
1
10
64.3353961788261
20
1.5136313276856
30
-1E-16
41
1
10
64.4718323841815
20
1.53363155454875
30
-1E-16
41
1
10
64.6088025447711
20
1.54238793004899
30
-1E-16
0
SPLINE
5
E7
100
AcDbEntity
8
1
62
256
6
ByLayer
370
18
48
1
60
0
100
AcDbSpline
70
4
71
3
72
8
73
4
40
0
40
0
40
0
40
0
40
1
40
1
40
1
40
1
41
1
10
7.33868454358054
20
-6.62954595735704
30
4E-16
41
1
10
8.06983021180949
20
-6.4032912862194
30
4E-16
41
1
10
8.79609354571045
20
-6.15065391233608
30
4E-16
41
1
10
9.51982359029358
20
-5.87488591537843
30
4E-16
0
SPLINE
5
E8
100
AcDbEntity
8
1
62
256
6
ByLayer
370
18
48
1
60
0
100
AcDbSpline
70
4
71
3
72
26
73
22
40
0
40
0
40
0
40
0
40
0.0505785308379404
40
0.0505785308379404
40
0.0937340521634881
40
0.0937340521634881
40
0.136889573489036
40
0.136889573489036
40
0.309511658791228
40
0.309511658791228
40
0.48213374409342
40
0.48213374409342
40
0.568444786744516
40
0.568444786744516
40
0.611600308070064
40
0.611600308070064
40
0.654755829395613
40
0.654755829395613
40
0.827377914697807
40
0.827377914697807
40
1
40
1
40
1
40
1
41
1
10
42.8828382090767
20
7.92172893622299
30
0
41
1
10
43.2224478970886
20
7.92196441085989
30
0
41
1
10
43.5625776521876
20
7.91505408948689
30
0
41
1
10
44.1943491435387
20
7.88889311621165
30
0
41
1
10
44.4857388322331
20
7.8715998795019
30
0
41
1
10
45.0698140103684
20
7.82641032680925
30
0
41
1
10
45.3629670356615
20
7.79843979949942
30
0
41
1
10
46.8245276260675
20
7.63319225590601
30
0
41
1
10
47.9822577681707
20
7.41916820861871
30
0
41
1
10
50.2935265935842
20
6.8434846625444
30
-4E-16
41
1
10
51.4466848617687
20
6.48156529520026
30
-4E-16
41
1
10
53.1861371335681
20
5.8392718449395
30
-4E-16
41
1
10
53.7676316881398
20
5.60868131200829
30
-3E-16
41
1
10
54.6440329804667
20
5.23952476179764
30
-3E-16
41
1
10
54.9372275252037
20
5.11237672561452
30
-3E-16
41
1
10
55.5213550391262
20
4.85223608391422
30
-3E-16
41
1
10
55.812769677132
20
4.71923342078975
30
-3E-16
41
1
10
57.2670990057707
20
4.04045133568249
30
-2E-16
41
1
10
58.421413441969
20
3.45278720318726
30
-2E-16
41
1
10
60.7300342234671
20
2.21845881487548
30
-1E-16
41
1
10
61.8841957436625
20
1.57157015151
30
-1E-16
41
1
10
63.0470507904918
20
0.909668270690247
30
-1E-16
0
SPLINE
5
E9
100
AcDbEntity
8
1
62
256
6
ByLayer
370
18
48
1
60
0
100
AcDbSpline
70
4
71
3
72
50
73
46
40
0
40
0
40
0
40
0
40
0.0754945079325737
40
0.0754945079325737
40
0.150989015865147
40
0.150989015865147
40
0.188736269831434
40
0.188736269831434
40
0.207609896814578
40
0.207609896814578
40
0.226483523797722
40
0.226483523797722
40
0.301978031730298
40
0.301978031730298
40
0.377472539662873
40
0.377472539662873
40
0.396346166646017
40
0.396346166646017
40
0.415219793629161
40
0.415219793629161
40
0.452967047595449
40
0.452967047595449
40
0.603956063460599
40
0.603956063460599
40
0.622829690443743
40
0.622829690443743
40
0.641703317426887
40
0.641703317426887
40
0.679450571393175
40
0.679450571393175
40
0.717197825359463
40
0.717197825359463
40
0.754945079325752
40
0.754945079325752
40
0.79269233329204
40
0.79269233329204
40
0.811565960275184
40
0.811565960275184
40
0.830439587258329
40
0.830439587258329
40
0.905934095190908
40
0.905934095190908
40
0.981428603123488
40
0.981428603123488
40
1
40
1
40
1
40
1
41
1
10
7.33868454358054
20
6.62954595735704
30
-4E-16
41
1
10
8.51133239117306
20
6.26666744402328
30
-4E-16
41
1
10
9.6714212429944
20
5.83592380102974
30
-4E-16
41
1
10
11.9858635729069
20
4.86554006141407
30
-3E-16
41
1
10
13.1398091799269
20
4.32542151994264
30
-3E-16
41
1
10
14.8789927495151
20
3.45140940219315
30
-2E-16
41
1
10
15.4601674552457
20
3.14954462344988
30
-2E-16
41
1
10
16.3357923350536
20
2.68339657901737
30
-2E-16
41
1
10
16.6286059886688
20
2.52554877871211
30
-2E-16
41
1
10
17.2143063021085
20
2.20658480302376
30
-1E-16
41
1
10
17.5063992383803
20
2.04589571455171
30
-1E-16
41
1
10
18.9639201734165
20
1.23792074484734
30
-1E-16
41
1
10
20.1204309835219
20
0.576890854206368
30
0
41
1
10
22.4321144733285
20
-0.742917527082398
30
0
41
1
10
23.5873086578314
20
-1.401658794323
30
1E-16
41
1
10
25.0411283540786
20
-2.20463954832851
30
1E-16
41
1
10
25.3324463173692
20
-2.36410219370484
30
1E-16
41
1
10
25.9164565137342
20
-2.68028591173058
30
2E-16
41
1
10
26.2096106993962
20
-2.83732133547608
30
2E-16
41
1
10
27.0874437000514
20
-3.30174863955179
30
2E-16
41
1
10
27.6696518573408
20
-3.601978879532
30
2E-16
41
1
10
30.572350503422
20
-5.04671965212248
30
3E-16
41
1
10
32.8660622862512
20
-6.02484794810829
30
4E-16
41
1
10
35.4939247950369
20
-6.81784671312414
30
4E-16
41
1
10
35.7871860306943
20
-6.90172108522901
30
0
41
1
10
36.3721353034478
20
-7.05977476490145
30
0
41
1
10
36.6638717227204
20
-7.13395949576892
30
0
41
1
10
37.5373016921668
20
-7.34182393083123
30
0
41
1
10
38.1172301172921
20
-7.46078955100398
30
0
41
1
10
39.2749853559564
20
-7.65858763430256
30
0
41
1
10
39.8524888437792
20
-7.73757951436858
30
0
41
1
10
41.0076788822874
20
-7.8547346165692
30
0
41
1
10
41.5852539581152
20
-7.89297129369385
30
0
41
1
10
42.7422461215058
20
-7.92813176900699
30
0
41
1
10
43.3217390054326
20
-7.92502695703104
30
0
41
1
10
44.1943491435387
20
-7.88889311621165
30
0
41
1
10
44.4857388322331
20
-7.8715998795019
30
0
41
1
10
45.0698140103685
20
-7.82641032680925
30
0
41
1
10
45.3629670356615
20
-7.79843979949942
30
0
41
1
10
46.8245276260675
20
-7.63319225590598
30
0
41
1
10
47.9822577681706
20
-7.41916820861871
30
0
41
1
10
50.2935265935841
20
-6.84348466254437
30
4E-16
41
1
10
51.4466848617687
20
-6.48156529520026
30
4E-16
41
1
10
52.8915860102086
20
-5.94803496558839
30
4E-16
41
1
10
53.1772582727127
20
-5.83870808500976
30
4E-16
41
1
10
53.4634670017907
20
-5.7255055956756
30
4E-16
0
SPLINE
5
EA
100
AcDbEntity
8
1
62
256
6
ByLayer
370
18
48
1
60
0
100
AcDbSpline
70
4
71
3
72
16
73
12
40
0
40
0
40
0
40
0
40
0.0775786397421572
40
0.0775786397421572
40
0.231315533118459
40
0.231315533118459
40
0.38505242649476
40
0.38505242649476
40
0.69252621324738
40
0.69252621324738
40
1
40
1
40
1
40
1
41
1
10
63.9004024418134
20
1.88092343165721
30
-1E-16
41
1
10
63.9162519325521
20
1.87605432000205
30
-1E-16
41
1
10
63.9323863298447
20
1.87075275502357
30
-1E-16
41
1
10
63.9813556521194
20
1.85361976975159
30
-1E-16
41
1
10
64.0149338215384
20
1.84067241888252
30
-1E-16
41
1
10
64.0838238187742
20
1.8121568229289
30
-1E-16
41
1
10
64.1192242542003
20
1.79645462344442
30
-1E-16
41
1
10
64.2250716367476
20
1.74988307656741
30
-1E-16
41
1
10
64.2992127988393
20
1.71382134476363
30
-1E-16
41
1
10
64.4516197398966
20
1.63324256164617
30
-1E-16
41
1
10
64.5296464958763
20
1.58903015097329
30
-1E-16
41
1
10
64.6088025447673
20
1.54238793005067
30
-1E-16
0
SPLINE
5
EB
100
AcDbEntity
8
1
62
256
6
ByLayer
370
18
48
1
60
0
100
AcDbSpline
70
4
71
3
72
10
73
6
40
0
40
0
40
0
40
0
40
0.482368787469325
40
0.482368787469325
40
1
40
1
40
1
40
1
41
1
10
3.65133875505927
20
7.09944267531881
30
0
41
1
10
3.65104450153041
20
7.0436679227181
30
0
41
1
10
3.65074768676701
20
6.98789206654777
30
0
41
1
10
3.65012702347613
20
6.87226061780214
30
0
41
1
10
3.64980278483714
20
6.81240485141009
30
0
41
1
10
3.64947556975361
20
6.75254771293004
30
0
0
SPLINE
5
EC
100
AcDbEntity
8
1
62
256
6
ByLayer
370
18
48
1
60
0
100
AcDbSpline
70
4
71
3
72
22
73
18
40
0
40
0
40
0
40
0
40
0.400781520319874
40
0.400781520319874
40
0.450879210359858
40
0.450879210359858
40
0.500976900399842
40
0.500976900399842
40
0.60117228047981
40
0.60117228047981
40
0.801563040639745
40
0.801563040639745
40
0.901758420719713
40
0.901758420719713
40
0.951856110759698
40
0.951856110759698
40
1
40
1
40
1
40
1
41
1
10
3.6017698630117
20
-1.54706590504898
30
1E-16
41
1
10
6.1446163224841
20
-2.89329411242164
30
2E-16
41
1
10
8.64161591097775
20
-4.13793584783991
30
3E-16
41
1
10
11.49635630063
20
-5.26506431966004
30
3E-16
41
1
10
11.8146402299563
20
-5.38668813526837
30
3E-16
41
1
10
12.449055389551
20
-5.62050939029393
30
3E-16
41
1
10
12.7654615913397
20
-5.73282837887214
30
4E-16
41
1
10
13.712791241875
20
-6.05557249862036
30
4E-16
41
1
10
14.341916695223
20
-6.25178023086161
30
4E-16
41
1
10
16.2258300258042
20
-6.78003807072977
30
0
41
1
10
17.4773668614184
20
-7.051650059076
30
0
41
1
10
19.3629623224738
20
-7.32673761356162
30
0
41
1
10
19.9929460477852
20
-7.39632102555504
30
0
41
1
10
20.9421605066317
20
-7.46622800995902
30
0
41
1
10
21.2594001047881
20
-7.48373393665452
30
0
41
1
10
21.8825577599566
20
-7.50646934235644
30
0
41
1
10
22.1871460200708
20
-7.51211202916139
30
0
41
1
10
22.4911158862018
20
-7.51238169947004
30
0
0
SPLINE
5
ED
100
AcDbEntity
8
1
62
256
6
ByLayer
370
18
48
1
60
0
100
AcDbSpline
70
4
71
3
72
22
73
18
40
0
40
0
40
0
40
0
40
0.125000000000003
40
0.125000000000003
40
0.250000000000006
40
0.250000000000006
40
0.312500000000008
40
0.312500000000008
40
0.343750000000008
40
0.343750000000008
40
0.375000000000008
40
0.375000000000008
40
0.500000000000006
40
0.500000000000006
40
0.750000000000003
40
0.750000000000003
40
1
40
1
40
1
40
1
41
1
10
66.3345384731958
20
-2.35989851085463
30
0
41
1
10
66.2227200695154
20
-2.53621102377693
30
0
41
1
10
66.1156029542513
20
-2.72333246703116
30
0
41
1
10
65.9096225698604
20
-3.11980113411795
30
0
41
1
10
65.8102986948588
20
-3.33061607638973
30
0
41
1
10
65.6701910089856
20
-3.65499380419641
30
0
41
1
10
65.6247795140936
20
-3.76478448423057
30
0
41
1
10
65.558400023082
20
-3.93162830417143
30
0
41
1
10
65.536611923696
20
-3.98747315735713
30
0
41
1
10
65.4936406720633
20
-4.09958965881407
30
0
41
1
10
65.4725177496232
20
-4.15591045266294
30
0
41
1
10
65.3675040345546
20
-4.43790201873728
30
0
41
1
10
65.2845122854548
20
-4.66390268626097
30
0
41
1
10
65.0380843085636
20
-5.34296388543666
30
0
41
1
10
64.8772254075957
20
-5.79740061118079
30
0
41
1
10
64.5590727228557
20
-6.7045006862341
30
0
41
1
10
64.4015098528897
20
-7.15766990965628
30
0
41
1
10
64.2429901684055
20
-7.60630261416455
30
0
0
SPLINE
5
EE
100
AcDbEntity
8
1
62
256
6
ByLayer
370
18
48
1
60
0
100
AcDbSpline
70
4
71
3
72
40
73
36
40
0
40
0
40
0
40
0
40
0.0060369483722707
40
0.0060369483722707
40
0.0485505920699647
40
0.0485505920699647
40
0.0910642357676584
40
0.0910642357676584
40
0.133577879465353
40
0.133577879465353
40
0.176091523163046
40
0.176091523163046
40
0.21860516686074
40
0.21860516686074
40
0.261118810558434
40
0.261118810558434
40
0.346146097953821
40
0.346146097953821
40
0.431173385349207
40
0.431173385349207
40
0.516200672744594
40
0.516200672744594
40
0.558714316442288
40
0.558714316442288
40
0.601227960139981
40
0.601227960139981
40
0.686255247535371
40
0.686255247535371
40
0.77128253493076
40
0.77128253493076
40
0.856309822326149
40
0.856309822326149
40
0.941337109721539
40
0.941337109721539
40
1
40
1
40
1
40
1
41
1
10
40.788697963094
20
7.52979627091116
30
0
41
1
10
40.832710150837
20
7.52999283090065
30
0
41
1
10
40.876727229757
20
7.53008229109693
30
0
41
1
10
41.2307627361402
20
7.52994864278614
30
0
41
1
10
41.5410449140641
20
7.52452899014909
30
0
41
1
10
42.1619610830505
20
7.50394898392869
30
0
41
1
10
42.4728195809236
20
7.48826356465406
30
0
41
1
10
43.0968548603518
20
7.44336715013989
30
0
41
1
10
43.4103835443541
20
7.41459481697188
30
0
41
1
10
44.0362944892015
20
7.34573097303877
30
0
41
1
10
44.3484752866487
20
7.30566172060176
30
0
41
1
10
44.9714442677877
20
7.21520604293079
30
0
41
1
10
45.282232419936
20
7.16486496337629
30
0
41
1
10
45.9025664444499
20
7.05451162146443
30
0
41
1
10
46.2121950860949
20
6.99423448360233
30
0
41
1
10
47.1407727552823
20
6.79630572963566
30
0
41
1
10
47.7588771704257
20
6.64322472956826
30
0
41
1
10
48.9947154273474
20
6.2992670322329
30
-4E-16
41
1
10
49.6117467696214
20
6.10916372286448
30
-4E-16
41
1
10
50.8496370247301
20
5.69097475411445
30
-3E-16
41
1
10
51.4703068317892
20
5.46336077456905
30
-3E-16
41
1
10
52.4045541946833
20
5.09714831568539
30
-3E-16
41
1
10
52.7164778898634
20
4.97094604915165
30
-3E-16
41
1
10
53.341679065155
20
4.71062050746445
30
-3E-16
41
1
10
53.6549693036004
20
4.57646527434281
30
-3E-16
41
1
10
54.5911032906465
20
4.16537420800188
30
-3E-16
41
1
10
55.2122039783625
20
3.87900785704514
30
-2E-16
41
1
10
56.4516269828373
20
3.28643598957751
30
-2E-16
41
1
10
57.0698934721435
20
2.98030975569881
30
-2E-16
41
1
10
58.3048987184681
20
2.35205550282976
30
-1E-16
41
1
10
58.9213288139311
20
2.02961866449562
30
-1E-16
41
1
10
60.1575572251818
20
1.3748272689223
30
-1E-16
41
1
10
60.7769774822906
20
1.04229767566787
30
-1E-16
41
1
10
61.8269444198576
20
0.474427514805228
30
0
41
1
10
62.256631622098
20
0.240813369670406
30
0
41
1
10
62.6872591648323
20
0.006113384182072
30
0
0
SPLINE
5
EF
100
AcDbEntity
8
1
62
256
6
ByLayer
370
18
48
1
60
0
100
AcDbSpline
70
4
71
3
72
24
73
20
40
0
40
0
40
0
40
0
40
0.0311966195749676
40
0.0311966195749676
40
0.0796367885962194
40
0.0796367885962194
40
0.128076957617471
40
0.128076957617471
40
0.224957295659975
40
0.224957295659975
40
0.418717971744983
40
0.418717971744983
40
0.515598309787487
40
0.515598309787487
40
0.564038478808738
40
0.564038478808738
40
0.61247864782999
40
0.61247864782999
40
1
40
1
40
1
40
1
41
1
10
23.1443096604011
20
-7.51404516456358
30
0
41
1
10
22.9410610334643
20
-7.51924446160044
30
0
41
1
10
22.7375710704351
20
-7.52201926492725
30
0
41
1
10
22.2173796557855
20
-7.52284511857843
30
0
41
1
10
21.9003042638745
20
-7.51752218584625
30
0
41
1
10
21.2644324484738
20
-7.49494273683379
30
0
41
1
10
20.9469697419729
20
-7.47772277144327
30
0
41
1
10
19.9971899869124
20
-7.40862925863698
30
0
41
1
10
19.3668455956611
20
-7.33951761883336
30
0
41
1
10
17.4801967585895
20
-7.06565209753216
30
0
41
1
10
16.2279975185547
20
-6.79459708296275
30
0
41
1
10
14.3430991460533
20
-6.26678190819956
30
4E-16
41
1
10
13.7136450868836
20
-6.07065397316549
30
4E-16
41
1
10
12.7658164311673
20
-5.74793045035318
30
4E-16
41
1
10
12.4492427833375
20
-5.63560180603614
30
3E-16
41
1
10
11.8144896148496
20
-5.40172782682126
30
3E-16
41
1
10
11.4960238902284
20
-5.28005666316679
30
3E-16
41
1
10
8.63963917661363
20
-4.15234983027736
30
3E-16
41
1
10
6.14132673940298
20
-2.90620256009095
30
2E-16
41
1
10
3.59699764955093
20
-1.55773072046514
30
1E-16
0
SPLINE
5
F0
100
AcDbEntity
8
1
62
256
6
ByLayer
370
18
48
1
60
0
100
AcDbSpline
70
4
71
3
72
36
73
32
40
0
40
0
40
0
40
0
40
0.0319849625637252
40
0.0319849625637252
40
0.0723189224569035
40
0.0723189224569035
40
0.112652882350082
40
0.112652882350082
40
0.193320802136438
40
0.193320802136438
40
0.273988721922794
40
0.273988721922794
40
0.314322681815972
40
0.314322681815972
40
0.354656641709149
40
0.354656641709149
40
0.435324561495504
40
0.435324561495504
40
0.475658521388682
40
0.475658521388682
40
0.51599248128186
40
0.51599248128186
40
0.677328320854573
40
0.677328320854573
40
0.717662280747751
40
0.717662280747751
40
0.757996240640929
40
0.757996240640929
40
0.838664160427286
40
0.838664160427286
40
1
40
1
40
1
40
1
41
1
10
26.8555456782515
20
-7.52017296128452
30
0
41
1
10
26.6071993465212
20
-7.5640463181081
30
0
41
1
10
26.3588529139002
20
-7.60429441303012
30
0
41
1
10
25.7971467599321
20
-7.68700448329116
30
0
41
1
10
25.4837953956805
20
-7.7273250167041
30
0
41
1
10
24.8564903193063
20
-7.79610049692542
30
0
41
1
10
24.5422592665329
20
-7.82457258307514
30
0
41
1
10
23.6001912747028
20
-7.89176540844073
30
0
41
1
10
22.9736370872716
20
-7.91226388923383
30
0
41
1
10
21.7208832051722
20
-7.90484663605986
30
0
41
1
10
21.094675683636
20
-7.87691892313609
30
0
41
1
10
20.1534285315821
20
-7.79882426944641
30
0
41
1
10
19.8390954849539
20
-7.76671495063368
30
0
41
1
10
19.2110850528191
20
-7.6906342894091
30
0
41
1
10
18.8974701008576
20
-7.64668760787282
30
0
41
1
10
17.9571756496055
20
-7.49750428170222
30
0
41
1
10
17.3310473081514
20
-7.37493631876714
30
0
41
1
10
16.3910148100842
20
-7.15766392506018
30
0
41
1
10
16.0775470797703
20
-7.07965586918451
30
0
41
1
10
15.4500008812283
20
-6.91268844251326
30
0
41
1
10
15.1356218700479
20
-6.8236440424763
30
0
41
1
10
13.5655797753004
20
-6.35317897251002
30
4E-16
41
1
10
12.3155084842146
20
-5.89581012762053
30
4E-16
41
1
10
10.7460774583723
20
-5.23917578051896
30
3E-16
41
1
10
10.4315216800579
20
-5.10341317324594
30
3E-16
41
1
10
9.80386013707056
20
-4.82480269984851
30
3E-16
41
1
10
9.49063143200306
20
-4.68191551779182
30
3E-16
41
1
10
8.55209532716131
20
-4.2435320955752
30
3E-16
41
1
10
7.92797414671477
20
-3.93826461907571
30
2E-16
41
1
10
6.05623208963053
20
-2.98996638080874
30
2E-16
41
1
10
4.80935643536736
20
-2.31422808992139
30
1E-16
41
1
10
3.55216921433964
20
-1.61296387271361
30
1E-16
0
SPLINE
5
F1
100
AcDbEntity
8
1
62
256
6
ByLayer
370
18
48
1
60
0
100
AcDbSpline
70
4
71
3
72
30
73
26
40
0
40
0
40
0
40
0
40
0.0237518448401018
40
0.0237518448401018
40
0.047503689680204
40
0.047503689680204
40
0.095007379360408
40
0.095007379360408
40
0.190014758720816
40
0.190014758720816
40
0.380029517441634
40
0.380029517441634
40
0.475036896802042
40
0.475036896802042
40
0.522540586482246
40
0.522540586482246
40
0.570044276162449
40
0.570044276162449
40
0.760059034883263
40
0.760059034883263
40
0.950073793604076
40
0.950073793604076
40
0.997577483284279
40
0.997577483284279
40
1
40
1
40
1
40
1
41
1
10
64.1690180254361
20
-7.48071623323401
30
0
41
1
10
64.0103779689314
20
-7.4687867549822
30
0
41
1
10
63.8518589829065
20
-7.45605974060359
30
0
41
1
10
63.5353171220855
20
-7.42710678686754
30
0
41
1
10
63.3772486027354
20
-7.41118182722758
30
0
41
1
10
62.9035887167316
20
-7.35912326958186
30
0
41
1
10
62.5885429527468
20
-7.31870686681458
30
0
41
1
10
61.6450992142857
20
-7.18078725760085
30
0
41
1
10
61.0183931545182
20
-7.06661322137003
30
0
41
1
10
59.1412866843341
20
-6.66139680805313
30
0
41
1
10
57.8938757291319
20
-6.30791138606449
30
4E-16
41
1
10
56.0129977751693
20
-5.66548610919568
30
3E-16
41
1
10
55.3844283925422
20
-5.43276311471337
30
3E-16
41
1
10
54.4373576407176
20
-5.05797998429316
30
3E-16
41
1
10
54.1209213232445
20
-4.92873798569298
30
3E-16
41
1
10
53.4862397977342
20
-4.66200880908957
30
3E-16
41
1
10
53.168186521003
20
-4.52459463375183
30
3E-16
41
1
10
51.5845576996836
20
-3.82321379802076
30
2E-16
41
1
10
50.3294889880797
20
-3.21234982439788
30
2E-16
41
1
10
47.8213569626884
20
-1.92983313859395
30
1E-16
41
1
10
46.5686387091821
20
-1.25752692261673
30
1E-16
41
1
10
44.9910886515874
20
-0.402277193732743
30
0
41
1
10
44.6750107749826
20
-0.230459161566671
30
0
41
1
10
44.3420285072772
20
-0.0494145576453491
30
0
41
1
10
44.3258684802368
20
-0.0406281578451342
30
0
41
1
10
44.3097055794687
20
-0.0318401642072672
30
0
0
SPLINE
5
F2
100
AcDbEntity
8
1
62
256
6
ByLayer
370
18
48
1
60
0
100
AcDbSpline
70
4
71
3
72
8
73
4
40
0
40
0
40
0
40
0
40
1
40
1
40
1
40
1
41
1
10
3.64472635377038
20
6.73971676698218
30
0
41
1
10
3.63158240115845
20
6.74281581982066
30
0
41
1
10
3.61695589075634
20
6.74440918728072
30
0
41
1
10
3.60199578247546
20
6.74438658011985
30
0
0
SPLINE
5
F3
100
AcDbEntity
8
1
62
256
6
ByLayer
370
18
48
1
60
0
100
AcDbSpline
70
4
71
3
72
34
73
30
40
0
40
0
40
0
40
0
40
0.0580478183431043
40
0.0580478183431043
40
0.175791841050219
40
0.175791841050219
40
0.234663852403777
40
0.234663852403777
40
0.293535863757335
40
0.293535863757335
40
0.35240787511089
40
0.35240787511089
40
0.411279886464446
40
0.411279886464446
40
0.470151897818001
40
0.470151897818001
40
0.529023909171557
40
0.529023909171557
40
0.587895920525112
40
0.587895920525112
40
0.646767931878668
40
0.646767931878668
40
0.764511954585778
40
0.764511954585778
40
0.823383965939333
40
0.823383965939333
40
0.882255977292889
40
0.882255977292889
40
1
40
1
40
1
40
1
41
1
10
19.472055638458
20
-0.188947028457193
30
0
41
1
10
19.1661692150394
20
-0.0230989598472888
30
0
41
1
10
18.8604837295086
20
0.142250674908127
30
0
41
1
10
17.9355652884622
20
0.641667077869101
30
0
41
1
10
17.3170941826665
20
0.9742464410227
30
-1E-16
41
1
10
16.3906244982365
20
1.46880560389923
30
-1E-16
41
1
10
16.0819547115197
20
1.6328630163066
30
-1E-16
41
1
10
15.4640678284011
20
1.95809857918559
30
-1E-16
41
1
10
15.1548941688688
20
2.11933429060917
30
-1E-16
41
1
10
14.5360137924465
20
2.43876283145755
30
-1E-16
41
1
10
14.2262833718349
20
2.5969293446318
30
-2E-16
41
1
10
13.6056928170125
20
2.90934371847055
30
-2E-16
41
1
10
13.2948507354019
20
3.06361188427832
30
-2E-16
41
1
10
12.6719655542751
20
3.36793989448577
30
-2E-16
41
1
10
12.3599179184516
20
3.51799248135274
30
-2E-16
41
1
10
11.7343543099589
20
3.8132859273509
30
-2E-16
41
1
10
11.4208774978402
20
3.95849512753662
30
-2E-16
41
1
10
10.7966212295762
20
4.24153315082523
30
-3E-16
41
1
10
10.4852311625498
20
4.37962776705112
30
-3E-16
41
1
10
9.86272654663162
20
4.64868893385977
30
-3E-16
41
1
10
9.55169778435004
20
4.77965046244589
30
-3E-16
41
1
10
8.61939415297715
20
5.16118942022638
30
-3E-16
41
1
10
7.99890473381384
20
5.40039463667091
30
-3E-16
41
1
10
7.06856632241605
20
5.73336781094514
30
-4E-16
41
1
10
6.75849749074277
20
5.84005142307529
30
-4E-16
41
1
10
6.13772416331614
20
6.04485364868378
30
-4E-16
41
1
10
5.82700311760905
20
6.14298787180462
30
-4E-16
41
1
10
4.89382827991139
20
6.42356544665483
30
1E-16
41
1
10
4.27040540127135
20
6.59219550869832
30
0
41
1
10
3.64472635377038
20
6.73971676698218
30
0
0
SPLINE
5
F4
100
AcDbEntity
8
1
62
256
6
ByLayer
370
18
48
1
60
0
100
AcDbSpline
70
4
71
3
72
8
73
4
40
0
40
0
40
0
40
0
40
1
40
1
40
1
40
1
41
1
10
9.26108116258663
20
-5.77502617023365
30
4E-16
41
1
10
8.61755039364712
20
-6.05276110368229
30
4E-16
41
1
10
7.97675468823894
20
-6.33760296712717
30
4E-16
41
1
10
7.33868979908078
20
-6.62954355275036
30
4E-16
0
SPLINE
5
F5
100
AcDbEntity
8
1
62
256
6
ByLayer
370
18
48
1
60
0
100
AcDbSpline
70
4
71
3
72
8
73
4
40
0
40
0
40
0
40
0
40
1
40
1
40
1
40
1
41
1
10
65.6693203311278
20
-0.834325865998665
30
1E-16
41
1
10
65.3908561560612
20
-0.0909975313174129
30
0
41
1
10
65.0366810464264
20
0.701676549432193
30
0
41
1
10
64.6088025447704
20
1.54238793004865
30
-1E-16
0
SPLINE
5
F6
100
AcDbEntity
8
1
62
256
6
ByLayer
370
18
48
1
60
0
100
AcDbSpline
70
4
71
3
72
8
73
4
40
0
40
0
40
0
40
0
40
1
40
1
40
1
40
1
41
1
10
64.1690180254362
20
-7.48071623323401
30
0
41
1
10
64.1563636716489
20
-7.51723687496181
30
0
41
1
10
64.1437699645018
20
-7.55375528653298
30
0
41
1
10
64.1312381933315
20
-7.59027188797231
30
0
0
SPLINE
5
F7
100
AcDbEntity
8
1
62
256
6
ByLayer
370
18
48
1
60
0
100
AcDbSpline
70
4
71
3
72
14
73
10
40
0
40
0
40
0
40
0
40
0.343808974198789
40
0.343808974198789
40
0.687617948397578
40
0.687617948397578
40
0.859522435496972
40
0.859522435496972
40
1
40
1
40
1
40
1
41
1
10
65.0540312676784
20
2.12139305687364
30
0
41
1
10
64.9257867132509
20
2.10423229901744
30
0
41
1
10
64.8011744209622
20
2.07791687203729
30
0
41
1
10
64.559133444551
20
2.01019576679008
30
0
41
1
10
64.4407655676119
20
1.96878464658693
30
0
41
1
10
64.2765920999163
20
1.90446398172139
30
0
41
1
10
64.2237214741546
20
1.88256258675437
30
0
41
1
10
64.1307967747308
20
1.84273076212344
30
0
41
1
10
64.0900164118526
20
1.82473251017865
30
0
41
1
10
64.050610810968
20
1.80708157568597
30
0
0
SPLINE
5
F8
100
AcDbEntity
8
SK1
62
256
6
ByLayer
370
18
48
1
60
0
100
AcDbSpline
70
4
71
3
72
12
73
8
40
0
40
0
40
0
40
0
40
0.499999999999994
40
0.499999999999994
40
0.749999999999997
40
0.749999999999997
40
1
40
1
40
1
40
1
41
1
10
-46.5
20
5.97624030190491
30
1E-16
41
1
10
-46.4766765617276
20
5.99824050168817
30
1E-16
41
1
10
-46.4539377815664
20
6.02393435143119
30
1E-16
41
1
10
-46.4257150407642
20
6.06338522706739
30
1E-16
41
1
10
-46.4170867124434
20
6.07703815611109
30
1E-16
41
1
10
-46.4042310471649
20
6.10267733121543
30
1E-16
41
1
10
-46.4
20
6.11489704697647
30
1E-16
41
1
10
-46.4
20
6.12352833653443
30
1E-16
0
SPLINE
5
F9
100
AcDbEntity
8
SK1
62
256
6
ByLayer
370
18
48
1
60
0
100
AcDbSpline
70
4
71
3
72
16
73
12
40
0
40
0
40
0
40
0
40
0.25
40
0.25
40
0.5
40
0.5
40
0.625
40
0.625
40
0.75
40
0.75
40
1
40
1
40
1
40
1
41
1
10
-48
20
5.54226760017107
30
0
41
1
10
-47.8810564304757
20
5.66662131987974
30
0
41
1
10
-47.7649821497656
20
5.78551058491388
30
0
41
1
10
-47.5384661528774
20
6.0109000099354
30
0
41
1
10
-47.4280182219188
20
6.11743008142886
30
0
41
1
10
-47.2670123996533
20
6.26579115442854
30
0
41
1
10
-47.2141272145624
20
6.3133260477874
30
-1E-16
41
1
10
-47.1100965751718
20
6.40394324523322
30
1E-16
41
1
10
-47.0588695586746
20
6.44707803180663
30
0
41
1
10
-46.9107668048979
20
6.56648952617653
30
0
41
1
10
-46.8185085598479
20
6.63378345363671
30
0
41
1
10
-46.7349364905389
20
6.68396044853628
30
0
0
SPLINE
5
FA
100
AcDbEntity
8
SK1
62
256
6
ByLayer
370
18
48
1
60
0
100
AcDbSpline
70
4
71
3
72
12
73
8
40
0
40
0
40
0
40
0
40
0.249999999999999
40
0.249999999999999
40
0.499999999999998
40
0.499999999999998
40
1
40
1
40
1
40
1
41
1
10
-46.4
20
6.97862399602374
30
0
41
1
10
-46.4
20
6.98227115145241
30
0
41
1
10
-46.4041640203491
20
6.98169848553897
30
0
41
1
10
-46.4170552197607
20
6.97506654685031
30
0
41
1
10
-46.4255471163326
20
6.96922496027113
30
0
41
1
10
-46.4540060778302
20
6.94749710376024
30
0
41
1
10
-46.4766801706343
20
6.92768890132297
30
0
41
1
10
-46.5
20
6.90569210569765
30
0
0
SPLINE
5
FB
100
AcDbEntity
8
SK1
62
256
6
ByLayer
370
18
48
1
60
0
100
AcDbSpline
70
4
71
3
72
8
73
4
40
0
40
0
40
0
40
0
40
1
40
1
40
1
40
1
41
1
10
-46.5
20
6.90569210569765
30
0
41
1
10
-46.5783345692455
20
6.8318017918765
30
0
41
1
10
-46.6566475180734
20
6.7578919488457
30
0
41
1
10
-46.7349364905389
20
6.68396044853623
30
0
0
SPLINE
5
FC
100
AcDbEntity
8
SK1
62
256
6
ByLayer
370
18
48
1
60
0
100
AcDbSpline
70
4
71
3
72
8
73
4
40
0
40
0
40
0
40
0
40
1
40
1
40
1
40
1
41
1
10
-46.7349364905389
20
5.75450864474351
30
1E-16
41
1
10
-46.656647318371
20
5.82844033364015
30
1E-16
41
1
10
-46.5783343761942
20
5.90235017018242
30
1E-16
41
1
10
-46.5
20
5.97624030190491
30
1E-16
0
SPLINE
5
FD
100
AcDbEntity
8
SK1
62
256
6
ByLayer
370
18
48
1
60
0
100
AcDbSpline
70
4
71
3
72
16
73
12
40
0
40
0
40
0
40
0
40
0.125
40
0.125
40
0.250000000000001
40
0.250000000000001
40
0.5
40
0.5
40
0.75
40
0.75
40
1
40
1
40
1
40
1
41
1
10
-46.7349364905389
20
5.75450864474351
30
1E-16
41
1
10
-46.7761038085464
20
5.67677280650508
30
1E-16
41
1
10
-46.8197172023999
20
5.59749899307911
30
1E-16
41
1
10
-46.9112454226016
20
5.43630366585245
30
1E-16
41
1
10
-46.9592640257055
20
5.35423295883018
30
1E-16
41
1
10
-47.1064069635942
20
5.10905537588596
30
1E-16
41
1
10
-47.2094353355106
20
4.94541745365811
30
1E-16
41
1
10
-47.4235019816838
20
4.61812321914391
30
-3E-16
41
1
10
-47.5347634663194
20
4.45418258152026
30
-3E-16
41
1
10
-47.7639276887532
20
4.12780707948951
30
-3E-16
41
1
10
-47.8808008723263
20
3.96682064277752
30
-2E-16
41
1
10
-48
20
3.80799919809343
30
-2E-16
0
SPLINE
5
FE
100
AcDbEntity
8
SK1
62
256
6
ByLayer
370
18
48
1
60
0
100
AcDbSpline
70
4
71
3
72
8
73
4
40
0
40
0
40
0
40
0
40
1
40
1
40
1
40
1
41
1
10
-48
20
-5.54226760017107
30
0
41
1
10
-47.8949881041693
20
-5.65205596378277
30
0
41
1
10
-47.7922127105304
20
-5.75758499149333
30
0
41
1
10
-47.6916373418311
20
-5.85835225550085
30
0
0
SPLINE
5
FF
100
AcDbEntity
8
1
62
256
6
ByLayer
370
18
48
1
60
0
100
AcDbSpline
70
4
71
2
72
6
73
3
40
0
40
0
40
0
40
1
40
1
40
1
41
1
10
44.2533986842234
20
-0.0012252476234664
30
0
41
1
10
44.2533556052713
20
-0.0012047259044721
30
0
41
1
10
44.2533125260675
20
-0.0011828525630335
30
0
0
SPLINE
5
100
100
AcDbEntity
8
1
62
256
6
ByLayer
370
18
48
1
60
0
100
AcDbSpline
70
4
71
3
72
16
73
12
40
0
40
0
40
0
40
0
40
0.144012100989351
40
0.356835755414061
40
0.427567092614942
40
0.49473295425561
40
0.557702702021815
40
0.626230492355632
40
0.725656067818723
40
0.857312099585709
40
1
40
1
40
1
40
1
41
1
10
63.9188865674333
20
1.88274553063269
30
-1E-16
41
1
10
63.459584823347
20
2.01818087561821
30
-1E-16
41
1
10
62.3251515388075
20
2.36423690155533
30
-1E-16
41
1
10
60.977981820946
20
2.81536936904422
30
-2E-16
41
1
10
59.8784998677858
20
3.19979386903691
30
-2E-16
41
1
10
59.2506593713154
20
3.42486676180911
30
-2E-16
41
1
10
58.6314158920935
20
3.65180075037406
30
-2E-16
41
1
10
57.9137295079076
20
3.92069225052796
30
-2E-16
41
1
10
56.986181421601
20
4.27807067980041
30
-3E-16
41
1
10
55.8349437628887
20
4.73789632328305
30
-3E-16
41
1
10
54.9961393969682
20
5.08918694371155
30
-3E-16
41
1
10
54.5614556715376
20
5.27548375098246
30
-3E-16
0
SPLINE
5
101
100
AcDbEntity
8
1
62
256
6
ByLayer
370
18
48
1
60
0
100
AcDbSpline
70
4
71
3
72
28
73
24
40
0
40
0
40
0
40
0
40
8.8369994548E-06
40
2.45576472674E-05
40
0.0001314630436209
40
0.0010000991858158
40
0.0017258559157223
40
0.0031156221086659
40
0.0058985899207704
40
0.0118375704650853
40
0.0520675033934438
40
0.104161349596882
40
0.16248948092492
40
0.217900256006012
40
0.270324428024615
40
0.321864620401359
40
0.630808007288805
40
0.682063203854838
40
0.732246923479953
40
0.781213877511938
40
0.838759810752171
40
0.918699111536956
40
1
40
1
40
1
40
1
41
1
10
24.8739400513655
20
0.637518403558829
30
0
41
1
10
24.873927369612
20
0.63752223947256
30
0
41
1
10
24.8738825764234
20
0.637535203601061
30
0
41
1
10
24.8734707137089
20
0.637645760418138
30
0
41
1
10
24.8690209421182
20
0.638787400785304
30
0
41
1
10
24.8615096253155
20
0.64070260296333
30
0
41
1
10
24.8481859172375
20
0.644097034101236
30
0
41
1
10
24.8261527767646
20
0.649684894041684
30
0
41
1
10
24.7801431447242
20
0.661298010233679
30
0
41
1
10
24.5542588223178
20
0.718010762812639
30
0
41
1
10
24.0926831979153
20
0.834476287785009
30
-1E-16
41
1
10
23.3860001215201
20
1.01846740519628
30
-1E-16
41
1
10
22.606888772386
20
1.22856127510056
30
-1E-16
41
1
10
21.8291270217437
20
1.44596603096986
30
-1E-16
41
1
10
21.0848942966411
20
1.66094208103959
30
-1E-16
41
1
10
19.1619373785453
20
2.23383936321065
30
-1E-16
41
1
10
17.2611470799061
20
2.86051341568873
30
-2E-16
41
1
10
15.3874218433413
20
3.53876100613752
30
-2E-16
41
1
10
14.7028594303021
20
3.79287381330116
30
-2E-16
41
1
10
13.9919127349412
20
4.06319631844292
30
-2E-16
41
1
10
13.1490052105305
20
4.39208466851227
30
-3E-16
41
1
10
12.1642084473897
20
4.78816121959593
30
-3E-16
41
1
10
11.443259013429
20
5.09097811799529
30
-3E-16
41
1
10
11.0808720577965
20
5.24626037734254
30
-3E-16
0
SPLINE
5
102
100
AcDbEntity
8
1
62
256
6
ByLayer
370
18
48
1
60
0
100
AcDbSpline
70
4
71
3
72
26
73
22
40
0
40
0
40
0
40
0
40
0.0941946321278872
40
0.162490339991311
40
0.208294672233453
40
0.235102517796585
40
0.269901034309305
40
0.313497595141496
40
0.357598843252634
40
0.394186153345035
40
0.423622181300039
40
0.462707586966193
40
0.515729651892391
40
0.567188864782925
40
0.608707398148527
40
0.646376506162541
40
0.712670866460234
40
0.794029142782433
40
0.885212313094888
40
0.952250370484596
40
1
40
1
40
1
40
1
41
1
10
22.4777903424518
20
-7.51237486689323
30
0
41
1
10
22.9204987619832
20
-7.51259047668438
30
0
41
1
10
23.6843159462674
20
-7.51297964227095
30
0
41
1
10
24.6636895966736
20
-7.51337086431289
30
0
41
1
10
25.3263819536985
20
-7.51381833227126
30
0
41
1
10
25.8301573928055
20
-7.51445328969524
30
0
41
1
10
26.3250814714026
20
-7.51474856134641
30
0
41
1
10
26.900946164208
20
-7.514840553699
30
0
41
1
10
27.4852749903295
20
-7.51476334174214
30
0
41
1
10
28.0030611308648
20
-7.51472007535168
30
0
41
1
10
28.4972784493634
20
-7.51482340177486
30
0
41
1
10
29.0687681959424
20
-7.51534785040892
30
0
41
1
10
29.7438088810757
20
-7.51709648700751
30
0
41
1
10
30.4302925425191
20
-7.51672923135331
30
0
41
1
10
31.0445826718244
20
-7.51648461932257
30
0
41
1
10
31.728644489961
20
-7.51616140490012
30
0
41
1
10
32.5998024086323
20
-7.5164994989932
30
0
41
1
10
33.7228828781359
20
-7.52025490070255
30
0
41
1
10
34.8492601210862
20
-7.51848039634956
30
0
41
1
10
35.8177325878082
20
-7.51755874021069
30
0
41
1
10
36.3574026955768
20
-7.51832719499541
30
0
41
1
10
36.5819358787952
20
-7.51865395241256
30
0
0
SPLINE
5
103
100
AcDbEntity
8
1
62
256
6
ByLayer
370
18
48
1
60
0
100
AcDbSpline
70
4
71
3
72
25
73
21
40
0
40
0
40
0
40
0
40
0.102508951487469
40
0.176295405595367
40
0.230925437375229
40
0.289664348311003
40
0.340850160241601
40
0.391939066095847
40
0.461380833297612
40
0.540889999072835
40
0.60740448126833
40
0.663809240770787
40
0.704661853636158
40
0.751086197600193
40
0.809119800854783
40
0.862613381438321
40
0.899977439935098
40
0.93962880599703
40
0.989964104622493
40
1
40
1
40
1
40
1
41
1
10
40.9218958477463
20
7.52006839037802
30
0
41
1
10
40.4422510689222
20
7.52089182502922
30
0
41
1
10
39.617273831513
20
7.52163409878418
30
0
41
1
10
38.5343245456275
20
7.52171644429532
30
0
41
1
10
37.6595573539055
20
7.52000103540988
30
0
41
1
10
36.8881520970884
20
7.51915566593439
30
0
41
1
10
36.1338405969012
20
7.51791379826804
30
0
41
1
10
35.3292570634514
20
7.51777832808233
30
0
41
1
10
34.3920642897349
20
7.51929775900245
30
0
41
1
10
33.3825483210216
20
7.51960634016095
30
0
41
1
10
32.4340819500675
20
7.51618576344208
30
0
41
1
10
31.6669205320588
20
7.51622197510449
30
0
41
1
10
30.9936978004553
20
7.51649448796587
30
0
41
1
10
30.3128673888268
20
7.516814201567
30
0
41
1
10
29.572801231919
20
7.51690716063953
30
0
41
1
10
28.8751907674074
20
7.51499690824369
30
0
41
1
10
28.2637041276237
20
7.51475262330032
30
0
41
1
10
27.6670211257612
20
7.51472539875547
30
0
41
1
10
27.1984013188202
20
7.51480899872703
30
0
41
1
10
26.9155842779156
20
7.51481215631188
30
0
41
1
10
26.8685696163703
20
7.51481106714604
30
0
0
LINE
5
84
100
AcDbEntity
8
1
62
256
6
ByLayer
370
18
48
1
60
0
100
AcDbLine
10
0.135016
20
7.947549
30
0
11
0.135016
21
0
31
0
39
0
210
0
220
0
230
1
0
LINE
5
85
100
AcDbEntity
8
1
62
256
6
ByLayer
370
18
48
1
60
0
100
AcDbLine
10
0.135016
20
0
30
0
11
0.135016
21
-7.947549
31
0
39
0
210
0
220
0
230
1
0
LINE
5
86
100
AcDbEntity
8
1
62
256
6
ByLayer
370
18
48
1
60
0
100
AcDbLine
10
3.501669
20
-1.527802
30
0
11
3.501669
21
7.060916
31
0
39
0
210
0
220
0
230
1
0
LINE
5
87
100
AcDbEntity
8
1
62
256
6
ByLayer
370
18
48
1
60
0
100
AcDbLine
10
66.889346
20
0.095524
30
0
11
65.054031
21
2.121393
31
0
39
0
210
0
220
0
230
1
0
LINE
5
88
100
AcDbEntity
8
1
62
256
6
ByLayer
370
18
48
1
60
0
100
AcDbLine
10
0
20
8
30
0
11
0
21
0
31
0
39
0
210
0
220
0
230
1
0
LINE
5
89
100
AcDbEntity
8
1
62
256
6
ByLayer
370
18
48
1
60
0
100
AcDbLine
10
0
20
0
30
0
11
0
21
-8
31
0
39
0
210
0
220
0
230
1
0
LINE
5
8A
100
AcDbEntity
8
1
62
256
6
ByLayer
370
18
48
1
60
0
100
AcDbLine
10
33.74
20
4.583681
30
0
11
33.74
21
4.472955
31
0
39
0
210
0
220
0
230
1
0
LINE
5
8B
100
AcDbEntity
8
1
62
256
6
ByLayer
370
18
48
1
60
0
100
AcDbLine
10
0.270157
20
7.895098
30
0
11
0.270157
21
0
31
0
39
0
210
0
220
0
230
1
0
LINE
5
8C
100
AcDbEntity
8
1
62
256
6
ByLayer
370
18
48
1
60
0
100
AcDbLine
10
0.270157
20
0
30
0
11
0.270157
21
-7.895098
31
0
39
0
210
0
220
0
230
1
0
LINE
5
8D
100
AcDbEntity
8
SK1
62
256
6
ByLayer
370
18
48
1
60
0
100
AcDbLine
10
-46.4
20
6.123528
30
0
11
-46.4
21
6.978624
31
0
39
0
210
0
220
0
230
1
0
LINE
5
8F
100
AcDbEntity
8
SK1
62
256
6
ByLayer
370
18
48
1
60
0
100
AcDbLine
10
-45.55
20
-8
30
0
11
-45.55
21
8
31
0
39
0
210
0
220
0
230
1
0
LINE
5
90
100
AcDbEntity
8
SK1
62
256
6
ByLayer
370
18
48
1
60
0
100
AcDbLine
10
-46.734936
20
5.754379
30
0
11
-46.734936
21
6.68396
31
0
39
0
210
0
220
0
230
1
0
LINE
5
91
100
AcDbEntity
8
SK1
62
256
6
ByLayer
370
18
48
1
60
0
100
AcDbLine
10
-48
20
3.807999
30
0
11
-48
21
-5.542268
31
0
39
0
210
0
220
0
230
1
0
LINE
5
92
100
AcDbEntity
8
SK1
62
256
6
ByLayer
370
18
48
1
60
0
100
AcDbLine
10
-46.5
20
5.97618
30
0
11
-46.5
21
6.905692
31
0
39
0
210
0
220
0
230
1
0
LINE
5
93
100
AcDbEntity
8
SK1
62
256
6
ByLayer
370
18
48
1
60
0
100
AcDbLine
10
0
20
8
30
0
11
0
21
-8
31
0
39
0
210
0
220
0
230
1
0
LINE
5
94
100
AcDbEntity
8
SK1
62
256
6
ByLayer
370
18
48
1
60
0
100
AcDbLine
10
-48
20
3.807939
30
0
11
-48
21
5.542268
31
0
39
0
210
0
220
0
230
1
0
LINE
5
95
100
AcDbEntity
8
SK1
62
256
6
ByLayer
370
18
48
1
60
0
100
AcDbLine
10
-47.695449
20
-5.854551
30
0
11
-45.55
21
-8
31
0
39
0
210
0
220
0
230
1
0
LINE
5
96
100
AcDbEntity
8
SK1
62
256
6
ByLayer
370
18
48
1
60
0
100
AcDbLine
10
-45.55
20
8
30
0
11
-47.695449
21
5.854551
31
0
39
0
210
0
220
0
230
1
0
LINE
5
97
100
AcDbEntity
8
SK1
62
256
6
ByLayer
370
18
48
1
60
0
100
AcDbLine
10
-45.55
20
-8
30
0
11
0
21
-8
31
0
39
0
210
0
220
0
230
1
0
LINE
5
98
100
AcDbEntity
8
SK1
62
256
6
ByLayer
370
18
48
1
60
0
100
AcDbLine
10
0
20
8
30
0
11
-45.55
21
8
31
0
39
0
210
0
220
0
230
1
0
LINE
5
99
100
AcDbEntity
8
1
62
256
6
ByLayer
370
18
48
1
60
0
100
AcDbLine
10
0.270157
20
-7.895098
30
0
11
2.383413
21
-7.896419
31
0
39
0
210
0
220
0
230
1
0
LINE
5
9A
100
AcDbEntity
8
1
62
256
6
ByLayer
370
18
48
1
60
0
100
AcDbLine
10
20.294305
20
-7.907613
30
0
11
22.475408
21
-7.908976
31
0
39
0
210
0
220
0
230
1
0
LINE
5
9B
100
AcDbEntity
8
1
62
256
6
ByLayer
370
18
48
1
60
0
100
AcDbLine
10
40.921488
20
-7.920505
30
0
11
42.884467
21
-7.921732
31
0
39
0
210
0
220
0
230
1
0
LINE
5
9C
100
AcDbEntity
8
1
62
256
6
ByLayer
370
18
48
1
60
0
100
AcDbLine
10
42.884467
20
7.921732
30
0
11
40.921488
21
7.920505
31
0
39
0
210
0
220
0
230
1
0
LINE
5
9D
100
AcDbEntity
8
1
62
256
6
ByLayer
370
18
48
1
60
0
100
AcDbLine
10
22.475408
20
7.908976
30
0
11
20.294305
21
7.907613
31
0
39
0
210
0
220
0
230
1
0
LINE
5
9E
100
AcDbEntity
8
1
62
256
6
ByLayer
370
18
48
1
60
0
100
AcDbLine
10
2.383413
20
7.896419
30
0
11
0.270157
21
7.895098
31
0
39
0
210
0
220
0
230
1
0
LINE
5
9F
100
AcDbEntity
8
SK4
62
256
6
ByLayer
370
18
48
0.05
60
0
100
AcDbLine
10
72
20
0
30
0
11
-53
21
0
31
0
39
0
210
0
220
0
230
1
0
LINE
5
A1
100
AcDbEntity
8
4
62
256
6
ByLayer
370
18
48
0.05
60
0
100
AcDbLine
10
-48
20
0
30
0
11
72
21
0
31
0
39
0
210
0
220
0
230
1
0
LINE
5
A3
100
AcDbEntity
8
80
62
256
6
ByLayer
370
18
48
1
60
0
100
AcDbLine
10
0
20
0
30
0
11
-6
21
0
31
0
39
0
210
0
220
0
230
1
0
LINE
5
A4
100
AcDbEntity
8
81
62
256
6
ByLayer
370
18
48
1
60
0
100
AcDbLine
10
67
20
0
30
0
11
73
21
0
31
0
39
0
210
0
220
0
230
1
0
LINE
5
A5
100
AcDbEntity
8
SK2
62
256
6
ByLayer
370
13
48
1
60
0
100
AcDbLine
10
67.542956
20
1.491762
30
0
11
74.926308
21
21.77738
31
0
39
0
210
0
220
0
230
1
0
LINE
5
A7
100
AcDbEntity
8
SK2
62
256
6
ByLayer
370
13
48
1
60
0
100
AcDbLine
10
67.542956
20
-1.491762
30
0
11
74.926308
21
-21.77738
31
0
39
0
210
0
220
0
230
1
0
LINE
5
A8
100
AcDbEntity
8
1
62
256
6
ByLayer
370
13
48
1
60
0
100
AcDbLine
10
73.840395
20
18.793855
30
0
11
76.936986
21
17.977485
31
0
39
0
210
0
220
0
230
1
0
LINE
5
A9
100
AcDbEntity
8
1
62
256
6
ByLayer
370
13
48
1
60
0
100
AcDbLine
10
73.840395
20
18.793855
30
0
11
76.620182
21
17.203844
31
0
39
0
210
0
220
0
230
1
0
LINE
5
AA
100
AcDbEntity
8
1
62
256
6
ByLayer
370
13
48
1
60
0
100
AcDbLine
10
76.936986
20
17.977485
30
0
11
76.620182
21
17.203844
31
0
39
0
210
0
220
0
230
1
0
LINE
5
AB
100
AcDbEntity
8
1
62
256
6
ByLayer
370
13
48
1
60
0
100
AcDbLine
10
73.840395
20
-18.793855
30
0
11
76.62018
21
-17.203845
31
0
39
0
210
0
220
0
230
1
0
LINE
5
AC
100
AcDbEntity
8
1
62
256
6
ByLayer
370
13
48
1
60
0
100
AcDbLine
10
73.840395
20
-18.793855
30
0
11
76.936989
21
-17.977484
31
0
39
0
210
0
220
0
230
1
0
LINE
5
AD
100
AcDbEntity
8
1
62
256
6
ByLayer
370
13
48
1
60
0
100
AcDbLine
10
76.62018
20
-17.203845
30
0
11
76.936989
21
-17.977484
31
0
39
0
210
0
220
0
230
1
0
MTEXT
5
104
100
AcDbEntity
8
SK2
62
256
6
ByLayer
370
18
48
1
60
0
100
AcDbMText
10
80.717388
20
-2.467451
30
0
210
0
220
0
230
1
1
\W0.7237;140.00
40
3.50012
41
0
44
1.084337
50
0
71
7
72
5
7
iso_b_vert
0
MTEXT
5
107
100
AcDbEntity
8
SK6
62
256
6
ByLayer
370
18
48
1
60
0
100
AcDbMText
10
-27.3642
20
-54.567964
30
0
210
0
220
0
230
1
1
\W0.7281;860.1-1587-041A1-GM X1BM
40
3.175
41
0
44
1.084337
50
0
71
7
72
5
7
iso_b_vert
0
DIMENSION
5
10A
100
AcDbEntity
8
SK2
62
256
6
ByLayer
370
18
48
1
60
0
100
AcDbDimension
2
_U0
10
67
20
-31.50012
30
0
11
33.5
21
-31.50012
31
0
70
32
71
2
72
1
41
1
210
0
220
0
230
1
3
Standard
100
AcDbAlignedDimension
13
0
23
-8
33
0
14
67
24
0
34
0
50
0
100
AcDbRotatedDimension
1001
ACAD
1000
DSTYLE
1002
{
1070
   371
1070
    13
1070
   372
1070
    13
1070
     3
1000

1070
   170
1070
     0
1070
   144
1040
1.0
1070
   277
1070
     2
1070
   284
1070
     8
1070
   278
1070
    46
1070
   146
1040
0.999966
1070
   345
1005
16
1070
   347
1005
16
1070
   346
1005
16
1070
   344
1005
10B
1070
   343
1005
10B
1070
   172
1070
     1
1070
    76
1070
     0
1070
    75
1070
     0
1070
   282
1070
     0
1070
   281
1070
     0
1070
    71
1070
     0
1070
    74
1070
     0
1070
   279
1070
     0
1070
   173
1070
     1
1070
   340
1005
105
1070
   271
1070
     1
1070
   272
1070
     2
1070
    77
1070
     1
1070
    73
1070
     1
1070
   171
1070
     3
1070
   274
1070
     4
1070
   177
1070
   150
1070
   176
1070
     9
1070
   178
1070
    43
1070
    78
1070
     8
1070
    48
1040
-0.1
1070
    41
1040
3.175
1070
   147
1040
1.75006
1070
    42
1040
1.5875
1070
    44
1040
3.175
1070
   140
1040
3.50012
1002
}
1001
ACAD_DSTYLE_DIM_LINETYPE
1070
   380
1005
16
1001
ACAD_DSTYLE_DIM_EXT1_LINETYPE
1070
   381
1005
16
1001
ACAD_DSTYLE_DIM_EXT2_LINETYPE
1070
   382
1005
16
0
DIMENSION
5
130
100
AcDbEntity
8
2
62
256
6
ByLayer
370
18
48
1
60
0
100
AcDbDimension
2
_U1
10
73.75006
20
7.935
30
0
11
73.75006
21
24.841612
31
0
70
32
71
1
72
1
41
1
210
0
220
0
230
1
3
Standard
100
AcDbAlignedDimension
13
64.1119
23
-7.935
33
0
14
64.1119
24
7.935
34
0
50
90
100
AcDbRotatedDimension
1001
ACAD
1000
DSTYLE
1002
{
1070
   371
1070
    13
1070
   372
1070
    13
1070
     3
1000

1070
   170
1070
     0
1070
   144
1040
1.0
1070
   277
1070
     2
1070
   284
1070
     8
1070
   278
1070
    46
1070
   146
1040
0.999966
1070
   345
1005
16
1070
   347
1005
16
1070
   346
1005
16
1070
   344
1005
10B
1070
   343
1005
10B
1070
   172
1070
     1
1070
    76
1070
     0
1070
    75
1070
     0
1070
   282
1070
     0
1070
   281
1070
     0
1070
    71
1070
     0
1070
    74
1070
     0
1070
   279
1070
     0
1070
   173
1070
     1
1070
   340
1005
105
1070
   271
1070
     1
1070
   272
1070
     2
1070
    77
1070
     1
1070
    73
1070
     0
1070
   171
1070
     3
1070
   274
1070
     4
1070
   177
1070
   150
1070
   176
1070
     9
1070
   178
1070
    43
1070
    78
1070
     8
1070
    48
1040
-0.1
1070
    41
1040
3.175
1070
   147
1040
1.75006
1070
    42
1040
1.5875
1070
    44
1040
3.175
1070
   140
1040
3.50012
1002
}
1001
ACAD_DSTYLE_DIM_LINETYPE
1070
   380
1005
16
1001
ACAD_DSTYLE_DIM_EXT1_LINETYPE
1070
   381
1005
16
1001
ACAD_DSTYLE_DIM_EXT2_LINETYPE
1070
   382
1005
16
0
DIMENSION
5
14F
100
AcDbEntity
8
SK2
62
256
6
ByLayer
370
18
48
1
60
0
100
AcDbDimension
2
_U2
10
-51.24994
20
-8
30
0
11
-51.24994
21
22.97767
31
0
70
32
71
1
72
1
41
1
210
0
220
0
230
1
3
Standard
100
AcDbAlignedDimension
13
-48
23
8
33
0
14
-48
24
-8
34
0
50
90
100
AcDbRotatedDimension
1001
ACAD
1000
DSTYLE
1002
{
1070
   371
1070
    13
1070
   372
1070
    13
1070
     3
1000

1070
   170
1070
     0
1070
   144
1040
1.0
1070
   277
1070
     2
1070
   284
1070
     8
1070
   278
1070
    46
1070
   146
1040
0.999966
1070
   345
1005
16
1070
   347
1005
16
1070
   346
1005
16
1070
   344
1005
10B
1070
   343
1005
10B
1070
   172
1070
     1
1070
    76
1070
     0
1070
    75
1070
     0
1070
   282
1070
     0
1070
   281
1070
     0
1070
    71
1070
     0
1070
    74
1070
     0
1070
   279
1070
     0
1070
   173
1070
     1
1070
   340
1005
105
1070
   271
1070
     1
1070
   272
1070
     2
1070
    77
1070
     1
1070
    73
1070
     0
1070
   171
1070
     3
1070
   274
1070
     4
1070
   177
1070
   150
1070
   176
1070
     9
1070
   178
1070
    43
1070
    78
1070
     8
1070
    48
1040
-0.1
1070
    41
1040
3.175
1070
   147
1040
1.75006
1070
    42
1040
1.5875
1070
    44
1040
3.175
1070
   140
1040
3.50012
1002
}
1001
ACAD_DSTYLE_DIM_LINETYPE
1070
   380
1005
16
1001
ACAD_DSTYLE_DIM_EXT1_LINETYPE
1070
   381
1005
16
1001
ACAD_DSTYLE_DIM_EXT2_LINETYPE
1070
   382
1005
16
0
DIMENSION
5
16D
100
AcDbEntity
8
SK2
62
256
6
ByLayer
370
18
48
1
60
0
100
AcDbDimension
2
_U3
10
0
20
-31.50012
30
0
11
-24
21
-31.50012
31
0
70
32
71
1
72
1
41
1
210
0
220
0
230
1
3
Standard
100
AcDbAlignedDimension
13
-48
23
-8
33
0
14
0
24
-8
34
0
50
0
100
AcDbRotatedDimension
1001
ACAD
1000
DSTYLE
1002
{
1070
   371
1070
    13
1070
   372
1070
    13
1070
     3
1000

1070
   170
1070
     0
1070
   144
1040
1.0
1070
   277
1070
     2
1070
   284
1070
     8
1070
   278
1070
    46
1070
   146
1040
0.999966
1070
   345
1005
16
1070
   347
1005
16
1070
   346
1005
16
1070
   344
1005
10B
1070
   343
1005
10B
1070
   172
1070
     1
1070
    76
1070
     0
1070
    75
1070
     0
1070
   282
1070
     0
1070
   281
1070
     0
1070
    71
1070
     0
1070
    74
1070
     0
1070
   279
1070
     0
1070
   173
1070
     1
1070
   340
1005
105
1070
   271
1070
     1
1070
   272
1070
     2
1070
    77
1070
     1
1070
    73
1070
     1
1070
   171
1070
     3
1070
   274
1070
     4
1070
   177
1070
   150
1070
   176
1070
     9
1070
   178
1070
    43
1070
    78
1070
     8
1070
    48
1040
-0.1
1070
    41
1040
3.175
1070
   147
1040
1.75006
1070
    42
1040
1.5875
1070
    44
1040
3.175
1070
   140
1040
3.50012
1002
}
1001
ACAD_DSTYLE_DIM_LINETYPE
1070
   380
1005
16
1001
ACAD_DSTYLE_DIM_EXT1_LINETYPE
1070
   381
1005
16
1001
ACAD_DSTYLE_DIM_EXT2_LINETYPE
1070
   382
1005
16
0
DIMENSION
5
189
100
AcDbEntity
8
SK2
62
256
6
ByLayer
370
18
48
1
60
0
100
AcDbDimension
2
_U4
10
67
20
-22.74982
30
0
11
34.5
21
-22.74982
31
0
70
32
71
1
72
1
41
1
210
0
220
0
230
1
3
Standard
100
AcDbAlignedDimension
13
2
23
8.435
33
0
14
67
24
0
34
0
50
0
100
AcDbRotatedDimension
1001
ACAD
1000
DSTYLE
1002
{
1070
   371
1070
    13
1070
   372
1070
    13
1070
     3
1000

1070
   170
1070
     0
1070
   144
1040
1.0
1070
   277
1070
     2
1070
   284
1070
     8
1070
   278
1070
    46
1070
   146
1040
0.999966
1070
   345
1005
16
1070
   347
1005
16
1070
   346
1005
16
1070
   344
1005
10B
1070
   343
1005
10B
1070
   172
1070
     1
1070
    76
1070
     0
1070
    75
1070
     0
1070
   282
1070
     0
1070
   281
1070
     0
1070
    71
1070
     0
1070
    74
1070
     0
1070
   279
1070
     0
1070
   173
1070
     1
1070
   340
1005
105
1070
   271
1070
     1
1070
   272
1070
     2
1070
    77
1070
     1
1070
    73
1070
     1
1070
   171
1070
     3
1070
   274
1070
     4
1070
   177
1070
   150
1070
   176
1070
     9
1070
   178
1070
    43
1070
    78
1070
     8
1070
    48
1040
-0.1
1070
    41
1040
3.175
1070
   147
1040
1.75006
1070
    42
1040
1.5875
1070
    44
1040
3.175
1070
   140
1040
3.50012
1002
}
1001
ACAD_DSTYLE_DIM_LINETYPE
1070
   380
1005
16
1001
ACAD_DSTYLE_DIM_EXT1_LINETYPE
1070
   381
1005
16
1001
ACAD_DSTYLE_DIM_EXT2_LINETYPE
1070
   382
1005
16
0
DIMENSION
5
1A5
100
AcDbEntity
8
SK2
62
256
6
ByLayer
370
18
48
1
60
0
100
AcDbDimension
2
_U5
10
67
20
-14.82
30
0
11
44.5
21
-14.82
31
0
70
32
71
1
72
1
41
1
210
0
220
0
230
1
3
Standard
100
AcDbAlignedDimension
13
22
23
-7.935
33
0
14
67
24
0
34
0
50
0
100
AcDbRotatedDimension
1001
ACAD
1000
DSTYLE
1002
{
1070
   371
1070
    13
1070
   372
1070
    13
1070
     3
1000

1070
   170
1070
     0
1070
   144
1040
1.0
1070
   277
1070
     2
1070
   284
1070
     8
1070
   278
1070
    46
1070
   146
1040
1.25
1070
   345
1005
16
1070
   347
1005
16
1070
   346
1005
16
1070
   344
1005
10B
1070
   343
1005
10B
1070
   172
1070
     1
1070
    76
1070
     0
1070
    75
1070
     0
1070
   282
1070
     0
1070
   281
1070
     0
1070
    71
1070
     0
1070
    74
1070
     0
1070
   279
1070
     0
1070
   173
1070
     1
1070
   340
1005
105
1070
   271
1070
     1
1070
   272
1070
     2
1070
    77
1070
     1
1070
    73
1070
     1
1070
   171
1070
     3
1070
   274
1070
     4
1070
   177
1070
   150
1070
   176
1070
     9
1070
   178
1070
    43
1070
    78
1070
     8
1070
    48
1040
-0.1
1070
    41
1040
3.175
1070
   147
1040
0.42
1070
    42
1040
1.5875
1070
    44
1040
0.5
1070
   140
1040
2.8
1002
}
1001
ACAD_DSTYLE_DIM_LINETYPE
1070
   380
1005
16
1001
ACAD_DSTYLE_DIM_EXT1_LINETYPE
1070
   381
1005
16
1001
ACAD_DSTYLE_DIM_EXT2_LINETYPE
1070
   382
1005
16
0
DIMENSION
5
1C1
100
AcDbEntity
8
SK2
62
256
6
ByLayer
370
18
48
1
60
0
100
AcDbDimension
2
_U6
10
67
20
-41.50012
30
0
11
9.5
21
-41.50012
31
0
70
32
71
1
72
1
41
1
210
0
220
0
230
1
3
Standard
100
AcDbAlignedDimension
13
-48
23
0
33
0
14
67
24
0
34
0
50
0
100
AcDbRotatedDimension
1001
ACAD
1000
DSTYLE
1002
{
1070
   371
1070
    13
1070
   372
1070
    13
1070
     3
1000

1070
   170
1070
     0
1070
   144
1040
1.0
1070
   277
1070
     2
1070
   284
1070
     8
1070
   278
1070
    46
1070
   146
1040
0.999966
1070
   345
1005
16
1070
   347
1005
16
1070
   346
1005
16
1070
   344
1005
10B
1070
   343
1005
10B
1070
   172
1070
     1
1070
    76
1070
     0
1070
    75
1070
     0
1070
   282
1070
     0
1070
   281
1070
     0
1070
    71
1070
     0
1070
    74
1070
     0
1070
   279
1070
     0
1070
   173
1070
     1
1070
   340
1005
105
1070
   271
1070
     1
1070
   272
1070
     2
1070
    77
1070
     1
1070
    73
1070
     1
1070
   171
1070
     3
1070
   274
1070
     4
1070
   177
1070
   150
1070
   176
1070
     9
1070
   178
1070
    43
1070
    78
1070
     8
1070
    48
1040
-0.1
1070
    41
1040
3.175
1070
   147
1040
1.75006
1070
    42
1040
1.5875
1070
    44
1040
3.175
1070
   140
1040
3.50012
1002
}
1001
ACAD_DSTYLE_DIM_LINETYPE
1070
   380
1005
16
1001
ACAD_DSTYLE_DIM_EXT1_LINETYPE
1070
   381
1005
16
1001
ACAD_DSTYLE_DIM_EXT2_LINETYPE
1070
   382
1005
16
0
ENDSEC
0
SECTION
2
OBJECTS
0
DICTIONARY
5
24d
330
0
100
AcDbDictionary
280
0
281
1
3
ACAD_GROUP
350
24e
3
ACAD_MLINESTYLE
350
24f
0
DICTIONARY
5
24e
330
0
100
AcDbDictionary
280
0
281
1
0
DICTIONARY
5
24f
330
0
100
AcDbDictionary
280
0
281
1
3
Standard
350
18
0
MLINESTYLE
5
18
330
24f
100
AcDbMlineStyle
2
Standard
70
0
3

62
256
51
90
52
90
71
2
49
-0.5
62
256
6
ByLayer
49
0.5
62
256
6
ByLayer
0
RASTERVARIABLES
5
23b
330

100
AcDbRasterVariables
90
0
70
1
71
1
72
1
0
ENDSEC
0
EOF
