0
SECTION
2
HEADER
9
$ACADVER
1
AC1015
9
$DWGCODEPAGE
3
ANSI_1252
9
$HANDSEED
5
253
9
$ANGBASE
50
0
9
$ANGDIR
70
0
9
$ATTMODE
70
1
9
$AUNITS
70
0
9
$AUPREC
70
0
9
$CECOLOR
62
256
9
$CELTSCALE
40
1
9
$CELTYPE
6
ByLayer
9
$CELWEIGHT
370
18
9
$CLAYER
8
0
9
$CMLJUST
70
0
9
$CMLSCALE
40
1
9
$CMLSTYLE
2
Standard
9
$DIMSTYLE
2
Standard
9
$TEXTSIZE
40
0.2
9
$TEXTSTYLE
7
Standard
9
$LUNITS
70
2
9
$LUPREC
70
4
9
$EXTNAMES
290
1
9
$INSUNITS
70
4
9
$LTSCALE
40
1
9
$LWDISPLAY
290
1
9
$PDMODE
70
0
9
$PDSIZE
40
0
9
$PLINEGEN
70
0
0
ENDSEC
0
SECTION
2
CLASSES
0
CLASS
1
RASTERVARIABLES
2
AcDbRasterVariables
3
ISM
90
0
280
0
281
0
0
ENDSEC
0
SECTION
2
TABLES
0
TABLE
2
VPORT
5
249
100
AcDbSymbolTable
0
VPORT
5
1
100
AcDbSymbolTableRecord
100
AcDbViewportTableRecord
2
*Active
70
0
10
0
20
0
11
1
21
1
12
-1
22
1
13
0
23
0
14
0.5
24
0.5
15
10
25
10
16
0
26
0
36
1
17
0
27
0
37
0
0
ENDTAB
0
TABLE
2
LTYPE
5
24a
100
AcDbSymbolTable
0
LTYPE
5
14
100
AcDbSymbolTableRecord
100
AcDbLinetypeTableRecord
70
0
2
ByBlock
3

72
65
73
0
40
0
0
LTYPE
5
15
100
AcDbSymbolTableRecord
100
AcDbLinetypeTableRecord
70
0
2
ByLayer
3

72
65
73
0
40
0
0
LTYPE
5
16
100
AcDbSymbolTableRecord
100
AcDbLinetypeTableRecord
70
0
2
Continuous
3
Solid line
72
65
73
0
40
0
0
LTYPE
5
6E
100
AcDbSymbolTableRecord
100
AcDbLinetypeTableRecord
70
0
2
CENTER
3
____ _ ____ _ ____ _ ____
72
65
73
4
40
47.5
49
22
74
0
49
-8.5
74
0
49
8.5
74
0
49
-8.5
74
0
0
LTYPE
5
6F
100
AcDbSymbolTableRecord
100
AcDbLinetypeTableRecord
70
0
2
DASHED
3
__ __ __ __ __ __ __ __ __
72
65
73
2
40
25.72
49
12.86
74
0
49
-12.86
74
0
0
ENDTAB
0
TABLE
2
LAYER
5
24b
100
AcDbSymbolTable
0
LAYER
5
10
100
AcDbSymbolTableRecord
100
AcDbLayerTableRecord
2
0
70
0
62
7
6
Continuous
290
1
370
-3
390
0
0
LAYER
5
71
100
AcDbSymbolTableRecord
100
AcDbLayerTableRecord
2
80
70
0
62
-6
6
Continuous
290
1
370
-3
390
0
0
LAYER
5
73
100
AcDbSymbolTableRecord
100
AcDbLayerTableRecord
2
81
70
0
62
-3
6
Continuous
290
1
370
-3
390
0
0
LAYER
5
75
100
AcDbSymbolTableRecord
100
AcDbLayerTableRecord
2
1
70
0
62
4
6
Continuous
290
1
370
-3
390
0
0
LAYER
5
A2
100
AcDbSymbolTableRecord
100
AcDbLayerTableRecord
2
4
70
0
62
-2
6
CENTER
290
1
370
-3
390
0
0
LAYER
5
10D
100
AcDbSymbolTableRecord
100
AcDbLayerTableRecord
2
Defpoints
70
0
62
7
6
Continuous
290
0
370
-3
390
0
0
LAYER
5
13A
100
AcDbSymbolTableRecord
100
AcDbLayerTableRecord
2
2
70
0
62
7
6
Continuous
290
1
370
-3
390
0
0
LAYER
5
235
100
AcDbSymbolTableRecord
100
AcDbLayerTableRecord
2
SK1
70
0
62
4
6
Continuous
290
1
370
-3
390
0
0
LAYER
5
236
100
AcDbSymbolTableRecord
100
AcDbLayerTableRecord
2
SK4
70
0
62
2
6
CENTER
290
1
370
-3
390
0
0
LAYER
5
237
100
AcDbSymbolTableRecord
100
AcDbLayerTableRecord
2
SK2
70
0
62
7
6
Continuous
290
1
370
-3
390
0
0
LAYER
5
238
100
AcDbSymbolTableRecord
100
AcDbLayerTableRecord
2
SK6
70
0
62
5
6
Continuous
290
1
370
-3
390
0
0
ENDTAB
0
TABLE
2
STYLE
5
24c
100
AcDbSymbolTable
0
STYLE
5
11
100
AcDbSymbolTableRecord
100
AcDbTextStyleTableRecord
2
Standard
3
txt
70
0
71
0
40
0
41
1
42
0
50
0
0
STYLE
5
FE
100
AcDbSymbolTableRecord
100
AcDbTextStyleTableRecord
2
iso_b_vert
3
simplex.shx
70
0
71
0
40
0
41
1
42
0
50
0
0
STYLE
5
FF
100
AcDbSymbolTableRecord
100
AcDbTextStyleTableRecord
2
DWGDirectTextStyle
3
simplex
70
0
71
0
40
0
41
1
42
0
50
0
0
ENDTAB
0
TABLE
2
DIMSTYLE
5
24d
100
AcDbSymbolTable
100
AcDbDimStyleTable
0
DIMSTYLE
105
27
100
AcDbSymbolTableRecord
100
AcDbDimStyleTableRecord
2
Standard
70
0
3
<>
41
0.18
42
0.0625
44
0.18
140
0.18
147
0.09
73
0
74
0
77
1
271
2
275
0
278
52
280
0
340
11
0
ENDTAB
0
TABLE
2
VIEW
5
24e
100
AcDbSymbolTable
0
ENDTAB
0
TABLE
2
UCS
5
24f
100
AcDbSymbolTable
0
ENDTAB
0
TABLE
2
APPID
5
250
100
AcDbSymbolTable
0
APPID
5
12
100
AcDbSymbolTableRecord
100
AcDbRegAppTableRecord
2
ACAD
70
0
0
APPID
5
102
100
AcDbSymbolTableRecord
100
AcDbRegAppTableRecord
2
ACAD_DSTYLE_DIMBREAK
70
0
0
APPID
5
1F4
100
AcDbSymbolTableRecord
100
AcDbRegAppTableRecord
2
ACAD_DSTYLE_DIM_LINETYPE
70
0
0
APPID
5
1F5
100
AcDbSymbolTableRecord
100
AcDbRegAppTableRecord
2
ACAD_DSTYLE_DIM_EXT1_LINETYPE
70
0
0
APPID
5
1F6
100
AcDbSymbolTableRecord
100
AcDbRegAppTableRecord
2
ACAD_DSTYLE_DIM_EXT2_LINETYPE
70
0
0
APPID
5
231
100
AcDbSymbolTableRecord
100
AcDbRegAppTableRecord
2
ACAD_MLEADERVER
70
0
0
ENDTAB
0
TABLE
2
BLOCK_RECORD
5
251
100
AcDbSymbolTable
0
BLOCK_RECORD
5
1F
100
AcDbSymbolTableRecord
100
AcDbBlockTableRecord
2
*Model_Space
340
0
70
0
0
BLOCK_RECORD
5
1B
100
AcDbSymbolTableRecord
100
AcDbBlockTableRecord
2
*Paper_Space
340
0
70
0
0
BLOCK_RECORD
5
23
100
AcDbSymbolTableRecord
100
AcDbBlockTableRecord
2
*Paper_Space0
340
0
70
0
0
BLOCK_RECORD
5
104
100
AcDbSymbolTableRecord
100
AcDbBlockTableRecord
2
_Closed
340
0
70
0
0
BLOCK_RECORD
5
10E
100
AcDbSymbolTableRecord
100
AcDbBlockTableRecord
2
*D2
340
0
70
0
0
BLOCK_RECORD
5
11A
100
AcDbSymbolTableRecord
100
AcDbBlockTableRecord
2
_U0
340
0
70
0
0
BLOCK_RECORD
5
12C
100
AcDbSymbolTableRecord
100
AcDbBlockTableRecord
2
*D4
340
0
70
0
0
BLOCK_RECORD
5
13B
100
AcDbSymbolTableRecord
100
AcDbBlockTableRecord
2
_U1
340
0
70
0
0
BLOCK_RECORD
5
14B
100
AcDbSymbolTableRecord
100
AcDbBlockTableRecord
2
*D6
340
0
70
0
0
BLOCK_RECORD
5
159
100
AcDbSymbolTableRecord
100
AcDbBlockTableRecord
2
_U2
340
0
70
0
0
BLOCK_RECORD
5
169
100
AcDbSymbolTableRecord
100
AcDbBlockTableRecord
2
*D8
340
0
70
0
0
BLOCK_RECORD
5
175
100
AcDbSymbolTableRecord
100
AcDbBlockTableRecord
2
_U3
340
0
70
0
0
BLOCK_RECORD
5
185
100
AcDbSymbolTableRecord
100
AcDbBlockTableRecord
2
*D10
340
0
70
0
0
BLOCK_RECORD
5
191
100
AcDbSymbolTableRecord
100
AcDbBlockTableRecord
2
_U4
340
0
70
0
0
BLOCK_RECORD
5
1A1
100
AcDbSymbolTableRecord
100
AcDbBlockTableRecord
2
*D12
340
0
70
0
0
BLOCK_RECORD
5
1AD
100
AcDbSymbolTableRecord
100
AcDbBlockTableRecord
2
_U5
340
0
70
0
0
BLOCK_RECORD
5
1BD
100
AcDbSymbolTableRecord
100
AcDbBlockTableRecord
2
*D14
340
0
70
0
0
BLOCK_RECORD
5
1C9
100
AcDbSymbolTableRecord
100
AcDbBlockTableRecord
2
_U6
340
0
70
0
0
ENDTAB
0
ENDSEC
0
SECTION
2
BLOCKS
0
BLOCK
5
20
100
AcDbEntity
8
0
100
AcDbBlockBegin
2
*Model_Space
70
0
10
0
20
0
30
0
3
*Model_Space
0
ENDBLK
5
21
100
AcDbEntity
8
0
100
AcDbBlockEnd
0
BLOCK
5
1C
100
AcDbEntity
8
0
100
AcDbBlockBegin
2
*Paper_Space
70
0
10
0
20
0
30
0
3
*Paper_Space
0
ENDBLK
5
1D
100
AcDbEntity
8
0
100
AcDbBlockEnd
0
BLOCK
5
24
100
AcDbEntity
8
0
100
AcDbBlockBegin
2
*Paper_Space0
70
0
10
0
20
0
30
0
3
*Paper_Space0
0
ENDBLK
5
25
100
AcDbEntity
8
0
100
AcDbBlockEnd
0
BLOCK
5
105
100
AcDbEntity
8
0
100
AcDbBlockBegin
2
_Closed
70
0
10
0
20
0
30
0
3
_Closed
0
LINE
5
107
100
AcDbEntity
8
0
62
256
6
ByLayer
370
-2
48
1
60
0
100
AcDbLine
10
-1
20
0.166667
30
0
11
0
21
0
31
0
39
0
210
0
220
0
230
1
0
LINE
5
108
100
AcDbEntity
8
0
62
256
6
ByLayer
370
-2
48
1
60
0
100
AcDbLine
10
0
20
0
30
0
11
-1
21
-0.166667
31
0
39
0
210
0
220
0
230
1
0
LINE
5
109
100
AcDbEntity
8
0
62
256
6
ByLayer
370
-2
48
1
60
0
100
AcDbLine
10
-1
20
0.166667
30
0
11
-1
21
-0.166667
31
0
39
0
210
0
220
0
230
1
0
LINE
5
10A
100
AcDbEntity
8
0
62
256
6
ByLayer
370
-2
48
1
60
0
100
AcDbLine
10
0
20
0
30
0
11
-1
21
0
31
0
39
0
210
0
220
0
230
1
0
ENDBLK
5
106
100
AcDbEntity
8
0
100
AcDbBlockEnd
0
BLOCK
5
10F
100
AcDbEntity
8
0
100
AcDbBlockBegin
2
*D2
70
1
10
0
20
0
30
0
3
*D2
0
LINE
5
111
100
AcDbEntity
8
0
62
256
6
ByLayer
370
-2
48
1
60
0
100
AcDbLine
10
0
20
-8.5875
30
0
11
0
21
-33.67512
31
0
39
0
210
0
220
0
230
1
0
LINE
5
112
100
AcDbEntity
8
0
62
256
6
ByLayer
370
-2
48
1
60
0
100
AcDbLine
10
62
20
-1.5875
30
0
11
62
21
-33.67512
31
0
39
0
210
0
220
0
230
1
0
LINE
5
113
100
AcDbEntity
8
0
62
256
6
ByLayer
370
-2
48
1
60
0
100
AcDbLine
10
3.175
20
-30.50012
30
0
11
58.825
21
-30.50012
31
0
39
0
210
0
220
0
230
1
0
SOLID
5
114
100
AcDbEntity
8
0
62
256
6
ByLayer
370
-1
48
1
60
0
100
AcDbTrace
10
3.175
20
-29.970953
30
0
11
3.175
21
-31.029287
31
0
12
0
22
-30.50012
32
0
13
0
23
-30.50012
33
0
39
0
210
0
220
0
230
1
0
SOLID
5
115
100
AcDbEntity
8
0
62
256
6
ByLayer
370
-1
48
1
60
0
100
AcDbTrace
10
58.825
20
-31.029287
30
0
11
58.825
21
-29.970953
31
0
12
62
22
-30.50012
32
0
13
62
23
-30.50012
33
0
39
0
210
0
220
0
230
1
0
MTEXT
5
116
100
AcDbEntity
8
0
62
256
6
ByLayer
370
18
48
1
60
0
100
AcDbMText
10
31
20
-23.193619
30
0
210
0
220
0
230
1
1
\A1;62
40
3.50012
41
0
44
1
50
0
71
5
72
5
7
iso_b_vert
0
POINT
5
117
100
AcDbEntity
8
Defpoints
62
0
6
ByLayer
370
-1
48
1
60
0
100
AcDbPoint
10
0
20
-7
30
0
39
0
210
0
220
0
230
1
50
360
0
POINT
5
118
100
AcDbEntity
8
Defpoints
62
0
6
ByLayer
370
-1
48
1
60
0
100
AcDbPoint
10
62
20
0
30
0
39
0
210
0
220
0
230
1
50
360
0
POINT
5
119
100
AcDbEntity
8
Defpoints
62
0
6
ByLayer
370
-1
48
1
60
0
100
AcDbPoint
10
62
20
-30.50012
30
0
39
0
210
0
220
0
230
1
50
360
0
ENDBLK
5
110
100
AcDbEntity
8
0
100
AcDbBlockEnd
0
BLOCK
5
127
100
AcDbEntity
8
0
100
AcDbBlockBegin
2
_U0
70
0
10
0
20
0
30
0
3
_U0
0
MTEXT
5
11B
100
AcDbEntity
8
SK2
62
256
6
ByLayer
370
18
48
1
60
0
100
AcDbMText
10
25.770389
20
-29.467451
30
0
210
0
220
0
230
1
1
\W0.7468;62.00
40
3.50012
41
0
44
1.084337
50
0
71
7
72
5
7
iso_b_vert
0
MTEXT
5
11C
100
AcDbEntity
8
SK2
62
256
6
ByLayer
370
18
48
1
60
0
100
AcDbMText
10
22.244329
20
-29.400814
30
0
210
0
220
0
230
1
1
\W0.1790;(
40
3.175
41
0
44
1.084337
50
0
71
7
72
5
7
iso_b_vert
0
MTEXT
5
11D
100
AcDbEntity
8
SK2
62
256
6
ByLayer
370
18
48
1
60
0
100
AcDbMText
10
39.758393
20
-29.400814
30
0
210
0
220
0
230
1
1
\W0.1969;)
40
3.175
41
0
44
1.084337
50
0
71
7
72
5
7
iso_b_vert
0
LINE
5
11E
100
AcDbEntity
8
SK2
62
256
6
ByLayer
370
13
48
1
60
0
100
AcDbLine
10
0
20
-8.5875
30
0
11
0
21
-33.67512
31
0
39
0
210
0
220
0
230
1
0
LINE
5
11F
100
AcDbEntity
8
SK2
62
256
6
ByLayer
370
13
48
1
60
0
100
AcDbLine
10
62
20
-1.5875
30
0
11
62
21
-33.67512
31
0
39
0
210
0
220
0
230
1
0
LINE
5
120
100
AcDbEntity
8
SK2
62
256
6
ByLayer
370
13
48
1
60
0
100
AcDbLine
10
0
20
-30.50012
30
0
11
62
21
-30.50012
31
0
39
0
210
0
220
0
230
1
0
LINE
5
121
100
AcDbEntity
8
SK2
62
256
6
ByLayer
370
13
48
1
60
0
100
AcDbLine
10
0
20
-30.50012
30
0
11
3.174998
21
-30.082123
31
0
39
0
210
0
220
0
230
1
0
LINE
5
122
100
AcDbEntity
8
SK2
62
256
6
ByLayer
370
13
48
1
60
0
100
AcDbLine
10
0
20
-30.50012
30
0
11
3.175002
21
-30.918117
31
0
39
0
210
0
220
0
230
1
0
LINE
5
123
100
AcDbEntity
8
SK2
62
256
6
ByLayer
370
13
48
1
60
0
100
AcDbLine
10
3.174998
20
-30.082123
30
0
11
3.175002
21
-30.918117
31
0
39
0
210
0
220
0
230
1
0
LINE
5
124
100
AcDbEntity
8
SK2
62
256
6
ByLayer
370
13
48
1
60
0
100
AcDbLine
10
62
20
-30.50012
30
0
11
58.825002
21
-30.918117
31
0
39
0
210
0
220
0
230
1
0
LINE
5
125
100
AcDbEntity
8
SK2
62
256
6
ByLayer
370
13
48
1
60
0
100
AcDbLine
10
62
20
-30.50012
30
0
11
58.824998
21
-30.082123
31
0
39
0
210
0
220
0
230
1
0
LINE
5
126
100
AcDbEntity
8
SK2
62
256
6
ByLayer
370
13
48
1
60
0
100
AcDbLine
10
58.825002
20
-30.918117
30
0
11
58.824998
21
-30.082123
31
0
39
0
210
0
220
0
230
1
0
ENDBLK
5
128
100
AcDbEntity
8
0
100
AcDbBlockEnd
0
BLOCK
5
12D
100
AcDbEntity
8
0
100
AcDbBlockBegin
2
*D4
70
1
10
0
20
0
30
0
3
*D4
0
LINE
5
12F
100
AcDbEntity
8
0
62
256
6
ByLayer
370
-2
48
1
60
0
100
AcDbLine
10
61.0397
20
-7
30
0
11
71.92506
21
-7
31
0
39
0
210
0
220
0
230
1
0
LINE
5
130
100
AcDbEntity
8
0
62
256
6
ByLayer
370
-2
48
1
60
0
100
AcDbLine
10
61.0397
20
7
30
0
11
71.92506
21
7
31
0
39
0
210
0
220
0
230
1
0
LINE
5
131
100
AcDbEntity
8
0
62
256
6
ByLayer
370
-2
48
1
60
0
100
AcDbLine
10
68.75006
20
7
30
0
11
68.75006
21
29.796397
31
0
39
0
210
0
220
0
230
1
0
LINE
5
132
100
AcDbEntity
8
0
62
256
6
ByLayer
370
-2
48
1
60
0
100
AcDbLine
10
68.75006
20
-10.175
30
0
11
68.75006
21
-13.35
31
0
39
0
210
0
220
0
230
1
0
LINE
5
133
100
AcDbEntity
8
0
62
256
6
ByLayer
370
-2
48
1
60
0
100
AcDbLine
10
68.75006
20
10.175
30
0
11
68.75006
21
13.35
31
0
39
0
210
0
220
0
230
1
0
SOLID
5
134
100
AcDbEntity
8
0
62
256
6
ByLayer
370
-1
48
1
60
0
100
AcDbTrace
10
69.279227
20
-10.175
30
0
11
68.220893
21
-10.175
31
0
12
68.75006
22
-7
32
0
13
68.75006
23
-7
33
0
39
0
210
0
220
0
230
1
0
SOLID
5
135
100
AcDbEntity
8
0
62
256
6
ByLayer
370
-1
48
1
60
0
100
AcDbTrace
10
68.220893
20
10.175
30
0
11
69.279227
21
10.175
31
0
12
68.75006
22
7
32
0
13
68.75006
23
7
33
0
39
0
210
0
220
0
230
1
0
MTEXT
5
136
100
AcDbEntity
8
0
62
256
6
ByLayer
370
18
48
1
60
0
100
AcDbMText
10
61.44356
20
21.573199
30
0
210
0
220
0
230
1
1
\A1;14
40
3.50012
41
0
44
1
50
90
71
5
72
5
7
iso_b_vert
0
POINT
5
137
100
AcDbEntity
8
Defpoints
62
0
6
ByLayer
370
-1
48
1
60
0
100
AcDbPoint
10
59.4522
20
-7
30
0
39
0
210
0
220
0
230
1
50
360
0
POINT
5
138
100
AcDbEntity
8
Defpoints
62
0
6
ByLayer
370
-1
48
1
60
0
100
AcDbPoint
10
59.4522
20
7
30
0
39
0
210
0
220
0
230
1
50
360
0
POINT
5
139
100
AcDbEntity
8
Defpoints
62
0
6
ByLayer
370
-1
48
1
60
0
100
AcDbPoint
10
68.75006
20
7
30
0
39
0
210
0
220
0
230
1
50
360
0
ENDBLK
5
12E
100
AcDbEntity
8
0
100
AcDbBlockEnd
0
BLOCK
5
146
100
AcDbEntity
8
0
100
AcDbBlockBegin
2
_U1
70
0
10
0
20
0
30
0
3
_U1
0
MTEXT
5
13C
100
AcDbEntity
8
2
62
256
6
ByLayer
370
18
48
1
60
0
100
AcDbMText
10
68.060403
20
11.157505
30
0
210
0
220
0
230
1
1
\W0.7091;14.00
40
3.50012
41
0
44
1.084337
50
90
71
7
72
5
7
iso_b_vert
0
LINE
5
13D
100
AcDbEntity
8
2
62
256
6
ByLayer
370
13
48
1
60
0
100
AcDbLine
10
61.0397
20
-7
30
0
11
71.92506
21
-7
31
0
39
0
210
0
220
0
230
1
0
LINE
5
13E
100
AcDbEntity
8
2
62
256
6
ByLayer
370
13
48
1
60
0
100
AcDbLine
10
61.0397
20
7
30
0
11
71.92506
21
7
31
0
39
0
210
0
220
0
230
1
0
LINE
5
13F
100
AcDbEntity
8
2
62
256
6
ByLayer
370
13
48
1
60
0
100
AcDbLine
10
68.75006
20
-7
30
0
11
68.75006
21
21.323885
31
0
39
0
210
0
220
0
230
1
0
LINE
5
140
100
AcDbEntity
8
2
62
256
6
ByLayer
370
13
48
1
60
0
100
AcDbLine
10
68.75006
20
-7
30
0
11
68.332063
21
-3.825002
31
0
39
0
210
0
220
0
230
1
0
LINE
5
141
100
AcDbEntity
8
2
62
256
6
ByLayer
370
13
48
1
60
0
100
AcDbLine
10
68.75006
20
-7
30
0
11
69.168057
21
-3.824998
31
0
39
0
210
0
220
0
230
1
0
LINE
5
142
100
AcDbEntity
8
2
62
256
6
ByLayer
370
13
48
1
60
0
100
AcDbLine
10
68.332063
20
-3.825002
30
0
11
69.168057
21
-3.824998
31
0
39
0
210
0
220
0
230
1
0
LINE
5
143
100
AcDbEntity
8
2
62
256
6
ByLayer
370
13
48
1
60
0
100
AcDbLine
10
68.75006
20
7
30
0
11
69.168057
21
3.825002
31
0
39
0
210
0
220
0
230
1
0
LINE
5
144
100
AcDbEntity
8
2
62
256
6
ByLayer
370
13
48
1
60
0
100
AcDbLine
10
68.75006
20
7
30
0
11
68.332063
21
3.824998
31
0
39
0
210
0
220
0
230
1
0
LINE
5
145
100
AcDbEntity
8
2
62
256
6
ByLayer
370
13
48
1
60
0
100
AcDbLine
10
69.168057
20
3.825002
30
0
11
68.332063
21
3.824998
31
0
39
0
210
0
220
0
230
1
0
ENDBLK
5
147
100
AcDbEntity
8
0
100
AcDbBlockEnd
0
BLOCK
5
14C
100
AcDbEntity
8
0
100
AcDbBlockBegin
2
*D6
70
1
10
0
20
0
30
0
3
*D6
0
LINE
5
14E
100
AcDbEntity
8
0
62
256
6
ByLayer
370
-2
48
1
60
0
100
AcDbLine
10
-46.5875
20
7
30
0
11
-51.42494
21
7
31
0
39
0
210
0
220
0
230
1
0
LINE
5
14F
100
AcDbEntity
8
0
62
256
6
ByLayer
370
-2
48
1
60
0
100
AcDbLine
10
-46.5875
20
-7
30
0
11
-51.42494
21
-7
31
0
39
0
210
0
220
0
230
1
0
LINE
5
150
100
AcDbEntity
8
0
62
256
6
ByLayer
370
-2
48
1
60
0
100
AcDbLine
10
-48.24994
20
7
30
0
11
-48.24994
21
30.385141
31
0
39
0
210
0
220
0
230
1
0
LINE
5
151
100
AcDbEntity
8
0
62
256
6
ByLayer
370
-2
48
1
60
0
100
AcDbLine
10
-48.24994
20
10.175
30
0
11
-48.24994
21
13.35
31
0
39
0
210
0
220
0
230
1
0
LINE
5
152
100
AcDbEntity
8
0
62
256
6
ByLayer
370
-2
48
1
60
0
100
AcDbLine
10
-48.24994
20
-10.175
30
0
11
-48.24994
21
-13.35
31
0
39
0
210
0
220
0
230
1
0
SOLID
5
153
100
AcDbEntity
8
0
62
256
6
ByLayer
370
-1
48
1
60
0
100
AcDbTrace
10
-48.779107
20
10.175
30
0
11
-47.720773
21
10.175
31
0
12
-48.24994
22
7
32
0
13
-48.24994
23
7
33
0
39
0
210
0
220
0
230
1
0
SOLID
5
154
100
AcDbEntity
8
0
62
256
6
ByLayer
370
-1
48
1
60
0
100
AcDbTrace
10
-47.720773
20
-10.175
30
0
11
-48.779107
21
-10.175
31
0
12
-48.24994
22
-7
32
0
13
-48.24994
23
-7
33
0
39
0
210
0
220
0
230
1
0
MTEXT
5
155
100
AcDbEntity
8
0
62
256
6
ByLayer
370
18
48
1
60
0
100
AcDbMText
10
-55.556441
20
22.161943
30
0
210
0
220
0
230
1
1
\A1;14
40
3.50012
41
0
44
1
50
90
71
5
72
5
7
iso_b_vert
0
POINT
5
156
100
AcDbEntity
8
Defpoints
62
0
6
ByLayer
370
-1
48
1
60
0
100
AcDbPoint
10
-45
20
7
30
0
39
0
210
0
220
0
230
1
50
360
0
POINT
5
157
100
AcDbEntity
8
Defpoints
62
0
6
ByLayer
370
-1
48
1
60
0
100
AcDbPoint
10
-45
20
-7
30
0
39
0
210
0
220
0
230
1
50
360
0
POINT
5
158
100
AcDbEntity
8
Defpoints
62
0
6
ByLayer
370
-1
48
1
60
0
100
AcDbPoint
10
-48.24994
20
-7
30
0
39
0
210
0
220
0
230
1
50
360
0
ENDBLK
5
14D
100
AcDbEntity
8
0
100
AcDbBlockEnd
0
BLOCK
5
164
100
AcDbEntity
8
0
100
AcDbBlockBegin
2
_U2
70
0
10
0
20
0
30
0
3
_U2
0
MTEXT
5
15A
100
AcDbEntity
8
SK2
62
256
6
ByLayer
370
18
48
1
60
0
100
AcDbMText
10
-48.939597
20
17.157505
30
0
210
0
220
0
230
1
1
\W0.7091;14.00
40
3.50012
41
0
44
1.084337
50
90
71
7
72
5
7
iso_b_vert
0
LINE
5
15B
100
AcDbEntity
8
SK2
62
256
6
ByLayer
370
13
48
1
60
0
100
AcDbLine
10
-46.5875
20
7
30
0
11
-51.42494
21
7
31
0
39
0
210
0
220
0
230
1
0
LINE
5
15C
100
AcDbEntity
8
SK2
62
256
6
ByLayer
370
13
48
1
60
0
100
AcDbLine
10
-46.5875
20
-7
30
0
11
-51.42494
21
-7
31
0
39
0
210
0
220
0
230
1
0
LINE
5
15D
100
AcDbEntity
8
SK2
62
256
6
ByLayer
370
13
48
1
60
0
100
AcDbLine
10
-48.24994
20
-7
30
0
11
-48.24994
21
27.323885
31
0
39
0
210
0
220
0
230
1
0
LINE
5
15E
100
AcDbEntity
8
SK2
62
256
6
ByLayer
370
13
48
1
60
0
100
AcDbLine
10
-48.24994
20
7
30
0
11
-47.831943
21
3.825002
31
0
39
0
210
0
220
0
230
1
0
LINE
5
15F
100
AcDbEntity
8
SK2
62
256
6
ByLayer
370
13
48
1
60
0
100
AcDbLine
10
-48.24994
20
7
30
0
11
-48.667937
21
3.824998
31
0
39
0
210
0
220
0
230
1
0
LINE
5
160
100
AcDbEntity
8
SK2
62
256
6
ByLayer
370
13
48
1
60
0
100
AcDbLine
10
-47.831943
20
3.825002
30
0
11
-48.667937
21
3.824998
31
0
39
0
210
0
220
0
230
1
0
LINE
5
161
100
AcDbEntity
8
SK2
62
256
6
ByLayer
370
13
48
1
60
0
100
AcDbLine
10
-48.24994
20
-7
30
0
11
-48.667937
21
-3.825002
31
0
39
0
210
0
220
0
230
1
0
LINE
5
162
100
AcDbEntity
8
SK2
62
256
6
ByLayer
370
13
48
1
60
0
100
AcDbLine
10
-48.24994
20
-7
30
0
11
-47.831943
21
-3.824998
31
0
39
0
210
0
220
0
230
1
0
LINE
5
163
100
AcDbEntity
8
SK2
62
256
6
ByLayer
370
13
48
1
60
0
100
AcDbLine
10
-48.667937
20
-3.825002
30
0
11
-47.831943
21
-3.824998
31
0
39
0
210
0
220
0
230
1
0
ENDBLK
5
165
100
AcDbEntity
8
0
100
AcDbBlockEnd
0
BLOCK
5
16A
100
AcDbEntity
8
0
100
AcDbBlockBegin
2
*D8
70
1
10
0
20
0
30
0
3
*D8
0
LINE
5
16C
100
AcDbEntity
8
0
62
256
6
ByLayer
370
-2
48
1
60
0
100
AcDbLine
10
-45
20
-8.5875
30
0
11
-45
21
-33.67512
31
0
39
0
210
0
220
0
230
1
0
LINE
5
16D
100
AcDbEntity
8
0
62
256
6
ByLayer
370
-2
48
1
60
0
100
AcDbLine
10
0
20
-8.5875
30
0
11
0
21
-33.67512
31
0
39
0
210
0
220
0
230
1
0
LINE
5
16E
100
AcDbEntity
8
0
62
256
6
ByLayer
370
-2
48
1
60
0
100
AcDbLine
10
-41.825
20
-30.50012
30
0
11
-3.175
21
-30.50012
31
0
39
0
210
0
220
0
230
1
0
SOLID
5
16F
100
AcDbEntity
8
0
62
256
6
ByLayer
370
-1
48
1
60
0
100
AcDbTrace
10
-41.825
20
-29.970953
30
0
11
-41.825
21
-31.029287
31
0
12
-45
22
-30.50012
32
0
13
-45
23
-30.50012
33
0
39
0
210
0
220
0
230
1
0
SOLID
5
170
100
AcDbEntity
8
0
62
256
6
ByLayer
370
-1
48
1
60
0
100
AcDbTrace
10
-3.175
20
-31.029287
30
0
11
-3.175
21
-29.970953
31
0
12
0
22
-30.50012
32
0
13
0
23
-30.50012
33
0
39
0
210
0
220
0
230
1
0
MTEXT
5
171
100
AcDbEntity
8
0
62
256
6
ByLayer
370
18
48
1
60
0
100
AcDbMText
10
-22.5
20
-23.193619
30
0
210
0
220
0
230
1
1
\A1;45
40
3.50012
41
0
44
1
50
0
71
5
72
5
7
iso_b_vert
0
POINT
5
172
100
AcDbEntity
8
Defpoints
62
0
6
ByLayer
370
-1
48
1
60
0
100
AcDbPoint
10
-45
20
-7
30
0
39
0
210
0
220
0
230
1
50
360
0
POINT
5
173
100
AcDbEntity
8
Defpoints
62
0
6
ByLayer
370
-1
48
1
60
0
100
AcDbPoint
10
0
20
-7
30
0
39
0
210
0
220
0
230
1
50
360
0
POINT
5
174
100
AcDbEntity
8
Defpoints
62
0
6
ByLayer
370
-1
48
1
60
0
100
AcDbPoint
10
0
20
-30.50012
30
0
39
0
210
0
220
0
230
1
50
360
0
ENDBLK
5
16B
100
AcDbEntity
8
0
100
AcDbBlockEnd
0
BLOCK
5
180
100
AcDbEntity
8
0
100
AcDbBlockBegin
2
_U3
70
0
10
0
20
0
30
0
3
_U3
0
MTEXT
5
176
100
AcDbEntity
8
SK2
62
256
6
ByLayer
370
18
48
1
60
0
100
AcDbMText
10
-27.913884
20
-29.467451
30
0
210
0
220
0
230
1
1
\W0.7694;45.00
40
3.50012
41
0
44
1.084337
50
0
71
7
72
5
7
iso_b_vert
0
LINE
5
177
100
AcDbEntity
8
SK2
62
256
6
ByLayer
370
13
48
1
60
0
100
AcDbLine
10
-45
20
-8.5875
30
0
11
-45
21
-33.67512
31
0
39
0
210
0
220
0
230
1
0
LINE
5
178
100
AcDbEntity
8
SK2
62
256
6
ByLayer
370
13
48
1
60
0
100
AcDbLine
10
0
20
-8.5875
30
0
11
0
21
-33.67512
31
0
39
0
210
0
220
0
230
1
0
LINE
5
179
100
AcDbEntity
8
SK2
62
256
6
ByLayer
370
13
48
1
60
0
100
AcDbLine
10
-45
20
-30.50012
30
0
11
0
21
-30.50012
31
0
39
0
210
0
220
0
230
1
0
LINE
5
17A
100
AcDbEntity
8
SK2
62
256
6
ByLayer
370
13
48
1
60
0
100
AcDbLine
10
-45
20
-30.50012
30
0
11
-41.825002
21
-30.082123
31
0
39
0
210
0
220
0
230
1
0
LINE
5
17B
100
AcDbEntity
8
SK2
62
256
6
ByLayer
370
13
48
1
60
0
100
AcDbLine
10
-45
20
-30.50012
30
0
11
-41.824998
21
-30.918117
31
0
39
0
210
0
220
0
230
1
0
LINE
5
17C
100
AcDbEntity
8
SK2
62
256
6
ByLayer
370
13
48
1
60
0
100
AcDbLine
10
-41.825002
20
-30.082123
30
0
11
-41.824998
21
-30.918117
31
0
39
0
210
0
220
0
230
1
0
LINE
5
17D
100
AcDbEntity
8
SK2
62
256
6
ByLayer
370
13
48
1
60
0
100
AcDbLine
10
0
20
-30.50012
30
0
11
-3.174998
21
-30.918117
31
0
39
0
210
0
220
0
230
1
0
LINE
5
17E
100
AcDbEntity
8
SK2
62
256
6
ByLayer
370
13
48
1
60
0
100
AcDbLine
10
0
20
-30.50012
30
0
11
-3.175002
21
-30.082123
31
0
39
0
210
0
220
0
230
1
0
LINE
5
17F
100
AcDbEntity
8
SK2
62
256
6
ByLayer
370
13
48
1
60
0
100
AcDbLine
10
-3.174998
20
-30.918117
30
0
11
-3.175002
21
-30.082123
31
0
39
0
210
0
220
0
230
1
0
ENDBLK
5
181
100
AcDbEntity
8
0
100
AcDbBlockEnd
0
BLOCK
5
186
100
AcDbEntity
8
0
100
AcDbBlockBegin
2
*D10
70
1
10
0
20
0
30
0
3
*D10
0
LINE
5
188
100
AcDbEntity
8
0
62
256
6
ByLayer
370
-2
48
1
60
0
100
AcDbLine
10
2
20
5.9125
30
0
11
2
21
-24.92482
31
0
39
0
210
0
220
0
230
1
0
LINE
5
189
100
AcDbEntity
8
0
62
256
6
ByLayer
370
-2
48
1
60
0
100
AcDbLine
10
62
20
-1.5875
30
0
11
62
21
-24.92482
31
0
39
0
210
0
220
0
230
1
0
LINE
5
18A
100
AcDbEntity
8
0
62
256
6
ByLayer
370
-2
48
1
60
0
100
AcDbLine
10
5.175
20
-21.74982
30
0
11
58.825
21
-21.74982
31
0
39
0
210
0
220
0
230
1
0
SOLID
5
18B
100
AcDbEntity
8
0
62
256
6
ByLayer
370
-1
48
1
60
0
100
AcDbTrace
10
5.175
20
-21.220653
30
0
11
5.175
21
-22.278987
31
0
12
2
22
-21.74982
32
0
13
2
23
-21.74982
33
0
39
0
210
0
220
0
230
1
0
SOLID
5
18C
100
AcDbEntity
8
0
62
256
6
ByLayer
370
-1
48
1
60
0
100
AcDbTrace
10
58.825
20
-22.278987
30
0
11
58.825
21
-21.220653
31
0
12
62
22
-21.74982
32
0
13
62
23
-21.74982
33
0
39
0
210
0
220
0
230
1
0
MTEXT
5
18D
100
AcDbEntity
8
0
62
256
6
ByLayer
370
18
48
1
60
0
100
AcDbMText
10
32
20
-14.44332
30
0
210
0
220
0
230
1
1
\A1;60
40
3.50012
41
0
44
1
50
0
71
5
72
5
7
iso_b_vert
0
POINT
5
18E
100
AcDbEntity
8
Defpoints
62
0
6
ByLayer
370
-1
48
1
60
0
100
AcDbPoint
10
2
20
7.5
30
0
39
0
210
0
220
0
230
1
50
360
0
POINT
5
18F
100
AcDbEntity
8
Defpoints
62
0
6
ByLayer
370
-1
48
1
60
0
100
AcDbPoint
10
62
20
0
30
0
39
0
210
0
220
0
230
1
50
360
0
POINT
5
190
100
AcDbEntity
8
Defpoints
62
0
6
ByLayer
370
-1
48
1
60
0
100
AcDbPoint
10
62
20
-21.74982
30
0
39
0
210
0
220
0
230
1
50
360
0
ENDBLK
5
187
100
AcDbEntity
8
0
100
AcDbBlockEnd
0
BLOCK
5
19C
100
AcDbEntity
8
0
100
AcDbBlockBegin
2
_U4
70
0
10
0
20
0
30
0
3
_U4
0
MTEXT
5
192
100
AcDbEntity
8
SK2
62
256
6
ByLayer
370
18
48
1
60
0
100
AcDbMText
10
26.770389
20
-20.717151
30
0
210
0
220
0
230
1
1
\W0.7468;60.00
40
3.50012
41
0
44
1.084337
50
0
71
7
72
5
7
iso_b_vert
0
LINE
5
193
100
AcDbEntity
8
SK2
62
256
6
ByLayer
370
13
48
1
60
0
100
AcDbLine
10
2
20
5.9125
30
0
11
2
21
-24.92482
31
0
39
0
210
0
220
0
230
1
0
LINE
5
194
100
AcDbEntity
8
SK2
62
256
6
ByLayer
370
13
48
1
60
0
100
AcDbLine
10
62
20
-1.5875
30
0
11
62
21
-24.92482
31
0
39
0
210
0
220
0
230
1
0
LINE
5
195
100
AcDbEntity
8
SK2
62
256
6
ByLayer
370
13
48
1
60
0
100
AcDbLine
10
2
20
-21.74982
30
0
11
62
21
-21.74982
31
0
39
0
210
0
220
0
230
1
0
LINE
5
196
100
AcDbEntity
8
SK2
62
256
6
ByLayer
370
13
48
1
60
0
100
AcDbLine
10
2
20
-21.74982
30
0
11
5.174998
21
-21.331823
31
0
39
0
210
0
220
0
230
1
0
LINE
5
197
100
AcDbEntity
8
SK2
62
256
6
ByLayer
370
13
48
1
60
0
100
AcDbLine
10
2
20
-21.74982
30
0
11
5.175002
21
-22.167817
31
0
39
0
210
0
220
0
230
1
0
LINE
5
198
100
AcDbEntity
8
SK2
62
256
6
ByLayer
370
13
48
1
60
0
100
AcDbLine
10
5.174998
20
-21.331823
30
0
11
5.175002
21
-22.167817
31
0
39
0
210
0
220
0
230
1
0
LINE
5
199
100
AcDbEntity
8
SK2
62
256
6
ByLayer
370
13
48
1
60
0
100
AcDbLine
10
62
20
-21.74982
30
0
11
58.825002
21
-22.167817
31
0
39
0
210
0
220
0
230
1
0
LINE
5
19A
100
AcDbEntity
8
SK2
62
256
6
ByLayer
370
13
48
1
60
0
100
AcDbLine
10
62
20
-21.74982
30
0
11
58.824998
21
-21.331823
31
0
39
0
210
0
220
0
230
1
0
LINE
5
19B
100
AcDbEntity
8
SK2
62
256
6
ByLayer
370
13
48
1
60
0
100
AcDbLine
10
58.825002
20
-22.167817
30
0
11
58.824998
21
-21.331823
31
0
39
0
210
0
220
0
230
1
0
ENDBLK
5
19D
100
AcDbEntity
8
0
100
AcDbBlockEnd
0
BLOCK
5
1A2
100
AcDbEntity
8
0
100
AcDbBlockBegin
2
*D12
70
1
10
0
20
0
30
0
3
*D12
0
LINE
5
1A4
100
AcDbEntity
8
0
62
256
6
ByLayer
370
-2
48
1
60
0
100
AcDbLine
10
19
20
-8.5875
30
0
11
19
21
-14.32
31
0
39
0
210
0
220
0
230
1
0
LINE
5
1A5
100
AcDbEntity
8
0
62
256
6
ByLayer
370
-2
48
1
60
0
100
AcDbLine
10
62
20
-1.5875
30
0
11
62
21
-14.32
31
0
39
0
210
0
220
0
230
1
0
LINE
5
1A6
100
AcDbEntity
8
0
62
256
6
ByLayer
370
-2
48
1
60
0
100
AcDbLine
10
22.175
20
-13.82
30
0
11
58.825
21
-13.82
31
0
39
0
210
0
220
0
230
1
0
SOLID
5
1A7
100
AcDbEntity
8
0
62
256
6
ByLayer
370
-1
48
1
60
0
100
AcDbTrace
10
22.175
20
-13.290833
30
0
11
22.175
21
-14.349167
31
0
12
19
22
-13.82
32
0
13
19
23
-13.82
33
0
39
0
210
0
220
0
230
1
0
SOLID
5
1A8
100
AcDbEntity
8
0
62
256
6
ByLayer
370
-1
48
1
60
0
100
AcDbTrace
10
58.825
20
-14.349167
30
0
11
58.825
21
-13.290833
31
0
12
62
22
-13.82
32
0
13
62
23
-13.82
33
0
39
0
210
0
220
0
230
1
0
MTEXT
5
1A9
100
AcDbEntity
8
0
62
256
6
ByLayer
370
18
48
1
60
0
100
AcDbMText
10
40.5
20
-7.975
30
0
210
0
220
0
230
1
1
\A1;43
40
2.8
41
0
44
1
50
0
71
5
72
5
7
iso_b_vert
0
POINT
5
1AA
100
AcDbEntity
8
Defpoints
62
0
6
ByLayer
370
-1
48
1
60
0
100
AcDbPoint
10
19
20
-7
30
0
39
0
210
0
220
0
230
1
50
360
0
POINT
5
1AB
100
AcDbEntity
8
Defpoints
62
0
6
ByLayer
370
-1
48
1
60
0
100
AcDbPoint
10
62
20
0
30
0
39
0
210
0
220
0
230
1
50
360
0
POINT
5
1AC
100
AcDbEntity
8
Defpoints
62
0
6
ByLayer
370
-1
48
1
60
0
100
AcDbPoint
10
62
20
-13.82
30
0
39
0
210
0
220
0
230
1
50
360
0
ENDBLK
5
1A3
100
AcDbEntity
8
0
100
AcDbBlockEnd
0
BLOCK
5
1B8
100
AcDbEntity
8
0
100
AcDbBlockBegin
2
_U5
70
0
10
0
20
0
30
0
3
_U5
0
MTEXT
5
1AE
100
AcDbEntity
8
SK2
62
256
6
ByLayer
370
18
48
1
60
0
100
AcDbMText
10
36.169041
20
-13.973893
30
0
210
0
220
0
230
1
1
\W0.7694;43.00
40
2.8
41
0
44
1.084337
50
0
71
7
72
5
7
iso_b_vert
0
LINE
5
1AF
100
AcDbEntity
8
SK2
62
256
6
ByLayer
370
13
48
1
60
0
100
AcDbLine
10
19
20
-8.5875
30
0
11
19
21
-14.32
31
0
39
0
210
0
220
0
230
1
0
LINE
5
1B0
100
AcDbEntity
8
SK2
62
256
6
ByLayer
370
13
48
1
60
0
100
AcDbLine
10
62
20
-1.5875
30
0
11
62
21
-14.32
31
0
39
0
210
0
220
0
230
1
0
LINE
5
1B1
100
AcDbEntity
8
SK2
62
256
6
ByLayer
370
13
48
1
60
0
100
AcDbLine
10
19
20
-13.82
30
0
11
62
21
-13.82
31
0
39
0
210
0
220
0
230
1
0
LINE
5
1B2
100
AcDbEntity
8
SK2
62
256
6
ByLayer
370
13
48
1
60
0
100
AcDbLine
10
19
20
-13.82
30
0
11
22.174998
21
-13.402003
31
0
39
0
210
0
220
0
230
1
0
LINE
5
1B3
100
AcDbEntity
8
SK2
62
256
6
ByLayer
370
13
48
1
60
0
100
AcDbLine
10
19
20
-13.82
30
0
11
22.175002
21
-14.237997
31
0
39
0
210
0
220
0
230
1
0
LINE
5
1B4
100
AcDbEntity
8
SK2
62
256
6
ByLayer
370
13
48
1
60
0
100
AcDbLine
10
22.174998
20
-13.402003
30
0
11
22.175002
21
-14.237997
31
0
39
0
210
0
220
0
230
1
0
LINE
5
1B5
100
AcDbEntity
8
SK2
62
256
6
ByLayer
370
13
48
1
60
0
100
AcDbLine
10
62
20
-13.82
30
0
11
58.825002
21
-14.237997
31
0
39
0
210
0
220
0
230
1
0
LINE
5
1B6
100
AcDbEntity
8
SK2
62
256
6
ByLayer
370
13
48
1
60
0
100
AcDbLine
10
62
20
-13.82
30
0
11
58.824998
21
-13.402003
31
0
39
0
210
0
220
0
230
1
0
LINE
5
1B7
100
AcDbEntity
8
SK2
62
256
6
ByLayer
370
13
48
1
60
0
100
AcDbLine
10
58.825002
20
-14.237997
30
0
11
58.824998
21
-13.402003
31
0
39
0
210
0
220
0
230
1
0
ENDBLK
5
1B9
100
AcDbEntity
8
0
100
AcDbBlockEnd
0
BLOCK
5
1BE
100
AcDbEntity
8
0
100
AcDbBlockBegin
2
*D14
70
1
10
0
20
0
30
0
3
*D14
0
LINE
5
1C0
100
AcDbEntity
8
0
62
256
6
ByLayer
370
-2
48
1
60
0
100
AcDbLine
10
-45
20
-1.5875
30
0
11
-45
21
-43.67512
31
0
39
0
210
0
220
0
230
1
0
LINE
5
1C1
100
AcDbEntity
8
0
62
256
6
ByLayer
370
-2
48
1
60
0
100
AcDbLine
10
62
20
-1.5875
30
0
11
62
21
-43.67512
31
0
39
0
210
0
220
0
230
1
0
LINE
5
1C2
100
AcDbEntity
8
0
62
256
6
ByLayer
370
-2
48
1
60
0
100
AcDbLine
10
-41.825
20
-40.50012
30
0
11
58.825
21
-40.50012
31
0
39
0
210
0
220
0
230
1
0
SOLID
5
1C3
100
AcDbEntity
8
0
62
256
6
ByLayer
370
-1
48
1
60
0
100
AcDbTrace
10
-41.825
20
-39.970953
30
0
11
-41.825
21
-41.029287
31
0
12
-45
22
-40.50012
32
0
13
-45
23
-40.50012
33
0
39
0
210
0
220
0
230
1
0
SOLID
5
1C4
100
AcDbEntity
8
0
62
256
6
ByLayer
370
-1
48
1
60
0
100
AcDbTrace
10
58.825
20
-41.029287
30
0
11
58.825
21
-39.970953
31
0
12
62
22
-40.50012
32
0
13
62
23
-40.50012
33
0
39
0
210
0
220
0
230
1
0
MTEXT
5
1C5
100
AcDbEntity
8
0
62
256
6
ByLayer
370
18
48
1
60
0
100
AcDbMText
10
8.5
20
-33.19362
30
0
210
0
220
0
230
1
1
\A1;107
40
3.50012
41
0
44
1
50
0
71
5
72
5
7
iso_b_vert
0
POINT
5
1C6
100
AcDbEntity
8
Defpoints
62
0
6
ByLayer
370
-1
48
1
60
0
100
AcDbPoint
10
-45
20
0
30
0
39
0
210
0
220
0
230
1
50
360
0
POINT
5
1C7
100
AcDbEntity
8
Defpoints
62
0
6
ByLayer
370
-1
48
1
60
0
100
AcDbPoint
10
62
20
0
30
0
39
0
210
0
220
0
230
1
50
360
0
POINT
5
1C8
100
AcDbEntity
8
Defpoints
62
0
6
ByLayer
370
-1
48
1
60
0
100
AcDbPoint
10
62
20
-40.50012
30
0
39
0
210
0
220
0
230
1
50
360
0
ENDBLK
5
1BF
100
AcDbEntity
8
0
100
AcDbBlockEnd
0
BLOCK
5
1D4
100
AcDbEntity
8
0
100
AcDbBlockBegin
2
_U6
70
0
10
0
20
0
30
0
3
_U6
0
MTEXT
5
1CA
100
AcDbEntity
8
SK2
62
256
6
ByLayer
370
18
48
1
60
0
100
AcDbMText
10
2.400059
20
-39.467451
30
0
210
0
220
0
230
1
1
\W0.7022;107.00
40
3.50012
41
0
44
1.084337
50
0
71
7
72
5
7
iso_b_vert
0
LINE
5
1CB
100
AcDbEntity
8
SK2
62
256
6
ByLayer
370
13
48
1
60
0
100
AcDbLine
10
-45
20
-1.5875
30
0
11
-45
21
-43.67512
31
0
39
0
210
0
220
0
230
1
0
LINE
5
1CC
100
AcDbEntity
8
SK2
62
256
6
ByLayer
370
13
48
1
60
0
100
AcDbLine
10
62
20
-1.5875
30
0
11
62
21
-43.67512
31
0
39
0
210
0
220
0
230
1
0
LINE
5
1CD
100
AcDbEntity
8
SK2
62
256
6
ByLayer
370
13
48
1
60
0
100
AcDbLine
10
-45
20
-40.50012
30
0
11
62
21
-40.50012
31
0
39
0
210
0
220
0
230
1
0
LINE
5
1CE
100
AcDbEntity
8
SK2
62
256
6
ByLayer
370
13
48
1
60
0
100
AcDbLine
10
-45
20
-40.50012
30
0
11
-41.825002
21
-40.082123
31
0
39
0
210
0
220
0
230
1
0
LINE
5
1CF
100
AcDbEntity
8
SK2
62
256
6
ByLayer
370
13
48
1
60
0
100
AcDbLine
10
-45
20
-40.50012
30
0
11
-41.824998
21
-40.918117
31
0
39
0
210
0
220
0
230
1
0
LINE
5
1D0
100
AcDbEntity
8
SK2
62
256
6
ByLayer
370
13
48
1
60
0
100
AcDbLine
10
-41.825002
20
-40.082123
30
0
11
-41.824998
21
-40.918117
31
0
39
0
210
0
220
0
230
1
0
LINE
5
1D1
100
AcDbEntity
8
SK2
62
256
6
ByLayer
370
13
48
1
60
0
100
AcDbLine
10
62
20
-40.50012
30
0
11
58.825002
21
-40.918117
31
0
39
0
210
0
220
0
230
1
0
LINE
5
1D2
100
AcDbEntity
8
SK2
62
256
6
ByLayer
370
13
48
1
60
0
100
AcDbLine
10
62
20
-40.50012
30
0
11
58.824998
21
-40.082123
31
0
39
0
210
0
220
0
230
1
0
LINE
5
1D3
100
AcDbEntity
8
SK2
62
256
6
ByLayer
370
13
48
1
60
0
100
AcDbLine
10
58.825002
20
-40.918117
30
0
11
58.824998
21
-40.082123
31
0
39
0
210
0
220
0
230
1
0
ENDBLK
5
1D5
100
AcDbEntity
8
0
100
AcDbBlockEnd
0
ENDSEC
0
SECTION
2
ENTITIES
0
ARC
5
AE
100
AcDbEntity
8
SK2
62
256
6
ByLayer
370
13
48
1
60
0
100
AcDbCircle
39
0
10
62
20
0
30
0
40
20
210
0
220
0
230
1
100
AcDbArc
50
9.606349
51
69.99994
0
ARC
5
AF
100
AcDbEntity
8
SK2
62
256
6
ByLayer
370
13
48
1
60
0
100
AcDbCircle
39
0
10
62
20
0
30
0
40
20
210
0
220
0
230
1
100
AcDbArc
50
290.00006
51
350.393651
0
ELLIPSE
5
B0
100
AcDbEntity
8
1
62
256
6
ByLayer
370
18
48
1
60
0
100
AcDbEllipse
10
3.644995
20
6.470148
30
0
11
-0.00114308940864505
21
-0.00993445250649695
31
0
210
0
220
0
230
1
40
0.470539
41
0.24653062215257
42
1.81457712422659
0
ELLIPSE
5
B1
100
AcDbEntity
8
1
62
256
6
ByLayer
370
18
48
1
60
0
100
AcDbEllipse
10
3.601988
20
6.472391
30
0
11
-2.56669585143672E-05
21
0.00999996706030778
31
0
210
0
220
0
230
1
40
0.004005
41
-2.92624277493459
42
-1.35513582366551
0
POINT
5
70
100
AcDbEntity
8
80
62
256
6
ByLayer
370
18
48
1
60
0
100
AcDbPoint
10
0
20
0
30
0
39
0
210
0
220
0
230
1
50
360
0
POINT
5
72
100
AcDbEntity
8
81
62
256
6
ByLayer
370
18
48
1
60
0
100
AcDbPoint
10
62
20
0
30
0
39
0
210
0
220
0
230
1
50
360
0
POINT
5
74
100
AcDbEntity
8
1
62
256
6
ByLayer
370
18
48
1
60
0
100
AcDbPoint
10
-45
20
0
30
0
39
0
210
0
220
0
230
1
50
360
0
POINT
5
76
100
AcDbEntity
8
1
62
256
6
ByLayer
370
18
48
1
60
1
100
AcDbPoint
10
0
20
-7
30
0
39
0
210
0
220
0
230
1
50
360
0
POINT
5
77
100
AcDbEntity
8
1
62
256
6
ByLayer
370
18
48
1
60
1
100
AcDbPoint
10
62
20
0
30
0
39
0
210
0
220
0
230
1
50
360
0
POINT
5
78
100
AcDbEntity
8
1
62
256
6
ByLayer
370
18
48
1
60
1
100
AcDbPoint
10
59.4522
20
-7
30
0
39
0
210
0
220
0
230
1
50
360
0
POINT
5
79
100
AcDbEntity
8
1
62
256
6
ByLayer
370
18
48
1
60
1
100
AcDbPoint
10
59.4522
20
7
30
0
39
0
210
0
220
0
230
1
50
360
0
POINT
5
7A
100
AcDbEntity
8
1
62
256
6
ByLayer
370
18
48
1
60
1
100
AcDbPoint
10
-45
20
7
30
0
39
0
210
0
220
0
230
1
50
360
0
POINT
5
7B
100
AcDbEntity
8
1
62
256
6
ByLayer
370
18
48
1
60
1
100
AcDbPoint
10
-45
20
-7
30
0
39
0
210
0
220
0
230
1
50
360
0
POINT
5
7C
100
AcDbEntity
8
1
62
256
6
ByLayer
370
18
48
1
60
1
100
AcDbPoint
10
-45
20
-7
30
0
39
0
210
0
220
0
230
1
50
360
0
POINT
5
7D
100
AcDbEntity
8
1
62
256
6
ByLayer
370
18
48
1
60
1
100
AcDbPoint
10
0
20
-7
30
0
39
0
210
0
220
0
230
1
50
360
0
POINT
5
7E
100
AcDbEntity
8
1
62
256
6
ByLayer
370
18
48
1
60
1
100
AcDbPoint
10
2
20
7.5
30
0
39
0
210
0
220
0
230
1
50
360
0
POINT
5
7F
100
AcDbEntity
8
1
62
256
6
ByLayer
370
18
48
1
60
1
100
AcDbPoint
10
62
20
0
30
0
39
0
210
0
220
0
230
1
50
360
0
POINT
5
80
100
AcDbEntity
8
1
62
256
6
ByLayer
370
18
48
1
60
1
100
AcDbPoint
10
19
20
-7
30
0
39
0
210
0
220
0
230
1
50
360
0
POINT
5
81
100
AcDbEntity
8
1
62
256
6
ByLayer
370
18
48
1
60
1
100
AcDbPoint
10
62
20
0
30
0
39
0
210
0
220
0
230
1
50
360
0
POINT
5
82
100
AcDbEntity
8
1
62
256
6
ByLayer
370
18
48
1
60
1
100
AcDbPoint
10
-45
20
0
30
0
39
0
210
0
220
0
230
1
50
360
0
POINT
5
83
100
AcDbEntity
8
1
62
256
6
ByLayer
370
18
48
1
60
1
100
AcDbPoint
10
62
20
0
30
0
39
0
210
0
220
0
230
1
50
360
0
SPLINE
5
B2
100
AcDbEntity
8
1
62
256
6
ByLayer
370
18
48
1
60
0
100
AcDbSpline
70
4
71
3
72
66
73
62
40
0
40
0
40
0
40
0
40
0.0624999999999972
40
0.0624999999999972
40
0.124999999999994
40
0.124999999999994
40
0.156249999999993
40
0.156249999999993
40
0.187499999999992
40
0.187499999999992
40
0.218749999999991
40
0.218749999999991
40
0.24999999999999
40
0.24999999999999
40
0.281249999999989
40
0.281249999999989
40
0.296874999999989
40
0.296874999999989
40
0.312499999999988
40
0.312499999999988
40
0.328124999999988
40
0.328124999999988
40
0.343749999999987
40
0.343749999999987
40
0.374999999999986
40
0.374999999999986
40
0.390624999999986
40
0.390624999999986
40
0.406249999999985
40
0.406249999999985
40
0.437499999999984
40
0.437499999999984
40
0.453124999999984
40
0.453124999999984
40
0.468749999999984
40
0.468749999999984
40
0.499999999999983
40
0.499999999999983
40
0.562499999999981
40
0.562499999999981
40
0.624999999999978
40
0.624999999999978
40
0.632812499999978
40
0.632812499999978
40
0.634765624999978
40
0.634765624999978
40
0.636718749999978
40
0.636718749999978
40
0.638671874999978
40
0.638671874999978
40
0.640624999999978
40
0.640624999999978
40
0.656249999999979
40
0.656249999999979
40
0.687499999999981
40
0.687499999999981
40
0.749999999999985
40
0.749999999999985
40
0.874999999999993
40
0.874999999999993
40
1
40
1
40
1
40
1
41
1
10
6.64543335293712
20
-6.61808271287896
30
0
41
1
10
6.26082501151609
20
-6.6868869945321
30
0
41
1
10
5.88398397164576
20
-6.74881188070822
30
0
41
1
10
5.14938591260736
20
-6.85363075413517
30
0
41
1
10
4.79155699229153
20
-6.89662014391635
30
0
41
1
10
4.2737030383899
20
-6.94031280771503
30
0
41
1
10
4.10425820857262
20
-6.95137844288422
30
0
41
1
10
3.77302691525927
20
-6.96469528120917
30
0
41
1
10
3.61129647812405
20
-6.96690540418257
30
0
41
1
10
3.30213510810819
20
-6.96014181216992
30
0
41
1
10
3.15410918998583
20
-6.95121894104582
30
0
41
1
10
2.87428517200146
20
-6.91925150581667
30
0
41
1
10
2.74237337784984
20
-6.89606080630821
30
0
41
1
10
2.50515182419281
20
-6.83284627895009
30
0
41
1
10
2.39900475458501
20
-6.79280206026129
30
0
41
1
10
2.26309290464039
20
-6.71669153290804
30
0
41
1
10
2.22160714162038
20
-6.68855754187405
30
0
41
1
10
2.14795981810988
20
-6.62641367697378
30
0
41
1
10
2.11623449510105
20
-6.59279147149363
30
0
41
1
10
2.06347484186614
20
-6.5201752606423
30
0
41
1
10
2.04243945152959
20
-6.48118174247026
30
0
41
1
10
2.01169580389896
20
-6.39748947221267
30
-1E-16
41
1
10
2.001977080524
20
-6.35265202981017
30
-1E-16
41
1
10
1.99109521699634
20
-6.20985428232311
30
-1E-16
41
1
10
2.00820940163121
20
-6.10644790035713
30
-1E-16
41
1
10
2.06778995112219
20
-5.94000855362515
30
-1E-16
41
1
10
2.09339290642419
20
-5.88249692443333
30
-1E-16
41
1
10
2.15536770008936
20
-5.76439368323815
30
-1E-16
41
1
10
2.19128703205968
20
-5.70460649164102
30
-1E-16
41
1
10
2.31217352877022
20
-5.52333693414519
30
3E-16
41
1
10
2.4101885213114
20
-5.39995863822639
30
3E-16
41
1
10
2.57875659658475
20
-5.21198046868744
30
3E-16
41
1
10
2.63878460102362
20
-5.14862100078528
30
3E-16
41
1
10
2.76370102221057
20
-5.02282001341476
30
3E-16
41
1
10
2.82871560083544
20
-4.9602146479923
30
3E-16
41
1
10
3.0304863464417
20
-4.77322735940612
30
3E-16
41
1
10
3.17392512410061
20
-4.64967073177502
30
3E-16
41
1
10
3.6257750887915
20
-4.28203580102993
30
3E-16
41
1
10
3.95716933875821
20
-4.03994871255145
30
2E-16
41
1
10
4.64662476185498
20
-3.57281449710465
30
2E-16
41
1
10
5.00656356792499
20
-3.34633470979313
30
2E-16
41
1
10
5.42317314805121
20
-3.09886581017625
30
2E-16
41
1
10
5.46961436959029
20
-3.07147947354528
30
2E-16
41
1
10
5.52784745285692
20
-3.037383076526
30
2E-16
41
1
10
5.53940499222642
20
-3.03014372183574
30
2E-16
41
1
10
5.5650338178034
20
-3.02118483281802
30
2E-16
41
1
10
5.57886621765013
20
-3.01894710772857
30
2E-16
41
1
10
5.6062033212196
20
-3.01754837805407
30
2E-16
41
1
10
5.62005880821548
20
-3.01844563223611
30
2E-16
41
1
10
5.64728220122458
20
-3.02279398718525
30
2E-16
41
1
10
5.66066512955319
20
-3.02611589990303
30
2E-16
41
1
10
5.78172057269549
20
-3.05277343884327
30
2E-16
41
1
10
5.88910957506999
20
-3.07719544868007
30
2E-16
41
1
10
6.21058971119717
20
-3.15253907545568
30
2E-16
41
1
10
6.42400617724826
20
-3.20555389995232
30
2E-16
41
1
10
7.06093008791612
20
-3.37214073631978
30
2E-16
41
1
10
7.48157842718973
20
-3.49341749387588
30
2E-16
41
1
10
8.73046512435522
20
-3.88095274045676
30
2E-16
41
1
10
9.53942839083143
20
-4.16934760178131
30
3E-16
41
1
10
11.1233502625017
20
-4.75964759596619
30
3E-16
41
1
10
11.8983871894182
20
-5.06119292821251
30
3E-16
41
1
10
12.6659022662948
20
-5.34501513198373
30
3E-16
0
SPLINE
5
B3
100
AcDbEntity
8
1
62
256
6
ByLayer
370
18
48
1
60
0
100
AcDbSpline
70
4
71
3
72
66
73
62
40
0
40
0
40
0
40
0
40
0.0483454285649426
40
0.0483454285649426
40
0.0725181428474138
40
0.0725181428474138
40
0.0966908571298851
40
0.0966908571298851
40
0.145036285694828
40
0.145036285694828
40
0.169208999977299
40
0.169208999977299
40
0.193381714259771
40
0.193381714259771
40
0.241727142824714
40
0.241727142824714
40
0.290072571389657
40
0.290072571389657
40
0.3384179999546
40
0.3384179999546
40
0.386763428519543
40
0.386763428519543
40
0.410936142802014
40
0.410936142802014
40
0.435108857084486
40
0.435108857084486
40
0.48345428564943
40
0.48345428564943
40
0.507626999931902
40
0.507626999931902
40
0.531799714214374
40
0.531799714214374
40
0.555972428496846
40
0.555972428496846
40
0.580145142779318
40
0.580145142779318
40
0.628490571344261
40
0.628490571344261
40
0.652663285626732
40
0.652663285626732
40
0.676835999909203
40
0.676835999909203
40
0.725181428474146
40
0.725181428474146
40
0.749354142756617
40
0.749354142756617
40
0.773526857039089
40
0.773526857039089
40
0.82187228560403
40
0.82187228560403
40
0.8460449998865
40
0.8460449998865
40
0.87021771416897
40
0.87021771416897
40
0.91856314273391
40
0.91856314273391
40
0.966908571298851
40
0.966908571298851
40
0.991081285581321
40
0.991081285581321
40
1
40
1
40
1
40
1
41
1
10
3.65166877383496
20
6.80353064087109
30
0
41
1
10
4.22423548384472
20
6.73311761953556
30
0
41
1
10
4.79676586479911
20
6.6402042780706
30
0
41
1
10
5.65652808250758
20
6.46810638131134
30
0
41
1
10
5.94346686390611
20
6.40522052281372
30
1E-16
41
1
10
6.51608292775595
20
6.26878812344924
30
1E-16
41
1
10
6.80190801707323
20
6.19523283089933
30
1E-16
41
1
10
7.65923643564884
20
5.95964018828704
30
1E-16
41
1
10
8.2306006621281
20
5.78275560703585
30
1E-16
41
1
10
9.08867997666931
20
5.48910651769046
30
-3E-16
41
1
10
9.37486835827517
20
5.38649031357147
30
-3E-16
41
1
10
9.9475273295306
20
5.17160734922425
30
-3E-16
41
1
10
10.2339011956039
20
5.05931389159758
30
-3E-16
41
1
10
11.091831201426
20
4.71125482706694
30
-3E-16
41
1
10
11.6633845205543
20
4.46409854922135
30
-3E-16
41
1
10
12.8068537207466
20
3.94154990859227
30
-2E-16
41
1
10
13.3785388135297
20
3.66579174069147
30
-2E-16
41
1
10
14.5247018162897
20
3.08901419228121
30
-2E-16
41
1
10
15.0959675420356
20
2.78971840964553
30
-2E-16
41
1
10
16.2382865466909
20
2.17548210542023
30
-1E-16
41
1
10
16.8100777034189
20
1.86169694115949
30
-1E-16
41
1
10
17.6689529885525
20
1.38146880086066
30
-1E-16
41
1
10
17.9557437375046
20
1.21969834597903
30
-1E-16
41
1
10
18.5283528252891
20
0.893799288196675
30
-1E-16
41
1
10
18.8139563168148
20
0.72959763451783
30
0
41
1
10
19.6709544461764
20
0.237235044188168
30
0
41
1
10
20.2420757128511
20
-0.0914876181420254
30
0
41
1
10
21.0996034955806
20
-0.583262161159951
30
0
41
1
10
21.3856719324922
20
-0.746820557514667
30
0
41
1
10
21.9583613357558
20
-1.07302853381898
30
1E-16
41
1
10
22.2451066857476
20
-1.23585522579725
30
1E-16
41
1
10
22.8174374130651
20
-1.5586042698749
30
1E-16
41
1
10
23.1033263123988
20
-1.71855775275711
30
1E-16
41
1
10
23.6745637763105
20
-2.03561016024074
30
1E-16
41
1
10
23.9597651380723
20
-2.19294703493415
30
1E-16
41
1
10
24.8163916186757
20
-2.65761665261431
30
2E-16
41
1
10
25.38835046158
20
-2.95847417658175
30
2E-16
41
1
10
26.2479607815577
20
-3.3957577326843
30
2E-16
41
1
10
26.5344791769809
20
-3.53899231435619
30
2E-16
41
1
10
27.1061897343012
20
-3.81932529251583
30
2E-16
41
1
10
27.3914693890161
20
-3.95671833171153
30
2E-16
41
1
10
28.2480544849363
20
-4.35703970219834
30
3E-16
41
1
10
28.8196616407375
20
-4.60887886780762
30
3E-16
41
1
10
29.6778170735699
20
-4.96424705856791
30
3E-16
41
1
10
29.9641623803234
20
-5.07897190189234
30
3E-16
41
1
10
30.5366132369345
20
-5.30041786358512
30
3E-16
41
1
10
30.8222323843036
20
-5.40684499139664
30
3E-16
41
1
10
31.6793336124665
20
-5.71105773911029
30
3E-16
41
1
10
32.2508211134206
20
-5.89419326530947
30
-1E-16
41
1
10
33.1083306991266
20
-6.13959846387698
30
-1E-16
41
1
10
33.3941402694593
20
-6.21655727976125
30
-1E-16
41
1
10
33.9661281246973
20
-6.36031114919666
30
-1E-16
41
1
10
34.2526450078909
20
-6.42711062522417
30
-1E-16
41
1
10
35.1109710221534
20
-6.6108624740294
30
0
41
1
10
35.6814806302926
20
-6.71145772230619
30
0
41
1
10
36.8237754025892
20
-6.86690955719087
30
0
41
1
10
37.3956002343719
20
-6.92192313398857
30
0
41
1
10
38.254599211381
20
-6.97008828559811
30
0
41
1
10
38.541197064042
20
-6.98037816800229
30
0
41
1
10
38.932338152382
20
-6.9864347474709
30
0
41
1
10
39.0376845880918
20
-6.98726600102657
30
0
41
1
10
39.1430014384925
20
-6.9873002599148
30
0
0
SPLINE
5
B4
100
AcDbEntity
8
1
62
256
6
ByLayer
370
18
48
1
60
0
100
AcDbSpline
70
4
71
3
72
14
73
10
40
0
40
0
40
0
40
0
40
0.262904082384992
40
0.262904082384992
40
0.491927829520202
40
0.491927829520202
40
0.771559942853522
40
0.771559942853522
40
1
40
1
40
1
40
1
41
1
10
58.7082273415915
20
-0.284818728498408
30
0
41
1
10
58.7089556152782
20
-0.285156367527605
30
0
41
1
10
58.7096685298842
20
-0.285871107857361
30
0
41
1
10
58.7108601117679
20
-0.287627346478047
30
0
41
1
10
58.7113733087971
20
-0.288638231849376
30
0
41
1
10
58.7123616208379
20
-0.291141219382069
30
0
41
1
10
58.7128189546912
20
-0.292727643599136
30
0
41
1
10
58.7134148454757
20
-0.295790890051848
30
0
41
1
10
58.7136024523708
20
-0.297270543404437
30
0
41
1
10
58.7136745893325
20
-0.298752548219738
30
0
0
SPLINE
5
B5
100
AcDbEntity
8
1
62
256
6
ByLayer
370
18
48
1
60
0
100
AcDbSpline
70
4
71
3
72
8
73
4
40
0
40
0
40
0
40
0
40
1
40
1
40
1
40
1
41
1
10
59.556580573356
20
6.71822036266417
30
0
41
1
10
59.5603944611992
20
6.71565083036464
30
0
41
1
10
59.564208394863
20
6.71308095136581
30
0
41
1
10
59.5680223749913
20
6.71051072558186
30
0
0
SPLINE
5
B6
100
AcDbEntity
8
1
62
256
6
ByLayer
370
18
48
1
60
0
100
AcDbSpline
70
4
71
3
72
38
73
34
40
0
40
0
40
0
40
0
40
0.10436254776343
40
0.10436254776343
40
0.156543821645144
40
0.156543821645144
40
0.208725095526859
40
0.208725095526859
40
0.313087643290289
40
0.313087643290289
40
0.365268917172004
40
0.365268917172004
40
0.417450191053719
40
0.417450191053719
40
0.469631464935434
40
0.469631464935434
40
0.521812738817149
40
0.521812738817149
40
0.626175286580579
40
0.626175286580579
40
0.678356560462294
40
0.678356560462294
40
0.730537834344009
40
0.730537834344009
40
0.834900382107438
40
0.834900382107438
40
0.887081655989153
40
0.887081655989153
40
0.939262929870867
40
0.939262929870867
40
0.991444203752582
40
0.991444203752582
40
1
40
1
40
1
40
1
41
1
10
3.6498075742488
20
6.47202351475647
30
0
41
1
10
4.22691197496886
20
6.40602950308897
30
1E-16
41
1
10
4.80123014530736
20
6.31687566894257
30
1E-16
41
1
10
5.66010067644422
20
6.15244435505301
30
1E-16
41
1
10
5.94594480322263
20
6.09251828152191
30
1E-16
41
1
10
6.51676928337699
20
5.96325711047663
30
1E-16
41
1
10
6.80176629657581
20
5.89389900450388
30
1E-16
41
1
10
7.65659375839329
20
5.67099652432506
30
1E-16
41
1
10
8.2263103125197
20
5.50258662714828
30
1E-16
41
1
10
9.08198132595112
20
5.22332548656078
30
-3E-16
41
1
10
9.3673778953893
20
5.12580861903319
30
-3E-16
41
1
10
9.93838210341659
20
4.92249103501843
30
-3E-16
41
1
10
10.2239446469508
20
4.81672722121863
30
-3E-16
41
1
10
10.7963980960435
20
4.59671921151283
30
-3E-16
41
1
10
11.0833388139787
20
4.48242922491875
30
-3E-16
41
1
10
11.6588012230606
20
4.24578223882068
30
-3E-16
41
1
10
11.9475767112288
20
4.12331669219742
30
-3E-16
41
1
10
12.8147809855396
20
3.74538744749142
30
-2E-16
41
1
10
13.3896366055691
20
3.48128330404475
30
-2E-16
41
1
10
14.2488691239202
20
3.07017670582084
30
-2E-16
41
1
10
14.5348487261749
20
2.93067326216695
30
-2E-16
41
1
10
15.10605769339
20
2.64716948203792
30
-2E-16
41
1
10
15.391240502601
20
2.50313640294598
30
-2E-16
41
1
10
16.2467917691802
20
2.06565032293588
30
-1E-16
41
1
10
16.8173923284919
20
1.76704322555776
30
-1E-16
41
1
10
17.6740839937546
20
1.3110060398752
30
-1E-16
41
1
10
17.9598000233689
20
1.15766368036788
30
-1E-16
41
1
10
18.5314085111524
20
0.848345401875235
30
-1E-16
41
1
10
18.8171891313172
20
0.692242867029961
30
0
41
1
10
19.3902977692129
20
0.379106844226783
30
0
41
1
10
19.6775573363684
20
0.222011781352705
30
0
41
1
10
20.0127757703504
20
0.0387257827166252
30
0
41
1
10
20.0600291100253
20
0.0128883444483279
30
0
41
1
10
20.1073078045902
20
-0.012961847836948
30
0
0
SPLINE
5
B7
100
AcDbEntity
8
1
62
256
6
ByLayer
370
18
48
1
60
0
100
AcDbSpline
70
4
71
3
72
8
73
4
40
0
40
0
40
0
40
0
40
1
40
1
40
1
40
1
41
1
10
30
20
5.18902767602373
30
-3E-16
41
1
10
30
20
5.14571626853211
30
-3E-16
41
1
10
30
20
5.10080784354145
30
-3E-16
41
1
10
30
20
5.0543323502238
30
-3E-16
0
SPLINE
5
B8
100
AcDbEntity
8
1
62
256
6
ByLayer
370
18
48
1
60
0
100
AcDbSpline
70
4
71
3
72
8
73
4
40
0
40
0
40
0
40
0
40
1
40
1
40
1
40
1
41
1
10
61.9935448380525
20
0.386465484559807
30
0
41
1
10
61.9633089816477
20
0.285687033303475
30
0
41
1
10
61.9329220294698
20
0.184954702692494
30
0
41
1
10
61.9023845376308
20
0.0842683229787156
30
0
0
SPLINE
5
B9
100
AcDbEntity
8
1
62
256
6
ByLayer
370
18
48
1
60
0
100
AcDbSpline
70
4
71
3
72
8
73
4
40
0
40
0
40
0
40
0
40
1
40
1
40
1
40
1
41
1
10
61.4056606319177
20
-2.10249515433927
30
0
41
1
10
61.6068413863654
20
-1.53235338366594
30
0
41
1
10
61.8028278347817
20
-0.960352458375581
30
0
41
1
10
61.9935448380607
20
-0.386465484554833
30
0
0
SPLINE
5
BA
100
AcDbEntity
8
1
62
256
6
ByLayer
370
18
48
1
60
0
100
AcDbSpline
70
4
71
3
72
10
73
6
40
0
40
0
40
0
40
0
40
0.5
40
0.5
40
1
40
1
40
1
40
1
41
1
10
59.1073449974151
20
-6.90330617698447
30
0
41
1
10
59.1121464261934
20
-6.93067708134703
30
0
41
1
10
59.1167928000291
20
-6.95231674110619
30
0
41
1
10
59.1255454970968
20
-6.9839349723224
30
0
41
1
10
59.1297136997603
20
-6.9939198697929
30
0
41
1
10
59.133768314162
20
-6.99785887276067
30
0
0
SPLINE
5
BB
100
AcDbEntity
8
1
62
256
6
ByLayer
370
18
48
1
60
0
100
AcDbSpline
70
4
71
3
72
8
73
4
40
0
40
0
40
0
40
0
40
1
40
1
40
1
40
1
41
1
10
59.5565805733594
20
-6.7182203626619
30
0
41
1
10
59.5603944612014
20
-6.7156508303631
30
0
41
1
10
59.5642083948642
20
-6.71308095136504
30
0
41
1
10
59.5680223749913
20
-6.71051072558186
30
0
0
SPLINE
5
BC
100
AcDbEntity
8
1
62
256
6
ByLayer
370
18
48
1
60
0
100
AcDbSpline
70
4
71
3
72
8
73
4
40
0
40
0
40
0
40
0
40
1
40
1
40
1
40
1
41
1
10
58.5377743042163
20
-0.200801194552781
30
0
41
1
10
58.5173014531431
20
0.128389718581559
30
0
41
1
10
58.5073152810774
20
0.459519623620196
30
0
41
1
10
58.5126794526189
20
0.79298829425349
30
0
0
SPLINE
5
BD
100
AcDbEntity
8
1
62
256
6
ByLayer
370
18
48
1
60
0
100
AcDbSpline
70
4
71
3
72
52
73
48
40
0
40
0
40
0
40
0
40
0.0305922675124845
40
0.0305922675124845
40
0.105162093088446
40
0.105162093088446
40
0.142447005876427
40
0.142447005876427
40
0.161089462270417
40
0.161089462270417
40
0.179731918664407
40
0.179731918664407
40
0.254301744240368
40
0.254301744240368
40
0.32887156981633
40
0.32887156981633
40
0.347514026210321
40
0.347514026210321
40
0.366156482604311
40
0.366156482604311
40
0.403441395392292
40
0.403441395392292
40
0.478011220968254
40
0.478011220968254
40
0.515296133756234
40
0.515296133756234
40
0.533938590150225
40
0.533938590150225
40
0.552581046544216
40
0.552581046544216
40
0.701720697696142
40
0.701720697696142
40
0.720363154090134
40
0.720363154090134
40
0.739005610484125
40
0.739005610484125
40
0.776290523272107
40
0.776290523272107
40
0.850860348848072
40
0.850860348848072
40
0.888145261636055
40
0.888145261636055
40
0.906787718030046
40
0.906787718030046
40
0.925430174424037
40
0.925430174424037
40
1
40
1
40
1
40
1
41
1
10
50.1238622068423
20
-5.04606714292132
30
3E-16
41
1
10
49.6803096025017
20
-5.22319952910385
30
3E-16
41
1
10
49.2380939044058
20
-5.38966383360437
30
3E-16
41
1
10
47.7201318490074
20
-5.92294722656817
30
-1E-16
41
1
10
46.647544010339
20
-6.23385813358917
30
-1E-16
41
1
10
45.0304606618234
20
-6.58677831519938
30
0
41
1
10
44.4900620389411
20
-6.68550060363216
30
0
41
1
10
43.6755144940947
20
-6.80354332389965
30
0
41
1
10
43.4029086121777
20
-6.83795727624351
30
0
41
1
10
42.8586524010035
20
-6.89621609057954
30
0
41
1
10
42.5872419971868
20
-6.92006423930147
30
0
41
1
10
41.2329144855319
20
-7.01307287997605
30
0
41
1
10
40.1585353567005
20
-7.00362796143983
30
0
41
1
10
38.0088942712519
20
-6.82143977386389
30
0
41
1
10
36.9335752296562
20
-6.64874647624038
30
0
41
1
10
35.5771313778401
20
-6.33375974347268
30
-1E-16
41
1
10
35.3050271038914
20
-6.2657572463136
30
-1E-16
41
1
10
34.7600380497611
20
-6.12018568225142
30
-1E-16
41
1
10
34.4882779405593
20
-6.04292746871621
30
-1E-16
41
1
10
33.6749361270411
20
-5.79813574447277
30
-1E-16
41
1
10
33.1351005755987
20
-5.61775565848083
30
3E-16
41
1
10
31.5188321864143
20
-5.03011289421968
30
3E-16
41
1
10
30.4462611764222
20
-4.57563396836659
30
3E-16
41
1
10
28.830319778405
20
-3.81847252927594
30
2E-16
41
1
10
28.2904825665521
20
-3.55353373600312
30
2E-16
41
1
10
27.4771421644504
20
-3.13965683090265
30
2E-16
41
1
10
27.2054373059145
20
-2.9989434717549
30
2E-16
41
1
10
26.660550503478
20
-2.71238436586629
30
2E-16
41
1
10
26.3881868783254
20
-2.56696159020075
30
2E-16
41
1
10
23.945376315449
20
-1.24653126749803
30
1E-16
41
1
10
21.8137753404157
20
0.0206877901149483
30
0
41
1
10
19.3756376456726
20
1.40163639338908
30
-1E-16
41
1
10
19.1041606397418
20
1.55442572333882
30
-1E-16
41
1
10
18.5597590304755
20
1.85817145050945
30
-1E-16
41
1
10
18.2868344872776
20
2.00912330745783
30
-1E-16
41
1
10
17.4715884640244
20
2.4551489550459
30
-2E-16
41
1
10
16.9307818430849
20
2.74458942739702
30
-2E-16
41
1
10
15.3124404578708
20
3.58328042767928
30
-2E-16
41
1
10
14.2392358557047
20
4.10332918898632
30
-3E-16
41
1
10
12.6239387016457
20
4.8044286390757
30
-3E-16
41
1
10
12.0846327426526
20
5.02501925394506
30
-3E-16
41
1
10
11.2724626741777
20
5.33351016557472
30
-3E-16
41
1
10
11.001201022741
20
5.43260541144608
30
-3E-16
41
1
10
10.4573232349816
20
5.62291908867067
30
-3E-16
41
1
10
10.1843849234696
20
5.71422527368728
30
1E-16
41
1
10
8.82202362086522
20
6.14771512760979
30
1E-16
41
1
10
7.73661118364137
20
6.42275299673005
30
1E-16
41
1
10
6.64543248776243
20
6.61808264237487
30
0
0
SPLINE
5
BE
100
AcDbEntity
8
1
62
256
6
ByLayer
370
18
48
1
60
0
100
AcDbSpline
70
4
71
3
72
8
73
4
40
0
40
0
40
0
40
0
40
1
40
1
40
1
40
1
41
1
10
61.4056606319177
20
2.10249515433929
30
0
41
1
10
61.606841386365
20
1.53235338366687
30
0
41
1
10
61.8028278347811
20
0.960352458377429
30
0
41
1
10
61.9935448380598
20
0.38646548455759
30
0
0
SPLINE
5
BF
100
AcDbEntity
8
1
62
256
6
ByLayer
370
18
48
1
60
0
100
AcDbSpline
70
4
71
3
72
24
73
20
40
0
40
0
40
0
40
0
40
0.250000000000003
40
0.250000000000003
40
0.375000000000004
40
0.375000000000004
40
0.437500000000004
40
0.437500000000004
40
0.500000000000004
40
0.500000000000004
40
0.750000000000001
40
0.750000000000001
40
0.875
40
0.875
40
0.9375
40
0.9375
40
0.96875
40
0.96875
40
1
40
1
40
1
40
1
41
1
10
12.6659050302175
20
5.34501614808181
30
-3E-16
41
1
10
14.1238858834622
20
5.88399909361596
30
1E-16
41
1
10
15.5604065085682
20
6.29871200690792
30
1E-16
41
1
10
17.7166177001786
20
6.71326382578684
30
0
41
1
10
18.4356595364894
20
6.8168221302827
30
0
41
1
10
19.5187605763467
20
6.91768720004509
30
0
41
1
10
19.8805328453522
20
6.94223004474571
30
0
41
1
10
20.6063972336146
20
6.97269338068824
30
0
41
1
10
20.9713548264315
20
6.97859078499283
30
0
41
1
10
22.788573091816
20
6.96080259261748
30
0
41
1
10
24.2227880671901
20
6.79630108933199
30
0
41
1
10
26.3790173924332
20
6.34306246627574
30
1E-16
41
1
10
27.0984613847908
20
6.15749922059908
30
1E-16
41
1
10
28.1831035172157
20
5.82998089324789
30
1E-16
41
1
10
28.5455487839233
20
5.71260272708611
30
-3E-16
41
1
10
29.0910796825179
20
5.52450103660632
30
-3E-16
41
1
10
29.2734241058469
20
5.45973355493527
30
-3E-16
41
1
10
29.6371648925991
20
5.32690050192949
30
-3E-16
41
1
10
29.8187195272047
20
5.25878295708148
30
-3E-16
41
1
10
29.99999999999
20
5.18902767602756
30
-3E-16
0
SPLINE
5
C0
100
AcDbEntity
8
1
62
256
6
ByLayer
370
18
48
1
60
0
100
AcDbSpline
70
4
71
3
72
8
73
4
40
0
40
0
40
0
40
0
40
1
40
1
40
1
40
1
41
1
10
3.64502758680089
20
6.46038222152478
30
0
41
1
10
3.63181638901227
20
6.46190002938729
30
0
41
1
10
3.61708706041245
20
6.46266123101924
30
0
41
1
10
3.60202151017728
20
6.46262253696221
30
0
0
SPLINE
5
C1
100
AcDbEntity
8
1
62
256
6
ByLayer
370
18
48
1
60
0
100
AcDbSpline
70
4
71
3
72
14
73
10
40
0
40
0
40
0
40
0
40
0.512951900879223
40
0.512951900879223
40
0.769427851318833
40
0.769427851318833
40
0.897665826538638
40
0.897665826538638
40
1
40
1
40
1
40
1
41
1
10
12.6659050302175
20
-5.34501614808181
30
3E-16
41
1
10
14.1238858834623
20
-5.88399909361596
30
-1E-16
41
1
10
15.5604065085683
20
-6.29871200690795
30
-1E-16
41
1
10
17.7166177001787
20
-6.71326382578687
30
0
41
1
10
18.4356595364895
20
-6.8168221302827
30
0
41
1
10
19.5187605763469
20
-6.91768720004509
30
0
41
1
10
19.8805328453523
20
-6.94223004474571
30
0
41
1
10
20.5330856923774
20
-6.96961661573698
30
0
41
1
10
20.8239961340425
20
-6.97582739103964
30
0
41
1
10
21.1143977661193
20
-6.97603266186798
30
0
0
SPLINE
5
C2
100
AcDbEntity
8
1
62
256
6
ByLayer
370
18
48
1
60
0
100
AcDbSpline
70
4
71
3
72
12
73
8
40
0
40
0
40
0
40
0
40
0.499999999999966
40
0.499999999999966
40
0.749999999999983
40
0.749999999999983
40
1
40
1
40
1
40
1
41
1
10
3.50168517929959
20
6.54048413232181
30
0
41
1
10
3.50168517929959
20
6.52271577932336
30
0
41
1
10
3.50934327236337
20
6.50471517042627
30
0
41
1
10
3.53456652543144
20
6.4820288647096
30
0
41
1
10
3.54527969516434
20
6.47530440818178
30
0
41
1
10
3.57125058738222
20
6.46549554623215
30
0
41
1
10
3.58639593824611
20
6.4625812920992
30
0
41
1
10
3.60202151017728
20
6.46262253696221
30
0
0
SPLINE
5
C3
100
AcDbEntity
8
1
62
256
6
ByLayer
370
18
48
1
60
0
100
AcDbSpline
70
4
71
3
72
8
73
4
40
0
40
0
40
0
40
0
40
1
40
1
40
1
40
1
41
1
10
60.8261174943811
20
-0.736015256712221
30
0
41
1
10
60.5797105383022
20
-0.0782600094804025
30
0
41
1
10
60.2660677445562
20
0.62338342135439
30
0
41
1
10
59.8869313240445
20
1.36777780787091
30
-1E-16
0
SPLINE
5
C4
100
AcDbEntity
8
1
62
256
6
ByLayer
370
18
48
1
60
0
100
AcDbSpline
70
4
71
3
72
8
73
4
40
0
40
0
40
0
40
0
40
1
40
1
40
1
40
1
41
1
10
3.64980757424868
20
6.4720235147565
30
0
41
1
10
3.6351311197167
20
6.47371578216385
30
0
41
1
10
3.61876388778396
20
6.47456899049081
30
0
41
1
10
3.60202151017728
20
6.47453151985391
30
0
0
SPLINE
5
C5
100
AcDbEntity
8
1
62
256
6
ByLayer
370
18
48
1
60
0
100
AcDbSpline
70
4
71
3
72
32
73
28
40
0
40
0
40
0
40
0
40
0.370920061700041
40
0.370920061700041
40
0.596642016058489
40
0.596642016058489
40
0.741854161970034
40
0.741854161970034
40
0.834987705267073
40
0.834987705267073
40
0.894801024066975
40
0.894801024066975
40
0.933167924509617
40
0.933167924509617
40
0.957806508474222
40
0.957806508474222
40
0.973724772038469
40
0.973724772038469
40
0.984021121930246
40
0.984021121930246
40
0.990596698333313
40
0.990596698333313
40
0.994722517870587
40
0.994722517870587
40
0.998894227302976
40
0.998894227302976
40
1
40
1
40
1
40
1
41
1
10
59.1337683141781
20
6.99785887274956
30
0
41
1
10
59.1858799580228
20
6.96402513576163
30
0
41
1
10
59.2380561866877
20
6.9299080003747
30
0
41
1
10
59.3221048293384
20
6.87457217827733
30
0
41
1
10
59.3539315630204
20
6.85353124755358
30
0
41
1
10
59.4062869764346
20
6.81877882347277
30
0
41
1
10
59.42679670486
20
6.80512979537724
30
0
41
1
10
59.4604603952296
20
6.78267085200724
30
0
41
1
10
59.4736125955519
20
6.77388226046489
30
0
41
1
10
59.4952123435661
20
6.75942567163588
30
0
41
1
10
59.5036623265474
20
6.75376424403109
30
0
41
1
10
59.5175555552147
20
6.74444602118479
30
0
41
1
10
59.5229925780748
20
6.7407969042176
30
0
41
1
10
59.5319270705922
20
6.73479654866537
30
0
41
1
10
59.5354203966924
20
6.73244951323071
30
0
41
1
10
59.5411543366115
20
6.72859569142165
30
0
41
1
10
59.5434007522433
20
6.72708550167386
30
0
41
1
10
59.5470882535619
20
6.72460593961142
30
0
41
1
10
59.5485296097207
20
6.72363662197426
30
0
41
1
10
59.5509143814722
20
6.72203236353815
30
0
41
1
10
59.5518504997497
20
6.7214025018281
30
0
41
1
10
59.5533892105847
20
6.72036696193192
30
0
41
1
10
59.5539860359677
20
6.71996525500629
30
0
41
1
10
59.5551564583864
20
6.71917762292014
30
0
41
1
10
59.5557472481462
20
6.71878011060986
30
0
41
1
10
59.556354280692
20
6.71837226263793
30
0
41
1
10
59.5564742495362
20
6.71829170150122
30
0
41
1
10
59.5565805733559
20
6.71822036266428
30
0
0
SPLINE
5
C6
100
AcDbEntity
8
1
62
256
6
ByLayer
370
18
48
1
60
0
100
AcDbSpline
70
4
71
3
72
8
73
4
40
0
40
0
40
0
40
0
40
1
40
1
40
1
40
1
41
1
10
59.5023647257645
20
-6.60070650812693
30
0
41
1
10
59.4912556328506
20
-6.6327443738958
30
0
41
1
10
59.4801997104137
20
-6.66478015272651
30
0
41
1
10
59.4691980847206
20
-6.6968142156696
30
0
0
SPLINE
5
C7
100
AcDbEntity
8
1
62
256
6
ByLayer
370
18
48
1
60
0
100
AcDbSpline
70
4
71
3
72
14
73
10
40
0
40
0
40
0
40
0
40
0.641596992312194
40
0.641596992312194
40
0.801996240390237
40
0.801996240390237
40
0.962395488468278
40
0.962395488468278
40
1
40
1
40
1
40
1
41
1
10
59.8869313240445
20
1.36777780787091
30
-1E-16
41
1
10
59.7465877577785
20
1.44965600527183
30
-1E-16
41
1
10
59.6086724989221
20
1.52474152140258
30
-1E-16
41
1
10
59.4529893813443
20
1.59331929415197
30
-1E-16
41
1
10
59.4226631504697
20
1.60577776940065
30
-1E-16
41
1
10
59.3636504332448
20
1.62815115176014
30
-1E-16
41
1
10
59.3350135052325
20
1.63798918408472
30
-1E-16
41
1
10
59.3000495908769
20
1.64953375586867
30
-1E-16
41
1
10
59.2934421077024
20
1.65166785189183
30
-1E-16
41
1
10
59.286873752522
20
1.65373787294916
30
-1E-16
0
SPLINE
5
C8
100
AcDbEntity
8
1
62
256
6
ByLayer
370
18
48
1
60
0
100
AcDbSpline
70
4
71
3
72
44
73
40
40
0
40
0
40
0
40
0
40
0.0366770845207667
40
0.0366770845207667
40
0.110778847249938
40
0.110778847249938
40
0.147829728614524
40
0.147829728614524
40
0.18488060997911
40
0.18488060997911
40
0.258982372708284
40
0.258982372708284
40
0.296033254072871
40
0.296033254072871
40
0.333084135437457
40
0.333084135437457
40
0.407185898166629
40
0.407185898166629
40
0.444236779531215
40
0.444236779531215
40
0.481287660895802
40
0.481287660895802
40
0.555389423624974
40
0.555389423624974
40
0.629491186354147
40
0.629491186354147
40
0.666542067718733
40
0.666542067718733
40
0.703592949083319
40
0.703592949083319
40
0.77769471181249
40
0.77769471181249
40
0.814745593177075
40
0.814745593177075
40
0.851796474541661
40
0.851796474541661
40
0.92589823727083
40
0.92589823727083
40
1
40
1
40
1
40
1
41
1
10
35.4047345026047
20
6.65708014954865
30
0
41
1
10
35.6873990333993
20
6.70663932593592
30
0
41
1
10
35.9699354031514
20
6.75071275945572
30
0
41
1
10
36.8237754025936
20
6.86690955719135
30
0
41
1
10
37.3956002343763
20
6.92192313398894
30
0
41
1
10
38.2545992113856
20
6.97008828559831
30
0
41
1
10
38.5411970640466
20
6.98037816800243
30
0
41
1
10
39.1126406156662
20
6.98922662035204
30
0
41
1
10
39.3978270440268
20
6.98776603021139
30
0
41
1
10
40.2543660781483
20
6.96597500570729
30
0
41
1
10
40.8257950457038
20
6.92838945507918
30
0
41
1
10
41.6835660964883
20
6.83756667855019
30
0
41
1
10
41.9696047671375
20
6.80153094817948
30
0
41
1
10
42.5420689343733
20
6.71779419258925
30
0
41
1
10
42.8278449064522
20
6.67016518588793
30
0
41
1
10
43.6852365714881
20
6.51144359249386
30
0
41
1
10
44.2562807778466
20
6.38404455484601
30
1E-16
41
1
10
45.1131869709723
20
6.16158682638184
30
1E-16
41
1
10
45.3988065149719
20
6.08214100384362
30
1E-16
41
1
10
45.9702510284162
20
5.91271927525261
30
1E-16
41
1
10
46.2564629101455
20
5.82276699791174
30
1E-16
41
1
10
47.1151638000287
20
5.53926161724644
30
-3E-16
41
1
10
47.6866153102969
20
5.33214006463677
30
-3E-16
41
1
10
48.8287222091841
20
4.88340397994966
30
-3E-16
41
1
10
49.3991167334482
20
4.6413786059463
30
-3E-16
41
1
10
50.2571716410699
20
4.25600569224798
30
-3E-16
41
1
10
50.5437635094312
20
4.12367970016123
30
-3E-16
41
1
10
51.1156576015835
20
3.8528062800784
30
-2E-16
41
1
10
51.4012477212778
20
3.71423115560521
30
-2E-16
41
1
10
52.257749313269
20
3.29034935511041
30
-2E-16
41
1
10
52.8281917776698
20
2.99661632761342
30
-2E-16
41
1
10
53.6841140577846
20
2.54095543312141
30
-2E-16
41
1
10
53.9694539534174
20
2.38653466765186
30
-1E-16
41
1
10
54.5405898339899
20
2.07320017474478
30
-1E-16
41
1
10
54.8269231029121
20
1.91448723428493
30
-1E-16
41
1
10
55.685355329289
20
1.43540126018266
30
-1E-16
41
1
10
56.256367581563
20
1.11182381071569
30
-1E-16
41
1
10
57.3973291445163
20
0.458911146986964
30
0
41
1
10
57.9672379038879
20
0.129502513186082
30
0
41
1
10
58.537774304223
20
-0.200801194551445
30
0
0
SPLINE
5
C9
100
AcDbEntity
8
1
62
256
6
ByLayer
370
18
48
1
60
0
100
AcDbSpline
70
4
71
3
72
28
73
24
40
0
40
0
40
0
40
0
40
0.0167326868246287
40
0.0167326868246287
40
0.10788567754772
40
0.10788567754772
40
0.290191658993903
40
0.290191658993903
40
0.381344649716994
40
0.381344649716994
40
0.42692114507854
40
0.42692114507854
40
0.472497640440085
40
0.472497640440085
40
0.65480362188627
40
0.65480362188627
40
0.837109603332454
40
0.837109603332454
40
0.882686098694
40
0.882686098694
40
0.928262594055546
40
0.928262594055546
40
1
40
1
40
1
40
1
41
1
10
23.151425242253
20
-6.63705997610319
30
0
41
1
10
23.0437306053706
20
-6.6376240912798
30
0
41
1
10
22.9359682145024
20
-6.63740164259255
30
0
41
1
10
22.2409705566832
20
-6.63089191268392
30
0
41
1
10
21.657019240856
20
-6.60201145176555
30
0
41
1
10
19.9108372205072
20
-6.44802956706439
30
0
41
1
10
18.754208764552
20
-6.25564396193536
30
-1E-16
41
1
10
17.0145661686019
20
-5.84264456483726
30
-1E-16
41
1
10
16.4338078219694
20
-5.68436042653488
30
-1E-16
41
1
10
15.5593154613429
20
-5.41734900701763
30
-1E-16
41
1
10
15.267274974784
20
-5.32341715146944
30
-1E-16
41
1
10
14.681823691488
20
-5.12591965825348
30
3E-16
41
1
10
14.3878347893842
20
-5.02213266394642
30
3E-16
41
1
10
12.9211076627584
20
-4.4828045819618
30
3E-16
41
1
10
11.7604155554657
20
-3.98714672502354
30
2E-16
41
1
10
9.44158707409539
20
-2.90387465882213
30
2E-16
41
1
10
8.28402967032176
20
-2.31546059251511
30
1E-16
41
1
10
6.82530883604286
20
-1.54484105532868
30
1E-16
41
1
10
6.53297118347817
20
-1.38896301462648
30
1E-16
41
1
10
5.94683417843356
20
-1.07417608596856
30
1E-16
41
1
10
5.65275791353531
20
-0.915104795859122
30
1E-16
41
1
10
4.89679116571708
20
-0.504596994425327
30
0
41
1
10
4.43481929254847
20
-0.25223473455253
30
0
41
1
10
3.97247853028625
20
0.0002400800818805
30
0
0
SPLINE
5
CA
100
AcDbEntity
8
1
62
256
6
ByLayer
370
18
48
1
60
0
100
AcDbSpline
70
4
71
3
72
10
73
6
40
0
40
0
40
0
40
0
40
0.5
40
0.5
40
1
40
1
40
1
40
1
41
1
10
59.5680223749914
20
-6.7105107255818
30
0
41
1
10
59.5455333455467
20
-6.72539847002076
30
0
41
1
10
59.5265945652547
20
-6.73154881995976
30
0
41
1
10
59.4941408072115
20
-6.72682406427236
30
0
41
1
10
59.4806051140993
20
-6.7157799200123
30
0
41
1
10
59.4691980847205
20
-6.69681421566966
30
0
0
SPLINE
5
CB
100
AcDbEntity
8
1
62
256
6
ByLayer
370
18
48
1
60
0
100
AcDbSpline
70
4
71
3
72
30
73
26
40
0
40
0
40
0
40
0
40
0.125
40
0.125
40
0.1875
40
0.1875
40
0.25
40
0.25
40
0.375
40
0.375
40
0.4375
40
0.4375
40
0.5
40
0.5
40
0.625
40
0.625
40
0.6875
40
0.6875
40
0.75
40
0.75
40
0.875
40
0.875
40
0.9375
40
0.9375
40
1
40
1
40
1
40
1
41
1
10
3.60202151017728
20
6.46262253696221
30
0
41
1
10
3.60201097016795
20
6.38422488585678
30
1E-16
41
1
10
3.60199944849674
20
6.27682420805175
30
1E-16
41
1
10
3.60198157289088
20
6.07245049004888
30
1E-16
41
1
10
3.60197551684479
20
5.99709072357751
30
1E-16
41
1
10
3.60196342304937
20
5.83309852668586
30
1E-16
41
1
10
3.60195735600757
20
5.74405899185319
30
1E-16
41
1
10
3.60193940641329
20
5.45837723959244
30
1E-16
41
1
10
3.60192785662775
20
5.24457378217775
30
-3E-16
41
1
10
3.60191144772688
20
4.89002867148707
30
-3E-16
41
1
10
3.60190612780059
20
4.76617737264684
30
-3E-16
41
1
10
3.60189580266635
20
4.5069831930754
30
-3E-16
41
1
10
3.60189078740535
20
4.37134401661612
30
-3E-16
41
1
10
3.60187627045684
20
3.94855480410189
30
-2E-16
41
1
10
3.60186743272843
20
3.64946614913399
30
-2E-16
41
1
10
3.60185507254201
20
3.1750948697283
30
-2E-16
41
1
10
3.60185110297098
20
3.01271503934808
30
-2E-16
41
1
10
3.60184347477437
20
2.68418932368633
30
-2E-16
41
1
10
3.60183980038153
20
2.51745578323866
30
-2E-16
41
1
10
3.60182901293103
20
2.00997090623253
30
-1E-16
41
1
10
3.60182214515356
20
1.66198503396157
30
-1E-16
41
1
10
3.60181146037868
20
1.125126732648
30
-1E-16
41
1
10
3.60180782717015
20
0.943439991109528
30
-1E-16
41
1
10
3.6018003514881
20
0.579686140716973
30
0
41
1
10
3.60179649817621
20
0.397061948803838
30
0
41
1
10
3.60179244108227
20
0.213685844837215
30
0
0
SPLINE
5
CC
100
AcDbEntity
8
1
62
256
6
ByLayer
370
18
48
1
60
0
100
AcDbSpline
70
4
71
3
72
8
73
4
40
0
40
0
40
0
40
0
40
1
40
1
40
1
40
1
41
1
10
59.1073449974181
20
-6.903306176981
30
0
41
1
10
59.2275996593749
20
-6.83608547436785
30
0
41
1
10
59.3481970395861
20
-6.76724292086979
30
0
41
1
10
59.4691980847206
20
-6.69681421566958
30
0
0
SPLINE
5
CD
100
AcDbEntity
8
1
62
256
6
ByLayer
370
18
48
1
60
0
100
AcDbSpline
70
4
71
3
72
24
73
20
40
0
40
0
40
0
40
0
40
0.367072411184543
40
0.367072411184543
40
0.412956462582611
40
0.412956462582611
40
0.458840513980679
40
0.458840513980679
40
0.550608616776812
40
0.550608616776812
40
0.73414482236908
40
0.73414482236908
40
0.825912925165213
40
0.825912925165213
40
0.871796976563279
40
0.871796976563279
40
0.917681027961346
40
0.917681027961346
40
1
40
1
40
1
40
1
41
1
10
58.5126794526189
20
0.792988294258151
30
0
41
1
10
56.3489241746311
20
2.03512802347424
30
-1E-16
41
1
10
54.2183009015065
20
3.21866123234187
30
-2E-16
41
1
10
51.7737654601449
20
4.34373081193939
30
-3E-16
41
1
10
51.500971465573
20
4.46603934819899
30
-3E-16
41
1
10
50.9570831185832
20
4.70287360059876
30
-3E-16
41
1
10
50.6858396107854
20
4.81752213042594
30
-3E-16
41
1
10
49.8738261651616
20
5.14982280259392
30
-3E-16
41
1
10
49.3346988813522
20
5.35572502090488
30
-3E-16
41
1
10
47.7201318490074
20
5.92294722656817
30
1E-16
41
1
10
46.6475440103389
20
6.23385813358917
30
1E-16
41
1
10
45.0304606618235
20
6.58677831519941
30
0
41
1
10
44.4900620389411
20
6.68550060363216
30
0
41
1
10
43.6755144940947
20
6.80354332389965
30
0
41
1
10
43.4029086121777
20
6.83795727624351
30
0
41
1
10
42.8586524010035
20
6.89621609057954
30
0
41
1
10
42.5872419971868
20
6.92006423930147
30
0
41
1
10
41.8304261693455
20
6.97203867737701
30
0
41
1
10
41.3463030181402
20
6.98854318000241
30
0
41
1
10
40.8631476965863
20
6.98837821344787
30
0
0
SPLINE
5
CE
100
AcDbEntity
8
1
62
256
6
ByLayer
370
18
48
1
60
0
100
AcDbSpline
70
4
71
3
72
14
73
10
40
0
40
0
40
0
40
0
40
0.0794721876478894
40
0.0794721876478894
40
0.232893489706574
40
0.232893489706574
40
0.38631479176526
40
0.38631479176526
40
1
40
1
40
1
40
1
41
1
10
11.9634810827509
20
-5.06790874230899
30
3E-16
41
1
10
11.8235116583819
20
-5.12314621101476
30
3E-16
41
1
10
11.6834206462112
20
-5.17741379567013
30
3E-16
41
1
10
11.2724626741777
20
-5.33351016557475
30
3E-16
41
1
10
11.001201022741
20
-5.43260541144608
30
3E-16
41
1
10
10.4573232349816
20
-5.6229190886707
30
3E-16
41
1
10
10.1843849234696
20
-5.7142252736873
30
-1E-16
41
1
10
8.8220236208652
20
-6.14771512760979
30
-1E-16
41
1
10
7.73661118364134
20
-6.42275299673005
30
-1E-16
41
1
10
6.64543248776243
20
-6.61808264237487
30
0
0
SPLINE
5
CF
100
AcDbEntity
8
1
62
256
6
ByLayer
370
18
48
1
60
0
100
AcDbSpline
70
4
71
3
72
9
73
5
40
0
40
0
40
0
40
0
40
0.322990929123752
40
1
40
1
40
1
40
1
41
1
10
12.6659050302186
20
5.34501614808488
30
-3E-16
41
1
10
12.6467770576854
20
5.29004940099207
30
-3E-16
41
1
10
12.5877226724393
20
5.1205345573741
30
-3E-16
41
1
10
12.5290393800638
20
4.95310335653372
30
-3E-16
41
1
10
12.4881903078921
20
4.84096075350772
30
-3E-16
0
SPLINE
5
D0
100
AcDbEntity
8
1
62
256
6
ByLayer
370
18
48
1
60
0
100
AcDbSpline
70
2053
71
3
72
64
73
60
40
0
40
0
40
0
40
0
40
0.0625000000000008
40
0.0625000000000008
40
0.125000000000001
40
0.125000000000001
40
0.187500000000002
40
0.187500000000002
40
0.218750000000003
40
0.218750000000003
40
0.250000000000003
40
0.250000000000003
40
0.281250000000003
40
0.281250000000003
40
0.296875000000004
40
0.296875000000004
40
0.312500000000004
40
0.312500000000004
40
0.343750000000004
40
0.343750000000004
40
0.375000000000004
40
0.375000000000004
40
0.406250000000004
40
0.406250000000004
40
0.437500000000004
40
0.437500000000004
40
0.468750000000004
40
0.468750000000004
40
0.500000000000004
40
0.500000000000004
40
0.531250000000003
40
0.531250000000003
40
0.562500000000003
40
0.562500000000003
40
0.593750000000003
40
0.593750000000003
40
0.625000000000003
40
0.625000000000003
40
0.656250000000003
40
0.656250000000003
40
0.687500000000003
40
0.687500000000003
40
0.718750000000003
40
0.718750000000003
40
0.750000000000003
40
0.750000000000003
40
0.781250000000003
40
0.781250000000003
40
0.812500000000003
40
0.812500000000003
40
0.843750000000003
40
0.843750000000003
40
0.875000000000003
40
0.875000000000003
40
0.906250000000003
40
0.906250000000003
40
0.937500000000003
40
0.937500000000003
40
1
40
1
40
1
40
1
41
1
10
60.2581281581711
20
-2.54886167280502
30
2E-16
41
1
10
60.2106389797188
20
-2.59924449865372
30
2E-16
41
1
10
60.1662796077978
20
-2.62960731120325
30
2E-16
41
1
10
60.0818176772459
20
-2.65172502773334
30
2E-16
41
1
10
60.0438986281341
20
-2.6428220816546
30
2E-16
41
1
10
59.9749391801464
20
-2.58409787775716
30
2E-16
41
1
10
59.9456123930217
20
-2.53575180401179
30
2E-16
41
1
10
59.9090789961299
20
-2.43309293807519
30
1E-16
41
1
10
59.8984459687579
20
-2.39440117529827
30
1E-16
41
1
10
59.880623381699
20
-2.30921371386015
30
1E-16
41
1
10
59.8733632596754
20
-2.26255124530385
30
1E-16
41
1
10
59.8626527100774
20
-2.16006686683832
30
1E-16
41
1
10
59.8593940917688
20
-2.10588873542886
30
1E-16
41
1
10
59.8579554473914
20
-2.02096693808187
30
1E-16
41
1
10
59.8580514156271
20
-1.99200265716607
30
1E-16
41
1
10
59.8595052513717
20
-1.93268432105748
30
1E-16
41
1
10
59.8608825431252
20
-1.90209404639185
30
1E-16
41
1
10
59.8669913525198
20
-1.81038746341494
30
1E-16
41
1
10
59.873636757701
20
-1.74912619947074
30
1E-16
41
1
10
59.8926207970961
20
-1.62640547719835
30
1E-16
41
1
10
59.905091825929
20
-1.56488539677022
30
1E-16
41
1
10
59.934810848286
20
-1.44892577380693
30
1E-16
41
1
10
59.9524403331042
20
-1.39288603803243
30
1E-16
41
1
10
59.9917383938153
20
-1.28955437485243
30
1E-16
41
1
10
60.0132329823589
20
-1.2424299206765
30
1E-16
41
1
10
60.0597376729673
20
-1.15655986791168
30
1E-16
41
1
10
60.0842927870701
20
-1.11872732805682
30
1E-16
41
1
10
60.134893505285
20
-1.05319668090189
30
1E-16
41
1
10
60.1612859786979
20
-1.02513284684983
30
1E-16
41
1
10
60.2140807980936
20
-0.979480391827906
30
1E-16
41
1
10
60.2405807670942
20
-0.961678070098685
30
1E-16
41
1
10
60.2936012149476
20
-0.93534071488844
30
1E-16
41
1
10
60.3200891285431
20
-0.926912854661026
30
1E-16
41
1
10
60.3713234800302
20
-0.919397926623645
30
1E-16
41
1
10
60.3962788743504
20
-0.920193709271757
30
1E-16
41
1
10
60.4446424132407
20
-0.930857837195987
30
1E-16
41
1
10
60.4680470816407
20
-0.940830946285956
30
1E-16
41
1
10
60.5115156212511
20
-0.969462279438801
30
1E-16
41
1
10
60.5317887783917
20
-0.988136175540632
30
1E-16
41
1
10
60.569024933705
20
-1.03476931510608
30
1E-16
41
1
10
60.5861229800744
20
-1.06308728582141
30
1E-16
41
1
10
60.6152760020371
20
-1.12834141954153
30
1E-16
41
1
10
60.6274392991004
20
-1.16524709359857
30
1E-16
41
1
10
60.6462936805217
20
-1.24867974167998
30
1E-16
41
1
10
60.6528825721137
20
-1.29536037440985
30
1E-16
41
1
10
60.6592770554538
20
-1.39465819055934
30
1E-16
41
1
10
60.6592370011753
20
-1.44777117156303
30
1E-16
41
1
10
60.6519954388358
20
-1.56195134567801
30
1E-16
41
1
10
60.6448784226566
20
-1.62100701402343
30
1E-16
41
1
10
60.6242928367998
20
-1.74092604344554
30
1E-16
41
1
10
60.6105421050254
20
-1.80291753299269
30
1E-16
41
1
10
60.5783478521539
20
-1.92313860188358
30
-1E-16
41
1
10
60.559721914247
20
-1.98236653026186
30
-1E-16
41
1
10
60.5188352725117
20
-2.09650832129148
30
-1E-16
41
1
10
60.4970215158782
20
-2.15030079154403
30
-1E-16
41
1
10
60.4511531281167
20
-2.25199439916739
30
1E-16
41
1
10
60.4271956031079
20
-2.29954816220351
30
1E-16
41
1
10
60.3551604966451
20
-2.42843870769295
30
1E-16
41
1
10
60.3056173366234
20
-2.49847884695632
30
2E-16
41
1
10
60.2581281581711
20
-2.54886167280502
30
2E-16
0
SPLINE
5
D1
100
AcDbEntity
8
1
62
256
6
ByLayer
370
18
48
1
60
0
100
AcDbSpline
70
4
71
3
72
26
73
22
40
0
40
0
40
0
40
0
40
0.249999999999998
40
0.249999999999998
40
0.499999999999996
40
0.499999999999996
40
0.624999999999995
40
0.624999999999995
40
0.656249999999994
40
0.656249999999994
40
0.687499999999993
40
0.687499999999993
40
0.749999999999994
40
0.749999999999994
40
0.812499999999996
40
0.812499999999996
40
0.874999999999997
40
0.874999999999997
40
0.937499999999999
40
0.937499999999999
40
1
40
1
40
1
40
1
41
1
10
59.5680223749913
20
-6.71051072558186
30
0
41
1
10
59.7072359366242
20
-6.31733826914169
30
0
41
1
10
59.8454248529126
20
-5.92129108551464
30
0
41
1
10
60.1254560258221
20
-5.12647424538167
30
0
41
1
10
60.2671626117858
20
-4.72833918248546
30
0
41
1
10
60.4844257168862
20
-4.1335052923877
30
0
41
1
10
60.5576095693388
20
-3.93560967496967
30
0
41
1
10
60.6502138933269
20
-3.68875775719988
30
0
41
1
10
60.6687300964115
20
-3.63935346139507
30
0
41
1
10
60.7062931136549
20
-3.54094726269201
30
0
41
1
10
60.725318616202
20
-3.49196993239619
30
0
41
1
10
60.7832112051169
20
-3.34575679036232
30
0
41
1
10
60.8229322667891
20
-3.24915436148382
30
0
41
1
10
60.904784262601
20
-3.05843185423615
30
0
41
1
10
60.9469240963362
20
-2.96431299197397
30
0
41
1
10
61.0330590037534
20
-2.78051271059473
30
0
41
1
10
61.0770868636712
20
-2.69073136644411
30
0
41
1
10
61.1672574929595
20
-2.51535802246184
30
0
41
1
10
61.213400223099
20
-2.42976650046774
30
0
41
1
10
61.3079622316818
20
-2.2627392638482
30
0
41
1
10
61.3565556616615
20
-2.18104026667723
30
0
41
1
10
61.4056606319177
20
-2.10249515433929
30
0
0
SPLINE
5
D2
100
AcDbEntity
8
1
62
256
6
ByLayer
370
18
48
1
60
0
100
AcDbSpline
70
4
71
3
72
31
73
27
40
0
40
0
40
0
40
0
40
0.0185976120912646
40
0.0185976120912646
40
0.0676677314867005
40
0.0676677314867005
40
0.116737850882136
40
0.116737850882136
40
0.214878089673009
40
0.214878089673009
40
0.411158567254754
40
0.411158567254754
40
0.509298806045626
40
0.509298806045626
40
0.558368925441063
40
0.558368925441063
40
0.6074390448365
40
0.6074390448365
40
0.80371952241825
40
0.80371952241825
40
0.901859761209126
40
0.901859761209126
40
0.950929880604563
40
0.975464940302281
40
0.975464940302281
40
1
40
1
40
1
40
1
41
1
10
41.6838226112637
20
0.224393865067668
30
0
41
1
10
41.7945270741698
20
0.163826530327668
30
0
41
1
10
41.905331317773
20
0.103174780275424
30
0
41
1
10
42.3088917882758
20
-0.11775324741339
30
0
41
1
10
42.6026215675489
20
-0.278561910066486
30
0
41
1
10
43.1875578399408
20
-0.598131220928536
30
0
41
1
10
43.4792719544851
20
-0.757170622305892
30
0
41
1
10
44.3526759087999
20
-1.23100072851642
30
1E-16
41
1
10
44.9327031567629
20
-1.54248893029469
30
1E-16
41
1
10
46.6701380471635
20
-2.4565044885947
30
2E-16
41
1
10
47.8246273125443
20
-3.03913076619696
30
2E-16
41
1
10
49.5672027823865
20
-3.84408906203305
30
2E-16
41
1
10
50.1498573606402
20
-4.10098097702905
30
3E-16
41
1
10
51.0285603370343
20
-4.46565196037142
30
3E-16
41
1
10
51.321944133544
20
-4.58361336119287
30
3E-16
41
1
10
51.9070188831756
20
-4.81070424921958
30
3E-16
41
1
10
52.1991350131889
20
-4.92000957904935
30
3E-16
41
1
10
53.6582058499014
20
-5.44418032330145
30
-1E-16
41
1
10
54.8208717071823
20
-5.79165350891901
30
-1E-16
41
1
10
56.5750244990033
20
-6.18933223502813
30
-1E-16
41
1
10
57.1621804369154
20
-6.3012678906143
30
-1E-16
41
1
10
58.0407280127483
20
-6.43493685822025
30
-1E-16
41
1
10
58.4798295570124
20
-6.49331955782699
30
0
41
1
10
58.9190528700931
20
-6.53882996811274
30
0
41
1
10
59.2119364621639
20
-6.56628520399994
30
0
41
1
10
59.3584129265035
20
-6.57829362661445
30
0
41
1
10
59.5049457801197
20
-6.58945809540373
30
0
0
SPLINE
5
D3
100
AcDbEntity
8
1
62
256
6
ByLayer
370
18
48
1
60
0
100
AcDbSpline
70
4
71
3
72
30
73
26
40
0
40
0
40
0
40
0
40
0.0250563760970537
40
0.0250563760970537
40
0.0501127521941081
40
0.0501127521941081
40
0.100225504388216
40
0.100225504388216
40
0.200451008776433
40
0.200451008776433
40
0.400902017552864
40
0.400902017552864
40
0.451014769746972
40
0.451014769746972
40
0.50112752194108
40
0.50112752194108
40
0.601353026329295
40
0.601353026329295
40
0.801804035105722
40
0.801804035105722
40
0.902029539493937
40
0.902029539493937
40
0.952142291688045
40
0.952142291688045
40
1
40
1
40
1
40
1
41
1
10
59.5023647257644
20
-6.60070650812693
30
0
41
1
10
59.3558412434044
20
-6.58962723608829
30
0
41
1
10
59.2094299858082
20
-6.57773726986102
30
0
41
1
10
58.9170458291965
20
-6.55053032239709
30
0
41
1
10
58.7710331836345
20
-6.53550015328113
30
0
41
1
10
58.3334703332117
20
-6.48619076789626
30
0
41
1
10
58.0423952189161
20
-6.4476935791389
30
0
41
1
10
57.1705656091157
20
-6.31578529017074
30
-1E-16
41
1
10
56.5912061676808
20
-6.20595581981138
30
-1E-16
41
1
10
54.8548033925217
20
-5.81478080250045
30
-1E-16
41
1
10
53.69943970333
20
-5.47199885580244
30
-1E-16
41
1
10
52.2440634948757
20
-4.95161747971818
30
3E-16
41
1
10
51.9524111403732
20
-4.8429667883583
30
3E-16
41
1
10
51.3677182681948
20
-4.61692263515127
30
3E-16
41
1
10
51.0742426077288
20
-4.49935085560386
30
3E-16
41
1
10
50.1943246956483
20
-4.13534369126035
30
3E-16
41
1
10
49.6109161428685
20
-3.87874780910118
30
2E-16
41
1
10
47.8662075522769
20
-3.07431338584175
30
2E-16
41
1
10
46.7104791196717
20
-2.49150460807994
30
2E-16
41
1
10
44.9713677636763
20
-1.57655005009354
30
1E-16
41
1
10
44.3908042669362
20
-1.26463831597869
30
1E-16
41
1
10
43.5166428581725
20
-0.790006492671495
30
0
41
1
10
43.2246826724338
20
-0.630671923961984
30
0
41
1
10
42.6524375130533
20
-0.317656089022648
30
0
41
1
10
42.3717156183983
20
-0.163774186448791
30
0
41
1
10
42.0917901568028
20
-0.0102992083733113
30
0
0
SPLINE
5
D4
100
AcDbEntity
8
1
62
256
6
ByLayer
370
18
48
1
60
0
100
AcDbSpline
70
4
71
3
72
18
73
14
40
0
40
0
40
0
40
0
40
0.237660712373811
40
0.237660712373811
40
0.433536968422236
40
0.433536968422236
40
0.631252875490509
40
0.631252875490509
40
0.802344210110123
40
0.802344210110123
40
0.966312453011605
40
0.966312453011605
40
1
40
1
40
1
40
1
41
1
10
59.5049457801341
20
-6.58945809540481
30
0
41
1
10
59.5050306247862
20
-6.58963397641278
30
0
41
1
10
59.5050570076541
20
-6.58999722954334
30
0
41
1
10
59.5049698708673
20
-6.59102308713872
30
0
41
1
10
59.5048783207315
20
-6.59163543669669
30
0
41
1
10
59.5045849118578
20
-6.59311439023674
30
0
41
1
10
59.5043764158921
20
-6.59400881030757
30
0
41
1
10
59.5039043111645
20
-6.59580510749103
30
0
41
1
10
59.5036454992597
20
-6.59671393100638
30
0
41
1
10
59.5031080890982
20
-6.59847952751761
30
0
41
1
10
59.5028243986258
20
-6.59935832878898
30
0
41
1
10
59.5024825998593
20
-6.60036481014649
30
0
41
1
10
59.5024236616895
20
-6.60053654094142
30
0
41
1
10
59.5023647257645
20
-6.60070650812693
30
0
0
SPLINE
5
D5
100
AcDbEntity
8
1
62
256
6
ByLayer
370
18
48
1
60
0
100
AcDbSpline
70
4
71
3
72
28
73
24
40
0
40
0
40
0
40
0
40
0.0898830839069675
40
0.0898830839069675
40
0.134824625860452
40
0.134824625860452
40
0.179766167813936
40
0.179766167813936
40
0.359532335627874
40
0.359532335627874
40
0.539298503441811
40
0.539298503441811
40
0.584240045395296
40
0.584240045395296
40
0.629181587348781
40
0.629181587348781
40
0.719064671255751
40
0.719064671255751
40
0.89883083906969
40
0.89883083906969
40
0.988713922976658
40
0.988713922976658
40
1
40
1
40
1
40
1
41
1
10
3.6017924410823
20
0.213685844837215
30
0
41
1
10
4.18894462430251
20
-0.106239965189786
30
0
41
1
10
4.77521329257405
20
-0.426552657013985
30
0
41
1
10
5.6553443175676
20
-0.903845971360738
30
1E-16
41
1
10
5.94910588869107
20
-1.06254377700483
30
1E-16
41
1
10
6.53462715602987
20
-1.37661734158905
30
1E-16
41
1
10
6.82665999808245
20
-1.53215316451616
30
1E-16
41
1
10
8.2838651337035
20
-2.30114139510434
30
1E-16
41
1
10
9.44023599772152
20
-2.88850249351037
30
2E-16
41
1
10
11.7566375384056
20
-3.97027648649674
30
2E-16
41
1
10
12.916084457641
20
-4.46548506922568
30
3E-16
41
1
10
14.3811444327779
20
-5.00471610257128
30
3E-16
41
1
10
14.6748423928351
20
-5.10852456783206
30
3E-16
41
1
10
15.2597096964616
20
-5.30611148944294
30
-1E-16
41
1
10
15.5514585139845
20
-5.40011116071148
30
-1E-16
41
1
10
16.4250771959188
20
-5.66740108499474
30
-1E-16
41
1
10
17.0052516972134
20
-5.82596400874186
30
-1E-16
41
1
10
18.7431214461591
20
-6.24008587254951
30
-1E-16
41
1
10
19.8985387328428
20
-6.43361309381879
30
-1E-16
41
1
10
21.6427623447245
20
-6.58985041591026
30
0
41
1
10
22.2260399470778
20
-6.61958876273209
30
0
41
1
10
22.8861839152246
20
-6.62684655020479
30
0
41
1
10
22.959821567573
20
-6.62728950516762
30
0
41
1
10
23.0334383910388
20
-6.62736578816577
30
0
0
SPLINE
5
D6
100
AcDbEntity
8
1
62
256
6
ByLayer
370
18
48
1
60
0
100
AcDbSpline
70
4
71
3
72
32
73
28
40
0
40
0
40
0
40
0
40
0.125
40
0.125
40
0.1875
40
0.1875
40
0.25
40
0.25
40
0.375
40
0.375
40
0.4375
40
0.4375
40
0.46875
40
0.46875
40
0.5
40
0.5
40
0.625
40
0.625
40
0.6875
40
0.6875
40
0.75
40
0.75
40
0.875
40
0.875
40
0.9375
40
0.9375
40
1
40
1
40
1
40
1
41
1
10
58.7136745893329
20
-0.29875254822926
30
0
41
1
10
58.732647427992
20
-0.688536614843372
30
0
41
1
10
58.7661796381234
20
-1.06966830168938
30
1E-16
41
1
10
58.8275567738718
20
-1.63006119230323
30
1E-16
41
1
10
58.8499039565065
20
-1.8149585774517
30
1E-16
41
1
10
58.8969668230669
20
-2.18105792359035
30
1E-16
41
1
10
58.9217751704822
20
-2.36290150791635
30
1E-16
41
1
10
58.9972672704465
20
-2.89840511667904
30
2E-16
41
1
10
59.0482357690263
20
-3.23787144059088
30
2E-16
41
1
10
59.1199921098217
20
-3.72218631230928
30
2E-16
41
1
10
59.1431593490649
20
-3.87944680075989
30
2E-16
41
1
10
59.1763236934568
20
-4.10898532727569
30
3E-16
41
1
10
59.187115615085
20
-4.18443768618971
30
3E-16
41
1
10
59.2081158835692
20
-4.33318487343479
30
3E-16
41
1
10
59.2183269713872
20
-4.40650696565797
30
3E-16
41
1
10
59.2673365057142
20
-4.76406186601304
30
3E-16
41
1
10
59.3002890261292
20
-5.02433234646566
30
3E-16
41
1
10
59.3413342239525
20
-5.37688185541668
30
-1E-16
41
1
10
59.3536455686653
20
-5.48805182152125
30
-1E-16
41
1
10
59.3760383894512
20
-5.69738749919082
30
-1E-16
41
1
10
59.3861592433204
20
-5.7959572999053
30
-1E-16
41
1
10
59.4138953794191
20
-6.06680792804084
30
-1E-16
41
1
10
59.4289327953209
20
-6.21550804078436
30
-1E-16
41
1
10
59.4535373189592
20
-6.39172612936423
30
-1E-16
41
1
10
59.4621006414214
20
-6.44261654166246
30
0
41
1
10
59.4814579916301
20
-6.5283577110053
30
0
41
1
10
59.4922797089808
20
-6.56320162191417
30
0
41
1
10
59.5049457801335
20
-6.58945809540364
30
0
0
SPLINE
5
D7
100
AcDbEntity
8
1
62
256
6
ByLayer
370
18
48
1
60
0
100
AcDbSpline
70
4
71
3
72
56
73
52
40
0
40
0
40
0
40
0
40
0.0481013319538598
40
0.0481013319538598
40
0.0962026639077195
40
0.0962026639077195
40
0.144303995861579
40
0.144303995861579
40
0.192405327815439
40
0.192405327815439
40
0.240506659769299
40
0.240506659769299
40
0.264557325746228
40
0.264557325746228
40
0.288607991723158
40
0.288607991723158
40
0.384810655630876
40
0.384810655630876
40
0.408861321607804
40
0.408861321607804
40
0.432911987584733
40
0.432911987584733
40
0.48101331953859
40
0.48101331953859
40
0.529114651492447
40
0.529114651492447
40
0.577215983446304
40
0.577215983446304
40
0.601266649423232
40
0.601266649423232
40
0.625317315400161
40
0.625317315400161
40
0.673418647354018
40
0.673418647354018
40
0.721519979307875
40
0.721519979307875
40
0.745570645284804
40
0.745570645284804
40
0.769621311261733
40
0.769621311261733
40
0.81772264321559
40
0.81772264321559
40
0.865823975169448
40
0.865823975169448
40
0.913925307123306
40
0.913925307123306
40
0.937975973100235
40
0.937975973100235
40
0.962026639077164
40
0.962026639077164
40
1
40
1
40
1
40
1
41
1
10
59.1073449974193
20
-6.90330617698328
30
0
41
1
10
58.528173830672
20
-6.84757439089711
30
0
41
1
10
57.9494918131181
20
-6.76830934844949
30
0
41
1
10
56.7904507257738
20
-6.56393538365035
30
0
41
1
10
56.2114978671231
20
-6.43900901041368
30
0
41
1
10
55.0557478331459
20
-6.14668405901284
30
-1E-16
41
1
10
54.4782768958907
20
-5.97924915238772
30
-1E-16
41
1
10
53.3213772060745
20
-5.60411463849294
30
3E-16
41
1
10
52.7410919631303
20
-5.39616572752263
30
3E-16
41
1
10
51.5842378157405
20
-4.94636590282906
30
3E-16
41
1
10
51.0068242238965
20
-4.70410981472992
30
3E-16
41
1
10
50.1398392389644
20
-4.31773495090348
30
3E-16
41
1
10
49.8506976672017
20
-4.18511677928475
30
3E-16
41
1
10
49.2717659267639
20
-3.91268744295044
30
2E-16
41
1
10
48.9816975172184
20
-3.77274039398222
30
2E-16
41
1
10
47.5336154517109
20
-3.05864333404972
30
2E-16
41
1
10
46.3808884683669
20
-2.44051468307845
30
1E-16
41
1
10
44.9321509133773
20
-1.63333513173552
30
1E-16
41
1
10
44.6421530918991
20
-1.47023333771585
30
1E-16
41
1
10
44.0633189168921
20
-1.14240192445141
30
1E-16
41
1
10
43.774203283387
20
-0.97752882744976
30
1E-16
41
1
10
42.9071861884996
20
-0.481035476855084
30
0
41
1
10
42.3295819475093
20
-0.14759772995609
30
0
41
1
10
41.1722578239644
20
0.519065935751257
30
0
41
1
10
40.5918182229468
20
0.852689408877922
30
-1E-16
41
1
10
39.4347549215561
20
1.50966997707664
30
-1E-16
41
1
10
38.8571754165593
20
1.83362641627906
30
-1E-16
41
1
10
37.9898919667285
20
2.30881560215829
30
-1E-16
41
1
10
37.7006535119564
20
2.46543553607978
30
-2E-16
41
1
10
37.1215179813768
20
2.77449949704777
30
-2E-16
41
1
10
36.8313476699534
20
2.92707667329466
30
-2E-16
41
1
10
35.9622523897447
20
3.37613351488281
30
-2E-16
41
1
10
35.3843688039297
20
3.66437518499146
30
-2E-16
41
1
10
34.2283547887092
20
4.21382441698239
30
-3E-16
41
1
10
33.6503045333156
20
4.47515098460559
30
-3E-16
41
1
10
32.7808189798575
20
4.84368211225137
30
-3E-16
41
1
10
32.4907532126866
20
4.96254275820868
30
-3E-16
41
1
10
31.9117440608183
20
5.19112615903705
30
-3E-16
41
1
10
31.6225272325077
20
5.30095821884544
30
-3E-16
41
1
10
30.7552059370444
20
5.61651682471293
30
-3E-16
41
1
10
30.1775299569703
20
5.80840201857438
30
1E-16
41
1
10
29.0199399847471
20
6.15172127581775
30
1E-16
41
1
10
28.4393264573676
20
6.30323935367662
30
1E-16
41
1
10
27.2818124373391
20
6.56119765075394
30
0
41
1
10
26.7041983214926
20
6.66814122574641
30
0
41
1
10
25.836722521751
20
6.79396511733651
30
0
41
1
10
25.5474010151845
20
6.83015467000865
30
0
41
1
10
24.9680754879168
20
6.89085434452056
30
0
41
1
10
24.6778037606057
20
6.91537446158202
30
0
41
1
10
23.9304745960838
20
6.96318665449382
30
0
41
1
10
23.4738618615838
20
6.97760723211996
30
0
41
1
10
23.0174132369708
20
6.97720580848801
30
0
0
SPLINE
5
D8
100
AcDbEntity
8
1
62
256
6
ByLayer
370
18
48
1
60
0
100
AcDbSpline
70
4
71
3
72
40
73
36
40
0
40
0
40
0
40
0
40
0.0308019320905412
40
0.0308019320905412
40
0.0818123567173552
40
0.0818123567173552
40
0.132822781344169
40
0.132822781344169
40
0.183833205970983
40
0.183833205970983
40
0.28585405522461
40
0.28585405522461
40
0.336864479851423
40
0.336864479851423
40
0.387874904478237
40
0.387874904478237
40
0.438885329105051
40
0.438885329105051
40
0.489895753731864
40
0.489895753731864
40
0.540906178358677
40
0.540906178358677
40
0.591916602985491
40
0.591916602985491
40
0.642927027612304
40
0.642927027612304
40
0.693937452239117
40
0.693937452239117
40
0.795958301492745
40
0.795958301492745
40
0.846968726119559
40
0.846968726119559
40
0.897979150746373
40
0.897979150746373
40
1
40
1
40
1
40
1
41
1
10
20.5257156487413
20
-0.252656863617886
30
0
41
1
10
20.3514110933737
20
-0.157591183355947
30
0
41
1
10
20.177158951682
20
-0.0624543121390957
30
0
41
1
10
19.7155311170078
20
0.189568655276418
30
0
41
1
10
19.4284379305311
20
0.346348732528583
30
0
41
1
10
18.8556694552891
20
0.658904054350643
30
0
41
1
10
18.5700823256124
20
0.814761343015874
30
0
41
1
10
17.9989183576442
20
1.1236763018708
30
-1E-16
41
1
10
17.7134203618066
20
1.27682813930539
30
-1E-16
41
1
10
16.8573851171875
20
1.73235227725809
30
-1E-16
41
1
10
16.2872260559185
20
2.03070383671942
30
-1E-16
41
1
10
15.4323735032126
20
2.46796984265188
30
-2E-16
41
1
10
15.1474480543318
20
2.61196897435335
30
-2E-16
41
1
10
14.5767848545272
20
2.89546606624836
30
-2E-16
41
1
10
14.2910814917692
20
3.0349931183415
30
-2E-16
41
1
10
13.718830779283
20
3.30916660560774
30
-2E-16
41
1
10
13.432266037948
20
3.44380724941314
30
-2E-16
41
1
10
12.8577217950223
20
3.70758205101228
30
-2E-16
41
1
10
12.5697554021683
20
3.83672084444515
30
-2E-16
41
1
10
11.9922860413921
20
4.08901527271578
30
-3E-16
41
1
10
11.7034169189653
20
4.21187752259789
30
-3E-16
41
1
10
11.1273205259156
20
4.44954539103668
30
-3E-16
41
1
10
10.8397808851541
20
4.5644880860321
30
-3E-16
41
1
10
10.2655680142542
20
4.78601878116049
30
-3E-16
41
1
10
9.97887121357775
20
4.892627305199
30
-3E-16
41
1
10
9.40514771378071
20
5.09775030509516
30
-3E-16
41
1
10
9.11813860568154
20
5.19624989592145
30
-3E-16
41
1
10
8.25681041780217
20
5.47863132966765
30
1E-16
41
1
10
7.6822468502109
20
5.64935671466847
30
1E-16
41
1
10
6.81839265938021
20
5.87568094277412
30
1E-16
41
1
10
6.5298774955113
20
5.94620487124536
30
1E-16
41
1
10
5.952542082778
20
6.07745163102601
30
1E-16
41
1
10
5.66394698865301
20
6.1381610808761
30
1E-16
41
1
10
4.79846902963806
20
6.3044284166771
30
1E-16
41
1
10
4.22194621251845
20
6.39410120445459
30
1E-16
41
1
10
3.64502758680098
20
6.46038222152475
30
0
0
SPLINE
5
D9
100
AcDbEntity
8
1
62
256
6
ByLayer
370
18
48
1
60
0
100
AcDbSpline
70
4
71
3
72
20
73
16
40
0
40
0
40
0
40
0
40
0.012183084778541
40
0.012183084778541
40
0.176819237315451
40
0.176819237315451
40
0.341455389852361
40
0.341455389852361
40
0.506091542389271
40
0.506091542389271
40
0.67072769492618
40
0.67072769492618
40
0.83536384746309
40
0.83536384746309
40
1
40
1
40
1
40
1
41
1
10
41.2225498473592
20
-0.496553406769436
30
0
41
1
10
41.1770148669432
20
-0.471402491761523
30
0
41
1
10
41.1314766501432
20
-0.446238940676949
30
0
41
1
10
40.4705015917834
20
-0.0808605192351592
30
0
41
1
10
39.8540641340639
20
0.2616002037405
30
0
41
1
10
38.6218825770712
20
0.941645657987578
30
-1E-16
41
1
10
38.0057804032737
20
1.27954389421902
30
-1E-16
41
1
10
36.7736252211996
20
1.94233868368463
30
-1E-16
41
1
10
36.157479542214
20
2.2674667797892
30
-1E-16
41
1
10
34.9259045033377
20
2.89748308522462
30
-2E-16
41
1
10
34.311198071929
20
3.20178126144205
30
-2E-16
41
1
10
33.0808909632651
20
3.7840374609022
30
-2E-16
41
1
10
32.4645253950849
20
4.06207300098481
30
-2E-16
41
1
10
31.2323847227584
20
4.58457474811632
30
-3E-16
41
1
10
30.6162202919699
20
4.82928474433351
30
-3E-16
41
1
10
29.9999999999976
20
5.05433235023307
30
-3E-16
0
SPLINE
5
DA
100
AcDbEntity
8
1
62
256
6
ByLayer
370
18
48
1
60
0
100
AcDbSpline
70
4
71
3
72
36
73
32
40
0
40
0
40
0
40
0
40
0.0143978670536022
40
0.0143978670536022
40
0.0584274404813634
40
0.0584274404813634
40
0.146486587336886
40
0.146486587336886
40
0.190516160764648
40
0.190516160764648
40
0.234545734192409
40
0.234545734192409
40
0.322604881047931
40
0.322604881047931
40
0.410664027903453
40
0.410664027903453
40
0.498723174758974
40
0.498723174758974
40
0.586782321614495
40
0.586782321614495
40
0.674841468470017
40
0.674841468470017
40
0.762900615325538
40
0.762900615325538
40
0.806930188753299
40
0.806930188753299
40
0.85095976218106
40
0.85095976218106
40
0.939018909036581
40
0.939018909036581
40
1
40
1
40
1
40
1
41
1
10
38.6163007014169
20
6.63698583681204
30
0
41
1
10
38.7102161532947
20
6.63938911587567
30
0
41
1
10
38.8041600044307
20
6.64127419695592
30
0
41
1
10
39.1854896044555
20
6.64688642046579
30
0
41
1
10
39.4733935632104
20
6.64584047662791
30
0
41
1
10
40.3405646014285
20
6.62223732819245
30
0
41
1
10
40.9158525091753
20
6.58180894138735
30
0
41
1
10
41.7754886450702
20
6.49053525051173
30
0
41
1
10
42.061478819948
20
6.45502299636442
30
0
41
1
10
42.6324717352102
20
6.3744033836725
30
1E-16
41
1
10
42.9175657776926
20
6.32901035206271
30
1E-16
41
1
10
43.7731276869751
20
6.17526077026673
30
1E-16
41
1
10
44.3432324238895
20
6.05126438709692
30
1E-16
41
1
10
45.4844329083154
20
5.76452837749471
30
1E-16
41
1
10
46.0547363588033
20
5.60273428107388
30
1E-16
41
1
10
47.2007631859875
20
5.23948033691093
30
-3E-16
41
1
10
47.7766192705047
20
5.03839585557367
30
-3E-16
41
1
10
48.9329274444574
20
4.60193268667959
30
-3E-16
41
1
10
49.5090278195042
20
4.36827174206144
30
-3E-16
41
1
10
50.6611973095381
20
3.87277170345848
30
-2E-16
41
1
10
51.2368986497863
20
3.6111309830132
30
-2E-16
41
1
10
52.3911560863042
20
3.06401235297361
30
-2E-16
41
1
10
52.9703445960027
20
2.77824989859238
30
-2E-16
41
1
10
53.8336883975468
20
2.33903320910042
30
-1E-16
41
1
10
54.1208514022681
20
2.19065602479344
30
-1E-16
41
1
10
54.6944602881858
20
1.89073367599193
30
-1E-16
41
1
10
54.9810517936087
20
1.73932594977038
30
-1E-16
41
1
10
55.8406218848296
20
1.28168665732502
30
-1E-16
41
1
10
56.4133696598168
20
0.972048779832534
30
-1E-16
41
1
10
57.3835095449067
20
0.443197053962877
30
0
41
1
10
57.7806430591288
20
0.225424156012792
30
0
41
1
10
58.1782540866801
20
0.0068237426447411
30
0
0
SPLINE
5
DB
100
AcDbEntity
8
1
62
256
6
ByLayer
370
18
48
1
60
0
100
AcDbSpline
70
4
71
3
72
16
73
12
40
0
40
0
40
0
40
0
40
0.141912377887747
40
0.141912377887747
40
0.31352990231019
40
0.31352990231019
40
0.485147426732632
40
0.485147426732632
40
0.656764951155075
40
0.656764951155075
40
1
40
1
40
1
40
1
41
1
10
59.3963907709105
20
1.59265980337599
30
0
41
1
10
59.4308385865668
20
1.60885038653305
30
0
41
1
10
59.4667978360161
20
1.62552476556837
30
0
41
1
10
59.5486128098848
20
1.66231461802155
30
0
41
1
10
59.5947730636883
20
1.68238352073166
30
0
41
1
10
59.6899567492368
20
1.72174372761364
30
0
41
1
10
59.7390197041906
20
1.74094697100111
30
0
41
1
10
59.8404350674213
20
1.77729474768503
30
0
41
1
10
59.8931154984704
20
1.7945474461213
30
0
41
1
10
60.0530249655572
20
1.84096784477475
30
0
41
1
10
60.162528584766
20
1.86496086851264
30
0
41
1
10
60.2749640830969
20
1.88065811688068
30
0
0
SPLINE
5
DC
100
AcDbEntity
8
1
62
256
6
ByLayer
370
18
48
1
60
0
100
AcDbSpline
70
4
71
3
72
28
73
24
40
0
40
0
40
0
40
0
40
0.0625000000000001
40
0.0625000000000001
40
0.125
40
0.125
40
0.25
40
0.25
40
0.3125
40
0.3125
40
0.375
40
0.375
40
0.500000000000001
40
0.500000000000001
40
0.625000000000001
40
0.625000000000001
40
0.750000000000001
40
0.750000000000001
40
0.812500000000001
40
0.812500000000001
40
0.875000000000001
40
0.875000000000001
40
1
40
1
40
1
40
1
41
1
10
30
20
5.26710614815173
30
-3E-16
41
1
10
30.6072653978944
20
5.03798580878913
30
-3E-16
41
1
10
31.2142165332867
20
4.78912306177335
30
-3E-16
41
1
10
32.4287026220213
20
4.2569690753169
30
-3E-16
41
1
10
33.035893455837
20
3.97383649254374
30
-2E-16
41
1
10
34.85700017972
20
3.08308466670638
30
-2E-16
41
1
10
36.0715561835926
20
2.43305240518708
30
-1E-16
41
1
10
37.8921438229408
20
1.41784643252831
30
-1E-16
41
1
10
38.4991290351927
20
1.07273179770675
30
-1E-16
41
1
10
39.7131845192694
20
0.377211758486425
30
0
41
1
10
40.3201268100112
20
0.0269036949312635
30
0
41
1
10
42.1417170779575
20
-1.02124514967213
30
1E-16
41
1
10
43.3550281212188
20
-1.71504585056979
30
1E-16
41
1
10
45.7834030903683
20
-3.03201471294898
30
2E-16
41
1
10
46.9968349476374
20
-3.65433237081129
30
2E-16
41
1
10
49.4246458828395
20
-4.77256619518727
30
3E-16
41
1
10
50.6383001452863
20
-5.26787441715157
30
3E-16
41
1
10
52.458679004478
20
-5.88202520161227
30
-1E-16
41
1
10
53.0656197366163
20
-6.06549885089771
30
-1E-16
41
1
10
54.2790147299387
20
-6.38558686329432
30
-1E-16
41
1
10
54.8861382545837
20
-6.52234838996159
30
0
41
1
10
56.7063254980324
20
-6.85748234322134
30
0
41
1
10
57.9202789661619
20
-6.98061011056194
30
0
41
1
10
59.1337683141829
20
-6.99785887276062
30
0
0
SPLINE
5
DD
100
AcDbEntity
8
1
62
256
6
ByLayer
370
18
48
1
60
0
100
AcDbSpline
70
4
71
3
72
10
73
6
40
0
40
0
40
0
40
0
40
0.5
40
0.5
40
1
40
1
40
1
40
1
41
1
10
3.50168517929959
20
6.78436463549832
30
0
41
1
10
3.50168517929956
20
6.79233619177532
30
0
41
1
10
3.52132597993173
20
6.79969367582353
30
0
41
1
10
3.58201178203024
20
6.80723741892356
30
0
41
1
10
3.62115715019232
20
6.80728289465912
30
0
41
1
10
3.65166877383501
20
6.80353064087109
30
0
0
SPLINE
5
DE
100
AcDbEntity
8
1
62
256
6
ByLayer
370
18
48
1
60
0
100
AcDbSpline
70
4
71
3
72
26
73
22
40
0
40
0
40
0
40
0
40
0.249999999999993
40
0.249999999999993
40
0.499999999999986
40
0.499999999999986
40
0.624999999999984
40
0.624999999999984
40
0.656249999999984
40
0.656249999999984
40
0.687499999999984
40
0.687499999999984
40
0.749999999999987
40
0.749999999999987
40
0.81249999999999
40
0.81249999999999
40
0.874999999999994
40
0.874999999999994
40
0.937499999999997
40
0.937499999999997
40
1
40
1
40
1
40
1
41
1
10
59.5680223749914
20
6.71051072558183
30
0
41
1
10
59.7072359366243
20
6.31733826914166
30
0
41
1
10
59.8454248529126
20
5.92129108551461
30
0
41
1
10
60.1254560258221
20
5.12647424538164
30
0
41
1
10
60.2671626117858
20
4.7283391824854
30
0
41
1
10
60.4844257168862
20
4.13350529238758
30
0
41
1
10
60.5576095693388
20
3.93560967496961
30
0
41
1
10
60.6502138933269
20
3.6887577571998
30
0
41
1
10
60.6687300964115
20
3.63935346139502
30
0
41
1
10
60.7062931136549
20
3.5409472626919
30
0
41
1
10
60.725318616202
20
3.4919699323961
30
0
41
1
10
60.783211205117
20
3.3457567903622
30
0
41
1
10
60.8229322667891
20
3.24915436148373
30
0
41
1
10
60.904784262601
20
3.05843185423606
30
0
41
1
10
60.9469240963362
20
2.96431299197391
30
0
41
1
10
61.0330590037534
20
2.78051271059465
30
0
41
1
10
61.0770868636713
20
2.690731366444
30
0
41
1
10
61.1672574929595
20
2.51535802246175
30
0
41
1
10
61.213400223099
20
2.42976650046768
30
0
41
1
10
61.3079622316818
20
2.2627392638482
30
0
41
1
10
61.3565556616614
20
2.18104026667723
30
0
41
1
10
61.4056606319177
20
2.10249515433929
30
0
0
SPLINE
5
DF
100
AcDbEntity
8
1
62
256
6
ByLayer
370
18
48
1
60
0
100
AcDbSpline
70
4
71
3
72
10
73
6
40
0
40
0
40
0
40
0
40
0.411091797293781
40
0.411091797293781
40
1
40
1
40
1
40
1
41
1
10
3.65166877383498
20
6.80353064087109
30
0
41
1
10
3.65141830772256
20
6.75810499155654
30
0
41
1
10
3.6511659674606
20
6.71267895348993
30
0
41
1
10
3.6505475583819
20
6.60217701745901
30
0
41
1
10
3.65017950842773
20
6.53710069690183
30
0
41
1
10
3.64980757424868
20
6.4720235147565
30
0
0
SPLINE
5
E0
100
AcDbEntity
8
1
62
256
6
ByLayer
370
18
48
1
60
0
100
AcDbSpline
70
4
71
3
72
16
73
12
40
0
40
0
40
0
40
0
40
0.125
40
0.125
40
0.249999999999999
40
0.249999999999999
40
0.5
40
0.5
40
0.75
40
0.75
40
1
40
1
40
1
40
1
41
1
10
59.8869313240445
20
1.36777780787091
30
-1E-16
41
1
10
59.8269105334008
20
1.36514081384229
30
-1E-16
41
1
10
59.7667307036887
20
1.35953520408483
30
-1E-16
41
1
10
59.6462910256595
20
1.34223043260317
30
-1E-16
41
1
10
59.5859604410221
20
1.33067669735021
30
-1E-16
41
1
10
59.4063910899386
20
1.28859518451745
30
-1E-16
41
1
10
59.288250657626
20
1.25059128749101
30
-1E-16
41
1
10
59.0566799997342
20
1.15476466667789
30
-1E-16
41
1
10
58.9432592874793
20
1.09683424115789
30
-1E-16
41
1
10
58.7227378677831
20
0.960730313230641
30
-1E-16
41
1
10
58.6156234921392
20
0.882578913179856
30
-1E-16
41
1
10
58.5126794526124
20
0.792988294252467
30
0
0
SPLINE
5
E1
100
AcDbEntity
8
1
62
256
6
ByLayer
370
18
48
1
60
0
100
AcDbSpline
70
4
71
3
72
8
73
4
40
0
40
0
40
0
40
0
40
1
40
1
40
1
40
1
41
1
10
3.55188425109912
20
0.241631100404305
30
0
41
1
10
3.52123144927688
20
0.259223481725257
30
0
41
1
10
3.50168517929956
20
0.292967565716481
30
0
41
1
10
3.50168517929956
20
0.328276275746049
30
0
0
SPLINE
5
E2
100
AcDbEntity
8
1
62
256
6
ByLayer
370
18
48
1
60
0
100
AcDbSpline
70
4
71
3
72
16
73
12
40
0
40
0
40
0
40
0
40
0.200742751610859
40
0.200742751610859
40
0.401485503221717
40
0.401485503221717
40
0.602228254832575
40
0.602228254832575
40
0.802971006443434
40
0.802971006443434
40
1
40
1
40
1
40
1
41
1
10
59.5565805733555
20
6.71822036266278
30
0
41
1
10
58.9407183651055
20
6.72326102609796
30
0
41
1
10
58.32426588752
20
6.70218627764581
30
0
41
1
10
57.0922485047332
20
6.6087753619239
30
0
41
1
10
56.4779288341997
20
6.53664653126808
30
0
41
1
10
55.2492169868876
20
6.34242592448044
30
1E-16
41
1
10
54.6349396866742
20
6.22040279582109
30
1E-16
41
1
10
53.4029313073804
20
5.92869399597708
30
1E-16
41
1
10
52.7873428446467
20
5.75954780607901
30
1E-16
41
1
10
51.5667237461341
20
5.38127513196403
30
-3E-16
41
1
10
50.9624937880377
20
5.17307139300405
30
-3E-16
41
1
10
50.3580113178342
20
4.94611123643398
30
-3E-16
0
SPLINE
5
E3
100
AcDbEntity
8
1
62
256
6
ByLayer
370
18
48
1
60
0
100
AcDbSpline
70
4
71
3
72
12
73
8
40
0
40
0
40
0
40
0
40
0.0048165808904517
40
0.192480209861579
40
0.380143838832705
40
0.755471096774958
40
1
40
1
40
1
40
1
41
1
10
11.0945567144358
20
-4.75627969480186
30
-2E-16
41
1
10
11.0873443954195
20
-4.75910626002911
30
-2E-16
41
1
10
10.7991390679967
20
-4.872092938462
30
-1E-16
41
1
10
10.2309956500555
20
-5.09772294631259
30
-1E-16
41
1
10
9.1131569989935
20
-5.5527968497766
30
-1E-16
41
1
10
7.91715573301141
20
-6.05767526594667
30
-1E-16
41
1
10
7.00458390527484
20
-6.45811222130581
30
0
41
1
10
6.64543248776223
20
-6.61808264237496
30
0
0
SPLINE
5
E4
100
AcDbEntity
8
1
62
256
6
ByLayer
370
18
48
1
60
0
100
AcDbSpline
70
4
71
3
72
14
73
10
40
0
40
0
40
0
40
0
40
0.191924096357336
40
0.191924096357336
40
0.393943072268002
40
0.393943072268002
40
0.595962048178668
40
0.595962048178668
40
1
40
1
40
1
40
1
41
1
10
50.1224055759442
20
5.03808173380918
30
-3E-16
41
1
10
50.6989275570455
20
5.26895718014237
30
-2E-16
41
1
10
51.2754145161651
20
5.48282104141649
30
-2E-16
41
1
10
52.4586790044788
20
5.88202520161252
30
1E-16
41
1
10
53.0656197366171
20
6.06549885089794
30
1E-16
41
1
10
54.2790147299395
20
6.38558686329452
30
1E-16
41
1
10
54.8861382545846
20
6.52234838996176
30
0
41
1
10
56.7063254980333
20
6.85748234322145
30
0
41
1
10
57.9202789661628
20
6.98061011056203
30
0
41
1
10
59.133768314184
20
6.99785887276062
30
0
0
SPLINE
5
E5
100
AcDbEntity
8
1
62
256
6
ByLayer
370
18
48
1
60
0
100
AcDbSpline
70
4
71
3
72
12
73
8
40
0
40
0
40
0
40
0
40
0.250000000000015
40
0.250000000000015
40
0.50000000000003
40
0.50000000000003
40
1
40
1
40
1
40
1
41
1
10
3.60202151017728
20
6.47453151985391
30
0
41
1
10
3.58639301080117
20
6.47449654215609
30
0
41
1
10
3.57124602797353
20
6.47696866603138
30
0
41
1
10
3.545276025345
20
6.48528453269665
30
0
41
1
10
3.53456484306716
20
6.49098367794954
30
0
41
1
10
3.50934520300493
20
6.51020343568439
30
0
41
1
10
3.50168517929959
20
6.52544563144414
30
0
41
1
10
3.50168517929956
20
6.54048413232181
30
0
0
SPLINE
5
E6
100
AcDbEntity
8
1
62
256
6
ByLayer
370
18
48
1
60
0
100
AcDbSpline
70
4
71
3
72
32
73
28
40
0
40
0
40
0
40
0
40
0.370920061689657
40
0.370920061689657
40
0.596642016044607
40
0.596642016044607
40
0.741854161957275
40
0.741854161957275
40
0.834987705256074
40
0.834987705256074
40
0.894801024055976
40
0.894801024055976
40
0.933167924498933
40
0.933167924498933
40
0.957806508463557
40
0.957806508463557
40
0.973724772027797
40
0.973724772027797
40
0.984021121919552
40
0.984021121919552
40
0.990596698322579
40
0.990596698322579
40
0.994722517859843
40
0.994722517859843
40
0.998894227292249
40
0.998894227292249
40
1
40
1
40
1
40
1
41
1
10
59.1337683141824
20
-6.99785887274678
30
0
41
1
10
59.1858799580257
20
-6.96402513575975
30
0
41
1
10
59.2380561866892
20
-6.92990800037376
30
0
41
1
10
59.322104829338
20
-6.87457217827765
30
0
41
1
10
59.3539315630194
20
-6.85353124755417
30
0
41
1
10
59.4062869764333
20
-6.81877882347356
30
0
41
1
10
59.4267967048588
20
-6.80512979537795
30
0
41
1
10
59.4604603952289
20
-6.78267085200767
30
0
41
1
10
59.4736125955514
20
-6.77388226046514
30
0
41
1
10
59.4952123435659
20
-6.75942567163594
30
0
41
1
10
59.5036623265472
20
-6.75376424403123
30
0
41
1
10
59.5175555552146
20
-6.74444602118487
30
0
41
1
10
59.5229925780747
20
-6.74079690421763
30
0
41
1
10
59.5319270705922
20
-6.73479654866537
30
0
41
1
10
59.5354203966924
20
-6.73244951323068
30
0
41
1
10
59.5411543366115
20
-6.72859569142162
30
0
41
1
10
59.5434007522432
20
-6.72708550167383
30
0
41
1
10
59.5470882535618
20
-6.72460593961139
30
0
41
1
10
59.5485296097206
20
-6.72363662197426
30
0
41
1
10
59.5509143814721
20
-6.72203236353815
30
0
41
1
10
59.5518504997497
20
-6.7214025018281
30
0
41
1
10
59.5533892105846
20
-6.72036696193194
30
0
41
1
10
59.5539860359677
20
-6.71996525500629
30
0
41
1
10
59.5551564583863
20
-6.71917762292014
30
0
41
1
10
59.5557472481462
20
-6.71878011060986
30
0
41
1
10
59.5563542806933
20
-6.71837226263708
30
0
41
1
10
59.5564742495385
20
-6.71829170149965
30
0
41
1
10
59.556580573359
20
-6.71822036266221
30
0
0
SPLINE
5
E7
100
AcDbEntity
8
1
62
256
6
ByLayer
370
18
48
1
60
0
100
AcDbSpline
70
4
71
3
72
32
73
28
40
0
40
0
40
0
40
0
40
0.125
40
0.125
40
0.1875
40
0.1875
40
0.25
40
0.25
40
0.3125
40
0.3125
40
0.375
40
0.375
40
0.4375
40
0.4375
40
0.5
40
0.5
40
0.5625
40
0.5625
40
0.625
40
0.625
40
0.6875
40
0.6875
40
0.75
40
0.75
40
0.875
40
0.875
40
1
40
1
40
1
40
1
41
1
10
61.9023845376308
20
0.0842683229787156
30
0
41
1
10
61.8685000733627
20
-0.0274534927377204
30
0
41
1
10
61.8295429486286
20
-0.13662110039678
30
0
41
1
10
61.7632118043975
20
-0.296265806970837
30
0
41
1
10
61.7395639057535
20
-0.349202813511113
30
0
41
1
10
61.6906942705584
20
-0.450848566924975
30
0
41
1
10
61.6654605574183
20
-0.499664476637577
30
0
41
1
10
61.6134322806083
20
-0.593157678454475
30
0
41
1
10
61.5866387885105
20
-0.637837687708384
30
0
41
1
10
61.5314108681059
20
-0.722692632064934
30
0
41
1
10
61.5030414435138
20
-0.762675161965007
30
0
41
1
10
61.4469475844172
20
-0.834623051615125
30
1E-16
41
1
10
61.4189393553539
20
-0.86704290866976
30
1E-16
41
1
10
61.3629630226554
20
-0.924626983204149
30
-1E-16
41
1
10
61.3347398202
20
-0.949948949242327
30
-1E-16
41
1
10
61.2801080636648
20
-0.991470610629278
30
-1E-16
41
1
10
61.2535681814547
20
-1.00787731268758
30
0
41
1
10
61.2018368462502
20
-1.03232345079744
30
0
41
1
10
61.1764570767101
20
-1.0403651816433
30
1E-16
41
1
10
61.1280839801084
20
-1.04788839500679
30
1E-16
41
1
10
61.1050387685082
20
-1.04746864334697
30
1E-16
41
1
10
61.0608681250658
20
-1.03891859191981
30
1E-16
41
1
10
61.0396176364899
20
-1.03069914313187
30
1E-16
41
1
10
60.9793611238172
20
-0.995537332961959
30
1E-16
41
1
10
60.9439864832984
20
-0.958639972893195
30
1E-16
41
1
10
60.879946900111
20
-0.862711556660258
30
1E-16
41
1
10
60.8513786808394
20
-0.803447110945825
30
0
41
1
10
60.8261174943809
20
-0.736015256712562
30
0
0
SPLINE
5
E8
100
AcDbEntity
8
1
62
256
6
ByLayer
370
18
48
1
60
0
100
AcDbSpline
70
4
71
3
72
8
73
4
40
0
40
0
40
0
40
0
40
1
40
1
40
1
40
1
41
1
10
61.9935448380559
20
0.386465484561342
30
0
41
1
10
62.0021493993988
20
0.128891314232163
30
0
41
1
10
62.002154043174
20
-0.128752304640699
30
0
41
1
10
61.9935448380559
20
-0.386465484559494
30
0
0
SPLINE
5
E9
100
AcDbEntity
8
1
62
256
6
ByLayer
370
18
48
1
60
0
100
AcDbSpline
70
4
71
3
72
8
73
4
40
0
40
0
40
0
40
0
40
1
40
1
40
1
40
1
41
1
10
60.274964083097
20
1.88065811688065
30
0
41
1
10
60.6556126622375
20
1.93380089986653
30
0
41
1
10
61.0343587946953
20
2.00169435957889
30
0
41
1
10
61.4056606319177
20
2.10249515433929
30
0
0
SPLINE
5
EA
100
AcDbEntity
8
1
62
256
6
ByLayer
370
18
48
1
60
0
100
AcDbSpline
70
4
71
3
72
38
73
34
40
0
40
0
40
0
40
0
40
0.0315854394423548
40
0.0315854394423548
40
0.0688321533099572
40
0.0688321533099572
40
0.106078867177559
40
0.106078867177559
40
0.255065722647966
40
0.255065722647966
40
0.292312436515568
40
0.292312436515568
40
0.32955915038317
40
0.32955915038317
40
0.404052578118373
40
0.404052578118373
40
0.478546005853576
40
0.478546005853576
40
0.55303943358878
40
0.55303943358878
40
0.590286147456382
40
0.590286147456382
40
0.627532861323983
40
0.627532861323983
40
0.702026289059187
40
0.702026289059187
40
0.77651971679439
40
0.77651971679439
40
0.813766430661992
40
0.813766430661992
40
0.851013144529594
40
0.851013144529594
40
1
40
1
40
1
40
1
41
1
10
26.8612673797498
20
-6.6329649490973
30
0
41
1
10
26.6161712179887
20
-6.67674500073989
30
0
41
1
10
26.3710893695426
20
-6.71645734553945
30
0
41
1
10
25.8367225217475
20
-6.793965117337
30
0
41
1
10
25.547401015181
20
-6.83015467000908
30
0
41
1
10
24.9680754879134
20
-6.89085434452088
30
0
41
1
10
24.6778037606024
20
-6.91537446158228
30
0
41
1
10
23.2288681618401
20
-7.00807362502113
30
0
41
1
10
22.0756842214965
20
-6.9869106135159
30
0
41
1
10
20.6261071412127
20
-6.84190923212029
30
0
41
1
10
20.3360024212231
20
-6.80698769308168
30
0
41
1
10
19.7568786783701
20
-6.72571195319549
30
0
41
1
10
19.467596264292
20
-6.67933444551656
30
0
41
1
10
18.6000342210559
20
-6.52332875826147
30
0
41
1
10
18.0221907538203
20
-6.3967292774322
30
-1E-16
41
1
10
16.8642293223113
20
-6.10037917905407
30
-1E-16
41
1
10
16.2834354817188
20
-5.93037807985752
30
-1E-16
41
1
10
15.125696087264
20
-5.55218413670246
30
3E-16
41
1
10
14.5478629799816
20
-5.34363985582081
30
3E-16
41
1
10
13.6801315537414
20
-5.00444990309873
30
3E-16
41
1
10
13.3907281991904
20
-4.88699088210689
30
3E-16
41
1
10
12.811299706383
20
-4.64361235633336
30
3E-16
41
1
10
12.5209967285743
20
-4.51757415192372
30
3E-16
41
1
10
11.6517007663691
20
-4.12897249111151
30
3E-16
41
1
10
11.0736764038772
20
-3.85568280960268
30
2E-16
41
1
10
9.91777028367875
20
-3.28503306880916
30
2E-16
41
1
10
9.33999375451043
20
-2.98750904018513
30
2E-16
41
1
10
8.47123851075716
20
-2.52648312776839
30
2E-16
41
1
10
8.18097962858019
20
-2.3701991804563
30
1E-16
41
1
10
7.60112802024068
20
-2.05419372010948
30
1E-16
41
1
10
7.31163957536924
20
-1.89454090200073
30
1E-16
41
1
10
5.86541033008825
20
-1.08971135729897
30
1E-16
41
1
10
4.71251497385884
20
-0.424482828300313
30
0
41
1
10
3.55188425109912
20
0.241631100404305
30
0
0
SPLINE
5
EB
100
AcDbEntity
8
1
62
256
6
ByLayer
370
18
48
1
60
0
100
AcDbSpline
70
4
71
3
72
8
73
4
40
0
40
0
40
0
40
0
40
1
40
1
40
1
40
1
41
1
10
58.5377743042238
20
-0.200801194551417
30
0
41
1
10
58.5949492153292
20
-0.230641702398941
30
0
41
1
10
58.6517403047912
20
-0.258630458052522
30
0
41
1
10
58.7082273415915
20
-0.284818728498408
30
0
0
SPLINE
5
EC
100
AcDbEntity
8
1
62
256
6
ByLayer
370
18
48
1
60
0
100
AcDbSpline
70
4
71
3
72
14
73
10
40
0
40
0
40
0
40
0
40
0.353156002271308
40
0.353156002271308
40
0.706312004542615
40
0.706312004542615
40
0.882890005678271
40
0.882890005678271
40
1
40
1
40
1
40
1
41
1
10
6.64543335293712
20
6.61808271287896
30
0
41
1
10
6.26082501151592
20
6.68688699453213
30
0
41
1
10
5.88398397164542
20
6.74881188070825
30
0
41
1
10
5.14938591260665
20
6.85363075413525
30
0
41
1
10
4.79155699229065
20
6.89662014391646
30
0
41
1
10
4.27370303838882
20
6.94031280771509
30
0
41
1
10
4.10425820857145
20
6.95137844288428
30
0
41
1
10
3.82880301613429
20
6.96245285625494
30
0
41
1
10
3.72067241962668
20
6.96491222174188
30
0
41
1
10
3.61520311766785
20
6.96508133634558
30
0
0
SPLINE
5
ED
100
AcDbEntity
8
1
62
256
6
ByLayer
370
18
48
1
60
0
100
AcDbSpline
70
4
71
3
72
8
73
4
40
0
40
0
40
0
40
0
40
1
40
1
40
1
40
1
41
1
10
11.9401279980581
20
5.07306096400521
30
-3E-16
41
1
10
12.1829891686216
20
5.16496270366613
30
-3E-16
41
1
10
12.4248167935104
20
5.25586325439284
30
-3E-16
41
1
10
12.6659022662948
20
5.34501513198376
30
-3E-16
0
SPLINE
5
EE
100
AcDbEntity
8
1
62
256
6
ByLayer
370
18
48
1
60
0
100
AcDbSpline
70
4
71
3
72
34
73
30
40
0
40
0
40
0
40
0
40
0.0877961235881622
40
0.0877961235881622
40
0.175592247176324
40
0.175592247176324
40
0.219490308970405
40
0.219490308970405
40
0.263388370764486
40
0.263388370764486
40
0.351184494352648
40
0.351184494352648
40
0.43898061794081
40
0.43898061794081
40
0.526776741528973
40
0.526776741528973
40
0.614572865117135
40
0.614572865117135
40
0.702368988705297
40
0.702368988705297
40
0.790165112293459
40
0.790165112293459
40
0.834063174087541
40
0.834063174087541
40
0.877961235881623
40
0.877961235881623
40
0.965757359469787
40
0.965757359469787
40
1
40
1
40
1
40
1
41
1
10
58.7136745893472
20
-0.29875254822781
30
0
41
1
10
58.1392844146317
20
0.0170588015744784
30
0
41
1
10
57.5661544725858
20
0.331710988644005
30
0
41
1
10
56.4207061966468
20
0.955332773911977
30
-1E-16
41
1
10
55.8484366002928
20
1.26436656107529
30
-1E-16
41
1
10
54.9895963866856
20
1.72119625223499
30
-1E-16
41
1
10
54.703249609628
20
1.87235110569475
30
-1E-16
41
1
10
54.1301395663244
20
2.17180212500682
30
-1E-16
41
1
10
53.8432320341924
20
2.31995785137346
30
-1E-16
41
1
10
52.980666349239
20
2.75856453060365
30
-2E-16
41
1
10
52.4019950167647
20
3.04399569135597
30
-2E-16
41
1
10
51.2486659246034
20
3.590692209107
30
-2E-16
41
1
10
50.673438779707
20
3.85220366249587
30
-2E-16
41
1
10
49.52224528522
20
4.34762597578202
30
-3E-16
41
1
10
48.9466487951221
20
4.58132597678039
30
-3E-16
41
1
10
47.7913987231343
20
5.01804637118437
30
-3E-16
41
1
10
47.2158708831355
20
5.21942931172487
30
-3E-16
41
1
10
46.0706793761782
20
5.58343469078505
30
1E-16
41
1
10
45.5008163369075
20
5.7456564477082
30
1E-16
41
1
10
44.3605278375219
20
6.03342474523257
30
1E-16
41
1
10
43.7908845781882
20
6.15803256364572
30
1E-16
41
1
10
42.9360322218385
20
6.31289774129573
30
1E-16
41
1
10
42.6511713889774
20
6.35871712960142
30
1E-16
41
1
10
42.080693383102
20
6.44007922457959
30
0
41
1
10
41.7949645746363
20
6.47597977429427
30
0
41
1
10
40.9361308073605
20
6.56852388736564
30
0
41
1
10
40.3613966809349
20
6.60991845011222
30
0
41
1
10
39.5586136118636
20
6.63336353219745
30
0
41
1
10
39.3339283986868
20
6.63583939155592
30
0
41
1
10
39.1096963215642
20
6.63484668256623
30
0
0
SPLINE
5
EF
100
AcDbEntity
8
SK1
62
256
6
ByLayer
370
18
48
1
60
0
100
AcDbSpline
70
4
71
3
72
12
73
8
40
0
40
0
40
0
40
0
40
0.249999999999998
40
0.249999999999998
40
0.499999999999995
40
0.499999999999995
40
1
40
1
40
1
40
1
41
1
10
-43.9
20
-5.76140456172087
30
-1E-16
41
1
10
-43.9
20
-5.7554592289938
30
-1E-16
41
1
10
-43.9042016956282
20
-5.74563682754615
30
-1E-16
41
1
10
-43.9170234176167
20
-5.72339835534612
30
-1E-16
41
1
10
-43.9254954864758
20
-5.71109144982205
30
-1E-16
41
1
10
-43.9538426693661
20
-5.67354429094812
30
-1E-16
41
1
10
-43.9765304760167
20
-5.64771092307896
30
-1E-16
41
1
10
-44
20
-5.62407705546735
30
-1E-16
0
SPLINE
5
F0
100
AcDbEntity
8
SK1
62
256
6
ByLayer
370
18
48
1
60
0
100
AcDbSpline
70
4
71
3
72
8
73
4
40
0
40
0
40
0
40
0
40
1
40
1
40
1
40
1
41
1
10
-44
20
-5.62407705546735
30
-1E-16
41
1
10
-44.0783484952273
20
-5.54517993062217
30
-1E-16
41
1
10
-44.1566621589674
20
-5.46624983018827
30
-1E-16
41
1
10
-44.2349364905389
20
-5.38728249329046
30
-1E-16
0
SPLINE
5
F1
100
AcDbEntity
8
SK1
62
256
6
ByLayer
370
18
48
1
60
0
100
AcDbSpline
70
4
71
3
72
12
73
8
40
0
40
0
40
0
40
0
40
0.500000000000001
40
0.500000000000001
40
0.75
40
0.75
40
1
40
1
40
1
40
1
41
1
10
-44
20
6.05100597137749
30
0
41
1
10
-43.9765248032773
20
6.0746455514514
30
0
41
1
10
-43.9537853574511
20
6.09784652489478
30
0
41
1
10
-43.9256353788013
20
6.1268956743327
30
0
41
1
10
-43.9170526356788
20
6.13582029756364
30
0
41
1
10
-43.9042470853815
20
6.14930944363303
30
0
41
1
10
-43.9
20
6.15390360737214
30
0
41
1
10
-43.9
20
6.15417916435814
30
0
0
SPLINE
5
F2
100
AcDbEntity
8
SK1
62
256
6
ByLayer
370
18
48
1
60
0
100
AcDbSpline
70
4
71
3
72
8
73
4
40
0
40
0
40
0
40
0
40
1
40
1
40
1
40
1
41
1
10
-44.2349364905389
20
-5.81421140920054
30
0
41
1
10
-44.1566621591069
20
-5.89317874595761
30
0
41
1
10
-44.0783484953614
20
-5.97210884639719
30
0
41
1
10
-44
20
-6.05100597137746
30
0
0
SPLINE
5
F3
100
AcDbEntity
8
SK1
62
256
6
ByLayer
370
18
48
1
60
0
100
AcDbSpline
70
4
71
3
72
12
73
8
40
0
40
0
40
0
40
0
40
0.25
40
0.25
40
0.5
40
0.5
40
1
40
1
40
1
40
1
41
1
10
-44.2349364905389
20
-5.81421140920054
30
0
41
1
10
-44.2882412385381
20
-5.75619654629332
30
0
41
1
10
-44.345594482428
20
-5.69148050714131
30
0
41
1
10
-44.4667722327336
20
-5.55121134230859
30
0
41
1
10
-44.5295250914056
20
-5.47690438359868
30
0
41
1
10
-44.7229958850389
20
-5.24399707813481
30
0
41
1
10
-44.8588524619118
20
-5.07554835919203
30
1E-16
41
1
10
-45.0000000000001
20
-4.89715690396676
30
1E-16
0
SPLINE
5
F4
100
AcDbEntity
8
SK1
62
256
6
ByLayer
370
18
48
1
60
0
100
AcDbSpline
70
4
71
3
72
12
73
8
40
0
40
0
40
0
40
0
40
0.25
40
0.25
40
0.5
40
0.5
40
1
40
1
40
1
40
1
41
1
10
-44.2349364905389
20
5.81421140920054
30
0
41
1
10
-44.2882412385381
20
5.75619654629332
30
0
41
1
10
-44.345594482428
20
5.69148050714131
30
0
41
1
10
-44.4667722327336
20
5.55121134230859
30
0
41
1
10
-44.5295250914056
20
5.47690438359868
30
0
41
1
10
-44.7229958850389
20
5.24399707813481
30
0
41
1
10
-44.8588524619118
20
5.07554835919203
30
-1E-16
41
1
10
-45.0000000000001
20
4.89715690396676
30
-1E-16
0
SPLINE
5
F5
100
AcDbEntity
8
SK1
62
256
6
ByLayer
370
18
48
1
60
0
100
AcDbSpline
70
4
71
3
72
8
73
4
40
0
40
0
40
0
40
0
40
1
40
1
40
1
40
1
41
1
10
-44.2349364905389
20
5.81421140920054
30
0
41
1
10
-44.1566621591069
20
5.89317874595761
30
0
41
1
10
-44.0783484953614
20
5.97210884639719
30
0
41
1
10
-44
20
6.05100597137746
30
0
0
SPLINE
5
F6
100
AcDbEntity
8
SK1
62
256
6
ByLayer
370
18
48
1
60
0
100
AcDbSpline
70
4
71
3
72
12
73
8
40
0
40
0
40
0
40
0
40
0.5
40
0.5
40
0.75
40
0.75
40
1
40
1
40
1
40
1
41
1
10
-45.0000000000001
20
-4.18974200279925
30
-2E-16
41
1
10
-44.8589373351094
20
-4.40059163580773
30
-2E-16
41
1
10
-44.7230040519661
20
-4.60752914218835
30
-2E-16
41
1
10
-44.5291778348446
20
-4.91003317459757
30
-1E-16
41
1
10
-44.465948960373
20
-5.01005189697247
30
-1E-16
41
1
10
-44.3454673258227
20
-5.20393228537685
30
-1E-16
41
1
10
-44.2883170206571
20
-5.29760682865953
30
-1E-16
41
1
10
-44.2349364905389
20
-5.38728249329046
30
-1E-16
0
SPLINE
5
F7
100
AcDbEntity
8
SK1
62
256
6
ByLayer
370
18
48
1
60
0
100
AcDbSpline
70
4
71
3
72
12
73
8
40
0
40
0
40
0
40
0
40
0.499999999999996
40
0.499999999999996
40
0.749999999999998
40
0.749999999999998
40
1
40
1
40
1
40
1
41
1
10
-44
20
-6.05100597137749
30
0
41
1
10
-43.9765248032773
20
-6.0746455514514
30
0
41
1
10
-43.9537853574511
20
-6.09784652489478
30
0
41
1
10
-43.9256353788013
20
-6.1268956743327
30
0
41
1
10
-43.9170526356788
20
-6.13582029756364
30
0
41
1
10
-43.9042470853815
20
-6.14930944363303
30
0
41
1
10
-43.9
20
-6.15390360737214
30
0
41
1
10
-43.9
20
-6.15417916435814
30
0
0
SPLINE
5
F8
100
AcDbEntity
8
1
62
256
6
ByLayer
370
18
48
1
60
0
100
AcDbSpline
70
4
71
2
72
6
73
3
40
0
40
0
40
0
40
1
40
1
40
1
41
1
10
42.0783322497471
20
-0.0029206444244494
30
0
41
1
10
42.078311119561
20
-0.0029090646289376
30
0
41
1
10
42.0782899890052
20
-0.0028968840099992
30
0
0
SPLINE
5
F9
100
AcDbEntity
8
1
62
256
6
ByLayer
370
18
48
1
60
0
100
AcDbSpline
70
4
71
3
72
15
73
11
40
0
40
0
40
0
40
0
40
0.11247853695167
40
0.327775563182416
40
0.400459361247331
40
0.465941181947537
40
0.538338933760793
40
0.654370430730357
40
0.815967933221034
40
1
40
1
40
1
40
1
41
1
10
59.2976485571126
20
1.65753763900463
30
-1E-16
41
1
10
58.976964576384
20
1.75362507604714
30
-1E-16
41
1
10
58.0447853179197
20
2.04043669405738
30
-1E-16
41
1
10
56.9161362613595
20
2.42180736036139
30
-1E-16
41
1
10
55.9240883581973
20
2.76923965107838
30
-2E-16
41
1
10
55.3347771742472
20
2.98060377271449
30
-2E-16
41
1
10
54.6259438402732
20
3.24032856870937
30
-2E-16
41
1
10
53.6521967764802
20
3.6078271023643
30
-2E-16
41
1
10
52.3747559603905
20
4.1099064742356
30
-3E-16
41
1
10
51.4260311400384
20
4.50373087059174
30
-3E-16
41
1
10
50.9229340588422
20
4.71835191905157
30
-3E-16
0
SPLINE
5
FA
100
AcDbEntity
8
1
62
256
6
ByLayer
370
18
48
1
60
0
100
AcDbSpline
70
4
71
3
72
25
73
21
40
0
40
0
40
0
40
0
40
6.914739935E-07
40
7.85764538261E-05
40
0.0001388110581435
40
0.0002486909711195
40
0.0004519401709982
40
0.0008413414849904
40
0.0016184990889143
40
0.02468811302662
40
0.0639647035727028
40
0.113223848126689
40
0.237378171747642
40
0.365357187779036
40
0.505269672260952
40
0.590933342965447
40
0.677346455382448
40
0.768247630740745
40
0.881656403578806
40
1
40
1
40
1
40
1
41
1
10
25.3828097421396
20
0.47002565090196
30
0
41
1
10
25.382806899397
20
0.47002637947233
30
0
41
1
10
25.3824838289942
20
0.470109178606918
30
0
41
1
10
25.3819583170612
20
0.470244862767601
30
0
41
1
10
25.3810199836521
20
0.470487220912219
30
0
41
1
10
25.3795966923248
20
0.470854523422958
30
0
41
1
10
25.3769100042453
20
0.471547614061279
30
0
41
1
10
25.3715422375896
20
0.472928998798551
30
0
41
1
10
25.2744105029766
20
0.497869433418998
30
0
41
1
10
24.9972957897871
20
0.569062252885914
30
0
41
1
10
24.5251935593079
20
0.693182817117588
30
0
41
1
10
23.6174626784935
20
0.93804419879757
30
-1E-16
41
1
10
22.3402830981405
20
1.30089326374696
30
-1E-16
41
1
10
20.6864618920991
20
1.80498633607741
30
-1E-16
41
1
10
19.2054138320983
20
2.28944573844296
30
-1E-16
41
1
10
17.9061440952199
20
2.73902421356269
30
-2E-16
41
1
10
16.8161414708091
20
3.13201319713269
30
-2E-16
41
1
10
15.6172741080316
20
3.58253070658844
30
-2E-16
41
1
10
14.2945692661641
20
4.10197883171057
30
-3E-16
41
1
10
13.3523577043649
20
4.49319634783163
30
-3E-16
41
1
10
12.8731413862897
20
4.69749935878761
30
-3E-16
0
SPLINE
5
FB
100
AcDbEntity
8
1
62
256
6
ByLayer
370
18
48
1
60
0
100
AcDbSpline
70
4
71
3
72
22
73
18
40
0
40
0
40
0
40
0
40
0.116425984386326
40
0.208405824540333
40
0.272205934959422
40
0.324774348767025
40
0.385899454145077
40
0.444655250431495
40
0.506484962224605
40
0.551539001732762
40
0.593018710177575
40
0.646980823982853
40
0.736278710514304
40
0.799750438127037
40
0.877977927144855
40
0.975586450813966
40
1
40
1
40
1
40
1
41
1
10
23.0261131191747
20
-6.62736835732312
30
0
41
1
10
23.5047668356781
20
-6.62695346484892
30
0
41
1
10
24.3620196295081
20
-6.62657373733947
30
0
41
1
10
25.4822860471833
20
-6.62875617394698
30
0
41
1
10
26.3409564201232
20
-6.62854005148918
30
0
41
1
10
27.0737991037564
20
-6.62893552739354
30
0
41
1
10
27.7855018271487
20
-6.63044836310445
30
0
41
1
10
28.5355230175918
20
-6.63018655823947
30
0
41
1
10
29.2191842121728
20
-6.62989143016344
30
0
41
1
10
29.8315472552644
20
-6.62973935712142
30
0
41
1
10
30.4114356507577
20
-6.63037562585365
30
0
41
1
10
31.1739347038573
20
-6.63289959201239
30
0
41
1
10
32.0272041952382
20
-6.63251362772144
30
0
41
1
10
32.9806519014032
20
-6.63087259269477
30
0
41
1
10
33.9681719857777
20
-6.63159960448326
30
0
41
1
10
34.7947521640099
20
-6.63260163340703
30
0
41
1
10
35.2983815761031
20
-6.63366575906409
30
0
41
1
10
35.399142649565
20
-6.63387306476355
30
0
0
SPLINE
5
FC
100
AcDbEntity
8
1
62
256
6
ByLayer
370
18
48
1
60
0
100
AcDbSpline
70
4
71
3
72
25
73
21
40
0
40
0
40
0
40
0
40
0.0805873504598924
40
0.161594365072793
40
0.227261105046982
40
0.272595570385918
40
0.3250271269031
40
0.375697810459176
40
0.440414188017089
40
0.518999956229991
40
0.584883976229921
40
0.629991769192307
40
0.674939738622804
40
0.725523779114371
40
0.78294775128339
40
0.842142575727101
40
0.886778824740024
40
0.927201520638305
40
0.979780225719498
40
1
40
1
40
1
40
1
41
1
10
39.1373793156383
20
6.63503293600829
30
0
41
1
10
38.8110421074662
20
6.6328368980721
30
0
41
1
10
38.1558048939285
20
6.62993850109081
30
0
41
1
10
37.2266976927187
20
6.63439348360072
30
0
41
1
10
36.447752774575
20
6.63485477842468
30
0
41
1
10
35.7779350507887
20
6.63473535711375
30
0
41
1
10
35.170367907543
20
6.63323359219075
30
0
41
1
10
34.4824959624731
20
6.63254957604443
30
0
41
1
10
33.6877156648094
20
6.63112224739629
30
0
41
1
10
32.8305007933342
20
6.63112631544732
30
0
41
1
10
32.0536723021581
20
6.63240279970788
30
0
41
1
10
31.4146700003349
20
6.63262872911926
30
0
41
1
10
30.8383660269268
20
6.63188399580048
30
0
41
1
10
30.2115975898929
20
6.62985796149644
30
0
41
1
10
29.5264430578836
20
6.62976346188421
30
0
41
1
10
28.8656620158953
20
6.63007292573022
30
0
41
1
10
28.2745474776241
20
6.63025427709798
30
0
41
1
10
27.7105447974199
20
6.63028945146749
30
0
41
1
10
27.2465965674333
20
6.62930305145852
30
0
41
1
10
26.9482912334696
20
6.62897027907658
30
0
41
1
10
26.8654367066772
20
6.62889635967016
30
0
0
LINE
5
84
100
AcDbEntity
8
1
62
256
6
ByLayer
370
18
48
1
60
0
100
AcDbLine
10
61.902385
20
0.084268
30
0
11
60.274964
21
1.880658
31
0
39
0
210
0
220
0
230
1
0
LINE
5
85
100
AcDbEntity
8
1
62
256
6
ByLayer
370
18
48
1
60
0
100
AcDbLine
10
30
20
5.267106
30
0
11
30
21
5.189028
31
0
39
0
210
0
220
0
230
1
0
LINE
5
86
100
AcDbEntity
8
1
62
256
6
ByLayer
370
18
48
1
60
0
100
AcDbLine
10
1
20
0
30
0
11
1
21
6.963466
31
0
39
0
210
0
220
0
230
1
0
LINE
5
87
100
AcDbEntity
8
1
62
256
6
ByLayer
370
18
48
1
60
0
100
AcDbLine
10
1
20
-6.963466
30
0
11
1
21
0
31
0
39
0
210
0
220
0
230
1
0
LINE
5
88
100
AcDbEntity
8
1
62
256
6
ByLayer
370
18
48
1
60
0
100
AcDbLine
10
3.501685
20
0.328276
30
0
11
3.501685
21
6.784365
31
0
39
0
210
0
220
0
230
1
0
LINE
5
89
100
AcDbEntity
8
1
62
256
6
ByLayer
370
18
48
1
60
0
100
AcDbLine
10
0
20
7
30
0
11
0
21
-7
31
0
39
0
210
0
220
0
230
1
0
LINE
5
8A
100
AcDbEntity
8
SK1
62
256
6
ByLayer
370
18
48
1
60
0
100
AcDbLine
10
-45
20
-4.897157
30
0
11
-45
21
-4.189657
31
0
39
0
210
0
220
0
230
1
0
LINE
5
8C
100
AcDbEntity
8
SK1
62
256
6
ByLayer
370
18
48
1
60
0
100
AcDbLine
10
-44
20
-6.051006
30
0
11
-44
21
-5.623953
31
0
39
0
210
0
220
0
230
1
0
LINE
5
8D
100
AcDbEntity
8
SK1
62
256
6
ByLayer
370
18
48
1
60
0
100
AcDbLine
10
-43.9
20
-6.155
30
0
11
-43.9
21
-5.761405
31
0
39
0
210
0
220
0
230
1
0
LINE
5
8E
100
AcDbEntity
8
SK1
62
256
6
ByLayer
370
18
48
1
60
0
100
AcDbLine
10
-44.234936
20
-5.814211
30
0
11
-44.234936
21
-5.387154
31
0
39
0
210
0
220
0
230
1
0
LINE
5
8F
100
AcDbEntity
8
SK1
62
256
6
ByLayer
370
18
48
1
60
0
100
AcDbLine
10
-43.9
20
6.155
30
0
11
-43.9
21
6.154179
31
0
39
0
210
0
220
0
230
1
0
LINE
5
90
100
AcDbEntity
8
SK1
62
256
6
ByLayer
370
18
48
1
60
0
100
AcDbLine
10
-45
20
4.897157
30
0
11
-45
21
-4.189742
31
0
39
0
210
0
220
0
230
1
0
LINE
5
91
100
AcDbEntity
8
SK1
62
256
6
ByLayer
370
18
48
1
60
0
100
AcDbLine
10
0
20
7
30
0
11
0
21
-7
31
0
39
0
210
0
220
0
230
1
0
LINE
5
92
100
AcDbEntity
8
SK1
62
256
6
ByLayer
370
18
48
1
60
0
100
AcDbLine
10
-43.055
20
-7
30
0
11
-43.055
21
7
31
0
39
0
210
0
220
0
230
1
0
LINE
5
93
100
AcDbEntity
8
SK1
62
256
6
ByLayer
370
18
48
1
60
0
100
AcDbLine
10
-43.055
20
-7
30
0
11
0
21
-7
31
0
39
0
210
0
220
0
230
1
0
LINE
5
94
100
AcDbEntity
8
SK1
62
256
6
ByLayer
370
18
48
1
60
0
100
AcDbLine
10
0
20
7
30
0
11
-43.055
21
7
31
0
39
0
210
0
220
0
230
1
0
LINE
5
95
100
AcDbEntity
8
SK1
62
256
6
ByLayer
370
18
48
1
60
0
100
AcDbLine
10
-43.9
20
-6.155
30
0
11
-43.055
21
-7
31
0
39
0
210
0
220
0
230
1
0
LINE
5
96
100
AcDbEntity
8
SK1
62
256
6
ByLayer
370
18
48
1
60
0
100
AcDbLine
10
-43.055
20
7
30
0
11
-43.9
21
6.155
31
0
39
0
210
0
220
0
230
1
0
LINE
5
97
100
AcDbEntity
8
1
62
256
6
ByLayer
370
18
48
1
60
0
100
AcDbLine
10
1
20
6.963466
30
0
11
0
21
7
31
0
39
0
210
0
220
0
230
1
0
LINE
5
98
100
AcDbEntity
8
1
62
256
6
ByLayer
370
18
48
1
60
0
100
AcDbLine
10
0
20
-7
30
0
11
1
21
-6.963466
31
0
39
0
210
0
220
0
230
1
0
LINE
5
99
100
AcDbEntity
8
1
62
256
6
ByLayer
370
18
48
1
60
0
100
AcDbLine
10
1
20
-6.963466
30
0
11
3.623209
21
-6.965106
31
0
39
0
210
0
220
0
230
1
0
LINE
5
9A
100
AcDbEntity
8
1
62
256
6
ByLayer
370
18
48
1
60
0
100
AcDbLine
10
21.114987
20
-6.976038
30
0
11
23.022558
21
-6.97723
31
0
39
0
210
0
220
0
230
1
0
LINE
5
9B
100
AcDbEntity
8
1
62
256
6
ByLayer
370
18
48
1
60
0
100
AcDbLine
10
39.137505
20
-6.987302
30
0
11
40.857395
21
-6.988377
31
0
39
0
210
0
220
0
230
1
0
LINE
5
9C
100
AcDbEntity
8
1
62
256
6
ByLayer
370
18
48
1
60
0
100
AcDbLine
10
40.857395
20
6.988377
30
0
11
39.137505
21
6.987302
31
0
39
0
210
0
220
0
230
1
0
LINE
5
9D
100
AcDbEntity
8
1
62
256
6
ByLayer
370
18
48
1
60
0
100
AcDbLine
10
23.022558
20
6.97723
30
0
11
21.114987
21
6.976038
31
0
39
0
210
0
220
0
230
1
0
LINE
5
9E
100
AcDbEntity
8
1
62
256
6
ByLayer
370
18
48
1
60
0
100
AcDbLine
10
3.623209
20
6.965106
30
0
11
1
21
6.963466
31
0
39
0
210
0
220
0
230
1
0
LINE
5
9F
100
AcDbEntity
8
SK4
62
256
6
ByLayer
370
18
48
0.05
60
0
100
AcDbLine
10
67
20
0
30
0
11
-50
21
0
31
0
39
0
210
0
220
0
230
1
0
LINE
5
A1
100
AcDbEntity
8
4
62
256
6
ByLayer
370
18
48
0.05
60
0
100
AcDbLine
10
-45
20
0
30
0
11
67
21
0
31
0
39
0
210
0
220
0
230
1
0
LINE
5
A3
100
AcDbEntity
8
80
62
256
6
ByLayer
370
18
48
1
60
0
100
AcDbLine
10
0
20
0
30
0
11
-6
21
0
31
0
39
0
210
0
220
0
230
1
0
LINE
5
A4
100
AcDbEntity
8
81
62
256
6
ByLayer
370
18
48
1
60
0
100
AcDbLine
10
62
20
0
30
0
11
68
21
0
31
0
39
0
210
0
220
0
230
1
0
LINE
5
A5
100
AcDbEntity
8
SK2
62
256
6
ByLayer
370
13
48
1
60
0
100
AcDbLine
10
62.542959
20
1.491761
30
0
11
69.92634
21
21.777368
31
0
39
0
210
0
220
0
230
1
0
LINE
5
A7
100
AcDbEntity
8
SK2
62
256
6
ByLayer
370
13
48
1
60
0
100
AcDbLine
10
62.542959
20
-1.491761
30
0
11
69.92634
21
-21.777368
31
0
39
0
210
0
220
0
230
1
0
LINE
5
A8
100
AcDbEntity
8
1
62
256
6
ByLayer
370
13
48
1
60
0
100
AcDbLine
10
68.840423
20
18.793845
30
0
11
71.937012
21
17.97747
31
0
39
0
210
0
220
0
230
1
0
LINE
5
A9
100
AcDbEntity
8
1
62
256
6
ByLayer
370
13
48
1
60
0
100
AcDbLine
10
68.840423
20
18.793845
30
0
11
71.620208
21
17.203829
31
0
39
0
210
0
220
0
230
1
0
LINE
5
AA
100
AcDbEntity
8
1
62
256
6
ByLayer
370
13
48
1
60
0
100
AcDbLine
10
71.937012
20
17.97747
30
0
11
71.620208
21
17.203829
31
0
39
0
210
0
220
0
230
1
0
LINE
5
AB
100
AcDbEntity
8
1
62
256
6
ByLayer
370
13
48
1
60
0
100
AcDbLine
10
68.840423
20
-18.793845
30
0
11
71.620205
21
-17.203831
31
0
39
0
210
0
220
0
230
1
0
LINE
5
AC
100
AcDbEntity
8
1
62
256
6
ByLayer
370
13
48
1
60
0
100
AcDbLine
10
68.840423
20
-18.793845
30
0
11
71.937015
21
-17.977469
31
0
39
0
210
0
220
0
230
1
0
LINE
5
AD
100
AcDbEntity
8
1
62
256
6
ByLayer
370
13
48
1
60
0
100
AcDbLine
10
71.620205
20
-17.203831
30
0
11
71.937015
21
-17.977469
31
0
39
0
210
0
220
0
230
1
0
MTEXT
5
FD
100
AcDbEntity
8
SK2
62
256
6
ByLayer
370
18
48
1
60
0
100
AcDbMText
10
75.717388
20
-2.467451
30
0
210
0
220
0
230
1
1
\W0.7237;140.00
40
3.50012
41
0
44
1.084337
50
0
71
7
72
5
7
iso_b_vert
0
MTEXT
5
100
100
AcDbEntity
8
SK6
62
256
6
ByLayer
370
18
48
1
60
0
100
AcDbMText
10
-28.815858
20
-51.396434
30
0
210
0
220
0
230
1
1
\W0.7388;860.1-1400-038A1-GM X1BM
40
3.175
41
0
44
1.084337
50
0
71
7
72
5
7
iso_b_vert
0
DIMENSION
5
103
100
AcDbEntity
8
SK2
62
256
6
ByLayer
370
18
48
1
60
0
100
AcDbDimension
2
_U0
10
62
20
-30.50012
30
0
11
31
21
-30.50012
31
0
70
32
71
2
72
1
41
1
210
0
220
0
230
1
3
Standard
100
AcDbAlignedDimension
13
0
23
-7
33
0
14
62
24
0
34
0
50
0
100
AcDbRotatedDimension
1001
ACAD
1000
DSTYLE
1002
{
1070
   371
1070
    13
1070
   372
1070
    13
1070
     3
1000

1070
   170
1070
     0
1070
   144
1040
1.0
1070
   277
1070
     2
1070
   284
1070
     8
1070
   278
1070
    46
1070
   146
1040
0.999966
1070
   345
1005
16
1070
   347
1005
16
1070
   346
1005
16
1070
   344
1005
104
1070
   343
1005
104
1070
   172
1070
     1
1070
    76
1070
     0
1070
    75
1070
     0
1070
   282
1070
     0
1070
   281
1070
     0
1070
    71
1070
     0
1070
    74
1070
     0
1070
   279
1070
     0
1070
   173
1070
     1
1070
   340
1005
FE
1070
   271
1070
     1
1070
   272
1070
     2
1070
    77
1070
     1
1070
    73
1070
     1
1070
   171
1070
     3
1070
   274
1070
     4
1070
   177
1070
   150
1070
   176
1070
     9
1070
   178
1070
    43
1070
    78
1070
     8
1070
    48
1040
-0.1
1070
    41
1040
3.175
1070
   147
1040
1.75006
1070
    42
1040
1.5875
1070
    44
1040
3.175
1070
   140
1040
3.50012
1002
}
1001
ACAD_DSTYLE_DIM_LINETYPE
1070
   380
1005
16
1001
ACAD_DSTYLE_DIM_EXT1_LINETYPE
1070
   381
1005
16
1001
ACAD_DSTYLE_DIM_EXT2_LINETYPE
1070
   382
1005
16
0
DIMENSION
5
129
100
AcDbEntity
8
2
62
256
6
ByLayer
370
18
48
1
60
0
100
AcDbDimension
2
_U1
10
68.75006
20
7
30
0
11
68.75006
21
21.573199
31
0
70
32
71
1
72
1
41
1
210
0
220
0
230
1
3
Standard
100
AcDbAlignedDimension
13
59.4522
23
-7
33
0
14
59.4522
24
7
34
0
50
90
100
AcDbRotatedDimension
1001
ACAD
1000
DSTYLE
1002
{
1070
   371
1070
    13
1070
   372
1070
    13
1070
     3
1000

1070
   170
1070
     0
1070
   144
1040
1.0
1070
   277
1070
     2
1070
   284
1070
     8
1070
   278
1070
    46
1070
   146
1040
0.999966
1070
   345
1005
16
1070
   347
1005
16
1070
   346
1005
16
1070
   344
1005
104
1070
   343
1005
104
1070
   172
1070
     1
1070
    76
1070
     0
1070
    75
1070
     0
1070
   282
1070
     0
1070
   281
1070
     0
1070
    71
1070
     0
1070
    74
1070
     0
1070
   279
1070
     0
1070
   173
1070
     1
1070
   340
1005
FE
1070
   271
1070
     1
1070
   272
1070
     2
1070
    77
1070
     1
1070
    73
1070
     0
1070
   171
1070
     3
1070
   274
1070
     4
1070
   177
1070
   150
1070
   176
1070
     9
1070
   178
1070
    43
1070
    78
1070
     8
1070
    48
1040
-0.1
1070
    41
1040
3.175
1070
   147
1040
1.75006
1070
    42
1040
1.5875
1070
    44
1040
3.175
1070
   140
1040
3.50012
1002
}
1001
ACAD_DSTYLE_DIM_LINETYPE
1070
   380
1005
16
1001
ACAD_DSTYLE_DIM_EXT1_LINETYPE
1070
   381
1005
16
1001
ACAD_DSTYLE_DIM_EXT2_LINETYPE
1070
   382
1005
16
0
DIMENSION
5
148
100
AcDbEntity
8
SK2
62
256
6
ByLayer
370
18
48
1
60
0
100
AcDbDimension
2
_U2
10
-48.24994
20
-7
30
0
11
-48.24994
21
22.161943
31
0
70
32
71
1
72
1
41
1
210
0
220
0
230
1
3
Standard
100
AcDbAlignedDimension
13
-45
23
7
33
0
14
-45
24
-7
34
0
50
90
100
AcDbRotatedDimension
1001
ACAD
1000
DSTYLE
1002
{
1070
   371
1070
    13
1070
   372
1070
    13
1070
     3
1000

1070
   170
1070
     0
1070
   144
1040
1.0
1070
   277
1070
     2
1070
   284
1070
     8
1070
   278
1070
    46
1070
   146
1040
0.999966
1070
   345
1005
16
1070
   347
1005
16
1070
   346
1005
16
1070
   344
1005
104
1070
   343
1005
104
1070
   172
1070
     1
1070
    76
1070
     0
1070
    75
1070
     0
1070
   282
1070
     0
1070
   281
1070
     0
1070
    71
1070
     0
1070
    74
1070
     0
1070
   279
1070
     0
1070
   173
1070
     1
1070
   340
1005
FE
1070
   271
1070
     1
1070
   272
1070
     2
1070
    77
1070
     1
1070
    73
1070
     0
1070
   171
1070
     3
1070
   274
1070
     4
1070
   177
1070
   150
1070
   176
1070
     9
1070
   178
1070
    43
1070
    78
1070
     8
1070
    48
1040
-0.1
1070
    41
1040
3.175
1070
   147
1040
1.75006
1070
    42
1040
1.5875
1070
    44
1040
3.175
1070
   140
1040
3.50012
1002
}
1001
ACAD_DSTYLE_DIM_LINETYPE
1070
   380
1005
16
1001
ACAD_DSTYLE_DIM_EXT1_LINETYPE
1070
   381
1005
16
1001
ACAD_DSTYLE_DIM_EXT2_LINETYPE
1070
   382
1005
16
0
DIMENSION
5
166
100
AcDbEntity
8
SK2
62
256
6
ByLayer
370
18
48
1
60
0
100
AcDbDimension
2
_U3
10
0
20
-30.50012
30
0
11
-22.5
21
-30.50012
31
0
70
32
71
1
72
1
41
1
210
0
220
0
230
1
3
Standard
100
AcDbAlignedDimension
13
-45
23
-7
33
0
14
0
24
-7
34
0
50
0
100
AcDbRotatedDimension
1001
ACAD
1000
DSTYLE
1002
{
1070
   371
1070
    13
1070
   372
1070
    13
1070
     3
1000

1070
   170
1070
     0
1070
   144
1040
1.0
1070
   277
1070
     2
1070
   284
1070
     8
1070
   278
1070
    46
1070
   146
1040
0.999966
1070
   345
1005
16
1070
   347
1005
16
1070
   346
1005
16
1070
   344
1005
104
1070
   343
1005
104
1070
   172
1070
     1
1070
    76
1070
     0
1070
    75
1070
     0
1070
   282
1070
     0
1070
   281
1070
     0
1070
    71
1070
     0
1070
    74
1070
     0
1070
   279
1070
     0
1070
   173
1070
     1
1070
   340
1005
FE
1070
   271
1070
     1
1070
   272
1070
     2
1070
    77
1070
     1
1070
    73
1070
     1
1070
   171
1070
     3
1070
   274
1070
     4
1070
   177
1070
   150
1070
   176
1070
     9
1070
   178
1070
    43
1070
    78
1070
     8
1070
    48
1040
-0.1
1070
    41
1040
3.175
1070
   147
1040
1.75006
1070
    42
1040
1.5875
1070
    44
1040
3.175
1070
   140
1040
3.50012
1002
}
1001
ACAD_DSTYLE_DIM_LINETYPE
1070
   380
1005
16
1001
ACAD_DSTYLE_DIM_EXT1_LINETYPE
1070
   381
1005
16
1001
ACAD_DSTYLE_DIM_EXT2_LINETYPE
1070
   382
1005
16
0
DIMENSION
5
182
100
AcDbEntity
8
SK2
62
256
6
ByLayer
370
18
48
1
60
0
100
AcDbDimension
2
_U4
10
62
20
-21.74982
30
0
11
32
21
-21.74982
31
0
70
32
71
1
72
1
41
1
210
0
220
0
230
1
3
Standard
100
AcDbAlignedDimension
13
2
23
7.5
33
0
14
62
24
0
34
0
50
0
100
AcDbRotatedDimension
1001
ACAD
1000
DSTYLE
1002
{
1070
   371
1070
    13
1070
   372
1070
    13
1070
     3
1000

1070
   170
1070
     0
1070
   144
1040
1.0
1070
   277
1070
     2
1070
   284
1070
     8
1070
   278
1070
    46
1070
   146
1040
0.999966
1070
   345
1005
16
1070
   347
1005
16
1070
   346
1005
16
1070
   344
1005
104
1070
   343
1005
104
1070
   172
1070
     1
1070
    76
1070
     0
1070
    75
1070
     0
1070
   282
1070
     0
1070
   281
1070
     0
1070
    71
1070
     0
1070
    74
1070
     0
1070
   279
1070
     0
1070
   173
1070
     1
1070
   340
1005
FE
1070
   271
1070
     1
1070
   272
1070
     2
1070
    77
1070
     1
1070
    73
1070
     1
1070
   171
1070
     3
1070
   274
1070
     4
1070
   177
1070
   150
1070
   176
1070
     9
1070
   178
1070
    43
1070
    78
1070
     8
1070
    48
1040
-0.1
1070
    41
1040
3.175
1070
   147
1040
1.75006
1070
    42
1040
1.5875
1070
    44
1040
3.175
1070
   140
1040
3.50012
1002
}
1001
ACAD_DSTYLE_DIM_LINETYPE
1070
   380
1005
16
1001
ACAD_DSTYLE_DIM_EXT1_LINETYPE
1070
   381
1005
16
1001
ACAD_DSTYLE_DIM_EXT2_LINETYPE
1070
   382
1005
16
0
DIMENSION
5
19E
100
AcDbEntity
8
SK2
62
256
6
ByLayer
370
18
48
1
60
0
100
AcDbDimension
2
_U5
10
62
20
-13.82
30
0
11
40.5
21
-13.82
31
0
70
32
71
1
72
1
41
1
210
0
220
0
230
1
3
Standard
100
AcDbAlignedDimension
13
19
23
-7
33
0
14
62
24
0
34
0
50
0
100
AcDbRotatedDimension
1001
ACAD
1000
DSTYLE
1002
{
1070
   371
1070
    13
1070
   372
1070
    13
1070
     3
1000

1070
   170
1070
     0
1070
   144
1040
1.0
1070
   277
1070
     2
1070
   284
1070
     8
1070
   278
1070
    46
1070
   146
1040
1.25
1070
   345
1005
16
1070
   347
1005
16
1070
   346
1005
16
1070
   344
1005
104
1070
   343
1005
104
1070
   172
1070
     1
1070
    76
1070
     0
1070
    75
1070
     0
1070
   282
1070
     0
1070
   281
1070
     0
1070
    71
1070
     0
1070
    74
1070
     0
1070
   279
1070
     0
1070
   173
1070
     1
1070
   340
1005
FE
1070
   271
1070
     1
1070
   272
1070
     2
1070
    77
1070
     1
1070
    73
1070
     1
1070
   171
1070
     3
1070
   274
1070
     4
1070
   177
1070
   150
1070
   176
1070
     9
1070
   178
1070
    43
1070
    78
1070
     8
1070
    48
1040
-0.1
1070
    41
1040
3.175
1070
   147
1040
0.42
1070
    42
1040
1.5875
1070
    44
1040
0.5
1070
   140
1040
2.8
1002
}
1001
ACAD_DSTYLE_DIM_LINETYPE
1070
   380
1005
16
1001
ACAD_DSTYLE_DIM_EXT1_LINETYPE
1070
   381
1005
16
1001
ACAD_DSTYLE_DIM_EXT2_LINETYPE
1070
   382
1005
16
0
DIMENSION
5
1BA
100
AcDbEntity
8
SK2
62
256
6
ByLayer
370
18
48
1
60
0
100
AcDbDimension
2
_U6
10
62
20
-40.50012
30
0
11
8.5
21
-40.50012
31
0
70
32
71
1
72
1
41
1
210
0
220
0
230
1
3
Standard
100
AcDbAlignedDimension
13
-45
23
0
33
0
14
62
24
0
34
0
50
0
100
AcDbRotatedDimension
1001
ACAD
1000
DSTYLE
1002
{
1070
   371
1070
    13
1070
   372
1070
    13
1070
     3
1000

1070
   170
1070
     0
1070
   144
1040
1.0
1070
   277
1070
     2
1070
   284
1070
     8
1070
   278
1070
    46
1070
   146
1040
0.999966
1070
   345
1005
16
1070
   347
1005
16
1070
   346
1005
16
1070
   344
1005
104
1070
   343
1005
104
1070
   172
1070
     1
1070
    76
1070
     0
1070
    75
1070
     0
1070
   282
1070
     0
1070
   281
1070
     0
1070
    71
1070
     0
1070
    74
1070
     0
1070
   279
1070
     0
1070
   173
1070
     1
1070
   340
1005
FE
1070
   271
1070
     1
1070
   272
1070
     2
1070
    77
1070
     1
1070
    73
1070
     1
1070
   171
1070
     3
1070
   274
1070
     4
1070
   177
1070
   150
1070
   176
1070
     9
1070
   178
1070
    43
1070
    78
1070
     8
1070
    48
1040
-0.1
1070
    41
1040
3.175
1070
   147
1040
1.75006
1070
    42
1040
1.5875
1070
    44
1040
3.175
1070
   140
1040
3.50012
1002
}
1001
ACAD_DSTYLE_DIM_LINETYPE
1070
   380
1005
16
1001
ACAD_DSTYLE_DIM_EXT1_LINETYPE
1070
   381
1005
16
1001
ACAD_DSTYLE_DIM_EXT2_LINETYPE
1070
   382
1005
16
0
ENDSEC
0
SECTION
2
OBJECTS
0
DICTIONARY
5
246
330
0
100
AcDbDictionary
280
0
281
1
3
ACAD_GROUP
350
247
3
ACAD_MLINESTYLE
350
248
0
DICTIONARY
5
247
330
0
100
AcDbDictionary
280
0
281
1
0
DICTIONARY
5
248
330
0
100
AcDbDictionary
280
0
281
1
3
Standard
350
18
0
MLINESTYLE
5
18
330
248
100
AcDbMlineStyle
2
Standard
70
0
3

62
256
51
90
52
90
71
2
49
-0.5
62
256
6
ByLayer
49
0.5
62
256
6
ByLayer
0
RASTERVARIABLES
5
234
330

100
AcDbRasterVariables
90
0
70
1
71
1
72
1
0
ENDSEC
0
EOF
