0
SECTION
2
HEADER
9
$ACADVER
1
AC1015
9
$DWGCODEPAGE
3
ANSI_1252
9
$HANDSEED
5
251
9
$ANGBASE
50
0
9
$ANGDIR
70
0
9
$ATTMODE
70
1
9
$AUNITS
70
0
9
$AUPREC
70
0
9
$CECOLOR
62
256
9
$CELTSCALE
40
1
9
$CELTYPE
6
ByLayer
9
$CELWEIGHT
370
18
9
$CLAYER
8
0
9
$CMLJUST
70
0
9
$CMLSCALE
40
1
9
$CMLSTYLE
2
Standard
9
$DIMSTYLE
2
Standard
9
$TEXTSIZE
40
0.2
9
$TEXTSTYLE
7
Standard
9
$LUNITS
70
2
9
$LUPREC
70
4
9
$EXTNAMES
290
1
9
$INSUNITS
70
4
9
$LTSCALE
40
1
9
$LWDISPLAY
290
1
9
$PDMODE
70
0
9
$PDSIZE
40
0
9
$PLINEGEN
70
0
0
ENDSEC
0
SECTION
2
CLASSES
0
CLASS
1
RASTERVARIABLES
2
AcDbRasterVariables
3
ISM
90
0
280
0
281
0
0
ENDSEC
0
SECTION
2
TABLES
0
TABLE
2
VPORT
5
247
100
AcDbSymbolTable
0
VPORT
5
1
100
AcDbSymbolTableRecord
100
AcDbViewportTableRecord
2
*Active
70
0
10
0
20
0
11
1
21
1
12
-1
22
1
13
0
23
0
14
0.5
24
0.5
15
10
25
10
16
0
26
0
36
1
17
0
27
0
37
0
0
ENDTAB
0
TABLE
2
LTYPE
5
248
100
AcDbSymbolTable
0
LTYPE
5
14
100
AcDbSymbolTableRecord
100
AcDbLinetypeTableRecord
70
0
2
ByBlock
3

72
65
73
0
40
0
0
LTYPE
5
15
100
AcDbSymbolTableRecord
100
AcDbLinetypeTableRecord
70
0
2
ByLayer
3

72
65
73
0
40
0
0
LTYPE
5
16
100
AcDbSymbolTableRecord
100
AcDbLinetypeTableRecord
70
0
2
Continuous
3
Solid line
72
65
73
0
40
0
0
LTYPE
5
6E
100
AcDbSymbolTableRecord
100
AcDbLinetypeTableRecord
70
0
2
CENTER
3
____ _ ____ _ ____ _ ____
72
65
73
4
40
47.5
49
22
74
0
49
-8.5
74
0
49
8.5
74
0
49
-8.5
74
0
0
LTYPE
5
6F
100
AcDbSymbolTableRecord
100
AcDbLinetypeTableRecord
70
0
2
DASHED
3
__ __ __ __ __ __ __ __ __
72
65
73
2
40
25.72
49
12.86
74
0
49
-12.86
74
0
0
ENDTAB
0
TABLE
2
LAYER
5
249
100
AcDbSymbolTable
0
LAYER
5
10
100
AcDbSymbolTableRecord
100
AcDbLayerTableRecord
2
0
70
0
62
7
6
Continuous
290
1
370
-3
390
0
0
LAYER
5
71
100
AcDbSymbolTableRecord
100
AcDbLayerTableRecord
2
80
70
0
62
-6
6
Continuous
290
1
370
-3
390
0
0
LAYER
5
73
100
AcDbSymbolTableRecord
100
AcDbLayerTableRecord
2
81
70
0
62
-3
6
Continuous
290
1
370
-3
390
0
0
LAYER
5
75
100
AcDbSymbolTableRecord
100
AcDbLayerTableRecord
2
1
70
0
62
4
6
Continuous
290
1
370
-3
390
0
0
LAYER
5
A5
100
AcDbSymbolTableRecord
100
AcDbLayerTableRecord
2
4
70
0
62
-2
6
CENTER
290
1
370
-3
390
0
0
LAYER
5
10B
100
AcDbSymbolTableRecord
100
AcDbLayerTableRecord
2
Defpoints
70
0
62
7
6
Continuous
290
0
370
-3
390
0
0
LAYER
5
138
100
AcDbSymbolTableRecord
100
AcDbLayerTableRecord
2
2
70
0
62
7
6
Continuous
290
1
370
-3
390
0
0
LAYER
5
233
100
AcDbSymbolTableRecord
100
AcDbLayerTableRecord
2
SK1
70
0
62
4
6
Continuous
290
1
370
-3
390
0
0
LAYER
5
234
100
AcDbSymbolTableRecord
100
AcDbLayerTableRecord
2
SK4
70
0
62
2
6
CENTER
290
1
370
-3
390
0
0
LAYER
5
235
100
AcDbSymbolTableRecord
100
AcDbLayerTableRecord
2
SK2
70
0
62
7
6
Continuous
290
1
370
-3
390
0
0
LAYER
5
236
100
AcDbSymbolTableRecord
100
AcDbLayerTableRecord
2
SK6
70
0
62
5
6
Continuous
290
1
370
-3
390
0
0
ENDTAB
0
TABLE
2
STYLE
5
24a
100
AcDbSymbolTable
0
STYLE
5
11
100
AcDbSymbolTableRecord
100
AcDbTextStyleTableRecord
2
Standard
3
txt
70
0
71
0
40
0
41
1
42
0
50
0
0
STYLE
5
FC
100
AcDbSymbolTableRecord
100
AcDbTextStyleTableRecord
2
iso_b_vert
3
simplex.shx
70
0
71
0
40
0
41
1
42
0
50
0
0
STYLE
5
FD
100
AcDbSymbolTableRecord
100
AcDbTextStyleTableRecord
2
DWGDirectTextStyle
3
simplex
70
0
71
0
40
0
41
1
42
0
50
0
0
ENDTAB
0
TABLE
2
DIMSTYLE
5
24b
100
AcDbSymbolTable
100
AcDbDimStyleTable
0
DIMSTYLE
105
27
100
AcDbSymbolTableRecord
100
AcDbDimStyleTableRecord
2
Standard
70
0
3
<>
41
0.18
42
0.0625
44
0.18
140
0.18
147
0.09
73
0
74
0
77
1
271
2
275
0
278
52
280
0
340
11
0
ENDTAB
0
TABLE
2
VIEW
5
24c
100
AcDbSymbolTable
0
ENDTAB
0
TABLE
2
UCS
5
24d
100
AcDbSymbolTable
0
ENDTAB
0
TABLE
2
APPID
5
24e
100
AcDbSymbolTable
0
APPID
5
12
100
AcDbSymbolTableRecord
100
AcDbRegAppTableRecord
2
ACAD
70
0
0
APPID
5
100
100
AcDbSymbolTableRecord
100
AcDbRegAppTableRecord
2
ACAD_DSTYLE_DIMBREAK
70
0
0
APPID
5
1F2
100
AcDbSymbolTableRecord
100
AcDbRegAppTableRecord
2
ACAD_DSTYLE_DIM_LINETYPE
70
0
0
APPID
5
1F3
100
AcDbSymbolTableRecord
100
AcDbRegAppTableRecord
2
ACAD_DSTYLE_DIM_EXT1_LINETYPE
70
0
0
APPID
5
1F4
100
AcDbSymbolTableRecord
100
AcDbRegAppTableRecord
2
ACAD_DSTYLE_DIM_EXT2_LINETYPE
70
0
0
APPID
5
22F
100
AcDbSymbolTableRecord
100
AcDbRegAppTableRecord
2
ACAD_MLEADERVER
70
0
0
ENDTAB
0
TABLE
2
BLOCK_RECORD
5
24f
100
AcDbSymbolTable
0
BLOCK_RECORD
5
1F
100
AcDbSymbolTableRecord
100
AcDbBlockTableRecord
2
*Model_Space
340
0
70
0
0
BLOCK_RECORD
5
1B
100
AcDbSymbolTableRecord
100
AcDbBlockTableRecord
2
*Paper_Space
340
0
70
0
0
BLOCK_RECORD
5
23
100
AcDbSymbolTableRecord
100
AcDbBlockTableRecord
2
*Paper_Space0
340
0
70
0
0
BLOCK_RECORD
5
102
100
AcDbSymbolTableRecord
100
AcDbBlockTableRecord
2
_Closed
340
0
70
0
0
BLOCK_RECORD
5
10C
100
AcDbSymbolTableRecord
100
AcDbBlockTableRecord
2
*D2
340
0
70
0
0
BLOCK_RECORD
5
118
100
AcDbSymbolTableRecord
100
AcDbBlockTableRecord
2
_U0
340
0
70
0
0
BLOCK_RECORD
5
12A
100
AcDbSymbolTableRecord
100
AcDbBlockTableRecord
2
*D4
340
0
70
0
0
BLOCK_RECORD
5
139
100
AcDbSymbolTableRecord
100
AcDbBlockTableRecord
2
_U1
340
0
70
0
0
BLOCK_RECORD
5
149
100
AcDbSymbolTableRecord
100
AcDbBlockTableRecord
2
*D6
340
0
70
0
0
BLOCK_RECORD
5
157
100
AcDbSymbolTableRecord
100
AcDbBlockTableRecord
2
_U2
340
0
70
0
0
BLOCK_RECORD
5
167
100
AcDbSymbolTableRecord
100
AcDbBlockTableRecord
2
*D8
340
0
70
0
0
BLOCK_RECORD
5
173
100
AcDbSymbolTableRecord
100
AcDbBlockTableRecord
2
_U3
340
0
70
0
0
BLOCK_RECORD
5
183
100
AcDbSymbolTableRecord
100
AcDbBlockTableRecord
2
*D10
340
0
70
0
0
BLOCK_RECORD
5
18F
100
AcDbSymbolTableRecord
100
AcDbBlockTableRecord
2
_U4
340
0
70
0
0
BLOCK_RECORD
5
19F
100
AcDbSymbolTableRecord
100
AcDbBlockTableRecord
2
*D12
340
0
70
0
0
BLOCK_RECORD
5
1AB
100
AcDbSymbolTableRecord
100
AcDbBlockTableRecord
2
_U5
340
0
70
0
0
BLOCK_RECORD
5
1BB
100
AcDbSymbolTableRecord
100
AcDbBlockTableRecord
2
*D14
340
0
70
0
0
BLOCK_RECORD
5
1C7
100
AcDbSymbolTableRecord
100
AcDbBlockTableRecord
2
_U6
340
0
70
0
0
ENDTAB
0
ENDSEC
0
SECTION
2
BLOCKS
0
BLOCK
5
20
100
AcDbEntity
8
0
100
AcDbBlockBegin
2
*Model_Space
70
0
10
0
20
0
30
0
3
*Model_Space
0
ENDBLK
5
21
100
AcDbEntity
8
0
100
AcDbBlockEnd
0
BLOCK
5
1C
100
AcDbEntity
8
0
100
AcDbBlockBegin
2
*Paper_Space
70
0
10
0
20
0
30
0
3
*Paper_Space
0
ENDBLK
5
1D
100
AcDbEntity
8
0
100
AcDbBlockEnd
0
BLOCK
5
24
100
AcDbEntity
8
0
100
AcDbBlockBegin
2
*Paper_Space0
70
0
10
0
20
0
30
0
3
*Paper_Space0
0
ENDBLK
5
25
100
AcDbEntity
8
0
100
AcDbBlockEnd
0
BLOCK
5
103
100
AcDbEntity
8
0
100
AcDbBlockBegin
2
_Closed
70
0
10
0
20
0
30
0
3
_Closed
0
LINE
5
105
100
AcDbEntity
8
0
62
256
6
ByLayer
370
-2
48
1
60
0
100
AcDbLine
10
-1
20
0.166667
30
0
11
0
21
0
31
0
39
0
210
0
220
0
230
1
0
LINE
5
106
100
AcDbEntity
8
0
62
256
6
ByLayer
370
-2
48
1
60
0
100
AcDbLine
10
0
20
0
30
0
11
-1
21
-0.166667
31
0
39
0
210
0
220
0
230
1
0
LINE
5
107
100
AcDbEntity
8
0
62
256
6
ByLayer
370
-2
48
1
60
0
100
AcDbLine
10
-1
20
0.166667
30
0
11
-1
21
-0.166667
31
0
39
0
210
0
220
0
230
1
0
LINE
5
108
100
AcDbEntity
8
0
62
256
6
ByLayer
370
-2
48
1
60
0
100
AcDbLine
10
0
20
0
30
0
11
-1
21
0
31
0
39
0
210
0
220
0
230
1
0
ENDBLK
5
104
100
AcDbEntity
8
0
100
AcDbBlockEnd
0
BLOCK
5
10D
100
AcDbEntity
8
0
100
AcDbBlockBegin
2
*D2
70
1
10
0
20
0
30
0
3
*D2
0
LINE
5
10F
100
AcDbEntity
8
0
62
256
6
ByLayer
370
-2
48
1
60
0
100
AcDbLine
10
0
20
-7.5875
30
0
11
0
21
-32.67512
31
0
39
0
210
0
220
0
230
1
0
LINE
5
110
100
AcDbEntity
8
0
62
256
6
ByLayer
370
-2
48
1
60
0
100
AcDbLine
10
57
20
-1.5875
30
0
11
57
21
-32.67512
31
0
39
0
210
0
220
0
230
1
0
LINE
5
111
100
AcDbEntity
8
0
62
256
6
ByLayer
370
-2
48
1
60
0
100
AcDbLine
10
3.175
20
-29.50012
30
0
11
53.825
21
-29.50012
31
0
39
0
210
0
220
0
230
1
0
SOLID
5
112
100
AcDbEntity
8
0
62
256
6
ByLayer
370
-1
48
1
60
0
100
AcDbTrace
10
3.175
20
-28.970953
30
0
11
3.175
21
-30.029287
31
0
12
0
22
-29.50012
32
0
13
0
23
-29.50012
33
0
39
0
210
0
220
0
230
1
0
SOLID
5
113
100
AcDbEntity
8
0
62
256
6
ByLayer
370
-1
48
1
60
0
100
AcDbTrace
10
53.825
20
-30.029287
30
0
11
53.825
21
-28.970953
31
0
12
57
22
-29.50012
32
0
13
57
23
-29.50012
33
0
39
0
210
0
220
0
230
1
0
MTEXT
5
114
100
AcDbEntity
8
0
62
256
6
ByLayer
370
18
48
1
60
0
100
AcDbMText
10
28.5
20
-22.193619
30
0
210
0
220
0
230
1
1
\A1;57
40
3.50012
41
0
44
1
50
0
71
5
72
5
7
iso_b_vert
0
POINT
5
115
100
AcDbEntity
8
Defpoints
62
0
6
ByLayer
370
-1
48
1
60
0
100
AcDbPoint
10
0
20
-6
30
0
39
0
210
0
220
0
230
1
50
360
0
POINT
5
116
100
AcDbEntity
8
Defpoints
62
0
6
ByLayer
370
-1
48
1
60
0
100
AcDbPoint
10
57
20
0
30
0
39
0
210
0
220
0
230
1
50
360
0
POINT
5
117
100
AcDbEntity
8
Defpoints
62
0
6
ByLayer
370
-1
48
1
60
0
100
AcDbPoint
10
57
20
-29.50012
30
0
39
0
210
0
220
0
230
1
50
360
0
ENDBLK
5
10E
100
AcDbEntity
8
0
100
AcDbBlockEnd
0
BLOCK
5
125
100
AcDbEntity
8
0
100
AcDbBlockBegin
2
_U0
70
0
10
0
20
0
30
0
3
_U0
0
MTEXT
5
119
100
AcDbEntity
8
SK2
62
256
6
ByLayer
370
18
48
1
60
0
100
AcDbMText
10
23.270389
20
-28.467451
30
0
210
0
220
0
230
1
1
\W0.7468;57.00
40
3.50012
41
0
44
1.084337
50
0
71
7
72
5
7
iso_b_vert
0
MTEXT
5
11A
100
AcDbEntity
8
SK2
62
256
6
ByLayer
370
18
48
1
60
0
100
AcDbMText
10
19.744329
20
-28.400814
30
0
210
0
220
0
230
1
1
\W0.1790;(
40
3.175
41
0
44
1.084337
50
0
71
7
72
5
7
iso_b_vert
0
MTEXT
5
11B
100
AcDbEntity
8
SK2
62
256
6
ByLayer
370
18
48
1
60
0
100
AcDbMText
10
37.258393
20
-28.400814
30
0
210
0
220
0
230
1
1
\W0.1969;)
40
3.175
41
0
44
1.084337
50
0
71
7
72
5
7
iso_b_vert
0
LINE
5
11C
100
AcDbEntity
8
SK2
62
256
6
ByLayer
370
13
48
1
60
0
100
AcDbLine
10
0
20
-7.5875
30
0
11
0
21
-32.67512
31
0
39
0
210
0
220
0
230
1
0
LINE
5
11D
100
AcDbEntity
8
SK2
62
256
6
ByLayer
370
13
48
1
60
0
100
AcDbLine
10
57
20
-1.5875
30
0
11
57
21
-32.67512
31
0
39
0
210
0
220
0
230
1
0
LINE
5
11E
100
AcDbEntity
8
SK2
62
256
6
ByLayer
370
13
48
1
60
0
100
AcDbLine
10
0
20
-29.50012
30
0
11
57
21
-29.50012
31
0
39
0
210
0
220
0
230
1
0
LINE
5
11F
100
AcDbEntity
8
SK2
62
256
6
ByLayer
370
13
48
1
60
0
100
AcDbLine
10
0
20
-29.50012
30
0
11
3.174998
21
-29.082123
31
0
39
0
210
0
220
0
230
1
0
LINE
5
120
100
AcDbEntity
8
SK2
62
256
6
ByLayer
370
13
48
1
60
0
100
AcDbLine
10
0
20
-29.50012
30
0
11
3.175002
21
-29.918117
31
0
39
0
210
0
220
0
230
1
0
LINE
5
121
100
AcDbEntity
8
SK2
62
256
6
ByLayer
370
13
48
1
60
0
100
AcDbLine
10
3.174998
20
-29.082123
30
0
11
3.175002
21
-29.918117
31
0
39
0
210
0
220
0
230
1
0
LINE
5
122
100
AcDbEntity
8
SK2
62
256
6
ByLayer
370
13
48
1
60
0
100
AcDbLine
10
57
20
-29.50012
30
0
11
53.825002
21
-29.918117
31
0
39
0
210
0
220
0
230
1
0
LINE
5
123
100
AcDbEntity
8
SK2
62
256
6
ByLayer
370
13
48
1
60
0
100
AcDbLine
10
57
20
-29.50012
30
0
11
53.824998
21
-29.082123
31
0
39
0
210
0
220
0
230
1
0
LINE
5
124
100
AcDbEntity
8
SK2
62
256
6
ByLayer
370
13
48
1
60
0
100
AcDbLine
10
53.825002
20
-29.918117
30
0
11
53.824998
21
-29.082123
31
0
39
0
210
0
220
0
230
1
0
ENDBLK
5
126
100
AcDbEntity
8
0
100
AcDbBlockEnd
0
BLOCK
5
12B
100
AcDbEntity
8
0
100
AcDbBlockBegin
2
*D4
70
1
10
0
20
0
30
0
3
*D4
0
LINE
5
12D
100
AcDbEntity
8
0
62
256
6
ByLayer
370
-2
48
1
60
0
100
AcDbLine
10
56.4037
20
-6
30
0
11
66.92506
21
-6
31
0
39
0
210
0
220
0
230
1
0
LINE
5
12E
100
AcDbEntity
8
0
62
256
6
ByLayer
370
-2
48
1
60
0
100
AcDbLine
10
56.4037
20
6
30
0
11
66.92506
21
6
31
0
39
0
210
0
220
0
230
1
0
LINE
5
12F
100
AcDbEntity
8
0
62
256
6
ByLayer
370
-2
48
1
60
0
100
AcDbLine
10
63.75006
20
6
30
0
11
63.75006
21
28.629725
31
0
39
0
210
0
220
0
230
1
0
LINE
5
130
100
AcDbEntity
8
0
62
256
6
ByLayer
370
-2
48
1
60
0
100
AcDbLine
10
63.75006
20
-9.175
30
0
11
63.75006
21
-12.35
31
0
39
0
210
0
220
0
230
1
0
LINE
5
131
100
AcDbEntity
8
0
62
256
6
ByLayer
370
-2
48
1
60
0
100
AcDbLine
10
63.75006
20
9.175
30
0
11
63.75006
21
12.35
31
0
39
0
210
0
220
0
230
1
0
SOLID
5
132
100
AcDbEntity
8
0
62
256
6
ByLayer
370
-1
48
1
60
0
100
AcDbTrace
10
64.279227
20
-9.175
30
0
11
63.220893
21
-9.175
31
0
12
63.75006
22
-6
32
0
13
63.75006
23
-6
33
0
39
0
210
0
220
0
230
1
0
SOLID
5
133
100
AcDbEntity
8
0
62
256
6
ByLayer
370
-1
48
1
60
0
100
AcDbTrace
10
63.220893
20
9.175
30
0
11
64.279227
21
9.175
31
0
12
63.75006
22
6
32
0
13
63.75006
23
6
33
0
39
0
210
0
220
0
230
1
0
MTEXT
5
134
100
AcDbEntity
8
0
62
256
6
ByLayer
370
18
48
1
60
0
100
AcDbMText
10
56.443559
20
20.489862
30
0
210
0
220
0
230
1
1
\A1;12
40
3.50012
41
0
44
1
50
90
71
5
72
5
7
iso_b_vert
0
POINT
5
135
100
AcDbEntity
8
Defpoints
62
0
6
ByLayer
370
-1
48
1
60
0
100
AcDbPoint
10
54.8162
20
-6
30
0
39
0
210
0
220
0
230
1
50
360
0
POINT
5
136
100
AcDbEntity
8
Defpoints
62
0
6
ByLayer
370
-1
48
1
60
0
100
AcDbPoint
10
54.8162
20
6
30
0
39
0
210
0
220
0
230
1
50
360
0
POINT
5
137
100
AcDbEntity
8
Defpoints
62
0
6
ByLayer
370
-1
48
1
60
0
100
AcDbPoint
10
63.75006
20
6
30
0
39
0
210
0
220
0
230
1
50
360
0
ENDBLK
5
12C
100
AcDbEntity
8
0
100
AcDbBlockEnd
0
BLOCK
5
144
100
AcDbEntity
8
0
100
AcDbBlockBegin
2
_U1
70
0
10
0
20
0
30
0
3
_U1
0
MTEXT
5
13A
100
AcDbEntity
8
2
62
256
6
ByLayer
370
18
48
1
60
0
100
AcDbMText
10
63.060403
20
10.157505
30
0
210
0
220
0
230
1
1
\W0.6864;12.00
40
3.50012
41
0
44
1.084337
50
90
71
7
72
5
7
iso_b_vert
0
LINE
5
13B
100
AcDbEntity
8
2
62
256
6
ByLayer
370
13
48
1
60
0
100
AcDbLine
10
56.4037
20
-6
30
0
11
66.92506
21
-6
31
0
39
0
210
0
220
0
230
1
0
LINE
5
13C
100
AcDbEntity
8
2
62
256
6
ByLayer
370
13
48
1
60
0
100
AcDbLine
10
56.4037
20
6
30
0
11
66.92506
21
6
31
0
39
0
210
0
220
0
230
1
0
LINE
5
13D
100
AcDbEntity
8
2
62
256
6
ByLayer
370
13
48
1
60
0
100
AcDbLine
10
63.75006
20
-6
30
0
11
63.75006
21
19.955339
31
0
39
0
210
0
220
0
230
1
0
LINE
5
13E
100
AcDbEntity
8
2
62
256
6
ByLayer
370
13
48
1
60
0
100
AcDbLine
10
63.75006
20
-6
30
0
11
63.332063
21
-2.825002
31
0
39
0
210
0
220
0
230
1
0
LINE
5
13F
100
AcDbEntity
8
2
62
256
6
ByLayer
370
13
48
1
60
0
100
AcDbLine
10
63.75006
20
-6
30
0
11
64.168057
21
-2.824998
31
0
39
0
210
0
220
0
230
1
0
LINE
5
140
100
AcDbEntity
8
2
62
256
6
ByLayer
370
13
48
1
60
0
100
AcDbLine
10
63.332063
20
-2.825002
30
0
11
64.168057
21
-2.824998
31
0
39
0
210
0
220
0
230
1
0
LINE
5
141
100
AcDbEntity
8
2
62
256
6
ByLayer
370
13
48
1
60
0
100
AcDbLine
10
63.75006
20
6
30
0
11
64.168057
21
2.825002
31
0
39
0
210
0
220
0
230
1
0
LINE
5
142
100
AcDbEntity
8
2
62
256
6
ByLayer
370
13
48
1
60
0
100
AcDbLine
10
63.75006
20
6
30
0
11
63.332063
21
2.824998
31
0
39
0
210
0
220
0
230
1
0
LINE
5
143
100
AcDbEntity
8
2
62
256
6
ByLayer
370
13
48
1
60
0
100
AcDbLine
10
64.168057
20
2.825002
30
0
11
63.332063
21
2.824998
31
0
39
0
210
0
220
0
230
1
0
ENDBLK
5
145
100
AcDbEntity
8
0
100
AcDbBlockEnd
0
BLOCK
5
14A
100
AcDbEntity
8
0
100
AcDbBlockBegin
2
*D6
70
1
10
0
20
0
30
0
3
*D6
0
LINE
5
14C
100
AcDbEntity
8
0
62
256
6
ByLayer
370
-2
48
1
60
0
100
AcDbLine
10
-46.5875
20
6
30
0
11
-51.42494
21
6
31
0
39
0
210
0
220
0
230
1
0
LINE
5
14D
100
AcDbEntity
8
0
62
256
6
ByLayer
370
-2
48
1
60
0
100
AcDbLine
10
-46.5875
20
-6
30
0
11
-51.42494
21
-6
31
0
39
0
210
0
220
0
230
1
0
LINE
5
14E
100
AcDbEntity
8
0
62
256
6
ByLayer
370
-2
48
1
60
0
100
AcDbLine
10
-48.24994
20
6
30
0
11
-48.24994
21
29.117532
31
0
39
0
210
0
220
0
230
1
0
LINE
5
14F
100
AcDbEntity
8
0
62
256
6
ByLayer
370
-2
48
1
60
0
100
AcDbLine
10
-48.24994
20
9.175
30
0
11
-48.24994
21
12.35
31
0
39
0
210
0
220
0
230
1
0
LINE
5
150
100
AcDbEntity
8
0
62
256
6
ByLayer
370
-2
48
1
60
0
100
AcDbLine
10
-48.24994
20
-9.175
30
0
11
-48.24994
21
-12.35
31
0
39
0
210
0
220
0
230
1
0
SOLID
5
151
100
AcDbEntity
8
0
62
256
6
ByLayer
370
-1
48
1
60
0
100
AcDbTrace
10
-48.779107
20
9.175
30
0
11
-47.720773
21
9.175
31
0
12
-48.24994
22
6
32
0
13
-48.24994
23
6
33
0
39
0
210
0
220
0
230
1
0
SOLID
5
152
100
AcDbEntity
8
0
62
256
6
ByLayer
370
-1
48
1
60
0
100
AcDbTrace
10
-47.720773
20
-9.175
30
0
11
-48.779107
21
-9.175
31
0
12
-48.24994
22
-6
32
0
13
-48.24994
23
-6
33
0
39
0
210
0
220
0
230
1
0
MTEXT
5
153
100
AcDbEntity
8
0
62
256
6
ByLayer
370
18
48
1
60
0
100
AcDbMText
10
-55.556441
20
20.97767
30
0
210
0
220
0
230
1
1
\A1;12
40
3.50012
41
0
44
1
50
90
71
5
72
5
7
iso_b_vert
0
POINT
5
154
100
AcDbEntity
8
Defpoints
62
0
6
ByLayer
370
-1
48
1
60
0
100
AcDbPoint
10
-45
20
6
30
0
39
0
210
0
220
0
230
1
50
360
0
POINT
5
155
100
AcDbEntity
8
Defpoints
62
0
6
ByLayer
370
-1
48
1
60
0
100
AcDbPoint
10
-45
20
-6
30
0
39
0
210
0
220
0
230
1
50
360
0
POINT
5
156
100
AcDbEntity
8
Defpoints
62
0
6
ByLayer
370
-1
48
1
60
0
100
AcDbPoint
10
-48.24994
20
-6
30
0
39
0
210
0
220
0
230
1
50
360
0
ENDBLK
5
14B
100
AcDbEntity
8
0
100
AcDbBlockEnd
0
BLOCK
5
162
100
AcDbEntity
8
0
100
AcDbBlockBegin
2
_U2
70
0
10
0
20
0
30
0
3
_U2
0
MTEXT
5
158
100
AcDbEntity
8
SK2
62
256
6
ByLayer
370
18
48
1
60
0
100
AcDbMText
10
-48.939597
20
16.157505
30
0
210
0
220
0
230
1
1
\W0.6864;12.00
40
3.50012
41
0
44
1.084337
50
90
71
7
72
5
7
iso_b_vert
0
LINE
5
159
100
AcDbEntity
8
SK2
62
256
6
ByLayer
370
13
48
1
60
0
100
AcDbLine
10
-46.5875
20
6
30
0
11
-51.42494
21
6
31
0
39
0
210
0
220
0
230
1
0
LINE
5
15A
100
AcDbEntity
8
SK2
62
256
6
ByLayer
370
13
48
1
60
0
100
AcDbLine
10
-46.5875
20
-6
30
0
11
-51.42494
21
-6
31
0
39
0
210
0
220
0
230
1
0
LINE
5
15B
100
AcDbEntity
8
SK2
62
256
6
ByLayer
370
13
48
1
60
0
100
AcDbLine
10
-48.24994
20
-6
30
0
11
-48.24994
21
25.955339
31
0
39
0
210
0
220
0
230
1
0
LINE
5
15C
100
AcDbEntity
8
SK2
62
256
6
ByLayer
370
13
48
1
60
0
100
AcDbLine
10
-48.24994
20
6
30
0
11
-47.831943
21
2.825002
31
0
39
0
210
0
220
0
230
1
0
LINE
5
15D
100
AcDbEntity
8
SK2
62
256
6
ByLayer
370
13
48
1
60
0
100
AcDbLine
10
-48.24994
20
6
30
0
11
-48.667937
21
2.824998
31
0
39
0
210
0
220
0
230
1
0
LINE
5
15E
100
AcDbEntity
8
SK2
62
256
6
ByLayer
370
13
48
1
60
0
100
AcDbLine
10
-47.831943
20
2.825002
30
0
11
-48.667937
21
2.824998
31
0
39
0
210
0
220
0
230
1
0
LINE
5
15F
100
AcDbEntity
8
SK2
62
256
6
ByLayer
370
13
48
1
60
0
100
AcDbLine
10
-48.24994
20
-6
30
0
11
-48.667937
21
-2.825002
31
0
39
0
210
0
220
0
230
1
0
LINE
5
160
100
AcDbEntity
8
SK2
62
256
6
ByLayer
370
13
48
1
60
0
100
AcDbLine
10
-48.24994
20
-6
30
0
11
-47.831943
21
-2.824998
31
0
39
0
210
0
220
0
230
1
0
LINE
5
161
100
AcDbEntity
8
SK2
62
256
6
ByLayer
370
13
48
1
60
0
100
AcDbLine
10
-48.667937
20
-2.825002
30
0
11
-47.831943
21
-2.824998
31
0
39
0
210
0
220
0
230
1
0
ENDBLK
5
163
100
AcDbEntity
8
0
100
AcDbBlockEnd
0
BLOCK
5
168
100
AcDbEntity
8
0
100
AcDbBlockBegin
2
*D8
70
1
10
0
20
0
30
0
3
*D8
0
LINE
5
16A
100
AcDbEntity
8
0
62
256
6
ByLayer
370
-2
48
1
60
0
100
AcDbLine
10
-45
20
-7.5875
30
0
11
-45
21
-32.67512
31
0
39
0
210
0
220
0
230
1
0
LINE
5
16B
100
AcDbEntity
8
0
62
256
6
ByLayer
370
-2
48
1
60
0
100
AcDbLine
10
0
20
-7.5875
30
0
11
0
21
-32.67512
31
0
39
0
210
0
220
0
230
1
0
LINE
5
16C
100
AcDbEntity
8
0
62
256
6
ByLayer
370
-2
48
1
60
0
100
AcDbLine
10
-41.825
20
-29.50012
30
0
11
-3.175
21
-29.50012
31
0
39
0
210
0
220
0
230
1
0
SOLID
5
16D
100
AcDbEntity
8
0
62
256
6
ByLayer
370
-1
48
1
60
0
100
AcDbTrace
10
-41.825
20
-28.970953
30
0
11
-41.825
21
-30.029287
31
0
12
-45
22
-29.50012
32
0
13
-45
23
-29.50012
33
0
39
0
210
0
220
0
230
1
0
SOLID
5
16E
100
AcDbEntity
8
0
62
256
6
ByLayer
370
-1
48
1
60
0
100
AcDbTrace
10
-3.175
20
-30.029287
30
0
11
-3.175
21
-28.970953
31
0
12
0
22
-29.50012
32
0
13
0
23
-29.50012
33
0
39
0
210
0
220
0
230
1
0
MTEXT
5
16F
100
AcDbEntity
8
0
62
256
6
ByLayer
370
18
48
1
60
0
100
AcDbMText
10
-22.5
20
-22.193619
30
0
210
0
220
0
230
1
1
\A1;45
40
3.50012
41
0
44
1
50
0
71
5
72
5
7
iso_b_vert
0
POINT
5
170
100
AcDbEntity
8
Defpoints
62
0
6
ByLayer
370
-1
48
1
60
0
100
AcDbPoint
10
-45
20
-6
30
0
39
0
210
0
220
0
230
1
50
360
0
POINT
5
171
100
AcDbEntity
8
Defpoints
62
0
6
ByLayer
370
-1
48
1
60
0
100
AcDbPoint
10
0
20
-6
30
0
39
0
210
0
220
0
230
1
50
360
0
POINT
5
172
100
AcDbEntity
8
Defpoints
62
0
6
ByLayer
370
-1
48
1
60
0
100
AcDbPoint
10
0
20
-29.50012
30
0
39
0
210
0
220
0
230
1
50
360
0
ENDBLK
5
169
100
AcDbEntity
8
0
100
AcDbBlockEnd
0
BLOCK
5
17E
100
AcDbEntity
8
0
100
AcDbBlockBegin
2
_U3
70
0
10
0
20
0
30
0
3
_U3
0
MTEXT
5
174
100
AcDbEntity
8
SK2
62
256
6
ByLayer
370
18
48
1
60
0
100
AcDbMText
10
-27.913884
20
-28.467451
30
0
210
0
220
0
230
1
1
\W0.7694;45.00
40
3.50012
41
0
44
1.084337
50
0
71
7
72
5
7
iso_b_vert
0
LINE
5
175
100
AcDbEntity
8
SK2
62
256
6
ByLayer
370
13
48
1
60
0
100
AcDbLine
10
-45
20
-7.5875
30
0
11
-45
21
-32.67512
31
0
39
0
210
0
220
0
230
1
0
LINE
5
176
100
AcDbEntity
8
SK2
62
256
6
ByLayer
370
13
48
1
60
0
100
AcDbLine
10
0
20
-7.5875
30
0
11
0
21
-32.67512
31
0
39
0
210
0
220
0
230
1
0
LINE
5
177
100
AcDbEntity
8
SK2
62
256
6
ByLayer
370
13
48
1
60
0
100
AcDbLine
10
-45
20
-29.50012
30
0
11
0
21
-29.50012
31
0
39
0
210
0
220
0
230
1
0
LINE
5
178
100
AcDbEntity
8
SK2
62
256
6
ByLayer
370
13
48
1
60
0
100
AcDbLine
10
-45
20
-29.50012
30
0
11
-41.825002
21
-29.082123
31
0
39
0
210
0
220
0
230
1
0
LINE
5
179
100
AcDbEntity
8
SK2
62
256
6
ByLayer
370
13
48
1
60
0
100
AcDbLine
10
-45
20
-29.50012
30
0
11
-41.824998
21
-29.918117
31
0
39
0
210
0
220
0
230
1
0
LINE
5
17A
100
AcDbEntity
8
SK2
62
256
6
ByLayer
370
13
48
1
60
0
100
AcDbLine
10
-41.825002
20
-29.082123
30
0
11
-41.824998
21
-29.918117
31
0
39
0
210
0
220
0
230
1
0
LINE
5
17B
100
AcDbEntity
8
SK2
62
256
6
ByLayer
370
13
48
1
60
0
100
AcDbLine
10
0
20
-29.50012
30
0
11
-3.174998
21
-29.918117
31
0
39
0
210
0
220
0
230
1
0
LINE
5
17C
100
AcDbEntity
8
SK2
62
256
6
ByLayer
370
13
48
1
60
0
100
AcDbLine
10
0
20
-29.50012
30
0
11
-3.175002
21
-29.082123
31
0
39
0
210
0
220
0
230
1
0
LINE
5
17D
100
AcDbEntity
8
SK2
62
256
6
ByLayer
370
13
48
1
60
0
100
AcDbLine
10
-3.174998
20
-29.918117
30
0
11
-3.175002
21
-29.082123
31
0
39
0
210
0
220
0
230
1
0
ENDBLK
5
17F
100
AcDbEntity
8
0
100
AcDbBlockEnd
0
BLOCK
5
184
100
AcDbEntity
8
0
100
AcDbBlockBegin
2
*D10
70
1
10
0
20
0
30
0
3
*D10
0
LINE
5
186
100
AcDbEntity
8
0
62
256
6
ByLayer
370
-2
48
1
60
0
100
AcDbLine
10
2
20
4.9125
30
0
11
2
21
-23.92482
31
0
39
0
210
0
220
0
230
1
0
LINE
5
187
100
AcDbEntity
8
0
62
256
6
ByLayer
370
-2
48
1
60
0
100
AcDbLine
10
57
20
-1.5875
30
0
11
57
21
-23.92482
31
0
39
0
210
0
220
0
230
1
0
LINE
5
188
100
AcDbEntity
8
0
62
256
6
ByLayer
370
-2
48
1
60
0
100
AcDbLine
10
5.175
20
-20.74982
30
0
11
53.825
21
-20.74982
31
0
39
0
210
0
220
0
230
1
0
SOLID
5
189
100
AcDbEntity
8
0
62
256
6
ByLayer
370
-1
48
1
60
0
100
AcDbTrace
10
5.175
20
-20.220653
30
0
11
5.175
21
-21.278987
31
0
12
2
22
-20.74982
32
0
13
2
23
-20.74982
33
0
39
0
210
0
220
0
230
1
0
SOLID
5
18A
100
AcDbEntity
8
0
62
256
6
ByLayer
370
-1
48
1
60
0
100
AcDbTrace
10
53.825
20
-21.278987
30
0
11
53.825
21
-20.220653
31
0
12
57
22
-20.74982
32
0
13
57
23
-20.74982
33
0
39
0
210
0
220
0
230
1
0
MTEXT
5
18B
100
AcDbEntity
8
0
62
256
6
ByLayer
370
18
48
1
60
0
100
AcDbMText
10
29.5
20
-13.44332
30
0
210
0
220
0
230
1
1
\A1;55
40
3.50012
41
0
44
1
50
0
71
5
72
5
7
iso_b_vert
0
POINT
5
18C
100
AcDbEntity
8
Defpoints
62
0
6
ByLayer
370
-1
48
1
60
0
100
AcDbPoint
10
2
20
6.5
30
0
39
0
210
0
220
0
230
1
50
360
0
POINT
5
18D
100
AcDbEntity
8
Defpoints
62
0
6
ByLayer
370
-1
48
1
60
0
100
AcDbPoint
10
57
20
0
30
0
39
0
210
0
220
0
230
1
50
360
0
POINT
5
18E
100
AcDbEntity
8
Defpoints
62
0
6
ByLayer
370
-1
48
1
60
0
100
AcDbPoint
10
57
20
-20.74982
30
0
39
0
210
0
220
0
230
1
50
360
0
ENDBLK
5
185
100
AcDbEntity
8
0
100
AcDbBlockEnd
0
BLOCK
5
19A
100
AcDbEntity
8
0
100
AcDbBlockBegin
2
_U4
70
0
10
0
20
0
30
0
3
_U4
0
MTEXT
5
190
100
AcDbEntity
8
SK2
62
256
6
ByLayer
370
18
48
1
60
0
100
AcDbMText
10
24.270389
20
-19.717151
30
0
210
0
220
0
230
1
1
\W0.7468;55.00
40
3.50012
41
0
44
1.084337
50
0
71
7
72
5
7
iso_b_vert
0
LINE
5
191
100
AcDbEntity
8
SK2
62
256
6
ByLayer
370
13
48
1
60
0
100
AcDbLine
10
2
20
4.9125
30
0
11
2
21
-23.92482
31
0
39
0
210
0
220
0
230
1
0
LINE
5
192
100
AcDbEntity
8
SK2
62
256
6
ByLayer
370
13
48
1
60
0
100
AcDbLine
10
57
20
-1.5875
30
0
11
57
21
-23.92482
31
0
39
0
210
0
220
0
230
1
0
LINE
5
193
100
AcDbEntity
8
SK2
62
256
6
ByLayer
370
13
48
1
60
0
100
AcDbLine
10
2
20
-20.74982
30
0
11
57
21
-20.74982
31
0
39
0
210
0
220
0
230
1
0
LINE
5
194
100
AcDbEntity
8
SK2
62
256
6
ByLayer
370
13
48
1
60
0
100
AcDbLine
10
2
20
-20.74982
30
0
11
5.174998
21
-20.331823
31
0
39
0
210
0
220
0
230
1
0
LINE
5
195
100
AcDbEntity
8
SK2
62
256
6
ByLayer
370
13
48
1
60
0
100
AcDbLine
10
2
20
-20.74982
30
0
11
5.175002
21
-21.167817
31
0
39
0
210
0
220
0
230
1
0
LINE
5
196
100
AcDbEntity
8
SK2
62
256
6
ByLayer
370
13
48
1
60
0
100
AcDbLine
10
5.174998
20
-20.331823
30
0
11
5.175002
21
-21.167817
31
0
39
0
210
0
220
0
230
1
0
LINE
5
197
100
AcDbEntity
8
SK2
62
256
6
ByLayer
370
13
48
1
60
0
100
AcDbLine
10
57
20
-20.74982
30
0
11
53.825002
21
-21.167817
31
0
39
0
210
0
220
0
230
1
0
LINE
5
198
100
AcDbEntity
8
SK2
62
256
6
ByLayer
370
13
48
1
60
0
100
AcDbLine
10
57
20
-20.74982
30
0
11
53.824998
21
-20.331823
31
0
39
0
210
0
220
0
230
1
0
LINE
5
199
100
AcDbEntity
8
SK2
62
256
6
ByLayer
370
13
48
1
60
0
100
AcDbLine
10
53.825002
20
-21.167817
30
0
11
53.824998
21
-20.331823
31
0
39
0
210
0
220
0
230
1
0
ENDBLK
5
19B
100
AcDbEntity
8
0
100
AcDbBlockEnd
0
BLOCK
5
1A0
100
AcDbEntity
8
0
100
AcDbBlockBegin
2
*D12
70
1
10
0
20
0
30
0
3
*D12
0
LINE
5
1A2
100
AcDbEntity
8
0
62
256
6
ByLayer
370
-2
48
1
60
0
100
AcDbLine
10
18.9
20
-7.5875
30
0
11
18.9
21
-13.32
31
0
39
0
210
0
220
0
230
1
0
LINE
5
1A3
100
AcDbEntity
8
0
62
256
6
ByLayer
370
-2
48
1
60
0
100
AcDbLine
10
57
20
-1.5875
30
0
11
57
21
-13.32
31
0
39
0
210
0
220
0
230
1
0
LINE
5
1A4
100
AcDbEntity
8
0
62
256
6
ByLayer
370
-2
48
1
60
0
100
AcDbLine
10
22.075
20
-12.82
30
0
11
53.825
21
-12.82
31
0
39
0
210
0
220
0
230
1
0
SOLID
5
1A5
100
AcDbEntity
8
0
62
256
6
ByLayer
370
-1
48
1
60
0
100
AcDbTrace
10
22.075
20
-12.290833
30
0
11
22.075
21
-13.349167
31
0
12
18.9
22
-12.82
32
0
13
18.9
23
-12.82
33
0
39
0
210
0
220
0
230
1
0
SOLID
5
1A6
100
AcDbEntity
8
0
62
256
6
ByLayer
370
-1
48
1
60
0
100
AcDbTrace
10
53.825
20
-13.349167
30
0
11
53.825
21
-12.290833
31
0
12
57
22
-12.82
32
0
13
57
23
-12.82
33
0
39
0
210
0
220
0
230
1
0
MTEXT
5
1A7
100
AcDbEntity
8
0
62
256
6
ByLayer
370
18
48
1
60
0
100
AcDbMText
10
37.95
20
-6.975
30
0
210
0
220
0
230
1
1
\A1;38.1
40
2.8
41
0
44
1
50
0
71
5
72
5
7
iso_b_vert
0
POINT
5
1A8
100
AcDbEntity
8
Defpoints
62
0
6
ByLayer
370
-1
48
1
60
0
100
AcDbPoint
10
18.9
20
-6
30
0
39
0
210
0
220
0
230
1
50
360
0
POINT
5
1A9
100
AcDbEntity
8
Defpoints
62
0
6
ByLayer
370
-1
48
1
60
0
100
AcDbPoint
10
57
20
0
30
0
39
0
210
0
220
0
230
1
50
360
0
POINT
5
1AA
100
AcDbEntity
8
Defpoints
62
0
6
ByLayer
370
-1
48
1
60
0
100
AcDbPoint
10
57
20
-12.82
30
0
39
0
210
0
220
0
230
1
50
360
0
ENDBLK
5
1A1
100
AcDbEntity
8
0
100
AcDbBlockEnd
0
BLOCK
5
1B6
100
AcDbEntity
8
0
100
AcDbBlockBegin
2
_U5
70
0
10
0
20
0
30
0
3
_U5
0
MTEXT
5
1AC
100
AcDbEntity
8
SK2
62
256
6
ByLayer
370
18
48
1
60
0
100
AcDbMText
10
34.116401
20
-12.973893
30
0
210
0
220
0
230
1
1
\W0.6864;38.10
40
2.8
41
0
44
1.084337
50
0
71
7
72
5
7
iso_b_vert
0
LINE
5
1AD
100
AcDbEntity
8
SK2
62
256
6
ByLayer
370
13
48
1
60
0
100
AcDbLine
10
18.9
20
-7.5875
30
0
11
18.9
21
-13.32
31
0
39
0
210
0
220
0
230
1
0
LINE
5
1AE
100
AcDbEntity
8
SK2
62
256
6
ByLayer
370
13
48
1
60
0
100
AcDbLine
10
57
20
-1.5875
30
0
11
57
21
-13.32
31
0
39
0
210
0
220
0
230
1
0
LINE
5
1AF
100
AcDbEntity
8
SK2
62
256
6
ByLayer
370
13
48
1
60
0
100
AcDbLine
10
18.9
20
-12.82
30
0
11
57
21
-12.82
31
0
39
0
210
0
220
0
230
1
0
LINE
5
1B0
100
AcDbEntity
8
SK2
62
256
6
ByLayer
370
13
48
1
60
0
100
AcDbLine
10
18.9
20
-12.82
30
0
11
22.074998
21
-12.402003
31
0
39
0
210
0
220
0
230
1
0
LINE
5
1B1
100
AcDbEntity
8
SK2
62
256
6
ByLayer
370
13
48
1
60
0
100
AcDbLine
10
18.9
20
-12.82
30
0
11
22.075002
21
-13.237997
31
0
39
0
210
0
220
0
230
1
0
LINE
5
1B2
100
AcDbEntity
8
SK2
62
256
6
ByLayer
370
13
48
1
60
0
100
AcDbLine
10
22.074998
20
-12.402003
30
0
11
22.075002
21
-13.237997
31
0
39
0
210
0
220
0
230
1
0
LINE
5
1B3
100
AcDbEntity
8
SK2
62
256
6
ByLayer
370
13
48
1
60
0
100
AcDbLine
10
57
20
-12.82
30
0
11
53.825002
21
-13.237997
31
0
39
0
210
0
220
0
230
1
0
LINE
5
1B4
100
AcDbEntity
8
SK2
62
256
6
ByLayer
370
13
48
1
60
0
100
AcDbLine
10
57
20
-12.82
30
0
11
53.824998
21
-12.402003
31
0
39
0
210
0
220
0
230
1
0
LINE
5
1B5
100
AcDbEntity
8
SK2
62
256
6
ByLayer
370
13
48
1
60
0
100
AcDbLine
10
53.825002
20
-13.237997
30
0
11
53.824998
21
-12.402003
31
0
39
0
210
0
220
0
230
1
0
ENDBLK
5
1B7
100
AcDbEntity
8
0
100
AcDbBlockEnd
0
BLOCK
5
1BC
100
AcDbEntity
8
0
100
AcDbBlockBegin
2
*D14
70
1
10
0
20
0
30
0
3
*D14
0
LINE
5
1BE
100
AcDbEntity
8
0
62
256
6
ByLayer
370
-2
48
1
60
0
100
AcDbLine
10
-45
20
-1.5875
30
0
11
-45
21
-42.67512
31
0
39
0
210
0
220
0
230
1
0
LINE
5
1BF
100
AcDbEntity
8
0
62
256
6
ByLayer
370
-2
48
1
60
0
100
AcDbLine
10
57
20
-1.5875
30
0
11
57
21
-42.67512
31
0
39
0
210
0
220
0
230
1
0
LINE
5
1C0
100
AcDbEntity
8
0
62
256
6
ByLayer
370
-2
48
1
60
0
100
AcDbLine
10
-41.825
20
-39.50012
30
0
11
53.825
21
-39.50012
31
0
39
0
210
0
220
0
230
1
0
SOLID
5
1C1
100
AcDbEntity
8
0
62
256
6
ByLayer
370
-1
48
1
60
0
100
AcDbTrace
10
-41.825
20
-38.970953
30
0
11
-41.825
21
-40.029287
31
0
12
-45
22
-39.50012
32
0
13
-45
23
-39.50012
33
0
39
0
210
0
220
0
230
1
0
SOLID
5
1C2
100
AcDbEntity
8
0
62
256
6
ByLayer
370
-1
48
1
60
0
100
AcDbTrace
10
53.825
20
-40.029287
30
0
11
53.825
21
-38.970953
31
0
12
57
22
-39.50012
32
0
13
57
23
-39.50012
33
0
39
0
210
0
220
0
230
1
0
MTEXT
5
1C3
100
AcDbEntity
8
0
62
256
6
ByLayer
370
18
48
1
60
0
100
AcDbMText
10
6
20
-32.19362
30
0
210
0
220
0
230
1
1
\A1;102
40
3.50012
41
0
44
1
50
0
71
5
72
5
7
iso_b_vert
0
POINT
5
1C4
100
AcDbEntity
8
Defpoints
62
0
6
ByLayer
370
-1
48
1
60
0
100
AcDbPoint
10
-45
20
0
30
0
39
0
210
0
220
0
230
1
50
360
0
POINT
5
1C5
100
AcDbEntity
8
Defpoints
62
0
6
ByLayer
370
-1
48
1
60
0
100
AcDbPoint
10
57
20
0
30
0
39
0
210
0
220
0
230
1
50
360
0
POINT
5
1C6
100
AcDbEntity
8
Defpoints
62
0
6
ByLayer
370
-1
48
1
60
0
100
AcDbPoint
10
57
20
-39.50012
30
0
39
0
210
0
220
0
230
1
50
360
0
ENDBLK
5
1BD
100
AcDbEntity
8
0
100
AcDbBlockEnd
0
BLOCK
5
1D2
100
AcDbEntity
8
0
100
AcDbBlockBegin
2
_U6
70
0
10
0
20
0
30
0
3
_U6
0
MTEXT
5
1C8
100
AcDbEntity
8
SK2
62
256
6
ByLayer
370
18
48
1
60
0
100
AcDbMText
10
-0.099941
20
-38.467451
30
0
210
0
220
0
230
1
1
\W0.7022;102.00
40
3.50012
41
0
44
1.084337
50
0
71
7
72
5
7
iso_b_vert
0
LINE
5
1C9
100
AcDbEntity
8
SK2
62
256
6
ByLayer
370
13
48
1
60
0
100
AcDbLine
10
-45
20
-1.5875
30
0
11
-45
21
-42.67512
31
0
39
0
210
0
220
0
230
1
0
LINE
5
1CA
100
AcDbEntity
8
SK2
62
256
6
ByLayer
370
13
48
1
60
0
100
AcDbLine
10
57
20
-1.5875
30
0
11
57
21
-42.67512
31
0
39
0
210
0
220
0
230
1
0
LINE
5
1CB
100
AcDbEntity
8
SK2
62
256
6
ByLayer
370
13
48
1
60
0
100
AcDbLine
10
-45
20
-39.50012
30
0
11
57
21
-39.50012
31
0
39
0
210
0
220
0
230
1
0
LINE
5
1CC
100
AcDbEntity
8
SK2
62
256
6
ByLayer
370
13
48
1
60
0
100
AcDbLine
10
-45
20
-39.50012
30
0
11
-41.825002
21
-39.082123
31
0
39
0
210
0
220
0
230
1
0
LINE
5
1CD
100
AcDbEntity
8
SK2
62
256
6
ByLayer
370
13
48
1
60
0
100
AcDbLine
10
-45
20
-39.50012
30
0
11
-41.824998
21
-39.918117
31
0
39
0
210
0
220
0
230
1
0
LINE
5
1CE
100
AcDbEntity
8
SK2
62
256
6
ByLayer
370
13
48
1
60
0
100
AcDbLine
10
-41.825002
20
-39.082123
30
0
11
-41.824998
21
-39.918117
31
0
39
0
210
0
220
0
230
1
0
LINE
5
1CF
100
AcDbEntity
8
SK2
62
256
6
ByLayer
370
13
48
1
60
0
100
AcDbLine
10
57
20
-39.50012
30
0
11
53.825002
21
-39.918117
31
0
39
0
210
0
220
0
230
1
0
LINE
5
1D0
100
AcDbEntity
8
SK2
62
256
6
ByLayer
370
13
48
1
60
0
100
AcDbLine
10
57
20
-39.50012
30
0
11
53.824998
21
-39.082123
31
0
39
0
210
0
220
0
230
1
0
LINE
5
1D1
100
AcDbEntity
8
SK2
62
256
6
ByLayer
370
13
48
1
60
0
100
AcDbLine
10
53.825002
20
-39.918117
30
0
11
53.824998
21
-39.082123
31
0
39
0
210
0
220
0
230
1
0
ENDBLK
5
1D3
100
AcDbEntity
8
0
100
AcDbBlockEnd
0
ENDSEC
0
SECTION
2
ENTITIES
0
ARC
5
B1
100
AcDbEntity
8
SK2
62
256
6
ByLayer
370
13
48
1
60
0
100
AcDbCircle
39
0
10
57
20
0
30
0
40
20
210
0
220
0
230
1
100
AcDbArc
50
9.606349
51
70.00018
0
ARC
5
B2
100
AcDbEntity
8
SK2
62
256
6
ByLayer
370
13
48
1
60
0
100
AcDbCircle
39
0
10
57
20
0
30
0
40
20
210
0
220
0
230
1
100
AcDbArc
50
289.99982
51
350.393651
0
ELLIPSE
5
B3
100
AcDbEntity
8
1
62
256
6
ByLayer
370
18
48
1
60
0
100
AcDbEllipse
10
3.601665
20
5.768318
30
0
11
-0.1
21
1.22460635382238E-17
31
0
210
0
220
0
230
1
40
1
41
7.90638278338412E-05
42
1.58236882829319
0
POINT
5
70
100
AcDbEntity
8
80
62
256
6
ByLayer
370
18
48
1
60
0
100
AcDbPoint
10
0
20
0
30
0
39
0
210
0
220
0
230
1
50
360
0
POINT
5
72
100
AcDbEntity
8
81
62
256
6
ByLayer
370
18
48
1
60
0
100
AcDbPoint
10
57
20
0
30
0
39
0
210
0
220
0
230
1
50
360
0
POINT
5
74
100
AcDbEntity
8
1
62
256
6
ByLayer
370
18
48
1
60
0
100
AcDbPoint
10
-45
20
0
30
0
39
0
210
0
220
0
230
1
50
360
0
POINT
5
76
100
AcDbEntity
8
1
62
256
6
ByLayer
370
18
48
1
60
1
100
AcDbPoint
10
0
20
-6
30
0
39
0
210
0
220
0
230
1
50
360
0
POINT
5
77
100
AcDbEntity
8
1
62
256
6
ByLayer
370
18
48
1
60
1
100
AcDbPoint
10
57
20
0
30
0
39
0
210
0
220
0
230
1
50
360
0
POINT
5
78
100
AcDbEntity
8
1
62
256
6
ByLayer
370
18
48
1
60
1
100
AcDbPoint
10
54.8162
20
-6
30
0
39
0
210
0
220
0
230
1
50
360
0
POINT
5
79
100
AcDbEntity
8
1
62
256
6
ByLayer
370
18
48
1
60
1
100
AcDbPoint
10
54.8162
20
6
30
0
39
0
210
0
220
0
230
1
50
360
0
POINT
5
7A
100
AcDbEntity
8
1
62
256
6
ByLayer
370
18
48
1
60
1
100
AcDbPoint
10
-45
20
6
30
0
39
0
210
0
220
0
230
1
50
360
0
POINT
5
7B
100
AcDbEntity
8
1
62
256
6
ByLayer
370
18
48
1
60
1
100
AcDbPoint
10
-45
20
-6
30
0
39
0
210
0
220
0
230
1
50
360
0
POINT
5
7C
100
AcDbEntity
8
1
62
256
6
ByLayer
370
18
48
1
60
1
100
AcDbPoint
10
-45
20
-6
30
0
39
0
210
0
220
0
230
1
50
360
0
POINT
5
7D
100
AcDbEntity
8
1
62
256
6
ByLayer
370
18
48
1
60
1
100
AcDbPoint
10
0
20
-6
30
0
39
0
210
0
220
0
230
1
50
360
0
POINT
5
7E
100
AcDbEntity
8
1
62
256
6
ByLayer
370
18
48
1
60
1
100
AcDbPoint
10
2
20
6.5
30
0
39
0
210
0
220
0
230
1
50
360
0
POINT
5
7F
100
AcDbEntity
8
1
62
256
6
ByLayer
370
18
48
1
60
1
100
AcDbPoint
10
57
20
0
30
0
39
0
210
0
220
0
230
1
50
360
0
POINT
5
80
100
AcDbEntity
8
1
62
256
6
ByLayer
370
18
48
1
60
1
100
AcDbPoint
10
18.9
20
-6
30
0
39
0
210
0
220
0
230
1
50
360
0
POINT
5
81
100
AcDbEntity
8
1
62
256
6
ByLayer
370
18
48
1
60
1
100
AcDbPoint
10
57
20
0
30
0
39
0
210
0
220
0
230
1
50
360
0
POINT
5
82
100
AcDbEntity
8
1
62
256
6
ByLayer
370
18
48
1
60
1
100
AcDbPoint
10
-45
20
0
30
0
39
0
210
0
220
0
230
1
50
360
0
POINT
5
83
100
AcDbEntity
8
1
62
256
6
ByLayer
370
18
48
1
60
1
100
AcDbPoint
10
57
20
0
30
0
39
0
210
0
220
0
230
1
50
360
0
SPLINE
5
B4
100
AcDbEntity
8
SK1
62
256
6
ByLayer
370
18
48
1
60
0
100
AcDbSpline
70
4
71
3
72
12
73
8
40
0
40
0
40
0
40
0
40
0.25
40
0.25
40
0.5
40
0.5
40
1
40
1
40
1
40
1
41
1
10
-44.4179491924311
20
-2.80481960190627
30
2E-16
41
1
10
-44.4585118025587
20
-2.84678471113523
30
2E-16
41
1
10
-44.5017617157541
20
-2.88257034897967
30
2E-16
41
1
10
-44.5926945369118
20
-2.9440147612317
30
2E-16
41
1
10
-44.6405857309337
20
-2.96973405565484
30
2E-16
41
1
10
-44.7885787506849
20
-3.03304174201594
30
2E-16
41
1
10
-44.8923167485562
20
-3.05699851979534
30
2E-16
41
1
10
-45.0000000000001
20
-3.06728643556843
30
2E-16
0
SPLINE
5
B5
100
AcDbEntity
8
SK1
62
256
6
ByLayer
370
18
48
1
60
0
100
AcDbSpline
70
4
71
3
72
12
73
8
40
0
40
0
40
0
40
0
40
0.250000000000001
40
0.250000000000001
40
0.500000000000002
40
0.500000000000002
40
1
40
1
40
1
40
1
41
1
10
-44.15
20
-1.17920557103301
30
1E-16
41
1
10
-44.15
20
-1.16280543731352
30
1E-16
41
1
10
-44.1541964903379
20
-1.14579233642158
30
1E-16
41
1
10
-44.1670510016405
20
-1.11515781506023
30
1E-16
41
1
10
-44.1755314964661
20
-1.10153891135283
30
1E-16
41
1
10
-44.2039103264456
20
-1.06583895898012
30
1E-16
41
1
10
-44.2265803533262
20
-1.04879047440841
30
1E-16
41
1
10
-44.25
20
-1.03925607942116
30
1E-16
0
SPLINE
5
B6
100
AcDbEntity
8
SK1
62
256
6
ByLayer
370
18
48
1
60
0
100
AcDbSpline
70
4
71
3
72
8
73
4
40
0
40
0
40
0
40
0
40
1
40
1
40
1
40
1
41
1
10
-44.4179491924311
20
-2.80481960190627
30
2E-16
41
1
10
-44.3619879594368
20
-2.82763556982474
30
2E-16
41
1
10
-44.3060039079354
20
-2.85044318313919
30
2E-16
41
1
10
-44.25
20
-2.87324298821412
30
2E-16
0
SPLINE
5
B7
100
AcDbEntity
8
SK1
62
256
6
ByLayer
370
18
48
1
60
0
100
AcDbSpline
70
4
71
3
72
8
73
4
40
0
40
0
40
0
40
0
40
1
40
1
40
1
40
1
41
1
10
-44.25
20
-1.03925607942119
30
1E-16
41
1
10
-44.3060037899956
20
-1.01645632236088
30
1E-16
41
1
10
-44.3619875891599
20
-0.993648811997502
30
1E-16
41
1
10
-44.4179491924311
20
-0.97083269311338
30
1E-16
0
SPLINE
5
B8
100
AcDbEntity
8
SK1
62
256
6
ByLayer
370
18
48
1
60
0
100
AcDbSpline
70
4
71
3
72
12
73
8
40
0
40
0
40
0
40
0
40
0.500000000000005
40
0.500000000000005
40
0.750000000000002
40
0.750000000000002
40
1
40
1
40
1
40
1
41
1
10
-44.25
20
-2.87324298821415
30
2E-16
41
1
10
-44.2265754814923
20
-2.88277936657843
30
2E-16
41
1
10
-44.2038494963526
20
-2.88542185282614
30
2E-16
41
1
10
-44.1756806214309
20
-2.87670210748678
30
2E-16
41
1
10
-44.1670810890644
20
-2.87150905544451
30
2E-16
41
1
10
-44.1542487488419
20
-2.85524551144471
30
2E-16
41
1
10
-44.15
20
-2.84379835364683
30
2E-16
41
1
10
-44.15
20
-2.82979378894663
30
2E-16
0
SPLINE
5
B9
100
AcDbEntity
8
SK1
62
256
6
ByLayer
370
18
48
1
60
0
100
AcDbSpline
70
4
71
3
72
10
73
6
40
0
40
0
40
0
40
0
40
0.5
40
0.5
40
1
40
1
40
1
40
1
41
1
10
-45.0000000000001
20
-0.0663211540634165
30
0
41
1
10
-44.892418923189
20
-0.194707477202996
30
0
41
1
10
-44.7890116623726
20
-0.332521715219116
30
0
41
1
10
-44.5927829535177
20
-0.632743430148281
30
0
41
1
10
-44.4993017440334
20
-0.796576963349139
30
0
41
1
10
-44.4179491924311
20
-0.97083269311338
30
1E-16
0
SPLINE
5
BA
100
AcDbEntity
8
1
62
256
6
ByLayer
370
18
48
1
60
0
100
AcDbSpline
70
4
71
3
72
16
73
12
40
0
40
0
40
0
40
0
40
0.064163268107965
40
0.064163268107965
40
0.298122451080974
40
0.298122451080974
40
0.532081634053983
40
0.532081634053983
40
0.766040817026991
40
0.766040817026991
40
1
40
1
40
1
40
1
41
1
10
46.9218062469211
20
4.3603380633582
30
-3E-16
41
1
10
47.0846253019506
20
4.42487510215545
30
-2E-16
41
1
10
47.2473650279781
20
4.48778178200405
30
-2E-16
41
1
10
48.0033482356174
20
4.77225601846513
30
2E-16
41
1
10
48.5961825830215
20
4.97314840760643
30
1E-16
41
1
10
49.7854261611445
20
5.32538399798523
30
1E-16
41
1
10
50.3802423466221
20
5.47620493966414
30
1E-16
41
1
10
51.5690103252994
20
5.72268280773304
30
1E-16
41
1
10
52.1635501793313
20
5.81844364821623
30
1E-16
41
1
10
53.3524919418628
20
5.952018749736
30
0
41
1
10
53.947409877689
20
5.98987336226258
30
0
41
1
10
54.5418874387137
20
5.99821016410513
30
0
0
SPLINE
5
BB
100
AcDbEntity
8
1
62
256
6
ByLayer
370
18
48
1
60
0
100
AcDbSpline
70
4
71
3
72
10
73
6
40
0
40
0
40
0
40
0
40
0.5
40
0.5
40
1
40
1
40
1
40
1
41
1
10
54.0264520705113
20
-0.0703317732235575
30
0
41
1
10
54.0188440688794
20
0.0700542385427809
30
0
41
1
10
54.0135690021616
20
0.211078040529372
30
0
41
1
10
54.0087229523614
20
0.49451714738791
30
0
41
1
10
54.009199215429
20
0.636831441249285
30
0
41
1
10
54.0129462842127
20
0.776850459450316
30
0
0
SPLINE
5
BC
100
AcDbEntity
8
1
62
256
6
ByLayer
370
18
48
1
60
0
100
AcDbSpline
70
4
71
3
72
16
73
12
40
0
40
0
40
0
40
0
40
0.231824100588922
40
0.231824100588922
40
0.463648201177845
40
0.463648201177845
40
0.695472301766767
40
0.695472301766767
40
0.927296402355689
40
0.927296402355689
40
1
40
1
40
1
40
1
41
1
10
54.9033984993078
20
5.75905461322
30
0
41
1
10
54.300822949616
20
5.76429085284454
30
0
41
1
10
53.6982592171516
20
5.74005267365658
30
0
41
1
10
52.4945565865966
20
5.63422621277402
30
1E-16
41
1
10
51.8923866033937
20
5.55258222074747
30
1E-16
41
1
10
50.687143464912
20
5.33464737431416
30
1E-16
41
1
10
50.0844562000651
20
5.19835586511283
30
1E-16
41
1
10
48.8798838020077
20
4.8747026184553
30
1E-16
41
1
10
48.2774593027863
20
4.6870182086426
30
2E-16
41
1
10
47.486115007066
20
4.41096771480417
30
2E-16
41
1
10
47.2972557502825
20
4.34287676204593
30
1E-16
41
1
10
47.1084597041761
20
4.27270573516924
30
1E-16
0
SPLINE
5
BD
100
AcDbEntity
8
1
62
256
6
ByLayer
370
18
48
1
60
0
100
AcDbSpline
70
4
71
3
72
54
73
50
40
0
40
0
40
0
40
0
40
0.0514866910318949
40
0.0514866910318949
40
0.0772300365478423
40
0.0772300365478423
40
0.10297338206379
40
0.10297338206379
40
0.154460073095683
40
0.154460073095683
40
0.18020341861163
40
0.18020341861163
40
0.205946764127577
40
0.205946764127577
40
0.257433455159471
40
0.257433455159471
40
0.308920146191365
40
0.308920146191365
40
0.360406837223259
40
0.360406837223259
40
0.386150182739205
40
0.386150182739205
40
0.411893528255151
40
0.411893528255151
40
0.463380219287043
40
0.463380219287043
40
0.514866910318935
40
0.514866910318935
40
0.617840292382718
40
0.617840292382718
40
0.66932698341461
40
0.66932698341461
40
0.720813674446502
40
0.720813674446502
40
0.746557019962448
40
0.746557019962448
40
0.772300365478394
40
0.772300365478394
40
0.823787056510285
40
0.823787056510285
40
0.875273747542177
40
0.875273747542177
40
0.926760438574069
40
0.926760438574069
40
0.952503784090015
40
0.952503784090015
40
0.97824712960596
40
0.97824712960596
40
1
40
1
40
1
40
1
41
1
10
54.5211786038581
20
-5.91762701356438
30
0
41
1
10
53.9899046086386
20
-5.86665821809737
30
-1E-16
41
1
10
53.4592600245517
20
-5.79257421355862
30
-1E-16
41
1
10
52.6620130973575
20
-5.6478179834094
30
-1E-16
41
1
10
52.3959701160316
20
-5.59392245610928
30
-1E-16
41
1
10
51.8649836667411
20
-5.4754853188148
30
-1E-16
41
1
10
51.599804646302
20
-5.41091581510383
30
-1E-16
41
1
10
50.8045640211298
20
-5.20170624696573
30
-1E-16
41
1
10
50.2748928167995
20
-5.04148727723887
30
-1E-16
41
1
10
49.4786736773649
20
-4.77216042444775
30
-2E-16
41
1
10
49.212729078826
20
-4.6774547933299
30
-2E-16
41
1
10
48.6812149062619
20
-4.47915773047831
30
-2E-16
41
1
10
48.4158425744966
20
-4.37565565201984
30
3E-16
41
1
10
47.620281740515
20
-4.05286551857333
30
2E-16
41
1
10
47.090637106511
20
-3.82130580083538
30
2E-16
41
1
10
46.0296024123419
20
-3.32968100485206
30
2E-16
41
1
10
45.4972213294568
20
-3.06903666714516
30
2E-16
41
1
10
44.4357241303707
20
-2.52729707860269
30
2E-16
41
1
10
43.9059473036327
20
-2.24606961154623
30
1E-16
41
1
10
43.1104488100446
20
-1.81240004239234
30
1E-16
41
1
10
42.8451492359004
20
-1.66586285953048
30
1E-16
41
1
10
42.3138802226462
20
-1.36947940393119
30
1E-16
41
1
10
42.0477194528886
20
-1.21952172943608
30
1E-16
41
1
10
41.2508772800836
20
-0.767462774191557
30
0
41
1
10
40.7209961150002
20
-0.462542061458265
30
0
41
1
10
39.6606231051364
20
0.148646710708391
30
0
41
1
10
39.1295888001746
20
0.4551155399339
30
0
41
1
10
37.5342516980018
20
1.36687348333624
30
-1E-16
41
1
10
36.477003150215
20
1.95924654981428
30
-1E-16
41
1
10
34.8816453296935
20
2.79288674403267
30
-2E-16
41
1
10
34.3505056065149
20
3.06047311921867
30
-2E-16
41
1
10
33.2898987360663
20
3.56891412574146
30
-2E-16
41
1
10
32.7598981502685
20
3.81006134421796
30
-2E-16
41
1
10
31.9629381806384
20
4.14874518479121
30
-3E-16
41
1
10
31.6967140788717
20
4.257886877868
30
-3E-16
41
1
10
31.1652495520803
20
4.46715328724037
30
2E-16
41
1
10
30.8998331219405
20
4.56735586639914
30
2E-16
41
1
10
30.1039951936236
20
4.85413969976392
30
1E-16
41
1
10
29.574140256747
20
5.02704782542222
30
1E-16
41
1
10
28.5122854251387
20
5.33265753987376
30
1E-16
41
1
10
27.9796483579582
20
5.46543136806582
30
1E-16
41
1
10
26.9179249022171
20
5.68628445939257
30
1E-16
41
1
10
26.3880453023471
20
5.77480767325028
30
1E-16
41
1
10
25.5920098690917
20
5.87335991286091
30
1E-16
41
1
10
25.326475679729
20
5.90051558579697
30
0
41
1
10
24.794630777086
20
5.94325099160056
30
0
41
1
10
24.5284769166388
20
5.95880391034649
30
0
41
1
10
24.0384101433547
20
5.97665719545918
30
0
41
1
10
23.8141928851725
20
5.98065393336108
30
0
41
1
10
23.5900667378152
20
5.9804777448042
30
0
0
SPLINE
5
BE
100
AcDbEntity
8
1
62
256
6
ByLayer
370
18
48
1
60
0
100
AcDbSpline
70
4
71
3
72
8
73
4
40
0
40
0
40
0
40
0
40
1
40
1
40
1
40
1
41
1
10
56.9944670040371
20
0.331256129633459
30
0
41
1
10
56.9685504789457
20
0.244874344189299
30
0
41
1
10
56.9425045192662
20
0.15853234707123
30
0
41
1
10
56.9163296036756
20
0.0722299911334403
30
0
0
SPLINE
5
BF
100
AcDbEntity
8
1
62
256
6
ByLayer
370
18
48
1
60
0
100
AcDbSpline
70
4
71
3
72
32
73
28
40
0
40
0
40
0
40
0
40
0.0922296528381737
40
0.0922296528381737
40
0.184459305676348
40
0.184459305676348
40
0.276688958514522
40
0.276688958514522
40
0.368918611352696
40
0.368918611352696
40
0.415033437771782
40
0.415033437771782
40
0.461148264190868
40
0.461148264190868
40
0.55337791702904
40
0.55337791702904
40
0.645607569867213
40
0.645607569867213
40
0.737837222705385
40
0.737837222705385
40
0.830066875543558
40
0.830066875543558
40
0.92229652838173
40
0.92229652838173
40
0.968411354800816
40
0.968411354800816
40
1
40
1
40
1
40
1
41
1
10
54.1781949149419
20
-0.1615240354798
30
0
41
1
10
53.6514108002288
20
0.127761452902291
30
0
41
1
10
53.1266089620175
20
0.415509223428103
30
0
41
1
10
52.0794930314081
20
0.984548496665411
30
-1E-16
41
1
10
51.5573658018611
20
1.26601502913076
30
-1E-16
41
1
10
50.5125237842269
20
1.817103928661
30
-1E-16
41
1
10
49.990040711071
20
2.08694178058488
30
-1E-16
41
1
10
48.9416293545257
20
2.60991942621533
30
-2E-16
41
1
10
48.4158850689233
20
2.8632180064254
30
-2E-16
41
1
10
47.6229439312434
20
3.22709480645952
30
-2E-16
41
1
10
47.3574100518157
20
3.34589894171196
30
-2E-16
41
1
10
46.828401109316
20
3.57581963157114
30
-2E-16
41
1
10
46.5645748943687
20
3.68711953304748
30
-2E-16
41
1
10
45.7742934041136
20
4.00960269118153
30
-2E-16
41
1
10
45.249252971446
20
4.20931894435384
30
2E-16
41
1
10
44.2017983822619
20
4.57400264097788
30
2E-16
41
1
10
43.6797317129402
20
4.73814675935057
30
2E-16
41
1
10
42.6328972525542
20
5.03209600625291
30
1E-16
41
1
10
42.1087694722263
20
5.16127078186224
30
1E-16
41
1
10
41.05741502149
20
5.3783933427022
30
-1E-16
41
1
10
40.5303557767947
20
5.46466327561657
30
1E-16
41
1
10
39.4689533800439
20
5.60000366858287
30
1E-16
41
1
10
38.9407113301492
20
5.64717759811521
30
0
41
1
10
38.1522616453157
20
5.68291076604132
30
0
41
1
10
37.8902165692721
20
5.68860888688954
30
0
41
1
10
37.4492635036182
20
5.68867943386519
30
0
41
1
10
37.2700262982598
20
5.68642159150755
30
0
41
1
10
37.0908085110039
20
5.68178100051321
30
0
0
SPLINE
5
C0
100
AcDbEntity
8
1
62
256
6
ByLayer
370
18
48
1
60
0
100
AcDbSpline
70
4
71
3
72
67
73
63
40
0
40
0
40
0
40
0
40
0.124999999999982
40
0.124999999999982
40
0.187499999999973
40
0.187499999999973
40
0.249999999999964
40
0.249999999999964
40
0.312499999999955
40
0.312499999999955
40
0.343749999999949
40
0.343749999999949
40
0.351562499999948
40
0.351562499999948
40
0.355468749999948
40
0.355468749999948
40
0.359374999999948
40
0.359374999999948
40
0.363281249999948
40
0.363281249999948
40
0.367187499999948
40
0.374999999999948
40
0.374999999999948
40
0.43749999999995
40
0.43749999999995
40
0.499999999999953
40
0.499999999999953
40
0.515624999999954
40
0.515624999999954
40
0.531249999999955
40
0.531249999999955
40
0.562499999999957
40
0.562499999999957
40
0.578124999999959
40
0.578124999999959
40
0.59374999999996
40
0.59374999999996
40
0.609374999999962
40
0.609374999999962
40
0.624999999999963
40
0.624999999999963
40
0.656249999999966
40
0.656249999999966
40
0.671874999999967
40
0.671874999999967
40
0.687499999999969
40
0.687499999999969
40
0.70312499999997
40
0.70312499999997
40
0.718749999999972
40
0.718749999999972
40
0.749999999999974
40
0.749999999999974
40
0.781249999999977
40
0.781249999999977
40
0.81249999999998
40
0.81249999999998
40
0.874999999999987
40
0.874999999999987
40
0.937499999999993
40
0.937499999999993
40
1
40
1
40
1
40
1
41
1
10
11.0294357138318
20
-2.96301867288608
30
2E-16
41
1
10
10.3787719162134
20
-2.63783565156834
30
2E-16
41
1
10
9.71992658578822
20
-2.31081109450233
30
1E-16
41
1
10
8.70748424628604
20
-1.84648744970747
30
1E-16
41
1
10
8.36686591485349
20
-1.69644605066267
30
1E-16
41
1
10
7.67781691964973
20
-1.4101871076829
30
1E-16
41
1
10
7.32918803932154
20
-1.2739403556123
30
1E-16
41
1
10
6.62511713481564
20
-1.01949240483921
30
1E-16
41
1
10
6.26927826186173
20
-0.90116404351167
30
1E-16
41
1
10
5.73052855630573
20
-0.739145402229951
30
0
41
1
10
5.55012904342547
20
-0.68771112425236
30
0
41
1
10
5.32367501973729
20
-0.626786686909838
30
0
41
1
10
5.27833635055717
20
-0.614770224436569
30
0
41
1
10
5.21026043822818
20
-0.597000538735927
30
0
41
1
10
5.1874909178396
20
-0.591131188436805
30
0
41
1
10
5.14118201084827
20
-0.590811087905848
30
0
41
1
10
5.11710007863564
20
-0.595405083077196
30
0
41
1
10
5.07635996735021
20
-0.619424851086194
30
0
41
1
10
5.05656442147597
20
-0.632426461595088
30
0
41
1
10
5.01651755761449
20
-0.657613976794607
30
0
41
1
10
4.95653470870613
20
-0.695520191945207
30
0
41
1
10
4.89682473840026
20
-0.73380335988378
30
0
41
1
10
4.53975435410061
20
-0.965020817892452
30
1E-16
41
1
10
4.23044425495922
20
-1.1814556324687
30
1E-16
41
1
10
3.64136223080118
20
-1.6376624862188
30
1E-16
41
1
10
3.36054935509475
20
-1.87771379784914
30
1E-16
41
1
10
3.03556135752629
20
-2.19991131978571
30
1E-16
41
1
10
2.97174952093812
20
-2.26564911596563
30
1E-16
41
1
10
2.84832047929268
20
-2.39843834583587
30
1E-16
41
1
10
2.78861480480413
20
-2.46556438007633
30
2E-16
41
1
10
2.61616813710034
20
-2.66933949842644
30
2E-16
41
1
10
2.51001607674348
20
-2.80835837629897
30
2E-16
41
1
10
2.36770588054802
20
-3.02282638795688
30
2E-16
41
1
10
2.32297829069583
20
-3.09558474422008
30
2E-16
41
1
10
2.24144799488903
20
-3.24084947470098
30
2E-16
41
1
10
2.20447622882077
20
-3.31357205361886
30
2E-16
41
1
10
2.13876606081053
20
-3.45918631710265
30
2E-16
41
1
10
2.11002388973517
20
-3.53207736038797
30
2E-16
41
1
10
2.06157655323992
20
-3.67801745091001
30
2E-16
41
1
10
2.04178473617796
20
-3.75158455054205
30
2E-16
41
1
10
1.9982921656418
20
-3.96813924131354
30
2E-16
41
1
10
1.99018223258056
20
-4.10655431291994
30
3E-16
41
1
10
2.00905790189412
20
-4.30522633190577
30
3E-16
41
1
10
2.02058118130421
20
-4.37012744614606
30
3E-16
41
1
10
2.05389000205832
20
-4.49617879152092
30
-2E-16
41
1
10
2.07540029441472
20
-4.55643572493941
30
-2E-16
41
1
10
2.12720719313001
20
-4.67193946932946
30
-2E-16
41
1
10
2.15750586146061
20
-4.72718516796175
30
-2E-16
41
1
10
2.22616917982239
20
-4.83308318401362
30
-1E-16
41
1
10
2.2647298129547
20
-4.88394643266128
30
-1E-16
41
1
10
2.39011558453845
20
-5.02845513651178
30
-1E-16
41
1
10
2.4860409545507
20
-5.11384836295085
30
-1E-16
41
1
10
2.69684073916463
20
-5.2679487964009
30
-1E-16
41
1
10
2.81176540869106
20
-5.33661169026868
30
-1E-16
41
1
10
3.05716858310836
20
-5.46039867139231
30
-1E-16
41
1
10
3.18638115414862
20
-5.51483678739359
30
-1E-16
41
1
10
3.58625700246577
20
-5.65948388427668
30
-1E-16
41
1
10
3.87044020086739
20
-5.73204920245274
30
-1E-16
41
1
10
4.46331580113559
20
-5.84529217084227
30
-1E-16
41
1
10
4.77302736339522
20
-5.88576409091729
30
-1E-16
41
1
10
5.40464498038807
20
-5.94229036611392
30
0
41
1
10
5.72726694822057
20
-5.95846826986397
30
0
41
1
10
6.05538089321314
20
-5.96554874529957
30
0
0
SPLINE
5
C1
100
AcDbEntity
8
1
62
256
6
ByLayer
370
18
48
1
60
0
100
AcDbSpline
70
4
71
3
72
36
73
32
40
0
40
0
40
0
40
0
40
0.441574973150684
40
0.441574973150684
40
0.627243888447844
40
0.627243888447844
40
0.751293519227566
40
0.751293519227566
40
0.834149394185874
40
0.834149394185874
40
0.889501289046888
40
0.889501289046888
40
0.926484693895531
40
0.926484693895531
40
0.951197682429827
40
0.951197682429827
40
0.967711393813134
40
0.967711393813134
40
0.978744581643851
40
0.978744581643851
40
0.986115854549314
40
0.986115854549314
40
0.991040654064622
40
0.991040654064622
40
0.994331014794244
40
0.994331014794244
40
0.997049384271802
40
0.997049384271802
40
0.998940054927981
40
0.998940054927981
40
1
40
1
40
1
40
1
41
1
10
54.5418874387097
20
-5.9982101640951
30
0
41
1
10
54.5949419139429
20
-5.96375124194384
30
0
41
1
10
54.6480841957425
20
-5.92894403833745
30
0
41
1
10
54.7236916721364
20
-5.87902409226299
30
0
41
1
10
54.746087737638
20
-5.86418755840739
30
0
41
1
10
54.7834717236018
20
-5.83934088757104
30
0
41
1
10
54.7984515966897
20
-5.82936303442023
30
0
41
1
10
54.8234479348903
20
-5.81267754596107
30
0
41
1
10
54.8334607726041
20
-5.80598422456413
30
0
41
1
10
54.8501676274302
20
-5.79480026826053
30
0
41
1
10
54.856860016259
20
-5.7903159861049
30
0
41
1
10
54.8680261371555
20
-5.78282700822754
30
0
41
1
10
54.8724991395035
20
-5.77982513772099
30
0
41
1
10
54.8799620696924
20
-5.77481356915766
30
0
41
1
10
54.8829514236881
20
-5.77280529798458
30
0
41
1
10
54.8879403090301
20
-5.76945231426527
30
0
41
1
10
54.889939247566
20
-5.7681084678058
30
0
41
1
10
54.8932755353635
20
-5.76586491492813
30
0
41
1
10
54.8946122839111
20
-5.7649658225719
30
0
41
1
10
54.8968431577032
20
-5.76346506310881
30
0
41
1
10
54.8977369370935
20
-5.76286372210169
30
0
41
1
10
54.8992283900054
20
-5.76186013706396
30
0
41
1
10
54.8998258867742
20
-5.76145805348264
30
0
41
1
10
54.9008228411105
20
-5.76078710055188
30
0
41
1
10
54.9012229024074
20
-5.76051783880087
30
0
41
1
10
54.9019503907055
20
-5.76002819368
30
0
41
1
10
54.9022801343668
20
-5.75980625403352
30
0
41
1
10
54.9027959309138
20
-5.7594592822781
30
0
41
1
10
54.9029982194616
20
-5.75932326381781
30
0
41
1
10
54.9032567278245
20
-5.7591496467264
30
0
41
1
10
54.9033388088208
20
-5.759094572262
30
0
41
1
10
54.9033984993814
20
-5.75905461320076
30
0
0
SPLINE
5
C2
100
AcDbEntity
8
1
62
256
6
ByLayer
370
18
48
1
60
0
100
AcDbSpline
70
4
71
3
72
8
73
4
40
0
40
0
40
0
40
0
40
1
40
1
40
1
40
1
41
1
10
54.8588631935691
20
-5.65948974404617
30
0
41
1
10
54.8494985954166
20
-5.68649041204145
30
0
41
1
10
54.8401780178059
20
-5.71348947473666
30
0
41
1
10
54.8309023723838
20
-5.74048723311589
30
0
0
SPLINE
5
C3
100
AcDbEntity
8
1
62
256
6
ByLayer
370
18
48
1
60
0
100
AcDbSpline
70
4
71
3
72
30
73
26
40
0
40
0
40
0
40
0
40
0.125
40
0.125
40
0.1875
40
0.1875
40
0.25
40
0.25
40
0.375
40
0.375
40
0.4375
40
0.4375
40
0.5
40
0.5
40
0.624999999999999
40
0.624999999999999
40
0.687499999999999
40
0.687499999999999
40
0.749999999999999
40
0.749999999999999
40
0.874999999999999
40
0.874999999999999
40
0.9375
40
0.9375
40
1
40
1
40
1
40
1
41
1
10
54.1781949149418
20
-0.161524035479772
30
0
41
1
10
54.192177693524
20
-0.499964411242189
30
0
41
1
10
54.2196101912994
20
-0.831298280674986
30
1E-16
41
1
10
54.2712343729984
20
-1.31905732349972
30
1E-16
41
1
10
54.2902258651028
20
-1.48008992027269
30
1E-16
41
1
10
54.3305049478373
20
-1.79913911326358
30
1E-16
41
1
10
54.3518903135679
20
-1.95783631264072
30
1E-16
41
1
10
54.4170918796883
20
-2.42427430933645
30
1E-16
41
1
10
54.4614834421403
20
-2.72030416741308
30
2E-16
41
1
10
54.5242592010645
20
-3.14316028844169
30
2E-16
41
1
10
54.5445770448331
20
-3.28055430793523
30
2E-16
41
1
10
54.5834255029608
20
-3.54811843019266
30
2E-16
41
1
10
54.6020285670203
20
-3.6788386296096
30
2E-16
41
1
10
54.653674188984
20
-4.05309424660484
30
2E-16
41
1
10
54.682705800505
20
-4.2804729402103
30
-2E-16
41
1
10
54.7188626905316
20
-4.58883837899506
30
-2E-16
41
1
10
54.729707477598
20
-4.68614377201393
30
-2E-16
41
1
10
54.7494127733448
20
-4.86947264987583
30
-1E-16
41
1
10
54.7582867451428
20
-4.95564890896739
30
-1E-16
41
1
10
54.782501077019
20
-5.1919649006166
30
-1E-16
41
1
10
54.7955586324716
20
-5.32189894145412
30
-1E-16
41
1
10
54.8168764896667
20
-5.47589031434515
30
-1E-16
41
1
10
54.8242904622211
20
-5.52036393164207
30
-1E-16
41
1
10
54.8410826457792
20
-5.59523081276259
30
-1E-16
41
1
10
54.8504535025728
20
-5.62549442926192
30
0
41
1
10
54.8614447628324
20
-5.64824448150139
30
0
0
SPLINE
5
C4
100
AcDbEntity
8
1
62
256
6
ByLayer
370
18
48
1
60
0
100
AcDbSpline
70
4
71
3
72
18
73
14
40
0
40
0
40
0
40
0
40
0.316725047777752
40
0.316725047777752
40
0.475087571666627
40
0.475087571666627
40
0.554268833611064
40
0.554268833611064
40
0.633450095555501
40
0.633450095555501
40
0.950175143333245
40
0.950175143333245
40
1
40
1
40
1
40
1
41
1
10
26.0000000000089
20
5.53423838955229
30
1E-16
41
1
10
24.7489196605295
20
5.80702408386347
30
1E-16
41
1
10
23.5121358576473
20
5.95602814017823
30
0
41
1
10
21.6487454456112
20
5.98735434495313
30
0
41
1
10
21.0263874741609
20
5.9657627653128
30
0
41
1
10
20.086945018562
20
5.88457261530255
30
1E-16
41
1
10
19.7720525851862
20
5.84925993480837
30
1E-16
41
1
10
19.1440722666206
20
5.76284121327907
30
1E-16
41
1
10
18.8311799972179
20
5.71182295035698
30
1E-16
41
1
10
17.2704216022771
20
5.41928384311365
30
1E-16
41
1
10
16.0340407148784
20
5.06523869273343
30
1E-16
41
1
10
14.5947186230188
20
4.5376990678848
30
-2E-16
41
1
10
14.3988802408706
20
4.46348753140614
30
-2E-16
41
1
10
14.2027771495176
20
4.38683929628357
30
-2E-16
0
SPLINE
5
C5
100
AcDbEntity
8
1
62
256
6
ByLayer
370
18
48
1
60
0
100
AcDbSpline
70
4
71
3
72
36
73
32
40
0
40
0
40
0
40
0
40
0.441574973157209
40
0.441574973157209
40
0.627243888455282
40
0.627243888455282
40
0.75129351923631
40
0.75129351923631
40
0.834149394195308
40
0.834149394195308
40
0.889501289056645
40
0.889501289056645
40
0.926484693905645
40
0.926484693905645
40
0.951197682440339
40
0.951197682440339
40
0.967711393823888
40
0.967711393823888
40
0.978744581654753
40
0.978744581654753
40
0.986115854560292
40
0.986115854560292
40
0.991040654075664
40
0.991040654075664
40
0.994331014805395
40
0.994331014805395
40
0.997049384282492
40
0.997049384282492
40
0.998940054939358
40
0.998940054939358
40
1
40
1
40
1
40
1
41
1
10
54.5418874387087
20
5.99821016409575
30
0
41
1
10
54.5949419139422
20
5.96375124194429
30
0
41
1
10
54.6480841957422
20
5.92894403833765
30
0
41
1
10
54.7236916721362
20
5.87902409226305
30
0
41
1
10
54.7460877376378
20
5.86418755840751
30
0
41
1
10
54.7834717236016
20
5.83934088757118
30
0
41
1
10
54.7984515966896
20
5.82936303442034
30
0
41
1
10
54.8234479348901
20
5.81267754596115
30
0
41
1
10
54.8334607726039
20
5.80598422456421
30
0
41
1
10
54.8501676274301
20
5.79480026826064
30
0
41
1
10
54.8568600162589
20
5.79031598610504
30
0
41
1
10
54.8680261371553
20
5.78282700822768
30
0
41
1
10
54.8724991395033
20
5.77982513772113
30
0
41
1
10
54.8799620696922
20
5.77481356915777
30
0
41
1
10
54.8829514236879
20
5.77280529798469
30
0
41
1
10
54.8879403090301
20
5.76945231426535
30
0
41
1
10
54.8899392475659
20
5.76810846780586
30
0
41
1
10
54.8932755353635
20
5.76586491492816
30
0
41
1
10
54.894612283911
20
5.76496582257192
30
0
41
1
10
54.8968431577031
20
5.76346506310884
30
0
41
1
10
54.8977369370934
20
5.76286372210169
30
0
41
1
10
54.8992283900053
20
5.76186013706396
30
0
41
1
10
54.8998258867742
20
5.76145805348267
30
0
41
1
10
54.9008228411105
20
5.76078710055188
30
0
41
1
10
54.9012229024073
20
5.76051783880089
30
0
41
1
10
54.9019503907055
20
5.76002819368006
30
0
41
1
10
54.9022801343667
20
5.75980625403358
30
0
41
1
10
54.9027959309137
20
5.75945928227816
30
0
41
1
10
54.9029982194615
20
5.75932326381781
30
0
41
1
10
54.9032567278235
20
5.75914964672705
30
0
41
1
10
54.903338808819
20
5.75909457226319
30
0
41
1
10
54.9033984993795
20
5.75905461320207
30
0
0
SPLINE
5
C6
100
AcDbEntity
8
1
62
256
6
ByLayer
370
18
48
1
60
0
100
AcDbSpline
70
4
71
3
72
56
73
52
40
0
40
0
40
0
40
0
40
0.0646906172375335
40
0.0646906172375335
40
0.13872913022499
40
0.13872913022499
40
0.157238758471854
40
0.157238758471854
40
0.175748386718718
40
0.175748386718718
40
0.212767643212446
40
0.212767643212446
40
0.286806156199902
40
0.286806156199902
40
0.32382541269363
40
0.32382541269363
40
0.342335040940495
40
0.342335040940495
40
0.360844669187359
40
0.360844669187359
40
0.397863925681087
40
0.397863925681087
40
0.434883182174815
40
0.434883182174815
40
0.471902438668543
40
0.471902438668543
40
0.508921695162272
40
0.508921695162272
40
0.527431323409136
40
0.527431323409136
40
0.545940951656
40
0.545940951656
40
0.582960208149728
40
0.582960208149728
40
0.656998721137187
40
0.656998721137187
40
0.675508349384051
40
0.675508349384051
40
0.694017977630916
40
0.694017977630916
40
0.731037234124645
40
0.731037234124645
40
0.805075747112105
40
0.805075747112105
40
0.842095003605834
40
0.842095003605834
40
0.860604631852699
40
0.860604631852699
40
0.879114260099564
40
0.879114260099564
40
1
40
1
40
1
40
1
41
1
10
6.43715510795022
20
5.96975766075448
30
0
41
1
10
7.31654084331376
20
5.9701647676614
30
0
41
1
10
8.18740453990839
20
5.90637083589584
30
0
41
1
10
10.0525677043484
20
5.63952065669449
30
1E-16
41
1
10
11.0461107594882
20
5.41763929695443
30
1E-16
41
1
10
12.2982127071689
20
5.04733794923422
30
1E-16
41
1
10
12.5491368965584
20
4.96861894342157
30
1E-16
41
1
10
13.0525422719308
20
4.80229041583749
30
2E-16
41
1
10
13.3051415028397
20
4.71450105375374
30
2E-16
41
1
10
14.0594172899064
20
4.43999205761327
30
-3E-16
41
1
10
14.5595200154547
20
4.24154567859608
30
-3E-16
41
1
10
16.056067147668
20
3.60631765931495
30
-2E-16
41
1
10
17.0484261100312
20
3.12926262975796
30
-2E-16
41
1
10
18.5439292275793
20
2.35531997378345
30
-1E-16
41
1
10
19.043540363999
20
2.08751944238813
30
-1E-16
41
1
10
19.7968642682941
20
1.67448078207559
30
-1E-16
41
1
10
20.049012530115
20
1.5346646817799
30
-1E-16
41
1
10
20.5528853349277
20
1.25255988874329
30
-1E-16
41
1
10
20.8040147413021
20
1.11055308968784
30
-1E-16
41
1
10
21.5558444693217
20
0.683209582963684
30
0
41
1
10
22.0550106198634
20
0.39658813166335
30
0
41
1
10
23.0509824337053
20
-0.177050880878454
30
0
41
1
10
23.5479533663486
20
-0.463769735955481
30
0
41
1
10
24.5426666425164
20
-1.03207111425786
30
1E-16
41
1
10
25.0400451192096
20
-1.31429016099551
30
1E-16
41
1
10
26.0383960226607
20
-1.86862486713901
30
1E-16
41
1
10
26.5390914031113
20
-2.14122524263419
30
1E-16
41
1
10
27.2943200586118
20
-2.53991069105058
30
2E-16
41
1
10
27.5465954994019
20
-2.67097567688882
30
2E-16
41
1
10
28.04888780165
20
-2.92697131837264
30
2E-16
41
1
10
28.2994308190643
20
-3.05212325179446
30
2E-16
41
1
10
29.049562939223
20
-3.41870821473162
30
2E-16
41
1
10
29.5475138068436
20
-3.65145190173249
30
2E-16
41
1
10
31.0401497201589
20
-4.30792663916046
30
3E-16
41
1
10
32.0324351694702
20
-4.69156537772244
30
-2E-16
41
1
10
33.2823564866981
20
-5.08703662284233
30
-1E-16
41
1
10
33.5327832798934
20
-5.16196475945034
30
-1E-16
41
1
10
34.0348527229982
20
-5.30305558076805
30
-1E-16
41
1
10
34.287135358111
20
-5.36920266004196
30
-1E-16
41
1
10
35.0424137211339
20
-5.55297037472877
30
-1E-16
41
1
10
35.5429528621256
20
-5.65571826511854
30
-1E-16
41
1
10
37.0398732422868
20
-5.90350858452018
30
-1E-16
41
1
10
38.0315866749023
20
-5.98810298488985
30
0
41
1
10
39.5251031386035
20
-5.99111856715993
30
0
41
1
10
40.0237965063288
20
-5.97147153735736
30
0
41
1
10
40.7752687916299
20
-5.91062998454467
30
0
41
1
10
41.026352961965
20
-5.88513029857714
30
-1E-16
41
1
10
41.5300016967582
20
-5.82363351309675
30
-1E-16
41
1
10
41.7819959499823
20
-5.78767090402198
30
-1E-16
41
1
10
43.6716155927558
20
-5.47987143510775
30
-1E-16
41
1
10
45.2838850704463
20
-5.00264453703153
30
-1E-16
41
1
10
46.9137976294674
20
-4.35704698001155
30
0
0
SPLINE
5
C7
100
AcDbEntity
8
1
62
256
6
ByLayer
370
18
48
1
60
0
100
AcDbSpline
70
4
71
3
72
72
73
68
40
0
40
0
40
0
40
0
40
0.0464123320898705
40
0.0464123320898705
40
0.0696184981348055
40
0.0696184981348055
40
0.0928246641797405
40
0.0928246641797405
40
0.13923699626961
40
0.13923699626961
40
0.162443162314545
40
0.162443162314545
40
0.18564932835948
40
0.18564932835948
40
0.23206166044935
40
0.23206166044935
40
0.255267826494284
40
0.255267826494284
40
0.27847399253922
40
0.27847399253922
40
0.32488632462909
40
0.32488632462909
40
0.348092490674024
40
0.348092490674024
40
0.37129865671896
40
0.37129865671896
40
0.41771098880883
40
0.41771098880883
40
0.440917154853765
40
0.440917154853765
40
0.4641233208987
40
0.4641233208987
40
0.487329486943635
40
0.487329486943635
40
0.510535652988571
40
0.510535652988571
40
0.556947985078441
40
0.556947985078441
40
0.580154151123377
40
0.580154151123377
40
0.603360317168313
40
0.603360317168313
40
0.649772649258183
40
0.649772649258183
40
0.672978815303118
40
0.672978815303118
40
0.696184981348053
40
0.696184981348053
40
0.742597313437924
40
0.742597313437924
40
0.765803479482859
40
0.765803479482859
40
0.789009645527794
40
0.789009645527794
40
0.835421977617665
40
0.835421977617665
40
0.858628143662599
40
0.858628143662599
40
0.881834309707534
40
0.881834309707534
40
0.928246641797404
40
0.928246641797404
40
0.974658973887273
40
0.974658973887273
40
0.997865139932208
40
0.997865139932208
40
1
40
1
40
1
40
1
41
1
10
3.651708398946
20
5.92320439029049
30
0
41
1
10
4.17694848612268
20
5.96066698863362
30
0
41
1
10
4.70213517197013
20
5.97494696534133
30
0
41
1
10
5.49102922894346
20
5.96219888227427
30
0
41
1
10
5.75439619543292
20
5.95223045668209
30
0
41
1
10
6.28015684702362
20
5.92087080907885
30
0
41
1
10
6.54255823135648
20
5.89948076337211
30
0
41
1
10
7.32953821438602
20
5.81856332248699
30
1E-16
41
1
10
7.85372674364078
20
5.74229379255942
30
1E-16
41
1
10
8.64118343693704
20
5.59529426598436
30
1E-16
41
1
10
8.90390118871485
20
5.54088546577233
30
1E-16
41
1
10
9.42982737426581
20
5.42114246670002
30
1E-16
41
1
10
9.6925050222529
20
5.35588633266323
30
1E-16
41
1
10
10.4797660189824
20
5.14548041457039
30
1E-16
41
1
10
11.004221165553
20
4.9857203136313
30
1E-16
41
1
10
11.7913934085794
20
4.71811048080366
30
2E-16
41
1
10
12.0538809028045
20
4.62425262243735
30
2E-16
41
1
10
12.5791334441869
20
4.42720157795247
30
-3E-16
41
1
10
12.8420687328563
20
4.32384119387214
30
-3E-16
41
1
10
13.6298463670598
20
4.00279450353844
30
-2E-16
41
1
10
14.1546503887222
20
3.77424761166753
30
-2E-16
41
1
10
14.9415590488325
20
3.41032112643779
30
-2E-16
41
1
10
15.2038242735047
20
3.28549687672469
30
-2E-16
41
1
10
15.7284333468869
20
3.02894704083647
30
-2E-16
41
1
10
15.9908343286956
20
2.89704507201785
30
-2E-16
41
1
10
16.7792204838447
20
2.49409104665736
30
-2E-16
41
1
10
17.3044159857958
20
2.21750200819019
30
-1E-16
41
1
10
18.0914679900568
20
1.79069992233744
30
-1E-16
41
1
10
18.3537404247272
20
1.64651272349909
30
-1E-16
41
1
10
18.8781000987879
20
1.35420562829933
30
-1E-16
41
1
10
19.1401059503868
20
1.2059359378155
30
-1E-16
41
1
10
19.6654230669069
20
0.907976269525165
30
-1E-16
41
1
10
19.9285686232718
20
0.758064247038931
30
0
41
1
10
20.4537603139995
20
0.457727578744283
30
0
41
1
10
20.7160555462223
20
0.307102911299012
30
0
41
1
10
21.5027823931052
20
-0.144841757533669
30
0
41
1
10
22.0270860866084
20
-0.446179109486735
30
0
41
1
10
22.8146220030909
20
-0.895882836569456
30
1E-16
41
1
10
23.0776937681472
20
-1.04535567834532
30
1E-16
41
1
10
23.6030187351248
20
-1.34223431658427
30
1E-16
41
1
10
23.8650108000474
20
-1.48985271883706
30
1E-16
41
1
10
24.6516138352905
20
-1.92579538374437
30
1E-16
41
1
10
25.1761611757155
20
-2.20844859560717
30
1E-16
41
1
10
25.9635282617443
20
-2.61999992500566
30
2E-16
41
1
10
26.2260899385038
20
-2.75508154138174
30
2E-16
41
1
10
26.7514794001667
20
-3.02088146134832
30
2E-16
41
1
10
27.0139170026414
20
-3.15125931766704
30
2E-16
41
1
10
27.8008210651708
20
-3.53109391620404
30
2E-16
41
1
10
28.3253150843416
20
-3.7700741570772
30
2E-16
41
1
10
29.1121179044444
20
-4.10708455966073
30
3E-16
41
1
10
29.3744146033501
20
-4.21580589028363
30
3E-16
41
1
10
29.8991580377838
20
-4.42578201688886
30
3E-16
41
1
10
30.1619098773023
20
-4.52699872099203
30
-2E-16
41
1
10
30.9495441734686
20
-4.81570020090288
30
-1E-16
41
1
10
31.4741656536883
20
-4.98914664216306
30
-1E-16
41
1
10
32.2607843848923
20
-5.22077713788929
30
-1E-16
41
1
10
32.5229871674472
20
-5.29317268328845
30
-1E-16
41
1
10
33.0473179193296
20
-5.42824839048177
30
-1E-16
41
1
10
33.3097365948648
20
-5.49079220961176
30
-1E-16
41
1
10
34.0981889543678
20
-5.66209575469941
30
-1E-16
41
1
10
34.6223490693368
20
-5.75454718948652
30
-1E-16
41
1
10
35.6709351530629
20
-5.89492411067172
30
-1E-16
41
1
10
36.1950804845262
20
-5.94298217573566
30
0
41
1
10
36.9831389289461
20
-5.9809255882794
30
0
41
1
10
37.2461122261035
20
-5.98787157044106
30
0
41
1
10
37.5324318352457
20
-5.98915627416184
30
0
41
1
10
37.5565495561509
20
-5.98921556566592
30
0
41
1
10
37.5806644684018
20
-5.98922600870179
30
0
0
SPLINE
5
C8
100
AcDbEntity
8
1
62
256
6
ByLayer
370
18
48
1
60
0
100
AcDbSpline
70
4
71
3
72
20
73
16
40
0
40
0
40
0
40
0
40
0.125000000000006
40
0.125000000000006
40
0.187500000000007
40
0.187500000000007
40
0.250000000000008
40
0.250000000000008
40
0.375000000000007
40
0.375000000000007
40
0.500000000000005
40
0.500000000000005
40
0.750000000000003
40
0.750000000000003
40
1
40
1
40
1
40
1
41
1
10
56.4902955341339
20
-1.80290591155395
30
0
41
1
10
56.4066360366031
20
-1.93621634167565
30
0
41
1
10
56.3259787619955
20
-2.077922628393
30
0
41
1
10
56.208984446224
20
-2.3040499533206
30
0
41
1
10
56.1707395664772
20
-2.38155586651487
30
0
41
1
10
56.0964724107903
20
-2.53885884405744
30
0
41
1
10
56.0602928871226
20
-2.61886425870364
30
0
41
1
10
55.9543787791782
20
-2.86305227028379
30
0
41
1
10
55.8874884250771
20
-3.03130767368535
30
0
41
1
10
55.7611029057095
20
-3.37024374143817
30
0
41
1
10
55.698722786052
20
-3.54006268420451
30
0
41
1
10
55.5134165972309
20
-4.05036163782984
30
0
41
1
10
55.3924308185141
20
-4.39205053301257
30
0
41
1
10
55.1532587481813
20
-5.073989745185
30
0
41
1
10
55.0352312140547
20
-5.41356465738446
30
0
41
1
10
54.9162339264742
20
-5.75040507495368
30
0
0
SPLINE
5
C9
100
AcDbEntity
8
1
62
256
6
ByLayer
370
18
48
1
60
0
100
AcDbSpline
70
4
71
3
72
20
73
16
40
0
40
0
40
0
40
0
40
0.0543735409023855
40
0.0543735409023855
40
0.189463035059188
40
0.189463035059188
40
0.32455252921599
40
0.32455252921599
40
0.459642023372793
40
0.459642023372793
40
0.729821011686395
40
0.729821011686395
40
0.864910505843198
40
0.864910505843198
40
1
40
1
40
1
40
1
41
1
10
39.3740458262827
20
-0.527448440034618
30
0
41
1
10
39.1318141125462
20
-0.393738453169931
30
0
41
1
10
38.8897929267904
20
-0.259689091786925
30
0
41
1
10
38.046696990661
20
0.207656409645864
30
0
41
1
10
37.4458279366047
20
0.541110848938189
30
0
41
1
10
36.2406041092571
20
1.2012032566667
30
-1E-16
41
1
10
35.63792664072
20
1.52692613427172
30
-1E-16
41
1
10
34.4328501202338
20
2.15949114561047
30
-1E-16
41
1
10
33.8301312022647
20
2.46676552942958
30
-2E-16
41
1
10
32.0234869669291
20
3.34528071658696
30
-2E-16
41
1
10
30.8191511799569
20
3.87514973806017
30
-2E-16
41
1
10
29.0121917459882
20
4.5379477696066
30
2E-16
41
1
10
28.4104416283861
20
4.73660449001
30
2E-16
41
1
10
27.2053344846515
20
5.08545469009539
30
1E-16
41
1
10
26.6026335410247
20
5.23500582575031
30
1E-16
41
1
10
25.9999999999918
20
5.35771627146235
30
1E-16
0
SPLINE
5
CA
100
AcDbEntity
8
1
62
256
6
ByLayer
370
18
48
1
60
0
100
AcDbSpline
70
2053
71
3
72
62
73
58
40
0
40
0
40
0
40
0
40
0.0624999999999997
40
0.0624999999999997
40
0.124999999999999
40
0.124999999999999
40
0.187499999999999
40
0.187499999999999
40
0.249999999999999
40
0.249999999999999
40
0.281249999999999
40
0.281249999999999
40
0.312499999999999
40
0.312499999999999
40
0.343749999999999
40
0.343749999999999
40
0.374999999999999
40
0.374999999999999
40
0.406249999999999
40
0.406249999999999
40
0.437499999999999
40
0.437499999999999
40
0.468749999999999
40
0.468749999999999
40
0.499999999999999
40
0.499999999999999
40
0.531249999999999
40
0.531249999999999
40
0.562499999999999
40
0.562499999999999
40
0.593749999999999
40
0.593749999999999
40
0.624999999999999
40
0.624999999999999
40
0.656249999999999
40
0.656249999999999
40
0.687499999999999
40
0.687499999999999
40
0.71875
40
0.71875
40
0.75
40
0.75
40
0.78125
40
0.78125
40
0.8125
40
0.8125
40
0.84375
40
0.84375
40
0.875
40
0.875
40
0.90625
40
0.90625
40
0.9375
40
0.9375
40
0.96875
40
0.96875
40
1
40
1
40
1
40
1
41
1
10
55.3945863571646
20
-2.4017287206189
30
1E-16
41
1
10
55.3515952573449
20
-2.44917029985223
30
1E-16
41
1
10
55.3115693127057
20
-2.47749554433915
30
2E-16
41
1
10
55.235309422334
20
-2.49743680423589
30
2E-16
41
1
10
55.201091443655
20
-2.48845660444769
30
2E-16
41
1
10
55.1383736208928
20
-2.43190383926495
30
1E-16
41
1
10
55.1115067156615
20
-2.38584472766701
30
1E-16
41
1
10
55.0658550409651
20
-2.25612051754774
30
1E-16
41
1
10
55.0482557218131
20
-2.17591201558483
30
1E-16
41
1
10
55.03120819566
20
-2.03119266874148
30
1E-16
41
1
10
55.0273182849459
20
-1.98021643915177
30
1E-16
41
1
10
55.0235335088533
20
-1.87364812706144
30
1E-16
41
1
10
55.0236420312702
20
-1.81727271412177
30
1E-16
41
1
10
55.0287186228047
20
-1.70176743600797
30
1E-16
41
1
10
55.0335879574184
20
-1.64386951833546
30
1E-16
41
1
10
55.0485700891876
20
-1.52782297476912
30
1E-16
41
1
10
55.0588560276181
20
-1.46930121591424
30
1E-16
41
1
10
55.0841130248222
20
-1.35903295368797
30
1E-16
41
1
10
55.0993624333571
20
-1.30584478508069
30
1E-16
41
1
10
55.1341319266972
20
-1.2073150190246
30
1E-16
41
1
10
55.1533667528721
20
-1.16253052786106
30
1E-16
41
1
10
55.1953451440685
20
-1.08116930111882
30
1E-16
41
1
10
55.2177782363876
20
-1.04530441980708
30
1E-16
41
1
10
55.2641382521071
20
-0.983618877464039
30
1E-16
41
1
10
55.2884334161089
20
-0.957359382412534
30
1E-16
41
1
10
55.3371979842278
20
-0.914898583167343
30
1E-16
41
1
10
55.3617465235153
20
-0.898501822045546
30
1E-16
41
1
10
55.4109676620658
20
-0.874534732215864
30
1E-16
41
1
10
55.4355769074594
20
-0.867076737385844
30
1E-16
41
1
10
55.4832843104637
20
-0.860920968586186
30
1E-16
41
1
10
55.506570408717
20
-0.862123487805604
30
1E-16
41
1
10
55.5517811433818
20
-0.873007184307994
30
1E-16
41
1
10
55.5736479879156
20
-0.882762070762027
30
1E-16
41
1
10
55.614395459453
20
-0.910303758761899
30
1E-16
41
1
10
55.6334611106539
20
-0.928114739974205
30
1E-16
41
1
10
55.668605733204
20
-0.972340883934038
30
1E-16
41
1
10
55.6847994363519
20
-0.999073643021774
30
1E-16
41
1
10
55.7125725227964
20
-1.06043916407697
30
1E-16
41
1
10
55.7242716830981
20
-1.09508951607432
30
1E-16
41
1
10
55.7426836251822
20
-1.1733520824317
30
1E-16
41
1
10
55.7493164340279
20
-1.21710762392044
30
1E-16
41
1
10
55.7563153521158
20
-1.3107410161046
30
1E-16
41
1
10
55.7567722754682
20
-1.36168458524105
30
1E-16
41
1
10
55.7510822641913
20
-1.46862128355156
30
1E-16
41
1
10
55.745061805556
20
-1.52373711042426
30
1E-16
41
1
10
55.7268264150938
20
-1.6374437063254
30
1E-16
41
1
10
55.7145388587615
20
-1.69586220678045
30
1E-16
41
1
10
55.6855440464535
20
-1.80943116787771
30
1E-16
41
1
10
55.6684530427282
20
-1.86614403779089
30
-1E-16
41
1
10
55.6314625953392
20
-1.9737267528993
30
-1E-16
41
1
10
55.6115722582782
20
-2.02481830811251
30
-1E-16
41
1
10
55.5694920475827
20
-2.12183701548878
30
-1E-16
41
1
10
55.547969449971
20
-2.1662357818004
30
-1E-16
41
1
10
55.5041991801993
20
-2.24772534860509
30
-1E-16
41
1
10
55.4818171591176
20
-2.28493771214872
30
1E-16
41
1
10
55.4378789342002
20
-2.34985972363953
30
1E-16
41
1
10
55.4160819070745
20
-2.37800793100223
30
1E-16
41
1
10
55.3945863571646
20
-2.4017287206189
30
1E-16
0
SPLINE
5
CB
100
AcDbEntity
8
1
62
256
6
ByLayer
370
18
48
1
60
0
100
AcDbSpline
70
4
71
3
72
14
73
10
40
0
40
0
40
0
40
0
40
0.346340710515798
40
0.346340710515798
40
0.692681421031595
40
0.692681421031595
40
0.865851776289515
40
0.865851776289515
40
1
40
1
40
1
40
1
41
1
10
55.5199368658608
20
1.61360527340975
30
0
41
1
10
55.4238326536029
20
1.60007198443489
30
0
41
1
10
55.3305522692435
20
1.579434058537
30
0
41
1
10
55.1493877268618
20
1.52704182056928
30
0
41
1
10
55.0609444648174
20
1.49496176183536
30
0
41
1
10
54.9386564863852
20
1.4446548737829
30
0
41
1
10
54.8993264483623
20
1.42744968407669
30
0
41
1
10
54.8319154152319
20
1.39672412324796
30
0
41
1
10
54.8031748667057
20
1.38317663114796
30
0
41
1
10
54.7754320271272
20
1.3698207512154
30
0
0
SPLINE
5
CC
100
AcDbEntity
8
1
62
256
6
ByLayer
370
18
48
1
60
0
100
AcDbSpline
70
4
71
3
72
8
73
4
40
0
40
0
40
0
40
0
40
1
40
1
40
1
40
1
41
1
10
56.4902955341339
20
1.80290591155392
30
0
41
1
10
56.6628311122861
20
1.31395881331107
30
0
41
1
10
56.8309097694141
20
0.823416581040505
30
0
41
1
10
56.9944670040371
20
0.331256129633459
30
0
0
SPLINE
5
CD
100
AcDbEntity
8
1
62
256
6
ByLayer
370
18
48
1
60
0
100
AcDbSpline
70
4
71
3
72
8
73
4
40
0
40
0
40
0
40
0
40
1
40
1
40
1
40
1
41
1
10
3.651708398946
20
5.92320439029049
30
0
41
1
10
3.6511701806561
20
5.83820572654867
30
0
41
1
10
3.65062330386144
20
5.75320812697441
30
0
41
1
10
3.6500676934657
20
5.66821166909574
30
0
0
SPLINE
5
CE
100
AcDbEntity
8
1
62
256
6
ByLayer
370
18
48
1
60
0
100
AcDbSpline
70
4
71
3
72
8
73
4
40
0
40
0
40
0
40
0
40
1
40
1
40
1
40
1
41
1
10
26
20
5.53423838953887
30
1E-16
41
1
10
26
20
5.4764407817791
30
1E-16
41
1
10
26
20
5.41759492519972
30
1E-16
41
1
10
26
20
5.35771627141608
30
1E-16
0
SPLINE
5
CF
100
AcDbEntity
8
1
62
256
6
ByLayer
370
18
48
1
60
0
100
AcDbSpline
70
4
71
3
72
20
73
16
40
0
40
0
40
0
40
0
40
0.143523724596155
40
0.143523724596155
40
0.22917135213654
40
0.22917135213654
40
0.314818979676925
40
0.314818979676925
40
0.657409489838461
40
0.657409489838461
40
0.82870474491923
40
0.82870474491923
40
0.914352372459615
40
0.914352372459615
40
1
40
1
40
1
40
1
41
1
10
21.9676619213728
20
-5.97946293385135
30
0
41
1
10
21.4468403017832
20
-5.97949801351535
30
0
41
1
10
20.9248483518158
20
-5.95698737249765
30
0
41
1
10
20.086945018562
20
-5.88457261530255
30
-1E-16
41
1
10
19.7720525851862
20
-5.84925993480837
30
-1E-16
41
1
10
19.1440722666206
20
-5.76284121327907
30
-1E-16
41
1
10
18.8311799972179
20
-5.71182295035698
30
-1E-16
41
1
10
17.2704216022771
20
-5.41928384311367
30
-1E-16
41
1
10
16.0340407148784
20
-5.06523869273343
30
-1E-16
41
1
10
14.1685265538421
20
-4.38149136041022
30
3E-16
41
1
10
13.5447448752038
20
-4.12828525276973
30
3E-16
41
1
10
12.60267420388
20
-3.7137563131397
30
2E-16
41
1
10
12.2876563396039
20
-3.56986587607926
30
2E-16
41
1
10
11.6586366464012
20
-3.27321758910466
30
2E-16
41
1
10
11.344150685692
20
-3.12025686056899
30
2E-16
41
1
10
11.0294357769015
20
-2.96301876992666
30
2E-16
0
SPLINE
5
D0
100
AcDbEntity
8
1
62
256
6
ByLayer
370
18
48
1
60
0
100
AcDbSpline
70
4
71
3
72
10
73
6
40
0
40
0
40
0
40
0
40
0.9149816075162
40
0.9149816075162
40
1
40
1
40
1
40
1
41
1
10
4.8055480927103
20
5.68038863395259
30
0
41
1
10
4.95122958555538
20
5.68135083137887
30
0
41
1
10
5.09678149787879
20
5.68057824824405
30
0
41
1
10
5.2555432274377
20
5.6778842854587
30
0
41
1
10
5.26903919133716
20
5.67764071167804
30
0
41
1
10
5.28253345896832
20
5.67738266255063
30
0
0
SPLINE
5
D1
100
AcDbEntity
8
1
62
256
6
ByLayer
370
18
48
1
60
0
100
AcDbSpline
70
4
71
3
72
18
73
14
40
0
40
0
40
0
40
0
40
0.0333537288062873
40
0.0333537288062873
40
0.340762393230835
40
0.340762393230835
40
0.494466725443113
40
0.494466725443113
40
0.648171057655391
40
0.648171057655391
40
0.95557972207994
40
0.95557972207994
40
1
40
1
40
1
40
1
41
1
10
16.1174198206997
20
2.69544901479361
30
-2E-16
41
1
10
16.1741995330985
20
2.66807507448553
30
-2E-16
41
1
10
16.2309881488173
20
2.64057911884427
30
-2E-16
41
1
10
16.8113328694618
20
2.35845579141457
30
-1E-16
41
1
10
17.336472402738
20
2.09396763121012
30
-1E-16
41
1
10
18.1264168202964
20
1.68533834384669
30
-1E-16
41
1
10
18.3901400160947
20
1.54714280687335
30
-1E-16
41
1
10
18.9182055078207
20
1.26689281087528
30
-1E-16
41
1
10
19.1824678277817
20
1.12478204039175
30
-1E-16
41
1
10
19.9787939715659
20
0.694917691500251
30
0
41
1
10
20.5069205508029
20
0.406587606194307
30
0
41
1
10
21.1090635728292
20
0.0773994194586294
30
0
41
1
10
21.1850518387997
20
0.0358567678895554
30
0
41
1
10
21.2610074257393
20
-0.0056623438832446
30
0
0
SPLINE
5
D2
100
AcDbEntity
8
1
62
256
6
ByLayer
370
18
48
1
60
0
100
AcDbSpline
70
4
71
3
72
18
73
14
40
0
40
0
40
0
40
0
40
0.237717055063788
40
0.237717055063788
40
0.433603484250282
40
0.433603484250282
40
0.631331000463038
40
0.631331000463038
40
0.802419120641062
40
0.802419120641062
40
0.96638186366343
40
0.96638186366343
40
1
40
1
40
1
40
1
41
1
10
54.8614447628323
20
-5.64824448150134
30
0
41
1
10
54.861529659074
20
-5.64842020238191
30
0
41
1
10
54.8615560737685
20
-5.64878330756105
30
0
41
1
10
54.8614689038926
20
-5.64980890732079
30
0
41
1
10
54.8613773231308
20
-5.65042107659892
30
0
41
1
10
54.8610837891281
20
-5.65189970672884
30
0
41
1
10
54.8608751933716
20
-5.65279398454578
30
0
41
1
10
54.860402878476
20
-5.65459001303449
30
0
41
1
10
54.8601439650266
20
-5.65549868970047
30
0
41
1
10
54.8596063751549
20
-5.65726403353867
30
0
41
1
10
54.859322605025
20
-5.6581427231545
30
0
41
1
10
54.8589808514655
20
-5.65914875802213
30
0
41
1
10
54.8589220211295
20
-5.65932012828668
30
0
41
1
10
54.858863193569
20
-5.6594897440462
30
0
0
SPLINE
5
D3
100
AcDbEntity
8
1
62
256
6
ByLayer
370
18
48
1
60
0
100
AcDbSpline
70
4
71
3
72
8
73
4
40
0
40
0
40
0
40
0
40
1
40
1
40
1
40
1
41
1
10
3.55186677146386
20
2.08877070612206
30
-1E-16
41
1
10
3.52121217631466
20
2.10525394761834
30
-1E-16
41
1
10
3.50166488153033
20
2.1368428193008
30
-1E-16
41
1
10
3.50166488153033
20
2.16977310933348
30
-1E-16
0
SPLINE
5
D4
100
AcDbEntity
8
1
62
256
6
ByLayer
370
18
48
1
60
0
100
AcDbSpline
70
4
71
3
72
10
73
6
40
0
40
0
40
0
40
0
40
0.5
40
0.5
40
1
40
1
40
1
40
1
41
1
10
54.5211786038541
20
-5.91762701356552
30
0
41
1
10
54.5248196083429
20
-5.94098763200188
30
0
41
1
10
54.5282874716918
20
-5.95944651177513
30
0
41
1
10
54.5351176344843
20
-5.98639225746103
30
0
41
1
10
54.5384929121052
20
-5.99488506753821
30
0
41
1
10
54.541887438695
20
-5.99821016410513
30
0
0
SPLINE
5
D5
100
AcDbEntity
8
1
62
256
6
ByLayer
370
18
48
1
60
0
100
AcDbSpline
70
4
71
3
72
8
73
4
40
0
40
0
40
0
40
0
40
1
40
1
40
1
40
1
41
1
10
54.521178603857
20
-5.91762701356222
30
0
41
1
10
54.6241103164567
20
-5.85995473646125
30
0
41
1
10
54.7273335203402
20
-5.80089509172061
30
0
41
1
10
54.8309023723838
20
-5.74048723311589
30
0
0
SPLINE
5
D6
100
AcDbEntity
8
1
62
256
6
ByLayer
370
18
48
1
60
0
100
AcDbSpline
70
4
71
3
72
10
73
6
40
0
40
0
40
0
40
0
40
0.5
40
0.5
40
1
40
1
40
1
40
1
41
1
10
3.50166488153033
20
-5.9330782927579
30
0
41
1
10
3.50166488153033
20
-5.92927556899713
30
0
41
1
10
3.52132064117541
20
-5.92526275892874
30
0
41
1
10
3.5820355326662
20
-5.92101390736656
30
0
41
1
10
3.6211988618179
20
-5.92102830631868
30
0
41
1
10
3.65170839894603
20
-5.92320439029052
30
0
0
SPLINE
5
D7
100
AcDbEntity
8
1
62
256
6
ByLayer
370
18
48
1
60
0
100
AcDbSpline
70
4
71
3
72
28
73
24
40
0
40
0
40
0
40
0
40
0.0309895405069754
40
0.0309895405069754
40
0.172248976821934
40
0.172248976821934
40
0.242878694979414
40
0.242878694979414
40
0.313508413136893
40
0.313508413136893
40
0.384138131294373
40
0.384138131294373
40
0.454767849451853
40
0.454767849451853
40
0.596027285766811
40
0.596027285766811
40
0.666657003924291
40
0.666657003924291
40
0.73728672208177
40
0.73728672208177
40
0.87854615839673
40
0.87854615839673
40
1
40
1
40
1
40
1
41
1
10
3.60203658697313
20
5.66811298002409
30
0
41
1
10
3.6020336730505
20
5.66753170945864
30
0
41
1
10
3.60203072951052
20
5.66566811841602
30
0
41
1
10
3.60201428161704
20
5.6482477239739
30
0
41
1
10
3.60200040121322
20
5.60783259956699
30
0
41
1
10
3.60197969106883
20
5.50859842869488
30
1E-16
41
1
10
3.6019728023787
20
5.46905188507122
30
1E-16
41
1
10
3.60195912987422
20
5.37670799868602
30
-1E-16
41
1
10
3.60195234081223
20
5.32379726746362
30
-1E-16
41
1
10
3.60193911945797
20
5.2061764154038
30
1E-16
41
1
10
3.60193266071374
20
5.14131063352536
30
1E-16
41
1
10
3.60192005591875
20
4.9994983290517
30
1E-16
41
1
10
3.60191389449037
20
4.92233492806105
30
1E-16
41
1
10
3.60189595667032
20
4.67385812653987
30
2E-16
41
1
10
3.60188486834227
20
4.4876862897699
30
2E-16
41
1
10
3.60186907385946
20
4.17876092871268
30
2E-16
41
1
10
3.60186394627962
20
4.07081438348922
30
2E-16
41
1
10
3.60185385480966
20
3.84484840378283
30
-2E-16
41
1
10
3.60184887864375
20
3.72651725289793
30
-2E-16
41
1
10
3.60183407048842
20
3.3579373277218
30
-2E-16
41
1
10
3.60182453343151
20
3.09860465406484
30
-2E-16
41
1
10
3.60180615977652
20
2.59193685349371
30
-2E-16
41
1
10
3.60179740977054
20
2.34781246394775
30
-1E-16
41
1
10
3.601787911961
20
2.09395000436314
30
-1E-16
0
SPLINE
5
D8
100
AcDbEntity
8
1
62
256
6
ByLayer
370
18
48
1
60
0
100
AcDbSpline
70
4
71
3
72
8
73
4
40
0
40
0
40
0
40
0
40
1
40
1
40
1
40
1
41
1
10
54.9162339264741
20
5.75040507495368
30
0
41
1
10
54.911955394845
20
5.75328874265765
30
0
41
1
10
54.907676919242
20
5.75617192218024
30
0
41
1
10
54.9033984993078
20
5.75905461321986
30
0
0
SPLINE
5
D9
100
AcDbEntity
8
1
62
256
6
ByLayer
370
18
48
1
60
0
100
AcDbSpline
70
4
71
3
72
8
73
4
40
0
40
0
40
0
40
0
40
1
40
1
40
1
40
1
41
1
10
56.9944670040371
20
0.331256129633431
30
0
41
1
10
57.0018500708943
20
0.110246917846354
30
0
41
1
10
57.0018386019883
20
-0.110590235042196
30
0
41
1
10
56.9944670040376
20
-0.331256129620925
30
0
0
SPLINE
5
DA
100
AcDbEntity
8
1
62
256
6
ByLayer
370
18
48
1
60
0
100
AcDbSpline
70
4
71
3
72
12
73
8
40
0
40
0
40
0
40
0
40
0.251234509210742
40
0.251234509210742
40
0.625617254605371
40
0.625617254605371
40
1
40
1
40
1
40
1
41
1
10
54.7238235198274
20
1.42265568503481
30
-1E-16
41
1
10
54.7563862989157
20
1.41231782945346
30
-1E-16
41
1
10
54.7906565747343
20
1.39933035818362
30
-1E-16
41
1
10
54.879377893385
20
1.36174062684208
30
-1E-16
41
1
10
54.9351171609525
20
1.33513935827517
30
-1E-16
41
1
10
55.0501790383498
20
1.27637635375825
30
-1E-16
41
1
10
55.1097545038848
20
1.24379194933036
30
-1E-16
41
1
10
55.1700079999036
20
1.20919262773998
30
-1E-16
0
SPLINE
5
DB
100
AcDbEntity
8
1
62
256
6
ByLayer
370
18
48
1
60
0
100
AcDbSpline
70
4
71
3
72
10
73
6
40
0
40
0
40
0
40
0
40
0.5
40
0.5
40
1
40
1
40
1
40
1
41
1
10
56.4902955341339
20
1.80290591155398
30
0
41
1
10
56.3304017757989
20
1.7600897223208
30
0
41
1
10
56.1692935681055
20
1.72473912419463
30
0
41
1
10
55.8456516377291
20
1.66280100394675
30
0
41
1
10
55.6830589520551
20
1.63657594533746
30
0
41
1
10
55.5199368658608
20
1.61360527340975
30
0
0
SPLINE
5
DC
100
AcDbEntity
8
1
62
256
6
ByLayer
370
18
48
1
60
0
100
AcDbSpline
70
4
71
3
72
8
73
4
40
0
40
0
40
0
40
0
40
1
40
1
40
1
40
1
41
1
10
54.0264520705113
20
-0.0703317732235575
30
0
41
1
10
54.0755386353082
20
-0.0975852342578776
30
0
41
1
10
54.1242907640345
20
-0.123270225469327
30
0
41
1
10
54.1727733848975
20
-0.147428558473393
30
0
0
SPLINE
5
DD
100
AcDbEntity
8
1
62
256
6
ByLayer
370
18
48
1
60
0
100
AcDbSpline
70
4
71
3
72
24
73
20
40
0
40
0
40
0
40
0
40
0.0746050032824583
40
0.0746050032824583
40
0.265172345787118
40
0.265172345787118
40
0.360456017039448
40
0.360456017039448
40
0.455739688291777
40
0.455739688291777
40
0.646307030796437
40
0.646307030796437
40
0.693948866422602
40
0.693948866422602
40
0.741590702048768
40
0.741590702048768
40
0.836874373301098
40
0.836874373301098
40
1
40
1
40
1
40
1
41
1
10
24.0738758742148
20
-5.68469472909086
30
0
41
1
10
23.6576827070836
20
-5.6950010681972
30
0
41
1
10
23.2419594627144
20
-5.6916267249228
30
0
41
1
10
21.7636314330548
20
-5.63103350596182
30
0
41
1
10
20.6997096426172
20
-5.49845561713678
30
-1E-16
41
1
10
19.0842351190834
20
-5.16771757234477
30
-1E-16
41
1
10
18.5480978334784
20
-5.03674805599965
30
-1E-16
41
1
10
17.4805669615168
20
-4.73733931063043
30
-2E-16
41
1
10
16.9486711514017
20
-4.56897122309994
30
-2E-16
41
1
10
15.3543581718508
20
-4.01280713791951
30
2E-16
41
1
10
14.2935398280327
20
-3.5736035143577
30
2E-16
41
1
10
12.9551113042143
20
-2.95826074342318
30
2E-16
41
1
10
12.6867995090369
20
-2.83187030982415
30
2E-16
41
1
10
12.148712043776
20
-2.57280475519934
30
2E-16
41
1
10
11.8793089612086
20
-2.44030056747286
30
1E-16
41
1
10
11.0746268775191
20
-2.03775231056386
30
1E-16
41
1
10
10.5408604079451
20
-1.76172014096412
30
1E-16
41
1
10
9.09668023565038
20
-0.999524024218658
30
1E-16
41
1
10
8.18899198802296
20
-0.50314890699903
30
0
41
1
10
7.27792540736067
20
-0.0051931709842563
30
0
0
SPLINE
5
DE
100
AcDbEntity
8
1
62
256
6
ByLayer
370
18
48
1
60
0
100
AcDbSpline
70
4
71
3
72
28
73
24
40
0
40
0
40
0
40
0
40
0.0267941114114859
40
0.0267941114114859
40
0.0535882228229718
40
0.0535882228229718
40
0.107176445645944
40
0.107176445645944
40
0.214352891291885
40
0.214352891291885
40
0.428705782583768
40
0.428705782583768
40
0.48229400540674
40
0.48229400540674
40
0.535882228229713
40
0.535882228229713
40
0.643058673875659
40
0.643058673875659
40
0.857411565167553
40
0.857411565167553
40
0.9645880108135
40
0.9645880108135
40
1
40
1
40
1
40
1
41
1
10
54.8588631935691
20
-5.6594897440462
30
0
41
1
10
54.7245809532202
20
-5.64934624762083
30
0
41
1
10
54.590419226245
20
-5.63837376357978
30
0
41
1
10
54.3225388149609
20
-5.61310392878289
30
-1E-16
41
1
10
54.188781302964
20
-5.59907361454003
30
-1E-16
41
1
10
53.7879867232503
20
-5.5528607467738
30
-1E-16
41
1
10
53.5214276153867
20
-5.51655734755849
30
-1E-16
41
1
10
52.7231026508224
20
-5.39163668539703
30
1E-16
41
1
10
52.1927318493876
20
-5.28711066973457
30
-1E-16
41
1
10
50.6031055844178
20
-4.9138531784867
30
-1E-16
41
1
10
49.5451144635134
20
-4.58478941324404
30
-2E-16
41
1
10
48.210837952963
20
-4.08628131046328
30
-2E-16
41
1
10
47.9433862725376
20
-3.98220326219817
30
2E-16
41
1
10
47.4069092868273
20
-3.76571621351488
30
2E-16
41
1
10
47.1373648796229
20
-3.65308762421259
30
2E-16
41
1
10
46.3319273029511
20
-3.30591596689246
30
2E-16
41
1
10
45.79799112345
20
-3.06161673368393
30
2E-16
41
1
10
44.2008446962177
20
-2.29791638398734
30
1E-16
41
1
10
43.1422036677206
20
-1.74785900754378
30
1E-16
41
1
10
41.546526597485
20
-0.891052755486044
30
1E-16
41
1
10
41.0133247986317
20
-0.600230130622663
30
0
41
1
10
40.3003530771062
20
-0.209539963474157
30
0
41
1
10
40.1227951626018
20
-0.112113436359294
30
0
41
1
10
39.9451128388654
20
-0.014623217566367
30
0
0
SPLINE
5
DF
100
AcDbEntity
8
1
62
256
6
ByLayer
370
18
48
1
60
0
100
AcDbSpline
70
4
71
3
72
10
73
6
40
0
40
0
40
0
40
0
40
0.179946999083406
40
0.179946999083406
40
1
40
1
40
1
40
1
41
1
10
12.6197691376146
20
-3.67277890537443
30
0
41
1
10
12.21974023577
20
-3.80216887269515
30
0
41
1
10
11.8208077164338
20
-3.93313422308219
30
0
41
1
10
9.61074782651761
20
-4.66909288182941
30
0
41
1
10
7.82199885406354
20
-5.30372028739995
30
0
41
1
10
6.05538108234441
20
-5.96554874668669
30
0
0
SPLINE
5
E0
100
AcDbEntity
8
1
62
256
6
ByLayer
370
18
48
1
60
0
100
AcDbSpline
70
4
71
3
72
28
73
24
40
0
40
0
40
0
40
0
40
0.0077292473010312
40
0.0077292473010312
40
0.0599540237588715
40
0.0599540237588715
40
0.164403576674551
40
0.164403576674551
40
0.373302682505912
40
0.373302682505912
40
0.477752235421593
40
0.477752235421593
40
0.529977011879435
40
0.529977011879435
40
0.582201788337277
40
0.582201788337277
40
0.791100894168639
40
0.791100894168639
40
0.89555044708432
40
0.89555044708432
40
0.94777522354216
40
0.94777522354216
40
1
40
1
40
1
40
1
41
1
10
39.5551740066174
20
0.210294632265572
30
0
41
1
10
39.5949381399166
20
0.188534035075691
30
0
41
1
10
39.6347190910193
20
0.166758956534352
30
0
41
1
10
39.9434260430892
20
-0.0022490720702706
30
0
41
1
10
40.2124905590386
20
-0.149729862773398
30
0
41
1
10
41.0163125922291
20
-0.589469199946507
30
0
41
1
10
41.5494982760952
20
-0.879835373651076
30
1E-16
41
1
10
43.1451254552793
20
-1.73542577361238
30
1E-16
41
1
10
44.203744574284
20
-2.28485852269972
30
1E-16
41
1
10
45.8008156565942
20
-3.04793311504923
30
2E-16
41
1
10
46.3347206043326
20
-3.29207366343078
30
2E-16
41
1
10
47.1400981976559
20
-3.63908357036149
30
2E-16
41
1
10
47.409625407427
20
-3.75167317065566
30
2E-16
41
1
10
47.9460804690445
20
-3.96811852983143
30
2E-16
41
1
10
48.2135229575335
20
-4.07219181057229
30
-2E-16
41
1
10
49.5477627271502
20
-4.57074748951317
30
-2E-16
41
1
10
50.6057513407316
20
-4.90008455197744
30
-1E-16
41
1
10
52.1953675933255
20
-5.27406192577965
30
-1E-16
41
1
10
52.7257337476492
20
-5.37887847150833
30
1E-16
41
1
10
53.5240431019915
20
-5.50431332768142
30
-1E-16
41
1
10
53.7905962380379
20
-5.54080019301003
30
-1E-16
41
1
10
54.324974428519
20
-5.60280926695404
30
-1E-16
41
1
10
54.5928556423767
20
-5.62777589082617
30
0
41
1
10
54.861444762833
20
-5.64824448150139
30
0
0
SPLINE
5
E1
100
AcDbEntity
8
1
62
256
6
ByLayer
370
18
48
1
60
0
100
AcDbSpline
70
4
71
3
72
8
73
4
40
0
40
0
40
0
40
0
40
1
40
1
40
1
40
1
41
1
10
3.651708398946
20
-5.92320439029049
30
0
41
1
10
4.07662803921741
20
-5.95351166157505
30
0
41
1
10
4.50151272926612
20
-5.9686463182075
30
0
41
1
10
4.92678397847115
20
-5.96882222792706
30
0
0
SPLINE
5
E2
100
AcDbEntity
8
1
62
256
6
ByLayer
370
18
48
1
60
0
100
AcDbSpline
70
4
71
3
72
40
73
36
40
0
40
0
40
0
40
0
40
0.038692755445506
40
0.038692755445506
40
0.118801692491714
40
0.118801692491714
40
0.158856161014818
40
0.158856161014818
40
0.198910629537922
40
0.198910629537922
40
0.279019566584129
40
0.279019566584129
40
0.319074035107232
40
0.319074035107232
40
0.359128503630335
40
0.359128503630335
40
0.439237440676543
40
0.439237440676543
40
0.519346377722751
40
0.519346377722751
40
0.599455314768959
40
0.599455314768959
40
0.639509783292064
40
0.639509783292064
40
0.679564251815168
40
0.679564251815168
40
0.759673188861376
40
0.759673188861376
40
0.839782125907584
40
0.839782125907584
40
0.879836594430688
40
0.879836594430688
40
0.919891062953792
40
0.919891062953792
40
1
40
1
40
1
40
1
41
1
10
34.3868506417235
20
5.70750867011435
30
1E-16
41
1
10
34.640204225859
20
5.75173960956931
30
1E-16
41
1
10
34.893407663227
20
5.7908345019558
30
1E-16
41
1
10
35.6709351530629
20
5.89492411067172
30
1E-16
41
1
10
36.1950804845262
20
5.94298217573566
30
0
41
1
10
36.9831389289461
20
5.9809255882794
30
0
41
1
10
37.2461122261035
20
5.98787157044106
30
0
41
1
10
37.7705093331597
20
5.990224517613
30
0
41
1
10
38.0323138597789
20
5.98561843613655
30
0
41
1
10
38.8185723595116
20
5.9547999420889
30
0
41
1
10
39.3431016478122
20
5.91169754231822
30
1E-16
41
1
10
40.1306211751532
20
5.813194444239
30
1E-16
41
1
10
40.393521053901
20
5.77464530029562
30
1E-16
41
1
10
40.9183726887422
20
5.68634181223356
30
1E-16
41
1
10
41.1803076865104
20
5.63663937230911
30
1E-16
41
1
10
41.9666984339611
20
5.4722881241112
30
1E-16
41
1
10
42.4907687197606
20
5.34191915992523
30
1E-16
41
1
10
43.5399581817614
20
5.04078359802548
30
1E-16
41
1
10
44.0653660329081
20
4.86880382042116
30
1E-16
41
1
10
45.1145339033929
20
4.49134962621284
30
2E-16
41
1
10
45.6386071150805
20
4.28565258507041
30
-3E-16
41
1
10
46.4249042482728
20
3.95289170281714
30
-2E-16
41
1
10
46.687016122014
20
3.83789792271807
30
-2E-16
41
1
10
47.2116869461198
20
3.60022424889681
30
-2E-16
41
1
10
47.4745589670402
20
3.47754085205528
30
-2E-16
41
1
10
48.2619484614747
20
3.10118510608149
30
-2E-16
41
1
10
48.785621807185
20
2.83831557527233
30
-2E-16
41
1
10
49.8330778407033
20
2.29279573097463
30
-1E-16
41
1
10
50.3566454277918
20
2.00978497813759
30
-1E-16
41
1
10
51.1445659222106
20
1.57430033417194
30
-1E-16
41
1
10
51.4073736143006
20
1.42742880023897
30
-1E-16
41
1
10
51.9317819032353
20
1.13173662604751
30
-1E-16
41
1
10
52.1936760081992
20
0.982827970938388
30
-1E-16
41
1
10
52.9792349475667
20
0.534313970696502
30
0
41
1
10
53.5025545819309
20
0.232543149503641
30
0
41
1
10
54.0264520705113
20
-0.0703317732235575
30
0
0
SPLINE
5
E3
100
AcDbEntity
8
1
62
256
6
ByLayer
370
18
48
1
60
0
100
AcDbSpline
70
4
71
3
72
34
73
30
40
0
40
0
40
0
40
0
40
0.0319512495266662
40
0.0319512495266662
40
0.0788006251634386
40
0.0788006251634386
40
0.172499376436985
40
0.172499376436985
40
0.21934875207376
40
0.21934875207376
40
0.266198127710534
40
0.266198127710534
40
0.359896878984083
40
0.359896878984083
40
0.453595630257631
40
0.453595630257631
40
0.54729438153118
40
0.54729438153118
40
0.594143757167955
40
0.594143757167955
40
0.640993132804731
40
0.640993132804731
40
0.734691884078283
40
0.734691884078283
40
0.828390635351835
40
0.828390635351835
40
0.922089386625388
40
0.922089386625388
40
1
40
1
40
1
40
1
41
1
10
37.0912599647142
20
5.6912453307657
30
0
41
1
10
37.2696519511155
20
5.6960599447504
30
0
41
1
10
37.4480625398168
20
5.69850865405192
30
0
41
1
10
37.8881258716025
20
5.69895908306751
30
0
41
1
10
38.1501064847935
20
5.69359187887963
30
0
41
1
10
38.9383657786052
20
5.65878204633813
30
0
41
1
10
39.4664837054576
20
5.61217581729414
30
1E-16
41
1
10
40.2623513346977
20
5.51144747582333
30
1E-16
41
1
10
40.5269293207663
20
5.4729771123819
30
1E-16
41
1
10
41.0543616139302
20
5.38653698805831
30
-1E-16
41
1
10
41.3174634999746
20
5.33802024600027
30
1E-16
41
1
10
42.1058455539991
20
5.1758524222266
30
1E-16
41
1
10
42.629871836159
20
5.04706395475714
30
1E-16
41
1
10
43.676489291897
20
4.75377331580484
30
2E-16
41
1
10
44.1984351009548
20
4.58992023651678
30
2E-16
41
1
10
45.2456413067714
20
4.22573576497518
30
2E-16
41
1
10
45.7705547226227
20
4.02620532151488
30
-2E-16
41
1
10
46.5606442236836
20
3.70391301946583
30
-2E-16
41
1
10
46.82440632107
20
3.59265937757945
30
-2E-16
41
1
10
47.3532818395496
20
3.36281482609408
30
-2E-16
41
1
10
47.6187772600933
20
3.24402822839266
30
-2E-16
41
1
10
48.411620569047
20
2.88013609114697
30
-2E-16
41
1
10
48.9372848211291
20
2.62676485431811
30
-2E-16
41
1
10
49.9855179285814
20
2.10353447450345
30
-1E-16
41
1
10
50.5079010620658
20
1.83351517091364
30
-1E-16
41
1
10
51.5525307221564
20
1.28195582657531
30
-1E-16
41
1
10
52.0745448260172
20
1.000199186331
30
-1E-16
41
1
10
53.0332275156235
20
0.478465992595545
30
0
41
1
10
53.4693277014485
20
0.239327234100614
30
0
41
1
10
53.9067116590076
20
-0.0011082899734731
30
0
0
SPLINE
5
E4
100
AcDbEntity
8
1
62
256
6
ByLayer
370
18
48
1
60
0
100
AcDbSpline
70
4
71
3
72
8
73
4
40
0
40
0
40
0
40
0
40
1
40
1
40
1
40
1
41
1
10
55.993814995177
20
-0.630870220031483
30
0
41
1
10
55.7785923824898
20
-0.0563580184672787
30
0
41
1
10
55.5034750361341
20
0.557333150842368
30
0
41
1
10
55.170007999898
20
1.20919262774356
30
-1E-16
0
SPLINE
5
E5
100
AcDbEntity
8
1
62
256
6
ByLayer
370
18
48
1
60
0
100
AcDbSpline
70
4
71
3
72
14
73
10
40
0
40
0
40
0
40
0
40
0.25
40
0.25
40
0.5
40
0.5
40
0.75
40
0.75
40
1
40
1
40
1
40
1
41
1
10
54.0129462842127
20
0.776850459450316
30
0
41
1
10
54.1010180967611
20
0.847553855704803
30
-1E-16
41
1
10
54.192162018639
20
0.908770967518109
30
-1E-16
41
1
10
54.3789760234738
20
1.0143029696309
30
-1E-16
41
1
10
54.4746293031622
20
1.05889966696171
30
-1E-16
41
1
10
54.6692294373845
20
1.13080806100726
30
-1E-16
41
1
10
54.7682335297394
20
1.15695929523147
30
-1E-16
41
1
10
54.9679038213274
20
1.19741345668987
30
-1E-16
41
1
10
55.0688737516639
20
1.20852706068061
30
-1E-16
41
1
10
55.1700079998974
20
1.20919262774294
30
-1E-16
0
SPLINE
5
E6
100
AcDbEntity
8
1
62
256
6
ByLayer
370
18
48
1
60
0
100
AcDbSpline
70
4
71
3
72
14
73
10
40
0
40
0
40
0
40
0
40
0.262813848069474
40
0.262813848069474
40
0.494032007075822
40
0.494032007075822
40
0.774544136347009
40
0.774544136347009
40
1
40
1
40
1
40
1
41
1
10
54.1727733848913
20
-0.147428558467226
30
0
41
1
10
54.1735075447393
20
-0.14779438188458
30
0
41
1
10
54.1742235973575
20
-0.148531446960362
30
0
41
1
10
54.1754236144952
20
-0.150330582848511
30
0
41
1
10
54.1759414019268
20
-0.151366860006164
30
0
41
1
10
54.1769298890832
20
-0.153916652792105
30
0
41
1
10
54.1773828568963
20
-0.155523326330439
30
0
41
1
10
54.1779586305193
20
-0.158594262156612
30
0
41
1
10
54.1781344403097
20
-0.160060302292862
30
0
41
1
10
54.1781949149415
20
-0.161524035471672
30
0
0
SPLINE
5
E7
100
AcDbEntity
8
1
62
256
6
ByLayer
370
18
48
1
60
0
100
AcDbSpline
70
4
71
3
72
10
73
6
40
0
40
0
40
0
40
0
40
0.5
40
0.5
40
1
40
1
40
1
40
1
41
1
10
54.9162339264741
20
-5.75040507495373
30
0
41
1
10
54.8969029897154
20
-5.7632690276431
30
0
41
1
10
54.8805628685147
20
-5.76874142761525
30
0
41
1
10
54.852465210582
20
-5.7652253709482
30
0
41
1
10
54.8407944874657
20
-5.75617472027801
30
0
41
1
10
54.8309023723838
20
-5.74048723311589
30
0
0
SPLINE
5
E8
100
AcDbEntity
8
1
62
256
6
ByLayer
370
18
48
1
60
0
100
AcDbSpline
70
4
71
3
72
38
73
34
40
0
40
0
40
0
40
0
40
0.125
40
0.125
40
0.1875
40
0.1875
40
0.25
40
0.25
40
0.312499999999999
40
0.312499999999999
40
0.374999999999999
40
0.374999999999999
40
0.437499999999998
40
0.437499999999998
40
0.499999999999998
40
0.499999999999998
40
0.562499999999997
40
0.562499999999997
40
0.624999999999997
40
0.624999999999997
40
0.687499999999997
40
0.687499999999997
40
0.718749999999997
40
0.718749999999997
40
0.749999999999997
40
0.749999999999997
40
0.812499999999998
40
0.812499999999998
40
0.874999999999999
40
0.874999999999999
40
0.937499999999999
40
0.937499999999999
40
1
40
1
40
1
40
1
41
1
10
26
20
5.57214591537956
30
1E-16
41
1
10
27.1900807971558
20
5.32364304872945
30
1E-16
41
1
10
28.3797020377203
20
4.96449603419234
30
1E-16
41
1
10
30.1649203415608
20
4.29108963020497
30
-3E-16
41
1
10
30.7595514528477
20
4.04456669196597
30
-2E-16
41
1
10
31.9495093865968
20
3.51366514939039
30
-2E-16
41
1
10
32.5440541186448
20
3.22965125748087
30
-2E-16
41
1
10
33.7337875677125
20
2.63238030733271
30
-2E-16
41
1
10
34.3288409615915
20
2.31922318114201
30
-1E-16
41
1
10
35.518137431721
20
1.67363433932493
30
-1E-16
41
1
10
36.1130147672598
20
1.3408225232464
30
-1E-16
41
1
10
37.3024248317834
20
0.665389170115418
30
0
41
1
10
37.897055614088
20
0.322688979666935
30
0
41
1
10
39.0867375696707
20
-0.362911435286662
30
0
41
1
10
39.6812370726742
20
-0.705462840353988
30
0
41
1
10
40.8707925047019
20
-1.3809088247543
30
1E-16
41
1
10
41.4653022897449
20
-1.71348855653389
30
1E-16
41
1
10
42.654467836668
20
-2.35859190188083
30
1E-16
41
1
10
43.2492773383787
20
-2.67114011562308
30
2E-16
41
1
10
44.4383335780758
20
-3.2669320457151
30
2E-16
41
1
10
45.0331483905837
20
-3.55042919131611
30
2E-16
41
1
10
45.924884574297
20
-3.94740887175163
30
2E-16
41
1
10
46.2224044473501
20
-4.07518796258273
30
2E-16
41
1
10
46.8166824634579
20
-4.32017227694712
30
3E-16
41
1
10
47.1134326340259
20
-4.43738341981557
30
3E-16
41
1
10
48.0033482356147
20
-4.77225601846419
30
-2E-16
41
1
10
48.5961825830187
20
-4.97314840760552
30
-1E-16
41
1
10
49.7854261611415
20
-5.3253839979844
30
-1E-16
41
1
10
50.3802423466191
20
-5.4762049396634
30
-1E-16
41
1
10
51.5690103252963
20
-5.72268280773247
30
-1E-16
41
1
10
52.163550179328
20
-5.81844364821575
30
-1E-16
41
1
10
53.3524919418593
20
-5.95201874973571
30
0
41
1
10
53.9474098776855
20
-5.98987336226244
30
0
41
1
10
54.5418874387101
20
-5.9982101641051
30
0
0
SPLINE
5
E9
100
AcDbEntity
8
1
62
256
6
ByLayer
370
18
48
1
60
0
100
AcDbSpline
70
4
71
3
72
8
73
4
40
0
40
0
40
0
40
0
40
1
40
1
40
1
40
1
41
1
10
54.9162339264742
20
-5.75040507495368
30
0
41
1
10
54.9119553948466
20
-5.75328874265659
30
0
41
1
10
54.9076769192451
20
-5.75617192217811
30
0
41
1
10
54.9033984993125
20
-5.7590546132167
30
0
0
SPLINE
5
EA
100
AcDbEntity
8
1
62
256
6
ByLayer
370
18
48
1
60
0
100
AcDbSpline
70
4
71
3
72
8
73
4
40
0
40
0
40
0
40
0
40
1
40
1
40
1
40
1
41
1
10
56.4902955341339
20
-1.80290591155395
30
0
41
1
10
56.6628311122882
20
-1.31395881330519
30
0
41
1
10
56.8309097694181
20
-0.82341658102871
30
0
41
1
10
56.994467004043
20
-0.331256129615696
30
0
0
SPLINE
5
EB
100
AcDbEntity
8
1
62
256
6
ByLayer
370
18
48
1
60
0
100
AcDbSpline
70
4
71
3
72
10
73
6
40
0
40
0
40
0
40
0
40
0.5
40
0.5
40
1
40
1
40
1
40
1
41
1
10
3.50166488153033
20
5.9330782927579
30
0
41
1
10
3.50166488153033
20
5.92927556899713
30
0
41
1
10
3.52132064117538
20
5.92526275892874
30
0
41
1
10
3.5820355326662
20
5.92101390736656
30
0
41
1
10
3.62119886181787
20
5.92102830631868
30
0
41
1
10
3.651708398946
20
5.92320439029049
30
0
0
SPLINE
5
EC
100
AcDbEntity
8
1
62
256
6
ByLayer
370
18
48
1
60
0
100
AcDbSpline
70
4
71
3
72
24
73
20
40
0
40
0
40
0
40
0
40
0.189862896483339
40
0.189862896483339
40
0.285319350791093
40
0.285319350791093
40
0.33304757794497
40
0.33304757794497
40
0.380775805098846
40
0.380775805098846
40
0.57168871371435
40
0.57168871371435
40
0.667145168022102
40
0.667145168022102
40
0.762601622329853
40
0.762601622329853
40
0.953514530945355
40
0.953514530945355
40
1
40
1
40
1
40
1
41
1
10
6.8400118167805
20
0.245020912982937
30
0
41
1
10
7.8999429879994
20
-0.332603026458685
30
0
41
1
10
8.95372245634297
20
-0.911222554681046
30
1E-16
41
1
10
10.5453489999034
20
-1.75011650158783
30
1E-16
41
1
10
11.0790907698641
20
-2.02580592390163
30
1E-16
41
1
10
11.8837246703178
20
-2.42790509247226
30
1E-16
41
1
10
12.1531080339513
20
-2.56026879904471
30
2E-16
41
1
10
12.6911632413461
20
-2.81908268416097
30
2E-16
41
1
10
12.959461147337
20
-2.94536220576981
30
2E-16
41
1
10
14.2978244564249
20
-3.56022480182739
30
2E-16
41
1
10
15.3586163230249
20
-3.9992655153506
30
2E-16
41
1
10
16.952879309603
20
-4.5555096654868
30
-2E-16
41
1
10
17.4847546425994
20
-4.72395640270986
30
-2E-16
41
1
10
18.552235122817
20
-5.02362831923918
30
-1E-16
41
1
10
19.0883383103796
20
-5.1547807627787
30
-1E-16
41
1
10
20.7037098321981
20
-5.48624751760116
30
-1E-16
41
1
10
21.7675953150727
20
-5.61951455005035
30
-1E-16
41
1
10
23.0886478436478
20
-5.67473832505632
30
0
41
1
10
23.3472495171283
20
-5.68027252494028
30
0
41
1
10
23.6059349280766
20
-5.68052531084842
30
0
0
SPLINE
5
ED
100
AcDbEntity
8
1
62
256
6
ByLayer
370
18
48
1
60
0
100
AcDbSpline
70
4
71
3
72
40
73
36
40
0
40
0
40
0
40
0
40
0.0369929821057631
40
0.0369929821057631
40
0.13136425921322
40
0.13136425921322
40
0.17854989776695
40
0.17854989776695
40
0.225735536320679
40
0.225735536320679
40
0.320106813428138
40
0.320106813428138
40
0.367292451981868
40
0.367292451981868
40
0.414478090535597
40
0.414478090535597
40
0.508849367643057
40
0.508849367643057
40
0.556035006196788
40
0.556035006196788
40
0.603220644750518
40
0.603220644750518
40
0.697591921857978
40
0.697591921857978
40
0.744777560411707
40
0.744777560411707
40
0.791963198965437
40
0.791963198965437
40
0.886334476072897
40
0.886334476072897
40
0.933520114626627
40
0.933520114626627
40
0.980705753180358
40
0.980705753180358
40
1
40
1
40
1
40
1
41
1
10
21.6498695689024
20
-0.22912827578233
30
0
41
1
10
21.4440589883725
20
-0.116933918269808
30
0
41
1
10
21.2380445622275
20
-0.0045049130247605
30
0
41
1
10
20.5055527958245
20
0.395258099260815
30
0
41
1
10
19.9773621073858
20
0.683167341599557
30
0
41
1
10
19.1808731425703
20
1.11251250609243
30
-1E-16
41
1
10
18.9165541190407
20
1.25446238312352
30
-1E-16
41
1
10
18.3883721435346
20
1.53439924518869
30
-1E-16
41
1
10
18.1245915775547
20
1.67245302577868
30
-1E-16
41
1
10
17.334476054907
20
2.08069892087534
30
-1E-16
41
1
10
16.8092260736051
20
2.34499082544846
30
-1E-16
41
1
10
16.0237455944021
20
2.72653697576774
30
-2E-16
41
1
10
15.762241054082
20
2.85121221504181
30
-2E-16
41
1
10
15.2386221115427
20
3.09481522636452
30
-2E-16
41
1
10
14.976566829492
20
3.21376150351253
30
-2E-16
41
1
10
14.18955328835
20
3.56150946355737
30
-2E-16
41
1
10
13.6637463334466
20
3.78117051219087
30
-2E-16
41
1
10
12.872458645768
20
4.08819154181069
30
2E-16
41
1
10
12.608232424666
20
4.18681367307161
30
2E-16
41
1
10
12.0780151124873
20
4.37645900032615
30
2E-16
41
1
10
11.8119358937055
20
4.46748033900033
30
2E-16
41
1
10
11.0172077174566
20
4.7262034869687
30
2E-16
41
1
10
10.4900416147453
20
4.88027463761409
30
1E-16
41
1
10
9.70231786527782
20
5.08067222399984
30
1E-16
41
1
10
9.44021649529807
20
5.14240317547174
30
1E-16
41
1
10
8.91602505357096
20
5.25635351855271
30
1E-16
41
1
10
8.6539605431208
20
5.30853475057882
30
1E-16
41
1
10
7.86788117720019
20
5.44964248388081
30
1E-16
41
1
10
7.34386993116053
20
5.52336938829859
30
1E-16
41
1
10
6.55608057284428
20
5.60147693533642
30
0
41
1
10
6.29321434647684
20
5.62203614756481
30
0
41
1
10
5.76630916674313
20
5.6528434051026
30
0
41
1
10
5.5022558614082
20
5.66313412658812
30
0
41
1
10
5.12931223246792
20
5.66977073917454
30
0
41
1
10
5.02091474793022
20
5.67075913350126
30
0
41
1
10
4.91242318218693
20
5.67079216592066
30
0
0
SPLINE
5
EE
100
AcDbEntity
8
1
62
256
6
ByLayer
370
18
48
1
60
0
100
AcDbSpline
70
4
71
3
72
12
73
8
40
0
40
0
40
0
40
0
40
0.500000000000005
40
0.500000000000005
40
0.750000000000002
40
0.750000000000002
40
1
40
1
40
1
40
1
41
1
10
3.50166488153033
20
5.73497286102989
30
0
41
1
10
3.50166488153045
20
5.70989260401421
30
0
41
1
10
3.50933826217744
20
5.68452555350149
30
0
41
1
10
3.5345842758307
20
5.65260792139313
30
0
41
1
10
3.54530601623159
20
5.64315563752371
30
0
41
1
10
3.57129039059495
20
5.62938056490788
30
0
41
1
10
3.58644039806236
20
5.62529635286754
30
0
41
1
10
3.60206601988713
20
5.62536548104526
30
0
0
SPLINE
5
EF
100
AcDbEntity
8
1
62
256
6
ByLayer
370
18
48
1
60
0
100
AcDbSpline
70
4
71
3
72
44
73
40
40
0
40
0
40
0
40
0
40
0.0424078190955765
40
0.0424078190955765
40
0.0766075398421629
40
0.0766075398421629
40
0.110807260588749
40
0.110807260588749
40
0.179206702081923
40
0.179206702081923
40
0.21340642282851
40
0.21340642282851
40
0.247606143575096
40
0.247606143575096
40
0.316005585068269
40
0.316005585068269
40
0.384405026561442
40
0.384405026561442
40
0.452804468054615
40
0.452804468054615
40
0.521203909547789
40
0.521203909547789
40
0.555403630294375
40
0.555403630294375
40
0.589603351040961
40
0.589603351040961
40
0.658002792534134
40
0.658002792534134
40
0.69220251328072
40
0.69220251328072
40
0.726402234027307
40
0.726402234027307
40
0.79480167552048
40
0.79480167552048
40
0.829001396267066
40
0.829001396267066
40
0.863201117013653
40
0.863201117013653
40
1
40
1
40
1
40
1
41
1
10
26.8439351895804
20
-5.69220457937098
30
-1E-16
41
1
10
26.5151019065057
20
-5.75026625933069
30
-1E-16
41
1
10
26.1863842756424
20
-5.79977408177137
30
-1E-16
41
1
10
25.5920098690914
20
-5.87335991286093
30
-1E-16
41
1
10
25.3264756797288
20
-5.900515585797
30
0
41
1
10
24.7946307770858
20
-5.94325099160059
30
0
41
1
10
24.5284769166386
20
-5.95880391034652
30
0
41
1
10
23.731616070222
20
-5.98783379905103
30
0
41
1
10
23.201659709554
20
-5.98377042014624
30
0
41
1
10
22.4059042771197
20
-5.94268944671788
30
0
41
1
10
22.1405260250342
20
-5.92316942645255
30
0
41
1
10
21.6091175777368
20
-5.87252524588467
30
-1E-16
41
1
10
21.3428220886213
20
-5.84135753995332
30
-1E-16
41
1
10
20.5452894038834
20
-5.73089730202707
30
-1E-16
41
1
10
20.0149893080346
20
-5.63466969833564
30
-1E-16
41
1
10
18.9540425741661
20
-5.39903864175454
30
-1E-16
41
1
10
18.4233144272724
20
-5.25954280363919
30
-1E-16
41
1
10
17.3587898402856
20
-4.93973021068715
30
-1E-16
41
1
10
16.8281398128162
20
-4.76032277390073
30
-2E-16
41
1
10
15.7671683360945
20
-4.36581455087426
30
3E-16
41
1
10
15.2368217104537
20
-4.15072871138244
30
3E-16
41
1
10
14.4390438090104
20
-3.80419672467644
30
2E-16
41
1
10
14.1727829701909
20
-3.68470611354814
30
2E-16
41
1
10
13.6413707136101
20
-3.43929298649388
30
2E-16
41
1
10
13.3759382569407
20
-3.31325242363971
30
2E-16
41
1
10
12.5798969232216
20
-2.92599027557583
30
2E-16
41
1
10
12.0496916139035
20
-2.65540272085565
30
2E-16
41
1
10
11.2525821026408
20
-2.23472143413
30
1E-16
41
1
10
10.9862736897336
20
-2.0918951749758
30
1E-16
41
1
10
10.4543925912425
20
-1.802890244803
30
1E-16
41
1
10
10.1888171518133
20
-1.65671741376349
30
1E-16
41
1
10
9.39264166428319
20
-1.21412814557547
30
1E-16
41
1
10
8.86266826190109
20
-0.913510938114797
30
1E-16
41
1
10
8.06654132973816
20
-0.458341471566314
30
0
41
1
10
7.80095966296622
20
-0.305931352377314
30
0
41
1
10
7.26897995072642
20
-0.0004359178933271
30
0
41
1
10
7.00266931210078
20
0.152604703718225
30
0
41
1
10
5.67423293066221
20
0.914527244232232
30
-1E-16
41
1
10
4.61665299650107
20
1.51622592437596
30
-1E-16
41
1
10
3.55186677146386
20
2.08877070612206
30
-1E-16
0
SPLINE
5
F0
100
AcDbEntity
8
1
62
256
6
ByLayer
370
18
48
1
60
0
100
AcDbSpline
70
4
71
3
72
20
73
16
40
0
40
0
40
0
40
0
40
0.124999999999998
40
0.124999999999998
40
0.1875
40
0.1875
40
0.250000000000001
40
0.250000000000001
40
0.375
40
0.375
40
0.499999999999998
40
0.499999999999998
40
0.749999999999999
40
0.749999999999999
40
1
40
1
40
1
40
1
41
1
10
56.4902955341339
20
1.80290591155395
30
0
41
1
10
56.4066360366031
20
1.93621634167565
30
0
41
1
10
56.3259787619955
20
2.077922628393
30
0
41
1
10
56.208984446224
20
2.30404995332057
30
0
41
1
10
56.1707395664773
20
2.38155586651487
30
0
41
1
10
56.0964724107903
20
2.53885884405744
30
0
41
1
10
56.0602928871226
20
2.61886425870364
30
0
41
1
10
55.9543787791783
20
2.86305227028379
30
0
41
1
10
55.8874884250774
20
3.03130767368549
30
0
41
1
10
55.7611029057091
20
3.37024374143797
30
0
41
1
10
55.698722786052
20
3.54006268420451
30
0
41
1
10
55.5134165972309
20
4.05036163782984
30
0
41
1
10
55.3924308185141
20
4.39205053301257
30
0
41
1
10
55.1532587481812
20
5.07398974518503
30
0
41
1
10
55.0352312140548
20
5.41356465738451
30
0
41
1
10
54.9162339264741
20
5.7504050749537
30
0
0
SPLINE
5
F1
100
AcDbEntity
8
1
62
256
6
ByLayer
370
18
48
1
60
0
100
AcDbSpline
70
4
71
3
72
32
73
28
40
0
40
0
40
0
40
0
40
0.125
40
0.125
40
0.1875
40
0.1875
40
0.25
40
0.25
40
0.3125
40
0.3125
40
0.375
40
0.375
40
0.4375
40
0.4375
40
0.5
40
0.5
40
0.5625
40
0.5625
40
0.625
40
0.625
40
0.6875
40
0.6875
40
0.75
40
0.75
40
0.875
40
0.875
40
1
40
1
40
1
40
1
41
1
10
56.9163296036756
20
0.0722299911334119
30
0
41
1
10
56.8872857771603
20
-0.023531565195043
30
0
41
1
10
56.8538939559597
20
-0.117103800331478
30
0
41
1
10
56.7970386894761
20
-0.253942120252219
30
0
41
1
10
56.7767690620671
20
-0.299316697286798
30
0
41
1
10
56.7348808033287
20
-0.386441628784496
30
0
41
1
10
56.7132519063515
20
-0.42828383710966
30
0
41
1
10
56.6686562405145
20
-0.508420867238527
30
0
41
1
10
56.6456903901449
20
-0.546718018027661
30
0
41
1
10
56.5983521726554
20
-0.619450827476271
30
0
41
1
10
56.5740355230051
20
-0.653721567390704
30
0
41
1
10
56.525955072351
20
-0.715391187090944
30
0
41
1
10
56.5019480188681
20
-0.743179635994977
30
0
41
1
10
56.4539683051267
20
-0.792537414167441
30
0
41
1
10
56.4297769887363
20
-0.814241956485915
30
0
41
1
10
56.3829497688492
20
-0.849831951960539
30
1E-16
41
1
10
56.3602012983833
20
-0.863894839439126
30
1E-16
41
1
10
56.3158601539223
20
-0.884848672104766
30
1E-16
41
1
10
56.294106065745
20
-0.891741584258398
30
1E-16
41
1
10
56.252643411515
20
-0.898190052855711
30
1E-16
41
1
10
56.2328903730006
20
-0.897830265718682
30
1E-16
41
1
10
56.1950298214785
20
-0.890501650209671
30
1E-16
41
1
10
56.1768151169849
20
-0.883456408391396
30
1E-16
41
1
10
56.1251666775512
20
-0.853317713960024
30
1E-16
41
1
10
56.0948455571064
20
-0.821691405329631
30
1E-16
41
1
10
56.0399544858029
20
-0.739467048558424
30
0
41
1
10
56.0154674407128
20
-0.688668952231694
30
0
41
1
10
55.9938149951769
20
-0.630870220031682
30
0
0
SPLINE
5
F2
100
AcDbEntity
8
1
62
256
6
ByLayer
370
18
48
1
60
0
100
AcDbSpline
70
4
71
3
72
16
73
12
40
0
40
0
40
0
40
0
40
0.368901652028685
40
0.368901652028685
40
0.737803304057371
40
0.737803304057371
40
0.830028717064544
40
0.830028717064544
40
0.922254130071716
40
0.922254130071716
40
1
40
1
40
1
40
1
41
1
10
6.05538108234441
20
-5.96554874668669
30
0
41
1
10
7.06483507958401
20
-5.98733519457383
30
0
41
1
10
8.06172545008639
20
-5.92435182988061
30
0
41
1
10
10.0525677043436
20
-5.63952065669542
30
-1E-16
41
1
10
11.0461107594836
20
-5.41763929695557
30
-1E-16
41
1
10
12.2982127071644
20
-5.04733794923561
30
-1E-16
41
1
10
12.5491368965539
20
-4.968618943423
30
-1E-16
41
1
10
13.0525422719263
20
-4.80229041583902
30
-2E-16
41
1
10
13.3051415028353
20
-4.7145010537553
30
-2E-16
41
1
10
13.768517843602
20
-4.54586117916284
30
1E-16
41
1
10
13.9799807437558
20
-4.46598114116318
30
2E-16
41
1
10
14.1910673514531
20
-4.38351849931161
30
2E-16
0
SPLINE
5
F3
100
AcDbEntity
8
1
62
256
6
ByLayer
370
18
48
1
60
0
100
AcDbSpline
70
4
71
3
72
24
73
20
40
0
40
0
40
0
40
0
40
0.0987382076665391
40
0.0987382076665391
40
0.148808307240621
40
0.148808307240621
40
0.198878406814702
40
0.198878406814702
40
0.599439203407352
40
0.599439203407352
40
0.649509302981434
40
0.649509302981434
40
0.699579402555514
40
0.699579402555514
40
0.799719601703676
40
0.799719601703676
40
0.899859800851838
40
0.899859800851838
40
1
40
1
40
1
40
1
41
1
10
39.0481744822307
20
5.99014344736261
30
0
41
1
10
39.5390672871801
20
5.99056433975357
30
0
41
1
10
40.0308103912049
20
5.97090367124241
30
0
41
1
10
40.7752687916283
20
5.91062998454481
30
0
41
1
10
41.0263529619635
20
5.88513029857731
30
1E-16
41
1
10
41.5300016967567
20
5.82363351309695
30
1E-16
41
1
10
41.7819959499808
20
5.78767090402221
30
1E-16
41
1
10
44.0402159914732
20
5.41983024777122
30
1E-16
41
1
10
46.0078552204517
20
4.77731553833374
30
2E-16
41
1
10
48.2679680639189
20
3.78619309340939
30
-2E-16
41
1
10
48.5202240333151
20
3.67209568174431
30
-2E-16
41
1
10
49.0232673698191
20
3.43827619369117
30
-2E-16
41
1
10
49.274122874967
20
3.31852435514446
30
-2E-16
41
1
10
50.0253205989913
20
2.95177003964233
30
-2E-16
41
1
10
50.5241380000909
20
2.69703628796091
30
-2E-16
41
1
10
51.5201838086521
20
2.17101939654918
30
-1E-16
41
1
10
52.0178155948386
20
1.90039859701929
30
-1E-16
41
1
10
53.0138370074734
20
1.34650354030441
30
-1E-16
41
1
10
53.5123913440002
20
1.06349002383948
30
-1E-16
41
1
10
54.0129462842127
20
0.776850459450316
30
0
0
SPLINE
5
F4
100
AcDbEntity
8
1
62
256
6
ByLayer
370
18
48
1
60
0
100
AcDbSpline
70
4
71
2
72
6
73
3
40
0
40
0
40
0
40
1
40
1
40
1
41
1
10
4.92063826120349
20
5.67080280280771
30
0
41
1
10
4.26114924052357
20
5.67076628567878
30
0
41
1
10
3.60203360004468
20
5.66805505280689
30
0
0
SPLINE
5
F5
100
AcDbEntity
8
1
62
256
6
ByLayer
370
18
48
1
60
0
100
AcDbSpline
70
4
71
3
72
16
73
12
40
0
40
0
40
0
40
0
40
0.0757395532992282
40
0.23602460016567
40
0.396353353369591
40
0.480323677603318
40
0.563154013592649
40
0.643815932020401
40
0.731687134200764
40
0.857980552464869
40
1
40
1
40
1
40
1
41
1
10
54.7379652376683
20
1.42072748026922
30
-1E-16
41
1
10
54.5569898048617
20
1.47736694082818
30
-1E-16
41
1
10
53.9938622356558
20
1.65646813564504
30
-1E-16
41
1
10
53.0535281996544
20
1.97418576488317
30
-1E-16
41
1
10
52.0978767383448
20
2.31048569077683
30
-1E-16
41
1
10
51.3285137544275
20
2.59166183418046
30
-2E-16
41
1
10
50.7481754772905
20
2.80877853514329
30
-2E-16
41
1
10
50.1604293770188
20
3.03374141813904
30
-2E-16
41
1
10
49.4731571352567
20
3.30297622193066
30
-2E-16
41
1
10
48.6456428779893
20
3.63616519239875
30
-2E-16
41
1
10
48.0257553240141
20
3.89570142499838
30
-2E-16
41
1
10
47.698543975625
20
4.0353736994791
30
-2E-16
0
SPLINE
5
F6
100
AcDbEntity
8
1
62
256
6
ByLayer
370
18
48
1
60
0
100
AcDbSpline
70
4
71
1
72
4
73
2
40
0
40
0
40
1
40
1
41
1
10
7.26455799444406
20
0.0021360409919282
30
0
41
1
10
7.26454196001626
20
0.0021341924998524
30
0
0
SPLINE
5
F7
100
AcDbEntity
8
1
62
256
6
ByLayer
370
18
48
1
60
0
100
AcDbSpline
70
4
71
2
72
6
73
3
40
0
40
0
40
0
40
1
40
1
40
1
41
1
10
39.9199703083644
20
-0.0008277359330009
30
0
41
1
10
39.919955891575
20
-0.0008162294506349
30
0
41
1
10
39.9199414746883
20
-0.0008044724880278
30
0
0
SPLINE
5
F8
100
AcDbEntity
8
1
62
256
6
ByLayer
370
18
48
1
60
0
100
AcDbSpline
70
4
71
3
72
33
73
29
40
0
40
0
40
0
40
0
40
3.9428328046E-06
40
1.33105753055E-05
40
2.18483450707E-05
40
2.9582645376E-05
40
5.50280193307E-05
40
0.0005686451495825
40
0.0009798384797562
40
0.0017306260898713
40
0.0031454984608576
40
0.0059439514333626
40
0.0118176108574647
40
0.0251335952833024
40
0.0579880445433054
40
0.123309000657646
40
0.230902301923325
40
0.299756480352328
40
0.373312210866372
40
0.433037978527108
40
0.506448564024383
40
0.587327278455286
40
0.658902256729255
40
0.725031870173628
40
0.775582211565481
40
0.833209505590261
40
0.914438036392922
40
1
40
1
40
1
40
1
41
1
10
25.7255094711242
20
0.352112823601175
30
0
41
1
10
25.7255087150159
20
0.352113639527317
30
0
41
1
10
25.7255044202018
20
0.352116670692936
30
0
41
1
10
25.7254888613602
20
0.352121365709394
30
0
41
1
10
25.7254508429884
20
0.352133268959847
30
0
41
1
10
25.7253609009645
20
0.352159685200064
30
0
41
1
10
25.7234940241293
20
0.352668993547837
30
0
41
1
10
25.7202296110359
20
0.353548162340104
30
0
41
1
10
25.7144867587802
20
0.355104348746067
30
0
41
1
10
25.7056383218908
20
0.35749749099287
30
0
41
1
10
25.6884870452845
20
0.362132001038532
30
0
41
1
10
25.6532274890805
20
0.371637003648431
30
0
41
1
10
25.5753450687042
20
0.392601339556762
30
0
41
1
10
25.3886166696264
20
0.442958558649309
30
0
41
1
10
24.9845063515495
20
0.553246343772059
30
0
41
1
10
24.2395831214002
20
0.762324813662531
30
0
41
1
10
23.3675740004025
20
1.01887075316245
30
-1E-16
41
1
10
22.4691906040175
20
1.29562577821508
30
-1E-16
41
1
10
21.7451267229993
20
1.52679559806137
30
-1E-16
41
1
10
21.0070229622483
20
1.77018838170787
30
-1E-16
41
1
10
20.245159764289
20
2.029418559927
30
-1E-16
41
1
10
19.4441466097662
20
2.31174165299441
30
-1E-16
41
1
10
18.6719246500095
20
2.59322035314727
30
-2E-16
41
1
10
18.0092158978804
20
2.84201899436695
30
-2E-16
41
1
10
17.3974976995971
20
3.07731860232806
30
-2E-16
41
1
10
16.7347632430083
20
3.33801924455773
30
-2E-16
41
1
10
15.9523656304496
20
3.65400659699631
30
-2E-16
41
1
10
15.3740908380145
20
3.8964862629006
30
-2E-16
41
1
10
15.0782288520558
20
4.02277296521203
30
-2E-16
0
SPLINE
5
F9
100
AcDbEntity
8
1
62
256
6
ByLayer
370
18
48
1
60
0
100
AcDbSpline
70
4
71
3
72
23
73
19
40
0
40
0
40
0
40
0
40
0.0908153108555172
40
0.158166800973811
40
0.206392726258389
40
0.253914443981336
40
0.302786160884208
40
0.347596422141394
40
0.385492275137255
40
0.445771057556044
40
0.52583817910298
40
0.590201813186876
40
0.638466181449108
40
0.69659071872121
40
0.774197983567828
40
0.868524607388352
40
0.944183608986754
40
1
40
1
40
1
40
1
41
1
10
23.5924456423191
20
-5.68048747303837
30
0
41
1
10
23.9188928248573
20
-5.68077025704602
30
0
41
1
10
24.487466939935
20
-5.68117732474909
30
0
41
1
10
25.2304354838528
20
-5.68135215852905
30
0
41
1
10
25.8162586700174
20
-5.68159812153641
30
0
41
1
10
26.3363844661919
20
-5.68166388875792
30
0
41
1
10
26.8444198418473
20
-5.68236127076517
30
0
41
1
10
27.3177668995217
20
-5.68320163388699
30
0
41
1
10
27.832175366729
20
-5.68343738590997
30
0
41
1
10
28.4734147251627
20
-5.68334284898108
30
0
41
1
10
29.2098822003
20
-5.68283678239223
30
0
41
1
10
29.9031201619277
20
-5.68418903924379
30
0
41
1
10
30.5174173470114
20
-5.68568869921461
30
0
41
1
10
31.1793686855744
20
-5.68525858216384
30
0
41
1
10
32.0070017099311
20
-5.68434990458178
30
0
41
1
10
32.8978421312953
20
-5.68504557191793
30
0
41
1
10
33.7099038789528
20
-5.68694998822684
30
0
41
1
10
34.183427936261
20
-5.68722531398424
30
0
41
1
10
34.3838659573729
20
-5.68728155516285
30
0
0
SPLINE
5
FA
100
AcDbEntity
8
1
62
256
6
ByLayer
370
18
48
1
60
0
100
AcDbSpline
70
4
71
3
72
24
73
20
40
0
40
0
40
0
40
0
40
0.0860521499776358
40
0.149062264397753
40
0.190229006491447
40
0.228986985120306
40
0.272204461056872
40
0.319841800924485
40
0.367362487883914
40
0.411806847915216
40
0.493895948789884
40
0.557044564147191
40
0.63761414292815
40
0.724367710496325
40
0.786470657075062
40
0.855459583609098
40
0.941513348733146
40
0.99123888965416
40
1
40
1
40
1
40
1
41
1
10
37.5770490581746
20
5.68860485870277
30
0
41
1
10
37.2693220303555
20
5.68790148532108
30
0
41
1
10
36.7362462051861
20
5.68704111987873
30
0
41
1
10
36.0557375778783
20
5.68702130240868
30
0
41
1
10
35.5445957072611
20
5.68706592758684
30
0
41
1
10
35.1044106515995
20
5.6873616028501
30
0
41
1
10
34.6407710352963
20
5.68750377027064
30
0
41
1
10
34.1457726007719
20
5.68708550241968
30
0
41
1
10
33.6463878641012
20
5.68683158491081
30
0
41
1
10
33.0237659519796
20
5.68574932111659
30
0
41
1
10
32.3452334291298
20
5.68411558815808
30
0
41
1
10
31.5375003870188
20
5.68495379882998
30
0
41
1
10
30.7130442241203
20
5.68592174156254
30
0
41
1
10
29.8923505808472
20
5.68400761258303
30
0
41
1
10
29.1130698471584
20
5.68294229715883
30
0
41
1
10
28.3363015308709
20
5.68337586263044
30
0
41
1
10
27.6037817637346
20
5.68353772015158
30
0
41
1
10
27.0867729061008
20
5.68278672169737
30
0
41
1
10
26.8775217583433
20
5.68245403190448
30
0
41
1
10
26.8461772982688
20
5.68240438059917
30
0
0
LINE
5
84
100
AcDbEntity
8
SK1
62
256
6
ByLayer
370
18
48
1
60
0
100
AcDbLine
10
0
20
6
30
0
11
0
21
-6
31
0
39
0
210
0
220
0
230
1
0
LINE
5
86
100
AcDbEntity
8
SK1
62
256
6
ByLayer
370
18
48
1
60
0
100
AcDbLine
10
-45
20
-3.067286
30
0
11
-45
21
-0.066368
31
0
39
0
210
0
220
0
230
1
0
LINE
5
87
100
AcDbEntity
8
SK1
62
256
6
ByLayer
370
18
48
1
60
0
100
AcDbLine
10
-45
20
4.255
30
0
11
-45
21
-0.066321
31
0
39
0
210
0
220
0
230
1
0
LINE
5
88
100
AcDbEntity
8
SK1
62
256
6
ByLayer
370
18
48
1
60
0
100
AcDbLine
10
-44.15
20
-2.829794
30
0
11
-44.15
21
-1.179206
31
0
39
0
210
0
220
0
230
1
0
LINE
5
89
100
AcDbEntity
8
SK1
62
256
6
ByLayer
370
18
48
1
60
0
100
AcDbLine
10
-44.25
20
-2.873243
30
0
11
-44.25
21
-1.039198
31
0
39
0
210
0
220
0
230
1
0
LINE
5
8A
100
AcDbEntity
8
SK1
62
256
6
ByLayer
370
18
48
1
60
0
100
AcDbLine
10
-45
20
-4.255
30
0
11
-45
21
-3.067286
31
0
39
0
210
0
220
0
230
1
0
LINE
5
8B
100
AcDbEntity
8
SK1
62
256
6
ByLayer
370
18
48
1
60
0
100
AcDbLine
10
-44.417949
20
-2.80482
30
0
11
-44.417949
21
-0.970796
31
0
39
0
210
0
220
0
230
1
0
LINE
5
8C
100
AcDbEntity
8
SK1
62
256
6
ByLayer
370
18
48
1
60
0
100
AcDbLine
10
-43.255
20
-6
30
0
11
-43.255
21
6
31
0
39
0
210
0
220
0
230
1
0
LINE
5
8D
100
AcDbEntity
8
1
62
256
6
ByLayer
370
18
48
1
60
0
100
AcDbLine
10
26
20
5.572146
30
0
11
26
21
5.534238
31
0
39
0
210
0
220
0
230
1
0
LINE
5
8E
100
AcDbEntity
8
1
62
256
6
ByLayer
370
18
48
1
60
0
100
AcDbLine
10
3.501665
20
5.967927
30
0
11
3.501665
21
2.169773
31
0
39
0
210
0
220
0
230
1
0
LINE
5
8F
100
AcDbEntity
8
1
62
256
6
ByLayer
370
18
48
1
60
0
100
AcDbLine
10
1
20
0
30
0
11
1
21
5.966364
31
0
39
0
210
0
220
0
230
1
0
LINE
5
90
100
AcDbEntity
8
1
62
256
6
ByLayer
370
18
48
1
60
0
100
AcDbLine
10
1
20
-5.966364
30
0
11
1
21
0
31
0
39
0
210
0
220
0
230
1
0
LINE
5
91
100
AcDbEntity
8
1
62
256
6
ByLayer
370
18
48
1
60
0
100
AcDbLine
10
0
20
6
30
0
11
0
21
-6
31
0
39
0
210
0
220
0
230
1
0
LINE
5
92
100
AcDbEntity
8
1
62
256
6
ByLayer
370
18
48
1
60
0
100
AcDbLine
10
56.91633
20
0.07223
30
0
11
55.519937
21
1.613605
31
0
39
0
210
0
220
0
230
1
0
LINE
5
93
100
AcDbEntity
8
1
62
256
6
ByLayer
370
18
48
1
60
0
100
AcDbLine
10
3.501665
20
-5.933078
30
0
11
3.501665
21
-5.967927
31
0
39
0
210
0
220
0
230
1
0
LINE
5
94
100
AcDbEntity
8
SK1
62
256
6
ByLayer
370
18
48
1
60
0
100
AcDbLine
10
-45
20
-4.255
30
0
11
-43.255
21
-6
31
0
39
0
210
0
220
0
230
1
0
LINE
5
95
100
AcDbEntity
8
SK1
62
256
6
ByLayer
370
18
48
1
60
0
100
AcDbLine
10
-43.255
20
6
30
0
11
-45
21
4.255
31
0
39
0
210
0
220
0
230
1
0
LINE
5
96
100
AcDbEntity
8
SK1
62
256
6
ByLayer
370
18
48
1
60
0
100
AcDbLine
10
-43.255
20
-6
30
0
11
0
21
-6
31
0
39
0
210
0
220
0
230
1
0
LINE
5
97
100
AcDbEntity
8
SK1
62
256
6
ByLayer
370
18
48
1
60
0
100
AcDbLine
10
0
20
6
30
0
11
-43.255
21
6
31
0
39
0
210
0
220
0
230
1
0
LINE
5
98
100
AcDbEntity
8
1
62
256
6
ByLayer
370
18
48
1
60
0
100
AcDbLine
10
1
20
5.966364
30
0
11
0
21
6
31
0
39
0
210
0
220
0
230
1
0
LINE
5
99
100
AcDbEntity
8
1
62
256
6
ByLayer
370
18
48
1
60
0
100
AcDbLine
10
0
20
-6
30
0
11
1
21
-5.966364
31
0
39
0
210
0
220
0
230
1
0
LINE
5
9A
100
AcDbEntity
8
1
62
256
6
ByLayer
370
18
48
1
60
0
100
AcDbLine
10
1
20
-5.966364
30
0
11
3.501665
21
-5.967927
31
0
39
0
210
0
220
0
230
1
0
LINE
5
9B
100
AcDbEntity
8
1
62
256
6
ByLayer
370
18
48
1
60
0
100
AcDbLine
10
4.925498
20
-5.968817
30
0
11
6.433933
21
-5.96976
31
0
39
0
210
0
220
0
230
1
0
LINE
5
9C
100
AcDbEntity
8
1
62
256
6
ByLayer
370
18
48
1
60
0
100
AcDbLine
10
21.954928
20
-5.979461
30
0
11
23.592717
21
-5.980484
31
0
39
0
210
0
220
0
230
1
0
LINE
5
9D
100
AcDbEntity
8
1
62
256
6
ByLayer
370
18
48
1
60
0
100
AcDbLine
10
37.577466
20
-5.989225
30
0
11
39.052653
21
-5.990147
31
0
39
0
210
0
220
0
230
1
0
LINE
5
9E
100
AcDbEntity
8
1
62
256
6
ByLayer
370
18
48
1
60
0
100
AcDbLine
10
39.052653
20
5.990147
30
0
11
37.577466
21
5.989225
31
0
39
0
210
0
220
0
230
1
0
LINE
5
9F
100
AcDbEntity
8
1
62
256
6
ByLayer
370
18
48
1
60
0
100
AcDbLine
10
23.592717
20
5.980484
30
0
11
21.954928
21
5.979461
31
0
39
0
210
0
220
0
230
1
0
LINE
5
A0
100
AcDbEntity
8
1
62
256
6
ByLayer
370
18
48
1
60
0
100
AcDbLine
10
6.433933
20
5.96976
30
0
11
4.925498
21
5.968817
31
0
39
0
210
0
220
0
230
1
0
LINE
5
A1
100
AcDbEntity
8
1
62
256
6
ByLayer
370
18
48
1
60
0
100
AcDbLine
10
3.501665
20
5.967927
30
0
11
1
21
5.966364
31
0
39
0
210
0
220
0
230
1
0
LINE
5
A2
100
AcDbEntity
8
SK4
62
256
6
ByLayer
370
18
48
0.05
60
0
100
AcDbLine
10
62
20
0
30
0
11
-50
21
0
31
0
39
0
210
0
220
0
230
1
0
LINE
5
A4
100
AcDbEntity
8
4
62
256
6
ByLayer
370
18
48
0.05
60
0
100
AcDbLine
10
-45
20
0
30
0
11
62
21
0
31
0
39
0
210
0
220
0
230
1
0
LINE
5
A6
100
AcDbEntity
8
80
62
256
6
ByLayer
370
18
48
1
60
0
100
AcDbLine
10
0
20
0
30
0
11
-6
21
0
31
0
39
0
210
0
220
0
230
1
0
LINE
5
A7
100
AcDbEntity
8
81
62
256
6
ByLayer
370
18
48
1
60
0
100
AcDbLine
10
57
20
0
30
0
11
63
21
0
31
0
39
0
210
0
220
0
230
1
0
LINE
5
A8
100
AcDbEntity
8
SK2
62
256
6
ByLayer
370
13
48
1
60
0
100
AcDbLine
10
57.542952
20
1.491764
30
0
11
64.926248
21
21.777401
31
0
39
0
210
0
220
0
230
1
0
LINE
5
AA
100
AcDbEntity
8
SK2
62
256
6
ByLayer
370
13
48
1
60
0
100
AcDbLine
10
57.542952
20
-1.491764
30
0
11
64.926248
21
-21.777401
31
0
39
0
210
0
220
0
230
1
0
LINE
5
AB
100
AcDbEntity
8
1
62
256
6
ByLayer
370
13
48
1
60
0
100
AcDbLine
10
63.840344
20
18.793874
30
0
11
66.936937
21
17.977512
31
0
39
0
210
0
220
0
230
1
0
LINE
5
AC
100
AcDbEntity
8
1
62
256
6
ByLayer
370
13
48
1
60
0
100
AcDbLine
10
63.840344
20
18.793874
30
0
11
66.620136
21
17.20387
31
0
39
0
210
0
220
0
230
1
0
LINE
5
AD
100
AcDbEntity
8
1
62
256
6
ByLayer
370
13
48
1
60
0
100
AcDbLine
10
66.936937
20
17.977512
30
0
11
66.620136
21
17.20387
31
0
39
0
210
0
220
0
230
1
0
LINE
5
AE
100
AcDbEntity
8
1
62
256
6
ByLayer
370
13
48
1
60
0
100
AcDbLine
10
63.840344
20
-18.793874
30
0
11
66.620133
21
-17.203871
31
0
39
0
210
0
220
0
230
1
0
LINE
5
AF
100
AcDbEntity
8
1
62
256
6
ByLayer
370
13
48
1
60
0
100
AcDbLine
10
63.840344
20
-18.793874
30
0
11
66.93694
21
-17.977511
31
0
39
0
210
0
220
0
230
1
0
LINE
5
B0
100
AcDbEntity
8
1
62
256
6
ByLayer
370
13
48
1
60
0
100
AcDbLine
10
66.620133
20
-17.203871
30
0
11
66.93694
21
-17.977511
31
0
39
0
210
0
220
0
230
1
0
MTEXT
5
FB
100
AcDbEntity
8
SK2
62
256
6
ByLayer
370
18
48
1
60
0
100
AcDbMText
10
70.717388
20
-2.467451
30
0
210
0
220
0
230
1
1
\W0.7237;140.00
40
3.50012
41
0
44
1.084337
50
0
71
7
72
5
7
iso_b_vert
0
MTEXT
5
FE
100
AcDbEntity
8
SK6
62
256
6
ByLayer
370
18
48
1
60
0
100
AcDbMText
10
-31.902138
20
-51.833106
30
0
210
0
220
0
230
1
1
\W0.7348;860.1-1200-035A1-GM X1BM
40
3.175
41
0
44
1.084337
50
0
71
7
72
5
7
iso_b_vert
0
DIMENSION
5
101
100
AcDbEntity
8
SK2
62
256
6
ByLayer
370
18
48
1
60
0
100
AcDbDimension
2
_U0
10
57
20
-29.50012
30
0
11
28.5
21
-29.50012
31
0
70
32
71
2
72
1
41
1
210
0
220
0
230
1
3
Standard
100
AcDbAlignedDimension
13
0
23
-6
33
0
14
57
24
0
34
0
50
0
100
AcDbRotatedDimension
1001
ACAD
1000
DSTYLE
1002
{
1070
   371
1070
    13
1070
   372
1070
    13
1070
     3
1000

1070
   170
1070
     0
1070
   144
1040
1.0
1070
   277
1070
     2
1070
   284
1070
     8
1070
   278
1070
    46
1070
   146
1040
0.999966
1070
   345
1005
16
1070
   347
1005
16
1070
   346
1005
16
1070
   344
1005
102
1070
   343
1005
102
1070
   172
1070
     1
1070
    76
1070
     0
1070
    75
1070
     0
1070
   282
1070
     0
1070
   281
1070
     0
1070
    71
1070
     0
1070
    74
1070
     0
1070
   279
1070
     0
1070
   173
1070
     1
1070
   340
1005
FC
1070
   271
1070
     1
1070
   272
1070
     2
1070
    77
1070
     1
1070
    73
1070
     1
1070
   171
1070
     3
1070
   274
1070
     4
1070
   177
1070
   150
1070
   176
1070
     9
1070
   178
1070
    43
1070
    78
1070
     8
1070
    48
1040
-0.1
1070
    41
1040
3.175
1070
   147
1040
1.75006
1070
    42
1040
1.5875
1070
    44
1040
3.175
1070
   140
1040
3.50012
1002
}
1001
ACAD_DSTYLE_DIM_LINETYPE
1070
   380
1005
16
1001
ACAD_DSTYLE_DIM_EXT1_LINETYPE
1070
   381
1005
16
1001
ACAD_DSTYLE_DIM_EXT2_LINETYPE
1070
   382
1005
16
0
DIMENSION
5
127
100
AcDbEntity
8
2
62
256
6
ByLayer
370
18
48
1
60
0
100
AcDbDimension
2
_U1
10
63.75006
20
6
30
0
11
63.75006
21
20.489862
31
0
70
32
71
1
72
1
41
1
210
0
220
0
230
1
3
Standard
100
AcDbAlignedDimension
13
54.8162
23
-6
33
0
14
54.8162
24
6
34
0
50
90
100
AcDbRotatedDimension
1001
ACAD
1000
DSTYLE
1002
{
1070
   371
1070
    13
1070
   372
1070
    13
1070
     3
1000

1070
   170
1070
     0
1070
   144
1040
1.0
1070
   277
1070
     2
1070
   284
1070
     8
1070
   278
1070
    46
1070
   146
1040
0.999966
1070
   345
1005
16
1070
   347
1005
16
1070
   346
1005
16
1070
   344
1005
102
1070
   343
1005
102
1070
   172
1070
     1
1070
    76
1070
     0
1070
    75
1070
     0
1070
   282
1070
     0
1070
   281
1070
     0
1070
    71
1070
     0
1070
    74
1070
     0
1070
   279
1070
     0
1070
   173
1070
     1
1070
   340
1005
FC
1070
   271
1070
     1
1070
   272
1070
     2
1070
    77
1070
     1
1070
    73
1070
     0
1070
   171
1070
     3
1070
   274
1070
     4
1070
   177
1070
   150
1070
   176
1070
     9
1070
   178
1070
    43
1070
    78
1070
     8
1070
    48
1040
-0.1
1070
    41
1040
3.175
1070
   147
1040
1.75006
1070
    42
1040
1.5875
1070
    44
1040
3.175
1070
   140
1040
3.50012
1002
}
1001
ACAD_DSTYLE_DIM_LINETYPE
1070
   380
1005
16
1001
ACAD_DSTYLE_DIM_EXT1_LINETYPE
1070
   381
1005
16
1001
ACAD_DSTYLE_DIM_EXT2_LINETYPE
1070
   382
1005
16
0
DIMENSION
5
146
100
AcDbEntity
8
SK2
62
256
6
ByLayer
370
18
48
1
60
0
100
AcDbDimension
2
_U2
10
-48.24994
20
-6
30
0
11
-48.24994
21
20.97767
31
0
70
32
71
1
72
1
41
1
210
0
220
0
230
1
3
Standard
100
AcDbAlignedDimension
13
-45
23
6
33
0
14
-45
24
-6
34
0
50
90
100
AcDbRotatedDimension
1001
ACAD
1000
DSTYLE
1002
{
1070
   371
1070
    13
1070
   372
1070
    13
1070
     3
1000

1070
   170
1070
     0
1070
   144
1040
1.0
1070
   277
1070
     2
1070
   284
1070
     8
1070
   278
1070
    46
1070
   146
1040
0.999966
1070
   345
1005
16
1070
   347
1005
16
1070
   346
1005
16
1070
   344
1005
102
1070
   343
1005
102
1070
   172
1070
     1
1070
    76
1070
     0
1070
    75
1070
     0
1070
   282
1070
     0
1070
   281
1070
     0
1070
    71
1070
     0
1070
    74
1070
     0
1070
   279
1070
     0
1070
   173
1070
     1
1070
   340
1005
FC
1070
   271
1070
     1
1070
   272
1070
     2
1070
    77
1070
     1
1070
    73
1070
     0
1070
   171
1070
     3
1070
   274
1070
     4
1070
   177
1070
   150
1070
   176
1070
     9
1070
   178
1070
    43
1070
    78
1070
     8
1070
    48
1040
-0.1
1070
    41
1040
3.175
1070
   147
1040
1.75006
1070
    42
1040
1.5875
1070
    44
1040
3.175
1070
   140
1040
3.50012
1002
}
1001
ACAD_DSTYLE_DIM_LINETYPE
1070
   380
1005
16
1001
ACAD_DSTYLE_DIM_EXT1_LINETYPE
1070
   381
1005
16
1001
ACAD_DSTYLE_DIM_EXT2_LINETYPE
1070
   382
1005
16
0
DIMENSION
5
164
100
AcDbEntity
8
SK2
62
256
6
ByLayer
370
18
48
1
60
0
100
AcDbDimension
2
_U3
10
0
20
-29.50012
30
0
11
-22.5
21
-29.50012
31
0
70
32
71
1
72
1
41
1
210
0
220
0
230
1
3
Standard
100
AcDbAlignedDimension
13
-45
23
-6
33
0
14
0
24
-6
34
0
50
0
100
AcDbRotatedDimension
1001
ACAD
1000
DSTYLE
1002
{
1070
   371
1070
    13
1070
   372
1070
    13
1070
     3
1000

1070
   170
1070
     0
1070
   144
1040
1.0
1070
   277
1070
     2
1070
   284
1070
     8
1070
   278
1070
    46
1070
   146
1040
0.999966
1070
   345
1005
16
1070
   347
1005
16
1070
   346
1005
16
1070
   344
1005
102
1070
   343
1005
102
1070
   172
1070
     1
1070
    76
1070
     0
1070
    75
1070
     0
1070
   282
1070
     0
1070
   281
1070
     0
1070
    71
1070
     0
1070
    74
1070
     0
1070
   279
1070
     0
1070
   173
1070
     1
1070
   340
1005
FC
1070
   271
1070
     1
1070
   272
1070
     2
1070
    77
1070
     1
1070
    73
1070
     1
1070
   171
1070
     3
1070
   274
1070
     4
1070
   177
1070
   150
1070
   176
1070
     9
1070
   178
1070
    43
1070
    78
1070
     8
1070
    48
1040
-0.1
1070
    41
1040
3.175
1070
   147
1040
1.75006
1070
    42
1040
1.5875
1070
    44
1040
3.175
1070
   140
1040
3.50012
1002
}
1001
ACAD_DSTYLE_DIM_LINETYPE
1070
   380
1005
16
1001
ACAD_DSTYLE_DIM_EXT1_LINETYPE
1070
   381
1005
16
1001
ACAD_DSTYLE_DIM_EXT2_LINETYPE
1070
   382
1005
16
0
DIMENSION
5
180
100
AcDbEntity
8
SK2
62
256
6
ByLayer
370
18
48
1
60
0
100
AcDbDimension
2
_U4
10
57
20
-20.74982
30
0
11
29.5
21
-20.74982
31
0
70
32
71
1
72
1
41
1
210
0
220
0
230
1
3
Standard
100
AcDbAlignedDimension
13
2
23
6.5
33
0
14
57
24
0
34
0
50
0
100
AcDbRotatedDimension
1001
ACAD
1000
DSTYLE
1002
{
1070
   371
1070
    13
1070
   372
1070
    13
1070
     3
1000

1070
   170
1070
     0
1070
   144
1040
1.0
1070
   277
1070
     2
1070
   284
1070
     8
1070
   278
1070
    46
1070
   146
1040
0.999966
1070
   345
1005
16
1070
   347
1005
16
1070
   346
1005
16
1070
   344
1005
102
1070
   343
1005
102
1070
   172
1070
     1
1070
    76
1070
     0
1070
    75
1070
     0
1070
   282
1070
     0
1070
   281
1070
     0
1070
    71
1070
     0
1070
    74
1070
     0
1070
   279
1070
     0
1070
   173
1070
     1
1070
   340
1005
FC
1070
   271
1070
     1
1070
   272
1070
     2
1070
    77
1070
     1
1070
    73
1070
     1
1070
   171
1070
     3
1070
   274
1070
     4
1070
   177
1070
   150
1070
   176
1070
     9
1070
   178
1070
    43
1070
    78
1070
     8
1070
    48
1040
-0.1
1070
    41
1040
3.175
1070
   147
1040
1.75006
1070
    42
1040
1.5875
1070
    44
1040
3.175
1070
   140
1040
3.50012
1002
}
1001
ACAD_DSTYLE_DIM_LINETYPE
1070
   380
1005
16
1001
ACAD_DSTYLE_DIM_EXT1_LINETYPE
1070
   381
1005
16
1001
ACAD_DSTYLE_DIM_EXT2_LINETYPE
1070
   382
1005
16
0
DIMENSION
5
19C
100
AcDbEntity
8
SK2
62
256
6
ByLayer
370
18
48
1
60
0
100
AcDbDimension
2
_U5
10
57
20
-12.82
30
0
11
37.95
21
-12.82
31
0
70
32
71
1
72
1
41
1
210
0
220
0
230
1
3
Standard
100
AcDbAlignedDimension
13
18.9
23
-6
33
0
14
57
24
0
34
0
50
0
100
AcDbRotatedDimension
1001
ACAD
1000
DSTYLE
1002
{
1070
   371
1070
    13
1070
   372
1070
    13
1070
     3
1000

1070
   170
1070
     0
1070
   144
1040
1.0
1070
   277
1070
     2
1070
   284
1070
     8
1070
   278
1070
    46
1070
   146
1040
1.25
1070
   345
1005
16
1070
   347
1005
16
1070
   346
1005
16
1070
   344
1005
102
1070
   343
1005
102
1070
   172
1070
     1
1070
    76
1070
     0
1070
    75
1070
     0
1070
   282
1070
     0
1070
   281
1070
     0
1070
    71
1070
     0
1070
    74
1070
     0
1070
   279
1070
     0
1070
   173
1070
     1
1070
   340
1005
FC
1070
   271
1070
     1
1070
   272
1070
     2
1070
    77
1070
     1
1070
    73
1070
     1
1070
   171
1070
     3
1070
   274
1070
     4
1070
   177
1070
   150
1070
   176
1070
     9
1070
   178
1070
    43
1070
    78
1070
     8
1070
    48
1040
-0.1
1070
    41
1040
3.175
1070
   147
1040
0.42
1070
    42
1040
1.5875
1070
    44
1040
0.5
1070
   140
1040
2.8
1002
}
1001
ACAD_DSTYLE_DIM_LINETYPE
1070
   380
1005
16
1001
ACAD_DSTYLE_DIM_EXT1_LINETYPE
1070
   381
1005
16
1001
ACAD_DSTYLE_DIM_EXT2_LINETYPE
1070
   382
1005
16
0
DIMENSION
5
1B8
100
AcDbEntity
8
SK2
62
256
6
ByLayer
370
18
48
1
60
0
100
AcDbDimension
2
_U6
10
57
20
-39.50012
30
0
11
6
21
-39.50012
31
0
70
32
71
1
72
1
41
1
210
0
220
0
230
1
3
Standard
100
AcDbAlignedDimension
13
-45
23
0
33
0
14
57
24
0
34
0
50
0
100
AcDbRotatedDimension
1001
ACAD
1000
DSTYLE
1002
{
1070
   371
1070
    13
1070
   372
1070
    13
1070
     3
1000

1070
   170
1070
     0
1070
   144
1040
1.0
1070
   277
1070
     2
1070
   284
1070
     8
1070
   278
1070
    46
1070
   146
1040
0.999966
1070
   345
1005
16
1070
   347
1005
16
1070
   346
1005
16
1070
   344
1005
102
1070
   343
1005
102
1070
   172
1070
     1
1070
    76
1070
     0
1070
    75
1070
     0
1070
   282
1070
     0
1070
   281
1070
     0
1070
    71
1070
     0
1070
    74
1070
     0
1070
   279
1070
     0
1070
   173
1070
     1
1070
   340
1005
FC
1070
   271
1070
     1
1070
   272
1070
     2
1070
    77
1070
     1
1070
    73
1070
     1
1070
   171
1070
     3
1070
   274
1070
     4
1070
   177
1070
   150
1070
   176
1070
     9
1070
   178
1070
    43
1070
    78
1070
     8
1070
    48
1040
-0.1
1070
    41
1040
3.175
1070
   147
1040
1.75006
1070
    42
1040
1.5875
1070
    44
1040
3.175
1070
   140
1040
3.50012
1002
}
1001
ACAD_DSTYLE_DIM_LINETYPE
1070
   380
1005
16
1001
ACAD_DSTYLE_DIM_EXT1_LINETYPE
1070
   381
1005
16
1001
ACAD_DSTYLE_DIM_EXT2_LINETYPE
1070
   382
1005
16
0
ENDSEC
0
SECTION
2
OBJECTS
0
DICTIONARY
5
244
330
0
100
AcDbDictionary
280
0
281
1
3
ACAD_GROUP
350
245
3
ACAD_MLINESTYLE
350
246
0
DICTIONARY
5
245
330
0
100
AcDbDictionary
280
0
281
1
0
DICTIONARY
5
246
330
0
100
AcDbDictionary
280
0
281
1
3
Standard
350
18
0
MLINESTYLE
5
18
330
246
100
AcDbMlineStyle
2
Standard
70
0
3

62
256
51
90
52
90
71
2
49
-0.5
62
256
6
ByLayer
49
0.5
62
256
6
ByLayer
0
RASTERVARIABLES
5
232
330

100
AcDbRasterVariables
90
0
70
1
71
1
72
1
0
ENDSEC
0
EOF
