0
SECTION
2
HEADER
9
$ACADVER
1
AC1015
9
$DWGCODEPAGE
3
ANSI_1252
9
$HANDSEED
5
256
9
$ANGBASE
50
0
9
$ANGDIR
70
0
9
$ATTMODE
70
1
9
$AUNITS
70
0
9
$AUPREC
70
0
9
$CECOLOR
62
256
9
$CELTSCALE
40
1
9
$CELTYPE
6
ByLayer
9
$CELWEIGHT
370
18
9
$CLAYER
8
0
9
$CMLJUST
70
0
9
$CMLSCALE
40
1
9
$CMLSTYLE
2
Standard
9
$DIMSTYLE
2
Standard
9
$TEXTSIZE
40
0.2
9
$TEXTSTYLE
7
Standard
9
$LUNITS
70
2
9
$LUPREC
70
4
9
$EXTNAMES
290
1
9
$INSUNITS
70
4
9
$LTSCALE
40
1
9
$LWDISPLAY
290
1
9
$PDMODE
70
0
9
$PDSIZE
40
0
9
$PLINEGEN
70
0
0
ENDSEC
0
SECTION
2
CLASSES
0
CLASS
1
RASTERVARIABLES
2
AcDbRasterVariables
3
ISM
90
0
280
0
281
0
0
ENDSEC
0
SECTION
2
TABLES
0
TABLE
2
VPORT
5
24c
100
AcDbSymbolTable
0
VPORT
5
1
100
AcDbSymbolTableRecord
100
AcDbViewportTableRecord
2
*Active
70
0
10
0
20
0
11
1
21
1
12
-1
22
1
13
0
23
0
14
0.5
24
0.5
15
10
25
10
16
0
26
0
36
1
17
0
27
0
37
0
0
ENDTAB
0
TABLE
2
LTYPE
5
24d
100
AcDbSymbolTable
0
LTYPE
5
14
100
AcDbSymbolTableRecord
100
AcDbLinetypeTableRecord
70
0
2
ByBlock
3

72
65
73
0
40
0
0
LTYPE
5
15
100
AcDbSymbolTableRecord
100
AcDbLinetypeTableRecord
70
0
2
ByLayer
3

72
65
73
0
40
0
0
LTYPE
5
16
100
AcDbSymbolTableRecord
100
AcDbLinetypeTableRecord
70
0
2
Continuous
3
Solid line
72
65
73
0
40
0
0
LTYPE
5
6E
100
AcDbSymbolTableRecord
100
AcDbLinetypeTableRecord
70
0
2
CENTER
3
____ _ ____ _ ____ _ ____
72
65
73
4
40
47.5
49
22
74
0
49
-8.5
74
0
49
8.5
74
0
49
-8.5
74
0
0
LTYPE
5
6F
100
AcDbSymbolTableRecord
100
AcDbLinetypeTableRecord
70
0
2
DASHED
3
__ __ __ __ __ __ __ __ __
72
65
73
2
40
25.72
49
12.86
74
0
49
-12.86
74
0
0
ENDTAB
0
TABLE
2
LAYER
5
24e
100
AcDbSymbolTable
0
LAYER
5
10
100
AcDbSymbolTableRecord
100
AcDbLayerTableRecord
2
0
70
0
62
7
6
Continuous
290
1
370
-3
390
0
0
LAYER
5
71
100
AcDbSymbolTableRecord
100
AcDbLayerTableRecord
2
80
70
0
62
-6
6
Continuous
290
1
370
-3
390
0
0
LAYER
5
73
100
AcDbSymbolTableRecord
100
AcDbLayerTableRecord
2
81
70
0
62
-3
6
Continuous
290
1
370
-3
390
0
0
LAYER
5
75
100
AcDbSymbolTableRecord
100
AcDbLayerTableRecord
2
1
70
0
62
4
6
Continuous
290
1
370
-3
390
0
0
LAYER
5
A7
100
AcDbSymbolTableRecord
100
AcDbLayerTableRecord
2
4
70
0
62
-2
6
CENTER
290
1
370
-3
390
0
0
LAYER
5
110
100
AcDbSymbolTableRecord
100
AcDbLayerTableRecord
2
Defpoints
70
0
62
7
6
Continuous
290
0
370
-3
390
0
0
LAYER
5
13D
100
AcDbSymbolTableRecord
100
AcDbLayerTableRecord
2
2
70
0
62
7
6
Continuous
290
1
370
-3
390
0
0
LAYER
5
238
100
AcDbSymbolTableRecord
100
AcDbLayerTableRecord
2
SK1
70
0
62
4
6
Continuous
290
1
370
-3
390
0
0
LAYER
5
239
100
AcDbSymbolTableRecord
100
AcDbLayerTableRecord
2
SK4
70
0
62
2
6
CENTER
290
1
370
-3
390
0
0
LAYER
5
23a
100
AcDbSymbolTableRecord
100
AcDbLayerTableRecord
2
SK2
70
0
62
7
6
Continuous
290
1
370
-3
390
0
0
LAYER
5
23b
100
AcDbSymbolTableRecord
100
AcDbLayerTableRecord
2
SK6
70
0
62
5
6
Continuous
290
1
370
-3
390
0
0
ENDTAB
0
TABLE
2
STYLE
5
24f
100
AcDbSymbolTable
0
STYLE
5
11
100
AcDbSymbolTableRecord
100
AcDbTextStyleTableRecord
2
Standard
3
txt
70
0
71
0
40
0
41
1
42
0
50
0
0
STYLE
5
101
100
AcDbSymbolTableRecord
100
AcDbTextStyleTableRecord
2
iso_b_vert
3
simplex.shx
70
0
71
0
40
0
41
1
42
0
50
0
0
STYLE
5
102
100
AcDbSymbolTableRecord
100
AcDbTextStyleTableRecord
2
DWGDirectTextStyle
3
simplex
70
0
71
0
40
0
41
1
42
0
50
0
0
ENDTAB
0
TABLE
2
DIMSTYLE
5
250
100
AcDbSymbolTable
100
AcDbDimStyleTable
0
DIMSTYLE
105
27
100
AcDbSymbolTableRecord
100
AcDbDimStyleTableRecord
2
Standard
70
0
3
<>
41
0.18
42
0.0625
44
0.18
140
0.18
147
0.09
73
0
74
0
77
1
271
2
275
0
278
52
280
0
340
11
0
ENDTAB
0
TABLE
2
VIEW
5
251
100
AcDbSymbolTable
0
ENDTAB
0
TABLE
2
UCS
5
252
100
AcDbSymbolTable
0
ENDTAB
0
TABLE
2
APPID
5
253
100
AcDbSymbolTable
0
APPID
5
12
100
AcDbSymbolTableRecord
100
AcDbRegAppTableRecord
2
ACAD
70
0
0
APPID
5
105
100
AcDbSymbolTableRecord
100
AcDbRegAppTableRecord
2
ACAD_DSTYLE_DIMBREAK
70
0
0
APPID
5
1F7
100
AcDbSymbolTableRecord
100
AcDbRegAppTableRecord
2
ACAD_DSTYLE_DIM_LINETYPE
70
0
0
APPID
5
1F8
100
AcDbSymbolTableRecord
100
AcDbRegAppTableRecord
2
ACAD_DSTYLE_DIM_EXT1_LINETYPE
70
0
0
APPID
5
1F9
100
AcDbSymbolTableRecord
100
AcDbRegAppTableRecord
2
ACAD_DSTYLE_DIM_EXT2_LINETYPE
70
0
0
APPID
5
234
100
AcDbSymbolTableRecord
100
AcDbRegAppTableRecord
2
ACAD_MLEADERVER
70
0
0
ENDTAB
0
TABLE
2
BLOCK_RECORD
5
254
100
AcDbSymbolTable
0
BLOCK_RECORD
5
1F
100
AcDbSymbolTableRecord
100
AcDbBlockTableRecord
2
*Model_Space
340
0
70
0
0
BLOCK_RECORD
5
1B
100
AcDbSymbolTableRecord
100
AcDbBlockTableRecord
2
*Paper_Space
340
0
70
0
0
BLOCK_RECORD
5
23
100
AcDbSymbolTableRecord
100
AcDbBlockTableRecord
2
*Paper_Space0
340
0
70
0
0
BLOCK_RECORD
5
107
100
AcDbSymbolTableRecord
100
AcDbBlockTableRecord
2
_Closed
340
0
70
0
0
BLOCK_RECORD
5
111
100
AcDbSymbolTableRecord
100
AcDbBlockTableRecord
2
*D2
340
0
70
0
0
BLOCK_RECORD
5
11D
100
AcDbSymbolTableRecord
100
AcDbBlockTableRecord
2
_U0
340
0
70
0
0
BLOCK_RECORD
5
12F
100
AcDbSymbolTableRecord
100
AcDbBlockTableRecord
2
*D4
340
0
70
0
0
BLOCK_RECORD
5
13E
100
AcDbSymbolTableRecord
100
AcDbBlockTableRecord
2
_U1
340
0
70
0
0
BLOCK_RECORD
5
14E
100
AcDbSymbolTableRecord
100
AcDbBlockTableRecord
2
*D6
340
0
70
0
0
BLOCK_RECORD
5
15C
100
AcDbSymbolTableRecord
100
AcDbBlockTableRecord
2
_U2
340
0
70
0
0
BLOCK_RECORD
5
16C
100
AcDbSymbolTableRecord
100
AcDbBlockTableRecord
2
*D8
340
0
70
0
0
BLOCK_RECORD
5
178
100
AcDbSymbolTableRecord
100
AcDbBlockTableRecord
2
_U3
340
0
70
0
0
BLOCK_RECORD
5
188
100
AcDbSymbolTableRecord
100
AcDbBlockTableRecord
2
*D10
340
0
70
0
0
BLOCK_RECORD
5
194
100
AcDbSymbolTableRecord
100
AcDbBlockTableRecord
2
_U4
340
0
70
0
0
BLOCK_RECORD
5
1A4
100
AcDbSymbolTableRecord
100
AcDbBlockTableRecord
2
*D12
340
0
70
0
0
BLOCK_RECORD
5
1B0
100
AcDbSymbolTableRecord
100
AcDbBlockTableRecord
2
_U5
340
0
70
0
0
BLOCK_RECORD
5
1C0
100
AcDbSymbolTableRecord
100
AcDbBlockTableRecord
2
*D14
340
0
70
0
0
BLOCK_RECORD
5
1CC
100
AcDbSymbolTableRecord
100
AcDbBlockTableRecord
2
_U6
340
0
70
0
0
ENDTAB
0
ENDSEC
0
SECTION
2
BLOCKS
0
BLOCK
5
20
100
AcDbEntity
8
0
100
AcDbBlockBegin
2
*Model_Space
70
0
10
0
20
0
30
0
3
*Model_Space
0
ENDBLK
5
21
100
AcDbEntity
8
0
100
AcDbBlockEnd
0
BLOCK
5
1C
100
AcDbEntity
8
0
100
AcDbBlockBegin
2
*Paper_Space
70
0
10
0
20
0
30
0
3
*Paper_Space
0
ENDBLK
5
1D
100
AcDbEntity
8
0
100
AcDbBlockEnd
0
BLOCK
5
24
100
AcDbEntity
8
0
100
AcDbBlockBegin
2
*Paper_Space0
70
0
10
0
20
0
30
0
3
*Paper_Space0
0
ENDBLK
5
25
100
AcDbEntity
8
0
100
AcDbBlockEnd
0
BLOCK
5
108
100
AcDbEntity
8
0
100
AcDbBlockBegin
2
_Closed
70
0
10
0
20
0
30
0
3
_Closed
0
LINE
5
10A
100
AcDbEntity
8
0
62
256
6
ByLayer
370
-2
48
1
60
0
100
AcDbLine
10
-1
20
0.166667
30
0
11
0
21
0
31
0
39
0
210
0
220
0
230
1
0
LINE
5
10B
100
AcDbEntity
8
0
62
256
6
ByLayer
370
-2
48
1
60
0
100
AcDbLine
10
0
20
0
30
0
11
-1
21
-0.166667
31
0
39
0
210
0
220
0
230
1
0
LINE
5
10C
100
AcDbEntity
8
0
62
256
6
ByLayer
370
-2
48
1
60
0
100
AcDbLine
10
-1
20
0.166667
30
0
11
-1
21
-0.166667
31
0
39
0
210
0
220
0
230
1
0
LINE
5
10D
100
AcDbEntity
8
0
62
256
6
ByLayer
370
-2
48
1
60
0
100
AcDbLine
10
0
20
0
30
0
11
-1
21
0
31
0
39
0
210
0
220
0
230
1
0
ENDBLK
5
109
100
AcDbEntity
8
0
100
AcDbBlockEnd
0
BLOCK
5
112
100
AcDbEntity
8
0
100
AcDbBlockBegin
2
*D2
70
1
10
0
20
0
30
0
3
*D2
0
LINE
5
114
100
AcDbEntity
8
0
62
256
6
ByLayer
370
-2
48
1
60
0
100
AcDbLine
10
0
20
-7.5875
30
0
11
0
21
-32.67512
31
0
39
0
210
0
220
0
230
1
0
LINE
5
115
100
AcDbEntity
8
0
62
256
6
ByLayer
370
-2
48
1
60
0
100
AcDbLine
10
57
20
-1.5875
30
0
11
57
21
-32.67512
31
0
39
0
210
0
220
0
230
1
0
LINE
5
116
100
AcDbEntity
8
0
62
256
6
ByLayer
370
-2
48
1
60
0
100
AcDbLine
10
3.175
20
-29.50012
30
0
11
53.825
21
-29.50012
31
0
39
0
210
0
220
0
230
1
0
SOLID
5
117
100
AcDbEntity
8
0
62
256
6
ByLayer
370
-1
48
1
60
0
100
AcDbTrace
10
3.175
20
-28.970953
30
0
11
3.175
21
-30.029287
31
0
12
0
22
-29.50012
32
0
13
0
23
-29.50012
33
0
39
0
210
0
220
0
230
1
0
SOLID
5
118
100
AcDbEntity
8
0
62
256
6
ByLayer
370
-1
48
1
60
0
100
AcDbTrace
10
53.825
20
-30.029287
30
0
11
53.825
21
-28.970953
31
0
12
57
22
-29.50012
32
0
13
57
23
-29.50012
33
0
39
0
210
0
220
0
230
1
0
MTEXT
5
119
100
AcDbEntity
8
0
62
256
6
ByLayer
370
18
48
1
60
0
100
AcDbMText
10
28.5
20
-22.193619
30
0
210
0
220
0
230
1
1
\A1;57
40
3.50012
41
0
44
1
50
0
71
5
72
5
7
iso_b_vert
0
POINT
5
11A
100
AcDbEntity
8
Defpoints
62
0
6
ByLayer
370
-1
48
1
60
0
100
AcDbPoint
10
0
20
-6
30
0
39
0
210
0
220
0
230
1
50
360
0
POINT
5
11B
100
AcDbEntity
8
Defpoints
62
0
6
ByLayer
370
-1
48
1
60
0
100
AcDbPoint
10
57
20
0
30
0
39
0
210
0
220
0
230
1
50
360
0
POINT
5
11C
100
AcDbEntity
8
Defpoints
62
0
6
ByLayer
370
-1
48
1
60
0
100
AcDbPoint
10
57
20
-29.50012
30
0
39
0
210
0
220
0
230
1
50
360
0
ENDBLK
5
113
100
AcDbEntity
8
0
100
AcDbBlockEnd
0
BLOCK
5
12A
100
AcDbEntity
8
0
100
AcDbBlockBegin
2
_U0
70
0
10
0
20
0
30
0
3
_U0
0
MTEXT
5
11E
100
AcDbEntity
8
SK2
62
256
6
ByLayer
370
18
48
1
60
0
100
AcDbMText
10
23.270389
20
-28.467451
30
0
210
0
220
0
230
1
1
\W0.7468;57.00
40
3.50012
41
0
44
1.084337
50
0
71
7
72
5
7
iso_b_vert
0
MTEXT
5
11F
100
AcDbEntity
8
SK2
62
256
6
ByLayer
370
18
48
1
60
0
100
AcDbMText
10
19.744329
20
-28.400814
30
0
210
0
220
0
230
1
1
\W0.1790;(
40
3.175
41
0
44
1.084337
50
0
71
7
72
5
7
iso_b_vert
0
MTEXT
5
120
100
AcDbEntity
8
SK2
62
256
6
ByLayer
370
18
48
1
60
0
100
AcDbMText
10
37.258393
20
-28.400814
30
0
210
0
220
0
230
1
1
\W0.1969;)
40
3.175
41
0
44
1.084337
50
0
71
7
72
5
7
iso_b_vert
0
LINE
5
121
100
AcDbEntity
8
SK2
62
256
6
ByLayer
370
13
48
1
60
0
100
AcDbLine
10
0
20
-7.5875
30
0
11
0
21
-32.67512
31
0
39
0
210
0
220
0
230
1
0
LINE
5
122
100
AcDbEntity
8
SK2
62
256
6
ByLayer
370
13
48
1
60
0
100
AcDbLine
10
57
20
-1.5875
30
0
11
57
21
-32.67512
31
0
39
0
210
0
220
0
230
1
0
LINE
5
123
100
AcDbEntity
8
SK2
62
256
6
ByLayer
370
13
48
1
60
0
100
AcDbLine
10
0
20
-29.50012
30
0
11
57
21
-29.50012
31
0
39
0
210
0
220
0
230
1
0
LINE
5
124
100
AcDbEntity
8
SK2
62
256
6
ByLayer
370
13
48
1
60
0
100
AcDbLine
10
0
20
-29.50012
30
0
11
3.174998
21
-29.082123
31
0
39
0
210
0
220
0
230
1
0
LINE
5
125
100
AcDbEntity
8
SK2
62
256
6
ByLayer
370
13
48
1
60
0
100
AcDbLine
10
0
20
-29.50012
30
0
11
3.175002
21
-29.918117
31
0
39
0
210
0
220
0
230
1
0
LINE
5
126
100
AcDbEntity
8
SK2
62
256
6
ByLayer
370
13
48
1
60
0
100
AcDbLine
10
3.174998
20
-29.082123
30
0
11
3.175002
21
-29.918117
31
0
39
0
210
0
220
0
230
1
0
LINE
5
127
100
AcDbEntity
8
SK2
62
256
6
ByLayer
370
13
48
1
60
0
100
AcDbLine
10
57
20
-29.50012
30
0
11
53.825002
21
-29.918117
31
0
39
0
210
0
220
0
230
1
0
LINE
5
128
100
AcDbEntity
8
SK2
62
256
6
ByLayer
370
13
48
1
60
0
100
AcDbLine
10
57
20
-29.50012
30
0
11
53.824998
21
-29.082123
31
0
39
0
210
0
220
0
230
1
0
LINE
5
129
100
AcDbEntity
8
SK2
62
256
6
ByLayer
370
13
48
1
60
0
100
AcDbLine
10
53.825002
20
-29.918117
30
0
11
53.824998
21
-29.082123
31
0
39
0
210
0
220
0
230
1
0
ENDBLK
5
12B
100
AcDbEntity
8
0
100
AcDbBlockEnd
0
BLOCK
5
130
100
AcDbEntity
8
0
100
AcDbBlockBegin
2
*D4
70
1
10
0
20
0
30
0
3
*D4
0
LINE
5
132
100
AcDbEntity
8
0
62
256
6
ByLayer
370
-2
48
1
60
0
100
AcDbLine
10
56.7313
20
-5.1
30
0
11
66.92506
21
-5.1
31
0
39
0
210
0
220
0
230
1
0
LINE
5
133
100
AcDbEntity
8
0
62
256
6
ByLayer
370
-2
48
1
60
0
100
AcDbLine
10
56.7313
20
5.1
30
0
11
66.92506
21
5.1
31
0
39
0
210
0
220
0
230
1
0
LINE
5
134
100
AcDbEntity
8
0
62
256
6
ByLayer
370
-2
48
1
60
0
100
AcDbLine
10
63.75006
20
5.1
30
0
11
63.75006
21
32.729896
31
0
39
0
210
0
220
0
230
1
0
LINE
5
135
100
AcDbEntity
8
0
62
256
6
ByLayer
370
-2
48
1
60
0
100
AcDbLine
10
63.75006
20
-8.275
30
0
11
63.75006
21
-11.45
31
0
39
0
210
0
220
0
230
1
0
LINE
5
136
100
AcDbEntity
8
0
62
256
6
ByLayer
370
-2
48
1
60
0
100
AcDbLine
10
63.75006
20
8.275
30
0
11
63.75006
21
11.45
31
0
39
0
210
0
220
0
230
1
0
SOLID
5
137
100
AcDbEntity
8
0
62
256
6
ByLayer
370
-1
48
1
60
0
100
AcDbTrace
10
64.279227
20
-8.275
30
0
11
63.220893
21
-8.275
31
0
12
63.75006
22
-5.1
32
0
13
63.75006
23
-5.1
33
0
39
0
210
0
220
0
230
1
0
SOLID
5
138
100
AcDbEntity
8
0
62
256
6
ByLayer
370
-1
48
1
60
0
100
AcDbTrace
10
63.220893
20
8.275
30
0
11
64.279227
21
8.275
31
0
12
63.75006
22
5.1
32
0
13
63.75006
23
5.1
33
0
39
0
210
0
220
0
230
1
0
MTEXT
5
139
100
AcDbEntity
8
0
62
256
6
ByLayer
370
18
48
1
60
0
100
AcDbMText
10
56.443559
20
22.089948
30
0
210
0
220
0
230
1
1
\A1;10.2
40
3.50012
41
0
44
1
50
90
71
5
72
5
7
iso_b_vert
0
POINT
5
13A
100
AcDbEntity
8
Defpoints
62
0
6
ByLayer
370
-1
48
1
60
0
100
AcDbPoint
10
55.1438
20
-5.1
30
0
39
0
210
0
220
0
230
1
50
360
0
POINT
5
13B
100
AcDbEntity
8
Defpoints
62
0
6
ByLayer
370
-1
48
1
60
0
100
AcDbPoint
10
55.1438
20
5.1
30
0
39
0
210
0
220
0
230
1
50
360
0
POINT
5
13C
100
AcDbEntity
8
Defpoints
62
0
6
ByLayer
370
-1
48
1
60
0
100
AcDbPoint
10
63.75006
20
5.1
30
0
39
0
210
0
220
0
230
1
50
360
0
ENDBLK
5
131
100
AcDbEntity
8
0
100
AcDbBlockEnd
0
BLOCK
5
149
100
AcDbEntity
8
0
100
AcDbBlockBegin
2
_U1
70
0
10
0
20
0
30
0
3
_U1
0
MTEXT
5
13F
100
AcDbEntity
8
2
62
256
6
ByLayer
370
18
48
1
60
0
100
AcDbMText
10
63.060403
20
9.257505
30
0
210
0
220
0
230
1
1
\W0.6864;10.20
40
3.50012
41
0
44
1.084337
50
90
71
7
72
5
7
iso_b_vert
0
LINE
5
140
100
AcDbEntity
8
2
62
256
6
ByLayer
370
13
48
1
60
0
100
AcDbLine
10
56.7313
20
-5.1
30
0
11
66.92506
21
-5.1
31
0
39
0
210
0
220
0
230
1
0
LINE
5
141
100
AcDbEntity
8
2
62
256
6
ByLayer
370
13
48
1
60
0
100
AcDbLine
10
56.7313
20
5.1
30
0
11
66.92506
21
5.1
31
0
39
0
210
0
220
0
230
1
0
LINE
5
142
100
AcDbEntity
8
2
62
256
6
ByLayer
370
13
48
1
60
0
100
AcDbLine
10
63.75006
20
-5.1
30
0
11
63.75006
21
19.055339
31
0
39
0
210
0
220
0
230
1
0
LINE
5
143
100
AcDbEntity
8
2
62
256
6
ByLayer
370
13
48
1
60
0
100
AcDbLine
10
63.75006
20
-5.1
30
0
11
63.332063
21
-1.925002
31
0
39
0
210
0
220
0
230
1
0
LINE
5
144
100
AcDbEntity
8
2
62
256
6
ByLayer
370
13
48
1
60
0
100
AcDbLine
10
63.75006
20
-5.1
30
0
11
64.168057
21
-1.924998
31
0
39
0
210
0
220
0
230
1
0
LINE
5
145
100
AcDbEntity
8
2
62
256
6
ByLayer
370
13
48
1
60
0
100
AcDbLine
10
63.332063
20
-1.925002
30
0
11
64.168057
21
-1.924998
31
0
39
0
210
0
220
0
230
1
0
LINE
5
146
100
AcDbEntity
8
2
62
256
6
ByLayer
370
13
48
1
60
0
100
AcDbLine
10
63.75006
20
5.1
30
0
11
64.168057
21
1.925002
31
0
39
0
210
0
220
0
230
1
0
LINE
5
147
100
AcDbEntity
8
2
62
256
6
ByLayer
370
13
48
1
60
0
100
AcDbLine
10
63.75006
20
5.1
30
0
11
63.332063
21
1.924998
31
0
39
0
210
0
220
0
230
1
0
LINE
5
148
100
AcDbEntity
8
2
62
256
6
ByLayer
370
13
48
1
60
0
100
AcDbLine
10
64.168057
20
1.925002
30
0
11
63.332063
21
1.924998
31
0
39
0
210
0
220
0
230
1
0
ENDBLK
5
14A
100
AcDbEntity
8
0
100
AcDbBlockEnd
0
BLOCK
5
14F
100
AcDbEntity
8
0
100
AcDbBlockBegin
2
*D6
70
1
10
0
20
0
30
0
3
*D6
0
LINE
5
151
100
AcDbEntity
8
0
62
256
6
ByLayer
370
-2
48
1
60
0
100
AcDbLine
10
-46.5875
20
6
30
0
11
-51.42494
21
6
31
0
39
0
210
0
220
0
230
1
0
LINE
5
152
100
AcDbEntity
8
0
62
256
6
ByLayer
370
-2
48
1
60
0
100
AcDbLine
10
-46.5875
20
-6
30
0
11
-51.42494
21
-6
31
0
39
0
210
0
220
0
230
1
0
LINE
5
153
100
AcDbEntity
8
0
62
256
6
ByLayer
370
-2
48
1
60
0
100
AcDbLine
10
-48.24994
20
6
30
0
11
-48.24994
21
29.117532
31
0
39
0
210
0
220
0
230
1
0
LINE
5
154
100
AcDbEntity
8
0
62
256
6
ByLayer
370
-2
48
1
60
0
100
AcDbLine
10
-48.24994
20
9.175
30
0
11
-48.24994
21
12.35
31
0
39
0
210
0
220
0
230
1
0
LINE
5
155
100
AcDbEntity
8
0
62
256
6
ByLayer
370
-2
48
1
60
0
100
AcDbLine
10
-48.24994
20
-9.175
30
0
11
-48.24994
21
-12.35
31
0
39
0
210
0
220
0
230
1
0
SOLID
5
156
100
AcDbEntity
8
0
62
256
6
ByLayer
370
-1
48
1
60
0
100
AcDbTrace
10
-48.779107
20
9.175
30
0
11
-47.720773
21
9.175
31
0
12
-48.24994
22
6
32
0
13
-48.24994
23
6
33
0
39
0
210
0
220
0
230
1
0
SOLID
5
157
100
AcDbEntity
8
0
62
256
6
ByLayer
370
-1
48
1
60
0
100
AcDbTrace
10
-47.720773
20
-9.175
30
0
11
-48.779107
21
-9.175
31
0
12
-48.24994
22
-6
32
0
13
-48.24994
23
-6
33
0
39
0
210
0
220
0
230
1
0
MTEXT
5
158
100
AcDbEntity
8
0
62
256
6
ByLayer
370
18
48
1
60
0
100
AcDbMText
10
-55.556441
20
20.97767
30
0
210
0
220
0
230
1
1
\A1;12
40
3.50012
41
0
44
1
50
90
71
5
72
5
7
iso_b_vert
0
POINT
5
159
100
AcDbEntity
8
Defpoints
62
0
6
ByLayer
370
-1
48
1
60
0
100
AcDbPoint
10
-45
20
6
30
0
39
0
210
0
220
0
230
1
50
360
0
POINT
5
15A
100
AcDbEntity
8
Defpoints
62
0
6
ByLayer
370
-1
48
1
60
0
100
AcDbPoint
10
-45
20
-6
30
0
39
0
210
0
220
0
230
1
50
360
0
POINT
5
15B
100
AcDbEntity
8
Defpoints
62
0
6
ByLayer
370
-1
48
1
60
0
100
AcDbPoint
10
-48.24994
20
-6
30
0
39
0
210
0
220
0
230
1
50
360
0
ENDBLK
5
150
100
AcDbEntity
8
0
100
AcDbBlockEnd
0
BLOCK
5
167
100
AcDbEntity
8
0
100
AcDbBlockBegin
2
_U2
70
0
10
0
20
0
30
0
3
_U2
0
MTEXT
5
15D
100
AcDbEntity
8
SK2
62
256
6
ByLayer
370
18
48
1
60
0
100
AcDbMText
10
-48.939597
20
16.157505
30
0
210
0
220
0
230
1
1
\W0.6864;12.00
40
3.50012
41
0
44
1.084337
50
90
71
7
72
5
7
iso_b_vert
0
LINE
5
15E
100
AcDbEntity
8
SK2
62
256
6
ByLayer
370
13
48
1
60
0
100
AcDbLine
10
-46.5875
20
6
30
0
11
-51.42494
21
6
31
0
39
0
210
0
220
0
230
1
0
LINE
5
15F
100
AcDbEntity
8
SK2
62
256
6
ByLayer
370
13
48
1
60
0
100
AcDbLine
10
-46.5875
20
-6
30
0
11
-51.42494
21
-6
31
0
39
0
210
0
220
0
230
1
0
LINE
5
160
100
AcDbEntity
8
SK2
62
256
6
ByLayer
370
13
48
1
60
0
100
AcDbLine
10
-48.24994
20
-6
30
0
11
-48.24994
21
25.955339
31
0
39
0
210
0
220
0
230
1
0
LINE
5
161
100
AcDbEntity
8
SK2
62
256
6
ByLayer
370
13
48
1
60
0
100
AcDbLine
10
-48.24994
20
6
30
0
11
-47.831943
21
2.825002
31
0
39
0
210
0
220
0
230
1
0
LINE
5
162
100
AcDbEntity
8
SK2
62
256
6
ByLayer
370
13
48
1
60
0
100
AcDbLine
10
-48.24994
20
6
30
0
11
-48.667937
21
2.824998
31
0
39
0
210
0
220
0
230
1
0
LINE
5
163
100
AcDbEntity
8
SK2
62
256
6
ByLayer
370
13
48
1
60
0
100
AcDbLine
10
-47.831943
20
2.825002
30
0
11
-48.667937
21
2.824998
31
0
39
0
210
0
220
0
230
1
0
LINE
5
164
100
AcDbEntity
8
SK2
62
256
6
ByLayer
370
13
48
1
60
0
100
AcDbLine
10
-48.24994
20
-6
30
0
11
-48.667937
21
-2.825002
31
0
39
0
210
0
220
0
230
1
0
LINE
5
165
100
AcDbEntity
8
SK2
62
256
6
ByLayer
370
13
48
1
60
0
100
AcDbLine
10
-48.24994
20
-6
30
0
11
-47.831943
21
-2.824998
31
0
39
0
210
0
220
0
230
1
0
LINE
5
166
100
AcDbEntity
8
SK2
62
256
6
ByLayer
370
13
48
1
60
0
100
AcDbLine
10
-48.667937
20
-2.825002
30
0
11
-47.831943
21
-2.824998
31
0
39
0
210
0
220
0
230
1
0
ENDBLK
5
168
100
AcDbEntity
8
0
100
AcDbBlockEnd
0
BLOCK
5
16D
100
AcDbEntity
8
0
100
AcDbBlockBegin
2
*D8
70
1
10
0
20
0
30
0
3
*D8
0
LINE
5
16F
100
AcDbEntity
8
0
62
256
6
ByLayer
370
-2
48
1
60
0
100
AcDbLine
10
-45
20
-7.5875
30
0
11
-45
21
-32.67512
31
0
39
0
210
0
220
0
230
1
0
LINE
5
170
100
AcDbEntity
8
0
62
256
6
ByLayer
370
-2
48
1
60
0
100
AcDbLine
10
0
20
-7.5875
30
0
11
0
21
-32.67512
31
0
39
0
210
0
220
0
230
1
0
LINE
5
171
100
AcDbEntity
8
0
62
256
6
ByLayer
370
-2
48
1
60
0
100
AcDbLine
10
-41.825
20
-29.50012
30
0
11
-3.175
21
-29.50012
31
0
39
0
210
0
220
0
230
1
0
SOLID
5
172
100
AcDbEntity
8
0
62
256
6
ByLayer
370
-1
48
1
60
0
100
AcDbTrace
10
-41.825
20
-28.970953
30
0
11
-41.825
21
-30.029287
31
0
12
-45
22
-29.50012
32
0
13
-45
23
-29.50012
33
0
39
0
210
0
220
0
230
1
0
SOLID
5
173
100
AcDbEntity
8
0
62
256
6
ByLayer
370
-1
48
1
60
0
100
AcDbTrace
10
-3.175
20
-30.029287
30
0
11
-3.175
21
-28.970953
31
0
12
0
22
-29.50012
32
0
13
0
23
-29.50012
33
0
39
0
210
0
220
0
230
1
0
MTEXT
5
174
100
AcDbEntity
8
0
62
256
6
ByLayer
370
18
48
1
60
0
100
AcDbMText
10
-22.5
20
-22.193619
30
0
210
0
220
0
230
1
1
\A1;45
40
3.50012
41
0
44
1
50
0
71
5
72
5
7
iso_b_vert
0
POINT
5
175
100
AcDbEntity
8
Defpoints
62
0
6
ByLayer
370
-1
48
1
60
0
100
AcDbPoint
10
-45
20
-6
30
0
39
0
210
0
220
0
230
1
50
360
0
POINT
5
176
100
AcDbEntity
8
Defpoints
62
0
6
ByLayer
370
-1
48
1
60
0
100
AcDbPoint
10
0
20
-6
30
0
39
0
210
0
220
0
230
1
50
360
0
POINT
5
177
100
AcDbEntity
8
Defpoints
62
0
6
ByLayer
370
-1
48
1
60
0
100
AcDbPoint
10
0
20
-29.50012
30
0
39
0
210
0
220
0
230
1
50
360
0
ENDBLK
5
16E
100
AcDbEntity
8
0
100
AcDbBlockEnd
0
BLOCK
5
183
100
AcDbEntity
8
0
100
AcDbBlockBegin
2
_U3
70
0
10
0
20
0
30
0
3
_U3
0
MTEXT
5
179
100
AcDbEntity
8
SK2
62
256
6
ByLayer
370
18
48
1
60
0
100
AcDbMText
10
-27.913884
20
-28.467451
30
0
210
0
220
0
230
1
1
\W0.7694;45.00
40
3.50012
41
0
44
1.084337
50
0
71
7
72
5
7
iso_b_vert
0
LINE
5
17A
100
AcDbEntity
8
SK2
62
256
6
ByLayer
370
13
48
1
60
0
100
AcDbLine
10
-45
20
-7.5875
30
0
11
-45
21
-32.67512
31
0
39
0
210
0
220
0
230
1
0
LINE
5
17B
100
AcDbEntity
8
SK2
62
256
6
ByLayer
370
13
48
1
60
0
100
AcDbLine
10
0
20
-7.5875
30
0
11
0
21
-32.67512
31
0
39
0
210
0
220
0
230
1
0
LINE
5
17C
100
AcDbEntity
8
SK2
62
256
6
ByLayer
370
13
48
1
60
0
100
AcDbLine
10
-45
20
-29.50012
30
0
11
0
21
-29.50012
31
0
39
0
210
0
220
0
230
1
0
LINE
5
17D
100
AcDbEntity
8
SK2
62
256
6
ByLayer
370
13
48
1
60
0
100
AcDbLine
10
-45
20
-29.50012
30
0
11
-41.825002
21
-29.082123
31
0
39
0
210
0
220
0
230
1
0
LINE
5
17E
100
AcDbEntity
8
SK2
62
256
6
ByLayer
370
13
48
1
60
0
100
AcDbLine
10
-45
20
-29.50012
30
0
11
-41.824998
21
-29.918117
31
0
39
0
210
0
220
0
230
1
0
LINE
5
17F
100
AcDbEntity
8
SK2
62
256
6
ByLayer
370
13
48
1
60
0
100
AcDbLine
10
-41.825002
20
-29.082123
30
0
11
-41.824998
21
-29.918117
31
0
39
0
210
0
220
0
230
1
0
LINE
5
180
100
AcDbEntity
8
SK2
62
256
6
ByLayer
370
13
48
1
60
0
100
AcDbLine
10
0
20
-29.50012
30
0
11
-3.174998
21
-29.918117
31
0
39
0
210
0
220
0
230
1
0
LINE
5
181
100
AcDbEntity
8
SK2
62
256
6
ByLayer
370
13
48
1
60
0
100
AcDbLine
10
0
20
-29.50012
30
0
11
-3.175002
21
-29.082123
31
0
39
0
210
0
220
0
230
1
0
LINE
5
182
100
AcDbEntity
8
SK2
62
256
6
ByLayer
370
13
48
1
60
0
100
AcDbLine
10
-3.174998
20
-29.918117
30
0
11
-3.175002
21
-29.082123
31
0
39
0
210
0
220
0
230
1
0
ENDBLK
5
184
100
AcDbEntity
8
0
100
AcDbBlockEnd
0
BLOCK
5
189
100
AcDbEntity
8
0
100
AcDbBlockBegin
2
*D10
70
1
10
0
20
0
30
0
3
*D10
0
LINE
5
18B
100
AcDbEntity
8
0
62
256
6
ByLayer
370
-2
48
1
60
0
100
AcDbLine
10
2
20
4.0125
30
0
11
2
21
-23.92482
31
0
39
0
210
0
220
0
230
1
0
LINE
5
18C
100
AcDbEntity
8
0
62
256
6
ByLayer
370
-2
48
1
60
0
100
AcDbLine
10
57
20
-1.5875
30
0
11
57
21
-23.92482
31
0
39
0
210
0
220
0
230
1
0
LINE
5
18D
100
AcDbEntity
8
0
62
256
6
ByLayer
370
-2
48
1
60
0
100
AcDbLine
10
5.175
20
-20.74982
30
0
11
53.825
21
-20.74982
31
0
39
0
210
0
220
0
230
1
0
SOLID
5
18E
100
AcDbEntity
8
0
62
256
6
ByLayer
370
-1
48
1
60
0
100
AcDbTrace
10
5.175
20
-20.220653
30
0
11
5.175
21
-21.278987
31
0
12
2
22
-20.74982
32
0
13
2
23
-20.74982
33
0
39
0
210
0
220
0
230
1
0
SOLID
5
18F
100
AcDbEntity
8
0
62
256
6
ByLayer
370
-1
48
1
60
0
100
AcDbTrace
10
53.825
20
-21.278987
30
0
11
53.825
21
-20.220653
31
0
12
57
22
-20.74982
32
0
13
57
23
-20.74982
33
0
39
0
210
0
220
0
230
1
0
MTEXT
5
190
100
AcDbEntity
8
0
62
256
6
ByLayer
370
18
48
1
60
0
100
AcDbMText
10
29.5
20
-13.44332
30
0
210
0
220
0
230
1
1
\A1;55
40
3.50012
41
0
44
1
50
0
71
5
72
5
7
iso_b_vert
0
POINT
5
191
100
AcDbEntity
8
Defpoints
62
0
6
ByLayer
370
-1
48
1
60
0
100
AcDbPoint
10
2
20
5.6
30
0
39
0
210
0
220
0
230
1
50
360
0
POINT
5
192
100
AcDbEntity
8
Defpoints
62
0
6
ByLayer
370
-1
48
1
60
0
100
AcDbPoint
10
57
20
0
30
0
39
0
210
0
220
0
230
1
50
360
0
POINT
5
193
100
AcDbEntity
8
Defpoints
62
0
6
ByLayer
370
-1
48
1
60
0
100
AcDbPoint
10
57
20
-20.74982
30
0
39
0
210
0
220
0
230
1
50
360
0
ENDBLK
5
18A
100
AcDbEntity
8
0
100
AcDbBlockEnd
0
BLOCK
5
19F
100
AcDbEntity
8
0
100
AcDbBlockBegin
2
_U4
70
0
10
0
20
0
30
0
3
_U4
0
MTEXT
5
195
100
AcDbEntity
8
SK2
62
256
6
ByLayer
370
18
48
1
60
0
100
AcDbMText
10
24.270389
20
-19.717151
30
0
210
0
220
0
230
1
1
\W0.7468;55.00
40
3.50012
41
0
44
1.084337
50
0
71
7
72
5
7
iso_b_vert
0
LINE
5
196
100
AcDbEntity
8
SK2
62
256
6
ByLayer
370
13
48
1
60
0
100
AcDbLine
10
2
20
4.0125
30
0
11
2
21
-23.92482
31
0
39
0
210
0
220
0
230
1
0
LINE
5
197
100
AcDbEntity
8
SK2
62
256
6
ByLayer
370
13
48
1
60
0
100
AcDbLine
10
57
20
-1.5875
30
0
11
57
21
-23.92482
31
0
39
0
210
0
220
0
230
1
0
LINE
5
198
100
AcDbEntity
8
SK2
62
256
6
ByLayer
370
13
48
1
60
0
100
AcDbLine
10
2
20
-20.74982
30
0
11
57
21
-20.74982
31
0
39
0
210
0
220
0
230
1
0
LINE
5
199
100
AcDbEntity
8
SK2
62
256
6
ByLayer
370
13
48
1
60
0
100
AcDbLine
10
2
20
-20.74982
30
0
11
5.174998
21
-20.331823
31
0
39
0
210
0
220
0
230
1
0
LINE
5
19A
100
AcDbEntity
8
SK2
62
256
6
ByLayer
370
13
48
1
60
0
100
AcDbLine
10
2
20
-20.74982
30
0
11
5.175002
21
-21.167817
31
0
39
0
210
0
220
0
230
1
0
LINE
5
19B
100
AcDbEntity
8
SK2
62
256
6
ByLayer
370
13
48
1
60
0
100
AcDbLine
10
5.174998
20
-20.331823
30
0
11
5.175002
21
-21.167817
31
0
39
0
210
0
220
0
230
1
0
LINE
5
19C
100
AcDbEntity
8
SK2
62
256
6
ByLayer
370
13
48
1
60
0
100
AcDbLine
10
57
20
-20.74982
30
0
11
53.825002
21
-21.167817
31
0
39
0
210
0
220
0
230
1
0
LINE
5
19D
100
AcDbEntity
8
SK2
62
256
6
ByLayer
370
13
48
1
60
0
100
AcDbLine
10
57
20
-20.74982
30
0
11
53.824998
21
-20.331823
31
0
39
0
210
0
220
0
230
1
0
LINE
5
19E
100
AcDbEntity
8
SK2
62
256
6
ByLayer
370
13
48
1
60
0
100
AcDbLine
10
53.825002
20
-21.167817
30
0
11
53.824998
21
-20.331823
31
0
39
0
210
0
220
0
230
1
0
ENDBLK
5
1A0
100
AcDbEntity
8
0
100
AcDbBlockEnd
0
BLOCK
5
1A5
100
AcDbEntity
8
0
100
AcDbBlockBegin
2
*D12
70
1
10
0
20
0
30
0
3
*D12
0
LINE
5
1A7
100
AcDbEntity
8
0
62
256
6
ByLayer
370
-2
48
1
60
0
100
AcDbLine
10
24.6
20
-6.6875
30
0
11
24.6
21
-13.32
31
0
39
0
210
0
220
0
230
1
0
LINE
5
1A8
100
AcDbEntity
8
0
62
256
6
ByLayer
370
-2
48
1
60
0
100
AcDbLine
10
57
20
-1.5875
30
0
11
57
21
-13.32
31
0
39
0
210
0
220
0
230
1
0
LINE
5
1A9
100
AcDbEntity
8
0
62
256
6
ByLayer
370
-2
48
1
60
0
100
AcDbLine
10
27.775
20
-12.82
30
0
11
53.825
21
-12.82
31
0
39
0
210
0
220
0
230
1
0
SOLID
5
1AA
100
AcDbEntity
8
0
62
256
6
ByLayer
370
-1
48
1
60
0
100
AcDbTrace
10
27.775
20
-12.290833
30
0
11
27.775
21
-13.349167
31
0
12
24.6
22
-12.82
32
0
13
24.6
23
-12.82
33
0
39
0
210
0
220
0
230
1
0
SOLID
5
1AB
100
AcDbEntity
8
0
62
256
6
ByLayer
370
-1
48
1
60
0
100
AcDbTrace
10
53.825
20
-13.349167
30
0
11
53.825
21
-12.290833
31
0
12
57
22
-12.82
32
0
13
57
23
-12.82
33
0
39
0
210
0
220
0
230
1
0
MTEXT
5
1AC
100
AcDbEntity
8
0
62
256
6
ByLayer
370
18
48
1
60
0
100
AcDbMText
10
40.8
20
-6.975
30
0
210
0
220
0
230
1
1
\A1;32.4
40
2.8
41
0
44
1
50
0
71
5
72
5
7
iso_b_vert
0
POINT
5
1AD
100
AcDbEntity
8
Defpoints
62
0
6
ByLayer
370
-1
48
1
60
0
100
AcDbPoint
10
24.6
20
-5.1
30
0
39
0
210
0
220
0
230
1
50
360
0
POINT
5
1AE
100
AcDbEntity
8
Defpoints
62
0
6
ByLayer
370
-1
48
1
60
0
100
AcDbPoint
10
57
20
0
30
0
39
0
210
0
220
0
230
1
50
360
0
POINT
5
1AF
100
AcDbEntity
8
Defpoints
62
0
6
ByLayer
370
-1
48
1
60
0
100
AcDbPoint
10
57
20
-12.82
30
0
39
0
210
0
220
0
230
1
50
360
0
ENDBLK
5
1A6
100
AcDbEntity
8
0
100
AcDbBlockEnd
0
BLOCK
5
1BB
100
AcDbEntity
8
0
100
AcDbBlockBegin
2
_U5
70
0
10
0
20
0
30
0
3
_U5
0
MTEXT
5
1B1
100
AcDbEntity
8
SK2
62
256
6
ByLayer
370
18
48
1
60
0
100
AcDbMText
10
36.469041
20
-12.973893
30
0
210
0
220
0
230
1
1
\W0.7694;32.40
40
2.8
41
0
44
1.084337
50
0
71
7
72
5
7
iso_b_vert
0
LINE
5
1B2
100
AcDbEntity
8
SK2
62
256
6
ByLayer
370
13
48
1
60
0
100
AcDbLine
10
24.6
20
-6.6875
30
0
11
24.6
21
-13.32
31
0
39
0
210
0
220
0
230
1
0
LINE
5
1B3
100
AcDbEntity
8
SK2
62
256
6
ByLayer
370
13
48
1
60
0
100
AcDbLine
10
57
20
-1.5875
30
0
11
57
21
-13.32
31
0
39
0
210
0
220
0
230
1
0
LINE
5
1B4
100
AcDbEntity
8
SK2
62
256
6
ByLayer
370
13
48
1
60
0
100
AcDbLine
10
24.6
20
-12.82
30
0
11
57
21
-12.82
31
0
39
0
210
0
220
0
230
1
0
LINE
5
1B5
100
AcDbEntity
8
SK2
62
256
6
ByLayer
370
13
48
1
60
0
100
AcDbLine
10
24.6
20
-12.82
30
0
11
27.774998
21
-12.402003
31
0
39
0
210
0
220
0
230
1
0
LINE
5
1B6
100
AcDbEntity
8
SK2
62
256
6
ByLayer
370
13
48
1
60
0
100
AcDbLine
10
24.6
20
-12.82
30
0
11
27.775002
21
-13.237997
31
0
39
0
210
0
220
0
230
1
0
LINE
5
1B7
100
AcDbEntity
8
SK2
62
256
6
ByLayer
370
13
48
1
60
0
100
AcDbLine
10
27.774998
20
-12.402003
30
0
11
27.775002
21
-13.237997
31
0
39
0
210
0
220
0
230
1
0
LINE
5
1B8
100
AcDbEntity
8
SK2
62
256
6
ByLayer
370
13
48
1
60
0
100
AcDbLine
10
57
20
-12.82
30
0
11
53.825002
21
-13.237997
31
0
39
0
210
0
220
0
230
1
0
LINE
5
1B9
100
AcDbEntity
8
SK2
62
256
6
ByLayer
370
13
48
1
60
0
100
AcDbLine
10
57
20
-12.82
30
0
11
53.824998
21
-12.402003
31
0
39
0
210
0
220
0
230
1
0
LINE
5
1BA
100
AcDbEntity
8
SK2
62
256
6
ByLayer
370
13
48
1
60
0
100
AcDbLine
10
53.825002
20
-13.237997
30
0
11
53.824998
21
-12.402003
31
0
39
0
210
0
220
0
230
1
0
ENDBLK
5
1BC
100
AcDbEntity
8
0
100
AcDbBlockEnd
0
BLOCK
5
1C1
100
AcDbEntity
8
0
100
AcDbBlockBegin
2
*D14
70
1
10
0
20
0
30
0
3
*D14
0
LINE
5
1C3
100
AcDbEntity
8
0
62
256
6
ByLayer
370
-2
48
1
60
0
100
AcDbLine
10
-45
20
-1.5875
30
0
11
-45
21
-42.67512
31
0
39
0
210
0
220
0
230
1
0
LINE
5
1C4
100
AcDbEntity
8
0
62
256
6
ByLayer
370
-2
48
1
60
0
100
AcDbLine
10
57
20
-1.5875
30
0
11
57
21
-42.67512
31
0
39
0
210
0
220
0
230
1
0
LINE
5
1C5
100
AcDbEntity
8
0
62
256
6
ByLayer
370
-2
48
1
60
0
100
AcDbLine
10
-41.825
20
-39.50012
30
0
11
53.825
21
-39.50012
31
0
39
0
210
0
220
0
230
1
0
SOLID
5
1C6
100
AcDbEntity
8
0
62
256
6
ByLayer
370
-1
48
1
60
0
100
AcDbTrace
10
-41.825
20
-38.970953
30
0
11
-41.825
21
-40.029287
31
0
12
-45
22
-39.50012
32
0
13
-45
23
-39.50012
33
0
39
0
210
0
220
0
230
1
0
SOLID
5
1C7
100
AcDbEntity
8
0
62
256
6
ByLayer
370
-1
48
1
60
0
100
AcDbTrace
10
53.825
20
-40.029287
30
0
11
53.825
21
-38.970953
31
0
12
57
22
-39.50012
32
0
13
57
23
-39.50012
33
0
39
0
210
0
220
0
230
1
0
MTEXT
5
1C8
100
AcDbEntity
8
0
62
256
6
ByLayer
370
18
48
1
60
0
100
AcDbMText
10
6
20
-32.19362
30
0
210
0
220
0
230
1
1
\A1;102
40
3.50012
41
0
44
1
50
0
71
5
72
5
7
iso_b_vert
0
POINT
5
1C9
100
AcDbEntity
8
Defpoints
62
0
6
ByLayer
370
-1
48
1
60
0
100
AcDbPoint
10
-45
20
0
30
0
39
0
210
0
220
0
230
1
50
360
0
POINT
5
1CA
100
AcDbEntity
8
Defpoints
62
0
6
ByLayer
370
-1
48
1
60
0
100
AcDbPoint
10
57
20
0
30
0
39
0
210
0
220
0
230
1
50
360
0
POINT
5
1CB
100
AcDbEntity
8
Defpoints
62
0
6
ByLayer
370
-1
48
1
60
0
100
AcDbPoint
10
57
20
-39.50012
30
0
39
0
210
0
220
0
230
1
50
360
0
ENDBLK
5
1C2
100
AcDbEntity
8
0
100
AcDbBlockEnd
0
BLOCK
5
1D7
100
AcDbEntity
8
0
100
AcDbBlockBegin
2
_U6
70
0
10
0
20
0
30
0
3
_U6
0
MTEXT
5
1CD
100
AcDbEntity
8
SK2
62
256
6
ByLayer
370
18
48
1
60
0
100
AcDbMText
10
-0.099941
20
-38.467451
30
0
210
0
220
0
230
1
1
\W0.7022;102.00
40
3.50012
41
0
44
1.084337
50
0
71
7
72
5
7
iso_b_vert
0
LINE
5
1CE
100
AcDbEntity
8
SK2
62
256
6
ByLayer
370
13
48
1
60
0
100
AcDbLine
10
-45
20
-1.5875
30
0
11
-45
21
-42.67512
31
0
39
0
210
0
220
0
230
1
0
LINE
5
1CF
100
AcDbEntity
8
SK2
62
256
6
ByLayer
370
13
48
1
60
0
100
AcDbLine
10
57
20
-1.5875
30
0
11
57
21
-42.67512
31
0
39
0
210
0
220
0
230
1
0
LINE
5
1D0
100
AcDbEntity
8
SK2
62
256
6
ByLayer
370
13
48
1
60
0
100
AcDbLine
10
-45
20
-39.50012
30
0
11
57
21
-39.50012
31
0
39
0
210
0
220
0
230
1
0
LINE
5
1D1
100
AcDbEntity
8
SK2
62
256
6
ByLayer
370
13
48
1
60
0
100
AcDbLine
10
-45
20
-39.50012
30
0
11
-41.825002
21
-39.082123
31
0
39
0
210
0
220
0
230
1
0
LINE
5
1D2
100
AcDbEntity
8
SK2
62
256
6
ByLayer
370
13
48
1
60
0
100
AcDbLine
10
-45
20
-39.50012
30
0
11
-41.824998
21
-39.918117
31
0
39
0
210
0
220
0
230
1
0
LINE
5
1D3
100
AcDbEntity
8
SK2
62
256
6
ByLayer
370
13
48
1
60
0
100
AcDbLine
10
-41.825002
20
-39.082123
30
0
11
-41.824998
21
-39.918117
31
0
39
0
210
0
220
0
230
1
0
LINE
5
1D4
100
AcDbEntity
8
SK2
62
256
6
ByLayer
370
13
48
1
60
0
100
AcDbLine
10
57
20
-39.50012
30
0
11
53.825002
21
-39.918117
31
0
39
0
210
0
220
0
230
1
0
LINE
5
1D5
100
AcDbEntity
8
SK2
62
256
6
ByLayer
370
13
48
1
60
0
100
AcDbLine
10
57
20
-39.50012
30
0
11
53.824998
21
-39.082123
31
0
39
0
210
0
220
0
230
1
0
LINE
5
1D6
100
AcDbEntity
8
SK2
62
256
6
ByLayer
370
13
48
1
60
0
100
AcDbLine
10
53.825002
20
-39.918117
30
0
11
53.824998
21
-39.082123
31
0
39
0
210
0
220
0
230
1
0
ENDBLK
5
1D8
100
AcDbEntity
8
0
100
AcDbBlockEnd
0
ENDSEC
0
SECTION
2
ENTITIES
0
ARC
5
B3
100
AcDbEntity
8
1
62
256
6
ByLayer
370
18
48
1
60
0
100
AcDbCircle
39
0
10
1.454597
20
5.866443
30
0
40
0.8
210
0
220
0
230
1
100
AcDbArc
50
204.615523
51
270.03581
0
ARC
5
B4
100
AcDbEntity
8
1
62
256
6
ByLayer
370
18
48
1
60
0
100
AcDbCircle
39
0
10
1.454597
20
-5.866443
30
0
40
0.8
210
0
220
0
230
1
100
AcDbArc
50
89.96419
51
155.384477
0
ARC
5
B5
100
AcDbEntity
8
1
62
256
6
ByLayer
370
18
48
1
60
0
100
AcDbCircle
39
0
10
0
20
5.2
30
0
40
0.800000000000001
210
0
220
0
230
1
100
AcDbArc
50
24.615523
51
90
0
ARC
5
B6
100
AcDbEntity
8
1
62
256
6
ByLayer
370
18
48
1
60
0
100
AcDbCircle
39
0
10
0
20
-5.2
30
0
40
0.800000000000001
210
0
220
0
230
1
100
AcDbArc
50
270
51
335.384477
0
ARC
5
B7
100
AcDbEntity
8
SK2
62
256
6
ByLayer
370
13
48
1
60
0
100
AcDbCircle
39
0
10
57
20
0
30
0
40
20
210
0
220
0
230
1
100
AcDbArc
50
9.606349
51
70.000478
0
ARC
5
B8
100
AcDbEntity
8
SK2
62
256
6
ByLayer
370
13
48
1
60
0
100
AcDbCircle
39
0
10
57
20
0
30
0
40
20
210
0
220
0
230
1
100
AcDbArc
50
289.999522
51
350.393651
0
ELLIPSE
5
B9
100
AcDbEntity
8
1
62
256
6
ByLayer
370
18
48
1
60
0
100
AcDbEllipse
10
3.601641
20
4.913162
30
0
11
-0.1
21
1.22460635382238E-17
31
0
210
0
220
0
230
1
40
1
41
0.000924924758267596
42
1.59619987751079
0
POINT
5
70
100
AcDbEntity
8
80
62
256
6
ByLayer
370
18
48
1
60
0
100
AcDbPoint
10
0
20
0
30
0
39
0
210
0
220
0
230
1
50
360
0
POINT
5
72
100
AcDbEntity
8
81
62
256
6
ByLayer
370
18
48
1
60
0
100
AcDbPoint
10
57
20
0
30
0
39
0
210
0
220
0
230
1
50
360
0
POINT
5
74
100
AcDbEntity
8
1
62
256
6
ByLayer
370
18
48
1
60
0
100
AcDbPoint
10
-45
20
0
30
0
39
0
210
0
220
0
230
1
50
360
0
POINT
5
76
100
AcDbEntity
8
1
62
256
6
ByLayer
370
18
48
1
60
1
100
AcDbPoint
10
0
20
-6
30
0
39
0
210
0
220
0
230
1
50
360
0
POINT
5
77
100
AcDbEntity
8
1
62
256
6
ByLayer
370
18
48
1
60
1
100
AcDbPoint
10
57
20
0
30
0
39
0
210
0
220
0
230
1
50
360
0
POINT
5
78
100
AcDbEntity
8
1
62
256
6
ByLayer
370
18
48
1
60
1
100
AcDbPoint
10
55.1438
20
-5.1
30
0
39
0
210
0
220
0
230
1
50
360
0
POINT
5
79
100
AcDbEntity
8
1
62
256
6
ByLayer
370
18
48
1
60
1
100
AcDbPoint
10
55.1438
20
5.1
30
0
39
0
210
0
220
0
230
1
50
360
0
POINT
5
7A
100
AcDbEntity
8
1
62
256
6
ByLayer
370
18
48
1
60
1
100
AcDbPoint
10
-45
20
6
30
0
39
0
210
0
220
0
230
1
50
360
0
POINT
5
7B
100
AcDbEntity
8
1
62
256
6
ByLayer
370
18
48
1
60
1
100
AcDbPoint
10
-45
20
-6
30
0
39
0
210
0
220
0
230
1
50
360
0
POINT
5
7C
100
AcDbEntity
8
1
62
256
6
ByLayer
370
18
48
1
60
1
100
AcDbPoint
10
-45
20
-6
30
0
39
0
210
0
220
0
230
1
50
360
0
POINT
5
7D
100
AcDbEntity
8
1
62
256
6
ByLayer
370
18
48
1
60
1
100
AcDbPoint
10
0
20
-6
30
0
39
0
210
0
220
0
230
1
50
360
0
POINT
5
7E
100
AcDbEntity
8
1
62
256
6
ByLayer
370
18
48
1
60
1
100
AcDbPoint
10
2
20
5.6
30
0
39
0
210
0
220
0
230
1
50
360
0
POINT
5
7F
100
AcDbEntity
8
1
62
256
6
ByLayer
370
18
48
1
60
1
100
AcDbPoint
10
57
20
0
30
0
39
0
210
0
220
0
230
1
50
360
0
POINT
5
80
100
AcDbEntity
8
1
62
256
6
ByLayer
370
18
48
1
60
1
100
AcDbPoint
10
24.6
20
-5.1
30
0
39
0
210
0
220
0
230
1
50
360
0
POINT
5
81
100
AcDbEntity
8
1
62
256
6
ByLayer
370
18
48
1
60
1
100
AcDbPoint
10
57
20
0
30
0
39
0
210
0
220
0
230
1
50
360
0
POINT
5
82
100
AcDbEntity
8
1
62
256
6
ByLayer
370
18
48
1
60
1
100
AcDbPoint
10
-45
20
0
30
0
39
0
210
0
220
0
230
1
50
360
0
POINT
5
83
100
AcDbEntity
8
1
62
256
6
ByLayer
370
18
48
1
60
1
100
AcDbPoint
10
57
20
0
30
0
39
0
210
0
220
0
230
1
50
360
0
SPLINE
5
BA
100
AcDbEntity
8
SK1
62
256
6
ByLayer
370
18
48
1
60
0
100
AcDbSpline
70
4
71
3
72
12
73
8
40
0
40
0
40
0
40
0
40
0.250000000000001
40
0.250000000000001
40
0.500000000000003
40
0.500000000000003
40
1
40
1
40
1
40
1
41
1
10
-44.15
20
-1.4148690432188
30
1E-16
41
1
10
-44.15
20
-1.39867337967417
30
1E-16
41
1
10
-44.1541964903379
20
-1.38166221894178
30
1E-16
41
1
10
-44.1670510016405
20
-1.35076620610218
30
1E-16
41
1
10
-44.1755314964661
20
-1.33689286691987
30
1E-16
41
1
10
-44.2039103264456
20
-1.30022190266098
30
1E-16
41
1
10
-44.2265803533262
20
-1.28225916396036
30
1E-16
41
1
10
-44.25
20
-1.27168979126105
30
1E-16
0
SPLINE
5
BB
100
AcDbEntity
8
SK1
62
256
6
ByLayer
370
18
48
1
60
0
100
AcDbSpline
70
4
71
3
72
10
73
6
40
0
40
0
40
0
40
0
40
0.5
40
0.5
40
1
40
1
40
1
40
1
41
1
10
-45.0000000000001
20
-0.269256089366905
30
0
41
1
10
-44.892418923189
20
-0.402534722211669
30
0
41
1
10
-44.7890116623726
20
-0.54476002612904
30
0
41
1
10
-44.5927829535177
20
-0.852532557236373
30
1E-16
41
1
10
-44.4993017440334
20
-1.01952268916668
30
1E-16
41
1
10
-44.4179491924311
20
-1.19583890903934
30
1E-16
0
SPLINE
5
BC
100
AcDbEntity
8
SK1
62
256
6
ByLayer
370
18
48
1
60
0
100
AcDbSpline
70
4
71
3
72
12
73
8
40
0
40
0
40
0
40
0
40
0.5
40
0.5
40
0.75
40
0.75
40
1
40
1
40
1
40
1
41
1
10
-44.25
20
-3.06551890280858
30
2E-16
41
1
10
-44.2265754814923
20
-3.07609047418441
30
2E-16
41
1
10
-44.2038494963527
20
-3.07996648129588
30
2E-16
41
1
10
-44.1756806214309
20
-3.07317692283081
30
2E-16
41
1
10
-44.1670810890644
20
-3.06865768660023
30
2E-16
41
1
10
-44.1542487488419
20
-3.0536803805542
30
2E-16
41
1
10
-44.15
20
-3.04285879647745
30
2E-16
41
1
10
-44.15
20
-3.02931524361151
30
2E-16
0
SPLINE
5
BD
100
AcDbEntity
8
SK1
62
256
6
ByLayer
370
18
48
1
60
0
100
AcDbSpline
70
4
71
3
72
12
73
8
40
0
40
0
40
0
40
0
40
0.25
40
0.25
40
0.5
40
0.5
40
1
40
1
40
1
40
1
41
1
10
-44.4179491924311
20
-2.98966802058678
30
2E-16
41
1
10
-44.4585118025587
20
-3.02778441732789
30
2E-16
41
1
10
-44.5017617157541
20
-3.05966452666314
30
2E-16
41
1
10
-44.5926945369118
20
-3.11320551066203
30
2E-16
41
1
10
-44.6405857309337
20
-3.13491058258566
30
2E-16
41
1
10
-44.7885787506849
20
-3.18617932073991
30
2E-16
41
1
10
-44.8923167485562
20
-3.20215907691477
30
2E-16
41
1
10
-45.0000000000001
20
-3.2045108934756
30
2E-16
0
SPLINE
5
BE
100
AcDbEntity
8
SK1
62
256
6
ByLayer
370
18
48
1
60
0
100
AcDbSpline
70
4
71
3
72
8
73
4
40
0
40
0
40
0
40
0
40
1
40
1
40
1
40
1
41
1
10
-44.25
20
-1.27168979126108
30
1E-16
41
1
10
-44.3060037828655
20
-1.24641507802912
30
1E-16
41
1
10
-44.3619875817825
20
-1.22113176675612
30
1E-16
41
1
10
-44.4179491924311
20
-1.19583890903931
30
1E-16
0
SPLINE
5
BF
100
AcDbEntity
8
SK1
62
256
6
ByLayer
370
18
48
1
60
0
100
AcDbSpline
70
4
71
3
72
8
73
4
40
0
40
0
40
0
40
0
40
1
40
1
40
1
40
1
41
1
10
-44.4179491924311
20
-2.98966802058675
30
2E-16
41
1
10
-44.3619874086689
20
-3.01496095654537
30
2E-16
41
1
10
-44.306003615556
20
-3.04024426508394
30
2E-16
41
1
10
-44.25
20
-3.06551890280852
30
2E-16
0
SPLINE
5
C0
100
AcDbEntity
8
1
62
256
6
ByLayer
370
18
48
1
60
0
100
AcDbSpline
70
4
71
3
72
8
73
4
40
0
40
0
40
0
40
0
40
1
40
1
40
1
40
1
41
1
10
56.5489330777939
20
1.58290529701824
30
0
41
1
10
56.7018404293088
20
1.15060015996877
30
0
41
1
10
56.8506489583969
20
0.716828325203721
30
0
41
1
10
56.9952969534264
20
0.281567710207554
30
0
0
SPLINE
5
C1
100
AcDbEntity
8
1
62
256
6
ByLayer
370
18
48
1
60
0
100
AcDbSpline
70
4
71
3
72
22
73
18
40
0
40
0
40
0
40
0
40
0.124999999999996
40
0.124999999999996
40
0.249999999999993
40
0.249999999999993
40
0.37499999999999
40
0.37499999999999
40
0.499999999999986
40
0.499999999999986
40
0.562499999999987
40
0.562499999999987
40
0.624999999999987
40
0.624999999999987
40
0.749999999999991
40
0.749999999999991
40
1
40
1
40
1
40
1
41
1
10
56.5489330777939
20
-1.58290529701827
30
0
41
1
10
56.4788708065726
20
-1.69688950313417
30
0
41
1
10
56.4109693447718
20
-1.81680453279742
30
0
41
1
10
56.2790586665295
20
-2.06955208979693
30
0
41
1
10
56.2163203170119
20
-2.20001126305175
30
0
41
1
10
56.096946680996
20
-2.46663232008712
30
0
41
1
10
56.0401484006482
20
-2.60310011264568
30
0
41
1
10
55.9309026668727
20
-2.88186028804589
30
0
41
1
10
55.8782270892607
20
-3.02483993316008
30
0
41
1
10
55.8021289590243
20
-3.24055533215278
30
0
41
1
10
55.7771152007285
20
-3.31252572520558
30
0
41
1
10
55.7269583372703
20
-3.45642369681713
30
0
41
1
10
55.7019313853611
20
-3.5283774215593
30
0
41
1
10
55.6269651221585
20
-3.74420664379875
30
0
41
1
10
55.5771608073464
20
-3.88800111939671
30
0
41
1
10
55.4278003298591
20
-4.31889343657375
30
0
41
1
10
55.3284532551816
20
-4.6051413159031
30
0
41
1
10
55.2278475097687
20
-4.88938761554616
30
0
0
SPLINE
5
C2
100
AcDbEntity
8
1
62
256
6
ByLayer
370
18
48
1
60
0
100
AcDbSpline
70
4
71
3
72
16
73
12
40
0
40
0
40
0
40
0
40
0.132978547218813
40
0.132978547218813
40
0.265957094437627
40
0.265957094437627
40
0.531914188875255
40
0.531914188875255
40
0.797871283312882
40
0.797871283312882
40
1
40
1
40
1
40
1
41
1
10
55.2196325559432
20
4.89491651722008
30
0
41
1
10
54.8782667547451
20
4.89724740205298
30
0
41
1
10
54.5368645629796
20
4.8916397803923
30
0
41
1
10
53.8535222721958
20
4.86480995573592
30
0
41
1
10
53.5113617136173
20
4.84356316083986
30
0
41
1
10
52.4852223959398
20
4.75592969227719
30
-1E-16
41
1
10
51.8012463432359
20
4.66572480553376
30
-1E-16
41
1
10
50.4327147945275
20
4.42630251020483
30
2E-16
41
1
10
49.7480513559431
20
4.27688170559841
30
2E-16
41
1
10
48.5460096189118
20
3.96807999222745
30
2E-16
41
1
10
48.0273716524853
20
3.81942985969442
30
2E-16
41
1
10
47.508185611145
20
3.65682550082531
30
1E-16
0
SPLINE
5
C3
100
AcDbEntity
8
1
62
256
6
ByLayer
370
18
48
1
60
0
100
AcDbSpline
70
4
71
3
72
8
73
4
40
0
40
0
40
0
40
0
40
1
40
1
40
1
40
1
41
1
10
56.548933077794
20
-1.58290529701824
30
0
41
1
10
56.7018404293125
20
-1.15060015995832
30
0
41
1
10
56.8506489584042
20
-0.716828325182718
30
0
41
1
10
56.9952969534369
20
-0.281567710175949
30
0
0
SPLINE
5
C4
100
AcDbEntity
8
1
62
256
6
ByLayer
370
18
48
1
60
0
100
AcDbSpline
70
4
71
3
72
8
73
4
40
0
40
0
40
0
40
0
40
1
40
1
40
1
40
1
41
1
10
3.64574461106795
20
4.99715418003319
30
0
41
1
10
3.64530841931551
20
4.93578912923184
30
0
41
1
10
3.64486755728134
20
4.87442503134412
30
0
41
1
10
3.644422037661
20
4.81306193102978
30
0
0
SPLINE
5
C5
100
AcDbEntity
8
1
62
256
6
ByLayer
370
18
48
1
60
0
100
AcDbSpline
70
4
71
3
72
10
73
6
40
0
40
0
40
0
40
0
40
0.500000000000002
40
0.500000000000002
40
1
40
1
40
1
40
1
41
1
10
3.55780649531704
20
1.91698391461725
30
-1E-16
41
1
10
3.54092541609904
20
1.92460094388491
30
-1E-16
41
1
10
3.52670638084635
20
1.93651632559894
30
-1E-16
41
1
10
3.50703636640844
20
1.96552139785646
30
-1E-16
41
1
10
3.50164060570342
20
1.98261413000796
30
-1E-16
41
1
10
3.50164060570342
20
1.99987143348542
30
-1E-16
0
SPLINE
5
C6
100
AcDbEntity
8
1
62
256
6
ByLayer
370
18
48
1
60
0
100
AcDbSpline
70
4
71
3
72
8
73
4
40
0
40
0
40
0
40
0
40
1
40
1
40
1
40
1
41
1
10
22.3999997632587
20
-5.07947195511562
30
0
41
1
10
22.417282985157
20
-5.07952453403155
30
0
41
1
10
22.4345659484568
20
-5.07955600048797
30
0
41
1
10
22.4518486644189
20
-5.07956636326733
30
0
0
SPLINE
5
C7
100
AcDbEntity
8
1
62
256
6
ByLayer
370
18
48
1
60
0
100
AcDbSpline
70
4
71
3
72
14
73
10
40
0
40
0
40
0
40
0
40
0.199367145387756
40
0.199367145387756
40
0.466244763591838
40
0.466244763591838
40
0.733122381795919
40
0.733122381795919
40
1
40
1
40
1
40
1
41
1
10
47.3002183928721
20
3.72499035479757
30
1E-16
41
1
10
47.8061156486788
20
3.89440794125247
30
2E-16
41
1
10
48.3120730419846
20
4.05061910118238
30
2E-16
41
1
10
49.4951213525732
20
4.38102542863845
30
2E-16
41
1
10
50.1722159877766
20
4.54344811608263
30
2E-16
41
1
10
51.5262080119697
20
4.80859492298873
30
-1E-16
41
1
10
52.2032494745649
20
4.91132989600314
30
-1E-16
41
1
10
53.5577900265627
20
5.05323622980364
30
0
41
1
10
54.2349791217184
20
5.09238896542442
30
0
41
1
10
54.9120573436832
20
5.09897637872544
30
0
0
SPLINE
5
C8
100
AcDbEntity
8
1
62
256
6
ByLayer
370
18
48
1
60
0
100
AcDbSpline
70
4
71
3
72
24
73
20
40
0
40
0
40
0
40
0
40
0.0539403516682531
40
0.0539403516682531
40
0.107880703336506
40
0.107880703336506
40
0.215761406673013
40
0.215761406673013
40
0.431522813346025
40
0.431522813346025
40
0.53940351668253
40
0.53940351668253
40
0.593343868350782
40
0.593343868350782
40
0.647284220019035
40
0.647284220019035
40
0.863045626692047
40
0.863045626692047
40
1
40
1
40
1
40
1
41
1
10
55.1795311781067
20
-4.81198418784305
30
0
41
1
10
54.9091644537951
20
-4.79471134818004
30
0
41
1
10
54.6387358039986
20
-4.77338263222811
30
0
41
1
10
54.0979959326325
20
-4.72015809403467
30
1E-16
41
1
10
53.8283371669463
20
-4.68876387450328
30
1E-16
41
1
10
53.0210659504237
20
-4.58072313130936
30
1E-16
41
1
10
52.4851570261415
20
-4.49021868854828
30
1E-16
41
1
10
50.8809749116066
20
-4.16740875021293
30
-2E-16
41
1
10
49.8161965254489
20
-3.88375340260615
30
-2E-16
41
1
10
48.2127068022689
20
-3.37144240417564
30
2E-16
41
1
10
47.6771791360495
20
-3.18636868126231
30
2E-16
41
1
10
46.8705772627754
20
-2.88966815287637
30
2E-16
41
1
10
46.6011610830646
20
-2.78755541470491
30
2E-16
41
1
10
46.0609504655113
20
-2.57735369840569
30
2E-16
41
1
10
45.7903014766205
20
-2.46931289396619
30
2E-16
41
1
10
44.4425682898707
20
-1.91943262735393
30
1E-16
41
1
10
43.3742610115421
20
-1.44584244260517
30
1E-16
41
1
10
41.6294059614424
20
-0.647957998453961
30
0
41
1
10
40.9523115590589
20
-0.332243233172619
30
0
41
1
10
40.2733374592408
20
-0.0156520472457373
30
0
0
SPLINE
5
C9
100
AcDbEntity
8
1
62
256
6
ByLayer
370
18
48
1
60
0
100
AcDbSpline
70
4
71
3
72
16
73
12
40
0
40
0
40
0
40
0
40
0.226104373099786
40
0.226104373099786
40
0.454462216828362
40
0.454462216828362
40
0.651813724319308
40
0.651813724319308
40
0.826263939724229
40
0.826263939724229
40
1
40
1
40
1
40
1
41
1
10
55.1821226036085
20
-4.80076467331867
30
0
41
1
10
55.1822022395332
20
-4.80092999986456
30
0
41
1
10
55.1822259383606
20
-4.80127427328878
30
0
41
1
10
55.1821362510413
20
-4.80233211005097
30
0
41
1
10
55.1820188609442
20
-4.80306966400246
30
0
41
1
10
55.1816670055608
20
-4.80473559250811
30
0
41
1
10
55.1814446312689
20
-4.80565079497018
30
0
41
1
10
55.1809528040449
20
-4.80747470401479
30
0
41
1
10
55.180685472842
20
-4.80839551173085
30
0
41
1
10
55.180126118544
20
-4.81020778941621
30
0
41
1
10
55.1798276202464
20
-4.81112118995949
30
0
41
1
10
55.1795311781074
20
-4.81198418784308
30
0
0
SPLINE
5
CA
100
AcDbEntity
8
1
62
256
6
ByLayer
370
18
48
1
60
0
100
AcDbSpline
70
4
71
3
72
32
73
28
40
0
40
0
40
0
40
0
40
0.125
40
0.125
40
0.1875
40
0.1875
40
0.25
40
0.25
40
0.3125
40
0.3125
40
0.375
40
0.375
40
0.4375
40
0.4375
40
0.5
40
0.5
40
0.5625
40
0.5625
40
0.625
40
0.625
40
0.6875
40
0.6875
40
0.75
40
0.75
40
0.875
40
0.875
40
1
40
1
40
1
40
1
41
1
10
56.9288801631245
20
0.0613954924631059
30
0
41
1
10
56.9041929105866
20
-0.0200018304161631
30
0
41
1
10
56.8758098625663
20
-0.0995382302822065
30
0
41
1
10
56.8274828860554
20
-0.215850802214959
30
0
41
1
10
56.8102537027577
20
-0.254419192694371
30
0
41
1
10
56.7746486828301
20
-0.328475384467538
30
0
41
1
10
56.7562641203996
20
-0.364041261543946
30
0
41
1
10
56.7183578044382
20
-0.432157737153574
30
0
41
1
10
56.6988368316241
20
-0.464710315324396
30
0
41
1
10
56.658599346758
20
-0.52653320335574
30
0
41
1
10
56.6379301945553
20
-0.555663332283075
30
0
41
1
10
56.5970618114994
20
-0.60808250902835
30
0
41
1
10
56.5766558160388
20
-0.631702690597365
30
0
41
1
10
56.5358730593586
20
-0.673656802043979
30
0
41
1
10
56.5153104404269
20
-0.692105663014218
30
0
41
1
10
56.4755073035227
20
-0.722357159167672
30
0
41
1
10
56.4561711036268
20
-0.734310613524428
30
0
41
1
10
56.418481130835
20
-0.752121371290201
30
0
41
1
10
56.3999901558843
20
-0.757980346620826
30
0
41
1
10
56.3647468997888
20
-0.763461544928532
30
0
41
1
10
56.3479568170514
20
-0.763155725861992
30
0
41
1
10
56.3157753482576
20
-0.756926402679284
30
0
41
1
10
56.300292849438
20
-0.750937947133735
30
0
41
1
10
56.2563916759192
20
-0.725320056866934
30
0
41
1
10
56.2306187235412
20
-0.698437694531009
30
0
41
1
10
56.183961312933
20
-0.6285469912753
30
0
41
1
10
56.1631473246064
20
-0.585368609397506
30
0
41
1
10
56.1447427459008
20
-0.536239687027432
30
0
0
SPLINE
5
CB
100
AcDbEntity
8
1
62
256
6
ByLayer
370
18
48
1
60
0
100
AcDbSpline
70
4
71
3
72
8
73
4
40
0
40
0
40
0
40
0
40
1
40
1
40
1
40
1
41
1
10
22.4
20
5.07927306731514
30
0
41
1
10
22.4
20
5.01829119188511
30
0
41
1
10
22.4
20
4.95700360298042
30
0
41
1
10
22.4
20
4.8954153930888
30
0
0
SPLINE
5
CC
100
AcDbEntity
8
1
62
256
6
ByLayer
370
18
48
1
60
0
100
AcDbSpline
70
4
71
3
72
8
73
4
40
0
40
0
40
0
40
0
40
1
40
1
40
1
40
1
41
1
10
56.9952969534364
20
0.281567710204456
30
0
41
1
10
56.9732678280555
20
0.20814292908625
30
0
41
1
10
56.9511287616373
20
0.134752232099515
30
0
41
1
10
56.9288801631245
20
0.0613954924631059
30
0
0
SPLINE
5
CD
100
AcDbEntity
8
1
62
256
6
ByLayer
370
18
48
1
60
0
100
AcDbSpline
70
4
71
3
72
38
73
34
40
0
40
0
40
0
40
0
40
0.037311197738701
40
0.037311197738701
40
0.0866646688275331
40
0.0866646688275331
40
0.185371611005197
40
0.185371611005197
40
0.234725082094029
40
0.234725082094029
40
0.284078553182861
40
0.284078553182861
40
0.333432024271692
40
0.333432024271692
40
0.382785495360524
40
0.382785495360524
40
0.432138966449356
40
0.432138966449356
40
0.481492437538187
40
0.481492437538187
40
0.580199379715851
40
0.580199379715851
40
0.629552850804682
40
0.629552850804682
40
0.678906321893514
40
0.678906321893514
40
0.777613264071176
40
0.777613264071176
40
0.826966735160007
40
0.826966735160007
40
0.876320206248839
40
0.876320206248839
40
1
40
1
40
1
40
1
41
1
10
5.43682433819262
20
4.82560700997959
30
0
41
1
10
5.63766575238785
20
4.82501858452011
30
0
41
1
10
5.8383697129604
20
4.82173936856313
30
0
41
1
10
6.30424420843272
20
4.80828861907193
30
0
41
1
10
6.56933206218378
20
4.79618642934685
30
0
41
1
10
7.36477930827064
20
4.74535982846604
30
0
41
1
10
7.89521771754272
20
4.69236961465475
30
-1E-16
41
1
10
8.6925582859003
20
4.58554109444916
30
-1E-16
41
1
10
8.95863676892631
20
4.5453285969725
30
-1E-16
41
1
10
9.49128916640186
20
4.45638603836545
30
-1E-16
41
1
10
9.75785452649666
20
4.40767675717308
30
0
41
1
10
10.2923829070554
20
4.30095592588734
30
2E-16
41
1
10
10.559742747363
20
4.24303156476256
30
2E-16
41
1
10
11.0926215371019
20
4.11921471540734
30
2E-16
41
1
10
11.3584803776395
20
4.05325593130772
30
2E-16
41
1
10
11.8892531946059
20
3.91392805669813
30
2E-16
41
1
10
12.154169994937
20
3.84055996665603
30
2E-16
41
1
10
12.6830929387989
20
3.6869370276726
30
2E-16
41
1
10
12.9470837200259
20
3.60670089353024
30
-2E-16
41
1
10
13.738823004101
20
3.35562966305045
30
-2E-16
41
1
10
14.2664177466383
20
3.17432071327548
30
-2E-16
41
1
10
15.0579037270832
20
2.88518719943764
30
-2E-16
41
1
10
15.3217502631137
20
2.78596054826323
30
-2E-16
41
1
10
15.8494728358931
20
2.58208144211329
30
-2E-16
41
1
10
16.113301915242
20
2.47742012190014
30
-2E-16
41
1
10
16.9063979545104
20
2.15617840475943
30
-1E-16
41
1
10
17.4374823838553
20
1.93238093785715
30
-1E-16
41
1
10
18.2372851892767
20
1.58509970762194
30
-1E-16
41
1
10
18.5048111003802
20
1.46723888054257
30
-1E-16
41
1
10
19.0389874614205
20
1.22853925114433
30
-1E-16
41
1
10
19.3052791693383
20
1.10783097854315
30
-1E-16
41
1
10
20.2372926404889
20
0.683120191254602
30
0
41
1
10
20.9003005621048
20
0.375809125086164
30
0
41
1
10
21.561938821984
20
0.0685568767046334
30
0
0
SPLINE
5
CE
100
AcDbEntity
8
1
62
256
6
ByLayer
370
18
48
1
60
0
100
AcDbSpline
70
4
71
3
72
64
73
60
40
0
40
0
40
0
40
0
40
0.125000000000025
40
0.125000000000025
40
0.25000000000005
40
0.25000000000005
40
0.257812500000051
40
0.257812500000051
40
0.261718750000051
40
0.261718750000051
40
0.265625000000051
40
0.265625000000051
40
0.267578125000051
40
0.267578125000051
40
0.269531250000051
40
0.269531250000051
40
0.273437500000052
40
0.281250000000052
40
0.281250000000052
40
0.312500000000051
40
0.312500000000051
40
0.375000000000048
40
0.375000000000048
40
0.437500000000046
40
0.437500000000046
40
0.468750000000044
40
0.468750000000044
40
0.484375000000043
40
0.484375000000043
40
0.500000000000042
40
0.500000000000042
40
0.531250000000041
40
0.531250000000041
40
0.54687500000004
40
0.54687500000004
40
0.562500000000039
40
0.578125000000038
40
0.578125000000038
40
0.593750000000037
40
0.593750000000037
40
0.625000000000035
40
0.625000000000035
40
0.640625000000034
40
0.640625000000034
40
0.656250000000032
40
0.656250000000032
40
0.687500000000029
40
0.687500000000029
40
0.718750000000026
40
0.718750000000026
40
0.750000000000023
40
0.750000000000023
40
0.812500000000017
40
0.812500000000017
40
0.843750000000014
40
0.843750000000014
40
0.875000000000012
40
0.875000000000012
40
1
40
1
40
1
40
1
41
1
10
8.7830580602261
20
-1.35338087559711
30
1E-16
41
1
10
8.19899377107686
20
-1.07827550596264
30
1E-16
41
1
10
7.60714472011705
20
-0.81612631382842
30
0
41
1
10
6.39942304363589
20
-0.340647661848038
30
0
41
1
10
5.78423915070533
20
-0.127757391379305
30
0
41
1
10
5.120557689322
20
0.0635934883204641
30
0
41
1
10
5.08148099829907
20
0.074723206211246
30
0
41
1
10
5.02281391916045
20
0.0912260816774619
30
0
41
1
10
5.00344297472435
20
0.0974248512753206
30
0
41
1
10
4.96352968266064
20
0.105396344052593
30
0
41
1
10
4.94304174006652
20
0.106381808462089
30
0
41
1
10
4.91293657020276
20
0.101788190009614
30
0
41
1
10
4.90323044773052
20
0.0990746710215831
30
0
41
1
10
4.88455498523967
20
0.0909991453023338
30
0
41
1
10
4.87584696089749
20
0.0854490151729408
30
0
41
1
10
4.84944495199505
20
0.0697796621577425
30
0
41
1
10
4.79670551189958
20
0.0383304088061891
30
0
41
1
10
4.74416768814464
20
0.0065470930846061
30
0
41
1
10
4.56950457520924
20
-0.100164497004357
30
0
41
1
10
4.43135168413886
20
-0.18791905340359
30
0
41
1
10
4.02242070229019
20
-0.459363119876514
30
0
41
1
10
3.75786253581671
20
-0.650618638281287
30
0
41
1
10
3.25594122010719
20
-1.05766392804102
30
1E-16
41
1
10
3.01766915226307
20
-1.27355478904093
30
1E-16
41
1
10
2.69083980646317
20
-1.62682419719209
30
1E-16
41
1
10
2.58883825731442
20
-1.74774683795826
30
1E-16
41
1
10
2.44904246746091
20
-1.93476069811734
30
1E-16
41
1
10
2.40464684234883
20
-1.99805180961349
30
1E-16
41
1
10
2.32089533888654
20
-2.12679956654114
30
1E-16
41
1
10
2.28137513172456
20
-2.19257250896146
30
1E-16
41
1
10
2.17313137567493
20
-2.39077870135122
30
1E-16
41
1
10
2.11451165176436
20
-2.52405334401624
30
2E-16
41
1
10
2.05101635865921
20
-2.7258988010289
30
2E-16
41
1
10
2.03386618537752
20
-2.79400232841064
30
2E-16
41
1
10
2.00917594762905
20
-2.92823185643212
30
2E-16
41
1
10
1.99401704028628
20
-3.06008401587789
30
2E-16
41
1
10
1.99772788759515
20
-3.18720076351468
30
2E-16
41
1
10
2.01086266895163
20
-3.31194313004951
30
2E-16
41
1
10
2.02223523478165
20
-3.37345150818382
30
2E-16
41
1
10
2.06994700248728
20
-3.55208080203883
30
2E-16
41
1
10
2.11902167895255
20
-3.66152976885411
30
-2E-16
41
1
10
2.21393331675267
20
-3.81383308426888
30
-2E-16
41
1
10
2.24930485891153
20
-3.86276377780518
30
-2E-16
41
1
10
2.32522427552874
20
-3.95535650223744
30
-2E-16
41
1
10
2.3658700564323
20
-3.99922846762411
30
-2E-16
41
1
10
2.49478842937069
20
-4.12456252246199
30
-2E-16
41
1
10
2.58998966802127
20
-4.1997901107413
30
-2E-16
41
1
10
2.79502321833456
20
-4.33719367796539
30
-2E-16
41
1
10
2.90517515039977
20
-4.3993932715932
30
-2E-16
41
1
10
3.13270840181076
20
-4.51093912190095
30
-2E-16
41
1
10
3.25067469998163
20
-4.56069722349119
30
-2E-16
41
1
10
3.6146598442358
20
-4.69574072262773
30
1E-16
41
1
10
3.87063808533134
20
-4.76698446315712
30
1E-16
41
1
10
4.26897214855188
20
-4.85433761823825
30
1E-16
41
1
10
4.40417597508329
20
-4.88012024000386
30
1E-16
41
1
10
4.67672133888621
20
-4.92566325553392
30
1E-16
41
1
10
4.81434816869765
20
-4.94548667749578
30
1E-16
41
1
10
5.50842063395223
20
-5.03203135897482
30
0
41
1
10
6.08224230809364
20
-5.06213323402216
30
0
41
1
10
6.66889576943709
20
-5.06856380809586
30
0
0
SPLINE
5
CF
100
AcDbEntity
8
1
62
256
6
ByLayer
370
18
48
1
60
0
100
AcDbSpline
70
4
71
3
72
8
73
4
40
0
40
0
40
0
40
0
40
1
40
1
40
1
40
1
41
1
10
55.2278475097687
20
4.88938761554616
30
0
41
1
10
55.225109152521
20
4.89123075122575
30
0
41
1
10
55.2223708345728
20
4.893073718545
30
0
41
1
10
55.2196325559432
20
4.89491651722011
30
0
0
SPLINE
5
D0
100
AcDbEntity
8
1
62
256
6
ByLayer
370
18
48
1
60
0
100
AcDbSpline
70
4
71
3
72
8
73
4
40
0
40
0
40
0
40
0
40
1
40
1
40
1
40
1
41
1
10
56.1447427459009
20
-0.536239687027205
30
0
41
1
10
55.9839197718423
20
-0.106941112241685
30
0
41
1
10
55.7837614083772
20
0.348146452222323
30
0
41
1
10
55.5450099744056
20
0.828536328725704
30
-1E-16
0
SPLINE
5
D1
100
AcDbEntity
8
1
62
256
6
ByLayer
370
18
48
1
60
0
100
AcDbSpline
70
4
71
3
72
30
73
26
40
0
40
0
40
0
40
0
40
0.498383863479226
40
0.498383863479226
40
0.676139606254466
40
0.676139606254466
40
0.791267466735134
40
0.791267466735134
40
0.865832347203493
40
0.865832347203493
40
0.914151391440066
40
0.914151391440066
40
0.945494068437322
40
0.945494068437322
40
0.965843059339507
40
0.965843059339507
40
0.979076909214858
40
0.979076909214858
40
0.98770954226549
40
0.98770954226549
40
0.993341376274169
40
0.993341376274169
40
0.99709807693165
40
0.99709807693165
40
1
40
1
40
1
40
1
41
1
10
54.9120573436779
20
5.09897637871606
30
0
41
1
10
54.9630398519776
20
5.06560530468607
30
0
41
1
10
55.0141164302885
20
5.03193796190345
30
0
41
1
10
55.0834692744044
20
4.9859237833146
30
0
41
1
10
55.1017075819663
20
4.97379490428821
30
0
41
1
10
55.1317621036263
20
4.95376217731501
30
0
41
1
10
55.1435768990191
20
4.94587538547478
30
0
41
1
10
55.1630575941121
20
4.9328518257179
30
0
41
1
10
55.1707186609424
20
4.92772516411694
30
0
41
1
10
55.1833532935973
20
4.91926215928623
30
0
41
1
10
55.1883236734803
20
4.91593080508309
30
0
41
1
10
55.1965228172619
20
4.91043203276223
30
0
41
1
10
55.1997499451136
20
4.90826689434073
30
0
41
1
10
55.2050744515962
20
4.90469318448891
30
0
41
1
10
55.207171855753
20
4.90328507618915
30
0
41
1
10
55.2106297408148
20
4.90096307812931
30
0
41
1
10
55.2119912570725
20
4.90004867830635
30
0
41
1
10
55.2142362772459
20
4.89854072458019
30
0
41
1
10
55.2151213981542
20
4.89794615033594
30
0
41
1
10
55.2165810235936
20
4.89696558098436
30
0
41
1
10
55.2171575981637
20
4.89657821329621
30
0
41
1
10
55.2181018280183
20
4.89594396929331
30
0
41
1
10
55.2184758705616
20
4.8956927563496
30
0
41
1
10
55.2191138612242
20
4.89526445505675
30
0
41
1
10
55.2193854189598
20
4.89508221074902
30
0
41
1
10
55.2196325559432
20
4.89491651722011
30
0
0
SPLINE
5
D2
100
AcDbEntity
8
1
62
256
6
ByLayer
370
18
48
1
60
0
100
AcDbSpline
70
4
71
3
72
34
73
30
40
0
40
0
40
0
40
0
40
0.0959830464773646
40
0.0959830464773646
40
0.19196609295473
40
0.19196609295473
40
0.239957616193412
40
0.239957616193412
40
0.287949139432094
40
0.287949139432094
40
0.383932185909458
40
0.383932185909458
40
0.43192370914814
40
0.43192370914814
40
0.479915232386821
40
0.479915232386821
40
0.575898278864184
40
0.575898278864184
40
0.671881325341546
40
0.671881325341546
40
0.767864371818909
40
0.767864371818909
40
0.863847418296271
40
0.863847418296271
40
0.911838941534952
40
0.911838941534952
40
0.959830464773634
40
0.959830464773634
40
1
40
1
40
1
40
1
41
1
10
54.6014426405397
20
-0.12187250175478
30
0
41
1
10
54.0698443492683
20
0.12718628921661
30
0
41
1
10
53.5395457299491
20
0.374612840626014
30
0
41
1
10
52.4801992703055
20
0.863087579179307
30
-1E-16
41
1
10
51.9511936150986
20
1.10418273758964
30
-1E-16
41
1
10
51.157882231779
20
1.45874133926401
30
-1E-16
41
1
10
50.8934699424679
20
1.57572949173871
30
-1E-16
41
1
10
50.3645478810741
20
1.80677799318158
30
-1E-16
41
1
10
50.0999633859132
20
1.92076227539317
30
-1E-16
41
1
10
49.3047330424791
20
2.25665740798058
30
-1E-16
41
1
10
48.7729375975398
20
2.47284957341003
30
-2E-16
41
1
10
47.972034457509
20
2.78292122819525
30
-2E-16
41
1
10
47.7046377048957
20
2.88379477518572
30
-2E-16
41
1
10
47.1723586437719
20
3.07868630338638
30
-2E-16
41
1
10
46.9068628298982
20
3.17295570386315
30
-2E-16
41
1
10
46.1113894540945
20
3.44587295722769
30
-2E-16
41
1
10
45.5826771273678
20
3.61458184226146
30
-2E-16
41
1
10
44.5278553927828
20
3.92195274570887
30
2E-16
41
1
10
44.0020932827404
20
4.05983088315577
30
2E-16
41
1
10
42.9490862077629
20
4.30530713887251
30
2E-16
41
1
10
42.4223338736249
20
4.4123385468082
30
0
41
1
10
41.3669623635477
20
4.59116861904178
30
-1E-16
41
1
10
40.8386415043234
20
4.66139120833179
30
-1E-16
41
1
10
40.042089712404
20
4.7424691399944
30
0
41
1
10
39.7759440498773
20
4.76529710012923
30
0
41
1
10
39.2423033381044
20
4.801566766983
30
0
41
1
10
38.9746079046388
20
4.81503663368312
30
0
41
1
10
38.4844413232512
20
4.83025063182382
30
0
41
1
10
38.2615150786416
20
4.83336123487416
30
0
41
1
10
38.0388476014306
20
4.83280211001554
30
0
0
SPLINE
5
D3
100
AcDbEntity
8
1
62
256
6
ByLayer
370
18
48
1
60
0
100
AcDbSpline
70
4
71
3
72
8
73
4
40
0
40
0
40
0
40
0
40
1
40
1
40
1
40
1
41
1
10
55.2278475097687
20
-4.88938761554613
30
0
41
1
10
55.2251091525211
20
-4.89123075122572
30
0
41
1
10
55.2223708345729
20
-4.89307371854494
30
0
41
1
10
55.2196325559432
20
-4.89491651722005
30
0
0
SPLINE
5
D4
100
AcDbEntity
8
1
62
256
6
ByLayer
370
18
48
1
60
0
100
AcDbSpline
70
4
71
3
72
24
73
20
40
0
40
0
40
0
40
0
40
0.159752095042543
40
0.159752095042543
40
0.369814071281905
40
0.369814071281905
40
0.422329565341746
40
0.422329565341746
40
0.474845059401588
40
0.474845059401588
40
0.57987604752127
40
0.57987604752127
40
0.789938023760633
40
0.789938023760633
40
0.894969011880315
40
0.894969011880315
40
0.947484505940158
40
0.947484505940158
40
1
40
1
40
1
40
1
41
1
10
39.8725242338655
20
0.18183933580346
30
0
41
1
10
40.6869969330541
20
-0.19683582195637
30
0
41
1
10
41.4981317682205
20
-0.575773922979351
30
0
41
1
10
43.3771880488581
20
-1.43360017255472
30
1E-16
41
1
10
44.4454799767035
20
-1.90654825722038
30
1E-16
41
1
10
45.793142508045
20
-2.45588062020633
30
2E-16
41
1
10
46.0637725350856
20
-2.56382313531611
30
2E-16
41
1
10
46.6039604596097
20
-2.77386203110788
30
2E-16
41
1
10
46.8733676489313
20
-2.87590819381276
30
2E-16
41
1
10
47.6799490032258
20
-3.17245168451862
30
2E-16
41
1
10
48.2154694836649
20
-3.3574801845854
30
2E-16
41
1
10
49.8189397953374
20
-3.86982936224555
30
-2E-16
41
1
10
50.8837217441522
20
-4.15373125569343
30
-2E-16
41
1
10
52.4878693613618
20
-4.4772296955606
30
1E-16
41
1
10
53.0237614257241
20
-4.56801504515886
30
1E-16
41
1
10
53.8309959955362
20
-4.67655523234177
30
1E-16
41
1
10
54.1006406562345
20
-4.70812895321993
30
1E-16
41
1
10
54.6413472862867
20
-4.76173969347039
30
0
41
1
10
54.9117467024475
20
-4.78329830047048
30
0
41
1
10
55.1821226036091
20
-4.80076467331872
30
0
0
SPLINE
5
D5
100
AcDbEntity
8
1
62
256
6
ByLayer
370
18
48
1
60
0
100
AcDbSpline
70
4
71
3
72
18
73
14
40
0
40
0
40
0
40
0
40
0.24417783571657
40
0.24417783571657
40
0.370148196430474
40
0.370148196430474
40
0.433133376787427
40
0.433133376787427
40
0.496118557144379
40
0.496118557144379
40
0.74805927857219
40
0.74805927857219
40
1
40
1
40
1
40
1
41
1
10
22.2953355287485
20
-5.07946804681274
30
0
41
1
10
21.1981161376241
20
-5.07880518927581
30
0
41
1
10
20.1061578777187
20
-4.99302514653815
30
1E-16
41
1
10
18.442884891624
20
-4.73912062031474
30
1E-16
41
1
10
17.8753302878477
20
-4.63110418723898
30
-2E-16
41
1
10
17.0199230449748
20
-4.43742523757106
30
-2E-16
41
1
10
16.7336159484955
20
-4.36748706254122
30
-2E-16
41
1
10
16.1613666785809
20
-4.21801400328593
30
-2E-16
41
1
10
15.8760149645378
20
-4.13863880585271
30
-2E-16
41
1
10
14.4524304940065
20
-3.71970730166359
30
-2E-16
41
1
10
13.3234182447347
20
-3.31420539844524
30
2E-16
41
1
10
11.061563035116
20
-2.40088110758993
30
1E-16
41
1
10
9.92884163932712
20
-1.89293671155511
30
1E-16
41
1
10
8.78305622662543
20
-1.35338040959047
30
1E-16
0
SPLINE
5
D6
100
AcDbEntity
8
1
62
256
6
ByLayer
370
18
48
1
60
0
100
AcDbSpline
70
4
71
3
72
42
73
38
40
0
40
0
40
0
40
0
40
0.0471328220681841
40
0.0471328220681841
40
0.0811637927086075
40
0.0811637927086075
40
0.115194763349031
40
0.115194763349031
40
0.183256704629877
40
0.183256704629877
40
0.251318645910723
40
0.251318645910723
40
0.285349616551146
40
0.285349616551146
40
0.319380587191568
40
0.319380587191568
40
0.387442528472412
40
0.387442528472412
40
0.421473499112833
40
0.421473499112833
40
0.455504469753255
40
0.455504469753255
40
0.591628352314942
40
0.591628352314942
40
0.625659322955363
40
0.625659322955363
40
0.659690293595785
40
0.659690293595785
40
0.727752234876628
40
0.727752234876628
40
0.795814176157471
40
0.795814176157471
40
0.863876117438314
40
0.863876117438314
40
0.931938058719157
40
0.931938058719157
40
1
40
1
40
1
40
1
41
1
10
27.1344792607099
20
-4.84049338731444
30
1E-16
41
1
10
26.7646472781128
20
-4.89541661197669
30
1E-16
41
1
10
26.3949828410834
20
-4.94114355722436
30
1E-16
41
1
10
25.7578842642782
20
-5.00357914900354
30
0
41
1
10
25.4906108013953
20
-5.02483333830403
30
0
41
1
10
24.9554552054701
20
-5.05734659942004
30
0
41
1
10
24.6873555155417
20
-5.06860446577059
30
0
41
1
10
23.8843978217517
20
-5.08716954817896
30
0
41
1
10
23.3504646777164
20
-5.07932614653012
30
0
41
1
10
22.2824312776446
20
-5.0235768269205
30
0
41
1
10
21.748331466301
20
-4.97570597161058
30
1E-16
41
1
10
20.9453740714709
20
-4.87437712940718
30
1E-16
41
1
10
20.6772717480503
20
-4.83564485273655
30
1E-16
41
1
10
20.1420688726032
20
-4.74880044187211
30
1E-16
41
1
10
19.8747520237548
20
-4.70066715205169
30
1E-16
41
1
10
19.073187022905
20
-4.54256636876218
30
-2E-16
41
1
10
18.5394626934369
20
-4.41876108650732
30
-2E-16
41
1
10
17.7377656027178
20
-4.20744908906121
30
-2E-16
41
1
10
17.4703497425397
20
-4.13274903806493
30
-2E-16
41
1
10
16.9348782410428
20
-3.97510595155765
30
-2E-16
41
1
10
16.6667679619773
20
-3.892136578812
30
-2E-16
41
1
10
15.3289247445651
20
-3.45908358589384
30
2E-16
41
1
10
14.2631346969463
20
-3.05344547105483
30
2E-16
41
1
10
12.9240088687738
20
-2.492193913639
30
2E-16
41
1
10
12.6559222192306
20
-2.37725193291604
30
1E-16
41
1
10
12.1208374787658
20
-2.14319875304327
30
1E-16
41
1
10
11.8535863235105
20
-2.02399843432769
30
1E-16
41
1
10
11.0521003124992
20
-1.66104129963293
30
1E-16
41
1
10
10.5181465359844
20
-1.41190554848254
30
1E-16
41
1
10
9.44867521658341
20
-0.903840962889603
30
1E-16
41
1
10
8.91241235341141
20
-0.644360880351485
30
0
41
1
10
7.84156099939617
20
-0.123282898014395
30
0
41
1
10
7.30664256049636
20
0.138386899357414
30
0
41
1
10
6.23552746072531
20
0.659275245773301
30
0
41
1
10
5.69940561407847
20
0.91833784354904
30
-1E-16
41
1
10
4.62891492180034
20
1.4260765886612
30
-1E-16
41
1
10
4.09385453876479
20
1.67510994535948
30
-1E-16
41
1
10
3.55780649531704
20
1.91698391461728
30
-1E-16
0
SPLINE
5
D7
100
AcDbEntity
8
1
62
256
6
ByLayer
370
18
48
1
60
0
100
AcDbSpline
70
4
71
3
72
10
73
6
40
0
40
0
40
0
40
0
40
0.91492067616205
40
0.91492067616205
40
1
40
1
40
1
40
1
41
1
10
3.64574461106795
20
-4.99715418003322
30
0
41
1
10
4.17569664438366
20
-5.04081730740739
30
0
41
1
10
4.70573668470428
20
-5.06440642817932
30
0
41
1
10
5.28571611733958
20
-5.06868337566868
30
0
41
1
10
5.33507188571443
20
-5.06887655957451
30
0
41
1
10
5.38443412999354
20
-5.06889894069911
30
0
0
SPLINE
5
D8
100
AcDbEntity
8
1
62
256
6
ByLayer
370
18
48
1
60
0
100
AcDbSpline
70
4
71
3
72
38
73
34
40
0
40
0
40
0
40
0
40
0.0294412873116787
40
0.0294412873116787
40
0.110321180035706
40
0.110321180035706
40
0.15076112639772
40
0.15076112639772
40
0.191201072759733
40
0.191201072759733
40
0.272080965483761
40
0.272080965483761
40
0.312520911845774
40
0.312520911845774
40
0.352960858207786
40
0.352960858207786
40
0.433840750931812
40
0.433840750931812
40
0.514720643655838
40
0.514720643655838
40
0.555160590017851
40
0.555160590017851
40
0.595600536379863
40
0.595600536379863
40
0.676480429103891
40
0.676480429103891
40
0.757360321827918
40
0.757360321827918
40
0.838240214551946
40
0.838240214551946
40
0.919120107275973
40
0.919120107275973
40
1
40
1
40
1
40
1
41
1
10
34.8397878964599
20
4.84882246896478
30
-1E-16
41
1
10
35.0322439919958
20
4.87747590679234
30
-1E-16
41
1
10
35.2246797904466
20
4.90360640018488
30
-1E-16
41
1
10
35.9460494400087
20
4.99187695116993
30
-1E-16
41
1
10
36.4752830983517
20
5.03743101419175
30
0
41
1
10
37.2702030021698
20
5.07654761074713
30
0
41
1
10
37.5355127186323
20
5.08469342066036
30
0
41
1
10
38.0646665921905
20
5.09097280214317
30
0
41
1
10
38.3289564351296
20
5.08908951687914
30
0
41
1
10
39.1223378382113
20
5.06870626315737
30
0
41
1
10
39.651340598533
20
5.03558137783639
30
0
41
1
10
40.4450267988142
20
4.95667045029361
30
-1E-16
41
1
10
40.7095552317372
20
4.92543700209663
30
-1E-16
41
1
10
41.2390164243037
20
4.8531515829724
30
-1E-16
41
1
10
41.5041857428065
20
4.8121553138414
30
-1E-16
41
1
10
42.2987010753275
20
4.67585278757929
30
2E-16
41
1
10
42.8275266617397
20
4.56683681549958
30
2E-16
41
1
10
43.884971895391
20
4.31408921859418
30
2E-16
41
1
10
44.4130158467369
20
4.16961006712441
30
2E-16
41
1
10
45.2079458276736
20
3.92991594670124
30
2E-16
41
1
10
45.4733579864643
20
3.84610813045293
30
2E-16
41
1
10
46.0031250124848
20
3.67148463656147
30
2E-16
41
1
10
46.2677232202821
20
3.58059571395626
30
-2E-16
41
1
10
47.0608740950021
20
3.29750056942234
30
-2E-16
41
1
10
47.5885218055659
20
3.09437061083605
30
-2E-16
41
1
10
48.6466182443497
20
2.66740289266553
30
-2E-16
41
1
10
49.1775901457667
20
2.44272714577036
30
-1E-16
41
1
10
50.2368812002817
20
1.97473723380631
30
-1E-16
41
1
10
50.7650654169665
20
1.73100346406739
30
-1E-16
41
1
10
51.824087822376
20
1.23474645175457
30
-1E-16
41
1
10
52.3550813175299
20
0.980954526413939
30
-1E-16
41
1
10
53.4144503536655
20
0.467658993711296
30
0
41
1
10
53.9432292084586
20
0.207893879945829
30
0
41
1
10
54.4721160723406
20
-0.0529458327994519
30
0
0
SPLINE
5
D9
100
AcDbEntity
8
1
62
256
6
ByLayer
370
18
48
1
60
0
100
AcDbSpline
70
4
71
3
72
26
73
22
40
0
40
0
40
0
40
0
40
0.0486100596161941
40
0.0486100596161941
40
0.167533802164171
40
0.167533802164171
40
0.286457544712148
40
0.286457544712148
40
0.405381287260124
40
0.405381287260124
40
0.524305029808101
40
0.524305029808101
40
0.583766901082088
40
0.583766901082088
40
0.643228772356076
40
0.643228772356076
40
0.76215251490405
40
0.76215251490405
40
0.881076257452025
40
0.881076257452025
40
1
40
1
40
1
40
1
41
1
10
39.6458119169627
20
-0.425033774931762
30
0
41
1
10
39.3664929644108
20
-0.294024491160883
30
0
41
1
10
39.0873692469801
20
-0.162651191036559
30
0
41
1
10
38.1255832443232
20
0.290390718560388
30
0
41
1
10
37.4426486315906
20
0.612134113555243
30
0
41
1
10
36.0741035811022
20
1.24532700736907
30
-1E-16
41
1
10
35.3894897755781
20
1.55571080601479
30
-1E-16
41
1
10
34.0214151074865
20
2.15222894345629
30
-1E-16
41
1
10
33.3367903555393
20
2.43857467899355
30
-1E-16
41
1
10
31.9705877462559
20
2.97467076412556
30
-2E-16
41
1
10
31.2885261836962
20
3.22472832194308
30
-2E-16
41
1
10
30.2633296783163
20
3.56709404834754
30
-2E-16
41
1
10
29.920987656125
20
3.67597415819949
30
2E-16
41
1
10
29.2373502500886
20
3.88097391341623
30
2E-16
41
1
10
28.8958863419107
20
3.97715107727498
30
2E-16
41
1
10
27.8718554561944
20
4.24572597132706
30
2E-16
41
1
10
27.1895850758589
20
4.39821693024575
30
2E-16
41
1
10
25.8208594440526
20
4.64455365566633
30
-1E-16
41
1
10
25.1364217674481
20
4.73866054342946
30
-1E-16
41
1
10
23.7679848217565
20
4.86420285892916
30
0
41
1
10
23.084409696835
20
4.89596388089197
30
0
41
1
10
22.4000000000003
20
4.89541539308652
30
0
0
SPLINE
5
DA
100
AcDbEntity
8
1
62
256
6
ByLayer
370
18
48
1
60
0
100
AcDbSpline
70
4
71
3
72
10
73
6
40
0
40
0
40
0
40
0
40
0.5
40
0.5
40
1
40
1
40
1
40
1
41
1
10
55.2278475097687
20
-4.88938761554618
30
0
41
1
10
55.2116419189651
20
-4.89995656885927
30
0
41
1
10
55.1978833279699
20
-4.90432427278688
30
0
41
1
10
55.1743143998139
20
-4.90087976120344
30
0
41
1
10
55.1646146591335
20
-4.89312822929378
30
0
41
1
10
55.1563227949475
20
-4.87983572580615
30
0
0
SPLINE
5
DB
100
AcDbEntity
8
1
62
256
6
ByLayer
370
18
48
1
60
0
100
AcDbSpline
70
4
71
3
72
8
73
4
40
0
40
0
40
0
40
0
40
1
40
1
40
1
40
1
41
1
10
22.4000000000116
20
5.07927306731506
30
0
41
1
10
22.3651062195726
20
5.07942416396253
30
0
41
1
10
22.3302180948928
20
5.07948912063512
30
0
41
1
10
22.2953352878045
20
5.07946804666716
30
0
0
SPLINE
5
DC
100
AcDbEntity
8
1
62
256
6
ByLayer
370
18
48
1
60
0
100
AcDbSpline
70
4
71
3
72
16
73
12
40
0
40
0
40
0
40
0
40
0.420001754719886
40
0.420001754719886
40
0.644092301769718
40
0.644092301769718
40
0.756137575294631
40
0.756137575294631
40
0.868182848819545
40
0.868182848819545
40
1
40
1
40
1
40
1
41
1
10
22.1864581951367
20
5.07912292486913
30
0
41
1
10
21.1258623233974
20
5.07304023050773
30
0
41
1
10
20.069859747007
20
4.98748410802062
30
-1E-16
41
1
10
18.442884891624
20
4.73912062031474
30
-1E-16
41
1
10
17.8753302878478
20
4.63110418723898
30
2E-16
41
1
10
17.0199230449749
20
4.43742523757106
30
2E-16
41
1
10
16.7336159484955
20
4.36748706254124
30
2E-16
41
1
10
16.1613666785809
20
4.21801400328593
30
2E-16
41
1
10
15.8760149645379
20
4.13863880585274
30
2E-16
41
1
10
15.2563390963193
20
3.95628099782914
30
2E-16
41
1
10
14.9222326485814
20
3.85162334643761
30
2E-16
41
1
10
14.5886792548067
20
3.74136795152296
30
1E-16
0
SPLINE
5
DD
100
AcDbEntity
8
1
62
256
6
ByLayer
370
18
48
1
60
0
100
AcDbSpline
70
4
71
3
72
8
73
4
40
0
40
0
40
0
40
0
40
1
40
1
40
1
40
1
41
1
10
56.5489330777939
20
1.58290529701824
30
0
41
1
10
56.2679027153523
20
1.51373943227259
30
0
41
1
10
55.9831254574344
20
1.46299572504651
30
0
41
1
10
55.6963976107992
20
1.42184237144346
30
0
0
SPLINE
5
DE
100
AcDbEntity
8
1
62
256
6
ByLayer
370
18
48
1
60
0
100
AcDbSpline
70
4
71
3
72
8
73
4
40
0
40
0
40
0
40
0
40
1
40
1
40
1
40
1
41
1
10
56.9952969534317
20
0.281567710202182
30
0
41
1
10
57.0015744045002
20
0.0936546735922263
30
0
41
1
10
57.0015609742557
20
-0.0940567026822805
30
0
41
1
10
56.9952969534324
20
-0.281567710180127
30
0
0
SPLINE
5
DF
100
AcDbEntity
8
1
62
256
6
ByLayer
370
18
48
1
60
0
100
AcDbSpline
70
4
71
3
72
8
73
4
40
0
40
0
40
0
40
0
40
1
40
1
40
1
40
1
41
1
10
55.1795311781073
20
-4.81198418784328
30
0
41
1
10
55.1717621464166
20
-4.83460127571314
30
0
41
1
10
55.1640257981198
20
-4.85721839705323
30
0
41
1
10
55.1563227949475
20
-4.87983572580615
30
0
0
SPLINE
5
E0
100
AcDbEntity
8
1
62
256
6
ByLayer
370
18
48
1
60
0
100
AcDbSpline
70
4
71
3
72
38
73
34
40
0
40
0
40
0
40
0
40
0.0625
40
0.0625
40
0.125
40
0.125
40
0.1875
40
0.1875
40
0.25
40
0.25
40
0.3125
40
0.3125
40
0.375
40
0.375
40
0.4375
40
0.4375
40
0.5
40
0.5
40
0.5625
40
0.5625
40
0.625
40
0.625
40
0.6875
40
0.6875
40
0.75
40
0.75
40
0.8125
40
0.8125
40
0.875
40
0.875
40
0.9375
40
0.9375
40
1
40
1
40
1
40
1
41
1
10
22.3999997632587
20
5.07947195511562
30
0
41
1
10
23.077770087302
20
5.08153386400659
30
0
41
1
10
23.7551427242186
20
5.05112784915099
30
0
41
1
10
25.1104508349679
20
4.92643927800771
30
-1E-16
41
1
10
25.7877650719793
20
4.83218364360832
30
-1E-16
41
1
10
27.1429657780034
20
4.58329911211951
30
2E-16
41
1
10
27.8204417541453
20
4.42877322227679
30
2E-16
41
1
10
29.1753730092418
20
4.06553542299184
30
2E-16
41
1
10
29.8528850781355
20
3.85673480232816
30
2E-16
41
1
10
31.2076412324436
20
3.39247717551197
30
-2E-16
41
1
10
31.8852278231705
20
3.1369336626567
30
-2E-16
41
1
10
33.2398468234837
20
2.58948924430868
30
-2E-16
41
1
10
33.9172630918236
20
2.29752084600767
30
-1E-16
41
1
10
35.2723114824395
20
1.68770854212971
30
-1E-16
41
1
10
35.9494435327014
20
1.37006464960325
30
-1E-16
41
1
10
37.304414393835
20
0.720978245370532
30
0
41
1
10
37.9818446439227
20
0.38983634306905
30
0
41
1
10
39.3369023681977
20
-0.273485425879045
30
0
41
1
10
40.014088360745
20
-0.605530475507521
30
0
41
1
10
41.368386777201
20
-1.25791755902466
30
1E-16
41
1
10
42.0455843996364
20
-1.57828815942727
30
1E-16
41
1
10
43.4001481973793
20
-2.19506224186642
30
1E-16
41
1
10
44.0774701749346
20
-2.49135086149354
30
2E-16
41
1
10
45.4317947139258
20
-3.04869240302526
30
2E-16
41
1
10
46.1091884743483
20
-3.30991299807579
30
2E-16
41
1
10
47.4634475585962
20
-3.78690246244176
30
-2E-16
41
1
10
48.1407721351444
20
-4.00277751854168
30
-2E-16
41
1
10
49.4951213525724
20
-4.38102542863822
30
-2E-16
41
1
10
50.1722159877758
20
-4.54344811608246
30
-2E-16
41
1
10
51.5262080119688
20
-4.80859492298862
30
1E-16
41
1
10
52.203249474564
20
-4.911329896003
30
1E-16
41
1
10
53.5577900265617
20
-5.05323622980356
30
0
41
1
10
54.2349791217174
20
-5.09238896542439
30
0
41
1
10
54.9120573436822
20
-5.09897637872544
30
0
0
SPLINE
5
E1
100
AcDbEntity
8
1
62
256
6
ByLayer
370
18
48
1
60
0
100
AcDbSpline
70
4
71
3
72
12
73
8
40
0
40
0
40
0
40
0
40
0.246477059499232
40
0.246477059499232
40
0.677338896145943
40
0.677338896145943
40
1
40
1
40
1
40
1
41
1
10
12.9033435950539
20
-3.10277277827387
30
0
41
1
10
12.384496820599
20
-3.25554026989576
30
0
41
1
10
11.8671781749748
20
-3.41065809564398
30
0
41
1
10
10.4502864191502
20
-3.84289857940749
30
0
41
1
10
9.55405515037143
20
-4.12448837330865
30
0
41
1
10
7.99523571680589
20
-4.62766999972064
30
0
41
1
10
7.33051034149483
20
-4.84657010684964
30
0
41
1
10
6.66889494161489
20
-5.06856381535329
30
0
0
SPLINE
5
E2
100
AcDbEntity
8
1
62
256
6
ByLayer
370
18
48
1
60
0
100
AcDbSpline
70
4
71
3
72
10
73
6
40
0
40
0
40
0
40
0
40
0.5
40
0.5
40
1
40
1
40
1
40
1
41
1
10
54.472116072334
20
-0.0529458328021803
30
0
41
1
10
54.4657104252195
20
0.066681718957966
30
0
41
1
10
54.4612901180469
20
0.187686339520212
30
0
41
1
10
54.4573970285363
20
0.427749160741826
30
0
41
1
10
54.4578983170287
20
0.546730045034593
30
0
41
1
10
54.4611218920596
20
0.664665751486467
30
0
0
SPLINE
5
E3
100
AcDbEntity
8
1
62
256
6
ByLayer
370
18
48
1
60
0
100
AcDbSpline
70
4
71
3
72
14
73
10
40
0
40
0
40
0
40
0
40
0.271908610181747
40
0.271908610181747
40
0.507891662481578
40
0.507891662481578
40
0.781957447562446
40
0.781957447562446
40
1
40
1
40
1
40
1
41
1
10
54.5960736150129
20
-0.108580298542222
30
0
41
1
10
54.5968130807553
20
-0.108894222113605
30
0
41
1
10
54.5975405972814
20
-0.109579558209077
30
0
41
1
10
54.5987539248808
20
-0.111299896885896
30
0
41
1
10
54.5992757359227
20
-0.112300045057907
30
0
41
1
10
54.600243405218
20
-0.114730990321817
30
0
41
1
10
54.6006789408313
20
-0.116242981139919
30
0
41
1
10
54.6012245610827
20
-0.119129125135515
30
0
41
1
10
54.6013883271578
20
-0.120502721899129
30
0
41
1
10
54.6014426405397
20
-0.121872501754751
30
0
0
SPLINE
5
E4
100
AcDbEntity
8
1
62
256
6
ByLayer
370
18
48
1
60
0
100
AcDbSpline
70
4
71
3
72
16
73
12
40
0
40
0
40
0
40
0
40
0.377292886572452
40
0.377292886572452
40
0.56593932985868
40
0.56593932985868
40
0.754585773144907
40
0.754585773144907
40
0.943232216431134
40
0.943232216431134
40
1
40
1
40
1
40
1
41
1
10
6.66889494159611
20
-5.06856381535957
30
0
41
1
10
7.6750478471624
20
-5.07959349184648
30
0
41
1
10
8.6703694784305
20
-5.01903726568659
30
0
41
1
10
10.1598029650153
20
-4.82798062315163
30
1E-16
41
1
10
10.6555146684003
20
-4.74753235405899
30
1E-16
41
1
10
11.6475925889076
20
-4.55462720887937
30
-2E-16
41
1
10
12.1440899338902
20
-4.4423258883262
30
-2E-16
41
1
10
13.13923418283
20
-4.18688015210364
30
-2E-16
41
1
10
13.6381662884183
20
-4.0440320966047
30
-2E-16
41
1
10
14.2901612986377
20
-3.83956196881391
30
-2E-16
41
1
10
14.4413279737849
20
-3.79090200059096
30
-2E-16
41
1
10
14.5925289962625
20
-3.74103200780428
30
-2E-16
0
SPLINE
5
E5
100
AcDbEntity
8
1
62
256
6
ByLayer
370
18
48
1
60
0
100
AcDbSpline
70
4
71
3
72
26
73
22
40
0
40
0
40
0
40
0
40
0.0016472400642751
40
0.0016472400642751
40
0.201317792051421
40
0.201317792051421
40
0.400988344038567
40
0.400988344038567
40
0.450905982035354
40
0.450905982035354
40
0.500823620032141
40
0.500823620032141
40
0.600658896025712
40
0.600658896025712
40
0.700494172019285
40
0.700494172019285
40
0.800329448012856
40
0.800329448012856
40
0.900164724006428
40
0.900164724006428
40
1
40
1
40
1
40
1
41
1
10
39.5234872738658
20
5.09023094828132
30
0
41
1
10
39.5317455581306
20
5.09023046458819
30
0
41
1
10
39.5400030075609
20
5.0902251016129
30
0
41
1
10
40.5490832316516
20
5.08897308552361
30
0
41
1
10
41.5410389959195
20
5.01676540477007
30
0
41
1
10
43.5229930035678
20
4.73884018400105
30
-1E-16
41
1
10
44.5131178916741
20
4.53325382183834
30
2E-16
41
1
10
45.7591663607008
20
4.19982800296143
30
2E-16
41
1
10
46.0088425302953
20
4.12938154392262
30
2E-16
41
1
10
46.5092956932703
20
3.98108992821247
30
2E-16
41
1
10
46.7603283390579
20
3.90312577204372
30
2E-16
41
1
10
47.5135150916256
20
3.65889606862754
30
2E-16
41
1
10
48.0130021435305
20
3.48369674215763
30
-2E-16
41
1
10
49.0084292203663
20
3.11173343987227
30
-2E-16
41
1
10
49.5042962148787
20
2.91483371968641
30
-2E-16
41
1
10
50.4946512427794
20
2.50339612034446
30
-2E-16
41
1
10
50.9891687350366
20
2.28893354379056
30
-1E-16
41
1
10
51.9781390664617
20
1.84484943152367
30
-1E-16
41
1
10
52.4730558932804
20
1.61611945466328
30
-1E-16
41
1
10
53.4649069327606
20
1.14748193731222
30
-1E-16
41
1
10
53.961884641037
20
0.907636189207409
30
-1E-16
41
1
10
54.4611218920595
20
0.664665751486439
30
0
0
SPLINE
5
E6
100
AcDbEntity
8
1
62
256
6
ByLayer
370
18
48
1
60
0
100
AcDbSpline
70
4
71
3
72
22
73
18
40
0
40
0
40
0
40
0
40
0.125
40
0.125
40
0.25
40
0.25
40
0.375
40
0.375
40
0.5
40
0.5
40
0.5625
40
0.5625
40
0.625
40
0.625
40
0.75
40
0.75
40
1
40
1
40
1
40
1
41
1
10
56.5489330777939
20
1.58290529701824
30
0
41
1
10
56.4788708065726
20
1.69688950313412
30
0
41
1
10
56.4109693447718
20
1.81680453279742
30
0
41
1
10
56.2790586665295
20
2.06955208979693
30
0
41
1
10
56.2163203170118
20
2.20001126305175
30
0
41
1
10
56.0969466809961
20
2.46663232008712
30
0
41
1
10
56.0401484006482
20
2.60310011264571
30
0
41
1
10
55.9309026668726
20
2.88186028804591
30
0
41
1
10
55.8782270892608
20
3.02483993316008
30
0
41
1
10
55.8021289590244
20
3.24055533215281
30
0
41
1
10
55.7771152007285
20
3.3125257252056
30
0
41
1
10
55.7269583372703
20
3.45642369681715
30
0
41
1
10
55.7019313853611
20
3.52837742155933
30
0
41
1
10
55.6269651221585
20
3.74420664379878
30
0
41
1
10
55.5771608073464
20
3.88800111939673
30
0
41
1
10
55.427800329859
20
4.31889343657377
30
0
41
1
10
55.3284532551817
20
4.60514131590313
30
0
41
1
10
55.2278475097687
20
4.88938761554616
30
0
0
SPLINE
5
E7
100
AcDbEntity
8
1
62
256
6
ByLayer
370
18
48
1
60
0
100
AcDbSpline
70
4
71
3
72
26
73
22
40
0
40
0
40
0
40
0
40
0.0894576013877994
40
0.0894576013877994
40
0.280607455158431
40
0.280607455158431
40
0.32839491860109
40
0.32839491860109
40
0.376182382043748
40
0.376182382043748
40
0.471757308929064
40
0.471757308929064
40
0.662907162699695
40
0.662907162699695
40
0.758482089585012
40
0.758482089585012
40
0.806269553027669
40
0.806269553027669
40
0.854057016470328
40
0.854057016470328
40
1
40
1
40
1
40
1
41
1
10
24.4280782860331
20
-4.82979749978327
30
0
41
1
10
23.9274661380663
20
-4.84101942843731
30
0
41
1
10
23.4277913986098
20
-4.83544071378975
30
0
41
1
10
21.8605831956373
20
-4.76536465572315
30
0
41
1
10
20.7930806888233
20
-4.64135067278349
30
1E-16
41
1
10
19.4475667000404
20
-4.39454422012082
30
-2E-16
41
1
10
19.1779128363463
20
-4.34062640476614
30
-2E-16
41
1
10
18.6372956147685
20
-4.22385387167577
30
-2E-16
41
1
10
18.366567594909
20
-4.16097362902812
30
-2E-16
41
1
10
17.5575798853974
20
-3.9607582800511
30
-2E-16
41
1
10
17.0206758404198
20
-3.8114829352339
30
-2E-16
41
1
10
15.414010813721
20
-3.32130677780376
30
2E-16
41
1
10
14.3484056192887
20
-2.93776416012133
30
2E-16
41
1
10
12.7443966857389
20
-2.30113523347683
30
1E-16
41
1
10
12.2088952027994
20
-2.0785427777223
30
1E-16
41
1
10
11.4027561779164
20
-1.73221438903309
30
1E-16
41
1
10
11.133531200236
20
-1.61474043911341
30
1E-16
41
1
10
10.5937755497381
20
-1.37627293834254
30
1E-16
41
1
10
10.3228071064938
20
-1.25508001259331
30
1E-16
41
1
10
9.22694832470401
20
-0.760399006971625
30
0
41
1
10
8.40655127032872
20
-0.379353687640247
30
0
41
1
10
7.58721615210163
20
0.001115814838613
30
0
0
SPLINE
5
E8
100
AcDbEntity
8
1
62
256
6
ByLayer
370
18
48
1
60
0
100
AcDbSpline
70
4
71
3
72
26
73
22
40
0
40
0
40
0
40
0
40
0.174440681898478
40
0.174440681898478
40
0.222377114216821
40
0.222377114216821
40
0.270313546535164
40
0.270313546535164
40
0.36618641117185
40
0.36618641117185
40
0.557932140445221
40
0.557932140445221
40
0.653805005081907
40
0.653805005081907
40
0.701741437400248
40
0.701741437400248
40
0.74967786971859
40
0.74967786971859
40
0.941423598991959
40
0.941423598991959
40
1
40
1
40
1
40
1
41
1
10
7.12051781667404
20
0.228296719170629
30
0
41
1
10
8.09646020744316
20
-0.223404073692677
30
0
41
1
10
9.07280063809648
20
-0.678479432923439
30
0
41
1
10
10.3267287254157
20
-1.24360250911485
30
1E-16
41
1
10
10.5976818969466
20
-1.36460366314955
30
1E-16
41
1
10
11.1374142985963
20
-1.60271665714873
30
1E-16
41
1
10
11.4066297779812
20
-1.72002687030792
30
1E-16
41
1
10
12.2127458700221
20
-2.06590376971263
30
1E-16
41
1
10
12.7482410111908
20
-2.2882458357825
30
1E-16
41
1
10
14.3522334489108
20
-2.92429319574615
30
2E-16
41
1
10
15.4178382087352
20
-3.30765969172174
30
2E-16
41
1
10
17.0244745588236
20
-3.79789338698552
30
-2E-16
41
1
10
17.5613625874472
20
-3.94723991854414
30
-2E-16
41
1
10
18.3703138566555
20
-4.14764388771414
30
-2E-16
41
1
10
18.6410253661471
20
-4.21060059653365
30
-2E-16
41
1
10
19.1816186326321
20
-4.32755397835342
30
-2E-16
41
1
10
19.4512636680499
20
-4.38157613126521
30
-2E-16
41
1
10
20.7967348777107
20
-4.628977573833
30
1E-16
41
1
10
21.8642305608568
20
-4.75367020393887
30
0
41
1
10
23.2579403665797
20
-4.81710528946425
30
0
41
1
10
23.5840948519149
20
-4.82482320422031
30
0
41
1
10
23.9105162203522
20
-4.82540333576662
30
0
0
SPLINE
5
E9
100
AcDbEntity
8
1
62
256
6
ByLayer
370
18
48
1
60
0
100
AcDbSpline
70
2053
71
3
72
64
73
60
40
0
40
0
40
0
40
0
40
0.0625000000000016
40
0.0625000000000016
40
0.125000000000003
40
0.125000000000003
40
0.156250000000004
40
0.156250000000004
40
0.187500000000005
40
0.187500000000005
40
0.218750000000005
40
0.218750000000005
40
0.250000000000006
40
0.250000000000006
40
0.281250000000007
40
0.281250000000007
40
0.312500000000008
40
0.312500000000008
40
0.343750000000008
40
0.343750000000008
40
0.375000000000009
40
0.375000000000009
40
0.40625000000001
40
0.40625000000001
40
0.43750000000001
40
0.43750000000001
40
0.468750000000011
40
0.468750000000011
40
0.500000000000012
40
0.500000000000012
40
0.531250000000013
40
0.531250000000013
40
0.562500000000013
40
0.562500000000013
40
0.625000000000012
40
0.625000000000012
40
0.656250000000011
40
0.656250000000011
40
0.68750000000001
40
0.68750000000001
40
0.71875000000001
40
0.71875000000001
40
0.750000000000009
40
0.750000000000009
40
0.781250000000008
40
0.781250000000008
40
0.812500000000007
40
0.812500000000007
40
0.828125000000007
40
0.828125000000007
40
0.843750000000007
40
0.843750000000007
40
0.875000000000005
40
0.875000000000005
40
0.937500000000002
40
0.937500000000002
40
0.968750000000001
40
0.968750000000001
40
1
40
1
40
1
40
1
41
1
10
55.4769038847752
20
-2.52087719539724
30
2E-16
41
1
10
55.4378376164796
20
-2.57545786696161
30
2E-16
41
1
10
55.4015342287369
20
-2.61094565605708
30
2E-16
41
1
10
55.3326101760547
20
-2.64468936524213
30
2E-16
41
1
10
55.3015851370436
20
-2.64200838392969
30
2E-16
41
1
10
55.2587195456934
20
-2.60842745263346
30
2E-16
41
1
10
55.2453920952456
20
-2.59250522280189
30
2E-16
41
1
10
55.2203082990057
20
-2.55136546505545
30
2E-16
41
1
10
55.2084954559132
20
-2.52599446686045
30
2E-16
41
1
10
55.1865773167117
20
-2.46586842049672
30
2E-16
41
1
10
55.1766821891455
20
-2.43177035814688
30
1E-16
41
1
10
55.1589152990117
20
-2.35550607093302
30
1E-16
41
1
10
55.1509882243153
20
-2.31297481379738
30
1E-16
41
1
10
55.1376920434344
20
-2.220574880713
30
1E-16
41
1
10
55.1324215779354
20
-2.17159438733404
30
1E-16
41
1
10
55.1249467144185
20
-2.0679171773545
30
1E-16
41
1
10
55.1227424509952
20
-2.01240519951526
30
1E-16
41
1
10
55.1223310386644
20
-1.89924662148573
30
1E-16
41
1
10
55.1240637916782
20
-1.84187091193885
30
1E-16
41
1
10
55.132143367067
20
-1.72546501806085
30
1E-16
41
1
10
55.1386084085255
20
-1.66624503936947
30
1E-16
41
1
10
55.156203786516
20
-1.55325101442097
30
1E-16
41
1
10
55.1675244960002
20
-1.49799437547671
30
1E-16
41
1
10
55.1948670722338
20
-1.39405216693581
30
1E-16
41
1
10
55.2105996605569
20
-1.34618966799306
30
1E-16
41
1
10
55.2461196102469
20
-1.25814537438575
30
1E-16
41
1
10
55.2657157522989
20
-1.21861362787848
30
1E-16
41
1
10
55.3070239691222
20
-1.14987672329002
30
1E-16
41
1
10
55.3291157911053
20
-1.12006938054472
30
1E-16
41
1
10
55.3741072787975
20
-1.07085563716376
30
1E-16
41
1
10
55.3970751605203
20
-1.05122349976563
30
1E-16
41
1
10
55.4436697033659
20
-1.02098514239165
30
1E-16
41
1
10
55.4671233396689
20
-1.01056004553865
30
1E-16
41
1
10
55.5360336189238
20
-0.992730805612439
30
1E-16
41
1
10
55.5812490821052
20
-0.998515872216245
30
1E-16
41
1
10
55.6419391648007
20
-1.03200688916292
30
1E-16
41
1
10
55.6610891277514
20
-1.04727634910074
30
1E-16
41
1
10
55.6968246636201
20
-1.08658458320377
30
1E-16
41
1
10
55.7133647336174
20
-1.11071197820874
30
1E-16
41
1
10
55.7422202724258
20
-1.16683668551181
30
1E-16
41
1
10
55.7547089673162
20
-1.19897617889237
30
1E-16
41
1
10
55.7751542853136
20
-1.27258717430919
30
1E-16
41
1
10
55.7829333947016
20
-1.31369186777781
30
1E-16
41
1
10
55.7927128678311
20
-1.40288716929902
30
1E-16
41
1
10
55.7947787725493
20
-1.45202582433802
30
1E-16
41
1
10
55.7926319930183
20
-1.55529826779721
30
1E-16
41
1
10
55.7885255554129
20
-1.60908471266745
30
1E-16
41
1
10
55.777864334656
20
-1.69321822480038
30
1E-16
41
1
10
55.7735156949296
20
-1.7220358065475
30
1E-16
41
1
10
55.7635671777176
20
-1.77928326924771
30
1E-16
41
1
10
55.7579588606297
20
-1.80785003838361
30
1E-16
41
1
10
55.7393780674182
20
-1.89340487820971
30
-1E-16
41
1
10
55.7244315585723
20
-1.95097303730301
30
-1E-16
41
1
10
55.675235384054
20
-2.11641307021932
30
-1E-16
41
1
10
55.6362149513303
20
-2.2191143918339
30
-1E-16
41
1
10
55.5765830981571
20
-2.35001637968099
30
-1E-16
41
1
10
55.556210660328
20
-2.39043631464298
30
-1E-16
41
1
10
55.5162439487784
20
-2.46198832369464
30
-1E-16
41
1
10
55.496437018923
20
-2.49358685961505
30
2E-16
41
1
10
55.4769038847752
20
-2.52087719539724
30
2E-16
0
SPLINE
5
EA
100
AcDbEntity
8
1
62
256
6
ByLayer
370
18
48
1
60
0
100
AcDbSpline
70
4
71
3
72
38
73
34
40
0
40
0
40
0
40
0
40
0.155323997150441
40
0.155323997150441
40
0.202650086515983
40
0.202650086515983
40
0.249976175881524
40
0.249976175881524
40
0.344628354612608
40
0.344628354612608
40
0.39195444397815
40
0.39195444397815
40
0.439280533343692
40
0.439280533343692
40
0.533932712074776
40
0.533932712074776
40
0.581258801440319
40
0.581258801440319
40
0.628584890805861
40
0.628584890805861
40
0.675910980171404
40
0.675910980171404
40
0.723237069536946
40
0.723237069536946
40
0.770563158902488
40
0.770563158902488
40
0.817889248268031
40
0.817889248268031
40
0.912541426999115
40
0.912541426999115
40
0.959867516364656
40
0.959867516364656
40
1
40
1
40
1
40
1
41
1
10
22.1755873083621
20
-0.226981466079138
30
0
41
1
10
21.3097765692227
20
0.174098416299955
30
0
41
1
10
20.4425844815349
20
0.577396602736883
30
0
41
1
10
19.304099000654
20
1.09536434155245
30
-1E-16
41
1
10
19.037765446039
20
1.21590942762393
30
-1E-16
41
1
10
18.5035064742741
20
1.45429175336724
30
-1E-16
41
1
10
18.2359294416559
20
1.57201239249466
30
-1E-16
41
1
10
17.4359764175299
20
1.91891604087849
30
-1E-16
41
1
10
16.9047896694453
20
2.14252300909197
30
-1E-16
41
1
10
16.1115303260449
20
2.46356159689898
30
-2E-16
41
1
10
15.8476434474571
20
2.5681613538755
30
-2E-16
41
1
10
15.3198064160841
20
2.77193941339974
30
-2E-16
41
1
10
15.0559036528348
20
2.87112931452455
30
-2E-16
41
1
10
14.2642512027785
20
3.1601920750866
30
-2E-16
41
1
10
13.7365502950223
20
3.34151089682541
30
-2E-16
41
1
10
12.944652841843
20
3.59267180534684
30
-2E-16
41
1
10
12.6806075699049
20
3.67294523913049
30
2E-16
41
1
10
12.1515782763863
20
3.82666237424286
30
2E-16
41
1
10
11.8866109967722
20
3.90009080539605
30
2E-16
41
1
10
11.3557417986563
20
4.03956452890176
30
2E-16
41
1
10
11.0898371120893
20
4.10560882162471
30
2E-16
41
1
10
10.5568712601526
20
4.22962147090544
30
2E-16
41
1
10
10.2894737016439
20
4.28765578257281
30
2E-16
41
1
10
9.75485562163414
20
4.39462358269085
30
0
41
1
10
9.48824153356983
20
4.44346550240468
30
-1E-16
41
1
10
8.95548856606558
20
4.53269216773555
30
-1E-16
41
1
10
8.68935979834674
20
4.57305887515537
30
-1E-16
41
1
10
7.89186708784962
20
4.68038362471677
30
-1E-16
41
1
10
7.3613222695792
20
4.73374465548787
30
0
41
1
10
6.56571570167065
20
4.78518580022501
30
0
41
1
10
6.30057360352885
20
4.79750196712749
30
0
41
1
10
5.81018993481788
20
4.81206650087452
30
0
41
1
10
5.58499763170556
20
4.81559524263795
30
0
41
1
10
5.3596327462482
20
4.81571699656411
30
0
0
SPLINE
5
EB
100
AcDbEntity
8
1
62
256
6
ByLayer
370
18
48
1
60
0
100
AcDbSpline
70
4
71
3
72
30
73
26
40
0
40
0
40
0
40
0
40
0.124999999999999
40
0.124999999999999
40
0.187499999999999
40
0.187499999999999
40
0.249999999999999
40
0.249999999999999
40
0.374999999999999
40
0.374999999999999
40
0.437499999999999
40
0.437499999999999
40
0.499999999999999
40
0.499999999999999
40
0.624999999999999
40
0.624999999999999
40
0.687499999999999
40
0.687499999999999
40
0.749999999999999
40
0.749999999999999
40
0.874999999999999
40
0.874999999999999
40
0.9375
40
0.9375
40
1
40
1
40
1
40
1
41
1
10
54.6014426405397
20
-0.121872501754751
30
0
41
1
10
54.6128721322846
20
-0.410123518440315
30
0
41
1
10
54.6358782619907
20
-0.692416845697096
30
0
41
1
10
54.6794601752519
20
-1.10810729175083
30
1E-16
41
1
10
54.6955315405482
20
-1.24536791593408
30
1E-16
41
1
10
54.7296744469546
20
-1.51735992440675
30
1E-16
41
1
10
54.7478315177355
20
-1.65268803199592
30
1E-16
41
1
10
54.803222697795
20
-2.05029792485718
30
1E-16
41
1
10
54.8410115048317
20
-2.30271382692578
30
1E-16
41
1
10
54.8945115056205
20
-2.66336558016476
30
2E-16
41
1
10
54.9118380929576
20
-2.78056492025107
30
2E-16
41
1
10
54.9449827288291
20
-3.00883425449297
30
2E-16
41
1
10
54.9608585784498
20
-3.12034630451885
30
2E-16
41
1
10
55.0049296033168
20
-3.43951047526227
30
2E-16
41
1
10
55.0297257406557
20
-3.63348147296608
30
-2E-16
41
1
10
55.0606120913927
20
-3.89661519763317
30
-2E-16
41
1
10
55.0698770331027
20
-3.97966144638761
30
-2E-16
41
1
10
55.0867093685568
20
-4.13614867540798
30
-2E-16
41
1
10
55.0942825770155
20
-4.20966568588355
30
-2E-16
41
1
10
55.1149355903011
20
-4.41125730655401
30
-2E-16
41
1
10
55.1260603159795
20
-4.52215158201528
30
1E-16
41
1
10
55.1442046167357
20
-4.65361849949582
30
1E-16
41
1
10
55.1505123776943
20
-4.69159550683372
30
1E-16
41
1
10
55.1648025038901
20
-4.75553058903424
30
0
41
1
10
55.1727704920577
20
-4.78134941186676
30
0
41
1
10
55.1821226036085
20
-4.80076467331872
30
0
0
SPLINE
5
EC
100
AcDbEntity
8
1
62
256
6
ByLayer
370
18
48
1
60
0
100
AcDbSpline
70
4
71
3
72
10
73
6
40
0
40
0
40
0
40
0
40
0.5
40
0.5
40
1
40
1
40
1
40
1
41
1
10
54.8936564591512
20
-5.03404492361321
30
0
41
1
10
54.8968636808133
20
-5.05328636096357
30
0
41
1
10
54.8999314694886
20
-5.06837367734346
30
0
41
1
10
54.9060059593815
20
-5.09009144632199
30
0
41
1
10
54.9090249373824
20
-5.09672284259679
30
0
41
1
10
54.9120573436642
20
-5.0989763787255
30
0
0
SPLINE
5
ED
100
AcDbEntity
8
1
62
256
6
ByLayer
370
18
48
1
60
0
100
AcDbSpline
70
4
71
3
72
48
73
44
40
0
40
0
40
0
40
0
40
0.0517718916537395
40
0.0517718916537395
40
0.103543783307479
40
0.103543783307479
40
0.155315674961219
40
0.155315674961219
40
0.207087566614958
40
0.207087566614958
40
0.310631349922437
40
0.310631349922437
40
0.362403241576177
40
0.362403241576177
40
0.414175133229917
40
0.414175133229917
40
0.465947024883657
40
0.465947024883657
40
0.517718916537397
40
0.517718916537397
40
0.569490808191137
40
0.569490808191137
40
0.621262699844877
40
0.621262699844877
40
0.673034591498618
40
0.673034591498618
40
0.698920537325487
40
0.698920537325487
40
0.724806483152357
40
0.724806483152357
40
0.828350266459834
40
0.828350266459834
40
0.854236212286703
40
0.854236212286703
40
0.880122158113572
40
0.880122158113572
40
0.93189404976731
40
0.93189404976731
40
0.95777999559418
40
0.95777999559418
40
0.98366594142105
40
0.98366594142105
40
1
40
1
40
1
40
1
41
1
10
54.8936564591535
20
-5.03404492361244
30
0
41
1
10
54.3586388750784
20
-4.9916153473277
30
1E-16
41
1
10
53.8240755350539
20
-4.92922180611887
30
1E-16
41
1
10
52.7536045120325
20
-4.7657739700164
30
1E-16
41
1
10
52.2182648072374
20
-4.66475536900563
30
-2E-16
41
1
10
51.1483986928044
20
-4.42664081475701
30
-2E-16
41
1
10
50.6127653371258
20
-4.28934276656659
30
-2E-16
41
1
10
49.542717672083
20
-3.98199356181971
30
-2E-16
41
1
10
49.0080029467529
20
-3.81209724769227
30
-2E-16
41
1
10
47.4014524377801
20
-3.25806261944055
30
2E-16
41
1
10
46.3360130744005
20
-2.83306455077027
30
2E-16
41
1
10
44.7327247665581
20
-2.13686208280788
30
1E-16
41
1
10
44.1966501325667
20
-1.89472854574896
30
1E-16
41
1
10
43.1278318294782
20
-1.39894889819794
30
1E-16
41
1
10
42.594284762459
20
-1.14496867555962
30
1E-16
41
1
10
41.5264416068916
20
-0.629778718609401
30
0
41
1
10
40.9918714023775
20
-0.368293745938189
30
0
41
1
10
39.9209064878834
20
0.156259513624178
30
0
41
1
10
39.3868130135693
20
0.41813625062008
30
0
41
1
10
38.3190189736316
20
0.93623896632289
30
-1E-16
41
1
10
37.7853916135881
20
1.19261179314714
30
-1E-16
41
1
10
36.7160331495538
20
1.6946507345636
30
-1E-16
41
1
10
36.1799512200941
20
1.94044008620699
30
-1E-16
41
1
10
35.1111213211817
20
2.41285661400309
30
-1E-16
41
1
10
34.5775373689983
20
2.6401927765246
30
-2E-16
41
1
10
33.7764119469409
20
2.96434401185499
30
-2E-16
41
1
10
33.5092557645456
20
3.06960625795887
30
-2E-16
41
1
10
32.9744314385969
20
3.27405864361032
30
-2E-16
41
1
10
32.7065008604799
20
3.37330930265313
30
-2E-16
41
1
10
31.3680853104066
20
3.85166554695718
30
2E-16
41
1
10
30.3025950034567
20
4.17695121047819
30
2E-16
41
1
10
28.9651929210588
20
4.49663763038299
30
2E-16
41
1
10
28.6971705156434
20
4.5562636384264
30
2E-16
41
1
10
28.1618482446892
20
4.6661328161494
30
2E-16
41
1
10
27.8944886564179
20
4.71639849847841
30
-1E-16
41
1
10
27.0928825064089
20
4.85293969444248
30
-1E-16
41
1
10
26.5592668354508
20
4.92504374350384
30
-1E-16
41
1
10
25.7578842642782
20
5.00357914900354
30
0
41
1
10
25.4906108013953
20
5.02483333830403
30
0
41
1
10
24.9554552054701
20
5.05734659942004
30
0
41
1
10
24.6873555155417
20
5.06860446577059
30
0
41
1
10
24.2508139059718
20
5.07869768863776
30
0
41
1
10
24.0820614291918
20
5.080589827983
30
0
41
1
10
23.9133998091845
20
5.08047517593698
30
0
0
SPLINE
5
EE
100
AcDbEntity
8
1
62
256
6
ByLayer
370
18
48
1
60
0
100
AcDbSpline
70
4
71
3
72
10
73
6
40
0
40
0
40
0
40
0
40
0.5
40
0.5
40
1
40
1
40
1
40
1
41
1
10
3.50164060570342
20
5.01121635938259
30
0
41
1
10
3.50164060570342
20
5.00613553181049
30
0
41
1
10
3.51982436566783
20
5.0008670039083
30
0
41
1
10
3.57772983814468
20
4.99493596705884
30
0
41
1
10
3.61512353561145
20
4.99463128770725
30
0
41
1
10
3.64574461106795
20
4.99715418003322
30
0
0
SPLINE
5
EF
100
AcDbEntity
8
1
62
256
6
ByLayer
370
18
48
1
60
0
100
AcDbSpline
70
4
71
3
72
20
73
16
40
0
40
0
40
0
40
0
40
0.229562183460862
40
0.229562183460862
40
0.344343275191294
40
0.344343275191294
40
0.459124366921725
40
0.459124366921725
40
0.688686550382587
40
0.688686550382587
40
0.803467642113019
40
0.803467642113019
40
0.91824873384345
40
0.91824873384345
40
1
40
1
40
1
40
1
41
1
10
55.6963976107993
20
1.42184237144343
30
0
41
1
10
55.6157884966244
20
1.41027274045641
30
0
41
1
10
55.5377078900144
20
1.39194652858546
30
0
41
1
10
55.4245908525575
20
1.35486325181117
30
0
41
1
10
55.3872925284375
20
1.34078024579873
30
0
41
1
10
55.3160419024715
20
1.31044300632263
30
0
41
1
10
55.2819373054256
20
1.2941677600956
30
0
41
1
10
55.1839424983161
20
1.24279406044994
30
0
41
1
10
55.1236261025727
20
1.20460722539931
30
0
41
1
10
55.0455546879718
20
1.14800988763068
30
0
41
1
10
55.0214543115156
20
1.12919061324419
30
0
41
1
10
54.9769243951118
20
1.0919934425209
30
0
41
1
10
54.9563704847765
20
1.07349070948047
30
0
41
1
10
54.9250534298087
20
1.04311988921668
30
0
41
1
10
54.913123621967
20
1.03086106598079
30
0
41
1
10
54.9022944926982
20
1.01897858835423
30
0
0
SPLINE
5
F0
100
AcDbEntity
8
1
62
256
6
ByLayer
370
18
48
1
60
0
100
AcDbSpline
70
4
71
3
72
8
73
4
40
0
40
0
40
0
40
0
40
1
40
1
40
1
40
1
41
1
10
54.4721160723411
20
-0.0529458327995087
30
0
41
1
10
54.5136788342457
20
-0.0726002907698842
30
0
41
1
10
54.5549820220409
20
-0.0911357857293638
30
0
41
1
10
54.5960736150129
20
-0.108580298542222
30
0
0
SPLINE
5
F1
100
AcDbEntity
8
1
62
256
6
ByLayer
370
18
48
1
60
0
100
AcDbSpline
70
4
71
3
72
10
73
6
40
0
40
0
40
0
40
0
40
0.5
40
0.5
40
1
40
1
40
1
40
1
41
1
10
3.50164060570342
20
-5.01121635938259
30
0
41
1
10
3.50164060570342
20
-5.00613553181049
30
0
41
1
10
3.51982436566783
20
-5.00086700390833
30
0
41
1
10
3.57772983814468
20
-4.99493596705884
30
0
41
1
10
3.61512353561142
20
-4.99463128770725
30
0
41
1
10
3.64574461106795
20
-4.99715418003322
30
0
0
SPLINE
5
F2
100
AcDbEntity
8
1
62
256
6
ByLayer
370
18
48
1
60
0
100
AcDbSpline
70
4
71
3
72
60
73
56
40
0
40
0
40
0
40
0
40
0.0684874043635194
40
0.0684874043635194
40
0.105447802578655
40
0.105447802578655
40
0.14240820079379
40
0.14240820079379
40
0.179368599008925
40
0.179368599008925
40
0.197848798116492
40
0.197848798116492
40
0.21632899722406
40
0.21632899722406
40
0.290249793654329
40
0.290249793654329
40
0.364170590084598
40
0.364170590084598
40
0.382650789192166
40
0.382650789192166
40
0.401130988299733
40
0.401130988299733
40
0.438091386514868
40
0.438091386514868
40
0.475051784730004
40
0.475051784730004
40
0.512012182945139
40
0.512012182945139
40
0.548972581160275
40
0.548972581160275
40
0.58593297937541
40
0.58593297937541
40
0.604413178482978
40
0.604413178482978
40
0.622893377590546
40
0.622893377590546
40
0.659853775805681
40
0.659853775805681
40
0.696814174020816
40
0.696814174020816
40
0.733774572235952
40
0.733774572235952
40
0.770734970451087
40
0.770734970451087
40
0.807695368666222
40
0.807695368666222
40
0.881616165096493
40
0.881616165096493
40
0.955536961526763
40
0.955536961526763
40
0.97401716063433
40
0.97401716063433
40
0.992497359741898
40
0.992497359741898
40
1
40
1
40
1
40
1
41
1
10
6.89058818457653
20
5.06983758322079
30
0
41
1
10
7.82135309458641
20
5.07033039775578
30
0
41
1
10
8.74335458754518
20
5.00967512227564
30
0
41
1
10
10.1598029650153
20
4.82798062315163
30
-1E-16
41
1
10
10.6555146684003
20
4.74753235405899
30
-1E-16
41
1
10
11.6475925889076
20
4.55462720887934
30
2E-16
41
1
10
12.1440899338903
20
4.44232588832617
30
2E-16
41
1
10
13.1392341828301
20
4.18688015210364
30
2E-16
41
1
10
13.6381662884183
20
4.0440320966047
30
2E-16
41
1
10
14.389935295218
20
3.80827215599138
30
2E-16
41
1
10
14.6414940091611
20
3.72592218190263
30
2E-16
41
1
10
15.143644387206
20
3.55510027582432
30
-2E-16
41
1
10
15.3940826486605
20
3.4666795607464
30
-2E-16
41
1
10
16.6439066316698
20
3.01097204528176
30
-2E-16
41
1
10
17.635878976082
20
2.60234560447699
30
-2E-16
41
1
10
19.6193885724484
20
1.72550173893313
30
-1E-16
41
1
10
20.6110336656654
20
1.25751271685792
30
-1E-16
41
1
10
21.8597038626419
20
0.653334925435161
30
0
41
1
10
22.1100247621434
20
0.531826752257956
30
0
41
1
10
22.6117934074455
20
0.28732629250743
30
0
41
1
10
22.8634960526711
20
0.164270673671382
30
0
41
1
10
23.6155615460798
20
-0.20371483129108
30
0
41
1
10
24.1144917977654
20
-0.44819785354764
30
0
41
1
10
25.1098601413409
20
-0.930556478946698
30
1E-16
41
1
10
25.605956961217
20
-1.16914970573478
30
1E-16
41
1
10
26.5976672904891
20
-1.6357098930616
30
1E-16
41
1
10
27.0931595023835
20
-1.86393945043091
30
1E-16
41
1
10
28.0850311036518
20
-2.30709301234501
30
1E-16
41
1
10
28.5814956691227
20
-2.52184452763905
30
2E-16
41
1
10
29.5776538909835
20
-2.93351461684242
30
2E-16
41
1
10
30.077032625164
20
-3.13099310988716
30
2E-16
41
1
10
30.8301970447504
20
-3.41066578145794
30
2E-16
41
1
10
31.0816563755409
20
-3.50110852401906
30
2E-16
41
1
10
31.5825470246127
20
-3.67511371315979
30
-2E-16
41
1
10
31.8323978350935
20
-3.75882859730191
30
-2E-16
41
1
10
32.5805936133862
20
-3.99960374519347
30
-2E-16
41
1
10
33.0776546005623
20
-4.14619474085123
30
-2E-16
41
1
10
34.070173620971
20
-4.40967007697242
30
-2E-16
41
1
10
34.5654470107648
20
-4.5267267136644
30
-2E-16
41
1
10
35.5567050168363
20
-4.72891121829031
30
1E-16
41
1
10
36.0524375876828
20
-4.81429133512538
30
1E-16
41
1
10
37.0460634880427
20
-4.95186041229127
30
1E-16
41
1
10
37.5441020812575
20
-5.00397921652109
30
0
41
1
10
38.5442590345686
20
-5.07352594307636
30
0
41
1
10
39.0478477723532
20
-5.09083574312407
30
0
41
1
10
40.5490832316517
20
-5.08897308552361
30
0
41
1
10
41.5410389959196
20
-5.01676540477007
30
0
41
1
10
43.5229930035678
20
-4.73884018400105
30
1E-16
41
1
10
44.5131178916741
20
-4.53325382183834
30
-2E-16
41
1
10
45.7591663607008
20
-4.19982800296143
30
-2E-16
41
1
10
46.0088425302953
20
-4.12938154392262
30
-2E-16
41
1
10
46.5092956932703
20
-3.98108992821247
30
-2E-16
41
1
10
46.7603283390579
20
-3.90312577204369
30
-2E-16
41
1
10
47.1133175085361
20
-3.78866486327587
30
-2E-16
41
1
10
47.2151357497768
20
-3.75510375142764
30
-2E-16
41
1
10
47.3168525399059
20
-3.72104589490368
30
-2E-16
0
SPLINE
5
F3
100
AcDbEntity
8
1
62
256
6
ByLayer
370
18
48
1
60
0
100
AcDbSpline
70
4
71
3
72
8
73
4
40
0
40
0
40
0
40
0
40
1
40
1
40
1
40
1
41
1
10
48.2769042284098
20
-3.3842355889316
30
2E-16
41
1
10
48.293846217298
20
-3.37802823942835
30
2E-16
41
1
10
48.3107859996703
20
-3.37180813639662
30
2E-16
41
1
10
48.3277236094836
20
-3.36557534261433
30
2E-16
0
SPLINE
5
F4
100
AcDbEntity
8
1
62
256
6
ByLayer
370
18
48
1
60
0
100
AcDbSpline
70
4
71
3
72
78
73
74
40
0
40
0
40
0
40
0
40
0.0461915457760812
40
0.0461915457760812
40
0.0692873186641218
40
0.0692873186641218
40
0.0923830915521624
40
0.0923830915521624
40
0.138574637328244
40
0.138574637328244
40
0.161670410216285
40
0.161670410216285
40
0.184766183104325
40
0.184766183104325
40
0.230957728880406
40
0.230957728880406
40
0.254053501768446
40
0.254053501768446
40
0.277149274656486
40
0.277149274656486
40
0.300245047544526
40
0.300245047544526
40
0.323340820432567
40
0.323340820432567
40
0.346436593320607
40
0.346436593320607
40
0.369532366208647
40
0.369532366208647
40
0.392628139096687
40
0.392628139096687
40
0.415723911984727
40
0.415723911984727
40
0.438819684872766
40
0.438819684872766
40
0.461915457760805
40
0.461915457760805
40
0.508107003536883
40
0.508107003536883
40
0.531202776424923
40
0.531202776424923
40
0.554298549312963
40
0.554298549312963
40
0.577394322201002
40
0.577394322201002
40
0.600490095089042
40
0.600490095089042
40
0.623585867977082
40
0.623585867977082
40
0.646681640865121
40
0.646681640865121
40
0.669777413753161
40
0.669777413753161
40
0.6928731866412
40
0.6928731866412
40
0.739064732417279
40
0.739064732417279
40
0.762160505305318
40
0.762160505305318
40
0.785256278193357
40
0.785256278193357
40
0.831447823969435
40
0.831447823969435
40
0.854543596857474
40
0.854543596857474
40
0.877639369745513
40
0.877639369745513
40
0.923830915521591
40
0.923830915521591
40
0.970022461297668
40
0.970022461297668
40
0.993118234185707
40
0.993118234185707
40
1
40
1
40
1
40
1
41
1
10
3.64574461106795
20
4.99715418003322
30
0
41
1
10
4.17569664438361
20
5.04081730740739
30
0
41
1
10
4.70573668470414
20
5.06440642817932
30
0
41
1
10
5.50168944670412
20
5.07027602971263
30
0
41
1
10
5.7673398081152
20
5.06729762318034
30
0
41
1
10
6.29774086132687
20
5.05143769851577
30
0
41
1
10
6.56251863412226
20
5.03855196293173
30
0
41
1
10
7.35656314886222
20
4.98529471818239
30
0
41
1
10
7.8853980346972
20
4.93032963139487
30
-1E-16
41
1
10
8.67937769909679
20
4.81949431903936
30
-1E-16
41
1
10
8.94417642954835
20
4.7778340210412
30
-1E-16
41
1
10
9.4740324002739
20
4.68496743431686
30
-1E-16
41
1
10
9.73933430341108
20
4.63368258596068
30
2E-16
41
1
10
10.5346061225053
20
4.46686023540923
30
2E-16
41
1
10
11.0640329674161
20
4.33849269952279
30
2E-16
41
1
10
11.8578109501427
20
4.12139642976479
30
2E-16
41
1
10
12.122355357482
20
4.04494707536404
30
2E-16
41
1
10
12.6513650735963
20
3.8838169104225
30
2E-16
41
1
10
12.9158049759018
20
3.79908197812412
30
2E-16
41
1
10
13.4455571700819
20
3.62258015308237
30
-2E-16
41
1
10
13.7111379165945
20
3.53078448891486
30
-2E-16
41
1
10
14.2416492482761
20
3.34089805729821
30
-2E-16
41
1
10
14.5066333691799
20
3.24278674824126
30
-2E-16
41
1
10
15.0361336305871
20
3.04036822402239
30
-2E-16
41
1
10
15.300654619999
20
2.93606884244113
30
-2E-16
41
1
10
15.8293134122218
20
2.72136389195924
30
-2E-16
41
1
10
16.093409600383
20
2.61087191630745
30
-2E-16
41
1
10
16.6222606576342
20
2.38557180840479
30
-1E-16
41
1
10
16.8870649198155
20
2.27087004927986
30
-1E-16
41
1
10
17.4173446805297
20
2.03725888058477
30
-1E-16
41
1
10
17.6830429190371
20
1.91821532966696
30
-1E-16
41
1
10
18.2135303310687
20
1.67675660640964
30
-1E-16
41
1
10
18.4784203065872
20
1.55432906201904
30
-1E-16
41
1
10
19.0074542460027
20
1.30598755679287
30
-1E-16
41
1
10
19.27156638969
20
1.18000363886489
30
-1E-16
41
1
10
20.0645676622319
20
0.800373415775567
30
0
41
1
10
20.5935116980718
20
0.543846218973471
30
0
41
1
10
21.3885856585424
20
0.156445412621309
30
0
41
1
10
21.6541897113506
20
0.0269258292546226
30
0
41
1
10
22.1844536120674
20
-0.231717180604051
30
0
41
1
10
22.4492029703402
20
-0.360958281237373
30
0
41
1
10
22.9783432847895
20
-0.618438575374881
30
0
41
1
10
23.2427716449658
20
-0.746602780181746
30
0
41
1
10
23.7713417752403
20
-1.00177880501158
30
1E-16
41
1
10
24.0353909976387
20
-1.12897185776842
30
1E-16
41
1
10
24.5644158030597
20
-1.37975767185458
30
1E-16
41
1
10
24.8292335439253
20
-1.50367263580287
30
1E-16
41
1
10
25.3594702538646
20
-1.74857212099224
30
1E-16
41
1
10
25.6251177018469
20
-1.86962160283571
30
1E-16
41
1
10
26.1553480118461
20
-2.10779651179055
30
1E-16
41
1
10
26.4200699540915
20
-2.2250021787988
30
1E-16
41
1
10
26.9488002163713
20
-2.45546602334295
30
2E-16
41
1
10
27.2128776245446
20
-2.56858409022195
30
2E-16
41
1
10
28.0058263991066
20
-2.8988236096169
30
2E-16
41
1
10
28.5351848503152
20
-3.10733635135725
30
2E-16
41
1
10
29.3302793053385
20
-3.40269479550881
30
2E-16
41
1
10
29.5956930228128
20
-3.49828947818369
30
2E-16
41
1
10
30.1251846309096
20
-3.68269468577222
30
-2E-16
41
1
10
30.3895355023835
20
-3.77139852420299
30
-2E-16
41
1
10
31.1829255499276
20
-4.02502773817198
30
-2E-16
41
1
10
31.7119296575619
20
-4.17810951024427
30
-2E-16
41
1
10
32.5058472439879
20
-4.3835666148376
30
-2E-16
41
1
10
32.7705290670197
20
-4.44803521316436
30
-2E-16
41
1
10
33.3002116521675
20
-4.56856500765079
30
-2E-16
41
1
10
33.5654861190654
20
-4.62454936293432
30
-2E-16
41
1
10
34.360042024761
20
-4.77831087392983
30
1E-16
41
1
10
34.8883323297982
20
-4.86244917144381
30
1E-16
41
1
10
35.9460494400042
20
-4.9918769511695
30
1E-16
41
1
10
36.4752830983472
20
-5.03743101419141
30
0
41
1
10
37.2702030021651
20
-5.07654761074696
30
0
41
1
10
37.5355127186276
20
-5.08469342066027
30
0
41
1
10
37.8789247100984
20
-5.0887686339546
30
0
41
1
10
37.9577342754465
20
-5.0892581965328
30
0
41
1
10
38.0365304602402
20
-5.08930475791431
30
0
0
SPLINE
5
F5
100
AcDbEntity
8
1
62
256
6
ByLayer
370
18
48
1
60
0
100
AcDbSpline
70
4
71
3
72
30
73
26
40
0
40
0
40
0
40
0
40
0.498383863696028
40
0.498383863696028
40
0.6761395927418
40
0.6761395927418
40
0.791267449197179
40
0.791267449197179
40
0.865832330271258
40
0.865832330271258
40
0.914151376950244
40
0.914151376950244
40
0.945494056831832
40
0.945494056831832
40
0.965843050435328
40
0.965843050435328
40
0.979076902572447
40
0.979076902572447
40
0.987709537425273
40
0.987709537425273
40
0.993341372831911
40
0.993341372831911
40
0.997098074424215
40
0.997098074424215
40
1
40
1
40
1
40
1
41
1
10
54.9120573436818
20
-5.09897637871356
30
0
41
1
10
54.9630398520028
20
-5.06560530466962
30
0
41
1
10
55.014116430335
20
-5.03193796187281
30
0
41
1
10
55.0834692730637
20
-4.98592378420412
30
0
41
1
10
55.101707579216
20
-4.97379490611709
30
0
41
1
10
55.1317620990531
20
-4.95376218036597
30
0
41
1
10
55.1435768940315
20
-4.94587538880555
30
0
41
1
10
55.1630575887688
20
-4.93285182929242
30
0
41
1
10
55.1707186556591
20
-4.92772516765356
30
0
41
1
10
55.183353288623
20
-4.91926216261953
30
0
41
1
10
55.1883236687554
20
-4.91593080825058
30
0
41
1
10
55.1965228130824
20
-4.91043203556603
30
0
41
1
10
55.1997499412299
20
-4.90826689694674
30
0
41
1
10
55.2050744482862
20
-4.90469318671094
30
0
41
1
10
55.2071718527206
20
-4.90328507822514
30
0
41
1
10
55.2106297382973
20
-4.90096307982003
30
0
41
1
10
55.2119912547901
20
-4.9000486798393
30
0
41
1
10
55.2142362753853
20
-4.89854072582997
30
0
41
1
10
55.2151213964804
20
-4.89794615146036
30
0
41
1
10
55.2165810222506
20
-4.89696558188663
30
0
41
1
10
55.2171575969694
20
-4.89657821409852
30
0
41
1
10
55.2181018270811
20
-4.89594396992274
30
0
41
1
10
55.2184758697292
20
-4.8956927569086
30
0
41
1
10
55.2191138607562
20
-4.89526445537078
30
0
41
1
10
55.2193854187456
20
-4.89508221089258
30
0
41
1
10
55.2196325559432
20
-4.89491651722008
30
0
0
SPLINE
5
F6
100
AcDbEntity
8
1
62
256
6
ByLayer
370
18
48
1
60
0
100
AcDbSpline
70
4
71
3
72
36
73
32
40
0
40
0
40
0
40
0
40
0.0249512332939821
40
0.0249512332939821
40
0.0720300200764093
40
0.0720300200764093
40
0.119108806858836
40
0.119108806858836
40
0.166187593641264
40
0.166187593641264
40
0.260345167206116
40
0.260345167206116
40
0.354502740770968
40
0.354502740770968
40
0.44866031433582
40
0.44866031433582
40
0.542817887900672
40
0.542817887900672
40
0.589896674683099
40
0.589896674683099
40
0.636975461465525
40
0.636975461465525
40
0.731133035030377
40
0.731133035030377
40
0.778211821812804
40
0.778211821812804
40
0.825290608595231
40
0.825290608595231
40
0.919448182160083
40
0.919448182160083
40
1
40
1
40
1
40
1
41
1
10
37.4838591282225
20
4.83406346572491
30
0
41
1
10
37.6247786304604
20
4.83785863338608
30
0
41
1
10
37.7656844347404
20
4.84046652271587
30
0
41
1
10
38.1724495826888
20
4.84456573856062
30
0
41
1
10
38.4386362259317
20
4.8420648548219
30
0
41
1
10
38.9721901343764
20
4.82610511402686
30
0
41
1
10
39.2398415644612
20
4.81292372360352
30
0
41
1
10
39.773416999338
20
4.77720355566254
30
0
41
1
10
40.0395265452126
20
4.75463673984962
30
0
41
1
10
40.8359582928329
20
4.67429691013822
30
-1E-16
41
1
10
41.3641841959326
20
4.60454529529773
30
-1E-16
41
1
10
42.4193583567307
20
4.42656347003955
30
0
41
1
10
42.9460035815754
20
4.31990263205617
30
2E-16
41
1
10
43.9987885979085
20
4.07505291922274
30
2E-16
41
1
10
44.5244297342765
20
3.93744995673379
30
2E-16
41
1
10
45.5790091953726
20
3.63052883969576
30
2E-16
41
1
10
46.1076008311414
20
3.46198210924433
30
-2E-16
41
1
10
46.902895516531
20
3.1892202311451
30
-2E-16
41
1
10
47.1683322530835
20
3.09498593919096
30
-2E-16
41
1
10
47.700488708571
20
2.90014740757488
30
-2E-16
41
1
10
47.9678215330522
20
2.79929286200428
30
-2E-16
41
1
10
48.7686306190117
20
2.48917910104296
30
-2E-16
41
1
10
49.3003510424423
20
2.27289316019144
30
-1E-16
41
1
10
50.0954556915223
20
1.9367776473247
30
-1E-16
41
1
10
50.3599955681393
20
1.82270456979512
30
-1E-16
41
1
10
50.8888230645182
20
1.59146232238365
30
-1E-16
41
1
10
51.1531861673328
20
1.47435937332864
30
-1E-16
41
1
10
51.9463486136473
20
1.11941588873296
30
-1E-16
41
1
10
52.4752517272879
20
0.878006589456106
30
-1E-16
41
1
10
53.4578673736529
20
0.424143454806341
30
0
41
1
10
53.9113698908817
20
0.212510895219935
30
0
41
1
10
54.3657516908791
20
-0.0005188536739809
30
0
0
SPLINE
5
F7
100
AcDbEntity
8
1
62
256
6
ByLayer
370
18
48
1
60
0
100
AcDbSpline
70
4
71
3
72
8
73
4
40
0
40
0
40
0
40
0
40
1
40
1
40
1
40
1
41
1
10
54.8936564591527
20
-5.03404492361131
30
0
41
1
10
54.981007753876
20
-4.98352099593995
30
0
41
1
10
55.0685520733902
20
-4.93210904592405
30
0
41
1
10
55.1563227949475
20
-4.87983572580615
30
0
0
SPLINE
5
F8
100
AcDbEntity
8
1
62
256
6
ByLayer
370
18
48
1
60
0
100
AcDbSpline
70
4
71
3
72
16
73
12
40
0
40
0
40
0
40
0
40
0.250000000000007
40
0.250000000000007
40
0.500000000000014
40
0.500000000000014
40
0.625000000000013
40
0.625000000000013
40
0.750000000000011
40
0.750000000000011
40
1
40
1
40
1
40
1
41
1
10
54.4611218920595
20
0.664665751486439
30
0
41
1
10
54.546773020741
20
0.714389171655057
30
0
41
1
10
54.6346715261113
20
0.755024194052538
30
0
41
1
10
54.8133183181234
20
0.819362952938263
30
-1E-16
41
1
10
54.9040794224207
20
0.84321920233495
30
-1E-16
41
1
10
55.0412758621219
20
0.864292440203741
30
-1E-16
41
1
10
55.0871703668549
20
0.869089995285265
30
-1E-16
41
1
10
55.1790893125113
20
0.875666240463659
30
-1E-16
41
1
10
55.2251317046983
20
0.876570505585164
30
-1E-16
41
1
10
55.3631566463484
20
0.870310679391082
30
-1E-16
41
1
10
55.455457047782
20
0.854835619265913
30
-1E-16
41
1
10
55.5450099744049
20
0.828536328724141
30
-1E-16
0
SPLINE
5
F9
100
AcDbEntity
8
1
62
256
6
ByLayer
370
18
48
1
60
0
100
AcDbSpline
70
4
71
3
72
28
73
24
40
0
40
0
40
0
40
0
40
0.0358770309032766
40
0.0358770309032766
40
0.17360888363138
40
0.17360888363138
40
0.242474809995432
40
0.242474809995432
40
0.311340736359484
40
0.311340736359484
40
0.449072589087588
40
0.449072589087588
40
0.586804441815691
40
0.586804441815691
40
0.655670368179743
40
0.655670368179743
40
0.724536294543794
40
0.724536294543794
40
0.862268147271897
40
0.862268147271897
40
0.931134073635949
40
0.931134073635949
40
1
40
1
40
1
40
1
41
1
10
3.6020689490216
20
4.80898507942661
30
0
41
1
10
3.60206603006944
20
4.81193808555574
30
0
41
1
10
3.60206302999762
20
4.81332597139613
30
0
41
1
10
3.60204821372707
20
4.81247121238667
30
0
41
1
10
3.60203550884265
20
4.78907849263996
30
0
41
1
10
3.60201548608794
20
4.72059763533778
30
0
41
1
10
3.60200864747233
20
4.69217592723601
30
-1E-16
41
1
10
3.60199467904951
20
4.62389624560072
30
-1E-16
41
1
10
3.60198752966289
20
4.5838839575689
30
-1E-16
41
1
10
3.60196598592751
20
4.44815704901765
30
-1E-16
41
1
10
3.60195139613751
20
4.33631436325607
30
2E-16
41
1
10
3.60192184212718
20
4.07079790776606
30
2E-16
41
1
10
3.60190702346031
20
3.91842859571412
30
2E-16
41
1
10
3.60188455809416
20
3.661935947974
30
2E-16
41
1
10
3.6018770639412
20
3.57219382522692
30
-2E-16
41
1
10
3.60186198297862
20
3.3842780965158
30
-2E-16
41
1
10
3.60185437287865
20
3.28578982483478
30
-2E-16
41
1
10
3.60183142454923
20
2.97978950649377
30
-2E-16
41
1
10
3.60181607399758
20
2.76326571124636
30
-2E-16
41
1
10
3.60179229970856
20
2.42032387346543
30
-1E-16
41
1
10
3.60178424918428
20
2.30296736950663
30
-1E-16
41
1
10
3.60176776702897
20
2.06207821758397
30
-1E-16
41
1
10
3.60175931711106
20
1.93827693492534
30
-1E-16
41
1
10
3.60175064756058
20
1.8119235930385
30
-1E-16
0
SPLINE
5
FA
100
AcDbEntity
8
1
62
256
6
ByLayer
370
18
48
1
60
0
100
AcDbSpline
70
4
71
2
72
6
73
3
40
0
40
0
40
0
40
1
40
1
40
1
41
1
10
5.37771977895815
20
4.81571234882065
30
0
41
1
10
4.48996256827232
20
4.81659547377325
30
0
41
1
10
3.60202356261326
20
4.81293700971017
30
0
0
SPLINE
5
FB
100
AcDbEntity
8
1
62
256
6
ByLayer
370
18
48
1
60
0
100
AcDbSpline
70
4
71
3
72
17
73
13
40
0
40
0
40
0
40
0
40
0.113274016975213
40
0.258224660516564
40
0.404045219391923
40
0.566910977310196
40
0.654413419216587
40
0.722464797286354
40
0.760084260477098
40
0.822928459002357
40
0.911223758601828
40
1
40
1
40
1
40
1
41
1
10
55.5412732155212
20
0.830722863032264
30
-1E-16
41
1
10
55.3001309791311
20
0.902724820201087
30
-1E-16
41
1
10
54.7512990215958
20
1.06974641477606
30
-1E-16
41
1
10
53.8958739178445
20
1.34215080957546
30
-1E-16
41
1
10
52.9390708510249
20
1.65922590717642
30
-1E-16
41
1
10
52.1070480490402
20
1.94710665495802
30
-1E-16
41
1
10
51.440794563729
20
2.18539887775387
30
-1E-16
41
1
10
51.0375171711142
20
2.33257902227737
30
-1E-16
41
1
10
50.6862578297275
20
2.46250770940591
30
-2E-16
41
1
10
50.2934566246625
20
2.60969125224696
30
-2E-16
41
1
10
49.7953101028302
20
2.79966501016367
30
-2E-16
41
1
10
49.4289127588973
20
2.94304244025216
30
-2E-16
41
1
10
49.2455086803676
20
3.01566667319611
30
-2E-16
0
SPLINE
5
FC
100
AcDbEntity
8
1
62
256
6
ByLayer
370
18
48
1
60
0
100
AcDbSpline
70
4
71
3
72
32
73
28
40
0
40
0
40
0
40
0
40
2.5089451047E-06
40
1.8215842213E-05
40
3.26087114414E-05
40
5.85336786907E-05
40
7.88811269939E-05
40
9.60863010831E-05
40
0.0001126805212844
40
0.0004850374782353
40
0.0007832871154669
40
0.0013388405826317
40
0.0024043003493485
40
0.0045417344072646
40
0.0091104373297576
40
0.0196763340970465
40
0.0434846008698102
40
0.0876859878420506
40
0.168942195306454
40
0.297823810293612
40
0.466433752620161
40
0.631669969298848
40
0.678766820424923
40
0.728453000727296
40
0.801159749405255
40
0.898709926087564
40
1
40
1
40
1
40
1
41
1
10
25.5182233453954
20
0.0895486000939343
30
0
41
1
10
25.5182272162548
20
0.0895476808966293
30
0
41
1
10
25.5182548462852
20
0.0895411353265558
30
0
41
1
10
25.5182979667474
20
0.0895311324638897
30
0
41
1
10
25.5183367247254
20
0.0895233526984782
30
0
41
1
10
25.5183084438587
20
0.0895333350298131
30
0
41
1
10
25.5182367762761
20
0.0895546851556901
30
0
41
1
10
25.5181209459034
20
0.0895868733344969
30
0
41
1
10
25.5169775495226
20
0.0898946896785446
30
0
41
1
10
25.5148793371062
20
0.090451206556196
30
0
41
1
10
25.5113270149803
20
0.0914020205950123
30
0
41
1
10
25.5056778535664
20
0.0929087907682913
30
0
41
1
10
25.4946200356623
20
0.0958559143582818
30
0
41
1
10
25.4715878020604
20
0.101979728815138
30
0
41
1
10
25.4200800972598
20
0.115648905076228
30
0
41
1
10
25.30313804201
20
0.146682312896218
30
0
41
1
10
25.066431845407
20
0.209907621764813
30
0
41
1
10
24.6173500372132
20
0.331815427472947
30
0
41
1
10
23.8520912220907
20
0.545644383923701
30
0
41
1
10
22.717025139996
20
0.878369796250922
30
-1E-16
41
1
10
21.3377661468315
20
1.30939775891113
30
-1E-16
41
1
10
20.2098815580316
20
1.68648845708384
30
-1E-16
41
1
10
19.4374908707389
20
1.95545562924073
30
-1E-16
41
1
10
18.9388504035204
20
2.13225193905791
30
-1E-16
41
1
10
18.2933944150751
20
2.36636749265003
30
-1E-16
41
1
10
17.4992453889022
20
2.66292553896491
30
-2E-16
41
1
10
16.9206725624661
20
2.88767827210441
30
-2E-16
41
1
10
16.6266579572112
20
3.00403977369393
30
-2E-16
0
SPLINE
5
FD
100
AcDbEntity
8
1
62
256
6
ByLayer
370
18
48
1
60
0
100
AcDbSpline
70
4
71
3
72
21
73
17
40
0
40
0
40
0
40
0
40
0.10082146494482
40
0.178798129003616
40
0.242838334772197
40
0.298092294851685
40
0.345106995428764
40
0.3889946374953
40
0.458845617187472
40
0.536153741850044
40
0.592710016188364
40
0.648016816614803
40
0.740283743750563
40
0.848926026639318
40
0.942223003292038
40
1
40
1
40
1
40
1
41
1
10
23.9145051391145
20
-4.825382379225
30
0
41
1
10
24.2810692160066
20
-4.82550266409157
30
0
41
1
10
24.9313383022414
20
-4.82573706091014
30
0
41
1
10
25.8164848982799
20
-4.8261957124511
30
0
41
1
10
26.5336434406406
20
-4.82646861384734
30
0
41
1
10
27.1398399304911
20
-4.82731994490689
30
0
41
1
10
27.6722567851694
20
-4.82796131774825
30
0
41
1
10
28.2579416437974
20
-4.82802592661699
30
0
41
1
10
28.9538411557177
20
-4.827715341687
30
0
41
1
10
29.6960301494914
20
-4.82748310022592
30
0
41
1
10
30.3851187841448
20
-4.82962502719025
30
0
41
1
10
31.1285235524449
20
-4.83013257276372
30
0
41
1
10
32.0621163847701
20
-4.82895036504073
30
0
41
1
10
33.1337655120024
20
-4.82936523803715
30
0
41
1
10
34.0805134478986
20
-4.83056032830911
30
0
41
1
10
34.6300050559365
20
-4.83157619549002
30
0
41
1
10
34.8404041173901
20
-4.83179710344373
30
0
0
SPLINE
5
FE
100
AcDbEntity
8
1
62
256
6
ByLayer
370
18
48
1
60
0
100
AcDbSpline
70
4
71
3
72
20
73
16
40
0
40
0
40
0
40
0
40
0.10549243904443
40
0.20681527842462
40
0.279841533457966
40
0.351688593732816
40
0.445142439406284
40
0.55396739282886
40
0.646389457065811
40
0.702657656644429
40
0.76090587731088
40
0.840249139350971
40
0.910096862085356
40
0.962439173684861
40
1
40
1
40
1
40
1
41
1
10
38.0360738286427
20
4.83283799654194
30
0
41
1
10
37.6524269179486
20
4.83112656306363
30
0
41
1
10
36.900886881807
20
4.82892052459982
30
0
41
1
10
35.8941408469062
20
4.83163566842814
30
0
41
1
10
34.9965830276459
20
4.83227107503271
30
0
41
1
10
34.131363716238
20
4.83062439845921
30
0
41
1
10
33.1337651828553
20
4.8293658745427
30
0
41
1
10
32.0621177329828
20
4.82894775786343
30
0
41
1
10
31.1253610935026
20
4.8301433303919
30
0
41
1
10
30.3730068779562
20
4.82959949542212
30
0
41
1
10
29.6679976894137
20
4.8274219112522
30
0
41
1
10
28.9135361801256
20
4.82774862441994
30
0
41
1
10
28.1806446829941
20
4.82804808035613
30
0
41
1
10
27.5996157846845
20
4.82792636220714
30
0
41
1
10
27.2725937139323
20
4.82746318788787
30
0
41
1
10
27.1359822121747
20
4.82727302076688
30
0
0
SPLINE
5
FF
100
AcDbEntity
8
1
62
256
6
ByLayer
370
18
48
1
60
0
100
AcDbSpline
70
4
71
2
72
6
73
3
40
0
40
0
40
0
40
1
40
1
40
1
41
1
10
40.2455087742284
20
-0.0027310902270585
30
0
41
1
10
40.2455004788889
20
-0.0027222310071124
30
0
41
1
10
40.245492183546
20
-0.002713312555386
30
0
0
LINE
5
84
100
AcDbEntity
8
SK1
62
256
6
ByLayer
370
18
48
1
60
0
100
AcDbLine
10
-43.255
20
-6
30
0
11
-43.255
21
6
31
0
39
0
210
0
220
0
230
1
0
LINE
5
86
100
AcDbEntity
8
SK1
62
256
6
ByLayer
370
18
48
1
60
0
100
AcDbLine
10
-44.25
20
-3.065519
30
0
11
-44.25
21
-1.271676
31
0
39
0
210
0
220
0
230
1
0
LINE
5
87
100
AcDbEntity
8
SK1
62
256
6
ByLayer
370
18
48
1
60
0
100
AcDbLine
10
-44.417949
20
-2.989668
30
0
11
-44.417949
21
-1.195786
31
0
39
0
210
0
220
0
230
1
0
LINE
5
88
100
AcDbEntity
8
SK1
62
256
6
ByLayer
370
18
48
1
60
0
100
AcDbLine
10
-45
20
-3.204511
30
0
11
-45
21
-0.269286
31
0
39
0
210
0
220
0
230
1
0
LINE
5
89
100
AcDbEntity
8
SK1
62
256
6
ByLayer
370
18
48
1
60
0
100
AcDbLine
10
-44.15
20
-3.029315
30
0
11
-44.15
21
-1.414869
31
0
39
0
210
0
220
0
230
1
0
LINE
5
8A
100
AcDbEntity
8
SK1
62
256
6
ByLayer
370
18
48
1
60
0
100
AcDbLine
10
-45
20
4.255
30
0
11
-45
21
-0.269256
31
0
39
0
210
0
220
0
230
1
0
LINE
5
8B
100
AcDbEntity
8
SK1
62
256
6
ByLayer
370
18
48
1
60
0
100
AcDbLine
10
0
20
6
30
0
11
0
21
-6
31
0
39
0
210
0
220
0
230
1
0
LINE
5
8C
100
AcDbEntity
8
SK1
62
256
6
ByLayer
370
18
48
1
60
0
100
AcDbLine
10
-45
20
-4.255
30
0
11
-45
21
-3.204511
31
0
39
0
210
0
220
0
230
1
0
LINE
5
8D
100
AcDbEntity
8
1
62
256
6
ByLayer
370
18
48
1
60
0
100
AcDbLine
10
1.455097
20
5.066444
30
0
11
1.455097
21
0
31
0
39
0
210
0
220
0
230
1
0
LINE
5
8E
100
AcDbEntity
8
1
62
256
6
ByLayer
370
18
48
1
60
0
100
AcDbLine
10
1.455097
20
0
30
0
11
1.455097
21
-5.066444
31
0
39
0
210
0
220
0
230
1
0
LINE
5
8F
100
AcDbEntity
8
1
62
256
6
ByLayer
370
18
48
1
60
0
100
AcDbLine
10
22.4
20
5.079534
30
0
11
22.4
21
5.079273
31
0
39
0
210
0
220
0
230
1
0
LINE
5
90
100
AcDbEntity
8
1
62
256
6
ByLayer
370
18
48
1
60
0
100
AcDbLine
10
0
20
6
30
0
11
0
21
0
31
0
39
0
210
0
220
0
230
1
0
LINE
5
91
100
AcDbEntity
8
1
62
256
6
ByLayer
370
18
48
1
60
0
100
AcDbLine
10
0
20
0
30
0
11
0
21
-6
31
0
39
0
210
0
220
0
230
1
0
LINE
5
92
100
AcDbEntity
8
1
62
256
6
ByLayer
370
18
48
1
60
0
100
AcDbLine
10
3.501641
20
5.067723
30
0
11
3.501641
21
1.999871
31
0
39
0
210
0
220
0
230
1
0
LINE
5
93
100
AcDbEntity
8
1
62
256
6
ByLayer
370
18
48
1
60
0
100
AcDbLine
10
0.727299
20
5.533222
30
0
11
0.727299
21
0
31
0
39
0
210
0
220
0
230
1
0
LINE
5
94
100
AcDbEntity
8
1
62
256
6
ByLayer
370
18
48
1
60
0
100
AcDbLine
10
0.727299
20
0
30
0
11
0.727299
21
-5.533222
31
0
39
0
210
0
220
0
230
1
0
LINE
5
95
100
AcDbEntity
8
1
62
256
6
ByLayer
370
18
48
1
60
0
100
AcDbLine
10
3.501641
20
-5.011216
30
0
11
3.501641
21
-5.067723
31
0
39
0
210
0
220
0
230
1
0
LINE
5
96
100
AcDbEntity
8
1
62
256
6
ByLayer
370
18
48
1
60
0
100
AcDbLine
10
56.92888
20
0.061395
30
0
11
55.696398
21
1.421842
31
0
39
0
210
0
220
0
230
1
0
LINE
5
97
100
AcDbEntity
8
SK1
62
256
6
ByLayer
370
18
48
1
60
0
100
AcDbLine
10
-45
20
-4.255
30
0
11
-43.255
21
-6
31
0
39
0
210
0
220
0
230
1
0
LINE
5
98
100
AcDbEntity
8
SK1
62
256
6
ByLayer
370
18
48
1
60
0
100
AcDbLine
10
-43.255
20
6
30
0
11
-45
21
4.255
31
0
39
0
210
0
220
0
230
1
0
LINE
5
99
100
AcDbEntity
8
SK1
62
256
6
ByLayer
370
18
48
1
60
0
100
AcDbLine
10
-43.255
20
-6
30
0
11
0
21
-6
31
0
39
0
210
0
220
0
230
1
0
LINE
5
9A
100
AcDbEntity
8
SK1
62
256
6
ByLayer
370
18
48
1
60
0
100
AcDbLine
10
0
20
6
30
0
11
-43.255
21
6
31
0
39
0
210
0
220
0
230
1
0
LINE
5
9B
100
AcDbEntity
8
1
62
256
6
ByLayer
370
18
48
1
60
0
100
AcDbLine
10
1.455097
20
-5.066444
30
0
11
3.501641
21
-5.067723
31
0
39
0
210
0
220
0
230
1
0
LINE
5
9C
100
AcDbEntity
8
1
62
256
6
ByLayer
370
18
48
1
60
0
100
AcDbLine
10
5.382443
20
-5.068898
30
0
11
6.888457
21
-5.069839
31
0
39
0
210
0
220
0
230
1
0
LINE
5
9D
100
AcDbEntity
8
1
62
256
6
ByLayer
370
18
48
1
60
0
100
AcDbLine
10
22.29524
20
-5.079469
30
0
11
22.451398
21
-5.079566
31
0
39
0
210
0
220
0
230
1
0
LINE
5
9E
100
AcDbEntity
8
1
62
256
6
ByLayer
370
18
48
1
60
0
100
AcDbLine
10
22.451398
20
-5.079566
30
0
11
23.914731
21
-5.080481
31
0
39
0
210
0
220
0
230
1
0
LINE
5
9F
100
AcDbEntity
8
1
62
256
6
ByLayer
370
18
48
1
60
0
100
AcDbLine
10
38.037459
20
-5.089308
30
0
11
39.507966
21
-5.090227
31
0
39
0
210
0
220
0
230
1
0
LINE
5
A0
100
AcDbEntity
8
1
62
256
6
ByLayer
370
18
48
1
60
0
100
AcDbLine
10
39.507966
20
5.090227
30
0
11
38.037459
21
5.089308
31
0
39
0
210
0
220
0
230
1
0
LINE
5
A1
100
AcDbEntity
8
1
62
256
6
ByLayer
370
18
48
1
60
0
100
AcDbLine
10
23.914731
20
5.080481
30
0
11
22.4
21
5.079534
31
0
39
0
210
0
220
0
230
1
0
LINE
5
A2
100
AcDbEntity
8
1
62
256
6
ByLayer
370
18
48
1
60
0
100
AcDbLine
10
6.888457
20
5.069839
30
0
11
5.382443
21
5.068898
31
0
39
0
210
0
220
0
230
1
0
LINE
5
A3
100
AcDbEntity
8
1
62
256
6
ByLayer
370
18
48
1
60
0
100
AcDbLine
10
3.501641
20
5.067723
30
0
11
1.455097
21
5.066444
31
0
39
0
210
0
220
0
230
1
0
LINE
5
A4
100
AcDbEntity
8
SK4
62
256
6
ByLayer
370
18
48
0.05
60
0
100
AcDbLine
10
62
20
0
30
0
11
-50
21
0
31
0
39
0
210
0
220
0
230
1
0
LINE
5
A6
100
AcDbEntity
8
4
62
256
6
ByLayer
370
18
48
0.05
60
0
100
AcDbLine
10
-45
20
0
30
0
11
62
21
0
31
0
39
0
210
0
220
0
230
1
0
LINE
5
A8
100
AcDbEntity
8
80
62
256
6
ByLayer
370
18
48
1
60
0
100
AcDbLine
10
0
20
0
30
0
11
-6
21
0
31
0
39
0
210
0
220
0
230
1
0
LINE
5
A9
100
AcDbEntity
8
81
62
256
6
ByLayer
370
18
48
1
60
0
100
AcDbLine
10
57
20
0
30
0
11
63
21
0
31
0
39
0
210
0
220
0
230
1
0
LINE
5
AA
100
AcDbEntity
8
SK2
62
256
6
ByLayer
370
13
48
1
60
0
100
AcDbLine
10
57.542945
20
1.491767
30
0
11
64.926135
21
21.777443
31
0
39
0
210
0
220
0
230
1
0
LINE
5
AC
100
AcDbEntity
8
SK2
62
256
6
ByLayer
370
13
48
1
60
0
100
AcDbLine
10
57.542945
20
-1.491767
30
0
11
64.926135
21
-21.777443
31
0
39
0
210
0
220
0
230
1
0
LINE
5
AD
100
AcDbEntity
8
1
62
256
6
ByLayer
370
13
48
1
60
0
100
AcDbLine
10
63.840246
20
18.793909
30
0
11
66.936843
21
17.977563
31
0
39
0
210
0
220
0
230
1
0
LINE
5
AE
100
AcDbEntity
8
1
62
256
6
ByLayer
370
13
48
1
60
0
100
AcDbLine
10
63.840246
20
18.793909
30
0
11
66.620046
21
17.20392
31
0
39
0
210
0
220
0
230
1
0
LINE
5
AF
100
AcDbEntity
8
1
62
256
6
ByLayer
370
13
48
1
60
0
100
AcDbLine
10
66.936843
20
17.977563
30
0
11
66.620046
21
17.20392
31
0
39
0
210
0
220
0
230
1
0
LINE
5
B0
100
AcDbEntity
8
1
62
256
6
ByLayer
370
13
48
1
60
0
100
AcDbLine
10
63.840246
20
-18.793909
30
0
11
66.620043
21
-17.203921
31
0
39
0
210
0
220
0
230
1
0
LINE
5
B1
100
AcDbEntity
8
1
62
256
6
ByLayer
370
13
48
1
60
0
100
AcDbLine
10
63.840246
20
-18.793909
30
0
11
66.936846
21
-17.977562
31
0
39
0
210
0
220
0
230
1
0
LINE
5
B2
100
AcDbEntity
8
1
62
256
6
ByLayer
370
13
48
1
60
0
100
AcDbLine
10
66.620043
20
-17.203921
30
0
11
66.936846
21
-17.977562
31
0
39
0
210
0
220
0
230
1
0
MTEXT
5
100
100
AcDbEntity
8
SK2
62
256
6
ByLayer
370
18
48
1
60
0
100
AcDbMText
10
70.717388
20
-2.467451
30
0
210
0
220
0
230
1
1
\W0.7237;140.00
40
3.50012
41
0
44
1.084337
50
0
71
7
72
5
7
iso_b_vert
0
MTEXT
5
103
100
AcDbEntity
8
SK6
62
256
6
ByLayer
370
18
48
1
60
0
100
AcDbMText
10
-32.663496
20
-53.125974
30
0
210
0
220
0
230
1
1
\W0.7348;860.1-1020-032A1-GM X1BM
40
3.175
41
0
44
1.084337
50
0
71
7
72
5
7
iso_b_vert
0
DIMENSION
5
106
100
AcDbEntity
8
SK2
62
256
6
ByLayer
370
18
48
1
60
0
100
AcDbDimension
2
_U0
10
57
20
-29.50012
30
0
11
28.5
21
-29.50012
31
0
70
32
71
2
72
1
41
1
210
0
220
0
230
1
3
Standard
100
AcDbAlignedDimension
13
0
23
-6
33
0
14
57
24
0
34
0
50
0
100
AcDbRotatedDimension
1001
ACAD
1000
DSTYLE
1002
{
1070
   371
1070
    13
1070
   372
1070
    13
1070
     3
1000

1070
   170
1070
     0
1070
   144
1040
1.0
1070
   277
1070
     2
1070
   284
1070
     8
1070
   278
1070
    46
1070
   146
1040
0.999966
1070
   345
1005
16
1070
   347
1005
16
1070
   346
1005
16
1070
   344
1005
107
1070
   343
1005
107
1070
   172
1070
     1
1070
    76
1070
     0
1070
    75
1070
     0
1070
   282
1070
     0
1070
   281
1070
     0
1070
    71
1070
     0
1070
    74
1070
     0
1070
   279
1070
     0
1070
   173
1070
     1
1070
   340
1005
101
1070
   271
1070
     1
1070
   272
1070
     2
1070
    77
1070
     1
1070
    73
1070
     1
1070
   171
1070
     3
1070
   274
1070
     4
1070
   177
1070
   150
1070
   176
1070
     9
1070
   178
1070
    43
1070
    78
1070
     8
1070
    48
1040
-0.1
1070
    41
1040
3.175
1070
   147
1040
1.75006
1070
    42
1040
1.5875
1070
    44
1040
3.175
1070
   140
1040
3.50012
1002
}
1001
ACAD_DSTYLE_DIM_LINETYPE
1070
   380
1005
16
1001
ACAD_DSTYLE_DIM_EXT1_LINETYPE
1070
   381
1005
16
1001
ACAD_DSTYLE_DIM_EXT2_LINETYPE
1070
   382
1005
16
0
DIMENSION
5
12C
100
AcDbEntity
8
2
62
256
6
ByLayer
370
18
48
1
60
0
100
AcDbDimension
2
_U1
10
63.75006
20
5.1
30
0
11
63.75006
21
22.089948
31
0
70
32
71
1
72
1
41
1
210
0
220
0
230
1
3
Standard
100
AcDbAlignedDimension
13
55.1438
23
-5.1
33
0
14
55.1438
24
5.1
34
0
50
90
100
AcDbRotatedDimension
1001
ACAD
1000
DSTYLE
1002
{
1070
   371
1070
    13
1070
   372
1070
    13
1070
     3
1000

1070
   170
1070
     0
1070
   144
1040
1.0
1070
   277
1070
     2
1070
   284
1070
     8
1070
   278
1070
    46
1070
   146
1040
0.999966
1070
   345
1005
16
1070
   347
1005
16
1070
   346
1005
16
1070
   344
1005
107
1070
   343
1005
107
1070
   172
1070
     1
1070
    76
1070
     0
1070
    75
1070
     0
1070
   282
1070
     0
1070
   281
1070
     0
1070
    71
1070
     0
1070
    74
1070
     0
1070
   279
1070
     0
1070
   173
1070
     1
1070
   340
1005
101
1070
   271
1070
     1
1070
   272
1070
     2
1070
    77
1070
     1
1070
    73
1070
     0
1070
   171
1070
     3
1070
   274
1070
     4
1070
   177
1070
   150
1070
   176
1070
     9
1070
   178
1070
    43
1070
    78
1070
     8
1070
    48
1040
-0.1
1070
    41
1040
3.175
1070
   147
1040
1.75006
1070
    42
1040
1.5875
1070
    44
1040
3.175
1070
   140
1040
3.50012
1002
}
1001
ACAD_DSTYLE_DIM_LINETYPE
1070
   380
1005
16
1001
ACAD_DSTYLE_DIM_EXT1_LINETYPE
1070
   381
1005
16
1001
ACAD_DSTYLE_DIM_EXT2_LINETYPE
1070
   382
1005
16
0
DIMENSION
5
14B
100
AcDbEntity
8
SK2
62
256
6
ByLayer
370
18
48
1
60
0
100
AcDbDimension
2
_U2
10
-48.24994
20
-6
30
0
11
-48.24994
21
20.97767
31
0
70
32
71
1
72
1
41
1
210
0
220
0
230
1
3
Standard
100
AcDbAlignedDimension
13
-45
23
6
33
0
14
-45
24
-6
34
0
50
90
100
AcDbRotatedDimension
1001
ACAD
1000
DSTYLE
1002
{
1070
   371
1070
    13
1070
   372
1070
    13
1070
     3
1000

1070
   170
1070
     0
1070
   144
1040
1.0
1070
   277
1070
     2
1070
   284
1070
     8
1070
   278
1070
    46
1070
   146
1040
0.999966
1070
   345
1005
16
1070
   347
1005
16
1070
   346
1005
16
1070
   344
1005
107
1070
   343
1005
107
1070
   172
1070
     1
1070
    76
1070
     0
1070
    75
1070
     0
1070
   282
1070
     0
1070
   281
1070
     0
1070
    71
1070
     0
1070
    74
1070
     0
1070
   279
1070
     0
1070
   173
1070
     1
1070
   340
1005
101
1070
   271
1070
     1
1070
   272
1070
     2
1070
    77
1070
     1
1070
    73
1070
     0
1070
   171
1070
     3
1070
   274
1070
     4
1070
   177
1070
   150
1070
   176
1070
     9
1070
   178
1070
    43
1070
    78
1070
     8
1070
    48
1040
-0.1
1070
    41
1040
3.175
1070
   147
1040
1.75006
1070
    42
1040
1.5875
1070
    44
1040
3.175
1070
   140
1040
3.50012
1002
}
1001
ACAD_DSTYLE_DIM_LINETYPE
1070
   380
1005
16
1001
ACAD_DSTYLE_DIM_EXT1_LINETYPE
1070
   381
1005
16
1001
ACAD_DSTYLE_DIM_EXT2_LINETYPE
1070
   382
1005
16
0
DIMENSION
5
169
100
AcDbEntity
8
SK2
62
256
6
ByLayer
370
18
48
1
60
0
100
AcDbDimension
2
_U3
10
0
20
-29.50012
30
0
11
-22.5
21
-29.50012
31
0
70
32
71
1
72
1
41
1
210
0
220
0
230
1
3
Standard
100
AcDbAlignedDimension
13
-45
23
-6
33
0
14
0
24
-6
34
0
50
0
100
AcDbRotatedDimension
1001
ACAD
1000
DSTYLE
1002
{
1070
   371
1070
    13
1070
   372
1070
    13
1070
     3
1000

1070
   170
1070
     0
1070
   144
1040
1.0
1070
   277
1070
     2
1070
   284
1070
     8
1070
   278
1070
    46
1070
   146
1040
0.999966
1070
   345
1005
16
1070
   347
1005
16
1070
   346
1005
16
1070
   344
1005
107
1070
   343
1005
107
1070
   172
1070
     1
1070
    76
1070
     0
1070
    75
1070
     0
1070
   282
1070
     0
1070
   281
1070
     0
1070
    71
1070
     0
1070
    74
1070
     0
1070
   279
1070
     0
1070
   173
1070
     1
1070
   340
1005
101
1070
   271
1070
     1
1070
   272
1070
     2
1070
    77
1070
     1
1070
    73
1070
     1
1070
   171
1070
     3
1070
   274
1070
     4
1070
   177
1070
   150
1070
   176
1070
     9
1070
   178
1070
    43
1070
    78
1070
     8
1070
    48
1040
-0.1
1070
    41
1040
3.175
1070
   147
1040
1.75006
1070
    42
1040
1.5875
1070
    44
1040
3.175
1070
   140
1040
3.50012
1002
}
1001
ACAD_DSTYLE_DIM_LINETYPE
1070
   380
1005
16
1001
ACAD_DSTYLE_DIM_EXT1_LINETYPE
1070
   381
1005
16
1001
ACAD_DSTYLE_DIM_EXT2_LINETYPE
1070
   382
1005
16
0
DIMENSION
5
185
100
AcDbEntity
8
SK2
62
256
6
ByLayer
370
18
48
1
60
0
100
AcDbDimension
2
_U4
10
57
20
-20.74982
30
0
11
29.5
21
-20.74982
31
0
70
32
71
1
72
1
41
1
210
0
220
0
230
1
3
Standard
100
AcDbAlignedDimension
13
2
23
5.6
33
0
14
57
24
0
34
0
50
0
100
AcDbRotatedDimension
1001
ACAD
1000
DSTYLE
1002
{
1070
   371
1070
    13
1070
   372
1070
    13
1070
     3
1000

1070
   170
1070
     0
1070
   144
1040
1.0
1070
   277
1070
     2
1070
   284
1070
     8
1070
   278
1070
    46
1070
   146
1040
0.999966
1070
   345
1005
16
1070
   347
1005
16
1070
   346
1005
16
1070
   344
1005
107
1070
   343
1005
107
1070
   172
1070
     1
1070
    76
1070
     0
1070
    75
1070
     0
1070
   282
1070
     0
1070
   281
1070
     0
1070
    71
1070
     0
1070
    74
1070
     0
1070
   279
1070
     0
1070
   173
1070
     1
1070
   340
1005
101
1070
   271
1070
     1
1070
   272
1070
     2
1070
    77
1070
     1
1070
    73
1070
     1
1070
   171
1070
     3
1070
   274
1070
     4
1070
   177
1070
   150
1070
   176
1070
     9
1070
   178
1070
    43
1070
    78
1070
     8
1070
    48
1040
-0.1
1070
    41
1040
3.175
1070
   147
1040
1.75006
1070
    42
1040
1.5875
1070
    44
1040
3.175
1070
   140
1040
3.50012
1002
}
1001
ACAD_DSTYLE_DIM_LINETYPE
1070
   380
1005
16
1001
ACAD_DSTYLE_DIM_EXT1_LINETYPE
1070
   381
1005
16
1001
ACAD_DSTYLE_DIM_EXT2_LINETYPE
1070
   382
1005
16
0
DIMENSION
5
1A1
100
AcDbEntity
8
SK2
62
256
6
ByLayer
370
18
48
1
60
0
100
AcDbDimension
2
_U5
10
57
20
-12.82
30
0
11
40.8
21
-12.82
31
0
70
32
71
1
72
1
41
1
210
0
220
0
230
1
3
Standard
100
AcDbAlignedDimension
13
24.6
23
-5.1
33
0
14
57
24
0
34
0
50
0
100
AcDbRotatedDimension
1001
ACAD
1000
DSTYLE
1002
{
1070
   371
1070
    13
1070
   372
1070
    13
1070
     3
1000

1070
   170
1070
     0
1070
   144
1040
1.0
1070
   277
1070
     2
1070
   284
1070
     8
1070
   278
1070
    46
1070
   146
1040
1.25
1070
   345
1005
16
1070
   347
1005
16
1070
   346
1005
16
1070
   344
1005
107
1070
   343
1005
107
1070
   172
1070
     1
1070
    76
1070
     0
1070
    75
1070
     0
1070
   282
1070
     0
1070
   281
1070
     0
1070
    71
1070
     0
1070
    74
1070
     0
1070
   279
1070
     0
1070
   173
1070
     1
1070
   340
1005
101
1070
   271
1070
     1
1070
   272
1070
     2
1070
    77
1070
     1
1070
    73
1070
     1
1070
   171
1070
     3
1070
   274
1070
     4
1070
   177
1070
   150
1070
   176
1070
     9
1070
   178
1070
    43
1070
    78
1070
     8
1070
    48
1040
-0.1
1070
    41
1040
3.175
1070
   147
1040
0.42
1070
    42
1040
1.5875
1070
    44
1040
0.5
1070
   140
1040
2.8
1002
}
1001
ACAD_DSTYLE_DIM_LINETYPE
1070
   380
1005
16
1001
ACAD_DSTYLE_DIM_EXT1_LINETYPE
1070
   381
1005
16
1001
ACAD_DSTYLE_DIM_EXT2_LINETYPE
1070
   382
1005
16
0
DIMENSION
5
1BD
100
AcDbEntity
8
SK2
62
256
6
ByLayer
370
18
48
1
60
0
100
AcDbDimension
2
_U6
10
57
20
-39.50012
30
0
11
6
21
-39.50012
31
0
70
32
71
1
72
1
41
1
210
0
220
0
230
1
3
Standard
100
AcDbAlignedDimension
13
-45
23
0
33
0
14
57
24
0
34
0
50
0
100
AcDbRotatedDimension
1001
ACAD
1000
DSTYLE
1002
{
1070
   371
1070
    13
1070
   372
1070
    13
1070
     3
1000

1070
   170
1070
     0
1070
   144
1040
1.0
1070
   277
1070
     2
1070
   284
1070
     8
1070
   278
1070
    46
1070
   146
1040
0.999966
1070
   345
1005
16
1070
   347
1005
16
1070
   346
1005
16
1070
   344
1005
107
1070
   343
1005
107
1070
   172
1070
     1
1070
    76
1070
     0
1070
    75
1070
     0
1070
   282
1070
     0
1070
   281
1070
     0
1070
    71
1070
     0
1070
    74
1070
     0
1070
   279
1070
     0
1070
   173
1070
     1
1070
   340
1005
101
1070
   271
1070
     1
1070
   272
1070
     2
1070
    77
1070
     1
1070
    73
1070
     1
1070
   171
1070
     3
1070
   274
1070
     4
1070
   177
1070
   150
1070
   176
1070
     9
1070
   178
1070
    43
1070
    78
1070
     8
1070
    48
1040
-0.1
1070
    41
1040
3.175
1070
   147
1040
1.75006
1070
    42
1040
1.5875
1070
    44
1040
3.175
1070
   140
1040
3.50012
1002
}
1001
ACAD_DSTYLE_DIM_LINETYPE
1070
   380
1005
16
1001
ACAD_DSTYLE_DIM_EXT1_LINETYPE
1070
   381
1005
16
1001
ACAD_DSTYLE_DIM_EXT2_LINETYPE
1070
   382
1005
16
0
ENDSEC
0
SECTION
2
OBJECTS
0
DICTIONARY
5
249
330
0
100
AcDbDictionary
280
0
281
1
3
ACAD_GROUP
350
24a
3
ACAD_MLINESTYLE
350
24b
0
DICTIONARY
5
24a
330
0
100
AcDbDictionary
280
0
281
1
0
DICTIONARY
5
24b
330
0
100
AcDbDictionary
280
0
281
1
3
Standard
350
18
0
MLINESTYLE
5
18
330
24b
100
AcDbMlineStyle
2
Standard
70
0
3

62
256
51
90
52
90
71
2
49
-0.5
62
256
6
ByLayer
49
0.5
62
256
6
ByLayer
0
RASTERVARIABLES
5
237
330

100
AcDbRasterVariables
90
0
70
1
71
1
72
1
0
ENDSEC
0
EOF
