0
SECTION
2
HEADER
9
$ACADVER
1
AC1015
9
$DWGCODEPAGE
3
ANSI_1252
9
$HANDSEED
5
25c
9
$ANGBASE
50
0
9
$ANGDIR
70
0
9
$ATTMODE
70
1
9
$AUNITS
70
0
9
$AUPREC
70
0
9
$CECOLOR
62
256
9
$CELTSCALE
40
1
9
$CELTYPE
6
ByLayer
9
$CELWEIGHT
370
18
9
$CLAYER
8
0
9
$CMLJUST
70
0
9
$CMLSCALE
40
1
9
$CMLSTYLE
2
Standard
9
$DIMSTYLE
2
Standard
9
$TEXTSIZE
40
0.2
9
$TEXTSTYLE
7
Standard
9
$LUNITS
70
2
9
$LUPREC
70
4
9
$EXTNAMES
290
1
9
$INSUNITS
70
4
9
$LTSCALE
40
1
9
$LWDISPLAY
290
1
9
$PDMODE
70
0
9
$PDSIZE
40
0
9
$PLINEGEN
70
0
0
ENDSEC
0
SECTION
2
CLASSES
0
CLASS
1
RASTERVARIABLES
2
AcDbRasterVariables
3
ISM
90
0
280
0
281
0
0
ENDSEC
0
SECTION
2
TABLES
0
TABLE
2
VPORT
5
252
100
AcDbSymbolTable
0
VPORT
5
1
100
AcDbSymbolTableRecord
100
AcDbViewportTableRecord
2
*Active
70
0
10
0
20
0
11
1
21
1
12
-1
22
1
13
0
23
0
14
0.5
24
0.5
15
10
25
10
16
0
26
0
36
1
17
0
27
0
37
0
0
ENDTAB
0
TABLE
2
LTYPE
5
253
100
AcDbSymbolTable
0
LTYPE
5
14
100
AcDbSymbolTableRecord
100
AcDbLinetypeTableRecord
70
0
2
ByBlock
3

72
65
73
0
40
0
0
LTYPE
5
15
100
AcDbSymbolTableRecord
100
AcDbLinetypeTableRecord
70
0
2
ByLayer
3

72
65
73
0
40
0
0
LTYPE
5
16
100
AcDbSymbolTableRecord
100
AcDbLinetypeTableRecord
70
0
2
Continuous
3
Solid line
72
65
73
0
40
0
0
LTYPE
5
6E
100
AcDbSymbolTableRecord
100
AcDbLinetypeTableRecord
70
0
2
CENTER
3
____ _ ____ _ ____ _ ____
72
65
73
4
40
47.5
49
22
74
0
49
-8.5
74
0
49
8.5
74
0
49
-8.5
74
0
0
LTYPE
5
6F
100
AcDbSymbolTableRecord
100
AcDbLinetypeTableRecord
70
0
2
DASHED
3
__ __ __ __ __ __ __ __ __
72
65
73
2
40
25.72
49
12.86
74
0
49
-12.86
74
0
0
ENDTAB
0
TABLE
2
LAYER
5
254
100
AcDbSymbolTable
0
LAYER
5
10
100
AcDbSymbolTableRecord
100
AcDbLayerTableRecord
2
0
70
0
62
7
6
Continuous
290
1
370
-3
390
0
0
LAYER
5
71
100
AcDbSymbolTableRecord
100
AcDbLayerTableRecord
2
80
70
0
62
-6
6
Continuous
290
1
370
-3
390
0
0
LAYER
5
73
100
AcDbSymbolTableRecord
100
AcDbLayerTableRecord
2
81
70
0
62
-3
6
Continuous
290
1
370
-3
390
0
0
LAYER
5
75
100
AcDbSymbolTableRecord
100
AcDbLayerTableRecord
2
1
70
0
62
4
6
Continuous
290
1
370
-3
390
0
0
LAYER
5
A7
100
AcDbSymbolTableRecord
100
AcDbLayerTableRecord
2
4
70
0
62
-2
6
CENTER
290
1
370
-3
390
0
0
LAYER
5
116
100
AcDbSymbolTableRecord
100
AcDbLayerTableRecord
2
Defpoints
70
0
62
7
6
Continuous
290
0
370
-3
390
0
0
LAYER
5
143
100
AcDbSymbolTableRecord
100
AcDbLayerTableRecord
2
2
70
0
62
7
6
Continuous
290
1
370
-3
390
0
0
LAYER
5
23e
100
AcDbSymbolTableRecord
100
AcDbLayerTableRecord
2
SK1
70
0
62
4
6
Continuous
290
1
370
-3
390
0
0
LAYER
5
23f
100
AcDbSymbolTableRecord
100
AcDbLayerTableRecord
2
SK4
70
0
62
2
6
CENTER
290
1
370
-3
390
0
0
LAYER
5
240
100
AcDbSymbolTableRecord
100
AcDbLayerTableRecord
2
SK2
70
0
62
7
6
Continuous
290
1
370
-3
390
0
0
LAYER
5
241
100
AcDbSymbolTableRecord
100
AcDbLayerTableRecord
2
SK6
70
0
62
5
6
Continuous
290
1
370
-3
390
0
0
ENDTAB
0
TABLE
2
STYLE
5
255
100
AcDbSymbolTable
0
STYLE
5
11
100
AcDbSymbolTableRecord
100
AcDbTextStyleTableRecord
2
Standard
3
txt
70
0
71
0
40
0
41
1
42
0
50
0
0
STYLE
5
107
100
AcDbSymbolTableRecord
100
AcDbTextStyleTableRecord
2
iso_b_vert
3
simplex.shx
70
0
71
0
40
0
41
1
42
0
50
0
0
STYLE
5
108
100
AcDbSymbolTableRecord
100
AcDbTextStyleTableRecord
2
DWGDirectTextStyle
3
simplex
70
0
71
0
40
0
41
1
42
0
50
0
0
ENDTAB
0
TABLE
2
DIMSTYLE
5
256
100
AcDbSymbolTable
100
AcDbDimStyleTable
0
DIMSTYLE
105
27
100
AcDbSymbolTableRecord
100
AcDbDimStyleTableRecord
2
Standard
70
0
3
<>
41
0.18
42
0.0625
44
0.18
140
0.18
147
0.09
73
0
74
0
77
1
271
2
275
0
278
52
280
0
340
11
0
ENDTAB
0
TABLE
2
VIEW
5
257
100
AcDbSymbolTable
0
ENDTAB
0
TABLE
2
UCS
5
258
100
AcDbSymbolTable
0
ENDTAB
0
TABLE
2
APPID
5
259
100
AcDbSymbolTable
0
APPID
5
12
100
AcDbSymbolTableRecord
100
AcDbRegAppTableRecord
2
ACAD
70
0
0
APPID
5
10B
100
AcDbSymbolTableRecord
100
AcDbRegAppTableRecord
2
ACAD_DSTYLE_DIMBREAK
70
0
0
APPID
5
1FD
100
AcDbSymbolTableRecord
100
AcDbRegAppTableRecord
2
ACAD_DSTYLE_DIM_LINETYPE
70
0
0
APPID
5
1FE
100
AcDbSymbolTableRecord
100
AcDbRegAppTableRecord
2
ACAD_DSTYLE_DIM_EXT1_LINETYPE
70
0
0
APPID
5
1FF
100
AcDbSymbolTableRecord
100
AcDbRegAppTableRecord
2
ACAD_DSTYLE_DIM_EXT2_LINETYPE
70
0
0
APPID
5
23A
100
AcDbSymbolTableRecord
100
AcDbRegAppTableRecord
2
ACAD_MLEADERVER
70
0
0
ENDTAB
0
TABLE
2
BLOCK_RECORD
5
25a
100
AcDbSymbolTable
0
BLOCK_RECORD
5
1F
100
AcDbSymbolTableRecord
100
AcDbBlockTableRecord
2
*Model_Space
340
0
70
0
0
BLOCK_RECORD
5
1B
100
AcDbSymbolTableRecord
100
AcDbBlockTableRecord
2
*Paper_Space
340
0
70
0
0
BLOCK_RECORD
5
23
100
AcDbSymbolTableRecord
100
AcDbBlockTableRecord
2
*Paper_Space0
340
0
70
0
0
BLOCK_RECORD
5
10D
100
AcDbSymbolTableRecord
100
AcDbBlockTableRecord
2
_Closed
340
0
70
0
0
BLOCK_RECORD
5
117
100
AcDbSymbolTableRecord
100
AcDbBlockTableRecord
2
*D2
340
0
70
0
0
BLOCK_RECORD
5
123
100
AcDbSymbolTableRecord
100
AcDbBlockTableRecord
2
_U0
340
0
70
0
0
BLOCK_RECORD
5
135
100
AcDbSymbolTableRecord
100
AcDbBlockTableRecord
2
*D4
340
0
70
0
0
BLOCK_RECORD
5
144
100
AcDbSymbolTableRecord
100
AcDbBlockTableRecord
2
_U1
340
0
70
0
0
BLOCK_RECORD
5
154
100
AcDbSymbolTableRecord
100
AcDbBlockTableRecord
2
*D6
340
0
70
0
0
BLOCK_RECORD
5
162
100
AcDbSymbolTableRecord
100
AcDbBlockTableRecord
2
_U2
340
0
70
0
0
BLOCK_RECORD
5
172
100
AcDbSymbolTableRecord
100
AcDbBlockTableRecord
2
*D8
340
0
70
0
0
BLOCK_RECORD
5
17E
100
AcDbSymbolTableRecord
100
AcDbBlockTableRecord
2
_U3
340
0
70
0
0
BLOCK_RECORD
5
18E
100
AcDbSymbolTableRecord
100
AcDbBlockTableRecord
2
*D10
340
0
70
0
0
BLOCK_RECORD
5
19A
100
AcDbSymbolTableRecord
100
AcDbBlockTableRecord
2
_U4
340
0
70
0
0
BLOCK_RECORD
5
1AA
100
AcDbSymbolTableRecord
100
AcDbBlockTableRecord
2
*D12
340
0
70
0
0
BLOCK_RECORD
5
1B6
100
AcDbSymbolTableRecord
100
AcDbBlockTableRecord
2
_U5
340
0
70
0
0
BLOCK_RECORD
5
1C6
100
AcDbSymbolTableRecord
100
AcDbBlockTableRecord
2
*D14
340
0
70
0
0
BLOCK_RECORD
5
1D2
100
AcDbSymbolTableRecord
100
AcDbBlockTableRecord
2
_U6
340
0
70
0
0
ENDTAB
0
ENDSEC
0
SECTION
2
BLOCKS
0
BLOCK
5
20
100
AcDbEntity
8
0
100
AcDbBlockBegin
2
*Model_Space
70
0
10
0
20
0
30
0
3
*Model_Space
0
ENDBLK
5
21
100
AcDbEntity
8
0
100
AcDbBlockEnd
0
BLOCK
5
1C
100
AcDbEntity
8
0
100
AcDbBlockBegin
2
*Paper_Space
70
0
10
0
20
0
30
0
3
*Paper_Space
0
ENDBLK
5
1D
100
AcDbEntity
8
0
100
AcDbBlockEnd
0
BLOCK
5
24
100
AcDbEntity
8
0
100
AcDbBlockBegin
2
*Paper_Space0
70
0
10
0
20
0
30
0
3
*Paper_Space0
0
ENDBLK
5
25
100
AcDbEntity
8
0
100
AcDbBlockEnd
0
BLOCK
5
10E
100
AcDbEntity
8
0
100
AcDbBlockBegin
2
_Closed
70
0
10
0
20
0
30
0
3
_Closed
0
LINE
5
110
100
AcDbEntity
8
0
62
256
6
ByLayer
370
-2
48
1
60
0
100
AcDbLine
10
-1
20
0.166667
30
0
11
0
21
0
31
0
39
0
210
0
220
0
230
1
0
LINE
5
111
100
AcDbEntity
8
0
62
256
6
ByLayer
370
-2
48
1
60
0
100
AcDbLine
10
0
20
0
30
0
11
-1
21
-0.166667
31
0
39
0
210
0
220
0
230
1
0
LINE
5
112
100
AcDbEntity
8
0
62
256
6
ByLayer
370
-2
48
1
60
0
100
AcDbLine
10
-1
20
0.166667
30
0
11
-1
21
-0.166667
31
0
39
0
210
0
220
0
230
1
0
LINE
5
113
100
AcDbEntity
8
0
62
256
6
ByLayer
370
-2
48
1
60
0
100
AcDbLine
10
0
20
0
30
0
11
-1
21
0
31
0
39
0
210
0
220
0
230
1
0
ENDBLK
5
10F
100
AcDbEntity
8
0
100
AcDbBlockEnd
0
BLOCK
5
118
100
AcDbEntity
8
0
100
AcDbBlockBegin
2
*D2
70
1
10
0
20
0
30
0
3
*D2
0
LINE
5
11A
100
AcDbEntity
8
0
62
256
6
ByLayer
370
-2
48
1
60
0
100
AcDbLine
10
0
20
-4.5875
30
0
11
0
21
-29.67512
31
0
39
0
210
0
220
0
230
1
0
LINE
5
11B
100
AcDbEntity
8
0
62
256
6
ByLayer
370
-2
48
1
60
0
100
AcDbLine
10
30
20
-1.5875
30
0
11
30
21
-29.67512
31
0
39
0
210
0
220
0
230
1
0
LINE
5
11C
100
AcDbEntity
8
0
62
256
6
ByLayer
370
-2
48
1
60
0
100
AcDbLine
10
3.175
20
-26.50012
30
0
11
26.825
21
-26.50012
31
0
39
0
210
0
220
0
230
1
0
SOLID
5
11D
100
AcDbEntity
8
0
62
256
6
ByLayer
370
-1
48
1
60
0
100
AcDbTrace
10
3.175
20
-25.970953
30
0
11
3.175
21
-27.029287
31
0
12
0
22
-26.50012
32
0
13
0
23
-26.50012
33
0
39
0
210
0
220
0
230
1
0
SOLID
5
11E
100
AcDbEntity
8
0
62
256
6
ByLayer
370
-1
48
1
60
0
100
AcDbTrace
10
26.825
20
-27.029287
30
0
11
26.825
21
-25.970953
31
0
12
30
22
-26.50012
32
0
13
30
23
-26.50012
33
0
39
0
210
0
220
0
230
1
0
MTEXT
5
11F
100
AcDbEntity
8
0
62
256
6
ByLayer
370
18
48
1
60
0
100
AcDbMText
10
15
20
-19.19362
30
0
210
0
220
0
230
1
1
\A1;30
40
3.50012
41
0
44
1
50
0
71
5
72
5
7
iso_b_vert
0
POINT
5
120
100
AcDbEntity
8
Defpoints
62
0
6
ByLayer
370
-1
48
1
60
0
100
AcDbPoint
10
0
20
-3
30
0
39
0
210
0
220
0
230
1
50
360
0
POINT
5
121
100
AcDbEntity
8
Defpoints
62
0
6
ByLayer
370
-1
48
1
60
0
100
AcDbPoint
10
30
20
0
30
0
39
0
210
0
220
0
230
1
50
360
0
POINT
5
122
100
AcDbEntity
8
Defpoints
62
0
6
ByLayer
370
-1
48
1
60
0
100
AcDbPoint
10
30
20
-26.50012
30
0
39
0
210
0
220
0
230
1
50
360
0
ENDBLK
5
119
100
AcDbEntity
8
0
100
AcDbBlockEnd
0
BLOCK
5
130
100
AcDbEntity
8
0
100
AcDbBlockBegin
2
_U0
70
0
10
0
20
0
30
0
3
_U0
0
MTEXT
5
124
100
AcDbEntity
8
SK2
62
256
6
ByLayer
370
18
48
1
60
0
100
AcDbMText
10
9.770389
20
-25.467451
30
0
210
0
220
0
230
1
1
\W0.7468;30.00
40
3.50012
41
0
44
1.084337
50
0
71
7
72
5
7
iso_b_vert
0
MTEXT
5
125
100
AcDbEntity
8
SK2
62
256
6
ByLayer
370
18
48
1
60
0
100
AcDbMText
10
6.244329
20
-25.400814
30
0
210
0
220
0
230
1
1
\W0.1790;(
40
3.175
41
0
44
1.084337
50
0
71
7
72
5
7
iso_b_vert
0
MTEXT
5
126
100
AcDbEntity
8
SK2
62
256
6
ByLayer
370
18
48
1
60
0
100
AcDbMText
10
23.758393
20
-25.400814
30
0
210
0
220
0
230
1
1
\W0.1969;)
40
3.175
41
0
44
1.084337
50
0
71
7
72
5
7
iso_b_vert
0
LINE
5
127
100
AcDbEntity
8
SK2
62
256
6
ByLayer
370
13
48
1
60
0
100
AcDbLine
10
0
20
-4.5875
30
0
11
0
21
-29.67512
31
0
39
0
210
0
220
0
230
1
0
LINE
5
128
100
AcDbEntity
8
SK2
62
256
6
ByLayer
370
13
48
1
60
0
100
AcDbLine
10
30
20
-1.5875
30
0
11
30
21
-29.67512
31
0
39
0
210
0
220
0
230
1
0
LINE
5
129
100
AcDbEntity
8
SK2
62
256
6
ByLayer
370
13
48
1
60
0
100
AcDbLine
10
0
20
-26.50012
30
0
11
30
21
-26.50012
31
0
39
0
210
0
220
0
230
1
0
LINE
5
12A
100
AcDbEntity
8
SK2
62
256
6
ByLayer
370
13
48
1
60
0
100
AcDbLine
10
0
20
-26.50012
30
0
11
3.174998
21
-26.082123
31
0
39
0
210
0
220
0
230
1
0
LINE
5
12B
100
AcDbEntity
8
SK2
62
256
6
ByLayer
370
13
48
1
60
0
100
AcDbLine
10
0
20
-26.50012
30
0
11
3.175002
21
-26.918117
31
0
39
0
210
0
220
0
230
1
0
LINE
5
12C
100
AcDbEntity
8
SK2
62
256
6
ByLayer
370
13
48
1
60
0
100
AcDbLine
10
3.174998
20
-26.082123
30
0
11
3.175002
21
-26.918117
31
0
39
0
210
0
220
0
230
1
0
LINE
5
12D
100
AcDbEntity
8
SK2
62
256
6
ByLayer
370
13
48
1
60
0
100
AcDbLine
10
30
20
-26.50012
30
0
11
26.825002
21
-26.918117
31
0
39
0
210
0
220
0
230
1
0
LINE
5
12E
100
AcDbEntity
8
SK2
62
256
6
ByLayer
370
13
48
1
60
0
100
AcDbLine
10
30
20
-26.50012
30
0
11
26.824998
21
-26.082123
31
0
39
0
210
0
220
0
230
1
0
LINE
5
12F
100
AcDbEntity
8
SK2
62
256
6
ByLayer
370
13
48
1
60
0
100
AcDbLine
10
26.825002
20
-26.918117
30
0
11
26.824998
21
-26.082123
31
0
39
0
210
0
220
0
230
1
0
ENDBLK
5
131
100
AcDbEntity
8
0
100
AcDbBlockEnd
0
BLOCK
5
136
100
AcDbEntity
8
0
100
AcDbBlockBegin
2
*D4
70
1
10
0
20
0
30
0
3
*D4
0
LINE
5
138
100
AcDbEntity
8
0
62
256
6
ByLayer
370
-2
48
1
60
0
100
AcDbLine
10
30.6594
20
-2.55
30
0
11
39.92506
21
-2.55
31
0
39
0
210
0
220
0
230
1
0
LINE
5
139
100
AcDbEntity
8
0
62
256
6
ByLayer
370
-2
48
1
60
0
100
AcDbLine
10
30.6594
20
2.55
30
0
11
39.92506
21
2.55
31
0
39
0
210
0
220
0
230
1
0
LINE
5
13A
100
AcDbEntity
8
0
62
256
6
ByLayer
370
-2
48
1
60
0
100
AcDbLine
10
36.75006
20
2.55
30
0
11
36.75006
21
26.346431
31
0
39
0
210
0
220
0
230
1
0
LINE
5
13B
100
AcDbEntity
8
0
62
256
6
ByLayer
370
-2
48
1
60
0
100
AcDbLine
10
36.75006
20
-5.725
30
0
11
36.75006
21
-8.9
31
0
39
0
210
0
220
0
230
1
0
LINE
5
13C
100
AcDbEntity
8
0
62
256
6
ByLayer
370
-2
48
1
60
0
100
AcDbLine
10
36.75006
20
5.725
30
0
11
36.75006
21
8.9
31
0
39
0
210
0
220
0
230
1
0
SOLID
5
13D
100
AcDbEntity
8
0
62
256
6
ByLayer
370
-1
48
1
60
0
100
AcDbTrace
10
37.279227
20
-5.725
30
0
11
36.220893
21
-5.725
31
0
12
36.75006
22
-2.55
32
0
13
36.75006
23
-2.55
33
0
39
0
210
0
220
0
230
1
0
SOLID
5
13E
100
AcDbEntity
8
0
62
256
6
ByLayer
370
-1
48
1
60
0
100
AcDbTrace
10
36.220893
20
5.725
30
0
11
37.279227
21
5.725
31
0
12
36.75006
22
2.55
32
0
13
36.75006
23
2.55
33
0
39
0
210
0
220
0
230
1
0
MTEXT
5
13F
100
AcDbEntity
8
0
62
256
6
ByLayer
370
18
48
1
60
0
100
AcDbMText
10
29.443559
20
17.623216
30
0
210
0
220
0
230
1
1
\A1;5.1
40
3.50012
41
0
44
1
50
90
71
5
72
5
7
iso_b_vert
0
POINT
5
140
100
AcDbEntity
8
Defpoints
62
0
6
ByLayer
370
-1
48
1
60
0
100
AcDbPoint
10
29.0719
20
-2.55
30
0
39
0
210
0
220
0
230
1
50
360
0
POINT
5
141
100
AcDbEntity
8
Defpoints
62
0
6
ByLayer
370
-1
48
1
60
0
100
AcDbPoint
10
29.0719
20
2.55
30
0
39
0
210
0
220
0
230
1
50
360
0
POINT
5
142
100
AcDbEntity
8
Defpoints
62
0
6
ByLayer
370
-1
48
1
60
0
100
AcDbPoint
10
36.75006
20
2.55
30
0
39
0
210
0
220
0
230
1
50
360
0
ENDBLK
5
137
100
AcDbEntity
8
0
100
AcDbBlockEnd
0
BLOCK
5
14F
100
AcDbEntity
8
0
100
AcDbBlockBegin
2
_U1
70
0
10
0
20
0
30
0
3
_U1
0
MTEXT
5
145
100
AcDbEntity
8
2
62
256
6
ByLayer
370
18
48
1
60
0
100
AcDbMText
10
36.060403
20
6.707505
30
0
210
0
220
0
230
1
1
\W0.6563;5.10
40
3.50012
41
0
44
1.084337
50
90
71
7
72
5
7
iso_b_vert
0
LINE
5
146
100
AcDbEntity
8
2
62
256
6
ByLayer
370
13
48
1
60
0
100
AcDbLine
10
30.6594
20
-2.55
30
0
11
39.92506
21
-2.55
31
0
39
0
210
0
220
0
230
1
0
LINE
5
147
100
AcDbEntity
8
2
62
256
6
ByLayer
370
13
48
1
60
0
100
AcDbLine
10
30.6594
20
2.55
30
0
11
39.92506
21
2.55
31
0
39
0
210
0
220
0
230
1
0
LINE
5
148
100
AcDbEntity
8
2
62
256
6
ByLayer
370
13
48
1
60
0
100
AcDbLine
10
36.75006
20
13.889783
30
0
11
36.75006
21
-11.3003
31
0
39
0
210
0
220
0
230
1
0
LINE
5
149
100
AcDbEntity
8
2
62
256
6
ByLayer
370
13
48
1
60
0
100
AcDbLine
10
36.75006
20
-2.55
30
0
11
37.168057
21
-5.724998
31
0
39
0
210
0
220
0
230
1
0
LINE
5
14A
100
AcDbEntity
8
2
62
256
6
ByLayer
370
13
48
1
60
0
100
AcDbLine
10
36.75006
20
-2.55
30
0
11
36.332063
21
-5.725002
31
0
39
0
210
0
220
0
230
1
0
LINE
5
14B
100
AcDbEntity
8
2
62
256
6
ByLayer
370
13
48
1
60
0
100
AcDbLine
10
37.168057
20
-5.724998
30
0
11
36.332063
21
-5.725002
31
0
39
0
210
0
220
0
230
1
0
LINE
5
14C
100
AcDbEntity
8
2
62
256
6
ByLayer
370
13
48
1
60
0
100
AcDbLine
10
36.75006
20
2.55
30
0
11
36.332063
21
5.724998
31
0
39
0
210
0
220
0
230
1
0
LINE
5
14D
100
AcDbEntity
8
2
62
256
6
ByLayer
370
13
48
1
60
0
100
AcDbLine
10
36.75006
20
2.55
30
0
11
37.168057
21
5.725002
31
0
39
0
210
0
220
0
230
1
0
LINE
5
14E
100
AcDbEntity
8
2
62
256
6
ByLayer
370
13
48
1
60
0
100
AcDbLine
10
36.332063
20
5.724998
30
0
11
37.168057
21
5.725002
31
0
39
0
210
0
220
0
230
1
0
ENDBLK
5
150
100
AcDbEntity
8
0
100
AcDbBlockEnd
0
BLOCK
5
155
100
AcDbEntity
8
0
100
AcDbBlockBegin
2
*D6
70
1
10
0
20
0
30
0
3
*D6
0
LINE
5
157
100
AcDbEntity
8
0
62
256
6
ByLayer
370
-2
48
1
60
0
100
AcDbLine
10
-37.5875
20
3
30
0
11
-42.42494
21
3
31
0
39
0
210
0
220
0
230
1
0
LINE
5
158
100
AcDbEntity
8
0
62
256
6
ByLayer
370
-2
48
1
60
0
100
AcDbLine
10
-37.5875
20
-3
30
0
11
-42.42494
21
-3
31
0
39
0
210
0
220
0
230
1
0
LINE
5
159
100
AcDbEntity
8
0
62
256
6
ByLayer
370
-2
48
1
60
0
100
AcDbLine
10
-39.24994
20
3
30
0
11
-39.24994
21
23.747151
31
0
39
0
210
0
220
0
230
1
0
LINE
5
15A
100
AcDbEntity
8
0
62
256
6
ByLayer
370
-2
48
1
60
0
100
AcDbLine
10
-39.24994
20
6.175
30
0
11
-39.24994
21
9.35
31
0
39
0
210
0
220
0
230
1
0
LINE
5
15B
100
AcDbEntity
8
0
62
256
6
ByLayer
370
-2
48
1
60
0
100
AcDbLine
10
-39.24994
20
-6.175
30
0
11
-39.24994
21
-9.35
31
0
39
0
210
0
220
0
230
1
0
SOLID
5
15C
100
AcDbEntity
8
0
62
256
6
ByLayer
370
-1
48
1
60
0
100
AcDbTrace
10
-39.779107
20
6.175
30
0
11
-38.720773
21
6.175
31
0
12
-39.24994
22
3
32
0
13
-39.24994
23
3
33
0
39
0
210
0
220
0
230
1
0
SOLID
5
15D
100
AcDbEntity
8
0
62
256
6
ByLayer
370
-1
48
1
60
0
100
AcDbTrace
10
-38.720773
20
-6.175
30
0
11
-39.779107
21
-6.175
31
0
12
-39.24994
22
-3
32
0
13
-39.24994
23
-3
33
0
39
0
210
0
220
0
230
1
0
MTEXT
5
15E
100
AcDbEntity
8
0
62
256
6
ByLayer
370
18
48
1
60
0
100
AcDbMText
10
-46.556441
20
17.10734
30
0
210
0
220
0
230
1
1
\A1;6
40
3.50012
41
0
44
1
50
90
71
5
72
5
7
iso_b_vert
0
POINT
5
15F
100
AcDbEntity
8
Defpoints
62
0
6
ByLayer
370
-1
48
1
60
0
100
AcDbPoint
10
-36
20
3
30
0
39
0
210
0
220
0
230
1
50
360
0
POINT
5
160
100
AcDbEntity
8
Defpoints
62
0
6
ByLayer
370
-1
48
1
60
0
100
AcDbPoint
10
-36
20
-3
30
0
39
0
210
0
220
0
230
1
50
360
0
POINT
5
161
100
AcDbEntity
8
Defpoints
62
0
6
ByLayer
370
-1
48
1
60
0
100
AcDbPoint
10
-39.24994
20
-3
30
0
39
0
210
0
220
0
230
1
50
360
0
ENDBLK
5
156
100
AcDbEntity
8
0
100
AcDbBlockEnd
0
BLOCK
5
16D
100
AcDbEntity
8
0
100
AcDbBlockBegin
2
_U2
70
0
10
0
20
0
30
0
3
_U2
0
MTEXT
5
163
100
AcDbEntity
8
SK2
62
256
6
ByLayer
370
18
48
1
60
0
100
AcDbMText
10
-39.939597
20
13.157505
30
0
210
0
220
0
230
1
1
\W0.7346;6.00
40
3.50012
41
0
44
1.084337
50
90
71
7
72
5
7
iso_b_vert
0
LINE
5
164
100
AcDbEntity
8
SK2
62
256
6
ByLayer
370
13
48
1
60
0
100
AcDbLine
10
-37.5875
20
3
30
0
11
-42.42494
21
3
31
0
39
0
210
0
220
0
230
1
0
LINE
5
165
100
AcDbEntity
8
SK2
62
256
6
ByLayer
370
13
48
1
60
0
100
AcDbLine
10
-37.5875
20
-3
30
0
11
-42.42494
21
-3
31
0
39
0
210
0
220
0
230
1
0
LINE
5
166
100
AcDbEntity
8
SK2
62
256
6
ByLayer
370
13
48
1
60
0
100
AcDbLine
10
-39.24994
20
-11.7503
30
0
11
-39.24994
21
21.21468
31
0
39
0
210
0
220
0
230
1
0
LINE
5
167
100
AcDbEntity
8
SK2
62
256
6
ByLayer
370
13
48
1
60
0
100
AcDbLine
10
-39.24994
20
3
30
0
11
-39.667937
21
6.174998
31
0
39
0
210
0
220
0
230
1
0
LINE
5
168
100
AcDbEntity
8
SK2
62
256
6
ByLayer
370
13
48
1
60
0
100
AcDbLine
10
-39.24994
20
3
30
0
11
-38.831943
21
6.175002
31
0
39
0
210
0
220
0
230
1
0
LINE
5
169
100
AcDbEntity
8
SK2
62
256
6
ByLayer
370
13
48
1
60
0
100
AcDbLine
10
-39.667937
20
6.174998
30
0
11
-38.831943
21
6.175002
31
0
39
0
210
0
220
0
230
1
0
LINE
5
16A
100
AcDbEntity
8
SK2
62
256
6
ByLayer
370
13
48
1
60
0
100
AcDbLine
10
-39.24994
20
-3
30
0
11
-38.831943
21
-6.174998
31
0
39
0
210
0
220
0
230
1
0
LINE
5
16B
100
AcDbEntity
8
SK2
62
256
6
ByLayer
370
13
48
1
60
0
100
AcDbLine
10
-39.24994
20
-3
30
0
11
-39.667937
21
-6.175002
31
0
39
0
210
0
220
0
230
1
0
LINE
5
16C
100
AcDbEntity
8
SK2
62
256
6
ByLayer
370
13
48
1
60
0
100
AcDbLine
10
-38.831943
20
-6.174998
30
0
11
-39.667937
21
-6.175002
31
0
39
0
210
0
220
0
230
1
0
ENDBLK
5
16E
100
AcDbEntity
8
0
100
AcDbBlockEnd
0
BLOCK
5
173
100
AcDbEntity
8
0
100
AcDbBlockBegin
2
*D8
70
1
10
0
20
0
30
0
3
*D8
0
LINE
5
175
100
AcDbEntity
8
0
62
256
6
ByLayer
370
-2
48
1
60
0
100
AcDbLine
10
-36
20
-4.5875
30
0
11
-36
21
-29.67512
31
0
39
0
210
0
220
0
230
1
0
LINE
5
176
100
AcDbEntity
8
0
62
256
6
ByLayer
370
-2
48
1
60
0
100
AcDbLine
10
0
20
-4.5875
30
0
11
0
21
-29.67512
31
0
39
0
210
0
220
0
230
1
0
LINE
5
177
100
AcDbEntity
8
0
62
256
6
ByLayer
370
-2
48
1
60
0
100
AcDbLine
10
-32.825
20
-26.50012
30
0
11
-3.175
21
-26.50012
31
0
39
0
210
0
220
0
230
1
0
SOLID
5
178
100
AcDbEntity
8
0
62
256
6
ByLayer
370
-1
48
1
60
0
100
AcDbTrace
10
-32.825
20
-25.970953
30
0
11
-32.825
21
-27.029287
31
0
12
-36
22
-26.50012
32
0
13
-36
23
-26.50012
33
0
39
0
210
0
220
0
230
1
0
SOLID
5
179
100
AcDbEntity
8
0
62
256
6
ByLayer
370
-1
48
1
60
0
100
AcDbTrace
10
-3.175
20
-27.029287
30
0
11
-3.175
21
-25.970953
31
0
12
0
22
-26.50012
32
0
13
0
23
-26.50012
33
0
39
0
210
0
220
0
230
1
0
MTEXT
5
17A
100
AcDbEntity
8
0
62
256
6
ByLayer
370
18
48
1
60
0
100
AcDbMText
10
-18
20
-19.193619
30
0
210
0
220
0
230
1
1
\A1;36
40
3.50012
41
0
44
1
50
0
71
5
72
5
7
iso_b_vert
0
POINT
5
17B
100
AcDbEntity
8
Defpoints
62
0
6
ByLayer
370
-1
48
1
60
0
100
AcDbPoint
10
-36
20
-3
30
0
39
0
210
0
220
0
230
1
50
360
0
POINT
5
17C
100
AcDbEntity
8
Defpoints
62
0
6
ByLayer
370
-1
48
1
60
0
100
AcDbPoint
10
0
20
-3
30
0
39
0
210
0
220
0
230
1
50
360
0
POINT
5
17D
100
AcDbEntity
8
Defpoints
62
0
6
ByLayer
370
-1
48
1
60
0
100
AcDbPoint
10
0
20
-26.50012
30
0
39
0
210
0
220
0
230
1
50
360
0
ENDBLK
5
174
100
AcDbEntity
8
0
100
AcDbBlockEnd
0
BLOCK
5
189
100
AcDbEntity
8
0
100
AcDbBlockBegin
2
_U3
70
0
10
0
20
0
30
0
3
_U3
0
MTEXT
5
17F
100
AcDbEntity
8
SK2
62
256
6
ByLayer
370
18
48
1
60
0
100
AcDbMText
10
-23.229611
20
-25.467451
30
0
210
0
220
0
230
1
1
\W0.7468;36.00
40
3.50012
41
0
44
1.084337
50
0
71
7
72
5
7
iso_b_vert
0
LINE
5
180
100
AcDbEntity
8
SK2
62
256
6
ByLayer
370
13
48
1
60
0
100
AcDbLine
10
-36
20
-4.5875
30
0
11
-36
21
-29.67512
31
0
39
0
210
0
220
0
230
1
0
LINE
5
181
100
AcDbEntity
8
SK2
62
256
6
ByLayer
370
13
48
1
60
0
100
AcDbLine
10
0
20
-4.5875
30
0
11
0
21
-29.67512
31
0
39
0
210
0
220
0
230
1
0
LINE
5
182
100
AcDbEntity
8
SK2
62
256
6
ByLayer
370
13
48
1
60
0
100
AcDbLine
10
-36
20
-26.50012
30
0
11
0
21
-26.50012
31
0
39
0
210
0
220
0
230
1
0
LINE
5
183
100
AcDbEntity
8
SK2
62
256
6
ByLayer
370
13
48
1
60
0
100
AcDbLine
10
-36
20
-26.50012
30
0
11
-32.825002
21
-26.082123
31
0
39
0
210
0
220
0
230
1
0
LINE
5
184
100
AcDbEntity
8
SK2
62
256
6
ByLayer
370
13
48
1
60
0
100
AcDbLine
10
-36
20
-26.50012
30
0
11
-32.824998
21
-26.918117
31
0
39
0
210
0
220
0
230
1
0
LINE
5
185
100
AcDbEntity
8
SK2
62
256
6
ByLayer
370
13
48
1
60
0
100
AcDbLine
10
-32.825002
20
-26.082123
30
0
11
-32.824998
21
-26.918117
31
0
39
0
210
0
220
0
230
1
0
LINE
5
186
100
AcDbEntity
8
SK2
62
256
6
ByLayer
370
13
48
1
60
0
100
AcDbLine
10
0
20
-26.50012
30
0
11
-3.174998
21
-26.918117
31
0
39
0
210
0
220
0
230
1
0
LINE
5
187
100
AcDbEntity
8
SK2
62
256
6
ByLayer
370
13
48
1
60
0
100
AcDbLine
10
0
20
-26.50012
30
0
11
-3.175002
21
-26.082123
31
0
39
0
210
0
220
0
230
1
0
LINE
5
188
100
AcDbEntity
8
SK2
62
256
6
ByLayer
370
13
48
1
60
0
100
AcDbLine
10
-3.174998
20
-26.918117
30
0
11
-3.175002
21
-26.082123
31
0
39
0
210
0
220
0
230
1
0
ENDBLK
5
18A
100
AcDbEntity
8
0
100
AcDbBlockEnd
0
BLOCK
5
18F
100
AcDbEntity
8
0
100
AcDbBlockBegin
2
*D10
70
1
10
0
20
0
30
0
3
*D10
0
LINE
5
191
100
AcDbEntity
8
0
62
256
6
ByLayer
370
-2
48
1
60
0
100
AcDbLine
10
2
20
1.4625
30
0
11
2
21
-20.92482
31
0
39
0
210
0
220
0
230
1
0
LINE
5
192
100
AcDbEntity
8
0
62
256
6
ByLayer
370
-2
48
1
60
0
100
AcDbLine
10
30
20
-1.5875
30
0
11
30
21
-20.92482
31
0
39
0
210
0
220
0
230
1
0
LINE
5
193
100
AcDbEntity
8
0
62
256
6
ByLayer
370
-2
48
1
60
0
100
AcDbLine
10
5.175
20
-17.74982
30
0
11
26.825
21
-17.74982
31
0
39
0
210
0
220
0
230
1
0
SOLID
5
194
100
AcDbEntity
8
0
62
256
6
ByLayer
370
-1
48
1
60
0
100
AcDbTrace
10
5.175
20
-17.220653
30
0
11
5.175
21
-18.278987
31
0
12
2
22
-17.74982
32
0
13
2
23
-17.74982
33
0
39
0
210
0
220
0
230
1
0
SOLID
5
195
100
AcDbEntity
8
0
62
256
6
ByLayer
370
-1
48
1
60
0
100
AcDbTrace
10
26.825
20
-18.278987
30
0
11
26.825
21
-17.220653
31
0
12
30
22
-17.74982
32
0
13
30
23
-17.74982
33
0
39
0
210
0
220
0
230
1
0
MTEXT
5
196
100
AcDbEntity
8
0
62
256
6
ByLayer
370
18
48
1
60
0
100
AcDbMText
10
16
20
-10.44332
30
0
210
0
220
0
230
1
1
\A1;28
40
3.50012
41
0
44
1
50
0
71
5
72
5
7
iso_b_vert
0
POINT
5
197
100
AcDbEntity
8
Defpoints
62
0
6
ByLayer
370
-1
48
1
60
0
100
AcDbPoint
10
2
20
3.05
30
0
39
0
210
0
220
0
230
1
50
360
0
POINT
5
198
100
AcDbEntity
8
Defpoints
62
0
6
ByLayer
370
-1
48
1
60
0
100
AcDbPoint
10
30
20
0
30
0
39
0
210
0
220
0
230
1
50
360
0
POINT
5
199
100
AcDbEntity
8
Defpoints
62
0
6
ByLayer
370
-1
48
1
60
0
100
AcDbPoint
10
30
20
-17.74982
30
0
39
0
210
0
220
0
230
1
50
360
0
ENDBLK
5
190
100
AcDbEntity
8
0
100
AcDbBlockEnd
0
BLOCK
5
1A5
100
AcDbEntity
8
0
100
AcDbBlockBegin
2
_U4
70
0
10
0
20
0
30
0
3
_U4
0
MTEXT
5
19B
100
AcDbEntity
8
SK2
62
256
6
ByLayer
370
18
48
1
60
0
100
AcDbMText
10
10.770389
20
-16.717151
30
0
210
0
220
0
230
1
1
\W0.7468;28.00
40
3.50012
41
0
44
1.084337
50
0
71
7
72
5
7
iso_b_vert
0
LINE
5
19C
100
AcDbEntity
8
SK2
62
256
6
ByLayer
370
13
48
1
60
0
100
AcDbLine
10
2
20
1.4625
30
0
11
2
21
-20.92482
31
0
39
0
210
0
220
0
230
1
0
LINE
5
19D
100
AcDbEntity
8
SK2
62
256
6
ByLayer
370
13
48
1
60
0
100
AcDbLine
10
30
20
-1.5875
30
0
11
30
21
-20.92482
31
0
39
0
210
0
220
0
230
1
0
LINE
5
19E
100
AcDbEntity
8
SK2
62
256
6
ByLayer
370
13
48
1
60
0
100
AcDbLine
10
2
20
-17.74982
30
0
11
30
21
-17.74982
31
0
39
0
210
0
220
0
230
1
0
LINE
5
19F
100
AcDbEntity
8
SK2
62
256
6
ByLayer
370
13
48
1
60
0
100
AcDbLine
10
2
20
-17.74982
30
0
11
5.174998
21
-17.331823
31
0
39
0
210
0
220
0
230
1
0
LINE
5
1A0
100
AcDbEntity
8
SK2
62
256
6
ByLayer
370
13
48
1
60
0
100
AcDbLine
10
2
20
-17.74982
30
0
11
5.175002
21
-18.167817
31
0
39
0
210
0
220
0
230
1
0
LINE
5
1A1
100
AcDbEntity
8
SK2
62
256
6
ByLayer
370
13
48
1
60
0
100
AcDbLine
10
5.174998
20
-17.331823
30
0
11
5.175002
21
-18.167817
31
0
39
0
210
0
220
0
230
1
0
LINE
5
1A2
100
AcDbEntity
8
SK2
62
256
6
ByLayer
370
13
48
1
60
0
100
AcDbLine
10
30
20
-17.74982
30
0
11
26.825002
21
-18.167817
31
0
39
0
210
0
220
0
230
1
0
LINE
5
1A3
100
AcDbEntity
8
SK2
62
256
6
ByLayer
370
13
48
1
60
0
100
AcDbLine
10
30
20
-17.74982
30
0
11
26.824998
21
-17.331823
31
0
39
0
210
0
220
0
230
1
0
LINE
5
1A4
100
AcDbEntity
8
SK2
62
256
6
ByLayer
370
13
48
1
60
0
100
AcDbLine
10
26.825002
20
-18.167817
30
0
11
26.824998
21
-17.331823
31
0
39
0
210
0
220
0
230
1
0
ENDBLK
5
1A6
100
AcDbEntity
8
0
100
AcDbBlockEnd
0
BLOCK
5
1AB
100
AcDbEntity
8
0
100
AcDbBlockBegin
2
*D12
70
1
10
0
20
0
30
0
3
*D12
0
LINE
5
1AD
100
AcDbEntity
8
0
62
256
6
ByLayer
370
-2
48
1
60
0
100
AcDbLine
10
13.8
20
-4.1375
30
0
11
13.8
21
-10.32
31
0
39
0
210
0
220
0
230
1
0
LINE
5
1AE
100
AcDbEntity
8
0
62
256
6
ByLayer
370
-2
48
1
60
0
100
AcDbLine
10
30
20
-1.5875
30
0
11
30
21
-10.32
31
0
39
0
210
0
220
0
230
1
0
LINE
5
1AF
100
AcDbEntity
8
0
62
256
6
ByLayer
370
-2
48
1
60
0
100
AcDbLine
10
16.975
20
-9.82
30
0
11
26.825
21
-9.82
31
0
39
0
210
0
220
0
230
1
0
SOLID
5
1B0
100
AcDbEntity
8
0
62
256
6
ByLayer
370
-1
48
1
60
0
100
AcDbTrace
10
16.975
20
-9.290833
30
0
11
16.975
21
-10.349167
31
0
12
13.8
22
-9.82
32
0
13
13.8
23
-9.82
33
0
39
0
210
0
220
0
230
1
0
SOLID
5
1B1
100
AcDbEntity
8
0
62
256
6
ByLayer
370
-1
48
1
60
0
100
AcDbTrace
10
26.825
20
-10.349167
30
0
11
26.825
21
-9.290833
31
0
12
30
22
-9.82
32
0
13
30
23
-9.82
33
0
39
0
210
0
220
0
230
1
0
MTEXT
5
1B2
100
AcDbEntity
8
0
62
256
6
ByLayer
370
18
48
1
60
0
100
AcDbMText
10
21.9
20
-3.975
30
0
210
0
220
0
230
1
1
\A1;16.2
40
2.8
41
0
44
1
50
0
71
5
72
5
7
iso_b_vert
0
POINT
5
1B3
100
AcDbEntity
8
Defpoints
62
0
6
ByLayer
370
-1
48
1
60
0
100
AcDbPoint
10
13.8
20
-2.55
30
0
39
0
210
0
220
0
230
1
50
360
0
POINT
5
1B4
100
AcDbEntity
8
Defpoints
62
0
6
ByLayer
370
-1
48
1
60
0
100
AcDbPoint
10
30
20
0
30
0
39
0
210
0
220
0
230
1
50
360
0
POINT
5
1B5
100
AcDbEntity
8
Defpoints
62
0
6
ByLayer
370
-1
48
1
60
0
100
AcDbPoint
10
30
20
-9.82
30
0
39
0
210
0
220
0
230
1
50
360
0
ENDBLK
5
1AC
100
AcDbEntity
8
0
100
AcDbBlockEnd
0
BLOCK
5
1C1
100
AcDbEntity
8
0
100
AcDbBlockBegin
2
_U5
70
0
10
0
20
0
30
0
3
_U5
0
MTEXT
5
1B7
100
AcDbEntity
8
SK2
62
256
6
ByLayer
370
18
48
1
60
0
100
AcDbMText
10
18.066401
20
-9.973893
30
0
210
0
220
0
230
1
1
\W0.6864;16.20
40
2.8
41
0
44
1.084337
50
0
71
7
72
5
7
iso_b_vert
0
LINE
5
1B8
100
AcDbEntity
8
SK2
62
256
6
ByLayer
370
13
48
1
60
0
100
AcDbLine
10
13.8
20
-4.1375
30
0
11
13.8
21
-10.32
31
0
39
0
210
0
220
0
230
1
0
LINE
5
1B9
100
AcDbEntity
8
SK2
62
256
6
ByLayer
370
13
48
1
60
0
100
AcDbLine
10
30
20
-1.5875
30
0
11
30
21
-10.32
31
0
39
0
210
0
220
0
230
1
0
LINE
5
1BA
100
AcDbEntity
8
SK2
62
256
6
ByLayer
370
13
48
1
60
0
100
AcDbLine
10
6.8
20
-9.82
30
0
11
37
21
-9.82
31
0
39
0
210
0
220
0
230
1
0
LINE
5
1BB
100
AcDbEntity
8
SK2
62
256
6
ByLayer
370
13
48
1
60
0
100
AcDbLine
10
13.8
20
-9.82
30
0
11
10.625002
21
-10.237997
31
0
39
0
210
0
220
0
230
1
0
LINE
5
1BC
100
AcDbEntity
8
SK2
62
256
6
ByLayer
370
13
48
1
60
0
100
AcDbLine
10
13.8
20
-9.82
30
0
11
10.624998
21
-9.402003
31
0
39
0
210
0
220
0
230
1
0
LINE
5
1BD
100
AcDbEntity
8
SK2
62
256
6
ByLayer
370
13
48
1
60
0
100
AcDbLine
10
10.625002
20
-10.237997
30
0
11
10.624998
21
-9.402003
31
0
39
0
210
0
220
0
230
1
0
LINE
5
1BE
100
AcDbEntity
8
SK2
62
256
6
ByLayer
370
13
48
1
60
0
100
AcDbLine
10
30
20
-9.82
30
0
11
33.174998
21
-9.402003
31
0
39
0
210
0
220
0
230
1
0
LINE
5
1BF
100
AcDbEntity
8
SK2
62
256
6
ByLayer
370
13
48
1
60
0
100
AcDbLine
10
30
20
-9.82
30
0
11
33.175002
21
-10.237997
31
0
39
0
210
0
220
0
230
1
0
LINE
5
1C0
100
AcDbEntity
8
SK2
62
256
6
ByLayer
370
13
48
1
60
0
100
AcDbLine
10
33.174998
20
-9.402003
30
0
11
33.175002
21
-10.237997
31
0
39
0
210
0
220
0
230
1
0
ENDBLK
5
1C2
100
AcDbEntity
8
0
100
AcDbBlockEnd
0
BLOCK
5
1C7
100
AcDbEntity
8
0
100
AcDbBlockBegin
2
*D14
70
1
10
0
20
0
30
0
3
*D14
0
LINE
5
1C9
100
AcDbEntity
8
0
62
256
6
ByLayer
370
-2
48
1
60
0
100
AcDbLine
10
-36
20
-1.5875
30
0
11
-36
21
-39.67512
31
0
39
0
210
0
220
0
230
1
0
LINE
5
1CA
100
AcDbEntity
8
0
62
256
6
ByLayer
370
-2
48
1
60
0
100
AcDbLine
10
30
20
-1.5875
30
0
11
30
21
-39.67512
31
0
39
0
210
0
220
0
230
1
0
LINE
5
1CB
100
AcDbEntity
8
0
62
256
6
ByLayer
370
-2
48
1
60
0
100
AcDbLine
10
-32.825
20
-36.50012
30
0
11
26.825
21
-36.50012
31
0
39
0
210
0
220
0
230
1
0
SOLID
5
1CC
100
AcDbEntity
8
0
62
256
6
ByLayer
370
-1
48
1
60
0
100
AcDbTrace
10
-32.825
20
-35.970953
30
0
11
-32.825
21
-37.029287
31
0
12
-36
22
-36.50012
32
0
13
-36
23
-36.50012
33
0
39
0
210
0
220
0
230
1
0
SOLID
5
1CD
100
AcDbEntity
8
0
62
256
6
ByLayer
370
-1
48
1
60
0
100
AcDbTrace
10
26.825
20
-37.029287
30
0
11
26.825
21
-35.970953
31
0
12
30
22
-36.50012
32
0
13
30
23
-36.50012
33
0
39
0
210
0
220
0
230
1
0
MTEXT
5
1CE
100
AcDbEntity
8
0
62
256
6
ByLayer
370
18
48
1
60
0
100
AcDbMText
10
-3
20
-29.19362
30
0
210
0
220
0
230
1
1
\A1;66
40
3.50012
41
0
44
1
50
0
71
5
72
5
7
iso_b_vert
0
POINT
5
1CF
100
AcDbEntity
8
Defpoints
62
0
6
ByLayer
370
-1
48
1
60
0
100
AcDbPoint
10
-36
20
0
30
0
39
0
210
0
220
0
230
1
50
360
0
POINT
5
1D0
100
AcDbEntity
8
Defpoints
62
0
6
ByLayer
370
-1
48
1
60
0
100
AcDbPoint
10
30
20
0
30
0
39
0
210
0
220
0
230
1
50
360
0
POINT
5
1D1
100
AcDbEntity
8
Defpoints
62
0
6
ByLayer
370
-1
48
1
60
0
100
AcDbPoint
10
30
20
-36.50012
30
0
39
0
210
0
220
0
230
1
50
360
0
ENDBLK
5
1C8
100
AcDbEntity
8
0
100
AcDbBlockEnd
0
BLOCK
5
1DD
100
AcDbEntity
8
0
100
AcDbBlockBegin
2
_U6
70
0
10
0
20
0
30
0
3
_U6
0
MTEXT
5
1D3
100
AcDbEntity
8
SK2
62
256
6
ByLayer
370
18
48
1
60
0
100
AcDbMText
10
-8.229611
20
-35.467451
30
0
210
0
220
0
230
1
1
\W0.7468;66.00
40
3.50012
41
0
44
1.084337
50
0
71
7
72
5
7
iso_b_vert
0
LINE
5
1D4
100
AcDbEntity
8
SK2
62
256
6
ByLayer
370
13
48
1
60
0
100
AcDbLine
10
-36
20
-1.5875
30
0
11
-36
21
-39.67512
31
0
39
0
210
0
220
0
230
1
0
LINE
5
1D5
100
AcDbEntity
8
SK2
62
256
6
ByLayer
370
13
48
1
60
0
100
AcDbLine
10
30
20
-1.5875
30
0
11
30
21
-39.67512
31
0
39
0
210
0
220
0
230
1
0
LINE
5
1D6
100
AcDbEntity
8
SK2
62
256
6
ByLayer
370
13
48
1
60
0
100
AcDbLine
10
-36
20
-36.50012
30
0
11
30
21
-36.50012
31
0
39
0
210
0
220
0
230
1
0
LINE
5
1D7
100
AcDbEntity
8
SK2
62
256
6
ByLayer
370
13
48
1
60
0
100
AcDbLine
10
-36
20
-36.50012
30
0
11
-32.825002
21
-36.082123
31
0
39
0
210
0
220
0
230
1
0
LINE
5
1D8
100
AcDbEntity
8
SK2
62
256
6
ByLayer
370
13
48
1
60
0
100
AcDbLine
10
-36
20
-36.50012
30
0
11
-32.824998
21
-36.918117
31
0
39
0
210
0
220
0
230
1
0
LINE
5
1D9
100
AcDbEntity
8
SK2
62
256
6
ByLayer
370
13
48
1
60
0
100
AcDbLine
10
-32.825002
20
-36.082123
30
0
11
-32.824998
21
-36.918117
31
0
39
0
210
0
220
0
230
1
0
LINE
5
1DA
100
AcDbEntity
8
SK2
62
256
6
ByLayer
370
13
48
1
60
0
100
AcDbLine
10
30
20
-36.50012
30
0
11
26.825002
21
-36.918117
31
0
39
0
210
0
220
0
230
1
0
LINE
5
1DB
100
AcDbEntity
8
SK2
62
256
6
ByLayer
370
13
48
1
60
0
100
AcDbLine
10
30
20
-36.50012
30
0
11
26.824998
21
-36.082123
31
0
39
0
210
0
220
0
230
1
0
LINE
5
1DC
100
AcDbEntity
8
SK2
62
256
6
ByLayer
370
13
48
1
60
0
100
AcDbLine
10
26.825002
20
-36.918117
30
0
11
26.824998
21
-36.082123
31
0
39
0
210
0
220
0
230
1
0
ENDBLK
5
1DE
100
AcDbEntity
8
0
100
AcDbBlockEnd
0
ENDSEC
0
SECTION
2
ENTITIES
0
ARC
5
B3
100
AcDbEntity
8
1
62
256
6
ByLayer
370
18
48
1
60
0
100
AcDbCircle
39
0
10
1.130205
20
3.332535
30
0
40
0.800000000000004
210
0
220
0
230
1
100
AcDbArc
50
225.059002
51
270.03581
0
ARC
5
B4
100
AcDbEntity
8
1
62
256
6
ByLayer
370
18
48
1
60
0
100
AcDbCircle
39
0
10
1.130205
20
-3.332535
30
0
40
0.800000000000004
210
0
220
0
230
1
100
AcDbArc
50
89.96419
51
134.940998
0
ARC
5
B5
100
AcDbEntity
8
1
62
256
6
ByLayer
370
18
48
1
60
0
100
AcDbCircle
39
0
10
0
20
2.2
30
0
40
0.800000000000004
210
0
220
0
230
1
100
AcDbArc
50
45.059002
51
90
0
ARC
5
B6
100
AcDbEntity
8
1
62
256
6
ByLayer
370
18
48
1
60
0
100
AcDbCircle
39
0
10
0
20
-2.2
30
0
40
0.800000000000004
210
0
220
0
230
1
100
AcDbArc
50
270
51
314.940998
0
ARC
5
B7
100
AcDbEntity
8
SK2
62
256
6
ByLayer
370
13
48
1
60
0
100
AcDbCircle
39
0
10
30
20
0
30
0
40
20
210
0
220
0
230
1
100
AcDbArc
50
9.606349
51
70.000478
0
ARC
5
B8
100
AcDbEntity
8
SK2
62
256
6
ByLayer
370
13
48
1
60
0
100
AcDbCircle
39
0
10
30
20
0
30
0
40
20
210
0
220
0
230
1
100
AcDbArc
50
289.999522
51
350.393651
0
ELLIPSE
5
B9
100
AcDbEntity
8
1
62
256
6
ByLayer
370
18
48
1
60
0
100
AcDbEllipse
10
3.640378
20
2.409558
30
0
11
0.000448929839163418
21
-0.00998991801765704
31
0
210
0
220
0
230
1
40
0.423944
41
-0.0896989959985401
42
1.47480412176062
0
ELLIPSE
5
BA
100
AcDbEntity
8
1
62
256
6
ByLayer
370
18
48
1
60
0
100
AcDbEllipse
10
3.602694
20
2.408587
30
0
11
-7.73970647779954E-05
21
0.00999970048023258
31
0
210
0
220
0
230
1
40
0.006526
41
3.05679910237504
42
-1.65583639604098
0
ELLIPSE
5
BB
100
AcDbEntity
8
1
62
256
6
ByLayer
370
18
48
1
60
0
100
AcDbEllipse
10
3.60205
20
2.507239
30
0
11
-0.1
21
1.22460635382238E-17
31
0
210
0
220
0
230
1
40
0.999989
41
0.000578800153309832
42
1.58040771058305
0
POINT
5
70
100
AcDbEntity
8
80
62
256
6
ByLayer
370
18
48
1
60
0
100
AcDbPoint
10
0
20
0
30
0
39
0
210
0
220
0
230
1
50
360
0
POINT
5
72
100
AcDbEntity
8
81
62
256
6
ByLayer
370
18
48
1
60
0
100
AcDbPoint
10
30
20
0
30
0
39
0
210
0
220
0
230
1
50
360
0
POINT
5
74
100
AcDbEntity
8
1
62
256
6
ByLayer
370
18
48
1
60
0
100
AcDbPoint
10
-36
20
0
30
0
39
0
210
0
220
0
230
1
50
360
0
POINT
5
76
100
AcDbEntity
8
1
62
256
6
ByLayer
370
18
48
1
60
1
100
AcDbPoint
10
0
20
-3
30
0
39
0
210
0
220
0
230
1
50
360
0
POINT
5
77
100
AcDbEntity
8
1
62
256
6
ByLayer
370
18
48
1
60
1
100
AcDbPoint
10
30
20
0
30
0
39
0
210
0
220
0
230
1
50
360
0
POINT
5
78
100
AcDbEntity
8
1
62
256
6
ByLayer
370
18
48
1
60
1
100
AcDbPoint
10
29.0719
20
-2.55
30
0
39
0
210
0
220
0
230
1
50
360
0
POINT
5
79
100
AcDbEntity
8
1
62
256
6
ByLayer
370
18
48
1
60
1
100
AcDbPoint
10
29.0719
20
2.55
30
0
39
0
210
0
220
0
230
1
50
360
0
POINT
5
7A
100
AcDbEntity
8
1
62
256
6
ByLayer
370
18
48
1
60
1
100
AcDbPoint
10
-36
20
3
30
0
39
0
210
0
220
0
230
1
50
360
0
POINT
5
7B
100
AcDbEntity
8
1
62
256
6
ByLayer
370
18
48
1
60
1
100
AcDbPoint
10
-36
20
-3
30
0
39
0
210
0
220
0
230
1
50
360
0
POINT
5
7C
100
AcDbEntity
8
1
62
256
6
ByLayer
370
18
48
1
60
1
100
AcDbPoint
10
-36
20
-3
30
0
39
0
210
0
220
0
230
1
50
360
0
POINT
5
7D
100
AcDbEntity
8
1
62
256
6
ByLayer
370
18
48
1
60
1
100
AcDbPoint
10
0
20
-3
30
0
39
0
210
0
220
0
230
1
50
360
0
POINT
5
7E
100
AcDbEntity
8
1
62
256
6
ByLayer
370
18
48
1
60
1
100
AcDbPoint
10
2
20
3.05
30
0
39
0
210
0
220
0
230
1
50
360
0
POINT
5
7F
100
AcDbEntity
8
1
62
256
6
ByLayer
370
18
48
1
60
1
100
AcDbPoint
10
30
20
0
30
0
39
0
210
0
220
0
230
1
50
360
0
POINT
5
80
100
AcDbEntity
8
1
62
256
6
ByLayer
370
18
48
1
60
1
100
AcDbPoint
10
13.8
20
-2.55
30
0
39
0
210
0
220
0
230
1
50
360
0
POINT
5
81
100
AcDbEntity
8
1
62
256
6
ByLayer
370
18
48
1
60
1
100
AcDbPoint
10
30
20
0
30
0
39
0
210
0
220
0
230
1
50
360
0
POINT
5
82
100
AcDbEntity
8
1
62
256
6
ByLayer
370
18
48
1
60
1
100
AcDbPoint
10
-36
20
0
30
0
39
0
210
0
220
0
230
1
50
360
0
POINT
5
83
100
AcDbEntity
8
1
62
256
6
ByLayer
370
18
48
1
60
1
100
AcDbPoint
10
30
20
0
30
0
39
0
210
0
220
0
230
1
50
360
0
SPLINE
5
BC
100
AcDbEntity
8
1
62
256
6
ByLayer
370
18
48
1
60
0
100
AcDbSpline
70
4
71
3
72
18
73
14
40
0
40
0
40
0
40
0
40
0.249999999999995
40
0.249999999999995
40
0.374999999999996
40
0.374999999999996
40
0.499999999999996
40
0.499999999999996
40
0.749999999999998
40
0.749999999999998
40
0.874999999999999
40
0.874999999999999
40
1
40
1
40
1
40
1
41
1
10
29.1156915541391
20
-2.44478038619323
30
0
41
1
10
29.1659065469469
20
-2.30211639882458
30
0
41
1
10
29.2156345404344
20
-2.15844398655943
30
0
41
1
10
29.2904586644771
20
-1.94225878414352
30
0
41
1
10
29.31542872397
20
-1.87010621481454
30
0
41
1
10
29.3655387483471
20
-1.72573451181958
30
0
41
1
10
29.3905287748509
20
-1.65351048130916
30
0
41
1
10
29.469266499164
20
-1.43772737832359
30
0
41
1
10
29.5260890369026
20
-1.29554264443979
30
0
41
1
10
29.618151345658
20
-1.09519278487849
30
0
41
1
10
29.6499764731159
20
-1.03045106651396
30
0
41
1
10
29.7163359366603
20
-0.905133860070748
30
0
41
1
10
29.7510645639736
20
-0.844251370422455
30
0
41
1
10
29.7868123901631
20
-0.786261138121404
30
0
0
SPLINE
5
BD
100
AcDbEntity
8
1
62
256
6
ByLayer
370
18
48
1
60
0
100
AcDbSpline
70
4
71
3
72
26
73
22
40
0
40
0
40
0
40
0
40
0.0693912794183238
40
0.0693912794183238
40
0.164642984028698
40
0.164642984028698
40
0.259894688639072
40
0.259894688639072
40
0.355146393249445
40
0.355146393249445
40
0.450398097859819
40
0.450398097859819
40
0.545649802470193
40
0.545649802470193
40
0.640901507080567
40
0.640901507080567
40
0.736153211690941
40
0.736153211690941
40
0.831404916301315
40
0.831404916301315
40
1
40
1
40
1
40
1
41
1
10
20.3608331073527
20
2.42519431390062
30
0
41
1
10
20.5503588071542
20
2.42699435818346
30
0
41
1
10
20.7397676646806
20
2.42427194524788
30
0
41
1
10
21.1900753508182
20
2.40465035100328
30
0
41
1
10
21.45121467259
20
2.38353765202149
30
0
41
1
10
21.9744038370742
20
2.32476001749365
30
0
41
1
10
22.2362411760632
20
2.28747422908501
30
0
41
1
10
22.7642177855055
20
2.19236045359437
30
1E-16
41
1
10
23.0283528086045
20
2.13551113888673
30
1E-16
41
1
10
23.5547605618112
20
2.00799907484358
30
1E-16
41
1
10
23.8170244035243
20
1.9373210376225
30
1E-16
41
1
10
24.3435822591178
20
1.77953810201086
30
-1E-16
41
1
10
24.6082732586892
20
1.69279509169877
30
-1E-16
41
1
10
25.1351959374166
20
1.5080193355779
30
-1E-16
41
1
10
25.3974820806732
20
1.4100595215148
30
-1E-16
41
1
10
25.920309357848
20
1.20468240618885
30
-1E-16
41
1
10
26.1807605362112
20
1.09720002320665
30
-1E-16
41
1
10
26.7017471022673
20
0.874968532947207
30
-1E-16
41
1
10
26.9620781075729
20
0.760147236010937
30
0
41
1
10
27.6848079062486
20
0.435680249725863
30
0
41
1
10
28.1480591580349
20
0.220863820409733
30
0
41
1
10
28.6139030345706
20
0.0022115310362665
30
0
0
SPLINE
5
BE
100
AcDbEntity
8
1
62
256
6
ByLayer
370
18
48
1
60
0
100
AcDbSpline
70
4
71
3
72
10
73
6
40
0
40
0
40
0
40
0
40
0.5
40
0.5
40
1
40
1
40
1
40
1
41
1
10
3.50204985483356
20
2.53093153237899
30
0
41
1
10
3.50204985483353
20
2.52924670950222
30
0
41
1
10
3.52026555124729
20
2.52682265863462
30
0
41
1
10
3.57823960398312
20
2.52387507154353
30
0
41
1
10
3.61567652410901
20
2.52371333058207
30
0
41
1
10
3.64630022771985
20
2.52501159402303
30
0
0
SPLINE
5
BF
100
AcDbEntity
8
1
62
256
6
ByLayer
370
18
48
1
60
0
100
AcDbSpline
70
4
71
3
72
40
73
36
40
0
40
0
40
0
40
0
40
0.0624999999999993
40
0.0624999999999993
40
0.124999999999999
40
0.124999999999999
40
0.156249999999998
40
0.156249999999998
40
0.187499999999998
40
0.187499999999998
40
0.249999999999996
40
0.249999999999996
40
0.374999999999994
40
0.374999999999994
40
0.406249999999994
40
0.406249999999994
40
0.437499999999993
40
0.437499999999993
40
0.499999999999993
40
0.499999999999993
40
0.624999999999993
40
0.624999999999993
40
0.656249999999992
40
0.656249999999992
40
0.687499999999992
40
0.687499999999992
40
0.749999999999992
40
0.749999999999992
40
0.812499999999992
40
0.812499999999992
40
0.843749999999992
40
0.843749999999992
40
0.874999999999994
40
0.874999999999994
40
1
40
1
40
1
40
1
41
1
10
12.2
20
2.52855866718656
30
0
41
1
10
12.5512581148212
20
2.54465567394706
30
0
41
1
10
12.9024986649518
20
2.54333646880264
30
0
41
1
10
13.6030237465897
20
2.50627445245249
30
0
41
1
10
13.9528133619333
20
2.47061061941383
30
0
41
1
10
14.4787179114278
20
2.39223798633003
30
0
41
1
10
14.6545411256306
20
2.3619025261776
30
0
41
1
10
15.0051856181997
20
2.29346421763938
30
1E-16
41
1
10
15.1799164154212
20
2.25539834643445
30
1E-16
41
1
10
15.7028419683086
20
2.1303249793578
30
1E-16
41
1
10
16.0497686461818
20
2.03243716663266
30
1E-16
41
1
10
17.0893156682663
20
1.70051931672506
30
-1E-16
41
1
10
17.7807737518035
20
1.42818006350888
30
-1E-16
41
1
10
18.6564125126102
20
1.04409629469046
30
-1E-16
41
1
10
18.8322621279565
20
0.965022306222693
30
-1E-16
41
1
10
19.1820504137188
20
0.804714879101596
30
0
41
1
10
19.3564013542688
20
0.723306301387225
30
0
41
1
10
19.8783616107367
20
0.476439703541331
30
0
41
1
10
20.224908151614
20
0.308402942807049
30
0
41
1
10
21.2640476990931
20
-0.198157115860852
30
0
41
1
10
21.9557728948079
20
-0.539908418814917
30
0
41
1
10
22.8326605861305
20
-0.943753571013531
30
1E-16
41
1
10
23.0082590701935
20
-1.02314493656792
30
1E-16
41
1
10
23.3586055693361
20
-1.17779714370738
30
1E-16
41
1
10
23.533596050074
20
-1.25317692839189
30
1E-16
41
1
10
24.0585094786121
20
-1.47260927439328
30
1E-16
41
1
10
24.4084487275968
20
-1.60998274335293
30
1E-16
41
1
10
25.110677720002
20
-1.86184229723176
30
-1E-16
41
1
10
25.4605563226079
20
-1.97541776648759
30
-1E-16
41
1
10
25.9855220685708
20
-2.12475590993986
30
-1E-16
41
1
10
26.1605319215148
20
-2.17103618227102
30
-1E-16
41
1
10
26.5109341030912
20
-2.2561895180236
30
-1E-16
41
1
10
26.6865702318698
20
-2.29510796775927
30
-1E-16
41
1
10
27.5633111706772
20
-2.46954447880987
30
0
41
1
10
28.2584784913271
20
-2.5442946671659
30
0
41
1
10
28.9583083093768
20
-2.54966410876378
30
0
0
SPLINE
5
C0
100
AcDbEntity
8
1
62
256
6
ByLayer
370
18
48
1
60
0
100
AcDbSpline
70
4
71
3
72
10
73
6
40
0
40
0
40
0
40
0
40
0.5
40
0.5
40
1
40
1
40
1
40
1
41
1
10
3.55826662257618
20
0.804271803865049
30
0
41
1
10
3.54137032839273
20
0.812071361000505
30
0
41
1
10
3.52713696052979
20
0.824276353733865
30
-1E-16
41
1
10
3.50744832109422
20
0.853947166138227
30
-1E-16
41
1
10
3.5020498548335
20
0.871413039760625
30
-1E-16
41
1
10
3.50204985483356
20
0.889011847537091
30
-1E-16
0
SPLINE
5
C1
100
AcDbEntity
8
1
62
256
6
ByLayer
370
18
48
1
60
0
100
AcDbSpline
70
4
71
3
72
26
73
22
40
0
40
0
40
0
40
0
40
0.187599489487953
40
0.187599489487953
40
0.281399234231932
40
0.281399234231932
40
0.375198978975911
40
0.375198978975911
40
0.468998723719889
40
0.468998723719889
40
0.562798468463868
40
0.562798468463868
40
0.656598213207846
40
0.656598213207846
40
0.750397957951825
40
0.750397957951825
40
0.844197702695804
40
0.844197702695804
40
0.937997447439782
40
0.937997447439782
40
1
40
1
40
1
40
1
41
1
10
28.8007979149216
20
-0.0962610003347208
30
0
41
1
10
28.2734719777666
20
0.150888654549306
30
0
41
1
10
27.7495201006508
20
0.394004541905389
30
0
41
1
10
26.9664418904996
20
0.744631824764014
30
0
41
1
10
26.7060007236992
20
0.859249013086583
30
-1E-16
41
1
10
26.1848070079856
20
1.08118347750235
30
-1E-16
41
1
10
25.9242569354001
20
1.18857216708355
30
-1E-16
41
1
10
25.401257860071
20
1.39385245368464
30
-1E-16
41
1
10
25.138896150031
20
1.49181574127658
30
-1E-16
41
1
10
24.611848638799
20
1.67671527141547
30
-1E-16
41
1
10
24.3470669571025
20
1.76359232340849
30
-1E-16
41
1
10
23.8203147297023
20
1.92178221970491
30
1E-16
41
1
10
23.5579509504751
20
1.99271129851269
30
1E-16
41
1
10
23.031377766717
20
2.12076727614459
30
1E-16
41
1
10
22.7672050393015
20
2.17794710927964
30
1E-16
41
1
10
22.2390073936067
20
2.27389393782858
30
0
41
1
10
21.9770506585445
20
2.31163707248467
30
0
41
1
10
21.4536421777511
20
2.37135380302635
30
0
41
1
10
21.1923930041122
20
2.39298910739981
30
0
41
1
10
20.7594827724762
20
2.41278436189057
30
0
41
1
10
20.5875164433281
20
2.41611020908465
30
0
41
1
10
20.4154945448825
20
2.41564036720453
30
0
0
SPLINE
5
C2
100
AcDbEntity
8
1
62
256
6
ByLayer
370
18
48
1
60
0
100
AcDbSpline
70
4
71
3
72
8
73
4
40
0
40
0
40
0
40
0
40
1
40
1
40
1
40
1
41
1
10
28.9480140907438
20
2.51860368853403
30
0
41
1
10
28.9888022351068
20
2.4950187759809
30
0
41
1
10
29.0296725859953
20
2.4710450586359
30
0
41
1
10
29.0706375690812
20
2.44669034291627
30
0
0
SPLINE
5
C3
100
AcDbEntity
8
1
62
256
6
ByLayer
370
18
48
1
60
0
100
AcDbSpline
70
4
71
3
72
22
73
18
40
0
40
0
40
0
40
0
40
0.0888382674344321
40
0.0888382674344321
40
0.190078459941718
40
0.190078459941718
40
0.392558844956288
40
0.392558844956288
40
0.493799037463572
40
0.493799037463572
40
0.595039229970857
40
0.595039229970857
40
0.797519614985428
40
0.797519614985428
40
0.898759807492714
40
0.898759807492714
40
1
40
1
40
1
40
1
41
1
10
21.2088512783691
20
0.187770915860426
30
0
41
1
10
21.4409366624595
20
0.0803521621622281
30
0
41
1
10
21.6733715039849
20
-0.0279491589406575
30
0
41
1
10
22.1723260846468
20
-0.259563176989928
30
0
41
1
10
22.439745958526
20
-0.38311225410115
30
0
41
1
10
23.2415940470526
20
-0.747665841642601
30
0
41
1
10
23.7737728823076
20
-0.981804948106685
30
1E-16
41
1
10
24.5752962787695
20
-1.3056000994138
30
1E-16
41
1
10
24.843075591989
20
-1.4090250192684
30
1E-16
41
1
10
25.3750357995825
20
-1.6029218798279
30
1E-16
41
1
10
25.6399281873107
20
-1.69367506508851
30
1E-16
41
1
10
26.4329651483816
20
-1.94451961255109
30
-1E-16
41
1
10
26.9596981303504
20
-2.08338421446365
30
-1E-16
41
1
10
27.7531772820311
20
-2.24186293606266
30
0
41
1
10
28.0182179706121
20
-2.28635277521875
30
0
41
1
10
28.5503608456081
20
-2.35728432986923
30
0
41
1
10
28.8179294323417
20
-2.38348897355769
30
0
41
1
10
29.0853732423334
20
-2.40047489849812
30
0
0
SPLINE
5
C4
100
AcDbEntity
8
1
62
256
6
ByLayer
370
18
48
1
60
0
100
AcDbSpline
70
4
71
3
72
72
73
68
40
0
40
0
40
0
40
0
40
0.0325026952165096
40
0.0325026952165096
40
0.0690423593153523
40
0.0690423593153523
40
0.0873121913647736
40
0.0873121913647736
40
0.105582023414195
40
0.105582023414195
40
0.142121687513037
40
0.142121687513037
40
0.178661351611879
40
0.178661351611879
40
0.1969311836613
40
0.1969311836613
40
0.215201015710721
40
0.215201015710721
40
0.251740679809562
40
0.251740679809562
40
0.288280343908403
40
0.288280343908403
40
0.324820008007244
40
0.324820008007244
40
0.361359672106085
40
0.361359672106085
40
0.397899336204926
40
0.397899336204926
40
0.434439000303767
40
0.434439000303767
40
0.452708832353187
40
0.452708832353187
40
0.470978664402607
40
0.470978664402607
40
0.507518328501447
40
0.507518328501447
40
0.544057992600288
40
0.544057992600288
40
0.562327824649708
40
0.562327824649708
40
0.580597656699129
40
0.580597656699129
40
0.61713732079797
40
0.61713732079797
40
0.653676984896811
40
0.653676984896811
40
0.690216648995652
40
0.690216648995652
40
0.726756313094493
40
0.726756313094493
40
0.763295977193334
40
0.763295977193334
40
0.781565809242754
40
0.781565809242754
40
0.799835641292175
40
0.799835641292175
40
0.836375305391014
40
0.836375305391014
40
0.872914969489853
40
0.872914969489853
40
0.909454633588693
40
0.909454633588693
40
0.945994297687532
40
0.945994297687532
40
0.982533961786372
40
0.982533961786372
40
1
40
1
40
1
40
1
41
1
10
25.6225144509546
20
-1.67277523812598
30
1E-16
41
1
10
25.3962142051907
20
-1.75643872253744
30
1E-16
41
1
10
25.1686846171902
20
-1.83525341845711
30
-1E-16
41
1
10
24.6888259668839
20
-1.99060529705846
30
-1E-16
41
1
10
24.4363079123299
20
-2.06612297224751
30
-1E-16
41
1
10
24.0576824130644
20
-2.16701529249562
30
-1E-16
41
1
10
23.931517681041
20
-2.19863555965904
30
-1E-16
41
1
10
23.6796428188688
20
-2.25824858354343
30
-1E-16
41
1
10
23.5539152390727
20
-2.28620064842508
30
-1E-16
41
1
10
23.1764364560893
20
-2.36361113259412
30
0
41
1
10
22.9243732331769
20
-2.40673585641346
30
0
41
1
10
22.4202104972206
20
-2.47652296335443
30
0
41
1
10
22.1677683796934
20
-2.50285212372842
30
0
41
1
10
21.7871206698303
20
-2.52878609401077
30
0
41
1
10
21.6599681523013
20
-2.53521143804224
30
0
41
1
10
21.4053719508349
20
-2.54355952736773
30
0
41
1
10
21.27767783579
20
-2.54543701923041
30
0
41
1
10
20.8958503194258
20
-2.54414913064863
30
0
41
1
10
20.6421313445339
20
-2.53423009038141
30
0
41
1
10
20.1371275079523
20
-2.49641391583245
30
0
41
1
10
19.8851584435773
20
-2.46864626019905
30
0
41
1
10
19.3812293441777
20
-2.39637533426745
30
0
41
1
10
19.1299644077101
20
-2.35136230154382
30
0
41
1
10
18.6260688194755
20
-2.24553468753382
30
-1E-16
41
1
10
18.3735828523227
20
-2.18473707741964
30
-1E-16
41
1
10
17.8678126629805
20
-2.04668318940264
30
-1E-16
41
1
10
17.613768045334
20
-1.97030801204542
30
-1E-16
41
1
10
17.1030842087207
20
-1.80305964743434
30
1E-16
41
1
10
16.849139011974
20
-1.71216499965311
30
1E-16
41
1
10
16.4691879492432
20
-1.56887677532089
30
1E-16
41
1
10
16.3426609776729
20
-1.51992240470196
30
1E-16
41
1
10
16.090112495606
20
-1.41920465035798
30
1E-16
41
1
10
15.9641695568292
20
-1.36729423217085
30
1E-16
41
1
10
15.5863269563433
20
-1.20868547474839
30
1E-16
41
1
10
15.334355193267
20
-1.09927039219494
30
1E-16
41
1
10
14.8307516151238
20
-0.87223034552693
30
1E-16
41
1
10
14.5790738658889
20
-0.754632085172858
30
0
41
1
10
14.199963748408
20
-0.575664706873141
30
0
41
1
10
14.0733558262651
20
-0.515536907449018
30
0
41
1
10
13.820034578453
20
-0.393521029376529
30
0
41
1
10
13.6932415552421
20
-0.331792554281634
30
0
41
1
10
13.3116647569154
20
-0.14614923415661
30
0
41
1
10
13.0554662475168
20
-0.0217140082178844
30
0
41
1
10
12.5479354634708
20
0.226720131805251
30
0
41
1
10
12.2951804751807
20
0.349964579309813
30
0
41
1
10
11.7901512337941
20
0.591424480896421
30
0
41
1
10
11.5386115831167
20
0.7111575099471
30
0
41
1
10
11.0350039431439
20
0.943569103641153
30
-1E-16
41
1
10
10.7828876498185
20
1.05620543844654
30
-1E-16
41
1
10
10.2787065105222
20
1.27556323485504
30
-1E-16
41
1
10
10.0258816748337
20
1.38082914932769
30
-1E-16
41
1
10
9.64502407540513
20
1.53116102924682
30
-1E-16
41
1
10
9.51796122755366
20
1.58029122947329
30
-1E-16
41
1
10
9.26325517459736
20
1.67591288733965
30
-1E-16
41
1
10
9.13541647289139
20
1.7222943412969
30
-1E-16
41
1
10
8.7532798026366
20
1.85584660188562
30
1E-16
41
1
10
8.49962143024629
20
1.93795546425457
30
1E-16
41
1
10
7.9942942445679
20
2.08823293971369
30
1E-16
41
1
10
7.74193947197597
20
2.15551886311198
30
1E-16
41
1
10
7.23794666540419
20
2.27485774114979
30
1E-16
41
1
10
6.9865578992306
20
2.32703470160294
30
1E-16
41
1
10
6.48224561975243
20
2.4139722593504
30
0
41
1
10
6.22971621948136
20
2.44913202263379
30
0
41
1
10
5.72338247109352
20
2.50220036120007
30
0
41
1
10
5.46917705586958
20
2.51995571602532
30
0
41
1
10
5.09200521829692
20
2.53283946951257
30
0
41
1
10
4.9699845961851
20
2.5348867320215
30
0
41
1
10
4.84787258533132
20
2.53484665360941
30
0
0
SPLINE
5
C5
100
AcDbEntity
8
1
62
256
6
ByLayer
370
18
48
1
60
0
100
AcDbSpline
70
4
71
3
72
8
73
4
40
0
40
0
40
0
40
0
40
1
40
1
40
1
40
1
41
1
10
12.2
20
2.53178633037913
30
0
41
1
10
12.2
20
2.50056912277157
30
0
41
1
10
12.2
20
2.46919945468124
30
0
41
1
10
12.2
20
2.43767845611663
30
0
0
SPLINE
5
C6
100
AcDbEntity
8
1
62
256
6
ByLayer
370
18
48
1
60
0
100
AcDbSpline
70
4
71
3
72
24
73
20
40
0
40
0
40
0
40
0
40
0.455198982518991
40
0.455198982518991
40
0.706414542258903
40
0.706414542258903
40
0.842991187101186
40
0.842991187101186
40
0.916229878073874
40
0.916229878073874
40
0.95595433776105
40
0.95595433776105
40
0.978564587377754
40
0.978564587377754
40
0.995383618618234
40
0.995383618618234
40
0.999837578441708
40
0.999837578441708
40
1
40
1
40
1
40
1
41
1
10
28.9583083093768
20
2.54966410876378
30
0
41
1
10
28.9814371290759
20
2.5344644493955
30
0
41
1
10
29.0045876268555
20
2.51915371160013
30
0
41
1
10
29.0405102539038
20
2.49525099531334
30
0
41
1
10
29.053277289564
20
2.48672740822079
30
0
41
1
10
29.0730291965638
20
2.47349561495096
30
0
41
1
10
29.0799950131248
20
2.46882066750493
30
0
41
1
10
29.0907203658265
20
2.46161004029969
30
0
41
1
10
29.0944704307633
20
2.45908653829218
30
0
41
1
10
29.1002571029594
20
2.4551891161349
30
0
41
1
10
29.1022907546421
20
2.45381879790932
30
0
41
1
10
29.1054312983736
20
2.45170135689813
30
0
41
1
10
29.1065701580258
20
2.45093321203859
30
0
41
1
10
29.1086288823707
20
2.44954468494581
30
0
41
1
10
29.1095446699273
20
2.44892715384745
30
0
41
1
10
29.110592349736
20
2.44821988523788
30
0
41
1
10
29.1108063674044
20
2.44807534832702
30
0
41
1
10
29.1110037667833
20
2.44794189830347
30
0
41
1
10
29.1110120517898
20
2.44793629663693
30
0
41
1
10
29.1110203368711
20
2.44793069508097
30
0
0
SPLINE
5
C7
100
AcDbEntity
8
1
62
256
6
ByLayer
370
18
48
1
60
0
100
AcDbSpline
70
4
71
3
72
8
73
4
40
0
40
0
40
0
40
0
40
1
40
1
40
1
40
1
41
1
10
3.64630022771985
20
-2.52501159402303
30
0
41
1
10
3.79336221246376
20
-2.53124615012951
30
0
41
1
10
3.94039101299029
20
-2.53437567982365
30
0
41
1
10
4.08743011550769
20
-2.5344428597825
30
0
0
SPLINE
5
C8
100
AcDbEntity
8
1
62
256
6
ByLayer
370
18
48
1
60
0
100
AcDbSpline
70
4
71
3
72
30
73
26
40
0
40
0
40
0
40
0
40
0.0288901581587478
40
0.0288901581587478
40
0.109815978312185
40
0.109815978312185
40
0.190741798465623
40
0.190741798465623
40
0.27166761861906
40
0.27166761861906
40
0.352593438772497
40
0.352593438772497
40
0.433519258925934
40
0.433519258925934
40
0.514445079079372
40
0.514445079079372
40
0.676296719386248
40
0.676296719386248
40
0.716759629462967
40
0.716759629462967
40
0.757222539539687
40
0.757222539539687
40
0.838148359693126
40
0.838148359693126
40
1
40
1
40
1
40
1
41
1
10
19.0550027061819
20
2.4542698410734
30
0
41
1
10
19.1478942924389
20
2.46628269328804
30
0
41
1
10
19.2407449812524
20
2.47710264654427
30
0
41
1
10
19.5936662547861
20
2.51362152622323
30
0
41
1
10
19.8537304696409
20
2.53117833708512
30
0
41
1
10
20.3737682585076
20
2.54751304734663
30
0
41
1
10
20.633649523168
20
2.54615124458206
30
0
41
1
10
21.155981463487
20
2.5242007978982
30
0
41
1
10
21.4182677064785
20
2.50374202701343
30
0
41
1
10
21.9450254373692
20
2.44326870809888
30
0
41
1
10
22.2071048434965
20
2.40323303363405
30
0
41
1
10
22.7300027765576
20
2.30661699078863
30
1E-16
41
1
10
22.9909831878713
20
2.25005829934514
30
1E-16
41
1
10
23.5111044103696
20
2.11971035746083
30
1E-16
41
1
10
23.7699883564618
20
2.0454289984676
30
1E-16
41
1
10
24.5493068967383
20
1.8026663090248
30
-1E-16
41
1
10
25.070888401106
20
1.61312238678468
30
-1E-16
41
1
10
25.7279331564177
20
1.34432769249216
30
-1E-16
41
1
10
25.8597488963068
20
1.28887338106179
30
-1E-16
41
1
10
26.1224070609653
20
1.1758050186929
30
-1E-16
41
1
10
26.2534756916395
20
1.11820875981064
30
-1E-16
41
1
10
26.6463088737191
20
0.943044353643927
30
-1E-16
41
1
10
26.9074596554394
20
0.822634310723515
30
-1E-16
41
1
10
27.6909544190958
20
0.455085426823189
30
0
41
1
10
28.2126733068309
20
0.200372812858234
30
0
41
1
10
28.7367643232177
20
-0.0582292863203691
30
0
0
SPLINE
5
C9
100
AcDbEntity
8
1
62
256
6
ByLayer
370
18
48
1
60
0
100
AcDbSpline
70
4
71
3
72
60
73
56
40
0
40
0
40
0
40
0
40
0.125000000000018
40
0.125000000000018
40
0.187500000000027
40
0.187500000000027
40
0.250000000000036
40
0.250000000000036
40
0.312500000000044
40
0.312500000000044
40
0.343750000000049
40
0.343750000000049
40
0.375000000000053
40
0.375000000000053
40
0.390625000000055
40
0.390625000000055
40
0.406250000000057
40
0.406250000000057
40
0.43750000000006
40
0.43750000000006
40
0.453125000000062
40
0.453125000000062
40
0.468750000000063
40
0.468750000000063
40
0.500000000000066
40
0.500000000000066
40
0.531250000000068
40
0.531250000000068
40
0.562500000000071
40
0.562500000000071
40
0.625000000000076
40
0.625000000000076
40
0.68750000000008
40
0.68750000000008
40
0.718750000000083
40
0.718750000000083
40
0.734375000000083
40
0.734375000000083
40
0.738281250000083
40
0.738281250000083
40
0.742187500000082
40
0.742187500000082
40
0.750000000000078
40
0.750000000000078
40
0.757812500000075
40
0.757812500000075
40
0.765625000000071
40
0.765625000000071
40
0.781250000000067
40
0.781250000000067
40
0.812500000000058
40
0.812500000000058
40
0.875000000000039
40
0.875000000000039
40
1
40
1
40
1
40
1
41
1
10
4.44741638332559
20
-2.52729029315702
30
0
41
1
10
4.14623531714122
20
-2.51604521216299
30
0
41
1
10
3.85092947794442
20
-2.49208132553775
30
0
41
1
10
3.42077019739281
20
-2.42621181246798
30
0
41
1
10
3.27954094069841
20
-2.3992077278312
30
0
41
1
10
3.00287038905168
20
-2.33127438941557
30
0
41
1
10
2.86818678791619
20
-2.29055913056331
30
-1E-16
41
1
10
2.61181224370009
20
-2.19025037367228
30
-1E-16
41
1
10
2.48882907858797
20
-2.1301310993785
30
-1E-16
41
1
10
2.32492224044165
20
-2.01989020440234
30
-1E-16
41
1
10
2.2736142779992
20
-1.97974391441909
30
-1E-16
41
1
10
2.1798822065723
20
-1.89037586881091
30
-1E-16
41
1
10
2.13722072084335
20
-1.84067517608307
30
-1E-16
41
1
10
2.08475689311703
20
-1.75976834817044
30
1E-16
41
1
10
2.06910460613881
20
-1.73167420674699
30
1E-16
41
1
10
2.04198196041327
20
-1.6729288230332
30
1E-16
41
1
10
2.03045307280024
20
-1.64205547967944
30
1E-16
41
1
10
2.00359046641472
20
-1.54667081243218
30
1E-16
41
1
10
1.99603087144283
20
-1.48021422806306
30
1E-16
41
1
10
2.0012401186832
20
-1.37601154007146
30
1E-16
41
1
10
2.00582331181394
20
-1.34022800495944
30
1E-16
41
1
10
2.02028293037009
20
-1.26913098946358
30
1E-16
41
1
10
2.03011291663975
20
-1.23371719143833
30
1E-16
41
1
10
2.06671621169207
20
-1.12786108205088
30
1E-16
41
1
10
2.10106041042428
20
-1.05720582696347
30
1E-16
41
1
10
2.18212352860502
20
-0.922513559429234
30
1E-16
41
1
10
2.22895573193478
20
-0.857770679157824
30
1E-16
41
1
10
2.33216154577087
20
-0.732279109152955
30
0
41
1
10
2.38853417283306
20
-0.671668739816283
30
0
41
1
10
2.56443483173632
20
-0.498878931134783
30
0
41
1
10
2.69209380575947
20
-0.39366655632179
30
0
41
1
10
2.96032958107011
20
-0.195775086310789
30
0
41
1
10
3.10078333003491
20
-0.103484423100895
30
0
41
1
10
3.31602697170493
20
0.0265908836059339
30
0
41
1
10
3.38856600466062
20
0.0685549484853425
30
0
41
1
10
3.49837940496681
20
0.129699929974493
30
0
41
1
10
3.53515607659108
20
0.149782702023003
30
0
41
1
10
3.58130932816306
20
0.17452746240221
30
0
41
1
10
3.59054916682669
20
0.179458504714546
30
0
41
1
10
3.60904659778686
20
0.18928520132414
30
0
41
1
10
3.61829084090368
20
0.194383964396621
30
0
41
1
10
3.64771437685732
20
0.20485815199595
30
0
41
1
10
3.66889741770922
20
0.206303813187134
30
0
41
1
10
3.71015804569981
20
0.202597004374894
30
0
41
1
10
3.73023680858083
20
0.196480438377932
30
0
41
1
10
3.76973193093301
20
0.183972437458749
30
0
41
1
10
3.78947446980419
20
0.177699655521764
30
0
41
1
10
3.84863481430904
20
0.158649238465756
30
0
41
1
10
3.88800220838283
20
0.145717380339391
30
0
41
1
10
4.0058773198576
20
0.106248298795663
30
0
41
1
10
4.08417737439743
20
0.0790269846368687
30
0
41
1
10
4.31805077295701
20
-0.0051666022065433
30
0
41
1
10
4.47261586423309
20
-0.0646850085159656
30
0
41
1
10
4.93274188059738
20
-0.252120818847828
30
0
41
1
10
5.23456268394273
20
-0.388992986547947
30
0
41
1
10
5.53216489571429
20
-0.531920300567606
30
0
0
SPLINE
5
CA
100
AcDbEntity
8
1
62
256
6
ByLayer
370
18
48
1
60
0
100
AcDbSpline
70
4
71
3
72
48
73
44
40
0
40
0
40
0
40
0
40
0.0934056457467112
40
0.0934056457467112
40
0.140108468620067
40
0.140108468620067
40
0.186811291493422
40
0.186811291493422
40
0.233514114366778
40
0.233514114366778
40
0.280216937240134
40
0.280216937240134
40
0.326919760113489
40
0.326919760113489
40
0.373622582986845
40
0.373622582986845
40
0.4203254058602
40
0.4203254058602
40
0.467028228733556
40
0.467028228733556
40
0.513731051606911
40
0.513731051606911
40
0.560433874480267
40
0.560433874480267
40
0.583785285916945
40
0.583785285916945
40
0.607136697353623
40
0.607136697353623
40
0.653839520226977
40
0.653839520226977
40
0.700542343100332
40
0.700542343100332
40
0.747245165973686
40
0.747245165973686
40
0.793947988847041
40
0.793947988847041
40
0.840650811720395
40
0.840650811720395
40
0.934056457467105
40
0.934056457467105
40
0.980759280340459
40
0.980759280340459
40
1
40
1
40
1
40
1
41
1
10
3.64630022771985
20
2.52501159402303
30
0
41
1
10
4.17200679266523
20
2.5472984350472
30
0
41
1
10
4.69728930715419
20
2.5299071407824
30
0
41
1
10
5.48755669765913
20
2.44722722146835
30
0
41
1
10
5.75139785592162
20
2.40983613548965
30
0
41
1
10
6.27559202967461
20
2.31741883638512
30
1E-16
41
1
10
6.53669396356619
20
2.2624363917927
30
1E-16
41
1
10
7.05807211316736
20
2.13647306316747
30
1E-16
41
1
10
7.3183207881446
20
2.06547994596187
30
1E-16
41
1
10
7.83865057155495
20
1.90840071688888
30
1E-16
41
1
10
8.09838675373578
20
1.82178743189098
30
1E-16
41
1
10
8.61955901580973
20
1.63585700230203
30
-1E-16
41
1
10
8.88109964164269
20
1.53681682422194
30
-1E-16
41
1
10
9.40595497792253
20
1.32618004030678
30
-1E-16
41
1
10
9.66983767499633
20
1.21360369645501
30
-1E-16
41
1
10
10.1946071148107
20
0.982575178291256
30
-1E-16
41
1
10
10.45622926153
20
0.864228334251237
30
-1E-16
41
1
10
10.9779246331055
20
0.621908026513779
30
0
41
1
10
11.237863726002
20
0.497648696944111
30
0
41
1
10
11.7575913001313
20
0.246348740011683
30
0
41
1
10
12.0173390488936
20
0.119224634704608
30
0
41
1
10
12.5380917878969
20
-0.134842014567738
30
0
41
1
10
12.7993244420675
20
-0.261289691701023
30
0
41
1
10
13.1922971812476
20
-0.450451050673848
30
0
41
1
10
13.3234809663571
20
-0.513409993841634
30
0
41
1
10
13.5863830374617
20
-0.638832537525985
30
0
41
1
10
13.7182060439807
20
-0.701381342422593
30
0
41
1
10
14.1123251010625
20
-0.88543123278194
30
1E-16
41
1
10
14.3742562676785
20
-1.00364765249
30
1E-16
41
1
10
14.8961458499072
20
-1.23220539529854
30
1E-16
41
1
10
15.1560413302168
20
-1.34258141227048
30
1E-16
41
1
10
15.6759391780181
20
-1.55155499312605
30
1E-16
41
1
10
15.9360460892378
20
-1.65004515028767
30
1E-16
41
1
10
16.4564754398501
20
-1.83519253888426
30
-1E-16
41
1
10
16.7167259201584
20
-1.92188273629859
30
-1E-16
41
1
10
17.2396396587775
20
-2.07989056447818
30
-1E-16
41
1
10
17.5029525492613
20
-2.15129693219421
30
-1E-16
41
1
10
18.2931351328777
20
-2.34100381761488
30
-1E-16
41
1
10
18.8134398082544
20
-2.4328868189103
30
0
41
1
10
19.5936662547861
20
-2.51362152622323
30
0
41
1
10
19.8537304696409
20
-2.53117833708512
30
0
41
1
10
20.2208724531334
20
-2.54271049504283
30
0
41
1
10
20.3279721824123
20
-2.54445792228157
30
0
41
1
10
20.4351480091778
20
-2.54458208183604
30
0
0
SPLINE
5
CB
100
AcDbEntity
8
1
62
256
6
ByLayer
370
18
48
1
60
0
100
AcDbSpline
70
4
71
3
72
18
73
14
40
0
40
0
40
0
40
0
40
0.25
40
0.25
40
0.375
40
0.375
40
0.5
40
0.5
40
0.75
40
0.75
40
0.875
40
0.875
40
1
40
1
40
1
40
1
41
1
10
29.1156915541391
20
2.44478038619323
30
0
41
1
10
29.1659065469469
20
2.30211639882458
30
0
41
1
10
29.2156345404345
20
2.15844398655943
30
0
41
1
10
29.2904586644772
20
1.94225878414352
30
0
41
1
10
29.31542872397
20
1.87010621481457
30
0
41
1
10
29.3655387483471
20
1.72573451181961
30
0
41
1
10
29.3905287748509
20
1.65351048130918
30
0
41
1
10
29.469266499164
20
1.43772737832362
30
0
41
1
10
29.5260890369025
20
1.29554264443985
30
0
41
1
10
29.6181513456579
20
1.09519278487855
30
0
41
1
10
29.6499764731158
20
1.03045106651396
30
0
41
1
10
29.7163359366603
20
0.905133860070777
30
0
41
1
10
29.7510645639737
20
0.844251370422455
30
0
41
1
10
29.7868123901631
20
0.786261138121404
30
0
0
SPLINE
5
CC
100
AcDbEntity
8
1
62
256
6
ByLayer
370
18
48
1
60
0
100
AcDbSpline
70
4
71
3
72
26
73
22
40
0
40
0
40
0
40
0
40
0.0905473501600019
40
0.0905473501600019
40
0.204228931390001
40
0.204228931390001
40
0.317910512620001
40
0.317910512620001
40
0.374751303235002
40
0.374751303235002
40
0.431592093850002
40
0.431592093850002
40
0.545273675080002
40
0.545273675080002
40
0.658955256310002
40
0.658955256310002
40
0.772636837540001
40
0.772636837540001
40
0.886318418770001
40
0.886318418770001
40
1
40
1
40
1
40
1
41
1
10
21.4994830456153
20
-0.309248630339283
30
0
41
1
10
21.2187269066669
20
-0.178330985765513
30
0
41
1
10
20.9385264314733
20
-0.0463649249272464
30
0
41
1
10
20.306360066616
20
0.250579297932973
30
0
41
1
10
19.9538870666901
20
0.415829802688364
30
0
41
1
10
19.2484828559454
20
0.738392783159526
30
0
41
1
10
18.8969188836298
20
0.895282361618058
30
-1E-16
41
1
10
18.3691408292996
20
1.11976652726466
30
-1E-16
41
1
10
18.193164126298
20
1.19286104855985
30
-1E-16
41
1
10
17.8407819590045
20
1.33486087500643
30
-1E-16
41
1
10
17.66417587856
20
1.40382715765847
30
-1E-16
41
1
10
17.1353490353667
20
1.60252522964194
30
-1E-16
41
1
10
16.7837920515694
20
1.72457868083421
30
-1E-16
41
1
10
16.0799014258578
20
1.94360037835168
30
1E-16
41
1
10
15.7271697199692
20
2.04095207348149
30
1E-16
41
1
10
15.0210295977005
20
2.20610181350921
30
1E-16
41
1
10
14.6679651381947
20
2.27416694928743
30
0
41
1
10
13.9618238248196
20
2.37797713375241
30
0
41
1
10
13.608769192543
20
2.41391638706537
30
0
41
1
10
12.9044354184186
20
2.45111689304852
30
0
41
1
10
12.5526930099165
20
2.45271737144529
30
0
41
1
10
12.2000000000002
20
2.43767845611376
30
0
0
SPLINE
5
CD
100
AcDbEntity
8
1
62
256
6
ByLayer
370
18
48
1
60
0
100
AcDbSpline
70
4
71
3
72
16
73
12
40
0
40
0
40
0
40
0
40
0.170288677484934
40
0.170288677484934
40
0.3777165081137
40
0.3777165081137
40
0.585144338742467
40
0.585144338742467
40
0.792572169371233
40
0.792572169371233
40
1
40
1
40
1
40
1
41
1
10
28.8363824856623
20
0.470767106449358
30
0
41
1
10
28.8529924225297
20
0.483662958050701
30
0
41
1
10
28.8721010374751
20
0.497748918142719
30
0
41
1
10
28.9202312057232
20
0.531159831246242
30
0
41
1
10
28.9505485283379
20
0.550911105026273
30
0
41
1
10
29.0167116210481
20
0.589901952732333
30
0
41
1
10
29.0534105785527
20
0.609538434014894
30
0
41
1
10
29.1319161594736
20
0.645309344678225
30
0
41
1
10
29.1732077814993
20
0.661335272289847
30
0
41
1
10
29.2601798399623
20
0.68782341407524
30
0
41
1
10
29.305635960924
20
0.698108272071863
30
0
41
1
10
29.3516279839857
20
0.704691900900031
30
0
0
SPLINE
5
CE
100
AcDbEntity
8
1
62
256
6
ByLayer
370
18
48
1
60
0
100
AcDbSpline
70
4
71
3
72
8
73
4
40
0
40
0
40
0
40
0
40
1
40
1
40
1
40
1
41
1
10
3.64463681262959
20
2.40879045492085
30
0
41
1
10
3.63148497175541
20
2.40820598638609
30
0
41
1
10
3.61730109428339
20
2.40783988345325
30
0
41
1
10
3.6027657795361
20
2.40773774518908
30
0
0
SPLINE
5
CF
100
AcDbEntity
8
1
62
256
6
ByLayer
370
18
48
1
60
0
100
AcDbSpline
70
4
71
3
72
8
73
4
40
0
40
0
40
0
40
0
40
1
40
1
40
1
40
1
41
1
10
29.9962883908512
20
0.181026754361568
30
0
41
1
10
29.9823378230255
20
0.133850519938136
30
0
41
1
10
29.9683007224193
20
0.0867022435129456
30
0
41
1
10
29.9541774955569
20
0.0395817937413767
30
0
0
SPLINE
5
D0
100
AcDbEntity
8
1
62
256
6
ByLayer
370
18
48
1
60
0
100
AcDbSpline
70
4
71
3
72
14
73
10
40
0
40
0
40
0
40
0
40
0.274351805253723
40
0.274351805253723
40
0.510839589261744
40
0.510839589261744
40
0.78367969462668
40
0.78367969462668
40
1
40
1
40
1
40
1
41
1
10
28.7956411273257
20
-0.0832140166732813
30
0
41
1
10
28.7963729023724
20
-0.0835073036295455
30
0
41
1
10
28.7970897590763
20
-0.0841742908046115
30
0
41
1
10
28.7982741537986
20
-0.0858639917748292
30
0
41
1
10
28.7987788930832
20
-0.0868479141102227
30
0
41
1
10
28.7997038555641
20
-0.0892393053937894
30
0
41
1
10
28.8001139596053
20
-0.0907258095855923
30
0
41
1
10
28.8006151208502
20
-0.0935639791293283
30
0
41
1
10
28.8007594787415
20
-0.0949134160128438
30
0
41
1
10
28.8007979149216
20
-0.096261000334664
30
0
0
SPLINE
5
D1
100
AcDbEntity
8
1
62
256
6
ByLayer
370
18
48
1
60
0
100
AcDbSpline
70
4
71
3
72
22
73
18
40
0
40
0
40
0
40
0
40
0.125
40
0.125
40
0.25
40
0.25
40
0.375
40
0.375
40
0.5
40
0.5
40
0.625
40
0.625
40
0.75
40
0.75
40
0.875
40
0.875
40
1
40
1
40
1
40
1
41
1
10
28.8007979149216
20
-0.0962610003347208
30
0
41
1
10
28.8048452584085
20
-0.238162110693707
30
0
41
1
10
28.8143567162549
20
-0.377114601784001
30
0
41
1
10
28.8392940578899
20
-0.649785616160301
30
0
41
1
10
28.8548123523725
20
-0.78401838757452
30
0
41
1
10
28.8878479629055
20
-1.04503951605599
30
1E-16
41
1
10
28.9051828277971
20
-1.17059145025914
30
1E-16
41
1
10
28.9383320901267
20
-1.40906918954778
30
1E-16
41
1
10
28.9541136787178
20
-1.52182026073757
30
1E-16
41
1
10
28.9823169478719
20
-1.73091989703005
30
1E-16
41
1
10
28.9947522831585
20
-1.82740382385754
30
-1E-16
41
1
10
29.0161801625072
20
-2.00063369754551
30
-1E-16
41
1
10
29.0252155205251
20
-2.0776793470194
30
-1E-16
41
1
10
29.0415438793289
20
-2.20944900336809
30
-1E-16
41
1
10
29.0489060257552
20
-2.26453783423546
30
0
41
1
10
29.0649929479299
20
-2.35036774360094
30
0
41
1
10
29.0737403260244
20
-2.38143259382315
30
0
41
1
10
29.0853732423304
20
-2.40047489849815
30
0
0
SPLINE
5
D2
100
AcDbEntity
8
1
62
256
6
ByLayer
370
18
48
1
60
0
100
AcDbSpline
70
4
71
3
72
8
73
4
40
0
40
0
40
0
40
0
40
1
40
1
40
1
40
1
41
1
10
3.64630022771985
20
2.52501159402303
30
0
41
1
10
3.64575311332121
20
2.48627039956395
30
0
41
1
10
3.64519863369188
20
2.44753000317436
30
0
41
1
10
3.64463681262959
20
2.40879045492085
30
0
0
SPLINE
5
D3
100
AcDbEntity
8
1
62
256
6
ByLayer
370
18
48
1
60
0
100
AcDbSpline
70
4
71
3
72
8
73
4
40
0
40
0
40
0
40
0
40
1
40
1
40
1
40
1
41
1
10
29.5013231334453
20
-0.412043710352748
30
0
41
1
10
29.3573164462039
20
-0.171709930397697
30
0
41
1
10
29.1812230571227
20
0.0977957282957789
30
0
41
1
10
28.9689386451304
20
0.400204741689464
30
0
0
SPLINE
5
D4
100
AcDbEntity
8
1
62
256
6
ByLayer
370
18
48
1
60
0
100
AcDbSpline
70
4
71
3
72
24
73
20
40
0
40
0
40
0
40
0
40
0.125
40
0.125
40
0.25
40
0.25
40
0.375
40
0.375
40
0.5
40
0.5
40
0.625
40
0.625
40
0.6875
40
0.6875
40
0.75
40
0.75
40
0.875
40
0.875
40
1
40
1
40
1
40
1
41
1
10
3.60276577953607
20
2.39862277644815
30
0
41
1
10
3.60275531762767
20
2.41006372897923
30
0
41
1
10
3.6027422986611
20
2.41006689950004
30
0
41
1
10
3.60271256790921
20
2.38784053622757
30
0
41
1
10
3.60269584203158
20
2.36577273017667
30
0
41
1
10
3.60265898617271
20
2.2998601681241
30
0
41
1
10
3.60263868466529
20
2.25553016306074
30
0
41
1
10
3.60259559963924
20
2.14665593458585
30
1E-16
41
1
10
3.60257265422791
20
2.08178490831551
30
1E-16
41
1
10
3.60252432669108
20
1.93316925221615
30
1E-16
41
1
10
3.60249924461115
20
1.8504195152733
30
1E-16
41
1
10
3.60245981772698
20
1.71402535575149
30
-1E-16
41
1
10
3.60244637185809
20
1.66650480525462
30
-1E-16
41
1
10
3.6024187626426
20
1.56728782209757
30
-1E-16
41
1
10
3.60240453724722
20
1.5153610795378
30
-1E-16
41
1
10
3.60236103796109
20
1.35480898481043
30
-1E-16
41
1
10
3.60233117203387
20
1.24230418811879
30
-1E-16
41
1
10
3.6022688117551
20
1.00671407198288
30
-1E-16
41
1
10
3.60223624272106
20
0.883332250969659
30
-1E-16
41
1
10
3.60220196038358
20
0.7550283990754
30
0
0
SPLINE
5
D5
100
AcDbEntity
8
1
62
256
6
ByLayer
370
18
48
1
60
0
100
AcDbSpline
70
4
71
3
72
10
73
6
40
0
40
0
40
0
40
0
40
0.5
40
0.5
40
1
40
1
40
1
40
1
41
1
10
29.1156915541394
20
2.44478038619295
30
0
41
1
10
29.1058363388652
20
2.45159095892887
30
0
41
1
10
29.0972484960039
20
2.45513192025055
30
0
41
1
10
29.0824065340775
20
2.4556577160088
30
0
41
1
10
29.0761238354599
20
2.45268237731511
30
0
41
1
10
29.0706375690814
20
2.44669034291613
30
0
0
SPLINE
5
D6
100
AcDbEntity
8
1
62
256
6
ByLayer
370
18
48
1
60
0
100
AcDbSpline
70
4
71
3
72
22
73
18
40
0
40
0
40
0
40
0
40
0.108324762287269
40
0.108324762287269
40
0.216649524574538
40
0.216649524574538
40
0.433299049149072
40
0.433299049149072
40
0.541623811436339
40
0.541623811436339
40
0.649948573723607
40
0.649948573723607
40
0.866598098298141
40
0.866598098298141
40
0.974922860585408
40
0.974922860585408
40
1
40
1
40
1
40
1
41
1
10
29.0829067565373
20
-2.41167959845583
30
0
41
1
10
28.8154802740933
20
-2.39507806045242
30
0
41
1
10
28.5478358682997
20
-2.36931095182786
30
0
41
1
10
28.0156420052771
20
-2.29904565257075
30
0
41
1
10
27.7505822849822
20
-2.25483861014945
30
0
41
1
10
26.957059800598
20
-2.09705675443979
30
-1E-16
41
1
10
26.4303241836672
20
-1.95845085599328
30
-1E-16
41
1
10
25.6372702994949
20
-1.70765672636486
30
1E-16
41
1
10
25.3723665768949
20
-1.6168669354397
30
1E-16
41
1
10
24.8403708714399
20
-1.42278219138384
30
1E-16
41
1
10
24.5725616361295
20
-1.31920457014263
30
1E-16
41
1
10
23.7709434140091
20
-0.994785906767731
30
1E-16
41
1
10
23.2387274468937
20
-0.760013703416917
30
0
41
1
10
22.4367914931507
20
-0.394237338760178
30
0
41
1
10
22.169335769793
20
-0.270225821407251
30
0
41
1
10
21.8420326493683
20
-0.117696277339604
30
0
41
1
10
21.7805591427865
20
-0.089018467296512
30
0
41
1
10
21.7191315151522
20
-0.060352742203321
30
0
0
SPLINE
5
D7
100
AcDbEntity
8
1
62
256
6
ByLayer
370
18
48
1
60
0
100
AcDbSpline
70
4
71
3
72
20
73
16
40
0
40
0
40
0
40
0
40
0.15135729436023
40
0.15135729436023
40
0.30271458872046
40
0.30271458872046
40
0.45407188308069
40
0.45407188308069
40
0.605429177440921
40
0.605429177440921
40
0.756786471801151
40
0.756786471801151
40
0.908143766161381
40
0.908143766161381
40
1
40
1
40
1
40
1
41
1
10
29.9541774955569
20
0.0395817937413767
30
0
41
1
10
29.9404745628494
20
-0.0061363950731561
30
0
41
1
10
29.9248961192629
20
-0.0509180878196105
30
0
41
1
10
29.8899804576815
20
-0.138537337691758
30
0
41
1
10
29.8703914250054
20
-0.181779647998866
30
0
41
1
10
29.8294033585806
20
-0.261405256950582
30
0
41
1
10
29.8077891758558
20
-0.298419646577344
30
0
41
1
10
29.7625140271815
20
-0.365481428741049
30
0
41
1
10
29.7399958262647
20
-0.393857987159606
30
0
41
1
10
29.6951305844052
20
-0.440182821747982
30
0
41
1
10
29.6729495992974
20
-0.45773789082179
30
0
41
1
10
29.6313827978899
20
-0.479791213077562
30
0
41
1
10
29.6114965395353
20
-0.484544318502486
30
0
41
1
10
29.5823321994972
20
-0.48247803172211
30
0
41
1
10
29.5717872865161
20
-0.479484973048443
30
0
41
1
10
29.5617867284848
20
-0.474523156842707
30
0
0
SPLINE
5
D8
100
AcDbEntity
8
1
62
256
6
ByLayer
370
18
48
1
60
0
100
AcDbSpline
70
4
71
3
72
8
73
4
40
0
40
0
40
0
40
0
40
1
40
1
40
1
40
1
41
1
10
29.5260603755172
20
-0.446255668990915
30
0
41
1
10
29.5173445512717
20
-0.436528670489451
30
0
41
1
10
29.509131893494
20
-0.425075805286923
30
0
41
1
10
29.5013231334452
20
-0.412043710352691
30
0
0
SPLINE
5
D9
100
AcDbEntity
8
1
62
256
6
ByLayer
370
18
48
1
60
0
100
AcDbSpline
70
4
71
3
72
8
73
4
40
0
40
0
40
0
40
0
40
1
40
1
40
1
40
1
41
1
10
28.9480140907421
20
2.51860368853619
30
0
41
1
10
28.9519731403018
20
2.53741171044996
30
0
41
1
10
28.9553759688524
20
2.54791423489201
30
0
41
1
10
28.9583083093768
20
2.54966410876378
30
0
0
SPLINE
5
DA
100
AcDbEntity
8
1
62
256
6
ByLayer
370
18
48
1
60
0
100
AcDbSpline
70
4
71
3
72
10
73
6
40
0
40
0
40
0
40
0
40
0.5
40
0.5
40
1
40
1
40
1
40
1
41
1
10
29.1156915541394
20
-2.44478038619295
30
0
41
1
10
29.1058363388652
20
-2.4515909589289
30
0
41
1
10
29.097248496004
20
-2.45513192025052
30
0
41
1
10
29.0824065340775
20
-2.4556577160088
30
0
41
1
10
29.07612383546
20
-2.45268237731514
30
0
41
1
10
29.0706375690814
20
-2.44669034291616
30
0
0
SPLINE
5
DB
100
AcDbEntity
8
1
62
256
6
ByLayer
370
18
48
1
60
0
100
AcDbSpline
70
4
71
3
72
8
73
4
40
0
40
0
40
0
40
0
40
1
40
1
40
1
40
1
41
1
10
29.7868123901631
20
0.786261138121404
30
0
41
1
10
29.8583376492256
20
0.585127754958734
30
0
41
1
10
29.9281705606752
20
0.383385685909303
30
0
41
1
10
29.996288390842
20
0.181026754364524
30
0
0
SPLINE
5
DC
100
AcDbEntity
8
1
62
256
6
ByLayer
370
18
48
1
60
0
100
AcDbSpline
70
4
71
3
72
8
73
4
40
0
40
0
40
0
40
0
40
1
40
1
40
1
40
1
41
1
10
29.9962883908469
20
0.181026754359607
30
0
41
1
10
30.0012430179546
20
0.0602004459874195
30
0
41
1
10
30.0012314017823
20
-0.0604837244460157
30
0
41
1
10
29.996288390848
20
-0.181026754333743
30
0
0
SPLINE
5
DD
100
AcDbEntity
8
1
62
256
6
ByLayer
370
18
48
1
60
0
100
AcDbSpline
70
4
71
3
72
32
73
28
40
0
40
0
40
0
40
0
40
0.0554291302680632
40
0.0554291302680632
40
0.141299209334605
40
0.141299209334605
40
0.227169288401147
40
0.227169288401147
40
0.313039367467689
40
0.313039367467689
40
0.355974407000959
40
0.355974407000959
40
0.398909446534229
40
0.398909446534229
40
0.484779525600766
40
0.484779525600766
40
0.570649604667305
40
0.570649604667305
40
0.656519683733843
40
0.656519683733843
40
0.699454723267112
40
0.699454723267112
40
0.742389762800381
40
0.742389762800381
40
0.82825984186692
40
0.82825984186692
40
1
40
1
40
1
40
1
41
1
10
12.7929333341483
20
-0.255930893341286
30
0
41
1
10
12.6248244392938
20
-0.178817275842903
30
0
41
1
10
12.4565298937621
20
-0.101263829139725
30
0
41
1
10
12.0270062029859
20
0.0978105140461878
30
0
41
1
10
11.7653434812527
20
0.219563104669362
30
0
41
1
10
11.2393353112949
20
0.461262144371517
30
0
41
1
10
10.9746485476616
20
0.581439422668751
30
0
41
1
10
10.4488390480399
20
0.814040168386811
30
0
41
1
10
10.1869504494317
20
0.927164337221171
30
-1E-16
41
1
10
9.7958423078899
20
1.09084153938804
30
-1E-16
41
1
10
9.66577286373601
20
1.14438955185602
30
-1E-16
41
1
10
9.40561941737494
20
1.24908025137654
30
-1E-16
41
1
10
9.27552492385377
20
1.30021618377782
30
-1E-16
41
1
10
8.88522002697843
20
1.44985001133102
30
-1E-16
41
1
10
8.62499590055859
20
1.5446037847353
30
-1E-16
41
1
10
8.10444929994594
20
1.72165541807041
30
-1E-16
41
1
10
7.84400026882432
20
1.80401289036206
30
-1E-16
41
1
10
7.32077793628213
20
1.95555081662519
30
1E-16
41
1
10
7.0582625069112
20
2.02461612663413
30
1E-16
41
1
10
6.66249072378531
20
2.11643385876738
30
1E-16
41
1
10
6.53022195545978
20
2.14506423751107
30
1E-16
41
1
10
6.26663501525923
20
2.19784227788747
30
0
41
1
10
6.13509541639533
20
2.22204438365998
30
0
41
1
10
5.74101115935991
20
2.28793259672238
30
0
41
1
10
5.47889832006217
20
2.32306454271566
30
0
41
1
10
4.69184813091366
20
2.40394187404939
30
0
41
1
10
4.16744236052324
20
2.42319251450974
30
0
41
1
10
3.64044586098961
20
2.39959168752682
30
0
0
SPLINE
5
DE
100
AcDbEntity
8
1
62
256
6
ByLayer
370
18
48
1
60
0
100
AcDbSpline
70
4
71
3
72
14
73
10
40
0
40
0
40
0
40
0
40
0.34534685895488
40
0.34534685895488
40
0.690693717909761
40
0.690693717909761
40
0.863367147387201
40
0.863367147387201
40
1
40
1
40
1
40
1
41
1
10
28.9689386451303
20
0.400204741689407
30
0
41
1
10
28.9408366462644
20
0.42357420189245
30
0
41
1
10
28.914350459674
20
0.444594041306374
30
0
41
1
10
28.8638797388131
20
0.483544670636206
30
0
41
1
10
28.84076668643
20
0.500367435628903
30
0
41
1
10
28.8119907039377
20
0.51823551937548
30
0
41
1
10
28.8035572775598
20
0.522731009369693
30
0
41
1
10
28.7892306427916
20
0.529937940642981
30
0
41
1
10
28.7830399062157
20
0.532964986176495
30
0
41
1
10
28.7777932471192
20
0.534920378606415
30
0
0
SPLINE
5
DF
100
AcDbEntity
8
1
62
256
6
ByLayer
370
18
48
1
60
0
100
AcDbSpline
70
4
71
3
72
16
73
12
40
0
40
0
40
0
40
0
40
0.0384040379081509
40
0.0384040379081509
40
0.278803028431113
40
0.278803028431113
40
0.519202018954075
40
0.519202018954075
40
0.759601009477038
40
0.759601009477038
40
1
40
1
40
1
40
1
41
1
10
8.72058370395419
20
1.86243287524331
30
0
41
1
10
8.76485001237111
20
1.87711444514932
30
0
41
1
10
8.80914035982519
20
1.89160171122686
30
0
41
1
10
9.13087089303298
20
1.99533066314979
30
1E-16
41
1
10
9.40989850801898
20
2.07719479672483
30
1E-16
41
1
10
9.96864884427836
20
2.22234732907438
30
1E-16
41
1
10
10.2473120560034
20
2.28545508152155
30
1E-16
41
1
10
10.8045875905292
20
2.39155737739552
30
0
41
1
10
11.0832341055595
20
2.43452996040301
30
0
41
1
10
11.6418116269108
20
2.49933930783084
30
0
41
1
10
11.921271902135
20
2.52104817136342
30
0
41
1
10
12.2
20
2.53178633037913
30
0
0
SPLINE
5
E0
100
AcDbEntity
8
1
62
256
6
ByLayer
370
18
48
1
60
0
100
AcDbSpline
70
4
71
3
72
8
73
4
40
0
40
0
40
0
40
0
40
1
40
1
40
1
40
1
41
1
10
29.7868123901631
20
-0.786261138121404
30
0
41
1
10
29.8583376492299
20
-0.585127754946484
30
0
41
1
10
29.9281705606837
20
-0.383385685884747
30
0
41
1
10
29.9962883908544
20
-0.181026754327576
30
0
0
SPLINE
5
E1
100
AcDbEntity
8
1
62
256
6
ByLayer
370
18
48
1
60
0
100
AcDbSpline
70
4
71
3
72
14
73
10
40
0
40
0
40
0
40
0
40
0.272604479697595
40
0.272604479697595
40
0.545208959395191
40
0.545208959395191
40
0.817813439092786
40
0.817813439092786
40
1
40
1
40
1
40
1
41
1
10
29.1110183767194
20
2.44793201880526
30
0
41
1
10
28.7592003843212
20
2.4509253864743
30
0
41
1
10
28.4076037483203
20
2.43701931420185
30
0
41
1
10
27.7022887788767
20
2.37597568877925
30
0
41
1
10
27.3497095510039
20
2.32869870260245
30
0
41
1
10
26.6460527400652
20
2.20350573777773
30
1E-16
41
1
10
26.2943544338351
20
2.12550541992081
30
1E-16
41
1
10
25.7057311610795
20
1.97167009883373
30
1E-16
41
1
10
25.4701605682555
20
1.90383235581879
30
1E-16
41
1
10
25.2348199796097
20
1.83039246591139
30
1E-16
0
SPLINE
5
E2
100
AcDbEntity
8
1
62
256
6
ByLayer
370
18
48
1
60
0
100
AcDbSpline
70
4
71
3
72
10
73
6
40
0
40
0
40
0
40
0
40
0.5
40
0.5
40
1
40
1
40
1
40
1
41
1
10
3.50204985483356
20
-2.53093153237899
30
0
41
1
10
3.50204985483356
20
-2.52924670950222
30
0
41
1
10
3.52026555124729
20
-2.52682265863462
30
0
41
1
10
3.57823960398309
20
-2.52387507154353
30
0
41
1
10
3.61567652410898
20
-2.52371333058207
30
0
41
1
10
3.64630022771985
20
-2.52501159402303
30
0
0
SPLINE
5
E3
100
AcDbEntity
8
1
62
256
6
ByLayer
370
18
48
1
60
0
100
AcDbSpline
70
4
71
3
72
24
73
20
40
0
40
0
40
0
40
0
40
0.229470736366375
40
0.229470736366375
40
0.321738645567316
40
0.321738645567316
40
0.414006554768256
40
0.414006554768256
40
0.598542373170138
40
0.598542373170138
40
0.78307819157202
40
0.78307819157202
40
0.875346100772961
40
0.875346100772961
40
0.92148005537343
40
0.92148005537343
40
0.9676140099739
40
0.9676140099739
40
1
40
1
40
1
40
1
41
1
10
4.80927211256162
20
0.210042116166875
30
0
41
1
10
5.46764197403951
20
-0.093255446714835
30
0
41
1
10
6.12275677226671
20
-0.400508145245453
30
0
41
1
10
7.04841535471007
20
-0.81091357580766
30
0
41
1
10
7.31465839120511
20
-0.926341418120984
30
1E-16
41
1
10
7.84985236165792
20
-1.15019807978473
30
1E-16
41
1
10
8.11645991950638
20
-1.25750587376686
30
1E-16
41
1
10
8.91196780182381
20
-1.56181824396546
30
1E-16
41
1
10
9.43788773565657
20
-1.74207585710837
30
1E-16
41
1
10
10.489371547622
20
-2.04403612664069
30
-1E-16
41
1
10
11.0148725072536
20
-2.16599176798715
30
-1E-16
41
1
10
11.8090095376509
20
-2.29764119123922
30
0
41
1
10
12.0747306435437
20
-2.33291051934992
30
0
41
1
10
12.4755984546849
20
-2.37186901360374
30
0
41
1
10
12.6095336729418
20
-2.38255327757992
30
0
41
1
10
12.8763742895369
20
-2.39918010552879
30
0
41
1
10
13.0095181172033
20
-2.40514859747213
30
0
41
1
10
13.2357726638226
20
-2.41133458485493
30
0
41
1
10
13.3289882221199
20
-2.41270333621688
30
0
41
1
10
13.4221228946588
20
-2.41290153291351
30
0
0
SPLINE
5
E4
100
AcDbEntity
8
1
62
256
6
ByLayer
370
18
48
1
60
0
100
AcDbSpline
70
4
71
3
72
8
73
4
40
0
40
0
40
0
40
0
40
1
40
1
40
1
40
1
41
1
10
12.2
20
-2.52855866718656
30
0
41
1
10
12.3615956760741
20
-2.53596406675024
30
0
41
1
10
12.5231876346801
20
-2.53968342295434
30
0
41
1
10
12.6846823605685
20
-2.53973663840077
30
0
0
SPLINE
5
E5
100
AcDbEntity
8
1
62
256
6
ByLayer
370
18
48
1
60
0
100
AcDbSpline
70
4
71
3
72
8
73
4
40
0
40
0
40
0
40
0
40
1
40
1
40
1
40
1
41
1
10
27.9641066607783
20
2.49564892657477
30
0
41
1
10
28.295232909041
20
2.52894814810512
30
0
41
1
10
28.626245749125
20
2.54711636004239
30
0
41
1
10
28.9583083093768
20
2.54966410876378
30
0
0
SPLINE
5
E6
100
AcDbEntity
8
1
62
256
6
ByLayer
370
18
48
1
60
0
100
AcDbSpline
70
4
71
3
72
30
73
26
40
0
40
0
40
0
40
0
40
0.100416692766029
40
0.100416692766029
40
0.200833385532059
40
0.200833385532059
40
0.301250078298088
40
0.301250078298088
40
0.401666771064115
40
0.401666771064115
40
0.502083463830142
40
0.502083463830142
40
0.602500156596169
40
0.602500156596169
40
0.652708502979181
40
0.652708502979181
40
0.702916849362194
40
0.702916849362194
40
0.803333542128221
40
0.803333542128221
40
0.903750234894248
40
0.903750234894248
40
0.953958581277262
40
0.953958581277262
40
1
40
1
40
1
40
1
41
1
10
28.7353522878436
20
0.299048092079175
30
0
41
1
10
28.4820412357619
20
0.422387989289064
30
0
41
1
10
28.229343717615
20
0.543581984496257
30
0
41
1
10
27.725714360427
20
0.782849500302149
30
0
41
1
10
27.4740265422102
20
0.899364737513395
30
-1E-16
41
1
10
26.9703276957446
20
1.12515754729475
30
-1E-16
41
1
10
26.718898039372
20
1.23550693144949
30
-1E-16
41
1
10
26.213960571644
20
1.44559061508167
30
-1E-16
41
1
10
25.9607891415112
20
1.54598388979068
30
-1E-16
41
1
10
25.4527595651449
20
1.73677286977684
30
-1E-16
41
1
10
25.1967423843119
20
1.82616985430977
30
1E-16
41
1
10
24.6888259668838
20
1.99060529705846
30
1E-16
41
1
10
24.4363079123299
20
2.06612297224751
30
1E-16
41
1
10
24.0576824130644
20
2.16701529249562
30
1E-16
41
1
10
23.931517681041
20
2.19863555965904
30
1E-16
41
1
10
23.6796428188688
20
2.25824858354343
30
1E-16
41
1
10
23.5539152390727
20
2.28620064842508
30
1E-16
41
1
10
23.1764364560893
20
2.36361113259414
30
0
41
1
10
22.9243732331769
20
2.40673585641346
30
0
41
1
10
22.4202104972206
20
2.47652296335443
30
0
41
1
10
22.1677683796934
20
2.50285212372842
30
0
41
1
10
21.7871206698303
20
2.52878609401077
30
0
41
1
10
21.6599681523013
20
2.53521143804227
30
0
41
1
10
21.4159367675488
20
2.54321311201224
30
0
41
1
10
21.2988704741698
20
2.54510956470526
30
0
41
1
10
21.1820990819274
20
2.54506694823894
30
0
0
SPLINE
5
E7
100
AcDbEntity
8
1
62
256
6
ByLayer
370
18
48
1
60
0
100
AcDbSpline
70
4
71
3
72
18
73
14
40
0
40
0
40
0
40
0
40
0.114177570120004
40
0.114177570120004
40
0.291342056096003
40
0.291342056096003
40
0.468506542072003
40
0.468506542072003
40
0.645671028048002
40
0.645671028048002
40
0.822835514024001
40
0.822835514024001
40
1
40
1
40
1
40
1
41
1
10
8.73672928861714
20
-1.8591465518453
30
-1E-16
41
1
10
8.57304029109281
20
-1.9133495587229
30
-1E-16
41
1
10
8.40979247624142
20
-1.96466938112576
30
-1E-16
41
1
10
7.99429424456793
20
-2.08823293971369
30
-1E-16
41
1
10
7.74193947197597
20
-2.15551886311198
30
-1E-16
41
1
10
7.23794666540422
20
-2.27485774114979
30
-1E-16
41
1
10
6.98655789923058
20
-2.32703470160294
30
-1E-16
41
1
10
6.4822456197524
20
-2.4139722593504
30
0
41
1
10
6.22971621948136
20
-2.44913202263379
30
0
41
1
10
5.72338247109352
20
-2.50220036120007
30
0
41
1
10
5.46917705586955
20
-2.51995571602532
30
0
41
1
10
4.95879642336868
20
-2.53738972779067
30
0
41
1
10
4.70343497724946
20
-2.53683052187171
30
0
41
1
10
4.44742364764397
20
-2.52728941936491
30
0
0
SPLINE
5
E8
100
AcDbEntity
8
1
62
256
6
ByLayer
370
18
48
1
60
0
100
AcDbSpline
70
4
71
3
72
18
73
14
40
0
40
0
40
0
40
0
40
0.25
40
0.25
40
0.5
40
0.5
40
0.625
40
0.625
40
0.75
40
0.75
40
0.875
40
0.875
40
1
40
1
40
1
40
1
41
1
10
5.53216463406085
20
-0.53192022622639
30
0
41
1
10
6.09158869668579
20
-0.798355653859346
30
0
41
1
10
6.64435509154691
20
-1.05285549741626
30
1E-16
41
1
10
7.74800258481557
20
-1.51693584761986
30
1E-16
41
1
10
8.29863069996048
20
-1.72700859214572
30
1E-16
41
1
10
9.13087089303292
20
-1.99533066314979
30
-1E-16
41
1
10
9.40989850801896
20
-2.0771947967248
30
-1E-16
41
1
10
9.96864884427833
20
-2.22234732907438
30
-1E-16
41
1
10
10.2473120560034
20
-2.28545508152155
30
-1E-16
41
1
10
10.8045875905291
20
-2.39155737739549
30
0
41
1
10
11.0832341055595
20
-2.43452996040301
30
0
41
1
10
11.6418116269108
20
-2.49933930783084
30
0
41
1
10
11.921271902135
20
-2.52104817136342
30
0
41
1
10
12.2
20
-2.53178633037913
30
0
0
SPLINE
5
E9
100
AcDbEntity
8
1
62
256
6
ByLayer
370
18
48
1
60
0
100
AcDbSpline
70
4
71
3
72
8
73
4
40
0
40
0
40
0
40
0
40
1
40
1
40
1
40
1
41
1
10
28.7367643232176
20
-0.0582292863203406
30
0
41
1
10
28.731901894095
20
0.0610130355292995
30
0
41
1
10
28.7309512091867
20
0.180100680914933
30
0
41
1
10
28.7353522878438
20
0.299048092085116
30
0
0
SPLINE
5
EA
100
AcDbEntity
8
1
62
256
6
ByLayer
370
18
48
1
60
0
100
AcDbSpline
70
4
71
3
72
8
73
4
40
0
40
0
40
0
40
0
40
1
40
1
40
1
40
1
41
1
10
28.9480140907421
20
-2.51860368853619
30
0
41
1
10
28.9519731403018
20
-2.53741171044996
30
0
41
1
10
28.9553759688524
20
-2.54791423489201
30
0
41
1
10
28.9583083093768
20
-2.54966410876378
30
0
0
SPLINE
5
EB
100
AcDbEntity
8
1
62
256
6
ByLayer
370
18
48
1
60
0
100
AcDbSpline
70
4
71
3
72
8
73
4
40
0
40
0
40
0
40
0
40
1
40
1
40
1
40
1
41
1
10
29.0829067565551
20
-2.41167959846422
30
0
41
1
10
29.0788005672853
20
-2.42335041413713
30
0
41
1
10
29.0747107140893
20
-2.43502062681182
30
0
41
1
10
29.0706375690813
20
-2.44669034291633
30
0
0
SPLINE
5
EC
100
AcDbEntity
8
1
62
256
6
ByLayer
370
18
48
1
60
0
100
AcDbSpline
70
4
71
3
72
24
73
20
40
0
40
0
40
0
40
0
40
0.0793686802685834
40
0.0793686802685834
40
0.126361248230782
40
0.126361248230782
40
0.173353816192981
40
0.173353816192981
40
0.267338952117377
40
0.267338952117377
40
0.455309223966166
40
0.455309223966166
40
0.643279495814955
40
0.643279495814955
40
0.737264631739349
40
0.737264631739349
40
0.831249767663742
40
0.831249767663742
40
1
40
1
40
1
40
1
41
1
10
13.8109627813454
20
-2.41609140822482
30
0
41
1
10
13.5873125856994
20
-2.42390877870435
30
0
41
1
10
13.3633837662811
20
-2.42502345158621
30
0
41
1
10
13.0059018881767
20
-2.4158520356593
30
0
41
1
10
12.8727468957108
20
-2.41009586615871
30
0
41
1
10
12.6058802524141
20
-2.39387139428453
30
0
41
1
10
12.4719288743336
20
-2.38337733859916
30
0
41
1
10
12.0710138141266
20
-2.34495369657029
30
0
41
1
10
11.8052700309455
20
-2.30999764318093
30
0
41
1
10
11.0110948893259
20
-2.17912657323211
30
-1E-16
41
1
10
10.4855917104379
20
-2.05748799788236
30
-1E-16
41
1
10
9.43411154643204
20
-1.75575669555201
30
1E-16
41
1
10
8.90819053973649
20
-1.57540797768198
30
1E-16
41
1
10
8.11264347303114
20
-1.27061421467849
30
1E-16
41
1
10
7.84601440402832
20
-1.16309478092012
30
1E-16
41
1
10
7.31075239946711
20
-0.938696922390818
30
1E-16
41
1
10
7.04448590796159
20
-0.822949080265147
30
1E-16
41
1
10
6.30233546580351
20
-0.492927113384667
30
0
41
1
10
5.82832908639284
20
-0.273242849786897
30
0
41
1
10
5.35382798250308
20
-0.0528169694609915
30
0
0
SPLINE
5
ED
100
AcDbEntity
8
1
62
256
6
ByLayer
370
18
48
1
60
0
100
AcDbSpline
70
4
71
3
72
32
73
28
40
0
40
0
40
0
40
0
40
0.179734887153657
40
0.179734887153657
40
0.269602330730484
40
0.269602330730484
40
0.314536052518897
40
0.314536052518897
40
0.35946977430731
40
0.35946977430731
40
0.449337217884135
40
0.449337217884135
40
0.539204661460961
40
0.539204661460961
40
0.629072105037786
40
0.629072105037786
40
0.674005826826198
40
0.674005826826198
40
0.718939548614611
40
0.718939548614611
40
0.808806992191434
40
0.808806992191434
40
0.898674435768257
40
0.898674435768257
40
0.98854187934508
40
0.98854187934508
40
1
40
1
40
1
40
1
41
1
10
3.64463681262956
20
2.40879045492085
30
0
41
1
10
4.1714382430572
20
2.43339217953809
30
0
41
1
10
4.69564947875867
20
2.41500989401769
30
0
41
1
10
5.48239725524439
20
2.3351988742904
30
0
41
1
10
5.74440434652701
20
2.30038486829537
30
0
41
1
10
6.13834575623969
20
2.234918599118
30
0
41
1
10
6.26983897545654
20
2.21084587405582
30
0
41
1
10
6.53333694953108
20
2.1583039902672
30
1E-16
41
1
10
6.66556477378205
20
2.12978033454488
30
1E-16
41
1
10
7.06121875914079
20
2.03824674164298
30
1E-16
41
1
10
7.32364687424695
20
1.96932491275098
30
1E-16
41
1
10
7.8466740166254
20
1.81796960710344
30
1E-16
41
1
10
8.107011798386
20
1.73565159586707
30
-1E-16
41
1
10
8.62735345786245
20
1.55863016536938
30
-1E-16
41
1
10
8.88747263135642
20
1.46383659619866
30
-1E-16
41
1
10
9.27761196801896
20
1.31406035379905
30
-1E-16
41
1
10
9.40765040502083
20
1.26286416582238
30
-1E-16
41
1
10
9.66768929798653
20
1.15802684195555
30
-1E-16
41
1
10
9.79770189560602
20
1.10439792834109
30
-1E-16
41
1
10
10.1886508952554
20
0.940460220132024
30
-1E-16
41
1
10
10.4504379628558
20
0.827103171793937
30
-1E-16
41
1
10
10.9760497904549
20
0.593924663755956
30
0
41
1
10
11.2406487245929
20
0.473395228792754
30
0
41
1
10
11.7664978634846
20
0.230926344776577
30
0
41
1
10
12.0280660853921
20
0.108743016170052
30
0
41
1
10
12.3222709976967
20
-0.0281765413881772
30
0
41
1
10
12.3555324856491
20
-0.0436392061245101
30
0
41
1
10
12.3887862102876
20
-0.059082148491342
30
0
0
SPLINE
5
EE
100
AcDbEntity
8
1
62
256
6
ByLayer
370
18
48
1
60
0
100
AcDbSpline
70
4
71
3
72
8
73
4
40
0
40
0
40
0
40
0
40
1
40
1
40
1
40
1
41
1
10
29.1110183763682
20
2.44793202054194
30
0
41
1
10
29.1125760744996
20
2.44688158968862
30
0
41
1
10
29.1141338003499
20
2.44583104487992
30
0
41
1
10
29.1156915541395
20
2.44478038619295
30
0
0
SPLINE
5
EF
100
AcDbEntity
8
1
62
256
6
ByLayer
370
18
48
1
60
0
100
AcDbSpline
70
4
71
3
72
34
73
30
40
0
40
0
40
0
40
0
40
0.102121538145898
40
0.102121538145898
40
0.153182307218847
40
0.153182307218847
40
0.204243076291797
40
0.204243076291797
40
0.306364614437699
40
0.306364614437699
40
0.35742538351065
40
0.35742538351065
40
0.4084861525836
40
0.4084861525836
40
0.510607690729502
40
0.510607690729502
40
0.612729228875403
40
0.612729228875403
40
0.663789997948354
40
0.663789997948354
40
0.714850767021305
40
0.714850767021305
40
0.816972305167207
40
0.816972305167207
40
0.868033074240157
40
0.868033074240157
40
0.919093843313108
40
0.919093843313108
40
1
40
1
40
1
40
1
41
1
10
28.9480140907446
20
-2.51860368853539
30
0
41
1
10
28.4157216600806
20
-2.47741439230043
30
0
41
1
10
27.8855361270585
20
-2.39686793726494
30
0
41
1
10
27.0868844693453
20
-2.22176732903529
30
-1E-16
41
1
10
26.8201525465818
20
-2.15419030897482
30
-1E-16
41
1
10
26.2902705403458
20
-2.00386710227284
30
-1E-16
41
1
10
26.0264603998741
20
-1.92086627815954
30
-1E-16
41
1
10
25.2364490012698
20
-1.65135212380269
30
1E-16
41
1
10
24.7115605960855
20
-1.44449961423783
30
1E-16
41
1
10
23.9203602387429
20
-1.10439563356476
30
1E-16
41
1
10
23.6560335858778
20
-0.985956037506725
30
1E-16
41
1
10
23.1248470148489
20
-0.741297449250709
30
0
41
1
10
22.857658394196
20
-0.614931232752383
30
0
41
1
10
22.0623515107064
20
-0.233081775675885
30
0
41
1
10
21.5367906008062
20
0.0271516518003807
30
0
41
1
10
20.4848438813142
20
0.537761152161579
30
0
41
1
10
19.959031030514
20
0.789328980268351
30
0
41
1
10
19.1627884017116
20
1.1449810873097
30
-1E-16
41
1
10
18.89549531505
20
1.2604457743532
30
-1E-16
41
1
10
18.3647700764926
20
1.47893360957573
30
-1E-16
41
1
10
18.1005685812645
20
1.58227175922053
30
-1E-16
41
1
10
17.3096877924173
20
1.8720723113961
30
1E-16
41
1
10
16.7848719477295
20
2.03850107359017
30
1E-16
41
1
10
15.9944397445363
20
2.23873699500507
30
1E-16
41
1
10
15.7303788561582
20
2.29720787101141
30
1E-16
41
1
10
15.2000049130252
20
2.39628915878788
30
0
41
1
10
14.932741633226
20
2.43698968054437
30
0
41
1
10
14.246009225185
20
2.51649674193226
30
0
41
1
10
13.8281333504132
20
2.54058793459532
30
0
41
1
10
13.4110761557745
20
2.54020313169906
30
0
0
SPLINE
5
F0
100
AcDbEntity
8
1
62
256
6
ByLayer
370
18
48
1
60
0
100
AcDbSpline
70
4
71
3
72
8
73
4
40
0
40
0
40
0
40
0
40
1
40
1
40
1
40
1
41
1
10
29.3516279839857
20
0.704691900900031
30
0
41
1
10
29.4975909421054
20
0.72558608808626
30
0
41
1
10
29.6432776517566
20
0.751223765172625
30
0
41
1
10
29.7868123901632
20
0.78626113812129
30
0
0
SPLINE
5
F1
100
AcDbEntity
8
1
62
256
6
ByLayer
370
18
48
1
60
0
100
AcDbSpline
70
2053
71
3
72
48
73
44
40
0
40
0
40
0
40
0
40
0.0625000000000007
40
0.0625000000000007
40
0.125000000000001
40
0.125000000000001
40
0.187500000000002
40
0.187500000000002
40
0.250000000000003
40
0.250000000000003
40
0.281250000000002
40
0.281250000000002
40
0.312500000000002
40
0.312500000000002
40
0.343750000000002
40
0.343750000000002
40
0.375000000000001
40
0.375000000000001
40
0.406250000000001
40
0.406250000000001
40
0.4375
40
0.4375
40
0.500000000000005
40
0.500000000000005
40
0.625000000000014
40
0.625000000000014
40
0.656250000000013
40
0.656250000000013
40
0.687500000000012
40
0.687500000000012
40
0.718750000000012
40
0.718750000000012
40
0.750000000000011
40
0.750000000000011
40
0.781250000000011
40
0.781250000000011
40
0.81250000000001
40
0.81250000000001
40
0.875000000000007
40
0.875000000000007
40
0.937500000000004
40
0.937500000000004
40
1
40
1
40
1
40
1
41
1
10
29.3198020116714
20
-1.13689045521771
30
0
41
1
10
29.2992816410838
20
-1.16388033345874
30
0
41
1
10
29.2801171690563
20
-1.18220228228975
30
0
41
1
10
29.2436694212914
20
-1.20194102489666
30
1E-16
41
1
10
29.2273544109551
20
-1.20280166372501
30
1E-16
41
1
10
29.1975350209678
20
-1.18596902478467
30
1E-16
41
1
10
29.1848292189836
20
-1.16876248172696
30
1E-16
41
1
10
29.1631494593183
20
-1.11554401455467
30
1E-16
41
1
10
29.1547934705897
20
-1.08103224958694
30
1E-16
41
1
10
29.1464411756528
20
-1.01700656654498
30
1E-16
41
1
10
29.1444662646198
20
-0.994270138043703
30
1E-16
41
1
10
29.1422594512323
20
-0.945952855672971
30
1E-16
41
1
10
29.1420419089949
20
-0.919982113524327
30
1E-16
41
1
10
29.1437247735861
20
-0.866880367131927
30
1E-16
41
1
10
29.1455880561385
20
-0.839905510054137
30
1E-16
41
1
10
29.1516601671875
20
-0.7850930249935
30
0
41
1
10
29.1559101830588
20
-0.757306385960419
30
0
41
1
10
29.1665677902859
20
-0.704123769841885
30
0
41
1
10
29.1731154274124
20
-0.677996592302009
30
0
41
1
10
29.1881894459594
20
-0.629041005667005
30
0
41
1
10
29.1966335086918
20
-0.606337363127039
30
0
41
1
10
29.2246485978063
20
-0.543218766021596
30
0
41
1
10
29.2462924141631
20
-0.509484389964456
30
0
41
1
10
29.3138822494427
20
-0.435175654998972
30
0
41
1
10
29.3626500013552
20
-0.420486558342077
30
0
41
1
10
29.4123841740109
20
-0.441838240434748
30
0
41
1
10
29.4217760082131
20
-0.448084279685105
30
0
41
1
10
29.4392606176168
20
-0.464793635513871
30
0
41
1
10
29.4473769471199
20
-0.475356223755199
30
0
41
1
10
29.4614619935657
20
-0.500379140285418
30
0
41
1
10
29.4675169518469
20
-0.514885120397906
30
0
41
1
10
29.4773287530426
20
-0.54843411245065
30
0
41
1
10
29.4810118744374
20
-0.567381403747987
30
0
41
1
10
29.4854388554301
20
-0.60867046347667
30
0
41
1
10
29.4862186088025
20
-0.631524915389292
30
0
41
1
10
29.4846149818015
20
-0.679715385356332
30
0
41
1
10
29.4822873028979
20
-0.704880807911167
30
0
41
1
10
29.4707578202641
20
-0.783779278029897
30
0
41
1
10
29.4569925322199
20
-0.839330773243034
30
1E-16
41
1
10
29.4230382652511
20
-0.943006828237031
30
-1E-16
41
1
10
29.4028848808334
20
-0.991543248216374
30
-1E-16
41
1
10
29.3615813686359
20
-1.0748132749768
30
0
41
1
10
29.340322382259
20
-1.10990057697668
30
0
41
1
10
29.3198020116714
20
-1.13689045521771
30
0
0
SPLINE
5
F2
100
AcDbEntity
8
1
62
256
6
ByLayer
370
18
48
1
60
0
100
AcDbSpline
70
4
71
3
72
28
73
24
40
0
40
0
40
0
40
0
40
0.0319938174811384
40
0.0319938174811384
40
0.170280414983831
40
0.170280414983831
40
0.308567012486524
40
0.308567012486524
40
0.343138661862196
40
0.343138661862196
40
0.37771031123787
40
0.37771031123787
40
0.446853609989217
40
0.446853609989217
40
0.585140207491913
40
0.585140207491913
40
0.65428350624326
40
0.65428350624326
40
0.688855155618935
40
0.688855155618935
40
0.723426804994609
40
0.723426804994609
40
1
40
1
40
1
40
1
41
1
10
15.036515608978
20
-2.41877455915875
30
0
41
1
10
14.9132612253058
20
-2.43715580768458
30
0
41
1
10
14.7899796890697
20
-2.45351807286281
30
0
41
1
10
14.1356081537577
20
-2.52927852514284
30
0
41
1
10
13.609197057566
20
-2.55152727507868
30
0
41
1
10
12.5570394537563
20
-2.51818206646777
30
0
41
1
10
12.0312616619358
20
-2.46263844230199
30
0
41
1
10
11.3688743969277
20
-2.34610488631802
30
0
41
1
10
11.2361425163201
20
-2.32044023262873
30
-1E-16
41
1
10
10.969969521988
20
-2.26450336682456
30
-1E-16
41
1
10
10.8363818741089
20
-2.23418720647231
30
-1E-16
41
1
10
10.4372696740785
20
-2.13712029292154
30
-1E-16
41
1
10
10.1725143098092
20
-2.06411513510437
30
-1E-16
41
1
10
9.38050443083526
20
-1.82275721524354
30
-1E-16
41
1
10
8.85543365602589
20
-1.63211440824097
30
1E-16
41
1
10
8.06532921261365
20
-1.31254710113671
30
1E-16
41
1
10
7.8015477714645
20
-1.20042997557471
30
1E-16
41
1
10
7.40441140871081
20
-1.02528082716518
30
1E-16
41
1
10
7.27179100492145
20
-0.965730682959588
30
1E-16
41
1
10
7.00590048769877
20
-0.844590601844033
30
1E-16
41
1
10
6.87240445323056
20
-0.7828948280102
30
0
41
1
10
5.6730818928915
20
-0.22244813415179
30
0
41
1
10
4.62519305260463
20
0.311764182964538
30
0
41
1
10
3.55826662257627
20
0.804271803864992
30
0
0
SPLINE
5
F3
100
AcDbEntity
8
1
62
256
6
ByLayer
370
18
48
1
60
0
100
AcDbSpline
70
4
71
3
72
10
73
6
40
0
40
0
40
0
40
0
40
0.615912762802489
40
0.615912762802489
40
1
40
1
40
1
40
1
41
1
10
7.97049921703547
20
-1.57591321483065
30
0
41
1
10
7.24016557908217
20
-1.76873505190696
30
0
41
1
10
6.51411319361395
20
-1.96399665891704
30
0
41
1
10
5.3425404381039
20
-2.28219907931094
30
0
41
1
10
4.89414085936349
20
-2.40473569487057
30
0
41
1
10
4.44742364768351
20
-2.52728941935405
30
0
0
SPLINE
5
F4
100
AcDbEntity
8
1
62
256
6
ByLayer
370
18
48
1
60
0
100
AcDbSpline
70
4
71
3
72
10
73
6
40
0
40
0
40
0
40
0
40
0.5
40
0.5
40
1
40
1
40
1
40
1
41
1
10
28.9689386451303
20
0.400204741689436
30
0
41
1
10
28.9285779405574
20
0.391853320118628
30
0
41
1
10
28.8888081195329
20
0.378244974068764
30
0
41
1
10
28.8107779183929
20
0.344300428942802
30
0
41
1
10
28.7724758064214
20
0.32410452169205
30
0
41
1
10
28.735352287852
20
0.299048092084888
30
0
0
SPLINE
5
F5
100
AcDbEntity
8
1
62
256
6
ByLayer
370
18
48
1
60
0
100
AcDbSpline
70
4
71
3
72
8
73
4
40
0
40
0
40
0
40
0
40
1
40
1
40
1
40
1
41
1
10
28.7367643232176
20
-0.0582292863203406
30
0
41
1
10
28.7564853648287
20
-0.0670593739066589
30
0
41
1
10
28.7761041823224
20
-0.0753838355803111
30
0
41
1
10
28.7956411273257
20
-0.0832140166732813
30
0
0
SPLINE
5
F6
100
AcDbEntity
8
1
62
256
6
ByLayer
370
18
48
1
60
0
100
AcDbSpline
70
4
71
3
72
16
73
12
40
0
40
0
40
0
40
0
40
0.228402156853696
40
0.228402156853696
40
0.459275360633759
40
0.459275360633759
40
0.656247265056313
40
0.656247265056313
40
0.828543061082379
40
0.828543061082379
40
1
40
1
40
1
40
1
41
1
10
29.0853732423303
20
-2.40047489849792
30
0
41
1
10
29.0854750645933
20
-2.40064157472111
30
0
41
1
10
29.0855203303333
20
-2.40098801914956
30
0
41
1
10
29.0854670209104
20
-2.40205650925685
30
0
41
1
10
29.0853646538619
20
-2.40280378358304
30
0
41
1
10
29.0850307987151
20
-2.40448599187579
30
0
41
1
10
29.084814598789
20
-2.4054042120253
30
0
41
1
10
29.0843296498261
20
-2.40722309515789
30
0
41
1
10
29.0840646587233
20
-2.40813510940652
30
0
41
1
10
29.0835061357001
20
-2.40992694387396
30
0
41
1
10
29.0832062491929
20
-2.41082836557158
30
0
41
1
10
29.0829067565577
20
-2.41167959845708
30
0
0
SPLINE
5
F7
100
AcDbEntity
8
1
62
256
6
ByLayer
370
18
48
1
60
0
100
AcDbSpline
70
4
71
3
72
8
73
4
40
0
40
0
40
0
40
0
40
1
40
1
40
1
40
1
41
1
10
28.9480140907438
20
-2.51860368853406
30
0
41
1
10
28.9888022351068
20
-2.4950187759809
30
0
41
1
10
29.0296725859953
20
-2.4710450586359
30
0
41
1
10
29.0706375690812
20
-2.44669034291627
30
0
0
SPLINE
5
F8
100
AcDbEntity
8
1
62
256
6
ByLayer
370
18
48
1
60
0
100
AcDbSpline
70
4
71
3
72
16
73
12
40
0
40
0
40
0
40
0
40
0.488534265086384
40
0.488534265086384
40
0.758146925855594
40
0.758146925855594
40
0.904725396758531
40
0.904725396758531
40
0.983327527791074
40
0.983327527791074
40
1
40
1
40
1
40
1
41
1
10
28.9583083093768
20
-2.54966410876378
30
0
41
1
10
28.981437129076
20
-2.53446444939544
30
0
41
1
10
29.0045876268558
20
-2.51915371159996
30
0
41
1
10
29.0405102539043
20
-2.49525099531303
30
0
41
1
10
29.0532772895646
20
-2.48672740822036
30
0
41
1
10
29.0730291965645
20
-2.47349561495054
30
0
41
1
10
29.0799950131253
20
-2.46882066750462
30
0
41
1
10
29.0907203658268
20
-2.46161004029949
30
0
41
1
10
29.0944704307636
20
-2.45908653829196
30
0
41
1
10
29.0990180237115
20
-2.45602365708547
30
0
41
1
10
29.0998135925548
20
-2.45548773323782
30
0
41
1
10
29.1006071255883
20
-2.45495307486379
30
0
0
SPLINE
5
F9
100
AcDbEntity
8
SK1
62
256
6
ByLayer
370
18
48
1
60
0
100
AcDbSpline
70
4
71
3
72
12
73
8
40
0
40
0
40
0
40
0
40
0.499999999999999
40
0.499999999999999
40
0.749999999999999
40
0.749999999999999
40
1
40
1
40
1
40
1
41
1
10
-35.75
20
-2.02431656967937
30
-1E-16
41
1
10
-35.7259913046562
20
-2.04132194657703
30
-1E-16
41
1
10
-35.7033433879313
20
-2.05313699763343
30
-1E-16
41
1
10
-35.6754686754417
20
-2.06008695092021
30
-1E-16
41
1
10
-35.667025596347
20
-2.06057815834876
30
-1E-16
41
1
10
-35.6543350076412
20
-2.05585037219422
30
-1E-16
41
1
10
-35.65
20
-2.0504297224663
30
-1E-16
41
1
10
-35.65
20
-2.04104792404633
30
-1E-16
0
SPLINE
5
FA
100
AcDbEntity
8
SK1
62
256
6
ByLayer
370
18
48
1
60
0
100
AcDbSpline
70
4
71
3
72
8
73
4
40
0
40
0
40
0
40
0
40
1
40
1
40
1
40
1
41
1
10
-36.0000000000001
20
-0.509192495945484
30
0
41
1
10
-35.9478735570756
20
-0.616872353927675
30
0
41
1
10
-35.897619057052
20
-0.726494510838648
30
0
41
1
10
-35.8509618943233
20
-0.839205641407204
30
1E-16
0
SPLINE
5
FB
100
AcDbEntity
8
SK1
62
256
6
ByLayer
370
18
48
1
60
0
100
AcDbSpline
70
4
71
3
72
10
73
6
40
0
40
0
40
0
40
0
40
0.5
40
0.5
40
1
40
1
40
1
40
1
41
1
10
-35.8509618943233
20
-1.95261293984169
30
-1E-16
41
1
10
-35.8741904300927
20
-1.95622668501173
30
0
41
1
10
-35.8986222732874
20
-1.95658429277515
30
0
41
1
10
-35.9485161922248
20
-1.95171429678067
30
0
41
1
10
-35.974056478015
20
-1.94651118184575
30
0
41
1
10
-35.9999999999999
20
-1.93890843716463
30
0
0
SPLINE
5
FC
100
AcDbEntity
8
SK1
62
256
6
ByLayer
370
18
48
1
60
0
100
AcDbSpline
70
4
71
3
72
12
73
8
40
0
40
0
40
0
40
0
40
0.25
40
0.25
40
0.500000000000001
40
0.500000000000001
40
1
40
1
40
1
40
1
41
1
10
-35.65
20
-1.07609493206979
30
1E-16
41
1
10
-35.65
20
-1.06035853434489
30
1E-16
41
1
10
-35.6543403470552
20
-1.04284549557926
30
1E-16
41
1
10
-35.6670034572333
20
-1.01021074857994
30
1E-16
41
1
10
-35.6754069618006
20
-0.994598272278125
30
1E-16
41
1
10
-35.7033744297257
20
-0.951866220229022
30
1E-16
41
1
10
-35.7260009806424
20
-0.927907794634137
30
1E-16
41
1
10
-35.7500000000001
20
-0.910909271244719
30
1E-16
0
SPLINE
5
FD
100
AcDbEntity
8
SK1
62
256
6
ByLayer
370
18
48
1
60
0
100
AcDbSpline
70
4
71
3
72
8
73
4
40
0
40
0
40
0
40
0
40
1
40
1
40
1
40
1
41
1
10
-35.75
20
-0.910909271244748
30
1E-16
41
1
10
-35.7837020021696
20
-0.887038117860811
30
1E-16
41
1
10
-35.8173582870275
20
-0.863138359570115
30
1E-16
41
1
10
-35.8509618943233
20
-0.839205641407204
30
1E-16
0
SPLINE
5
FE
100
AcDbEntity
8
SK1
62
256
6
ByLayer
370
18
48
1
60
0
100
AcDbSpline
70
4
71
3
72
8
73
4
40
0
40
0
40
0
40
0
40
1
40
1
40
1
40
1
41
1
10
-35.8509618943233
20
-1.95261293984169
30
-1E-16
41
1
10
-35.8173573049644
20
-1.97654635743663
30
-1E-16
41
1
10
-35.7837010626629
20
-2.00044608174858
30
-1E-16
41
1
10
-35.7499999999999
20
-2.02431656967926
30
-1E-16
0
SPLINE
5
FF
100
AcDbEntity
8
1
62
256
6
ByLayer
370
18
48
1
60
0
100
AcDbSpline
70
4
71
2
72
6
73
3
40
0
40
0
40
0
40
1
40
1
40
1
41
1
10
4.18146697127784
20
2.40934043891591
30
0
41
1
10
3.89209112925317
20
2.40894233651852
30
0
41
1
10
3.60272299615184
20
2.40673361567818
30
0
0
SPLINE
5
100
100
AcDbEntity
8
1
62
256
6
ByLayer
370
18
48
1
60
0
100
AcDbSpline
70
4
71
1
72
4
73
2
40
0
40
0
40
1
40
1
41
1
10
29.1006042711376
20
-2.4549550222674
30
0
41
1
10
29.1163773583822
20
-2.44432742561986
30
0
0
SPLINE
5
101
100
AcDbEntity
8
1
62
256
6
ByLayer
370
18
48
1
60
0
100
AcDbSpline
70
4
71
3
72
11
73
7
40
0
40
0
40
0
40
0
40
0.0771272729916638
40
0.302486977066204
40
0.611541988291901
40
1
40
1
40
1
40
1
41
1
10
28.7846946986601
20
0.533821242829504
30
0
41
1
10
28.7116086604622
20
0.557419839404673
30
0
41
1
10
28.4252506297568
20
0.650785546473941
30
0
41
1
10
27.8492722663326
20
0.848254300425907
30
-1E-16
41
1
10
26.9833333891753
20
1.15538309617827
30
-1E-16
41
1
10
26.3337062316568
20
1.40052693179388
30
-1E-16
41
1
10
25.9732669351446
20
1.54070689797967
30
-1E-16
0
SPLINE
5
102
100
AcDbEntity
8
1
62
256
6
ByLayer
370
18
48
1
60
0
100
AcDbSpline
70
4
71
1
72
4
73
2
40
0
40
0
40
1
40
1
41
1
10
25.9732669351446
20
1.54070689797967
30
-1E-16
41
1
10
25.8428594241816
20
1.58986468654146
30
-1E-16
0
SPLINE
5
103
100
AcDbEntity
8
1
62
256
6
ByLayer
370
18
48
1
60
0
100
AcDbSpline
70
4
71
3
72
25
73
21
40
0
40
0
40
0
40
0
40
2.3201836151E-05
40
8.56984048095E-05
40
0.0001391251364666
40
0.000188778256638
40
0.0003614548556007
40
0.0031907857177232
40
0.0054770454827878
40
0.0096990873694594
40
0.0176835554865993
40
0.0333632974103065
40
0.0679801152797407
40
0.116660276185265
40
0.166725220139466
40
0.29621263168206
40
0.423283303457155
40
0.589448332776335
40
0.794951279316207
40
1
40
1
40
1
40
1
41
1
10
14.135259982036
20
0.0014747763495677
30
0
41
1
10
14.1352643913452
20
0.0014752431100078
30
0
41
1
10
14.1352756183147
20
0.0014784708287152
30
0
41
1
10
14.1352588042471
20
0.0014940583720033
30
0
41
1
10
14.1351586424514
20
0.0015349874468598
30
0
41
1
10
14.1348816094646
20
0.0016317051948818
30
0
41
1
10
14.1305495151611
20
0.002992761839522
30
0
41
1
10
14.1226462626452
20
0.0053671903983172
30
0
41
1
10
14.1090251995576
20
0.0095344989994146
30
0
41
1
10
14.0877672615617
20
0.0159892874258958
30
0
41
1
10
14.0469611758853
20
0.0283382527223637
30
0
41
1
10
13.9617511967252
20
0.0539076040231237
30
0
41
1
10
13.8170132807987
20
0.096322392984888
30
0
41
1
10
13.6165849758909
20
0.157073439220596
30
0
41
1
10
13.2759747461281
20
0.261732742722756
30
0
41
1
10
12.8186314884435
20
0.406115137923763
30
0
41
1
10
12.1906880089451
20
0.611682448811592
30
0
41
1
10
11.4526075932891
20
0.863329258571326
30
-1E-16
41
1
10
10.6032974759244
20
1.16674999416281
30
-1E-16
41
1
10
10.0026463051737
20
1.39377230792269
30
-1E-16
41
1
10
9.70358305858048
20
1.50980370854469
30
-1E-16
0
SPLINE
5
104
100
AcDbEntity
8
1
62
256
6
ByLayer
370
18
48
1
60
0
100
AcDbSpline
70
4
71
3
72
19
73
15
40
0
40
0
40
0
40
0
40
0.146480813456078
40
0.248143009580993
40
0.330054729599788
40
0.417794130319941
40
0.50668777402271
40
0.595545242213387
40
0.67170505684318
40
0.747874224645212
40
0.823968468650478
40
0.896919541330703
40
0.968541727381312
40
1
40
1
40
1
40
1
41
1
10
13.4157269654388
20
-2.4129551717337
30
0
41
1
10
13.6909064654489
20
-2.4131058706221
30
0
41
1
10
14.1570836868673
20
-2.41337514950018
30
0
41
1
10
14.7772535548708
20
-2.41340174141212
30
0
41
1
10
15.2869575797592
20
-2.41398173724013
30
0
41
1
10
15.7727665597149
20
-2.41430959619041
30
0
41
1
10
16.2716025074632
20
-2.41388149124907
30
0
41
1
10
16.7486871014717
20
-2.41469323225655
30
0
41
1
10
17.2018619589323
20
-2.41531245934257
30
0
41
1
10
17.6310551407609
20
-2.41463871741451
30
0
41
1
10
18.0542187970722
20
-2.41438127495078
30
0
41
1
10
18.4688412074868
20
-2.41486862721479
30
0
41
1
10
18.7995544704343
20
-2.41570610980986
30
0
41
1
10
18.9932303052839
20
-2.4158758461889
30
0
41
1
10
19.0523374990766
20
-2.41590719729382
30
0
0
SPLINE
5
105
100
AcDbEntity
8
1
62
256
6
ByLayer
370
18
48
1
60
0
100
AcDbSpline
70
4
71
3
72
18
73
14
40
0
40
0
40
0
40
0
40
0.172790435352517
40
0.289866683406656
40
0.364552338592449
40
0.440623720381591
40
0.519972715194253
40
0.599399838491377
40
0.678817208556508
40
0.771475344197353
40
0.864171202672028
40
0.955663448158126
40
1
40
1
40
1
40
1
41
1
10
20.4418373286902
20
2.41576410315699
30
0
41
1
10
20.1305307024384
20
2.41588560323206
30
0
41
1
10
19.6082840341387
20
2.41581359151294
30
0
41
1
10
18.9513842635991
20
2.4160905963831
30
0
41
1
10
18.4688412074868
20
2.41486862721479
30
0
41
1
10
18.0542187970722
20
2.41438127495078
30
0
41
1
10
17.6310551407609
20
2.41463871741451
30
0
41
1
10
17.2018619589323
20
2.41531245934257
30
0
41
1
10
16.7486871014717
20
2.41469323225655
30
0
41
1
10
16.2716025074632
20
2.41388149124907
30
0
41
1
10
15.7727665597149
20
2.41430959619041
30
0
41
1
10
15.360978991463
20
2.41403169222931
30
0
41
1
10
15.1162595788205
20
2.41377954007609
30
0
41
1
10
15.0363796180652
20
2.41370329266567
30
0
0
LINE
5
84
100
AcDbEntity
8
1
62
256
6
ByLayer
370
18
48
1
60
0
100
AcDbLine
10
0.565103
20
2.766268
30
0
11
0.565103
21
0
31
0
39
0
210
0
220
0
230
1
0
LINE
5
85
100
AcDbEntity
8
1
62
256
6
ByLayer
370
18
48
1
60
0
100
AcDbLine
10
0.565103
20
0
30
0
11
0.565103
21
-2.766268
31
0
39
0
210
0
220
0
230
1
0
LINE
5
86
100
AcDbEntity
8
1
62
256
6
ByLayer
370
18
48
1
60
0
100
AcDbLine
10
1.130705
20
2.532535
30
0
11
1.130705
21
0
31
0
39
0
210
0
220
0
230
1
0
LINE
5
87
100
AcDbEntity
8
1
62
256
6
ByLayer
370
18
48
1
60
0
100
AcDbLine
10
1.130705
20
0
30
0
11
1.130705
21
-2.532535
31
0
39
0
210
0
220
0
230
1
0
LINE
5
88
100
AcDbEntity
8
1
62
256
6
ByLayer
370
18
48
1
60
0
100
AcDbLine
10
12.2
20
-2.528559
30
0
11
12.2
21
-2.531786
31
0
39
0
210
0
220
0
230
1
0
LINE
5
89
100
AcDbEntity
8
1
62
256
6
ByLayer
370
18
48
1
60
0
100
AcDbLine
10
0
20
3
30
0
11
0
21
0
31
0
39
0
210
0
220
0
230
1
0
LINE
5
8A
100
AcDbEntity
8
1
62
256
6
ByLayer
370
18
48
1
60
0
100
AcDbLine
10
0
20
0
30
0
11
0
21
-3
31
0
39
0
210
0
220
0
230
1
0
LINE
5
8B
100
AcDbEntity
8
1
62
256
6
ByLayer
370
18
48
1
60
0
100
AcDbLine
10
3.50205
20
2.534018
30
0
11
3.50205
21
0.889012
31
0
39
0
210
0
220
0
230
1
0
LINE
5
8C
100
AcDbEntity
8
1
62
256
6
ByLayer
370
18
48
1
60
0
100
AcDbLine
10
3.50205
20
-2.530932
30
0
11
3.50205
21
-2.534018
31
0
39
0
210
0
220
0
230
1
0
LINE
5
8D
100
AcDbEntity
8
1
62
256
6
ByLayer
370
18
48
1
60
0
100
AcDbLine
10
29.954177
20
0.039582
30
0
11
29.351628
21
0.704692
31
0
39
0
210
0
220
0
230
1
0
LINE
5
8E
100
AcDbEntity
8
SK1
62
256
6
ByLayer
370
18
48
1
60
0
100
AcDbLine
10
-36
20
-2.065
30
0
11
-36
21
-1.938908
31
0
39
0
210
0
220
0
230
1
0
LINE
5
90
100
AcDbEntity
8
SK1
62
256
6
ByLayer
370
18
48
1
60
0
100
AcDbLine
10
-35.850962
20
-1.952613
30
0
11
-35.850962
21
-0.839201
31
0
39
0
210
0
220
0
230
1
0
LINE
5
91
100
AcDbEntity
8
SK1
62
256
6
ByLayer
370
18
48
1
60
0
100
AcDbLine
10
-36
20
2.065
30
0
11
-36
21
-0.509192
31
0
39
0
210
0
220
0
230
1
0
LINE
5
92
100
AcDbEntity
8
SK1
62
256
6
ByLayer
370
18
48
1
60
0
100
AcDbLine
10
-36
20
-1.938908
30
0
11
-36
21
-0.509217
31
0
39
0
210
0
220
0
230
1
0
LINE
5
93
100
AcDbEntity
8
SK1
62
256
6
ByLayer
370
18
48
1
60
0
100
AcDbLine
10
-35.65
20
-2.041048
30
0
11
-35.65
21
-1.076095
31
0
39
0
210
0
220
0
230
1
0
LINE
5
94
100
AcDbEntity
8
SK1
62
256
6
ByLayer
370
18
48
1
60
0
100
AcDbLine
10
0
20
3
30
0
11
0
21
-3
31
0
39
0
210
0
220
0
230
1
0
LINE
5
95
100
AcDbEntity
8
SK1
62
256
6
ByLayer
370
18
48
1
60
0
100
AcDbLine
10
-35.75
20
-2.024317
30
0
11
-35.75
21
-0.910903
31
0
39
0
210
0
220
0
230
1
0
LINE
5
96
100
AcDbEntity
8
SK1
62
256
6
ByLayer
370
18
48
1
60
0
100
AcDbLine
10
-35.065
20
-3
30
0
11
-35.065
21
3
31
0
39
0
210
0
220
0
230
1
0
LINE
5
97
100
AcDbEntity
8
1
62
256
6
ByLayer
370
18
48
1
60
0
100
AcDbLine
10
5.215208
20
0.011741
30
0
11
5.215209
21
0.011835
31
0
39
0
210
0
220
0
230
1
0
LINE
5
98
100
AcDbEntity
8
SK1
62
256
6
ByLayer
370
18
48
1
60
0
100
AcDbLine
10
-36
20
-2.065
30
0
11
-35.065
21
-3
31
0
39
0
210
0
220
0
230
1
0
LINE
5
99
100
AcDbEntity
8
SK1
62
256
6
ByLayer
370
18
48
1
60
0
100
AcDbLine
10
-35.065
20
3
30
0
11
-36
21
2.065
31
0
39
0
210
0
220
0
230
1
0
LINE
5
9A
100
AcDbEntity
8
SK1
62
256
6
ByLayer
370
18
48
1
60
0
100
AcDbLine
10
-35.065
20
-3
30
0
11
0
21
-3
31
0
39
0
210
0
220
0
230
1
0
LINE
5
9B
100
AcDbEntity
8
SK1
62
256
6
ByLayer
370
18
48
1
60
0
100
AcDbLine
10
0
20
3
30
0
11
-35.065
21
3
31
0
39
0
210
0
220
0
230
1
0
LINE
5
9C
100
AcDbEntity
8
1
62
256
6
ByLayer
370
18
48
1
60
0
100
AcDbLine
10
1.130705
20
-2.532535
30
0
11
3.50205
21
-2.534018
31
0
39
0
210
0
220
0
230
1
0
LINE
5
9D
100
AcDbEntity
8
1
62
256
6
ByLayer
370
18
48
1
60
0
100
AcDbLine
10
4.085149
20
-2.534382
30
0
11
4.843477
21
-2.534856
31
0
39
0
210
0
220
0
230
1
0
LINE
5
9E
100
AcDbEntity
8
1
62
256
6
ByLayer
370
18
48
1
60
0
100
AcDbLine
10
12.681407
20
-2.539755
30
0
11
13.412019
21
-2.540211
31
0
39
0
210
0
220
0
230
1
0
LINE
5
9F
100
AcDbEntity
8
1
62
256
6
ByLayer
370
18
48
1
60
0
100
AcDbLine
10
20.439177
20
-2.544603
30
0
11
21.180686
21
-2.545067
31
0
39
0
210
0
220
0
230
1
0
LINE
5
A0
100
AcDbEntity
8
1
62
256
6
ByLayer
370
18
48
1
60
0
100
AcDbLine
10
21.180686
20
2.545067
30
0
11
20.439177
21
2.544603
31
0
39
0
210
0
220
0
230
1
0
LINE
5
A1
100
AcDbEntity
8
1
62
256
6
ByLayer
370
18
48
1
60
0
100
AcDbLine
10
13.412019
20
2.540211
30
0
11
12.681407
21
2.539755
31
0
39
0
210
0
220
0
230
1
0
LINE
5
A2
100
AcDbEntity
8
1
62
256
6
ByLayer
370
18
48
1
60
0
100
AcDbLine
10
4.843477
20
2.534856
30
0
11
4.085149
21
2.534382
31
0
39
0
210
0
220
0
230
1
0
LINE
5
A3
100
AcDbEntity
8
1
62
256
6
ByLayer
370
18
48
1
60
0
100
AcDbLine
10
3.50205
20
2.534018
30
0
11
1.130705
21
2.532535
31
0
39
0
210
0
220
0
230
1
0
LINE
5
A4
100
AcDbEntity
8
SK4
62
256
6
ByLayer
370
18
48
0.05
60
0
100
AcDbLine
10
35
20
0
30
0
11
-41
21
0
31
0
39
0
210
0
220
0
230
1
0
LINE
5
A6
100
AcDbEntity
8
4
62
256
6
ByLayer
370
18
48
0.05
60
0
100
AcDbLine
10
-36
20
0
30
0
11
35
21
0
31
0
39
0
210
0
220
0
230
1
0
LINE
5
A8
100
AcDbEntity
8
80
62
256
6
ByLayer
370
18
48
1
60
0
100
AcDbLine
10
0
20
0
30
0
11
-6
21
0
31
0
39
0
210
0
220
0
230
1
0
LINE
5
A9
100
AcDbEntity
8
81
62
256
6
ByLayer
370
18
48
1
60
0
100
AcDbLine
10
30
20
0
30
0
11
36
21
0
31
0
39
0
210
0
220
0
230
1
0
LINE
5
AA
100
AcDbEntity
8
SK2
62
256
6
ByLayer
370
13
48
1
60
0
100
AcDbLine
10
30.542945
20
1.491767
30
0
11
37.926135
21
21.777443
31
0
39
0
210
0
220
0
230
1
0
LINE
5
AC
100
AcDbEntity
8
SK2
62
256
6
ByLayer
370
13
48
1
60
0
100
AcDbLine
10
30.542945
20
-1.491767
30
0
11
37.926135
21
-21.777443
31
0
39
0
210
0
220
0
230
1
0
LINE
5
AD
100
AcDbEntity
8
1
62
256
6
ByLayer
370
13
48
1
60
0
100
AcDbLine
10
36.840246
20
18.793909
30
0
11
39.936843
21
17.977563
31
0
39
0
210
0
220
0
230
1
0
LINE
5
AE
100
AcDbEntity
8
1
62
256
6
ByLayer
370
13
48
1
60
0
100
AcDbLine
10
36.840246
20
18.793909
30
0
11
39.620046
21
17.20392
31
0
39
0
210
0
220
0
230
1
0
LINE
5
AF
100
AcDbEntity
8
1
62
256
6
ByLayer
370
13
48
1
60
0
100
AcDbLine
10
39.936843
20
17.977563
30
0
11
39.620046
21
17.20392
31
0
39
0
210
0
220
0
230
1
0
LINE
5
B0
100
AcDbEntity
8
1
62
256
6
ByLayer
370
13
48
1
60
0
100
AcDbLine
10
36.840246
20
-18.793909
30
0
11
39.620043
21
-17.203921
31
0
39
0
210
0
220
0
230
1
0
LINE
5
B1
100
AcDbEntity
8
1
62
256
6
ByLayer
370
13
48
1
60
0
100
AcDbLine
10
36.840246
20
-18.793909
30
0
11
39.936846
21
-17.977562
31
0
39
0
210
0
220
0
230
1
0
LINE
5
B2
100
AcDbEntity
8
1
62
256
6
ByLayer
370
13
48
1
60
0
100
AcDbLine
10
39.620043
20
-17.203921
30
0
11
39.936846
21
-17.977562
31
0
39
0
210
0
220
0
230
1
0
MTEXT
5
106
100
AcDbEntity
8
SK2
62
256
6
ByLayer
370
18
48
1
60
0
100
AcDbMText
10
43.717388
20
-2.467451
30
0
210
0
220
0
230
1
1
\W0.7237;140.00
40
3.50012
41
0
44
1.084337
50
0
71
7
72
5
7
iso_b_vert
0
MTEXT
5
109
100
AcDbEntity
8
SK6
62
256
6
ByLayer
370
18
48
1
60
0
100
AcDbMText
10
-42.331725
20
-54.068051
30
0
210
0
220
0
230
1
1
\W0.7241;860.1-0510-016A1-GM X1BM
40
3.175
41
0
44
1.084337
50
0
71
7
72
5
7
iso_b_vert
0
DIMENSION
5
10C
100
AcDbEntity
8
SK2
62
256
6
ByLayer
370
18
48
1
60
0
100
AcDbDimension
2
_U0
10
30
20
-26.50012
30
0
11
15
21
-26.50012
31
0
70
32
71
2
72
1
41
1
210
0
220
0
230
1
3
Standard
100
AcDbAlignedDimension
13
0
23
-3
33
0
14
30
24
0
34
0
50
0
100
AcDbRotatedDimension
1001
ACAD
1000
DSTYLE
1002
{
1070
   371
1070
    13
1070
   372
1070
    13
1070
     3
1000

1070
   170
1070
     0
1070
   144
1040
1.0
1070
   277
1070
     2
1070
   284
1070
     8
1070
   278
1070
    46
1070
   146
1040
0.999966
1070
   345
1005
16
1070
   347
1005
16
1070
   346
1005
16
1070
   344
1005
10D
1070
   343
1005
10D
1070
   172
1070
     1
1070
    76
1070
     0
1070
    75
1070
     0
1070
   282
1070
     0
1070
   281
1070
     0
1070
    71
1070
     0
1070
    74
1070
     0
1070
   279
1070
     0
1070
   173
1070
     1
1070
   340
1005
107
1070
   271
1070
     1
1070
   272
1070
     2
1070
    77
1070
     1
1070
    73
1070
     1
1070
   171
1070
     3
1070
   274
1070
     4
1070
   177
1070
   150
1070
   176
1070
     9
1070
   178
1070
    43
1070
    78
1070
     8
1070
    48
1040
-0.1
1070
    41
1040
3.175
1070
   147
1040
1.75006
1070
    42
1040
1.5875
1070
    44
1040
3.175
1070
   140
1040
3.50012
1002
}
1001
ACAD_DSTYLE_DIM_LINETYPE
1070
   380
1005
16
1001
ACAD_DSTYLE_DIM_EXT1_LINETYPE
1070
   381
1005
16
1001
ACAD_DSTYLE_DIM_EXT2_LINETYPE
1070
   382
1005
16
0
DIMENSION
5
132
100
AcDbEntity
8
2
62
256
6
ByLayer
370
18
48
1
60
0
100
AcDbDimension
2
_U1
10
36.75006
20
2.55
30
0
11
36.75006
21
17.623216
31
0
70
32
71
1
72
1
41
1
210
0
220
0
230
1
3
Standard
100
AcDbAlignedDimension
13
29.0719
23
-2.55
33
0
14
29.0719
24
2.55
34
0
50
90
100
AcDbRotatedDimension
1001
ACAD
1000
DSTYLE
1002
{
1070
   371
1070
    13
1070
   372
1070
    13
1070
     3
1000

1070
   170
1070
     0
1070
   144
1040
1.0
1070
   277
1070
     2
1070
   284
1070
     8
1070
   278
1070
    46
1070
   146
1040
0.999966
1070
   345
1005
16
1070
   347
1005
16
1070
   346
1005
16
1070
   344
1005
10D
1070
   343
1005
10D
1070
   172
1070
     1
1070
    76
1070
     0
1070
    75
1070
     0
1070
   282
1070
     0
1070
   281
1070
     0
1070
    71
1070
     0
1070
    74
1070
     0
1070
   279
1070
     0
1070
   173
1070
     1
1070
   340
1005
107
1070
   271
1070
     1
1070
   272
1070
     2
1070
    77
1070
     1
1070
    73
1070
     0
1070
   171
1070
     3
1070
   274
1070
     4
1070
   177
1070
   150
1070
   176
1070
     9
1070
   178
1070
    43
1070
    78
1070
     8
1070
    48
1040
-0.1
1070
    41
1040
3.175
1070
   147
1040
1.75006
1070
    42
1040
1.5875
1070
    44
1040
3.175
1070
   140
1040
3.50012
1002
}
1001
ACAD_DSTYLE_DIM_LINETYPE
1070
   380
1005
16
1001
ACAD_DSTYLE_DIM_EXT1_LINETYPE
1070
   381
1005
16
1001
ACAD_DSTYLE_DIM_EXT2_LINETYPE
1070
   382
1005
16
0
DIMENSION
5
151
100
AcDbEntity
8
SK2
62
256
6
ByLayer
370
18
48
1
60
0
100
AcDbDimension
2
_U2
10
-39.24994
20
-3
30
0
11
-39.24994
21
17.10734
31
0
70
32
71
1
72
1
41
1
210
0
220
0
230
1
3
Standard
100
AcDbAlignedDimension
13
-36
23
3
33
0
14
-36
24
-3
34
0
50
90
100
AcDbRotatedDimension
1001
ACAD
1000
DSTYLE
1002
{
1070
   371
1070
    13
1070
   372
1070
    13
1070
     3
1000

1070
   170
1070
     0
1070
   144
1040
1.0
1070
   277
1070
     2
1070
   284
1070
     8
1070
   278
1070
    46
1070
   146
1040
0.999966
1070
   345
1005
16
1070
   347
1005
16
1070
   346
1005
16
1070
   344
1005
10D
1070
   343
1005
10D
1070
   172
1070
     1
1070
    76
1070
     0
1070
    75
1070
     0
1070
   282
1070
     0
1070
   281
1070
     0
1070
    71
1070
     0
1070
    74
1070
     0
1070
   279
1070
     0
1070
   173
1070
     1
1070
   340
1005
107
1070
   271
1070
     1
1070
   272
1070
     2
1070
    77
1070
     1
1070
    73
1070
     0
1070
   171
1070
     3
1070
   274
1070
     4
1070
   177
1070
   150
1070
   176
1070
     9
1070
   178
1070
    43
1070
    78
1070
     8
1070
    48
1040
-0.1
1070
    41
1040
3.175
1070
   147
1040
1.75006
1070
    42
1040
1.5875
1070
    44
1040
3.175
1070
   140
1040
3.50012
1002
}
1001
ACAD_DSTYLE_DIM_LINETYPE
1070
   380
1005
16
1001
ACAD_DSTYLE_DIM_EXT1_LINETYPE
1070
   381
1005
16
1001
ACAD_DSTYLE_DIM_EXT2_LINETYPE
1070
   382
1005
16
0
DIMENSION
5
16F
100
AcDbEntity
8
SK2
62
256
6
ByLayer
370
18
48
1
60
0
100
AcDbDimension
2
_U3
10
0
20
-26.50012
30
0
11
-18
21
-26.50012
31
0
70
32
71
1
72
1
41
1
210
0
220
0
230
1
3
Standard
100
AcDbAlignedDimension
13
-36
23
-3
33
0
14
0
24
-3
34
0
50
0
100
AcDbRotatedDimension
1001
ACAD
1000
DSTYLE
1002
{
1070
   371
1070
    13
1070
   372
1070
    13
1070
     3
1000

1070
   170
1070
     0
1070
   144
1040
1.0
1070
   277
1070
     2
1070
   284
1070
     8
1070
   278
1070
    46
1070
   146
1040
0.999966
1070
   345
1005
16
1070
   347
1005
16
1070
   346
1005
16
1070
   344
1005
10D
1070
   343
1005
10D
1070
   172
1070
     1
1070
    76
1070
     0
1070
    75
1070
     0
1070
   282
1070
     0
1070
   281
1070
     0
1070
    71
1070
     0
1070
    74
1070
     0
1070
   279
1070
     0
1070
   173
1070
     1
1070
   340
1005
107
1070
   271
1070
     1
1070
   272
1070
     2
1070
    77
1070
     1
1070
    73
1070
     1
1070
   171
1070
     3
1070
   274
1070
     4
1070
   177
1070
   150
1070
   176
1070
     9
1070
   178
1070
    43
1070
    78
1070
     8
1070
    48
1040
-0.1
1070
    41
1040
3.175
1070
   147
1040
1.75006
1070
    42
1040
1.5875
1070
    44
1040
3.175
1070
   140
1040
3.50012
1002
}
1001
ACAD_DSTYLE_DIM_LINETYPE
1070
   380
1005
16
1001
ACAD_DSTYLE_DIM_EXT1_LINETYPE
1070
   381
1005
16
1001
ACAD_DSTYLE_DIM_EXT2_LINETYPE
1070
   382
1005
16
0
DIMENSION
5
18B
100
AcDbEntity
8
SK2
62
256
6
ByLayer
370
18
48
1
60
0
100
AcDbDimension
2
_U4
10
30
20
-17.74982
30
0
11
16
21
-17.74982
31
0
70
32
71
1
72
1
41
1
210
0
220
0
230
1
3
Standard
100
AcDbAlignedDimension
13
2
23
3.05
33
0
14
30
24
0
34
0
50
0
100
AcDbRotatedDimension
1001
ACAD
1000
DSTYLE
1002
{
1070
   371
1070
    13
1070
   372
1070
    13
1070
     3
1000

1070
   170
1070
     0
1070
   144
1040
1.0
1070
   277
1070
     2
1070
   284
1070
     8
1070
   278
1070
    46
1070
   146
1040
0.999966
1070
   345
1005
16
1070
   347
1005
16
1070
   346
1005
16
1070
   344
1005
10D
1070
   343
1005
10D
1070
   172
1070
     1
1070
    76
1070
     0
1070
    75
1070
     0
1070
   282
1070
     0
1070
   281
1070
     0
1070
    71
1070
     0
1070
    74
1070
     0
1070
   279
1070
     0
1070
   173
1070
     1
1070
   340
1005
107
1070
   271
1070
     1
1070
   272
1070
     2
1070
    77
1070
     1
1070
    73
1070
     1
1070
   171
1070
     3
1070
   274
1070
     4
1070
   177
1070
   150
1070
   176
1070
     9
1070
   178
1070
    43
1070
    78
1070
     8
1070
    48
1040
-0.1
1070
    41
1040
3.175
1070
   147
1040
1.75006
1070
    42
1040
1.5875
1070
    44
1040
3.175
1070
   140
1040
3.50012
1002
}
1001
ACAD_DSTYLE_DIM_LINETYPE
1070
   380
1005
16
1001
ACAD_DSTYLE_DIM_EXT1_LINETYPE
1070
   381
1005
16
1001
ACAD_DSTYLE_DIM_EXT2_LINETYPE
1070
   382
1005
16
0
DIMENSION
5
1A7
100
AcDbEntity
8
SK2
62
256
6
ByLayer
370
18
48
1
60
0
100
AcDbDimension
2
_U5
10
30
20
-9.82
30
0
11
21.9
21
-9.82
31
0
70
32
71
1
72
1
41
1
210
0
220
0
230
1
3
Standard
100
AcDbAlignedDimension
13
13.8
23
-2.55
33
0
14
30
24
0
34
0
50
0
100
AcDbRotatedDimension
1001
ACAD
1000
DSTYLE
1002
{
1070
   371
1070
    13
1070
   372
1070
    13
1070
     3
1000

1070
   170
1070
     0
1070
   144
1040
1.0
1070
   277
1070
     2
1070
   284
1070
     8
1070
   278
1070
    46
1070
   146
1040
1.25
1070
   345
1005
16
1070
   347
1005
16
1070
   346
1005
16
1070
   344
1005
10D
1070
   343
1005
10D
1070
   172
1070
     1
1070
    76
1070
     0
1070
    75
1070
     0
1070
   282
1070
     0
1070
   281
1070
     0
1070
    71
1070
     0
1070
    74
1070
     0
1070
   279
1070
     0
1070
   173
1070
     1
1070
   340
1005
107
1070
   271
1070
     1
1070
   272
1070
     2
1070
    77
1070
     1
1070
    73
1070
     1
1070
   171
1070
     3
1070
   274
1070
     4
1070
   177
1070
   150
1070
   176
1070
     9
1070
   178
1070
    43
1070
    78
1070
     8
1070
    48
1040
-0.1
1070
    41
1040
3.175
1070
   147
1040
0.42
1070
    42
1040
1.5875
1070
    44
1040
0.5
1070
   140
1040
2.8
1002
}
1001
ACAD_DSTYLE_DIM_LINETYPE
1070
   380
1005
16
1001
ACAD_DSTYLE_DIM_EXT1_LINETYPE
1070
   381
1005
16
1001
ACAD_DSTYLE_DIM_EXT2_LINETYPE
1070
   382
1005
16
0
DIMENSION
5
1C3
100
AcDbEntity
8
SK2
62
256
6
ByLayer
370
18
48
1
60
0
100
AcDbDimension
2
_U6
10
30
20
-36.50012
30
0
11
-3
21
-36.50012
31
0
70
32
71
1
72
1
41
1
210
0
220
0
230
1
3
Standard
100
AcDbAlignedDimension
13
-36
23
0
33
0
14
30
24
0
34
0
50
0
100
AcDbRotatedDimension
1001
ACAD
1000
DSTYLE
1002
{
1070
   371
1070
    13
1070
   372
1070
    13
1070
     3
1000

1070
   170
1070
     0
1070
   144
1040
1.0
1070
   277
1070
     2
1070
   284
1070
     8
1070
   278
1070
    46
1070
   146
1040
0.999966
1070
   345
1005
16
1070
   347
1005
16
1070
   346
1005
16
1070
   344
1005
10D
1070
   343
1005
10D
1070
   172
1070
     1
1070
    76
1070
     0
1070
    75
1070
     0
1070
   282
1070
     0
1070
   281
1070
     0
1070
    71
1070
     0
1070
    74
1070
     0
1070
   279
1070
     0
1070
   173
1070
     1
1070
   340
1005
107
1070
   271
1070
     1
1070
   272
1070
     2
1070
    77
1070
     1
1070
    73
1070
     1
1070
   171
1070
     3
1070
   274
1070
     4
1070
   177
1070
   150
1070
   176
1070
     9
1070
   178
1070
    43
1070
    78
1070
     8
1070
    48
1040
-0.1
1070
    41
1040
3.175
1070
   147
1040
1.75006
1070
    42
1040
1.5875
1070
    44
1040
3.175
1070
   140
1040
3.50012
1002
}
1001
ACAD_DSTYLE_DIM_LINETYPE
1070
   380
1005
16
1001
ACAD_DSTYLE_DIM_EXT1_LINETYPE
1070
   381
1005
16
1001
ACAD_DSTYLE_DIM_EXT2_LINETYPE
1070
   382
1005
16
0
ENDSEC
0
SECTION
2
OBJECTS
0
DICTIONARY
5
24f
330
0
100
AcDbDictionary
280
0
281
1
3
ACAD_GROUP
350
250
3
ACAD_MLINESTYLE
350
251
0
DICTIONARY
5
250
330
0
100
AcDbDictionary
280
0
281
1
0
DICTIONARY
5
251
330
0
100
AcDbDictionary
280
0
281
1
3
Standard
350
18
0
MLINESTYLE
5
18
330
251
100
AcDbMlineStyle
2
Standard
70
0
3

62
256
51
90
52
90
71
2
49
-0.5
62
256
6
ByLayer
49
0.5
62
256
6
ByLayer
0
RASTERVARIABLES
5
23d
330

100
AcDbRasterVariables
90
0
70
1
71
1
72
1
0
ENDSEC
0
EOF
