0
SECTION
2
HEADER
9
$ACADVER
1
AC1015
9
$DWGCODEPAGE
3
ANSI_1252
9
$HANDSEED
5
26a
9
$ANGBASE
50
0
9
$ANGDIR
70
0
9
$ATTMODE
70
1
9
$AUNITS
70
0
9
$AUPREC
70
0
9
$CECOLOR
62
256
9
$CELTSCALE
40
1
9
$CELTYPE
6
ByLayer
9
$CELWEIGHT
370
18
9
$CLAYER
8
0
9
$CMLJUST
70
0
9
$CMLSCALE
40
1
9
$CMLSTYLE
2
Standard
9
$DIMSTYLE
2
Standard
9
$TEXTSIZE
40
0.2
9
$TEXTSTYLE
7
Standard
9
$LUNITS
70
2
9
$LUPREC
70
4
9
$EXTNAMES
290
1
9
$INSUNITS
70
4
9
$LTSCALE
40
1
9
$LWDISPLAY
290
1
9
$PDMODE
70
0
9
$PDSIZE
40
0
9
$PLINEGEN
70
0
0
ENDSEC
0
SECTION
2
CLASSES
0
CLASS
1
RASTERVARIABLES
2
AcDbRasterVariables
3
ISM
90
0
280
0
281
0
0
ENDSEC
0
SECTION
2
TABLES
0
TABLE
2
VPORT
5
260
100
AcDbSymbolTable
0
VPORT
5
1
100
AcDbSymbolTableRecord
100
AcDbViewportTableRecord
2
*Active
70
0
10
0
20
0
11
1
21
1
12
-1
22
1
13
0
23
0
14
0.5
24
0.5
15
10
25
10
16
0
26
0
36
1
17
0
27
0
37
0
0
ENDTAB
0
TABLE
2
LTYPE
5
261
100
AcDbSymbolTable
0
LTYPE
5
14
100
AcDbSymbolTableRecord
100
AcDbLinetypeTableRecord
70
0
2
ByBlock
3

72
65
73
0
40
0
0
LTYPE
5
15
100
AcDbSymbolTableRecord
100
AcDbLinetypeTableRecord
70
0
2
ByLayer
3

72
65
73
0
40
0
0
LTYPE
5
16
100
AcDbSymbolTableRecord
100
AcDbLinetypeTableRecord
70
0
2
Continuous
3
Solid line
72
65
73
0
40
0
0
LTYPE
5
6E
100
AcDbSymbolTableRecord
100
AcDbLinetypeTableRecord
70
0
2
CENTER
3
____ _ ____ _ ____ _ ____
72
65
73
4
40
47.5
49
22
74
0
49
-8.5
74
0
49
8.5
74
0
49
-8.5
74
0
0
LTYPE
5
6F
100
AcDbSymbolTableRecord
100
AcDbLinetypeTableRecord
70
0
2
DASHED
3
__ __ __ __ __ __ __ __ __
72
65
73
2
40
25.72
49
12.86
74
0
49
-12.86
74
0
0
ENDTAB
0
TABLE
2
LAYER
5
262
100
AcDbSymbolTable
0
LAYER
5
10
100
AcDbSymbolTableRecord
100
AcDbLayerTableRecord
2
0
70
0
62
7
6
Continuous
290
1
370
-3
390
0
0
LAYER
5
71
100
AcDbSymbolTableRecord
100
AcDbLayerTableRecord
2
80
70
0
62
-6
6
Continuous
290
1
370
-3
390
0
0
LAYER
5
73
100
AcDbSymbolTableRecord
100
AcDbLayerTableRecord
2
81
70
0
62
-3
6
Continuous
290
1
370
-3
390
0
0
LAYER
5
75
100
AcDbSymbolTableRecord
100
AcDbLayerTableRecord
2
1
70
0
62
4
6
Continuous
290
1
370
-3
390
0
0
LAYER
5
A5
100
AcDbSymbolTableRecord
100
AcDbLayerTableRecord
2
4
70
0
62
-2
6
CENTER
290
1
370
-3
390
0
0
LAYER
5
123
100
AcDbSymbolTableRecord
100
AcDbLayerTableRecord
2
Defpoints
70
0
62
7
6
Continuous
290
0
370
-3
390
0
0
LAYER
5
150
100
AcDbSymbolTableRecord
100
AcDbLayerTableRecord
2
2
70
0
62
7
6
Continuous
290
1
370
-3
390
0
0
LAYER
5
24c
100
AcDbSymbolTableRecord
100
AcDbLayerTableRecord
2
SK1
70
0
62
4
6
Continuous
290
1
370
-3
390
0
0
LAYER
5
24d
100
AcDbSymbolTableRecord
100
AcDbLayerTableRecord
2
SK4
70
0
62
2
6
CENTER
290
1
370
-3
390
0
0
LAYER
5
24e
100
AcDbSymbolTableRecord
100
AcDbLayerTableRecord
2
SK2
70
0
62
7
6
Continuous
290
1
370
-3
390
0
0
LAYER
5
24f
100
AcDbSymbolTableRecord
100
AcDbLayerTableRecord
2
SK6
70
0
62
5
6
Continuous
290
1
370
-3
390
0
0
ENDTAB
0
TABLE
2
STYLE
5
263
100
AcDbSymbolTable
0
STYLE
5
11
100
AcDbSymbolTableRecord
100
AcDbTextStyleTableRecord
2
Standard
3
txt
70
0
71
0
40
0
41
1
42
0
50
0
0
STYLE
5
114
100
AcDbSymbolTableRecord
100
AcDbTextStyleTableRecord
2
iso_b_vert
3
simplex.shx
70
0
71
0
40
0
41
1
42
0
50
0
0
STYLE
5
115
100
AcDbSymbolTableRecord
100
AcDbTextStyleTableRecord
2
DWGDirectTextStyle
3
simplex
70
0
71
0
40
0
41
1
42
0
50
0
0
ENDTAB
0
TABLE
2
DIMSTYLE
5
264
100
AcDbSymbolTable
100
AcDbDimStyleTable
0
DIMSTYLE
105
27
100
AcDbSymbolTableRecord
100
AcDbDimStyleTableRecord
2
Standard
70
0
3
<>
41
0.18
42
0.0625
44
0.18
140
0.18
147
0.09
73
0
74
0
77
1
271
2
275
0
278
52
280
0
340
11
0
ENDTAB
0
TABLE
2
VIEW
5
265
100
AcDbSymbolTable
0
ENDTAB
0
TABLE
2
UCS
5
266
100
AcDbSymbolTable
0
ENDTAB
0
TABLE
2
APPID
5
267
100
AcDbSymbolTable
0
APPID
5
12
100
AcDbSymbolTableRecord
100
AcDbRegAppTableRecord
2
ACAD
70
0
0
APPID
5
118
100
AcDbSymbolTableRecord
100
AcDbRegAppTableRecord
2
ACAD_DSTYLE_DIMBREAK
70
0
0
APPID
5
20B
100
AcDbSymbolTableRecord
100
AcDbRegAppTableRecord
2
ACAD_DSTYLE_DIM_LINETYPE
70
0
0
APPID
5
20C
100
AcDbSymbolTableRecord
100
AcDbRegAppTableRecord
2
ACAD_DSTYLE_DIM_EXT1_LINETYPE
70
0
0
APPID
5
20D
100
AcDbSymbolTableRecord
100
AcDbRegAppTableRecord
2
ACAD_DSTYLE_DIM_EXT2_LINETYPE
70
0
0
APPID
5
248
100
AcDbSymbolTableRecord
100
AcDbRegAppTableRecord
2
ACAD_MLEADERVER
70
0
0
ENDTAB
0
TABLE
2
BLOCK_RECORD
5
268
100
AcDbSymbolTable
0
BLOCK_RECORD
5
1F
100
AcDbSymbolTableRecord
100
AcDbBlockTableRecord
2
*Model_Space
340
0
70
0
0
BLOCK_RECORD
5
1B
100
AcDbSymbolTableRecord
100
AcDbBlockTableRecord
2
*Paper_Space
340
0
70
0
0
BLOCK_RECORD
5
23
100
AcDbSymbolTableRecord
100
AcDbBlockTableRecord
2
*Paper_Space0
340
0
70
0
0
BLOCK_RECORD
5
11A
100
AcDbSymbolTableRecord
100
AcDbBlockTableRecord
2
_Closed
340
0
70
0
0
BLOCK_RECORD
5
124
100
AcDbSymbolTableRecord
100
AcDbBlockTableRecord
2
*D2
340
0
70
0
0
BLOCK_RECORD
5
130
100
AcDbSymbolTableRecord
100
AcDbBlockTableRecord
2
_U0
340
0
70
0
0
BLOCK_RECORD
5
142
100
AcDbSymbolTableRecord
100
AcDbBlockTableRecord
2
*D4
340
0
70
0
0
BLOCK_RECORD
5
151
100
AcDbSymbolTableRecord
100
AcDbBlockTableRecord
2
_U1
340
0
70
0
0
BLOCK_RECORD
5
161
100
AcDbSymbolTableRecord
100
AcDbBlockTableRecord
2
*D6
340
0
70
0
0
BLOCK_RECORD
5
16F
100
AcDbSymbolTableRecord
100
AcDbBlockTableRecord
2
_U2
340
0
70
0
0
BLOCK_RECORD
5
17F
100
AcDbSymbolTableRecord
100
AcDbBlockTableRecord
2
*D8
340
0
70
0
0
BLOCK_RECORD
5
18B
100
AcDbSymbolTableRecord
100
AcDbBlockTableRecord
2
_U3
340
0
70
0
0
BLOCK_RECORD
5
19B
100
AcDbSymbolTableRecord
100
AcDbBlockTableRecord
2
*D10
340
0
70
0
0
BLOCK_RECORD
5
1A7
100
AcDbSymbolTableRecord
100
AcDbBlockTableRecord
2
_U4
340
0
70
0
0
BLOCK_RECORD
5
1B7
100
AcDbSymbolTableRecord
100
AcDbBlockTableRecord
2
*D12
340
0
70
0
0
BLOCK_RECORD
5
1C4
100
AcDbSymbolTableRecord
100
AcDbBlockTableRecord
2
_U5
340
0
70
0
0
BLOCK_RECORD
5
1D4
100
AcDbSymbolTableRecord
100
AcDbBlockTableRecord
2
*D14
340
0
70
0
0
BLOCK_RECORD
5
1E0
100
AcDbSymbolTableRecord
100
AcDbBlockTableRecord
2
_U6
340
0
70
0
0
ENDTAB
0
ENDSEC
0
SECTION
2
BLOCKS
0
BLOCK
5
20
100
AcDbEntity
8
0
100
AcDbBlockBegin
2
*Model_Space
70
0
10
0
20
0
30
0
3
*Model_Space
0
ENDBLK
5
21
100
AcDbEntity
8
0
100
AcDbBlockEnd
0
BLOCK
5
1C
100
AcDbEntity
8
0
100
AcDbBlockBegin
2
*Paper_Space
70
0
10
0
20
0
30
0
3
*Paper_Space
0
ENDBLK
5
1D
100
AcDbEntity
8
0
100
AcDbBlockEnd
0
BLOCK
5
24
100
AcDbEntity
8
0
100
AcDbBlockBegin
2
*Paper_Space0
70
0
10
0
20
0
30
0
3
*Paper_Space0
0
ENDBLK
5
25
100
AcDbEntity
8
0
100
AcDbBlockEnd
0
BLOCK
5
11B
100
AcDbEntity
8
0
100
AcDbBlockBegin
2
_Closed
70
0
10
0
20
0
30
0
3
_Closed
0
LINE
5
11D
100
AcDbEntity
8
0
62
256
6
ByLayer
370
-2
48
1
60
0
100
AcDbLine
10
-1
20
0.166667
30
0
11
0
21
0
31
0
39
0
210
0
220
0
230
1
0
LINE
5
11E
100
AcDbEntity
8
0
62
256
6
ByLayer
370
-2
48
1
60
0
100
AcDbLine
10
0
20
0
30
0
11
-1
21
-0.166667
31
0
39
0
210
0
220
0
230
1
0
LINE
5
11F
100
AcDbEntity
8
0
62
256
6
ByLayer
370
-2
48
1
60
0
100
AcDbLine
10
-1
20
0.166667
30
0
11
-1
21
-0.166667
31
0
39
0
210
0
220
0
230
1
0
LINE
5
120
100
AcDbEntity
8
0
62
256
6
ByLayer
370
-2
48
1
60
0
100
AcDbLine
10
0
20
0
30
0
11
-1
21
0
31
0
39
0
210
0
220
0
230
1
0
ENDBLK
5
11C
100
AcDbEntity
8
0
100
AcDbBlockEnd
0
BLOCK
5
125
100
AcDbEntity
8
0
100
AcDbBlockBegin
2
*D2
70
1
10
0
20
0
30
0
3
*D2
0
LINE
5
127
100
AcDbEntity
8
0
62
256
6
ByLayer
370
-2
48
1
60
0
100
AcDbLine
10
0
20
-4.5875
30
0
11
0
21
-29.67512
31
0
39
0
210
0
220
0
230
1
0
LINE
5
128
100
AcDbEntity
8
0
62
256
6
ByLayer
370
-2
48
1
60
0
100
AcDbLine
10
26
20
-1.5875
30
0
11
26
21
-29.67512
31
0
39
0
210
0
220
0
230
1
0
LINE
5
129
100
AcDbEntity
8
0
62
256
6
ByLayer
370
-2
48
1
60
0
100
AcDbLine
10
3.175
20
-26.50012
30
0
11
22.825
21
-26.50012
31
0
39
0
210
0
220
0
230
1
0
SOLID
5
12A
100
AcDbEntity
8
0
62
256
6
ByLayer
370
-1
48
1
60
0
100
AcDbTrace
10
3.175
20
-25.970953
30
0
11
3.175
21
-27.029287
31
0
12
0
22
-26.50012
32
0
13
0
23
-26.50012
33
0
39
0
210
0
220
0
230
1
0
SOLID
5
12B
100
AcDbEntity
8
0
62
256
6
ByLayer
370
-1
48
1
60
0
100
AcDbTrace
10
22.825
20
-27.029287
30
0
11
22.825
21
-25.970953
31
0
12
26
22
-26.50012
32
0
13
26
23
-26.50012
33
0
39
0
210
0
220
0
230
1
0
MTEXT
5
12C
100
AcDbEntity
8
0
62
256
6
ByLayer
370
18
48
1
60
0
100
AcDbMText
10
13
20
-19.193619
30
0
210
0
220
0
230
1
1
\A1;26
40
3.50012
41
0
44
1
50
0
71
5
72
5
7
iso_b_vert
0
POINT
5
12D
100
AcDbEntity
8
Defpoints
62
0
6
ByLayer
370
-1
48
1
60
0
100
AcDbPoint
10
0
20
-3
30
0
39
0
210
0
220
0
230
1
50
360
0
POINT
5
12E
100
AcDbEntity
8
Defpoints
62
0
6
ByLayer
370
-1
48
1
60
0
100
AcDbPoint
10
26
20
0
30
0
39
0
210
0
220
0
230
1
50
360
0
POINT
5
12F
100
AcDbEntity
8
Defpoints
62
0
6
ByLayer
370
-1
48
1
60
0
100
AcDbPoint
10
26
20
-26.50012
30
0
39
0
210
0
220
0
230
1
50
360
0
ENDBLK
5
126
100
AcDbEntity
8
0
100
AcDbBlockEnd
0
BLOCK
5
13D
100
AcDbEntity
8
0
100
AcDbBlockBegin
2
_U0
70
0
10
0
20
0
30
0
3
_U0
0
MTEXT
5
131
100
AcDbEntity
8
SK2
62
256
6
ByLayer
370
18
48
1
60
0
100
AcDbMText
10
7.770389
20
-25.467451
30
0
210
0
220
0
230
1
1
\W0.7468;26.00
40
3.50012
41
0
44
1.084337
50
0
71
7
72
5
7
iso_b_vert
0
MTEXT
5
132
100
AcDbEntity
8
SK2
62
256
6
ByLayer
370
18
48
1
60
0
100
AcDbMText
10
4.244329
20
-25.400814
30
0
210
0
220
0
230
1
1
\W0.1790;(
40
3.175
41
0
44
1.084337
50
0
71
7
72
5
7
iso_b_vert
0
MTEXT
5
133
100
AcDbEntity
8
SK2
62
256
6
ByLayer
370
18
48
1
60
0
100
AcDbMText
10
21.758393
20
-25.400814
30
0
210
0
220
0
230
1
1
\W0.1969;)
40
3.175
41
0
44
1.084337
50
0
71
7
72
5
7
iso_b_vert
0
LINE
5
134
100
AcDbEntity
8
SK2
62
256
6
ByLayer
370
13
48
1
60
0
100
AcDbLine
10
0
20
-4.5875
30
0
11
0
21
-29.67512
31
0
39
0
210
0
220
0
230
1
0
LINE
5
135
100
AcDbEntity
8
SK2
62
256
6
ByLayer
370
13
48
1
60
0
100
AcDbLine
10
26
20
-1.5875
30
0
11
26
21
-29.67512
31
0
39
0
210
0
220
0
230
1
0
LINE
5
136
100
AcDbEntity
8
SK2
62
256
6
ByLayer
370
13
48
1
60
0
100
AcDbLine
10
0
20
-26.50012
30
0
11
26
21
-26.50012
31
0
39
0
210
0
220
0
230
1
0
LINE
5
137
100
AcDbEntity
8
SK2
62
256
6
ByLayer
370
13
48
1
60
0
100
AcDbLine
10
0
20
-26.50012
30
0
11
3.174998
21
-26.082123
31
0
39
0
210
0
220
0
230
1
0
LINE
5
138
100
AcDbEntity
8
SK2
62
256
6
ByLayer
370
13
48
1
60
0
100
AcDbLine
10
0
20
-26.50012
30
0
11
3.175002
21
-26.918117
31
0
39
0
210
0
220
0
230
1
0
LINE
5
139
100
AcDbEntity
8
SK2
62
256
6
ByLayer
370
13
48
1
60
0
100
AcDbLine
10
3.174998
20
-26.082123
30
0
11
3.175002
21
-26.918117
31
0
39
0
210
0
220
0
230
1
0
LINE
5
13A
100
AcDbEntity
8
SK2
62
256
6
ByLayer
370
13
48
1
60
0
100
AcDbLine
10
26
20
-26.50012
30
0
11
22.825002
21
-26.918117
31
0
39
0
210
0
220
0
230
1
0
LINE
5
13B
100
AcDbEntity
8
SK2
62
256
6
ByLayer
370
13
48
1
60
0
100
AcDbLine
10
26
20
-26.50012
30
0
11
22.824998
21
-26.082123
31
0
39
0
210
0
220
0
230
1
0
LINE
5
13C
100
AcDbEntity
8
SK2
62
256
6
ByLayer
370
13
48
1
60
0
100
AcDbLine
10
22.825002
20
-26.918117
30
0
11
22.824998
21
-26.082123
31
0
39
0
210
0
220
0
230
1
0
ENDBLK
5
13E
100
AcDbEntity
8
0
100
AcDbBlockEnd
0
BLOCK
5
143
100
AcDbEntity
8
0
100
AcDbBlockBegin
2
*D4
70
1
10
0
20
0
30
0
3
*D4
0
LINE
5
145
100
AcDbEntity
8
0
62
256
6
ByLayer
370
-2
48
1
60
0
100
AcDbLine
10
26.9142
20
-1.85
30
0
11
35.92506
21
-1.85
31
0
39
0
210
0
220
0
230
1
0
LINE
5
146
100
AcDbEntity
8
0
62
256
6
ByLayer
370
-2
48
1
60
0
100
AcDbLine
10
26.9142
20
1.85
30
0
11
35.92506
21
1.85
31
0
39
0
210
0
220
0
230
1
0
LINE
5
147
100
AcDbEntity
8
0
62
256
6
ByLayer
370
-2
48
1
60
0
100
AcDbLine
10
32.75006
20
1.85
30
0
11
32.75006
21
26.646466
31
0
39
0
210
0
220
0
230
1
0
LINE
5
148
100
AcDbEntity
8
0
62
256
6
ByLayer
370
-2
48
1
60
0
100
AcDbLine
10
32.75006
20
-5.025
30
0
11
32.75006
21
-8.2
31
0
39
0
210
0
220
0
230
1
0
LINE
5
149
100
AcDbEntity
8
0
62
256
6
ByLayer
370
-2
48
1
60
0
100
AcDbLine
10
32.75006
20
5.025
30
0
11
32.75006
21
8.2
31
0
39
0
210
0
220
0
230
1
0
SOLID
5
14A
100
AcDbEntity
8
0
62
256
6
ByLayer
370
-1
48
1
60
0
100
AcDbTrace
10
33.279227
20
-5.025
30
0
11
32.220893
21
-5.025
31
0
12
32.75006
22
-1.85
32
0
13
32.75006
23
-1.85
33
0
39
0
210
0
220
0
230
1
0
SOLID
5
14B
100
AcDbEntity
8
0
62
256
6
ByLayer
370
-1
48
1
60
0
100
AcDbTrace
10
32.220893
20
5.025
30
0
11
33.279227
21
5.025
31
0
12
32.75006
22
1.85
32
0
13
32.75006
23
1.85
33
0
39
0
210
0
220
0
230
1
0
MTEXT
5
14C
100
AcDbEntity
8
0
62
256
6
ByLayer
370
18
48
1
60
0
100
AcDbMText
10
25.443559
20
17.423233
30
0
210
0
220
0
230
1
1
\A1;3.7
40
3.50012
41
0
44
1
50
90
71
5
72
5
7
iso_b_vert
0
POINT
5
14D
100
AcDbEntity
8
Defpoints
62
0
6
ByLayer
370
-1
48
1
60
0
100
AcDbPoint
10
25.3267
20
-1.85
30
0
39
0
210
0
220
0
230
1
50
360
0
POINT
5
14E
100
AcDbEntity
8
Defpoints
62
0
6
ByLayer
370
-1
48
1
60
0
100
AcDbPoint
10
25.3267
20
1.85
30
0
39
0
210
0
220
0
230
1
50
360
0
POINT
5
14F
100
AcDbEntity
8
Defpoints
62
0
6
ByLayer
370
-1
48
1
60
0
100
AcDbPoint
10
32.75006
20
1.85
30
0
39
0
210
0
220
0
230
1
50
360
0
ENDBLK
5
144
100
AcDbEntity
8
0
100
AcDbBlockEnd
0
BLOCK
5
15C
100
AcDbEntity
8
0
100
AcDbBlockBegin
2
_U1
70
0
10
0
20
0
30
0
3
_U1
0
MTEXT
5
152
100
AcDbEntity
8
2
62
256
6
ByLayer
370
18
48
1
60
0
100
AcDbMText
10
32.060403
20
6.007505
30
0
210
0
220
0
230
1
1
\W0.7346;3.70
40
3.50012
41
0
44
1.084337
50
90
71
7
72
5
7
iso_b_vert
0
LINE
5
153
100
AcDbEntity
8
2
62
256
6
ByLayer
370
13
48
1
60
0
100
AcDbLine
10
26.9142
20
-1.85
30
0
11
35.92506
21
-1.85
31
0
39
0
210
0
220
0
230
1
0
LINE
5
154
100
AcDbEntity
8
2
62
256
6
ByLayer
370
13
48
1
60
0
100
AcDbLine
10
26.9142
20
1.85
30
0
11
35.92506
21
1.85
31
0
39
0
210
0
220
0
230
1
0
LINE
5
155
100
AcDbEntity
8
2
62
256
6
ByLayer
370
13
48
1
60
0
100
AcDbLine
10
32.75006
20
14.06468
30
0
11
32.75006
21
-10.6003
31
0
39
0
210
0
220
0
230
1
0
LINE
5
156
100
AcDbEntity
8
2
62
256
6
ByLayer
370
13
48
1
60
0
100
AcDbLine
10
32.75006
20
-1.85
30
0
11
33.168057
21
-5.024998
31
0
39
0
210
0
220
0
230
1
0
LINE
5
157
100
AcDbEntity
8
2
62
256
6
ByLayer
370
13
48
1
60
0
100
AcDbLine
10
32.75006
20
-1.85
30
0
11
32.332063
21
-5.025002
31
0
39
0
210
0
220
0
230
1
0
LINE
5
158
100
AcDbEntity
8
2
62
256
6
ByLayer
370
13
48
1
60
0
100
AcDbLine
10
33.168057
20
-5.024998
30
0
11
32.332063
21
-5.025002
31
0
39
0
210
0
220
0
230
1
0
LINE
5
159
100
AcDbEntity
8
2
62
256
6
ByLayer
370
13
48
1
60
0
100
AcDbLine
10
32.75006
20
1.85
30
0
11
32.332063
21
5.024998
31
0
39
0
210
0
220
0
230
1
0
LINE
5
15A
100
AcDbEntity
8
2
62
256
6
ByLayer
370
13
48
1
60
0
100
AcDbLine
10
32.75006
20
1.85
30
0
11
33.168057
21
5.025002
31
0
39
0
210
0
220
0
230
1
0
LINE
5
15B
100
AcDbEntity
8
2
62
256
6
ByLayer
370
13
48
1
60
0
100
AcDbLine
10
32.332063
20
5.024998
30
0
11
33.168057
21
5.025002
31
0
39
0
210
0
220
0
230
1
0
ENDBLK
5
15D
100
AcDbEntity
8
0
100
AcDbBlockEnd
0
BLOCK
5
162
100
AcDbEntity
8
0
100
AcDbBlockBegin
2
*D6
70
1
10
0
20
0
30
0
3
*D6
0
LINE
5
164
100
AcDbEntity
8
0
62
256
6
ByLayer
370
-2
48
1
60
0
100
AcDbLine
10
-37.5875
20
3
30
0
11
-42.42494
21
3
31
0
39
0
210
0
220
0
230
1
0
LINE
5
165
100
AcDbEntity
8
0
62
256
6
ByLayer
370
-2
48
1
60
0
100
AcDbLine
10
-37.5875
20
-3
30
0
11
-42.42494
21
-3
31
0
39
0
210
0
220
0
230
1
0
LINE
5
166
100
AcDbEntity
8
0
62
256
6
ByLayer
370
-2
48
1
60
0
100
AcDbLine
10
-39.24994
20
3
30
0
11
-39.24994
21
23.747151
31
0
39
0
210
0
220
0
230
1
0
LINE
5
167
100
AcDbEntity
8
0
62
256
6
ByLayer
370
-2
48
1
60
0
100
AcDbLine
10
-39.24994
20
6.175
30
0
11
-39.24994
21
9.35
31
0
39
0
210
0
220
0
230
1
0
LINE
5
168
100
AcDbEntity
8
0
62
256
6
ByLayer
370
-2
48
1
60
0
100
AcDbLine
10
-39.24994
20
-6.175
30
0
11
-39.24994
21
-9.35
31
0
39
0
210
0
220
0
230
1
0
SOLID
5
169
100
AcDbEntity
8
0
62
256
6
ByLayer
370
-1
48
1
60
0
100
AcDbTrace
10
-39.779107
20
6.175
30
0
11
-38.720773
21
6.175
31
0
12
-39.24994
22
3
32
0
13
-39.24994
23
3
33
0
39
0
210
0
220
0
230
1
0
SOLID
5
16A
100
AcDbEntity
8
0
62
256
6
ByLayer
370
-1
48
1
60
0
100
AcDbTrace
10
-38.720773
20
-6.175
30
0
11
-39.779107
21
-6.175
31
0
12
-39.24994
22
-3
32
0
13
-39.24994
23
-3
33
0
39
0
210
0
220
0
230
1
0
MTEXT
5
16B
100
AcDbEntity
8
0
62
256
6
ByLayer
370
18
48
1
60
0
100
AcDbMText
10
-46.556441
20
17.10734
30
0
210
0
220
0
230
1
1
\A1;6
40
3.50012
41
0
44
1
50
90
71
5
72
5
7
iso_b_vert
0
POINT
5
16C
100
AcDbEntity
8
Defpoints
62
0
6
ByLayer
370
-1
48
1
60
0
100
AcDbPoint
10
-36
20
3
30
0
39
0
210
0
220
0
230
1
50
360
0
POINT
5
16D
100
AcDbEntity
8
Defpoints
62
0
6
ByLayer
370
-1
48
1
60
0
100
AcDbPoint
10
-36
20
-3
30
0
39
0
210
0
220
0
230
1
50
360
0
POINT
5
16E
100
AcDbEntity
8
Defpoints
62
0
6
ByLayer
370
-1
48
1
60
0
100
AcDbPoint
10
-39.24994
20
-3
30
0
39
0
210
0
220
0
230
1
50
360
0
ENDBLK
5
163
100
AcDbEntity
8
0
100
AcDbBlockEnd
0
BLOCK
5
17A
100
AcDbEntity
8
0
100
AcDbBlockBegin
2
_U2
70
0
10
0
20
0
30
0
3
_U2
0
MTEXT
5
170
100
AcDbEntity
8
SK2
62
256
6
ByLayer
370
18
48
1
60
0
100
AcDbMText
10
-39.939597
20
13.157505
30
0
210
0
220
0
230
1
1
\W0.7346;6.00
40
3.50012
41
0
44
1.084337
50
90
71
7
72
5
7
iso_b_vert
0
LINE
5
171
100
AcDbEntity
8
SK2
62
256
6
ByLayer
370
13
48
1
60
0
100
AcDbLine
10
-37.5875
20
3
30
0
11
-42.42494
21
3
31
0
39
0
210
0
220
0
230
1
0
LINE
5
172
100
AcDbEntity
8
SK2
62
256
6
ByLayer
370
13
48
1
60
0
100
AcDbLine
10
-37.5875
20
-3
30
0
11
-42.42494
21
-3
31
0
39
0
210
0
220
0
230
1
0
LINE
5
173
100
AcDbEntity
8
SK2
62
256
6
ByLayer
370
13
48
1
60
0
100
AcDbLine
10
-39.24994
20
-11.7503
30
0
11
-39.24994
21
21.21468
31
0
39
0
210
0
220
0
230
1
0
LINE
5
174
100
AcDbEntity
8
SK2
62
256
6
ByLayer
370
13
48
1
60
0
100
AcDbLine
10
-39.24994
20
3
30
0
11
-39.667937
21
6.174998
31
0
39
0
210
0
220
0
230
1
0
LINE
5
175
100
AcDbEntity
8
SK2
62
256
6
ByLayer
370
13
48
1
60
0
100
AcDbLine
10
-39.24994
20
3
30
0
11
-38.831943
21
6.175002
31
0
39
0
210
0
220
0
230
1
0
LINE
5
176
100
AcDbEntity
8
SK2
62
256
6
ByLayer
370
13
48
1
60
0
100
AcDbLine
10
-39.667937
20
6.174998
30
0
11
-38.831943
21
6.175002
31
0
39
0
210
0
220
0
230
1
0
LINE
5
177
100
AcDbEntity
8
SK2
62
256
6
ByLayer
370
13
48
1
60
0
100
AcDbLine
10
-39.24994
20
-3
30
0
11
-38.831943
21
-6.174998
31
0
39
0
210
0
220
0
230
1
0
LINE
5
178
100
AcDbEntity
8
SK2
62
256
6
ByLayer
370
13
48
1
60
0
100
AcDbLine
10
-39.24994
20
-3
30
0
11
-39.667937
21
-6.175002
31
0
39
0
210
0
220
0
230
1
0
LINE
5
179
100
AcDbEntity
8
SK2
62
256
6
ByLayer
370
13
48
1
60
0
100
AcDbLine
10
-38.831943
20
-6.174998
30
0
11
-39.667937
21
-6.175002
31
0
39
0
210
0
220
0
230
1
0
ENDBLK
5
17B
100
AcDbEntity
8
0
100
AcDbBlockEnd
0
BLOCK
5
180
100
AcDbEntity
8
0
100
AcDbBlockBegin
2
*D8
70
1
10
0
20
0
30
0
3
*D8
0
LINE
5
182
100
AcDbEntity
8
0
62
256
6
ByLayer
370
-2
48
1
60
0
100
AcDbLine
10
-36
20
-4.5875
30
0
11
-36
21
-29.67512
31
0
39
0
210
0
220
0
230
1
0
LINE
5
183
100
AcDbEntity
8
0
62
256
6
ByLayer
370
-2
48
1
60
0
100
AcDbLine
10
0
20
-4.5875
30
0
11
0
21
-29.67512
31
0
39
0
210
0
220
0
230
1
0
LINE
5
184
100
AcDbEntity
8
0
62
256
6
ByLayer
370
-2
48
1
60
0
100
AcDbLine
10
-32.825
20
-26.50012
30
0
11
-3.175
21
-26.50012
31
0
39
0
210
0
220
0
230
1
0
SOLID
5
185
100
AcDbEntity
8
0
62
256
6
ByLayer
370
-1
48
1
60
0
100
AcDbTrace
10
-32.825
20
-25.970953
30
0
11
-32.825
21
-27.029287
31
0
12
-36
22
-26.50012
32
0
13
-36
23
-26.50012
33
0
39
0
210
0
220
0
230
1
0
SOLID
5
186
100
AcDbEntity
8
0
62
256
6
ByLayer
370
-1
48
1
60
0
100
AcDbTrace
10
-3.175
20
-27.029287
30
0
11
-3.175
21
-25.970953
31
0
12
0
22
-26.50012
32
0
13
0
23
-26.50012
33
0
39
0
210
0
220
0
230
1
0
MTEXT
5
187
100
AcDbEntity
8
0
62
256
6
ByLayer
370
18
48
1
60
0
100
AcDbMText
10
-18
20
-19.193619
30
0
210
0
220
0
230
1
1
\A1;36
40
3.50012
41
0
44
1
50
0
71
5
72
5
7
iso_b_vert
0
POINT
5
188
100
AcDbEntity
8
Defpoints
62
0
6
ByLayer
370
-1
48
1
60
0
100
AcDbPoint
10
-36
20
-3
30
0
39
0
210
0
220
0
230
1
50
360
0
POINT
5
189
100
AcDbEntity
8
Defpoints
62
0
6
ByLayer
370
-1
48
1
60
0
100
AcDbPoint
10
0
20
-3
30
0
39
0
210
0
220
0
230
1
50
360
0
POINT
5
18A
100
AcDbEntity
8
Defpoints
62
0
6
ByLayer
370
-1
48
1
60
0
100
AcDbPoint
10
0
20
-26.50012
30
0
39
0
210
0
220
0
230
1
50
360
0
ENDBLK
5
181
100
AcDbEntity
8
0
100
AcDbBlockEnd
0
BLOCK
5
196
100
AcDbEntity
8
0
100
AcDbBlockBegin
2
_U3
70
0
10
0
20
0
30
0
3
_U3
0
MTEXT
5
18C
100
AcDbEntity
8
SK2
62
256
6
ByLayer
370
18
48
1
60
0
100
AcDbMText
10
-23.229611
20
-25.467451
30
0
210
0
220
0
230
1
1
\W0.7468;36.00
40
3.50012
41
0
44
1.084337
50
0
71
7
72
5
7
iso_b_vert
0
LINE
5
18D
100
AcDbEntity
8
SK2
62
256
6
ByLayer
370
13
48
1
60
0
100
AcDbLine
10
-36
20
-4.5875
30
0
11
-36
21
-29.67512
31
0
39
0
210
0
220
0
230
1
0
LINE
5
18E
100
AcDbEntity
8
SK2
62
256
6
ByLayer
370
13
48
1
60
0
100
AcDbLine
10
0
20
-4.5875
30
0
11
0
21
-29.67512
31
0
39
0
210
0
220
0
230
1
0
LINE
5
18F
100
AcDbEntity
8
SK2
62
256
6
ByLayer
370
13
48
1
60
0
100
AcDbLine
10
-36
20
-26.50012
30
0
11
0
21
-26.50012
31
0
39
0
210
0
220
0
230
1
0
LINE
5
190
100
AcDbEntity
8
SK2
62
256
6
ByLayer
370
13
48
1
60
0
100
AcDbLine
10
-36
20
-26.50012
30
0
11
-32.825002
21
-26.082123
31
0
39
0
210
0
220
0
230
1
0
LINE
5
191
100
AcDbEntity
8
SK2
62
256
6
ByLayer
370
13
48
1
60
0
100
AcDbLine
10
-36
20
-26.50012
30
0
11
-32.824998
21
-26.918117
31
0
39
0
210
0
220
0
230
1
0
LINE
5
192
100
AcDbEntity
8
SK2
62
256
6
ByLayer
370
13
48
1
60
0
100
AcDbLine
10
-32.825002
20
-26.082123
30
0
11
-32.824998
21
-26.918117
31
0
39
0
210
0
220
0
230
1
0
LINE
5
193
100
AcDbEntity
8
SK2
62
256
6
ByLayer
370
13
48
1
60
0
100
AcDbLine
10
0
20
-26.50012
30
0
11
-3.174998
21
-26.918117
31
0
39
0
210
0
220
0
230
1
0
LINE
5
194
100
AcDbEntity
8
SK2
62
256
6
ByLayer
370
13
48
1
60
0
100
AcDbLine
10
0
20
-26.50012
30
0
11
-3.175002
21
-26.082123
31
0
39
0
210
0
220
0
230
1
0
LINE
5
195
100
AcDbEntity
8
SK2
62
256
6
ByLayer
370
13
48
1
60
0
100
AcDbLine
10
-3.174998
20
-26.918117
30
0
11
-3.175002
21
-26.082123
31
0
39
0
210
0
220
0
230
1
0
ENDBLK
5
197
100
AcDbEntity
8
0
100
AcDbBlockEnd
0
BLOCK
5
19C
100
AcDbEntity
8
0
100
AcDbBlockBegin
2
*D10
70
1
10
0
20
0
30
0
3
*D10
0
LINE
5
19E
100
AcDbEntity
8
0
62
256
6
ByLayer
370
-2
48
1
60
0
100
AcDbLine
10
6
20
0.7625
30
0
11
6
21
-20.92482
31
0
39
0
210
0
220
0
230
1
0
LINE
5
19F
100
AcDbEntity
8
0
62
256
6
ByLayer
370
-2
48
1
60
0
100
AcDbLine
10
26
20
-1.5875
30
0
11
26
21
-20.92482
31
0
39
0
210
0
220
0
230
1
0
LINE
5
1A0
100
AcDbEntity
8
0
62
256
6
ByLayer
370
-2
48
1
60
0
100
AcDbLine
10
9.175
20
-17.74982
30
0
11
22.825
21
-17.74982
31
0
39
0
210
0
220
0
230
1
0
SOLID
5
1A1
100
AcDbEntity
8
0
62
256
6
ByLayer
370
-1
48
1
60
0
100
AcDbTrace
10
9.175
20
-17.220653
30
0
11
9.175
21
-18.278987
31
0
12
6
22
-17.74982
32
0
13
6
23
-17.74982
33
0
39
0
210
0
220
0
230
1
0
SOLID
5
1A2
100
AcDbEntity
8
0
62
256
6
ByLayer
370
-1
48
1
60
0
100
AcDbTrace
10
22.825
20
-18.278987
30
0
11
22.825
21
-17.220653
31
0
12
26
22
-17.74982
32
0
13
26
23
-17.74982
33
0
39
0
210
0
220
0
230
1
0
MTEXT
5
1A3
100
AcDbEntity
8
0
62
256
6
ByLayer
370
18
48
1
60
0
100
AcDbMText
10
16
20
-10.443319
30
0
210
0
220
0
230
1
1
\A1;20
40
3.50012
41
0
44
1
50
0
71
5
72
5
7
iso_b_vert
0
POINT
5
1A4
100
AcDbEntity
8
Defpoints
62
0
6
ByLayer
370
-1
48
1
60
0
100
AcDbPoint
10
6
20
2.35
30
0
39
0
210
0
220
0
230
1
50
360
0
POINT
5
1A5
100
AcDbEntity
8
Defpoints
62
0
6
ByLayer
370
-1
48
1
60
0
100
AcDbPoint
10
26
20
0
30
0
39
0
210
0
220
0
230
1
50
360
0
POINT
5
1A6
100
AcDbEntity
8
Defpoints
62
0
6
ByLayer
370
-1
48
1
60
0
100
AcDbPoint
10
26
20
-17.74982
30
0
39
0
210
0
220
0
230
1
50
360
0
ENDBLK
5
19D
100
AcDbEntity
8
0
100
AcDbBlockEnd
0
BLOCK
5
1B2
100
AcDbEntity
8
0
100
AcDbBlockBegin
2
_U4
70
0
10
0
20
0
30
0
3
_U4
0
MTEXT
5
1A8
100
AcDbEntity
8
SK2
62
256
6
ByLayer
370
18
48
1
60
0
100
AcDbMText
10
10.770389
20
-16.717151
30
0
210
0
220
0
230
1
1
\W0.7468;20.00
40
3.50012
41
0
44
1.084337
50
0
71
7
72
5
7
iso_b_vert
0
LINE
5
1A9
100
AcDbEntity
8
SK2
62
256
6
ByLayer
370
13
48
1
60
0
100
AcDbLine
10
6
20
0.7625
30
0
11
6
21
-20.92482
31
0
39
0
210
0
220
0
230
1
0
LINE
5
1AA
100
AcDbEntity
8
SK2
62
256
6
ByLayer
370
13
48
1
60
0
100
AcDbLine
10
26
20
-1.5875
30
0
11
26
21
-20.92482
31
0
39
0
210
0
220
0
230
1
0
LINE
5
1AB
100
AcDbEntity
8
SK2
62
256
6
ByLayer
370
13
48
1
60
0
100
AcDbLine
10
-2.7503
20
-17.74982
30
0
11
34.7503
21
-17.74982
31
0
39
0
210
0
220
0
230
1
0
LINE
5
1AC
100
AcDbEntity
8
SK2
62
256
6
ByLayer
370
13
48
1
60
0
100
AcDbLine
10
6
20
-17.74982
30
0
11
2.825002
21
-18.167817
31
0
39
0
210
0
220
0
230
1
0
LINE
5
1AD
100
AcDbEntity
8
SK2
62
256
6
ByLayer
370
13
48
1
60
0
100
AcDbLine
10
6
20
-17.74982
30
0
11
2.824998
21
-17.331823
31
0
39
0
210
0
220
0
230
1
0
LINE
5
1AE
100
AcDbEntity
8
SK2
62
256
6
ByLayer
370
13
48
1
60
0
100
AcDbLine
10
2.825002
20
-18.167817
30
0
11
2.824998
21
-17.331823
31
0
39
0
210
0
220
0
230
1
0
LINE
5
1AF
100
AcDbEntity
8
SK2
62
256
6
ByLayer
370
13
48
1
60
0
100
AcDbLine
10
26
20
-17.74982
30
0
11
29.174998
21
-17.331823
31
0
39
0
210
0
220
0
230
1
0
LINE
5
1B0
100
AcDbEntity
8
SK2
62
256
6
ByLayer
370
13
48
1
60
0
100
AcDbLine
10
26
20
-17.74982
30
0
11
29.175002
21
-18.167817
31
0
39
0
210
0
220
0
230
1
0
LINE
5
1B1
100
AcDbEntity
8
SK2
62
256
6
ByLayer
370
13
48
1
60
0
100
AcDbLine
10
29.174998
20
-17.331823
30
0
11
29.175002
21
-18.167817
31
0
39
0
210
0
220
0
230
1
0
ENDBLK
5
1B3
100
AcDbEntity
8
0
100
AcDbBlockEnd
0
BLOCK
5
1B8
100
AcDbEntity
8
0
100
AcDbBlockBegin
2
*D12
70
1
10
0
20
0
30
0
3
*D12
0
LINE
5
1BA
100
AcDbEntity
8
0
62
256
6
ByLayer
370
-2
48
1
60
0
100
AcDbLine
10
14.3
20
-3.4375
30
0
11
14.3
21
-10.32
31
0
39
0
210
0
220
0
230
1
0
LINE
5
1BB
100
AcDbEntity
8
0
62
256
6
ByLayer
370
-2
48
1
60
0
100
AcDbLine
10
26
20
-1.5875
30
0
11
26
21
-10.32
31
0
39
0
210
0
220
0
230
1
0
LINE
5
1BC
100
AcDbEntity
8
0
62
256
6
ByLayer
370
-2
48
1
60
0
100
AcDbLine
10
11.125
20
-9.82
30
0
11
7.95
21
-9.82
31
0
39
0
210
0
220
0
230
1
0
LINE
5
1BD
100
AcDbEntity
8
0
62
256
6
ByLayer
370
-2
48
1
60
0
100
AcDbLine
10
29.175
20
-9.82
30
0
11
32.35
21
-9.82
31
0
39
0
210
0
220
0
230
1
0
SOLID
5
1BE
100
AcDbEntity
8
0
62
256
6
ByLayer
370
-1
48
1
60
0
100
AcDbTrace
10
11.125
20
-10.349167
30
0
11
11.125
21
-9.290833
31
0
12
14.3
22
-9.82
32
0
13
14.3
23
-9.82
33
0
39
0
210
0
220
0
230
1
0
SOLID
5
1BF
100
AcDbEntity
8
0
62
256
6
ByLayer
370
-1
48
1
60
0
100
AcDbTrace
10
29.175
20
-9.290833
30
0
11
29.175
21
-10.349167
31
0
12
26
22
-9.82
32
0
13
26
23
-9.82
33
0
39
0
210
0
220
0
230
1
0
MTEXT
5
1C0
100
AcDbEntity
8
0
62
256
6
ByLayer
370
18
48
1
60
0
100
AcDbMText
10
20.15
20
-3.975
30
0
210
0
220
0
230
1
1
\A1;11.7
40
2.8
41
0
44
1
50
0
71
5
72
5
7
iso_b_vert
0
POINT
5
1C1
100
AcDbEntity
8
Defpoints
62
0
6
ByLayer
370
-1
48
1
60
0
100
AcDbPoint
10
14.3
20
-1.85
30
0
39
0
210
0
220
0
230
1
50
360
0
POINT
5
1C2
100
AcDbEntity
8
Defpoints
62
0
6
ByLayer
370
-1
48
1
60
0
100
AcDbPoint
10
26
20
0
30
0
39
0
210
0
220
0
230
1
50
360
0
POINT
5
1C3
100
AcDbEntity
8
Defpoints
62
0
6
ByLayer
370
-1
48
1
60
0
100
AcDbPoint
10
26
20
-9.82
30
0
39
0
210
0
220
0
230
1
50
360
0
ENDBLK
5
1B9
100
AcDbEntity
8
0
100
AcDbBlockEnd
0
BLOCK
5
1CF
100
AcDbEntity
8
0
100
AcDbBlockBegin
2
_U5
70
0
10
0
20
0
30
0
3
_U5
0
MTEXT
5
1C5
100
AcDbEntity
8
SK2
62
256
6
ByLayer
370
18
48
1
60
0
100
AcDbMText
10
16.666348
20
-9.973893
30
0
210
0
220
0
230
1
1
\W0.6261;11.70
40
2.8
41
0
44
1.084337
50
0
71
7
72
5
7
iso_b_vert
0
LINE
5
1C6
100
AcDbEntity
8
SK2
62
256
6
ByLayer
370
13
48
1
60
0
100
AcDbLine
10
14.3
20
-3.4375
30
0
11
14.3
21
-10.32
31
0
39
0
210
0
220
0
230
1
0
LINE
5
1C7
100
AcDbEntity
8
SK2
62
256
6
ByLayer
370
13
48
1
60
0
100
AcDbLine
10
26
20
-1.5875
30
0
11
26
21
-10.32
31
0
39
0
210
0
220
0
230
1
0
LINE
5
1C8
100
AcDbEntity
8
SK2
62
256
6
ByLayer
370
13
48
1
60
0
100
AcDbLine
10
7.3
20
-9.82
30
0
11
33
21
-9.82
31
0
39
0
210
0
220
0
230
1
0
LINE
5
1C9
100
AcDbEntity
8
SK2
62
256
6
ByLayer
370
13
48
1
60
0
100
AcDbLine
10
14.3
20
-9.82
30
0
11
11.125002
21
-10.237997
31
0
39
0
210
0
220
0
230
1
0
LINE
5
1CA
100
AcDbEntity
8
SK2
62
256
6
ByLayer
370
13
48
1
60
0
100
AcDbLine
10
14.3
20
-9.82
30
0
11
11.124998
21
-9.402003
31
0
39
0
210
0
220
0
230
1
0
LINE
5
1CB
100
AcDbEntity
8
SK2
62
256
6
ByLayer
370
13
48
1
60
0
100
AcDbLine
10
11.125002
20
-10.237997
30
0
11
11.124998
21
-9.402003
31
0
39
0
210
0
220
0
230
1
0
LINE
5
1CC
100
AcDbEntity
8
SK2
62
256
6
ByLayer
370
13
48
1
60
0
100
AcDbLine
10
26
20
-9.82
30
0
11
29.174998
21
-9.402003
31
0
39
0
210
0
220
0
230
1
0
LINE
5
1CD
100
AcDbEntity
8
SK2
62
256
6
ByLayer
370
13
48
1
60
0
100
AcDbLine
10
26
20
-9.82
30
0
11
29.175002
21
-10.237997
31
0
39
0
210
0
220
0
230
1
0
LINE
5
1CE
100
AcDbEntity
8
SK2
62
256
6
ByLayer
370
13
48
1
60
0
100
AcDbLine
10
29.174998
20
-9.402003
30
0
11
29.175002
21
-10.237997
31
0
39
0
210
0
220
0
230
1
0
ENDBLK
5
1D0
100
AcDbEntity
8
0
100
AcDbBlockEnd
0
BLOCK
5
1D5
100
AcDbEntity
8
0
100
AcDbBlockBegin
2
*D14
70
1
10
0
20
0
30
0
3
*D14
0
LINE
5
1D7
100
AcDbEntity
8
0
62
256
6
ByLayer
370
-2
48
1
60
0
100
AcDbLine
10
-36
20
-1.5875
30
0
11
-36
21
-39.67512
31
0
39
0
210
0
220
0
230
1
0
LINE
5
1D8
100
AcDbEntity
8
0
62
256
6
ByLayer
370
-2
48
1
60
0
100
AcDbLine
10
26
20
-1.5875
30
0
11
26
21
-39.67512
31
0
39
0
210
0
220
0
230
1
0
LINE
5
1D9
100
AcDbEntity
8
0
62
256
6
ByLayer
370
-2
48
1
60
0
100
AcDbLine
10
-32.825
20
-36.50012
30
0
11
22.825
21
-36.50012
31
0
39
0
210
0
220
0
230
1
0
SOLID
5
1DA
100
AcDbEntity
8
0
62
256
6
ByLayer
370
-1
48
1
60
0
100
AcDbTrace
10
-32.825
20
-35.970953
30
0
11
-32.825
21
-37.029287
31
0
12
-36
22
-36.50012
32
0
13
-36
23
-36.50012
33
0
39
0
210
0
220
0
230
1
0
SOLID
5
1DB
100
AcDbEntity
8
0
62
256
6
ByLayer
370
-1
48
1
60
0
100
AcDbTrace
10
22.825
20
-37.029287
30
0
11
22.825
21
-35.970953
31
0
12
26
22
-36.50012
32
0
13
26
23
-36.50012
33
0
39
0
210
0
220
0
230
1
0
MTEXT
5
1DC
100
AcDbEntity
8
0
62
256
6
ByLayer
370
18
48
1
60
0
100
AcDbMText
10
-5
20
-29.19362
30
0
210
0
220
0
230
1
1
\A1;62
40
3.50012
41
0
44
1
50
0
71
5
72
5
7
iso_b_vert
0
POINT
5
1DD
100
AcDbEntity
8
Defpoints
62
0
6
ByLayer
370
-1
48
1
60
0
100
AcDbPoint
10
-36
20
0
30
0
39
0
210
0
220
0
230
1
50
360
0
POINT
5
1DE
100
AcDbEntity
8
Defpoints
62
0
6
ByLayer
370
-1
48
1
60
0
100
AcDbPoint
10
26
20
0
30
0
39
0
210
0
220
0
230
1
50
360
0
POINT
5
1DF
100
AcDbEntity
8
Defpoints
62
0
6
ByLayer
370
-1
48
1
60
0
100
AcDbPoint
10
26
20
-36.50012
30
0
39
0
210
0
220
0
230
1
50
360
0
ENDBLK
5
1D6
100
AcDbEntity
8
0
100
AcDbBlockEnd
0
BLOCK
5
1EB
100
AcDbEntity
8
0
100
AcDbBlockBegin
2
_U6
70
0
10
0
20
0
30
0
3
_U6
0
MTEXT
5
1E1
100
AcDbEntity
8
SK2
62
256
6
ByLayer
370
18
48
1
60
0
100
AcDbMText
10
-10.229611
20
-35.467451
30
0
210
0
220
0
230
1
1
\W0.7468;62.00
40
3.50012
41
0
44
1.084337
50
0
71
7
72
5
7
iso_b_vert
0
LINE
5
1E2
100
AcDbEntity
8
SK2
62
256
6
ByLayer
370
13
48
1
60
0
100
AcDbLine
10
-36
20
-1.5875
30
0
11
-36
21
-39.67512
31
0
39
0
210
0
220
0
230
1
0
LINE
5
1E3
100
AcDbEntity
8
SK2
62
256
6
ByLayer
370
13
48
1
60
0
100
AcDbLine
10
26
20
-1.5875
30
0
11
26
21
-39.67512
31
0
39
0
210
0
220
0
230
1
0
LINE
5
1E4
100
AcDbEntity
8
SK2
62
256
6
ByLayer
370
13
48
1
60
0
100
AcDbLine
10
-36
20
-36.50012
30
0
11
26
21
-36.50012
31
0
39
0
210
0
220
0
230
1
0
LINE
5
1E5
100
AcDbEntity
8
SK2
62
256
6
ByLayer
370
13
48
1
60
0
100
AcDbLine
10
-36
20
-36.50012
30
0
11
-32.825002
21
-36.082123
31
0
39
0
210
0
220
0
230
1
0
LINE
5
1E6
100
AcDbEntity
8
SK2
62
256
6
ByLayer
370
13
48
1
60
0
100
AcDbLine
10
-36
20
-36.50012
30
0
11
-32.824998
21
-36.918117
31
0
39
0
210
0
220
0
230
1
0
LINE
5
1E7
100
AcDbEntity
8
SK2
62
256
6
ByLayer
370
13
48
1
60
0
100
AcDbLine
10
-32.825002
20
-36.082123
30
0
11
-32.824998
21
-36.918117
31
0
39
0
210
0
220
0
230
1
0
LINE
5
1E8
100
AcDbEntity
8
SK2
62
256
6
ByLayer
370
13
48
1
60
0
100
AcDbLine
10
26
20
-36.50012
30
0
11
22.825002
21
-36.918117
31
0
39
0
210
0
220
0
230
1
0
LINE
5
1E9
100
AcDbEntity
8
SK2
62
256
6
ByLayer
370
13
48
1
60
0
100
AcDbLine
10
26
20
-36.50012
30
0
11
22.824998
21
-36.082123
31
0
39
0
210
0
220
0
230
1
0
LINE
5
1EA
100
AcDbEntity
8
SK2
62
256
6
ByLayer
370
13
48
1
60
0
100
AcDbLine
10
22.825002
20
-36.918117
30
0
11
22.824998
21
-36.082123
31
0
39
0
210
0
220
0
230
1
0
ENDBLK
5
1EC
100
AcDbEntity
8
0
100
AcDbBlockEnd
0
ENDSEC
0
SECTION
2
ENTITIES
0
ARC
5
B1
100
AcDbEntity
8
1
62
256
6
ByLayer
370
18
48
1
60
0
100
AcDbCircle
39
0
10
1.539695
20
2.635132
30
0
40
0.800000000000004
210
0
220
0
230
1
100
AcDbArc
50
195.780783
51
270.03581
0
ARC
5
B2
100
AcDbEntity
8
1
62
256
6
ByLayer
370
18
48
1
60
0
100
AcDbCircle
39
0
10
1.539695
20
-2.635132
30
0
40
0.800000000000004
210
0
220
0
230
1
100
AcDbArc
50
89.96419
51
164.219217
0
ARC
5
B3
100
AcDbEntity
8
1
62
256
6
ByLayer
370
18
48
1
60
0
100
AcDbCircle
39
0
10
0
20
2.2
30
0
40
0.8
210
0
220
0
230
1
100
AcDbArc
50
15.780783
51
90
0
ARC
5
B4
100
AcDbEntity
8
1
62
256
6
ByLayer
370
18
48
1
60
0
100
AcDbCircle
39
0
10
0
20
-2.2
30
0
40
0.8
210
0
220
0
230
1
100
AcDbArc
50
270
51
344.219217
0
ARC
5
B5
100
AcDbEntity
8
SK2
62
256
6
ByLayer
370
13
48
1
60
0
100
AcDbCircle
39
0
10
26
20
0
30
0
40
20
210
0
220
0
230
1
100
AcDbArc
50
9.606349
51
70.001229
0
ARC
5
B6
100
AcDbEntity
8
SK2
62
256
6
ByLayer
370
13
48
1
60
0
100
AcDbCircle
39
0
10
26
20
0
30
0
40
20
210
0
220
0
230
1
100
AcDbArc
50
289.998771
51
350.393651
0
ELLIPSE
5
B7
100
AcDbEntity
8
1
62
256
6
ByLayer
370
18
48
1
60
0
100
AcDbEllipse
10
7.602266
20
-1.755149
30
0
11
-0.000273887825641176
21
-0.00999624856928666
31
0
210
0
220
0
230
1
40
0.520985
41
-3.09381861370549
42
-1.52620748229049
0
ELLIPSE
5
B8
100
AcDbEntity
8
1
62
256
6
ByLayer
370
18
48
1
60
0
100
AcDbEllipse
10
7.55484
20
-1.767082
30
0
11
-0.00501656980280441
21
0.00865066629882294
31
0
210
0
220
0
230
1
40
0.488512
41
0.0558587775743886
42
1.34427090165418
0
POINT
5
70
100
AcDbEntity
8
80
62
256
6
ByLayer
370
18
48
1
60
0
100
AcDbPoint
10
0
20
0
30
0
39
0
210
0
220
0
230
1
50
360
0
POINT
5
72
100
AcDbEntity
8
81
62
256
6
ByLayer
370
18
48
1
60
0
100
AcDbPoint
10
26
20
0
30
0
39
0
210
0
220
0
230
1
50
360
0
POINT
5
74
100
AcDbEntity
8
1
62
256
6
ByLayer
370
18
48
1
60
0
100
AcDbPoint
10
-36
20
0
30
0
39
0
210
0
220
0
230
1
50
360
0
POINT
5
76
100
AcDbEntity
8
1
62
256
6
ByLayer
370
18
48
1
60
1
100
AcDbPoint
10
0
20
-3
30
0
39
0
210
0
220
0
230
1
50
360
0
POINT
5
77
100
AcDbEntity
8
1
62
256
6
ByLayer
370
18
48
1
60
1
100
AcDbPoint
10
26
20
0
30
0
39
0
210
0
220
0
230
1
50
360
0
POINT
5
78
100
AcDbEntity
8
1
62
256
6
ByLayer
370
18
48
1
60
1
100
AcDbPoint
10
25.3267
20
-1.85
30
0
39
0
210
0
220
0
230
1
50
360
0
POINT
5
79
100
AcDbEntity
8
1
62
256
6
ByLayer
370
18
48
1
60
1
100
AcDbPoint
10
25.3267
20
1.85
30
0
39
0
210
0
220
0
230
1
50
360
0
POINT
5
7A
100
AcDbEntity
8
1
62
256
6
ByLayer
370
18
48
1
60
1
100
AcDbPoint
10
-36
20
3
30
0
39
0
210
0
220
0
230
1
50
360
0
POINT
5
7B
100
AcDbEntity
8
1
62
256
6
ByLayer
370
18
48
1
60
1
100
AcDbPoint
10
-36
20
-3
30
0
39
0
210
0
220
0
230
1
50
360
0
POINT
5
7C
100
AcDbEntity
8
1
62
256
6
ByLayer
370
18
48
1
60
1
100
AcDbPoint
10
-36
20
-3
30
0
39
0
210
0
220
0
230
1
50
360
0
POINT
5
7D
100
AcDbEntity
8
1
62
256
6
ByLayer
370
18
48
1
60
1
100
AcDbPoint
10
0
20
-3
30
0
39
0
210
0
220
0
230
1
50
360
0
POINT
5
7E
100
AcDbEntity
8
1
62
256
6
ByLayer
370
18
48
1
60
1
100
AcDbPoint
10
6
20
2.35
30
0
39
0
210
0
220
0
230
1
50
360
0
POINT
5
7F
100
AcDbEntity
8
1
62
256
6
ByLayer
370
18
48
1
60
1
100
AcDbPoint
10
26
20
0
30
0
39
0
210
0
220
0
230
1
50
360
0
POINT
5
80
100
AcDbEntity
8
1
62
256
6
ByLayer
370
18
48
1
60
1
100
AcDbPoint
10
14.3
20
-1.85
30
0
39
0
210
0
220
0
230
1
50
360
0
POINT
5
81
100
AcDbEntity
8
1
62
256
6
ByLayer
370
18
48
1
60
1
100
AcDbPoint
10
26
20
0
30
0
39
0
210
0
220
0
230
1
50
360
0
POINT
5
82
100
AcDbEntity
8
1
62
256
6
ByLayer
370
18
48
1
60
1
100
AcDbPoint
10
-36
20
0
30
0
39
0
210
0
220
0
230
1
50
360
0
POINT
5
83
100
AcDbEntity
8
1
62
256
6
ByLayer
370
18
48
1
60
1
100
AcDbPoint
10
26
20
0
30
0
39
0
210
0
220
0
230
1
50
360
0
SPLINE
5
B9
100
AcDbEntity
8
1
62
256
6
ByLayer
370
18
48
1
60
0
100
AcDbSpline
70
4
71
3
72
8
73
4
40
0
40
0
40
0
40
0
40
1
40
1
40
1
40
1
41
1
10
25.3320117309767
20
1.75290762639864
30
0
41
1
10
25.272461532425
20
1.74810556351676
30
0
41
1
10
25.2128660039604
20
1.74221424544734
30
0
41
1
10
25.1532914975717
20
1.73523184351595
30
0
0
SPLINE
5
BA
100
AcDbEntity
8
1
62
256
6
ByLayer
370
18
48
1
60
0
100
AcDbSpline
70
4
71
3
72
30
73
26
40
0
40
0
40
0
40
0
40
0.0787996875045829
40
0.0787996875045829
40
0.157400364138928
40
0.157400364138928
40
0.236001040773273
40
0.236001040773273
40
0.314601717407618
40
0.314601717407618
40
0.393202394041963
40
0.393202394041963
40
0.550403747310655
40
0.550403747310655
40
0.589704085627829
40
0.589704085627829
40
0.629004423945003
40
0.629004423945003
40
0.707605100579349
40
0.707605100579349
40
0.864806453848044
40
0.864806453848044
40
0.943407130482391
40
0.943407130482391
40
1
40
1
40
1
40
1
41
1
10
17.0242285351343
20
-1.75145773074095
30
0
41
1
10
16.8383421946514
20
-1.76416562299769
30
0
41
1
10
16.6524868296868
20
-1.7657894404081
30
0
41
1
10
16.2796886880359
20
-1.74693408258415
30
0
41
1
10
16.0944008460239
20
-1.72628606380778
30
0
41
1
10
15.7256846061774
20
-1.66423581016951
30
0
41
1
10
15.5419653189624
20
-1.62275937085567
30
0
41
1
10
15.1742131887999
20
-1.52030315950336
30
0
41
1
10
14.9900704380323
20
-1.45935363038606
30
0
41
1
10
14.6193334568489
20
-1.31925434942994
30
1E-16
41
1
10
14.4325724276238
20
-1.23979977653113
30
1E-16
41
1
10
13.8782153772392
20
-0.981890920035056
30
1E-16
41
1
10
13.512451477028
20
-0.783332564601665
30
0
41
1
10
13.0506874810953
20
-0.515001035213714
30
0
41
1
10
12.9581240658389
20
-0.460310354284871
30
0
41
1
10
12.7724218404012
20
-0.349163468616325
30
0
41
1
10
12.6790838973807
20
-0.292666705097673
30
0
41
1
10
12.400752557831
20
-0.123163099466723
30
0
41
1
10
12.2164579410832
20
-0.0095520543439704
30
0
41
1
10
11.6646647630326
20
0.32871135537394
30
0
41
1
10
11.2986134103117
20
0.551362971637587
30
0
41
1
10
10.7399767194122
20
0.860841811917226
30
-1E-16
41
1
10
10.5544990930024
20
0.958500160404071
30
-1E-16
41
1
10
10.2373082542617
20
1.11423684908738
30
-1E-16
41
1
10
10.104937123229
20
1.17595527420846
30
-1E-16
41
1
10
9.97261580000892
20
1.23378959812064
30
-1E-16
0
SPLINE
5
BB
100
AcDbEntity
8
1
62
256
6
ByLayer
370
18
48
1
60
0
100
AcDbSpline
70
4
71
3
72
14
73
10
40
0
40
0
40
0
40
0
40
0.257542432843322
40
0.257542432843322
40
0.540924361253459
40
0.540924361253459
40
0.82726161511129
40
0.82726161511129
40
1
40
1
40
1
40
1
41
1
10
25.128457142935
20
-0.161147768052814
30
0
41
1
10
25.1291624610389
20
-0.161443539147939
30
0
41
1
10
25.129850534464
20
-0.162127342875891
30
0
41
1
10
25.1311360509038
20
-0.164027669189068
30
0
41
1
10
25.1317434545117
20
-0.165324844667054
30
0
41
1
10
25.1327545134492
20
-0.168263638313846
30
0
41
1
10
25.1331713428346
20
-0.169953207465966
30
0
41
1
10
25.1336241446101
20
-0.172819932897056
30
0
41
1
10
25.1337479565813
20
-0.173954716531142
30
0
41
1
10
25.1338099946565
20
-0.175099958264525
30
0
0
SPLINE
5
BC
100
AcDbEntity
8
1
62
256
6
ByLayer
370
18
48
1
60
0
100
AcDbSpline
70
4
71
3
72
8
73
4
40
0
40
0
40
0
40
0
40
1
40
1
40
1
40
1
41
1
10
25.3320111591043
20
-1.75290758027936
30
0
41
1
10
25.3329357028747
20
-1.75237323025309
30
0
41
1
10
25.3338838788642
20
-1.75181516190162
30
0
41
1
10
25.3348523684542
20
-1.75123329526662
30
0
0
SPLINE
5
BD
100
AcDbEntity
8
1
62
256
6
ByLayer
370
18
48
1
60
0
100
AcDbSpline
70
4
71
3
72
14
73
10
40
0
40
0
40
0
40
0
40
0.0963007244534431
40
0.0963007244534431
40
0.548150362226721
40
0.548150362226721
40
0.774075181113361
40
0.774075181113361
40
1
40
1
40
1
40
1
41
1
10
25.1602486247015
20
0.364072283207548
30
0
41
1
10
25.1690708269094
20
0.36721289583798
30
0
41
1
10
25.1782569966917
20
0.370714933531985
30
0
41
1
10
25.2323225414655
20
0.392454084813551
30
0
41
1
10
25.2855548499337
20
0.41798462607602
30
0
41
1
10
25.3744074140178
20
0.454725438577554
30
0
41
1
10
25.4060844296452
20
0.466805084440381
30
0
41
1
10
25.4707257920868
20
0.487205865770591
30
0
41
1
10
25.5039891617761
20
0.495667429920189
30
0
41
1
10
25.5383339605056
20
0.501620041007271
30
0
0
SPLINE
5
BE
100
AcDbEntity
8
1
62
256
6
ByLayer
370
18
48
1
60
0
100
AcDbSpline
70
4
71
3
72
16
73
12
40
0
40
0
40
0
40
0
40
0.28752364701873
40
0.28752364701873
40
0.507604679324799
40
0.507604679324799
40
0.693396327068412
40
0.693396327068412
40
0.880081191386921
40
0.880081191386921
40
1
40
1
40
1
40
1
41
1
10
25.3366544056466
20
-1.74185427347945
30
0
41
1
10
25.3367707747921
20
-1.74204211483109
30
0
41
1
10
25.3368248101356
20
-1.7424286021469
30
0
41
1
10
25.3367691721441
20
-1.74350267842931
30
0
41
1
10
25.3366932974953
20
-1.74411218290913
30
0
41
1
10
25.3364451467115
20
-1.74547200376699
30
0
41
1
10
25.3362862513873
20
-1.74620211777116
30
0
41
1
10
25.3358918581076
20
-1.74778418587721
30
0
41
1
10
25.3356502239736
20
-1.74865901721734
30
0
41
1
10
25.3352178302101
20
-1.75009855310208
30
0
41
1
10
25.3350370762061
20
-1.75067189835713
30
0
41
1
10
25.3348523684554
20
-1.75123329526704
30
0
0
SPLINE
5
BF
100
AcDbEntity
8
1
62
256
6
ByLayer
370
18
48
1
60
0
100
AcDbSpline
70
4
71
3
72
38
73
34
40
0
40
0
40
0
40
0
40
0.003487825717891
40
0.003487825717891
40
0.0433483126891758
40
0.0433483126891758
40
0.202790260574318
40
0.202790260574318
40
0.242650747545604
40
0.242650747545604
40
0.282511234516889
40
0.282511234516889
40
0.362232208459459
40
0.362232208459459
40
0.402092695430743
40
0.402092695430743
40
0.441953182402027
40
0.441953182402027
40
0.521674156344595
40
0.521674156344595
40
0.601395130287163
40
0.601395130287163
40
0.641255617258446
40
0.641255617258446
40
0.681116104229729
40
0.681116104229729
40
0.760837078172297
40
0.760837078172297
40
0.800697565143581
40
0.800697565143581
40
0.840558052114864
40
0.840558052114864
40
1
40
1
40
1
40
1
41
1
10
15.9578994743748
20
1.831273840374
30
0
41
1
10
15.9686700432236
20
1.83209869310446
30
0
41
1
10
15.9794439482016
20
1.83288494071996
30
0
41
1
10
16.1133910471141
20
1.84217562917607
30
0
41
1
10
16.2373662098439
20
1.84565423023213
30
0
41
1
10
16.8572698693247
20
1.8369869059018
30
0
41
1
10
17.3423217994259
20
1.7476368086302
30
0
41
1
10
17.9586309709185
20
1.54463949280472
30
-1E-16
41
1
10
18.0829022336355
20
1.49929355754392
30
-1E-16
41
1
10
18.3305647497188
20
1.40080659518119
30
-1E-16
41
1
10
18.4537619072497
20
1.34777312332926
30
-1E-16
41
1
10
18.8223108569563
20
1.178451894131
30
-1E-16
41
1
10
19.0666252487667
20
1.05195579877616
30
-1E-16
41
1
10
19.4344911219494
20
0.846208749515057
30
-1E-16
41
1
10
19.5573398813509
20
0.774949151180749
30
0
41
1
10
19.804096277966
20
0.627819082426839
30
0
41
1
10
19.9284748269741
20
0.55165114150185
30
0
41
1
10
20.299265658596
20
0.320579359024805
30
0
41
1
10
20.544079338089
20
0.162801488283037
30
0
41
1
10
21.0337485374257
20
-0.152642790914967
30
0
41
1
10
21.2785090754227
20
-0.310458977621096
30
0
41
1
10
21.6489659658197
20
-0.541920266338906
30
0
41
1
10
21.7733492834366
20
-0.618358554271509
30
0
41
1
10
22.0201963740856
20
-0.766156563038777
30
0
41
1
10
22.1430622651671
20
-0.837772702761612
30
1E-16
41
1
10
22.5109303226642
20
-1.04461546651987
30
1E-16
41
1
10
22.7552167021379
20
-1.1718446594187
30
1E-16
41
1
10
23.1233823058743
20
-1.34263000298375
30
1E-16
41
1
10
23.2463959524618
20
-1.39620573146664
30
1E-16
41
1
10
23.4936394496529
20
-1.49581121265862
30
1E-16
41
1
10
23.6179104138176
20
-1.54180748033912
30
1E-16
41
1
10
24.2342364465845
20
-1.74781732094104
30
0
41
1
10
24.719209310382
20
-1.83956969642352
30
0
41
1
10
25.2143161234843
20
-1.84915098757369
30
0
0
SPLINE
5
C0
100
AcDbEntity
8
1
62
256
6
ByLayer
370
18
48
1
60
0
100
AcDbSpline
70
4
71
3
72
10
73
6
40
0
40
0
40
0
40
0
40
0.5
40
0.5
40
1
40
1
40
1
40
1
41
1
10
7.54959545098296
20
-1.76752684481332
30
0
41
1
10
7.53460615535366
20
-1.77530225099906
30
0
41
1
10
7.52352777631356
20
-1.78544103103926
30
0
41
1
10
7.50804444293942
20
-1.80726580537223
30
0
41
1
10
7.50367322790518
20
-1.81889094957597
30
0
41
1
10
7.50241306657199
20
-1.83069893678635
30
0
0
SPLINE
5
C1
100
AcDbEntity
8
1
62
256
6
ByLayer
370
18
48
1
60
0
100
AcDbSpline
70
4
71
3
72
8
73
4
40
0
40
0
40
0
40
0
40
1
40
1
40
1
40
1
41
1
10
7.65461137494731
20
-0.477443028315321
30
0
41
1
10
7.7710407023024
20
-0.546815992149448
30
0
41
1
10
7.88718153445487
20
-0.6144485584324
30
0
41
1
10
8.00321225663109
20
-0.68014424021257
30
0
0
SPLINE
5
C2
100
AcDbEntity
8
1
62
256
6
ByLayer
370
18
48
1
60
0
100
AcDbSpline
70
4
71
3
72
26
73
22
40
0
40
0
40
0
40
0
40
0.0123408282429376
40
0.0123408282429376
40
0.122080736215944
40
0.122080736215944
40
0.231820644188952
40
0.231820644188952
40
0.341560552161958
40
0.341560552161958
40
0.451300460134965
40
0.451300460134965
40
0.561040368107972
40
0.561040368107972
40
0.670780276080979
40
0.670780276080979
40
0.780520184053986
40
0.780520184053986
40
0.890260092026993
40
0.890260092026993
40
1
40
1
40
1
40
1
41
1
10
20.1612368977667
20
1.75878462709511
30
0
41
1
10
20.1817908590924
20
1.7596578436513
30
0
41
1
10
20.2023228440235
20
1.76040848870804
30
0
41
1
10
20.4051516537553
20
1.76665214303043
30
0
41
1
10
20.5860023183308
20
1.76327310220563
30
0
41
1
10
20.9481470810448
20
1.73224860801193
30
0
41
1
10
21.1292097021757
20
1.70589303665588
30
0
41
1
10
21.4924912039836
20
1.63327760205786
30
0
41
1
10
21.6747831108015
20
1.58747290880936
30
0
41
1
10
22.0416701762641
20
1.47514616021525
30
0
41
1
10
22.2236793612202
20
1.40988548881845
30
-1E-16
41
1
10
22.5862204813432
20
1.26419042661937
30
-1E-16
41
1
10
22.7667506270153
20
1.18374754914558
30
-1E-16
41
1
10
23.1288216528324
20
1.00877874244279
30
-1E-16
41
1
10
23.3102102792453
20
0.914597567676054
30
-1E-16
41
1
10
23.6749395079759
20
0.715280694425644
30
0
41
1
10
23.8588146638295
20
0.609784576122166
30
0
41
1
10
24.2228867626019
20
0.394583750120489
30
0
41
1
10
24.4039461256224
20
0.284504618913786
30
0
41
1
10
24.7658691532597
20
0.0623760936946098
30
0
41
1
10
24.9466592348766
20
-0.049786735182181
30
0
41
1
10
25.1284571429351
20
-0.161147768052871
30
0
0
SPLINE
5
C3
100
AcDbEntity
8
1
62
256
6
ByLayer
370
18
48
1
60
0
100
AcDbSpline
70
4
71
3
72
8
73
4
40
0
40
0
40
0
40
0
40
1
40
1
40
1
40
1
41
1
10
25.3320111591065
20
1.75290758027896
30
0
41
1
10
25.3329357028762
20
1.75237323025309
30
0
41
1
10
25.3338838788648
20
1.75181516190119
30
0
41
1
10
25.3348523684542
20
1.75123329526662
30
0
0
SPLINE
5
C4
100
AcDbEntity
8
1
62
256
6
ByLayer
370
18
48
1
60
0
100
AcDbSpline
70
4
71
3
72
21
73
17
40
0
40
0
40
0
40
0
40
0.125
40
0.125
40
0.25
40
0.25
40
0.375
40
0.375
40
0.5
40
0.5
40
0.625
40
0.625
40
0.75
40
0.875
40
0.875
40
1
40
1
40
1
40
1
41
1
10
7.60251713221288
20
-0.469951791024499
30
0
41
1
10
7.60250161103451
20
-0.558605389726239
30
0
41
1
10
7.60248637084246
20
-0.644462913489889
30
0
41
1
10
7.6024577635547
20
-0.810698388972781
30
0
41
1
10
7.60244431265124
20
-0.891634538635344
30
1E-16
41
1
10
7.60242058462768
20
-1.04373353496703
30
1E-16
41
1
10
7.60241024149502
20
-1.1152085058828
30
1E-16
41
1
10
7.60239233124929
20
-1.24912669366674
30
1E-16
41
1
10
7.60238472795388
20
-1.3119303865731
30
1E-16
41
1
10
7.60237163483316
20
-1.42606759316092
30
1E-16
41
1
10
7.60236613324793
20
-1.47740083769091
30
0
41
1
10
7.60235561591418
20
-1.56752260188216
30
0
41
1
10
7.60234569749869
20
-1.64397143123122
30
0
41
1
10
7.6023326166877
20
-1.69403158690295
30
0
41
1
10
7.60231536869605
20
-1.73038185345075
30
0
41
1
10
7.60230476125432
20
-1.7414013043439
30
0
41
1
10
7.6022909237318
20
-1.74515779076935
30
0
0
SPLINE
5
C5
100
AcDbEntity
8
1
62
256
6
ByLayer
370
18
48
1
60
0
100
AcDbSpline
70
4
71
3
72
50
73
46
40
0
40
0
40
0
40
0
40
0.0362959290690087
40
0.0362959290690087
40
0.0641093027529329
40
0.0641093027529329
40
0.0919226764368572
40
0.0919226764368572
40
0.147549423804706
40
0.147549423804706
40
0.203176171172554
40
0.203176171172554
40
0.230989544856479
40
0.230989544856479
40
0.258802918540404
40
0.258802918540404
40
0.370056413276104
40
0.370056413276104
40
0.425683160643954
40
0.425683160643954
40
0.481309908011804
40
0.481309908011804
40
0.536936655379654
40
0.536936655379654
40
0.592563402747504
40
0.592563402747504
40
0.62037677643143
40
0.62037677643143
40
0.648190150115356
40
0.648190150115356
40
0.703816897483206
40
0.703816897483206
40
0.759443644851056
40
0.759443644851056
40
0.815070392218906
40
0.815070392218906
40
0.870697139586756
40
0.870697139586756
40
0.926323886954606
40
0.926323886954606
40
0.954137260638531
40
0.954137260638531
40
0.981950634322456
40
0.981950634322456
40
1
40
1
40
1
40
1
41
1
10
10.5694048104592
20
1.77023405125436
30
0
41
1
10
10.6877627844108
20
1.79111941493633
30
0
41
1
10
10.8064771364886
20
1.80748781151277
30
0
41
1
10
11.0169413750725
20
1.82828612819327
30
0
41
1
10
11.1087895073488
20
1.83459593874485
30
0
41
1
10
11.2916991792077
20
1.8415330475911
30
0
41
1
10
11.3827701609169
20
1.84218238694004
30
0
41
1
10
11.6552120442393
20
1.83579388667101
30
0
41
1
10
11.8355937175291
20
1.82033791009638
30
0
41
1
10
12.1972479910966
20
1.76817191646222
30
0
41
1
10
12.3785239192832
20
1.73161322981662
30
0
41
1
10
12.6513225451054
20
1.66095695042904
30
0
41
1
10
12.7424198910757
20
1.63476059150875
30
0
41
1
10
12.9251322885086
20
1.57702056284862
30
0
41
1
10
13.0167152539551
20
1.54552861482765
30
-1E-16
41
1
10
13.4723382901179
20
1.37799600782438
30
-1E-16
41
1
10
13.8327651660961
20
1.20997763765507
30
-1E-16
41
1
10
14.3763497157643
20
0.918102763769866
30
-1E-16
41
1
10
14.5581941413094
20
0.813615706755314
30
0
41
1
10
14.9245133962734
20
0.595872367153703
30
0
41
1
10
15.1066819580491
20
0.484417301416414
30
0
41
1
10
15.4689049024942
20
0.256208989709648
30
0
41
1
10
15.6489610561163
20
0.139440258440658
30
0
41
1
10
16.0107013434556
20
-0.0935496792093886
30
0
41
1
10
16.1925057158342
20
-0.209561691331544
30
0
41
1
10
16.4664233385142
20
-0.383202147775279
30
0
41
1
10
16.5581034900727
20
-0.441143828627929
30
0
41
1
10
16.7403762362137
20
-0.554772656305971
30
0
41
1
10
16.831191105929
20
-0.610593541275136
30
0
41
1
10
17.1033358574093
20
-0.774181084676883
30
0
41
1
10
17.2844435436252
20
-0.87801623360221
30
1E-16
41
1
10
17.6460688954751
20
-1.07535218214832
30
1E-16
41
1
10
17.8266601187828
20
-1.16868810115051
30
1E-16
41
1
10
18.1901055972701
20
-1.34095129282187
30
1E-16
41
1
10
18.3737215540497
20
-1.42032948216232
30
1E-16
41
1
10
18.7380906040089
20
-1.55873893353348
30
0
41
1
10
18.919425685744
20
-1.61835285370802
30
0
41
1
10
19.2807467224453
20
-1.71836213365967
30
0
41
1
10
19.4606002425474
20
-1.75864804979841
30
0
41
1
10
19.7326819712364
20
-1.80254602097065
30
0
41
1
10
19.8236769029284
20
-1.81449313876703
30
0
41
1
10
20.0062852902482
20
-1.83297116460938
30
0
41
1
10
20.0981671770128
20
-1.83950834621049
30
0
41
1
10
20.2488828981166
20
-1.84563154391731
30
0
41
1
10
20.3079786211813
20
-1.84684632463507
30
0
41
1
10
20.3669318024242
20
-1.84688134373971
30
0
0
SPLINE
5
C6
100
AcDbEntity
8
1
62
256
6
ByLayer
370
18
48
1
60
0
100
AcDbSpline
70
4
71
3
72
34
73
30
40
0
40
0
40
0
40
0
40
0.0864305386570391
40
0.0864305386570391
40
0.172861077314078
40
0.172861077314078
40
0.259291615971117
40
0.259291615971117
40
0.302506885299636
40
0.302506885299636
40
0.345722154628156
40
0.345722154628156
40
0.432152693285192
40
0.432152693285192
40
0.518583231942229
40
0.518583231942229
40
0.605013770599266
40
0.605013770599266
40
0.648229039927785
40
0.648229039927785
40
0.691444309256305
40
0.691444309256305
40
0.864305386570383
40
0.864305386570383
40
0.907520655898903
40
0.907520655898903
40
0.950735925227423
40
0.950735925227423
40
1
40
1
40
1
40
1
41
1
10
25.3320117309766
20
-1.75290762639861
30
0
41
1
10
25.1461729986032
20
-1.73792179426954
30
0
41
1
10
24.9598928066691
20
-1.71232790920854
30
0
41
1
10
24.5904826409472
20
-1.63981287913128
30
0
41
1
10
24.4067547195367
20
-1.59320775418254
30
0
41
1
10
24.0394097631185
20
-1.48115579045373
30
0
41
1
10
23.8558700569276
20
-1.41572348673372
30
1E-16
41
1
10
23.5799100428093
20
-1.30480933652822
30
1E-16
41
1
10
23.487694517937
20
-1.26567966961508
30
1E-16
41
1
10
23.3025094310303
20
-1.18328165825028
30
1E-16
41
1
10
23.2092906798945
20
-1.1398892811969
30
1E-16
41
1
10
22.93034477366
20
-1.00490249451374
30
1E-16
41
1
10
22.745833392025
20
-0.908768974702753
30
1E-16
41
1
10
22.3782691634355
20
-0.706912717413132
30
0
41
1
10
22.1949355623902
20
-0.601333528907162
30
0
41
1
10
21.8273252809573
20
-0.383852600028519
30
0
41
1
10
21.6430764865143
20
-0.2719375195677
30
0
41
1
10
21.3648381219838
20
-0.101167776599482
30
0
41
1
10
21.2715151944361
20
-0.0436380979176079
30
0
41
1
10
21.0858153120064
20
0.070778880772167
30
0
41
1
10
20.9933116091881
20
0.127749243541132
30
0
41
1
10
20.5318740656298
20
0.410381889764324
30
0
41
1
10
20.166359011541
20
0.62962081124499
30
0
41
1
10
19.7045911437792
20
0.880413419245656
30
-1E-16
41
1
10
19.6119842125056
20
0.929384825612601
30
-1E-16
41
1
10
19.4260311197475
20
1.02457849266327
30
-1E-16
41
1
10
19.332734153978
20
1.07075347637695
30
-1E-16
41
1
10
19.1344104399405
20
1.16530742569688
30
-1E-16
41
1
10
19.0291750269878
20
1.21322179982658
30
-1E-16
41
1
10
18.9241602019054
20
1.2584974795069
30
-1E-16
0
SPLINE
5
C7
100
AcDbEntity
8
1
62
256
6
ByLayer
370
18
48
1
60
0
100
AcDbSpline
70
4
71
3
72
8
73
4
40
0
40
0
40
0
40
0
40
1
40
1
40
1
40
1
41
1
10
8.19250700599298
20
-1.7315873138817
30
0
41
1
10
7.99464327734415
20
-1.75218687079772
30
0
41
1
10
7.79654625619528
20
-1.7603171397283
30
0
41
1
10
7.59705113090484
20
-1.755452472287
30
0
0
SPLINE
5
C8
100
AcDbEntity
8
1
62
256
6
ByLayer
370
18
48
1
60
0
100
AcDbSpline
70
4
71
3
72
8
73
4
40
0
40
0
40
0
40
0
40
1
40
1
40
1
40
1
41
1
10
25.8424528381491
20
0.578524097825323
30
0
41
1
10
25.8953503477487
20
0.429919839767024
30
0
41
1
10
25.9469742865535
20
0.280858267211045
30
0
41
1
10
25.9973072639427
20
0.131333135523732
30
0
0
SPLINE
5
C9
100
AcDbEntity
8
1
62
256
6
ByLayer
370
18
48
1
60
0
100
AcDbSpline
70
4
71
3
72
8
73
4
40
0
40
0
40
0
40
0
40
1
40
1
40
1
40
1
41
1
10
25.2075143207055
20
1.82256372107116
30
0
41
1
10
25.2101827840331
20
1.83761455652493
30
0
41
1
10
25.2123336445722
20
1.84656794469461
30
0
41
1
10
25.2143161234732
20
1.84915098757372
30
0
0
SPLINE
5
CA
100
AcDbEntity
8
1
62
256
6
ByLayer
370
18
48
1
60
0
100
AcDbSpline
70
4
71
3
72
18
73
14
40
0
40
0
40
0
40
0
40
0.250000000000013
40
0.250000000000013
40
0.375000000000014
40
0.375000000000014
40
0.500000000000014
40
0.500000000000014
40
0.625000000000014
40
0.625000000000014
40
0.750000000000014
40
0.750000000000014
40
1
40
1
40
1
40
1
41
1
10
25.9667562222669
20
0.0287162033024799
30
0
41
1
10
25.9511094046976
20
-0.0234875238302834
30
0
41
1
10
25.9319860054929
20
-0.0743965192414748
30
0
41
1
10
25.8985123966224
20
-0.146837153896456
30
0
41
1
10
25.8868449881696
20
-0.169688748164447
30
0
41
1
10
25.8625508645113
20
-0.21270331316299
30
0
41
1
10
25.8497572212549
20
-0.233102442194394
30
0
41
1
10
25.8239454312268
20
-0.269631569669627
30
0
41
1
10
25.8110928437114
20
-0.285590293165399
30
0
41
1
10
25.7854664655002
20
-0.312824943350165
30
0
41
1
10
25.7726095155591
20
-0.324093799544016
30
0
41
1
10
25.7360140413514
20
-0.348898485435654
30
0
41
1
10
25.7133572665977
20
-0.354040469388679
30
0
41
1
10
25.6935649842356
20
-0.348665469591566
30
0
0
SPLINE
5
CB
100
AcDbEntity
8
1
62
256
6
ByLayer
370
18
48
1
60
0
100
AcDbSpline
70
4
71
3
72
12
73
8
40
0
40
0
40
0
40
0
40
0.643869965751674
40
0.643869965751674
40
0.931932055783266
40
0.931932055783266
40
1
40
1
40
1
40
1
41
1
10
25.214316123485
20
-1.84915098756574
30
0
41
1
10
25.2390378307554
20
-1.83323687781234
30
0
41
1
10
25.2638450977562
20
-1.81700141509819
30
0
41
1
10
25.2999262346605
20
-1.79302765781998
30
0
41
1
10
25.3111078208669
20
-1.78554872436669
30
0
41
1
10
25.3249579101457
20
-1.77622686542162
30
0
41
1
10
25.3276056511136
20
-1.77444219802644
30
0
41
1
10
25.330252259446
20
-1.7726556737193
30
0
0
SPLINE
5
CC
100
AcDbEntity
8
1
62
256
6
ByLayer
370
18
48
1
60
0
100
AcDbSpline
70
4
71
3
72
20
73
16
40
0
40
0
40
0
40
0
40
0.293923150646123
40
0.293923150646123
40
0.440884725969183
40
0.440884725969183
40
0.587846301292242
40
0.587846301292242
40
0.734807876615302
40
0.734807876615302
40
0.881769451938361
40
0.881769451938361
40
0.955250239599891
40
0.955250239599891
40
1
40
1
40
1
40
1
41
1
10
7.65635241610096
20
-0.500790862262818
30
0
41
1
10
8.02125672420098
20
-0.727955066747995
30
0
41
1
10
8.38226211712478
20
-0.937117108396535
30
1E-16
41
1
10
8.92602335228833
20
-1.21388691574415
30
1E-16
41
1
10
9.10739731508568
20
-1.30019613117761
30
1E-16
41
1
10
9.4739149735984
20
-1.45632978260818
30
1E-16
41
1
10
9.6565858097166
20
-1.52520960112565
30
1E-16
41
1
10
10.0195133354475
20
-1.64373024646085
30
0
41
1
10
10.1997373520716
20
-1.69368252915626
30
0
41
1
10
10.5614360472318
20
-1.77238126313509
30
0
41
1
10
10.7430160508152
20
-1.80121651447146
30
0
41
1
10
11.0169413750724
20
-1.82828612819327
30
0
41
1
10
11.1087895073488
20
-1.83459593874485
30
0
41
1
10
11.2559402894639
20
-1.84017684095721
30
0
41
1
10
11.3114938716624
20
-1.84124359727642
30
0
41
1
10
11.3669337372675
20
-1.84127388160616
30
0
0
SPLINE
5
CD
100
AcDbEntity
8
1
62
256
6
ByLayer
370
18
48
1
60
0
100
AcDbSpline
70
4
71
3
72
30
73
26
40
0
40
0
40
0
40
0
40
0.012494107752747
40
0.012494107752747
40
0.0618694023651102
40
0.0618694023651102
40
0.111244696977473
40
0.111244696977473
40
0.209995286202197
40
0.209995286202197
40
0.308745875426921
40
0.308745875426921
40
0.407496464651645
40
0.407496464651645
40
0.456871759264006
40
0.456871759264006
40
0.506247053876368
40
0.506247053876368
40
0.604997643101095
40
0.604997643101095
40
0.703748232325821
40
0.703748232325821
40
0.802498821550547
40
0.802498821550547
40
1
40
1
40
1
40
1
41
1
10
19.5732084317572
20
1.77627864903224
30
0
41
1
10
19.5961135756143
20
1.78033154487144
30
0
41
1
10
19.6190385382833
20
1.78421066207784
30
0
41
1
10
19.7326819712364
20
1.80254602097065
30
0
41
1
10
19.8236769029284
20
1.81449313876703
30
0
41
1
10
20.0062852902482
20
1.83297116460938
30
0
41
1
10
20.0981671770128
20
1.83950834621049
30
0
41
1
10
20.3723709901385
20
1.85064855207244
30
0
41
1
10
20.5530960092441
20
1.84672480837031
30
0
41
1
10
20.9148513175634
20
1.81706924834077
30
0
41
1
10
21.0954343776898
20
1.79139555027308
30
0
41
1
10
21.4573832395274
20
1.71889248476947
30
0
41
1
10
21.6384171232785
20
1.67180194748167
30
0
41
1
10
21.9126255349847
20
1.58596944129661
30
0
41
1
10
22.0043442097428
20
1.55482082496218
30
-1E-16
41
1
10
22.1866307514635
20
1.48828973401387
30
-1E-16
41
1
10
22.2774561735841
20
1.45282572093714
30
-1E-16
41
1
10
22.5492384416354
20
1.34015856934198
30
-1E-16
41
1
10
22.7294890391067
20
1.25663572435204
30
-1E-16
41
1
10
23.0909145818474
20
1.07609775787284
30
-1E-16
41
1
10
23.271863341323
20
0.97884877074145
30
-1E-16
41
1
10
23.6357596335518
20
0.772024478437629
30
0
41
1
10
23.8192866670209
20
0.662026298857057
30
0
41
1
10
24.364962803056
20
0.326100843753579
30
0
41
1
10
24.7246987280085
20
0.0905339217040932
30
0
41
1
10
25.0888980490993
20
-0.143346452518614
30
0
0
SPLINE
5
CE
100
AcDbEntity
8
1
62
256
6
ByLayer
370
18
48
1
60
0
100
AcDbSpline
70
4
71
3
72
8
73
4
40
0
40
0
40
0
40
0
40
1
40
1
40
1
40
1
41
1
10
7.59705113090484
20
-1.755452472287
30
0
41
1
10
7.58046221836156
20
-1.75504795341661
30
0
41
1
10
7.56427233834194
20
-1.75898364945118
30
0
41
1
10
7.54959545098296
20
-1.76752684481332
30
0
0
SPLINE
5
CF
100
AcDbEntity
8
1
62
256
6
ByLayer
370
18
48
1
60
0
100
AcDbSpline
70
4
71
3
72
8
73
4
40
0
40
0
40
0
40
0
40
1
40
1
40
1
40
1
41
1
10
25.3713878845859
20
-1.74470811318727
30
0
41
1
10
25.355632905941
20
-1.75664647526031
30
0
41
1
10
25.3438638828982
20
-1.75866886127545
30
0
41
1
10
25.3348523684562
20
-1.75123329526633
30
0
0
SPLINE
5
D0
100
AcDbEntity
8
1
62
256
6
ByLayer
370
18
48
1
60
0
100
AcDbSpline
70
4
71
3
72
32
73
28
40
0
40
0
40
0
40
0
40
0.0218049454607952
40
0.0218049454607952
40
0.130018215423048
40
0.130018215423048
40
0.184124850404176
40
0.184124850404176
40
0.238231485385303
40
0.238231485385303
40
0.454658025309811
40
0.454658025309811
40
0.508764660290938
40
0.508764660290938
40
0.562871295272065
40
0.562871295272065
40
0.67108456523432
40
0.67108456523432
40
0.725191200215447
40
0.725191200215447
40
0.779297835196573
40
0.779297835196573
40
0.887511105158828
40
0.887511105158828
40
0.995724375121082
40
0.995724375121082
40
1
40
1
40
1
40
1
41
1
10
21.0384051168653
20
-0.155431531226412
30
0
41
1
10
20.9884793473499
20
-0.125048807061688
30
0
41
1
10
20.9385930174649
20
-0.0946075774734538
30
0
41
1
10
20.641274127241
20
0.087101538725733
30
0
41
1
10
20.3941277341862
20
0.238673427902569
30
0
41
1
10
20.0207423809592
20
0.46132792815078
30
0
41
1
10
19.8956086454408
20
0.534890958622185
30
0
41
1
10
19.6447548731509
20
0.678670922569523
30
0
41
1
10
19.5195720345591
20
0.748521026962692
30
0
41
1
10
18.8940705285029
20
1.08680863930914
30
-1E-16
41
1
10
18.3913936404627
20
1.320886482101
30
-1E-16
41
1
10
17.7642133545355
20
1.52415396686149
30
0
41
1
10
17.6388425777857
20
1.56068390028585
30
0
41
1
10
17.3880758707069
20
1.62418904991114
30
0
41
1
10
17.263315235379
20
1.65102427427479
30
0
41
1
10
16.8899260793985
20
1.71778842787182
30
0
41
1
10
16.6424490951002
20
1.74393225100718
30
0
41
1
10
16.2698890924265
20
1.75238984398743
30
0
41
1
10
16.1455594579535
20
1.7503811728046
30
0
41
1
10
15.8958633975041
20
1.73627020500726
30
0
41
1
10
15.7700850932503
20
1.7240821948898
30
0
41
1
10
15.3949367733303
20
1.67301982534653
30
0
41
1
10
15.1471031127053
20
1.62003697852333
30
0
41
1
10
14.6507964729209
20
1.47887152692004
30
0
41
1
10
14.402615157257
20
1.39182709333829
30
-1E-16
41
1
10
14.1420365745562
20
1.2840912997296
30
-1E-16
41
1
10
14.1321302794441
20
1.27997221436081
30
-1E-16
41
1
10
14.1222224536479
20
1.27582935765608
30
-1E-16
0
SPLINE
5
D1
100
AcDbEntity
8
1
62
256
6
ByLayer
370
18
48
1
60
0
100
AcDbSpline
70
4
71
3
72
26
73
22
40
0
40
0
40
0
40
0
40
0.113998938397913
40
0.113998938397913
40
0.227997876795826
40
0.227997876795826
40
0.341996815193739
40
0.341996815193739
40
0.455995753591652
40
0.455995753591652
40
0.569994691989564
40
0.569994691989564
40
0.683993630387478
40
0.683993630387478
40
0.740993099586436
40
0.740993099586436
40
0.797992568785394
40
0.797992568785394
40
0.911991507183306
40
0.911991507183306
40
1
40
1
40
1
40
1
41
1
10
25.1338099946616
20
-0.175099958267452
30
0
41
1
10
24.9518776984475
20
-0.0643883612997058
30
0
41
1
10
24.7709618066639
20
0.047208758889127
30
0
41
1
10
24.4088232892477
20
0.268378112664067
30
0
41
1
10
24.227669127013
20
0.378056034992028
30
0
41
1
10
23.8634633696615
20
0.592653591306828
30
0
41
1
10
23.6795214671361
20
0.697963638328503
30
0
41
1
10
23.3144985939309
20
0.897129895101727
30
-1E-16
41
1
10
23.1329698083361
20
0.991332076450391
30
-1E-16
41
1
10
22.7706430947025
20
1.166544490322
30
-1E-16
41
1
10
22.5899988987749
20
1.24721877149923
30
-1E-16
41
1
10
22.2272658573963
20
1.39347567358868
30
-1E-16
41
1
10
22.0451811842762
20
1.45911000436956
30
0
41
1
10
21.7699406979228
20
1.54405946145465
30
0
41
1
10
21.678171046061
20
1.56998711934463
30
0
41
1
10
21.4957209686074
20
1.61650101179362
30
0
41
1
10
21.4047912413461
20
1.63724163609208
30
0
41
1
10
21.1321330655707
20
1.69261823221529
30
0
41
1
10
20.9509444619683
20
1.7196881930476
30
0
41
1
10
20.6298860636259
20
1.74853550670178
30
0
41
1
10
20.4901464020881
20
1.75392061878699
30
0
41
1
10
20.3497692527294
20
1.75351829597048
30
0
0
SPLINE
5
D2
100
AcDbEntity
8
1
62
256
6
ByLayer
370
18
48
1
60
0
100
AcDbSpline
70
4
71
3
72
8
73
4
40
0
40
0
40
0
40
0
40
1
40
1
40
1
40
1
41
1
10
25.2075143207055
20
-1.82256372107116
30
0
41
1
10
25.2101827840331
20
-1.83761455652504
30
0
41
1
10
25.2123336445722
20
-1.84656794469475
30
0
41
1
10
25.2143161234732
20
-1.84915098757378
30
0
0
SPLINE
5
D3
100
AcDbEntity
8
1
62
256
6
ByLayer
370
18
48
1
60
0
100
AcDbSpline
70
4
71
3
72
16
73
12
40
0
40
0
40
0
40
0
40
0.255041786145705
40
0.255041786145705
40
0.510083572291411
40
0.510083572291411
40
0.765125358437116
40
0.765125358437116
40
0.892646251509971
40
0.892646251509971
40
1
40
1
40
1
40
1
41
1
10
13.4
20
-0.978398158694375
30
1E-16
41
1
10
13.6482787492944
20
-1.11402708440741
30
1E-16
41
1
10
13.8957584802023
20
-1.23804766813024
30
1E-16
41
1
10
14.3908129140059
20
-1.45544684125474
30
1E-16
41
1
10
14.6398773292673
20
-1.54948766665592
30
1E-16
41
1
10
15.1322293568587
20
-1.6994569287221
30
0
41
1
10
15.3766900070842
20
-1.75601084388592
30
0
41
1
10
15.744344695169
20
-1.81148968033179
30
0
41
1
10
15.8670517430068
20
-1.82508931862859
30
0
41
1
10
16.0939120415856
20
-1.84082454823985
30
0
41
1
10
16.1981735657552
20
-1.84442729611874
30
0
41
1
10
16.3025286957009
20
-1.84435270712075
30
0
0
SPLINE
5
D4
100
AcDbEntity
8
1
62
256
6
ByLayer
370
18
48
1
60
0
100
AcDbSpline
70
4
71
3
72
8
73
4
40
0
40
0
40
0
40
0
40
1
40
1
40
1
40
1
41
1
10
24.8328413966163
20
1.82548555337405
30
0
41
1
10
24.959533757295
20
1.83873854235219
30
0
41
1
10
25.0865877105797
20
1.84667919142834
30
0
41
1
10
25.214316123485
20
1.84915098757372
30
0
0
SPLINE
5
D5
100
AcDbEntity
8
1
62
256
6
ByLayer
370
18
48
1
60
0
100
AcDbSpline
70
4
71
3
72
10
73
6
40
0
40
0
40
0
40
0
40
0.5
40
0.5
40
1
40
1
40
1
40
1
41
1
10
25.5383339605056
20
0.501620041007271
30
0
41
1
10
25.5899860487947
20
0.510572336690871
30
0
41
1
10
25.6413820747325
20
0.520736461021073
30
0
41
1
10
25.7431911301016
20
0.545411251438878
30
0
41
1
10
25.7937039600516
20
0.560113292203368
30
0
41
1
10
25.8424528381491
20
0.578524097825351
30
0
0
SPLINE
5
D6
100
AcDbEntity
8
1
62
256
6
ByLayer
370
18
48
1
60
0
100
AcDbSpline
70
4
71
3
72
8
73
4
40
0
40
0
40
0
40
0
40
1
40
1
40
1
40
1
41
1
10
25.0888980490992
20
-0.1433464525185
30
0
41
1
10
25.1021467540397
20
-0.14971225858821
30
0
41
1
10
25.115327410035
20
-0.155641889985901
30
0
41
1
10
25.128457142935
20
-0.161147768052785
30
0
0
SPLINE
5
D7
100
AcDbEntity
8
1
62
256
6
ByLayer
370
18
48
1
60
0
100
AcDbSpline
70
4
71
3
72
8
73
4
40
0
40
0
40
0
40
0
40
1
40
1
40
1
40
1
41
1
10
25.8424528381491
20
-0.578524097825323
30
0
41
1
10
25.8953503477529
20
-0.429919839755229
30
0
41
1
10
25.9469742865617
20
-0.280858267187341
30
0
41
1
10
25.9973072639547
20
-0.131333135488092
30
0
0
SPLINE
5
D8
100
AcDbEntity
8
1
62
256
6
ByLayer
370
18
48
1
60
0
100
AcDbSpline
70
4
71
3
72
8
73
4
40
0
40
0
40
0
40
0
40
1
40
1
40
1
40
1
41
1
10
25.2075143207053
20
1.82256372107136
30
0
41
1
10
25.2488379366122
20
1.80023085197408
30
0
41
1
10
25.2903222928304
20
1.7770021093788
30
0
41
1
10
25.3320111591046
20
1.75290758027248
30
0
0
SPLINE
5
D9
100
AcDbEntity
8
1
62
256
6
ByLayer
370
18
48
1
60
0
100
AcDbSpline
70
4
71
3
72
28
73
24
40
0
40
0
40
0
40
0
40
0.0790884801896241
40
0.0790884801896241
40
0.19079534561904
40
0.19079534561904
40
0.302502211048455
40
0.302502211048455
40
0.358355643763161
40
0.358355643763161
40
0.414209076477867
40
0.414209076477867
40
0.637622807336702
40
0.637622807336702
40
0.693476240051409
40
0.693476240051409
40
0.749329672766117
40
0.749329672766117
40
0.861036538195533
40
0.861036538195533
40
0.972743403624948
40
0.972743403624948
40
1
40
1
40
1
40
1
41
1
10
16.2402586258359
20
-0.239190665966731
30
0
41
1
10
16.1106606186715
20
-0.160993670905015
30
0
41
1
10
15.9815338970821
20
-0.0826184933687841
30
0
41
1
10
15.6714177111517
20
0.107060694145787
30
0
41
1
10
15.4908186067545
20
0.218332246320301
30
0
41
1
10
15.1280683476249
20
0.436144752823566
30
0
41
1
10
14.9460196394463
20
0.542865231695401
30
0
41
1
10
14.6716361511208
20
0.698643499268371
30
0
41
1
10
14.5797304819733
20
0.749975436461853
30
0
41
1
10
14.3966370262975
20
0.849648985226594
30
-1E-16
41
1
10
14.305331841522
20
0.898065825545075
30
-1E-16
41
1
10
13.8497791370864
20
1.13227521296878
30
-1E-16
41
1
10
13.4881526723317
20
1.29563424410048
30
-1E-16
41
1
10
13.0324101346607
20
1.45693504857283
30
0
41
1
10
12.9410842501527
20
1.48690043262832
30
0
41
1
10
12.7576793976234
20
1.54247252790057
30
0
41
1
10
12.6656546974349
20
1.56815774512134
30
0
41
1
10
12.3908613985385
20
1.63799416374445
30
0
41
1
10
12.2084926195832
20
1.67539138179819
30
0
41
1
10
11.8453028120212
20
1.72749331311653
30
0
41
1
10
11.6643892893435
20
1.7422208787134
30
0
41
1
10
11.4382131543727
20
1.74835091430029
30
0
41
1
10
11.3938102966238
20
1.74893895371534
30
0
41
1
10
11.3493547100201
20
1.7489111545701
30
0
0
SPLINE
5
DA
100
AcDbEntity
8
1
62
256
6
ByLayer
370
18
48
1
60
0
100
AcDbSpline
70
4
71
3
72
8
73
4
40
0
40
0
40
0
40
0
40
1
40
1
40
1
40
1
41
1
10
7.50241306657199
20
-1.83069893678618
30
0
41
1
10
7.50236800819195
20
-1.83064976883924
30
0
41
1
10
7.50234529899669
20
-1.83060016479868
30
0
41
1
10
7.5023453050529
20
-1.83055039652251
30
0
0
SPLINE
5
DB
100
AcDbEntity
8
1
62
256
6
ByLayer
370
18
48
1
60
0
100
AcDbSpline
70
4
71
3
72
12
73
8
40
0
40
0
40
0
40
0
40
0.670915903423195
40
0.670915903423195
40
0.838644879278992
40
0.838644879278992
40
1
40
1
40
1
40
1
41
1
10
25.3636975710137
20
1.74993705295435
30
0
41
1
10
24.8629674293777
20
1.75840434476143
30
0
41
1
10
24.3724124249425
20
1.68715383356391
30
0
41
1
10
23.75024193515
20
1.50751241676122
30
0
41
1
10
23.6249576938085
20
1.46680745238058
30
0
41
1
10
23.3792362371108
20
1.37878574625873
30
-1E-16
41
1
10
23.2593244907734
20
1.33228110176853
30
-1E-16
41
1
10
23.1397717569925
20
1.28264361597613
30
-1E-16
0
SPLINE
5
DC
100
AcDbEntity
8
1
62
256
6
ByLayer
370
18
48
1
60
0
100
AcDbSpline
70
4
71
3
72
40
73
36
40
0
40
0
40
0
40
0
40
0.0047165846084667
40
0.0047165846084667
40
0.0608680331129371
40
0.0608680331129371
40
0.117019481617407
40
0.117019481617407
40
0.229322378626348
40
0.229322378626348
40
0.285473827130819
40
0.285473827130819
40
0.313549551383054
40
0.313549551383054
40
0.341625275635289
40
0.341625275635289
40
0.45392817264423
40
0.45392817264423
40
0.5100796211487
40
0.5100796211487
40
0.566231069653171
40
0.566231069653171
40
0.622382518157642
40
0.622382518157642
40
0.650458242409876
40
0.650458242409876
40
0.678533966662111
40
0.678533966662111
40
0.790836863671051
40
0.790836863671051
40
0.846988312175522
40
0.846988312175522
40
0.903139760679992
40
0.903139760679992
40
1
40
1
40
1
40
1
41
1
10
17.5316633458013
20
-1.76812601539001
30
0
41
1
10
17.5162784130372
20
-1.7709527091057
30
0
41
1
10
17.5008960376525
20
-1.77370201682763
30
0
41
1
10
17.3024090168184
20
-1.80818052141106
30
0
41
1
10
17.1195283049974
20
-1.82899079955479
30
0
41
1
10
16.752382552566
20
-1.84810831498822
30
0
41
1
10
16.5680844777034
20
-1.84640046812507
30
0
41
1
10
16.0115231147208
20
-1.80624578737687
30
0
41
1
10
15.6464071962749
20
-1.73403783898752
30
0
41
1
10
15.0966393409154
20
-1.56535498081385
30
0
41
1
10
14.91291051381
20
-1.4991260254456
30
1E-16
41
1
10
14.6352576467778
20
-1.3855618652276
30
1E-16
41
1
10
14.5422576908078
20
-1.34520811101422
30
1E-16
41
1
10
14.3574102549119
20
-1.26092753380203
30
1E-16
41
1
10
14.2653182025321
20
-1.21690951867606
30
1E-16
41
1
10
13.8058511546897
20
-0.98836536268189
30
1E-16
41
1
10
13.4414382677445
20
-0.778560490878306
30
0
41
1
10
12.8880646112435
20
-0.439161937579826
30
0
41
1
10
12.7018643337178
20
-0.321165181047377
30
0
41
1
10
12.333158628786
20
-0.0855247115834175
30
0
41
1
10
12.1498601133815
20
0.032775094955781
30
0
41
1
10
11.7835551414735
20
0.267489294193297
30
0
41
1
10
11.6005857397914
20
0.38396052431591
30
0
41
1
10
11.3248308119121
20
0.554853630106379
30
0
41
1
10
11.2326904028997
20
0.611174184784687
30
0
41
1
10
11.0476845034172
20
0.722086157026183
30
0
41
1
10
10.9546271387647
20
0.776779479327871
30
0
41
1
10
10.491996278321
20
1.04189656329564
30
-1E-16
41
1
10
10.1271131459891
20
1.22987065399604
30
-1E-16
41
1
10
9.57651797296111
20
1.46270458167359
30
-1E-16
41
1
10
9.3922985446502
20
1.53195393305361
30
-1E-16
41
1
10
9.02050228148971
20
1.65137292711864
30
0
41
1
10
8.83624283091973
20
1.70064928980113
30
0
41
1
10
8.33574413284373
20
1.80533766888109
30
0
41
1
10
8.02017358182889
20
1.83918554932737
30
0
41
1
10
7.70104365102273
20
1.83899016617019
30
0
0
SPLINE
5
DD
100
AcDbEntity
8
1
62
256
6
ByLayer
370
18
48
1
60
0
100
AcDbSpline
70
4
71
3
72
14
73
10
40
0
40
0
40
0
40
0
40
0.25
40
0.25
40
0.5
40
0.5
40
0.75
40
0.75
40
1
40
1
40
1
40
1
41
1
10
7.50243566870552
20
-0.57261294762975
30
0
41
1
10
7.50395013110358
20
-0.556423472431021
30
0
41
1
10
7.50991651739076
20
-0.540553249576021
30
0
41
1
10
7.52931100976477
20
-0.513502068786579
30
0
41
1
10
7.54279493130326
20
-0.502330528640698
30
0
41
1
10
7.57349481167338
20
-0.487890726536648
30
0
41
1
10
7.59080108944903
20
-0.484526278761223
30
0
41
1
10
7.62505780184932
20
-0.486480773200441
30
0
41
1
10
7.64183045929815
20
-0.491750495538042
30
0
41
1
10
7.65635241610099
20
-0.500790862262846
30
0
0
SPLINE
5
DE
100
AcDbEntity
8
1
62
256
6
ByLayer
370
18
48
1
60
0
100
AcDbSpline
70
4
71
3
72
8
73
4
40
0
40
0
40
0
40
0
40
1
40
1
40
1
40
1
41
1
10
7.6022909237318
20
-1.74515779076935
30
0
41
1
10
7.58383015380679
20
-1.74470033439164
30
0
41
1
10
7.56583907172578
20
-1.74910212280312
30
0
41
1
10
7.54959545098296
20
-1.75858132316279
30
0
0
SPLINE
5
DF
100
AcDbEntity
8
1
62
256
6
ByLayer
370
18
48
1
60
0
100
AcDbSpline
70
4
71
3
72
22
73
18
40
0
40
0
40
0
40
0
40
0.125
40
0.125
40
0.25
40
0.25
40
0.375
40
0.375
40
0.5
40
0.5
40
0.625
40
0.625
40
0.75
40
0.75
40
0.875
40
0.875
40
1
40
1
40
1
40
1
41
1
10
7.50234530505298
20
-1.83055039652356
30
0
41
1
10
7.50234633719771
20
-1.82206460312616
30
0
41
1
10
7.50234716251595
20
-1.80703544526594
30
0
41
1
10
7.50234854149494
20
-1.76491573249802
30
0
41
1
10
7.50234910099235
20
-1.73779663745981
30
0
41
1
10
7.50235012173312
20
-1.67143271210705
30
0
41
1
10
7.50235058663233
20
-1.63178207267558
30
0
41
1
10
7.50235153991181
20
-1.54199347754991
30
1E-16
41
1
10
7.5023520291513
20
-1.4919566228466
30
1E-16
41
1
10
7.50235314563747
20
-1.38180379902059
30
1E-16
41
1
10
7.50235377297653
20
-1.32165517417189
30
1E-16
41
1
10
7.50235524640789
20
-1.19097800458292
30
1E-16
41
1
10
7.50235607541518
20
-1.12200210893843
30
1E-16
41
1
10
7.50235793801465
20
-0.977070377893853
30
1E-16
41
1
10
7.50235897160374
20
-0.901113811909767
30
1E-16
41
1
10
7.50236122553957
20
-0.74206710265014
30
0
41
1
10
7.5023624467656
20
-0.658956049334108
30
0
41
1
10
7.50236369822827
20
-0.574151348808527
30
0
0
SPLINE
5
E0
100
AcDbEntity
8
1
62
256
6
ByLayer
370
18
48
1
60
0
100
AcDbSpline
70
4
71
3
72
65
73
61
40
0
40
0
40
0
40
0
40
0.0176177350916101
40
0.0176177350916101
40
0.0353666419474048
40
0.0353666419474048
40
0.0531155488031994
40
0.0531155488031994
40
0.0708644556589942
40
0.0708644556589942
40
0.0886133625147888
40
0.0886133625147888
40
0.106362269370584
40
0.106362269370584
40
0.110799496084532
40
0.110799496084532
40
0.111354149423776
40
0.111354149423776
40
0.111908802763019
40
0.111908802763019
40
0.113018109441506
40
0.113018109441506
40
0.115236722798481
40
0.115236722798481
40
0.124111176226378
40
0.124111176226378
40
0.141860083082173
40
0.141860083082173
40
0.177357896793762
40
0.177357896793762
40
0.24835352421694
40
0.24835352421694
40
0.390344779063296
40
0.390344779063296
40
0.461340406486474
40
0.461340406486474
40
0.479089313342269
40
0.479089313342269
40
0.483526540056217
40
0.483526540056217
40
0.485745153413192
40
0.485745153413192
40
0.486854460091679
40
0.486854460091679
40
0.487963766770166
40
0.487963766770166
40
0.488241093439788
40
0.488241093439788
40
0.48851842010941
40
0.48851842010941
40
0.489073073448653
40
0.489073073448653
40
0.49018238012714
40
0.492400993484115
40
0.496838220198064
40
0.532336033909656
40
0.532336033909656
40
0.816318543602389
40
0.816318543602389
40
1
40
1
40
1
40
1
41
1
10
8.67164936948134
20
1.61167557299146
30
0
41
1
10
8.67286998613133
20
1.58188933004149
30
0
41
1
10
8.67169067470064
20
1.55177629945641
30
0
41
1
10
8.66419571867385
20
1.49057498249789
30
0
41
1
10
8.65810294915639
20
1.45920483737512
30
0
41
1
10
8.64286925603298
20
1.39561770240962
30
0
41
1
10
8.63373934580576
20
1.36337247608213
30
0
41
1
10
8.61344051210847
20
1.29745283168941
30
0
41
1
10
8.60226572016006
20
1.26378170793191
30
0
41
1
10
8.5766406688181
20
1.1956626670131
30
0
41
1
10
8.56263704644147
20
1.16097599155577
30
0
41
1
10
8.53178154710452
20
1.09054075217614
30
0
41
1
10
8.51407053478027
20
1.05512839808588
30
0
41
1
10
8.48979815713875
20
1.0106913530085
30
0
41
1
10
8.48484054396104
20
1.00180169170858
30
0
41
1
10
8.47915665834171
20
0.991797386844212
30
0
41
1
10
8.47848139349858
20
0.99071089694354
30
0
41
1
10
8.47731197049586
20
0.988428235807675
30
0
41
1
10
8.47750642879541
20
0.986933392417967
30
0
41
1
10
8.47947741928084
20
0.983120629300743
30
0
41
1
10
8.48155001518873
20
0.980994441665672
30
0
41
1
10
8.48759729388252
20
0.974769097823611
30
0
41
1
10
8.49196162505774
20
0.970939689927917
30
0
41
1
10
8.51385280593257
20
0.952059087581802
30
0
41
1
10
8.53214666072418
20
0.937909957454394
30
0
41
1
10
8.58699073799133
20
0.895573408104838
30
0
41
1
10
8.62401514064666
20
0.868006256169281
30
0
41
1
10
8.73535055889414
20
0.785715029721217
30
0
41
1
10
8.81006238783658
20
0.73162407771207
30
0
41
1
10
9.03431812897779
20
0.569636994723737
30
0
41
1
10
9.18396773903964
20
0.462008750524234
30
0
41
1
10
9.63240316198096
20
0.139099862551092
30
0
41
1
10
9.93080574722933
20
-0.0759492483028055
30
0
41
1
10
10.3791182420091
20
-0.396174787431136
30
0
41
1
10
10.5290697420686
20
-0.502068499236742
30
0
41
1
10
10.7142477159764
20
-0.636674219332633
30
0
41
1
10
10.7512300970266
20
-0.663673050787253
30
0
41
1
10
10.7966129286235
20
-0.698212597597603
30
0
41
1
10
10.8056441017547
20
-0.705161653341548
30
0
41
1
10
10.8189792430102
20
-0.715779247076767
30
0
41
1
10
10.8233946728841
20
-0.719349807400704
30
0
41
1
10
10.829860523487
20
-0.724835929112459
30
0
41
1
10
10.8319936631654
20
-0.726686355520229
30
0
41
1
10
10.8360937512322
20
-0.730488806350081
30
0
41
1
10
10.8383745093856
20
-0.732385427186813
30
0
41
1
10
10.8397972726588
20
-0.7352121068906
30
0
41
1
10
10.8398854243722
20
-0.735888182874788
30
0
41
1
10
10.8388751614635
20
-0.73642261874852
30
0
41
1
10
10.8381452797073
20
-0.736374311655595
30
0
41
1
10
10.8361144954619
20
-0.736186785250339
30
0
41
1
10
10.8347284526767
20
-0.735897704648352
30
0
41
1
10
10.8306009700045
20
-0.735175522008092
30
0
41
1
10
10.8223462488645
20
-0.733730214297367
30
0
41
1
10
10.8030869495055
20
-0.73035123338363
30
0
41
1
10
10.6985551446357
20
-0.711936575800536
30
0
41
1
10
10.5996302670843
20
-0.694083688623152
30
0
41
1
10
9.80901413066269
20
-0.548363303721914
30
0
41
1
10
9.11188441594834
20
-0.398199220900438
30
0
41
1
10
7.97397536098634
20
-0.117110083299593
30
0
41
1
10
7.52934423726259
20
0.0019211606331453
30
0
41
1
10
7.08706427815699
20
0.129256673025736
30
0
0
SPLINE
5
E1
100
AcDbEntity
8
1
62
256
6
ByLayer
370
18
48
1
60
0
100
AcDbSpline
70
4
71
3
72
14
73
10
40
0
40
0
40
0
40
0
40
0.25
40
0.25
40
0.5
40
0.5
40
0.75
40
0.75
40
1
40
1
40
1
40
1
41
1
10
25.1338099946567
20
-0.175099958267879
30
0
41
1
10
25.1444908032103
20
-0.372270932137923
30
0
41
1
10
25.1669799124076
20
-0.560138079156815
30
0
41
1
10
25.2142858241011
20
-0.917585533764765
30
1E-16
41
1
10
25.2378176587379
20
-1.07824117416183
30
1E-16
41
1
10
25.27571902569
20
-1.36256887451628
30
1E-16
41
1
10
25.2890464283677
20
-1.47861779724539
30
0
41
1
10
25.3115899622956
20
-1.65763548184737
30
0
41
1
10
25.3203412844788
20
-1.71552187481231
30
0
41
1
10
25.3366544056466
20
-1.74185427347945
30
0
0
SPLINE
5
E2
100
AcDbEntity
8
1
62
256
6
ByLayer
370
18
48
1
60
0
100
AcDbSpline
70
4
71
3
72
8
73
4
40
0
40
0
40
0
40
0
40
1
40
1
40
1
40
1
41
1
10
25.2075143207053
20
-1.82256372107139
30
0
41
1
10
25.2488379366115
20
-1.80023085197442
30
0
41
1
10
25.2903222928291
20
-1.77700210937954
30
0
41
1
10
25.3320111591027
20
-1.75290758027364
30
0
0
SPLINE
5
E3
100
AcDbEntity
8
1
62
256
6
ByLayer
370
18
48
1
60
0
100
AcDbSpline
70
4
71
3
72
16
73
12
40
0
40
0
40
0
40
0
40
0.500000000000004
40
0.500000000000004
40
0.625000000000003
40
0.625000000000003
40
0.750000000000002
40
0.750000000000002
40
0.875000000000001
40
0.875000000000001
40
1
40
1
40
1
40
1
41
1
10
25.3713878845859
20
-1.74470811318727
30
0
41
1
10
25.4418414395083
20
-1.54569477847198
30
0
41
1
10
25.5129533927417
20
-1.34318154769036
30
0
41
1
10
25.6063523964364
20
-1.09238539854721
30
0
41
1
10
25.625037999128
20
-1.04210519108372
30
0
41
1
10
25.6639620468172
20
-0.942875818909357
30
0
41
1
10
25.6840705870367
20
-0.894366127369267
30
0
41
1
10
25.7260172798266
20
-0.799702299223014
30
0
41
1
10
25.747857436062
20
-0.75355237618345
30
0
41
1
10
25.7936711249292
20
-0.663782436854461
30
0
41
1
10
25.817781340309
20
-0.619966340154832
30
0
41
1
10
25.8424528381491
20
-0.578524097825294
30
0
0
SPLINE
5
E4
100
AcDbEntity
8
1
62
256
6
ByLayer
370
18
48
1
60
0
100
AcDbSpline
70
4
71
3
72
54
73
50
40
0
40
0
40
0
40
0
40
0.12499999999998
40
0.12499999999998
40
0.156249999999975
40
0.156249999999975
40
0.18749999999997
40
0.18749999999997
40
0.249999999999963
40
0.249999999999963
40
0.281249999999958
40
0.281249999999958
40
0.312499999999954
40
0.312499999999954
40
0.343749999999949
40
0.343749999999949
40
0.374999999999944
40
0.374999999999944
40
0.437499999999935
40
0.437499999999935
40
0.468749999999929
40
0.468749999999929
40
0.499999999999923
40
0.499999999999923
40
0.562499999999909
40
0.562499999999909
40
0.624999999999894
40
0.624999999999894
40
0.656249999999889
40
0.656249999999889
40
0.664062499999885
40
0.664062499999885
40
0.667968749999883
40
0.667968749999883
40
0.671874999999881
40
0.671874999999881
40
0.679687499999881
40
0.679687499999881
40
0.687499999999881
40
0.687499999999881
40
0.703124999999884
40
0.703124999999884
40
0.718749999999888
40
0.718749999999888
40
0.749999999999899
40
0.749999999999899
40
0.874999999999949
40
0.874999999999949
40
1
40
1
40
1
40
1
41
1
10
7.0870646229497
20
0.129257802646805
30
0
41
1
10
6.90171592784083
20
0.246818324424851
30
0
41
1
10
6.72375045107421
20
0.371429158463997
30
0
41
1
10
6.51713095266177
20
0.542144095691668
30
0
41
1
10
6.47663184217478
20
0.577065831376757
30
0
41
1
10
6.39765581776928
20
0.648816865442626
30
0
41
1
10
6.35897619663001
20
0.685853659570654
30
0
41
1
10
6.24857434924178
20
0.798796719558311
30
0
41
1
10
6.18229585205046
20
0.876294626885112
30
-1E-16
41
1
10
6.10024948321609
20
0.997821327297885
30
-1E-16
41
1
10
6.07562773986851
20
1.0397079763442
30
-1E-16
41
1
10
6.03571534707521
20
1.12336189332049
30
-1E-16
41
1
10
6.02043142568354
20
1.16491993348055
30
-1E-16
41
1
10
6.0010768068972
20
1.24743986590542
30
-1E-16
41
1
10
5.99729301445322
20
1.2879582724965
30
-1E-16
41
1
10
6.00225515283193
20
1.36408574791227
30
-1E-16
41
1
10
6.01106603642526
20
1.40060294836559
30
-1E-16
41
1
10
6.0544417691809
20
1.50122195315185
30
-1E-16
41
1
10
6.10574313718124
20
1.5566106446131
30
0
41
1
10
6.19927156788586
20
1.6234954166209
30
0
41
1
10
6.23331053971418
20
1.64329781411732
30
0
41
1
10
6.30593290628519
20
1.6790084754187
30
0
41
1
10
6.34463309456953
20
1.6949268395845
30
0
41
1
10
6.46404347484898
20
1.73719242134749
30
0
41
1
10
6.54870698763992
20
1.7585611271914
30
0
41
1
10
6.72471665508129
20
1.79262418082769
30
0
41
1
10
6.81624780832107
20
1.8052524320363
30
0
41
1
10
6.95689502860711
20
1.81940178603969
30
0
41
1
10
7.0042670676817
20
1.82330287647761
30
0
41
1
10
7.06400957412225
20
1.82730551921801
30
0
41
1
10
7.07598325303513
20
1.82806212900871
30
0
41
1
10
7.09398007591724
20
1.82913352057551
30
0
41
1
10
7.09993943879991
20
1.8294901327956
30
0
41
1
10
7.11248617037074
20
1.83005972268771
30
0
41
1
10
7.11907679538319
20
1.83026181638829
30
0
41
1
10
7.13899316516185
20
1.83071576373231
30
0
41
1
10
7.15299592572933
20
1.83075101610748
30
0
41
1
10
7.1801157778244
20
1.83054649341008
30
0
41
1
10
7.19352366588009
20
1.83026829415402
30
0
41
1
10
7.23272543847369
20
1.82903889500557
30
0
41
1
10
7.258381174893
20
1.82801621700293
30
0
41
1
10
7.30993314281272
20
1.82588661654913
30
0
41
1
10
7.33563997181005
20
1.8247265433356
30
0
41
1
10
7.41253481624784
20
1.82093566713439
30
0
41
1
10
7.46351222169403
20
1.8179940710437
30
0
41
1
10
7.71690389418069
20
1.80087428380679
30
0
41
1
10
7.9137042001575
20
1.77943973125033
30
0
41
1
10
8.29878331208226
20
1.71360565273233
30
0
41
1
10
8.48691213711402
20
1.66911214869509
30
0
41
1
10
8.67164937907725
20
1.61167556994874
30
0
0
SPLINE
5
E5
100
AcDbEntity
8
1
62
256
6
ByLayer
370
18
48
1
60
0
100
AcDbSpline
70
4
71
3
72
8
73
4
40
0
40
0
40
0
40
0
40
1
40
1
40
1
40
1
41
1
10
7.50236369822738
20
-0.574151348808641
30
0
41
1
10
7.50236370580117
20
-0.573638111606925
30
0
41
1
10
7.50238783299028
20
-0.573124307387019
30
0
41
1
10
7.50243566870648
20
-0.572612947619234
30
0
0
SPLINE
5
E6
100
AcDbEntity
8
1
62
256
6
ByLayer
370
18
48
1
60
0
100
AcDbSpline
70
4
71
3
72
10
73
6
40
0
40
0
40
0
40
0
40
0.5
40
0.5
40
1
40
1
40
1
40
1
41
1
10
7.54959545098296
20
-1.75858132316279
30
0
41
1
10
7.5344637982908
20
-1.76741161844686
30
0
41
1
10
7.52331092140656
20
-1.7789654957821
30
0
41
1
10
7.50781662840342
20
-1.80382886958048
30
0
41
1
10
7.50349462577859
20
-1.81709211527547
30
0
41
1
10
7.50234530505298
20
-1.83055039652348
30
0
0
SPLINE
5
E7
100
AcDbEntity
8
1
62
256
6
ByLayer
370
18
48
1
60
0
100
AcDbSpline
70
4
71
3
72
8
73
4
40
0
40
0
40
0
40
0
40
1
40
1
40
1
40
1
41
1
10
25.6021779652156
20
-0.239458656663714
30
0
41
1
10
25.5068149799152
20
-0.0837636039231313
30
0
41
1
10
25.3934823875134
20
0.0883327861546377
30
0
41
1
10
25.2601555815409
20
0.278678425629408
30
0
0
SPLINE
5
E8
100
AcDbEntity
8
1
62
256
6
ByLayer
370
18
48
1
60
0
100
AcDbSpline
70
4
71
3
72
10
73
6
40
0
40
0
40
0
40
0
40
0.5
40
0.5
40
1
40
1
40
1
40
1
41
1
10
25.2601555815408
20
0.278678425629295
30
0
41
1
10
25.2275711929787
20
0.26168735461161
30
0
41
1
10
25.1956669180534
20
0.239658205662153
30
0
41
1
10
25.1355714067
20
0.187325919147611
30
0
41
1
10
25.1070205582871
20
0.157509612580412
30
0
41
1
10
25.0805206433579
20
0.122851162397325
30
0
0
SPLINE
5
E9
100
AcDbEntity
8
1
62
256
6
ByLayer
370
18
48
1
60
0
100
AcDbSpline
70
4
71
3
72
32
73
28
40
0
40
0
40
0
40
0
40
0.062499999999998
40
0.062499999999998
40
0.124999999999996
40
0.124999999999996
40
0.249999999999992
40
0.249999999999992
40
0.312499999999993
40
0.312499999999993
40
0.374999999999994
40
0.374999999999994
40
0.437499999999995
40
0.437499999999995
40
0.499999999999997
40
0.499999999999997
40
0.624999999999999
40
0.624999999999999
40
0.6875
40
0.6875
40
0.750000000000001
40
0.750000000000001
40
0.812500000000003
40
0.812500000000003
40
0.875000000000004
40
0.875000000000004
40
1
40
1
40
1
40
1
41
1
10
25.6935649842358
20
-0.348665469591424
30
0
41
1
10
25.6947967976629
20
-0.370721777442498
30
0
41
1
10
25.6933939780187
20
-0.396031012664452
30
0
41
1
10
25.6853300003316
20
-0.448840978575077
30
0
41
1
10
25.6786534896293
20
-0.476634258359127
30
0
41
1
10
25.653237535804
20
-0.557222563912177
30
0
41
1
10
25.6299276406251
20
-0.605687006786837
30
0
41
1
10
25.5954797699042
20
-0.659180753050578
30
0
41
1
10
25.5839970940821
20
-0.673968289228242
30
0
41
1
10
25.561972242038
20
-0.696717031438425
30
0
41
1
10
25.5515080316092
20
-0.704676693798348
30
0
41
1
10
25.5314282482631
20
-0.713832359436395
30
0
41
1
10
25.5221360070706
20
-0.714838561140482
30
0
41
1
10
25.5050541730326
20
-0.709685853020488
30
0
41
1
10
25.4972260044636
20
-0.703401711481774
30
0
41
1
10
25.4770008567973
20
-0.674108903153211
30
0
41
1
10
25.4671528989483
20
-0.639603576763193
30
0
41
1
10
25.4618028465984
20
-0.570626452954457
30
0
41
1
10
25.4616123907638
20
-0.545313083540265
30
0
41
1
10
25.4652272622346
20
-0.490975947128845
30
0
41
1
10
25.4690013217908
20
-0.463011781191028
30
0
41
1
10
25.4807526703585
20
-0.408251615142888
30
0
41
1
10
25.488661935065
20
-0.382034666138054
30
0
41
1
10
25.5074003808906
20
-0.335527829762384
30
0
41
1
10
25.5182911562178
20
-0.315066228065007
30
0
41
1
10
25.552734058048
20
-0.264905652012828
30
0
41
1
10
25.5784741720659
20
-0.245512688705134
30
0
41
1
10
25.6021779652155
20
-0.239458656663857
30
0
0
SPLINE
5
EA
100
AcDbEntity
8
1
62
256
6
ByLayer
370
18
48
1
60
0
100
AcDbSpline
70
4
71
3
72
8
73
4
40
0
40
0
40
0
40
0
40
1
40
1
40
1
40
1
41
1
10
7.54959545098288
20
-1.76752684481323
30
0
41
1
10
7.54909344193956
20
-1.79044956497162
30
0
41
1
10
7.54859959351066
20
-1.81337199199342
30
0
41
1
10
7.54811377998857
20
-1.83629414210046
30
0
0
SPLINE
5
EB
100
AcDbEntity
8
1
62
256
6
ByLayer
370
18
48
1
60
0
100
AcDbSpline
70
4
71
3
72
8
73
4
40
0
40
0
40
0
40
0
40
1
40
1
40
1
40
1
41
1
10
25.3713878845859
20
1.74470811318727
30
0
41
1
10
25.355632905941
20
1.75664647526031
30
0
41
1
10
25.3438638828982
20
1.75866886127545
30
0
41
1
10
25.3348523684562
20
1.75123329526633
30
0
0
SPLINE
5
EC
100
AcDbEntity
8
1
62
256
6
ByLayer
370
18
48
1
60
0
100
AcDbSpline
70
4
71
3
72
8
73
4
40
0
40
0
40
0
40
0
40
1
40
1
40
1
40
1
41
1
10
25.3636975710292
20
1.74993705281869
30
0
41
1
10
25.3662609475703
20
1.74819485169871
30
0
41
1
10
25.3688243842037
20
1.74645187213983
30
0
41
1
10
25.3713878845859
20
1.74470811318727
30
0
0
SPLINE
5
ED
100
AcDbEntity
8
1
62
256
6
ByLayer
370
18
48
1
60
0
100
AcDbSpline
70
4
71
3
72
10
73
6
40
0
40
0
40
0
40
0
40
0.317941448505071
40
0.317941448505071
40
1
40
1
40
1
40
1
41
1
10
25.592772625442
20
-0.253774488261399
30
0
41
1
10
25.6002663075641
20
-0.261976592632493
30
0
41
1
10
25.6096147484746
20
-0.271240871246022
30
0
41
1
10
25.641760064769
20
-0.30197912457055
30
0
41
1
10
25.6670426204803
20
-0.324728951721255
30
0
41
1
10
25.6935649842356
20
-0.348665469591538
30
0
0
SPLINE
5
EE
100
AcDbEntity
8
1
62
256
6
ByLayer
370
18
48
1
60
0
100
AcDbSpline
70
4
71
3
72
22
73
18
40
0
40
0
40
0
40
0
40
0.250000000000008
40
0.250000000000008
40
0.312500000000007
40
0.312500000000007
40
0.375000000000007
40
0.375000000000007
40
0.500000000000006
40
0.500000000000006
40
0.625000000000006
40
0.625000000000006
40
0.687500000000005
40
0.687500000000005
40
0.750000000000005
40
0.750000000000005
40
1
40
1
40
1
40
1
41
1
10
8.67164936948137
20
1.61167557299129
30
0
41
1
10
9.06955281386706
20
1.48889533791285
30
-1E-16
41
1
10
9.46068668500004
20
1.32133007386375
30
-1E-16
41
1
10
9.95402348511416
20
1.06995715787946
30
-1E-16
41
1
10
10.0529068556482
20
1.01758012883221
30
-1E-16
41
1
10
10.2514543180919
20
0.909007163530845
30
-1E-16
41
1
10
10.3508248732154
20
0.852905565471957
30
-1E-16
41
1
10
10.6471025609193
20
0.681235982835432
30
0
41
1
10
10.843218830821
20
0.561838204476061
30
0
41
1
10
11.2353085648506
20
0.317271180293204
30
0
41
1
10
11.4310711607
20
0.191775457057673
30
0
41
1
10
11.7264316085594
20
0.0020124116931299
30
0
41
1
10
11.8251805602739
20
-0.061478285891269
30
0
41
1
10
12.0234484581235
20
-0.188671738189555
30
0
41
1
10
12.1229092132307
20
-0.25229671660091
30
0
41
1
10
12.6168440987909
20
-0.565566342489291
30
0
41
1
10
13.0064203114234
20
-0.803447484282088
30
0
41
1
10
13.4000000000109
20
-1.01482475438217
30
1E-16
0
SPLINE
5
EF
100
AcDbEntity
8
1
62
256
6
ByLayer
370
18
48
1
60
0
100
AcDbSpline
70
4
71
3
72
36
73
32
40
0
40
0
40
0
40
0
40
0.0477031524671824
40
0.0477031524671824
40
0.124954875416915
40
0.124954875416915
40
0.202206598366647
40
0.202206598366647
40
0.240832459841514
40
0.240832459841514
40
0.279458321316381
40
0.279458321316381
40
0.433961767215845
40
0.433961767215845
40
0.472587628690713
40
0.472587628690713
40
0.511213490165581
40
0.511213490165581
40
0.588465213115318
40
0.588465213115318
40
0.665716936065056
40
0.665716936065056
40
0.742968659014793
40
0.742968659014793
40
0.82022038196453
40
0.82022038196453
40
0.897472104914268
40
0.897472104914268
40
0.974723827864005
40
0.974723827864005
40
1
40
1
40
1
40
1
41
1
10
11.1478681927789
20
1.75368117544258
30
0
41
1
10
11.2607967545312
20
1.7589423912946
30
0
41
1
10
11.3732596502849
20
1.76022583089031
30
0
41
1
10
11.6671650534785
20
1.75323044887128
30
0
41
1
10
11.8479510110456
20
1.73904820823358
30
0
41
1
10
12.2109244119596
20
1.68797091504408
30
0
41
1
10
12.3931786195029
20
1.6510069814544
30
0
41
1
10
12.667792854807
20
1.58170367977775
30
0
41
1
10
12.7597552122806
20
1.55617693276045
30
0
41
1
10
12.9430658191074
20
1.50087871461867
30
0
41
1
10
13.0343488440317
20
1.47104958656649
30
0
41
1
10
13.4898608456743
20
1.31031946564485
30
-1E-16
41
1
10
13.8512427117087
20
1.14706885299447
30
-1E-16
41
1
10
14.3064904567287
20
0.912627804662492
30
-1E-16
41
1
10
14.3977332780637
20
0.864141005537846
30
-1E-16
41
1
10
14.5807006573462
20
0.764281623455702
30
0
41
1
10
14.6725660044989
20
0.712837718653589
30
0
41
1
10
14.9468351081542
20
0.556664813193805
30
0
41
1
10
15.1287918173417
20
0.449597948891295
30
0
41
1
10
15.4913098697137
20
0.230924228964824
30
0
41
1
10
15.6717812227948
20
0.119162989286735
30
0
41
1
10
16.0346696660273
20
-0.104042047184095
30
0
41
1
10
16.217271222467
20
-0.215211061706015
30
0
41
1
10
16.5841593411157
20
-0.437122441086757
30
0
41
1
10
16.7662859237127
20
-0.546678450337083
30
0
41
1
10
17.1299020614448
20
-0.754755635181397
30
0
41
1
10
17.311665835477
20
-0.853329979208212
30
1E-16
41
1
10
17.6753144715826
20
-1.0414273881278
30
1E-16
41
1
10
17.8572550879843
20
-1.13083873707285
30
1E-16
41
1
10
18.1005046473588
20
-1.24022536763076
30
1E-16
41
1
10
18.1603412346117
20
-1.26635323279288
30
1E-16
41
1
10
18.2200671343593
20
-1.29156256341895
30
1E-16
0
SPLINE
5
F0
100
AcDbEntity
8
1
62
256
6
ByLayer
370
18
48
1
60
0
100
AcDbSpline
70
4
71
3
72
52
73
48
40
0
40
0
40
0
40
0
40
0.0069231377800382
40
0.0069231377800382
40
0.0321892275991438
40
0.0321892275991438
40
0.0574553174182494
40
0.0574553174182494
40
0.107987497056461
40
0.107987497056461
40
0.209051856332882
40
0.209051856332882
40
0.259584035971093
40
0.259584035971093
40
0.310116215609304
40
0.310116215609304
40
0.360648395247515
40
0.360648395247515
40
0.385914485066622
40
0.385914485066622
40
0.411180574885728
40
0.411180574885728
40
0.461712754523941
40
0.461712754523941
40
0.512244934162153
40
0.512244934162153
40
0.562777113800366
40
0.562777113800366
40
0.613309293438579
40
0.613309293438579
40
0.663841473076791
40
0.663841473076791
40
0.689107562895897
40
0.689107562895897
40
0.714373652715002
40
0.714373652715002
40
0.764905832353215
40
0.764905832353215
40
0.815438011991428
40
0.815438011991428
40
0.840704101810534
40
0.840704101810534
40
0.86597019162964
40
0.86597019162964
40
0.916502371267852
40
0.916502371267852
40
1
40
1
40
1
40
1
41
1
10
22.9103593030945
20
-1.35759774498135
30
1E-16
41
1
10
22.8847837715108
20
-1.36880680393736
30
1E-16
41
1
10
22.8591922571441
20
-1.37985328061882
30
1E-16
41
1
10
22.7401086310803
20
-1.43043269574528
30
1E-16
41
1
10
22.6463760813062
20
-1.46792383343416
30
1E-16
41
1
10
22.4583304063295
20
-1.53837304719113
30
1E-16
41
1
10
22.3638481032892
20
-1.57151232975548
30
0
41
1
10
22.0812086529867
20
-1.66256711481816
30
0
41
1
10
21.893958614644
20
-1.71208592307192
30
0
41
1
10
21.33430872501
20
-1.82742384990399
30
0
41
1
10
20.9631984937032
20
-1.8593909763112
30
0
41
1
10
20.3965573518466
20
-1.83474121450146
30
0
41
1
10
20.2085453989074
20
-1.81460556265233
30
0
41
1
10
19.8352298099826
20
-1.75151813956975
30
0
41
1
10
19.649024502527
20
-1.70875602061932
30
0
41
1
10
19.2757254230683
20
-1.60213409267959
30
0
41
1
10
19.0891194874326
20
-1.53784594118483
30
1E-16
41
1
10
18.8065223819071
20
-1.42675686948593
30
1E-16
41
1
10
18.71170629901
20
-1.38720304167902
30
1E-16
41
1
10
18.5234031079436
20
-1.304055881312
30
1E-16
41
1
10
18.4297527118171
20
-1.2602844211732
30
1E-16
41
1
10
18.1491922154156
20
-1.12373104349257
30
1E-16
41
1
10
17.9626388526586
20
-1.02581994553418
30
1E-16
41
1
10
17.589864581983
20
-0.817226380595997
30
1E-16
41
1
10
17.4033993011335
20
-0.706817942753844
30
0
41
1
10
17.0274515023054
20
-0.477739146595638
30
0
41
1
10
16.8380134554156
20
-0.357733384294733
30
0
41
1
10
16.4629385133782
20
-0.117968006476559
30
0
41
1
10
16.2762353306111
20
0.0023669803051973
30
0
41
1
10
15.9036354428816
20
0.242596167644393
30
0
41
1
10
15.7170785903351
20
0.361449359627159
30
0
41
1
10
15.4357885544481
20
0.536158606534087
30
0
41
1
10
15.3419252937894
20
0.594019475684121
30
0
41
1
10
15.1533036530933
20
0.707903259110054
30
0
41
1
10
15.0586986595224
20
0.763828449506008
30
0
41
1
10
14.7765312133256
20
0.926414723154039
30
-1E-16
41
1
10
14.5898011063978
20
1.02890920573134
30
-1E-16
41
1
10
14.2168392023228
20
1.2193364939493
30
-1E-16
41
1
10
14.0302185255172
20
1.30683979462555
30
-1E-16
41
1
10
13.7496995396259
20
1.42596924998492
30
-1E-16
41
1
10
13.6560279584922
20
1.46356918618193
30
-1E-16
41
1
10
13.4678433907879
20
1.53398553235468
30
-1E-16
41
1
10
13.3730840667661
20
1.56692348709132
30
0
41
1
10
13.0899744686092
20
1.65742369077535
30
0
41
1
10
12.9031156404309
20
1.70715742969051
30
0
41
1
10
12.407867861373
20
1.80872805275507
30
0
41
1
10
12.1005411812064
20
1.8414100558239
30
0
41
1
10
11.7896387804748
20
1.84154157737282
30
0
0
SPLINE
5
F1
100
AcDbEntity
8
1
62
256
6
ByLayer
370
18
48
1
60
0
100
AcDbSpline
70
4
71
3
72
8
73
4
40
0
40
0
40
0
40
0
40
1
40
1
40
1
40
1
41
1
10
25.997307263952
20
0.131333135520691
30
0
41
1
10
25.9871862625423
20
0.0971072358243532
30
0
41
1
10
25.9770024836575
20
0.0629016235260451
30
0
41
1
10
25.9667562222669
20
0.0287162033024515
30
0
0
SPLINE
5
F2
100
AcDbEntity
8
1
62
256
6
ByLayer
370
18
48
1
60
0
100
AcDbSpline
70
4
71
3
72
20
73
16
40
0
40
0
40
0
40
0
40
0.500084857780082
40
0.500084857780082
40
0.723818681351703
40
0.723818681351703
40
0.848484914661408
40
0.848484914661408
40
0.918407519367138
40
0.918407519367138
40
0.957787159107074
40
0.957787159107074
40
0.979802070625681
40
0.979802070625681
40
1
40
1
40
1
40
1
41
1
10
25.214316123482
20
1.84915098756773
30
0
41
1
10
25.2390378307533
20
1.83323687781367
30
0
41
1
10
25.2638450977552
20
1.8170014150989
30
0
41
1
10
25.2999262346606
20
1.79302765781992
30
0
41
1
10
25.3111078208671
20
1.78554872436655
30
0
41
1
10
25.328553133892
20
1.77380708545024
30
0
41
1
10
25.334798284553
20
1.76958933406965
30
0
41
1
10
25.3445173671862
20
1.76300232241837
30
0
41
1
10
25.3480039417564
20
1.76063464197625
30
0
41
1
10
25.3534376605774
20
1.75693689438927
30
0
41
1
10
25.3553890508037
20
1.75560726617297
30
0
41
1
10
25.3584344878809
20
1.75352986569297
30
0
41
1
10
25.3595329705746
20
1.75278023721987
30
0
41
1
10
25.3616753817578
20
1.75131866307197
30
0
41
1
10
25.3627729750784
20
1.75057175008911
30
0
41
1
10
25.3636975710066
20
1.74993705283291
30
0
0
SPLINE
5
F3
100
AcDbEntity
8
1
62
256
6
ByLayer
370
18
48
1
60
0
100
AcDbSpline
70
4
71
3
72
26
73
22
40
0
40
0
40
0
40
0
40
0.0524370881130346
40
0.0524370881130346
40
0.16460194993814
40
0.16460194993814
40
0.220684380850693
40
0.220684380850693
40
0.276766811763245
40
0.276766811763245
40
0.501096535413462
40
0.501096535413462
40
0.613261397238569
40
0.613261397238569
40
0.725426259063676
40
0.725426259063676
40
0.837591120888783
40
0.837591120888783
40
0.949755982713889
40
0.949755982713889
40
1
40
1
40
1
40
1
41
1
10
11.7797698929502
20
0.267742958696857
30
0
41
1
10
11.8656666914279
20
0.215849519924205
30
0
41
1
10
11.951557602564
20
0.16361782000007
30
0
41
1
10
12.2214782357013
20
-0.0008644486149763
30
0
41
1
10
12.4057677778755
20
-0.113856047465418
30
0
41
1
10
12.6840785447685
20
-0.282499752894523
30
0
41
1
10
12.7774043351072
20
-0.338722187336174
30
0
41
1
10
12.9630984735815
20
-0.44935460575266
30
0
41
1
10
13.0556629074377
20
-0.503804102298517
30
0
41
1
10
13.5174166024103
20
-0.771062278693023
30
0
41
1
10
13.883197060339
20
-0.96906396881829
30
1E-16
41
1
10
14.4375353043098
20
-1.2265984143539
30
1E-16
41
1
10
14.6242764000975
20
-1.30600311046604
30
1E-16
41
1
10
14.9949948942525
20
-1.44618513753457
30
0
41
1
10
15.1791324058379
20
-1.50726173225334
30
0
41
1
10
15.5468894616191
20
-1.61013177884902
30
0
41
1
10
15.7306154811573
20
-1.65190015385718
30
0
41
1
10
16.0993228739943
20
-1.71467417797206
30
0
41
1
10
16.2845915138972
20
-1.73575239307206
30
0
41
1
10
16.5541253091657
20
-1.75012064023511
30
0
41
1
10
16.6373551119608
20
-1.7523705981761
30
0
41
1
10
16.7205018509434
20
-1.75242267668077
30
0
0
SPLINE
5
F4
100
AcDbEntity
8
1
62
256
6
ByLayer
370
18
48
1
60
0
100
AcDbSpline
70
4
71
3
72
16
73
12
40
0
40
0
40
0
40
0
40
0.5
40
0.5
40
0.625
40
0.625
40
0.75
40
0.75
40
0.875
40
0.875
40
1
40
1
40
1
40
1
41
1
10
25.3713878845859
20
1.74470811318727
30
0
41
1
10
25.4418414395083
20
1.54569477847198
30
0
41
1
10
25.5129533927417
20
1.34318154769036
30
0
41
1
10
25.6063523964365
20
1.09238539854721
30
0
41
1
10
25.6250379991281
20
1.04210519108372
30
0
41
1
10
25.6639620468172
20
0.942875818909357
30
0
41
1
10
25.6840705870367
20
0.894366127369267
30
0
41
1
10
25.7260172798267
20
0.799702299223014
30
0
41
1
10
25.747857436062
20
0.75355237618345
30
0
41
1
10
25.7936711249292
20
0.663782436854433
30
0
41
1
10
25.817781340309
20
0.619966340154832
30
0
41
1
10
25.8424528381491
20
0.578524097825323
30
0
0
SPLINE
5
F5
100
AcDbEntity
8
1
62
256
6
ByLayer
370
18
48
1
60
0
100
AcDbSpline
70
4
71
3
72
8
73
4
40
0
40
0
40
0
40
0
40
1
40
1
40
1
40
1
41
1
10
7.6022909237318
20
-1.74515779076935
30
0
41
1
10
7.79988019305662
20
-1.75054358938797
30
0
41
1
10
7.99611345033617
20
-1.74324279728816
30
0
41
1
10
8.19211391730022
20
-1.72375814875431
30
0
0
SPLINE
5
F6
100
AcDbEntity
8
1
62
256
6
ByLayer
370
18
48
1
60
0
100
AcDbSpline
70
4
71
3
72
26
73
22
40
0
40
0
40
0
40
0
40
0.0574930151989468
40
0.0574930151989468
40
0.120326814185683
40
0.120326814185683
40
0.245994412159155
40
0.245994412159155
40
0.371662010132627
40
0.371662010132627
40
0.497329608106099
40
0.497329608106099
40
0.560163407092836
40
0.560163407092836
40
0.622997206079574
40
0.622997206079574
40
0.748664804053049
40
0.748664804053049
40
0.874332402026525
40
0.874332402026525
40
1
40
1
40
1
40
1
41
1
10
20.9293292784549
20
0.177611855750996
30
0
41
1
10
21.0138034913856
20
0.126141711365676
30
0
41
1
10
21.0984660023485
20
0.0743058943269546
30
0
41
1
10
21.2762568701826
20
-0.0346165804443785
30
0
41
1
10
21.369569185908
20
-0.0918262000867003
30
0
41
1
10
21.6477956555221
20
-0.261692860590699
30
0
41
1
10
21.8320454324475
20
-0.373079162915587
30
0
41
1
10
22.1996574722047
20
-0.589652106828197
30
0
41
1
10
22.3829914276867
20
-0.694853472486642
30
0
41
1
10
22.7505651768624
20
-0.896073363306158
30
1E-16
41
1
10
22.9350741580823
20
-0.991962313135133
30
1E-16
41
1
10
23.2139855250183
20
-1.12671101764272
30
1E-16
41
1
10
23.3071945859201
20
-1.17004511806516
30
1E-16
41
1
10
23.4923699290266
20
-1.25237035923124
30
1E-16
41
1
10
23.5845834305499
20
-1.29148533170442
30
1E-16
41
1
10
23.8605520680477
20
-1.40240727559052
30
1E-16
41
1
10
24.044100881544
20
-1.46793498402761
30
0
41
1
10
24.4114420031001
20
-1.5803489179595
30
0
41
1
10
24.5951672378902
20
-1.62720940708809
30
0
41
1
10
24.9645605470557
20
-1.70038649024812
30
0
41
1
10
25.1507168391352
20
-1.72643598821497
30
0
41
1
10
25.3366544056467
20
-1.74185427347945
30
0
0
SPLINE
5
F7
100
AcDbEntity
8
1
62
256
6
ByLayer
370
18
48
1
60
0
100
AcDbSpline
70
4
71
3
72
18
73
14
40
0
40
0
40
0
40
0
40
0.225302395877163
40
0.225302395877163
40
0.450604791754327
40
0.450604791754327
40
0.67590718763149
40
0.67590718763149
40
0.788558385570072
40
0.788558385570072
40
0.901209583508653
40
0.901209583508653
40
1
40
1
40
1
40
1
41
1
10
25.2601555815409
20
0.278678425629323
30
0
41
1
10
25.232610601748
20
0.304376189134956
30
0
41
1
10
25.2058165583365
20
0.328899519247301
30
0
41
1
10
25.1533854533078
20
0.376136707873172
30
0
41
1
10
25.1276705053977
20
0.398959595824891
30
0
41
1
10
25.0787380892678
20
0.440751142404452
30
0
41
1
10
25.0560362733113
20
0.459316000542401
30
0
41
1
10
25.0254106287173
20
0.482635818416583
30
0
41
1
10
25.0156482511246
20
0.489801691342478
30
0
41
1
10
24.9969599952537
20
0.503130734367744
30
0
41
1
10
24.9882010954457
20
0.509086347856652
30
0
41
1
10
24.9740558362886
20
0.517484974138313
30
0
41
1
10
24.9682626006798
20
0.520378344177971
30
0
41
1
10
24.9636977167451
20
0.52188163671056
30
0
0
SPLINE
5
F8
100
AcDbEntity
8
1
62
256
6
ByLayer
370
18
48
1
60
0
100
AcDbSpline
70
4
71
3
72
24
73
20
40
0
40
0
40
0
40
0
40
0.13049523882287
40
0.13049523882287
40
0.195742858234306
40
0.195742858234306
40
0.260990477645743
40
0.260990477645743
40
0.391485716468616
40
0.391485716468616
40
0.521980955291489
40
0.521980955291489
40
0.587228574702926
40
0.587228574702926
40
0.652476194114363
40
0.652476194114363
40
0.782971432937239
40
0.782971432937239
40
1
40
1
40
1
40
1
41
1
10
25.0805206433656
20
0.122851162407443
30
0
41
1
10
24.89319740377
20
0.243466039254997
30
0
41
1
10
24.7064009369281
20
0.363300901967904
30
0
41
1
10
24.4251125406399
20
0.538950266186362
30
0
41
1
10
24.331129470709
20
0.596758937170392
30
0
41
1
10
24.1424699247684
20
0.710504573320264
30
0
41
1
10
24.0478290395135
20
0.766484977117159
30
0
41
1
10
23.7660629703123
20
0.929933136792584
30
-1E-16
41
1
10
23.5794272163987
20
1.03260949722758
30
-1E-16
41
1
10
23.2063720172882
20
1.22297494699208
30
-1E-16
41
1
10
23.0205233365448
20
1.31132974041841
30
-1E-16
41
1
10
22.7401086310804
20
1.43043269574522
30
-1E-16
41
1
10
22.6463760813063
20
1.4679238334341
30
-1E-16
41
1
10
22.4583304063297
20
1.53837304719104
30
-1E-16
41
1
10
22.3638481032895
20
1.57151232975539
30
0
41
1
10
22.0812086529868
20
1.66256711481816
30
0
41
1
10
21.893958614644
20
1.7120859230719
30
0
41
1
10
21.3971546408912
20
1.81447197091347
30
0
41
1
10
21.0882764801193
20
1.84734707777559
30
0
41
1
10
20.7758059381579
20
1.84715877964183
30
0
0
SPLINE
5
F9
100
AcDbEntity
8
1
62
256
6
ByLayer
370
18
48
1
60
0
100
AcDbSpline
70
4
71
3
72
34
73
30
40
0
40
0
40
0
40
0
40
0.0128335183823864
40
0.0128335183823864
40
0.0539654551164525
40
0.0539654551164525
40
0.0950973918505185
40
0.0950973918505185
40
0.177361265318651
40
0.177361265318651
40
0.341889012254917
40
0.341889012254917
40
0.424152885723051
40
0.424152885723051
40
0.506416759191185
40
0.506416759191185
40
0.58868063265932
40
0.58868063265932
40
0.629812569393387
40
0.629812569393387
40
0.670944506127454
40
0.670944506127454
40
0.753208379595591
40
0.753208379595591
40
0.835472253063727
40
0.835472253063727
40
0.917736126531864
40
0.917736126531864
40
1
40
1
40
1
40
1
41
1
10
13.9307025454133
20
-1.3485012285274
30
1E-16
41
1
10
13.901545887626
20
-1.36128308616301
30
1E-16
41
1
10
13.8723806478226
20
-1.37386962629668
30
1E-16
41
1
10
13.749699539626
20
-1.42596924998492
30
1E-16
41
1
10
13.6560279584923
20
-1.46356918618193
30
1E-16
41
1
10
13.467843390788
20
-1.53398553235465
30
1E-16
41
1
10
13.3730840667663
20
-1.56692348709126
30
0
41
1
10
13.0899744686092
20
-1.65742369077532
30
0
41
1
10
12.9031156404309
20
-1.70715742969054
30
0
41
1
10
12.342957791045
20
-1.82204049263908
30
0
41
1
10
11.9712799260102
20
-1.85380755501234
30
0
41
1
10
11.4036964815066
20
-1.82902236936999
30
0
41
1
10
11.2162883890962
20
-1.80869236108524
30
0
41
1
10
10.8422285622538
20
-1.74576298441136
30
0
41
1
10
10.6560369988372
20
-1.70295958825807
30
0
41
1
10
10.2827105886613
20
-1.59611641709233
30
0
41
1
10
10.095313913042
20
-1.53236320364283
30
1E-16
41
1
10
9.8126883661451
20
-1.4210460322376
30
1E-16
41
1
10
9.71795931300949
20
-1.38134369273686
30
1E-16
41
1
10
9.52957393402397
20
-1.29823330532315
30
1E-16
41
1
10
9.43566963576882
20
-1.25472289905585
30
1E-16
41
1
10
9.15457263106697
20
-1.11872599128608
30
1E-16
41
1
10
8.96844703907868
20
-1.02018207498418
30
1E-16
41
1
10
8.59510751357598
20
-0.812116891007747
30
0
41
1
10
8.40810219607363
20
-0.702370070644804
30
0
41
1
10
8.0319779736125
20
-0.473245460680118
30
0
41
1
10
7.84223386969305
20
-0.353986772106083
30
0
41
1
10
7.46516735104476
20
-0.113092417129508
30
0
41
1
10
7.27677344314154
20
0.0086026777331369
30
0
41
1
10
7.08706427815775
20
0.129256673025509
30
0
0
SPLINE
5
FA
100
AcDbEntity
8
1
62
256
6
ByLayer
370
18
48
1
60
0
100
AcDbSpline
70
4
71
3
72
8
73
4
40
0
40
0
40
0
40
0
40
1
40
1
40
1
40
1
41
1
10
25.0888980490992
20
-0.1433464525185
30
0
41
1
10
25.0832022770531
20
-0.0553927526472648
30
0
41
1
10
25.0799946330825
20
0.0333025568386347
30
0
41
1
10
25.0805206433656
20
0.122851162399229
30
0
0
SPLINE
5
FB
100
AcDbEntity
8
1
62
256
6
ByLayer
370
18
48
1
60
0
100
AcDbSpline
70
4
71
3
72
8
73
4
40
0
40
0
40
0
40
0
40
1
40
1
40
1
40
1
41
1
10
7.54811377998857
20
-1.83629414210046
30
0
41
1
10
7.5221711998999
20
-1.83539601256649
30
0
41
1
10
7.50503381049071
20
-1.83355870666378
30
0
41
1
10
7.50241306657202
20
-1.83069893678635
30
0
0
SPLINE
5
FC
100
AcDbEntity
8
1
62
256
6
ByLayer
370
18
48
1
60
0
100
AcDbSpline
70
4
71
3
72
36
73
32
40
0
40
0
40
0
40
0
40
0.129677036837185
40
0.129677036837185
40
0.194515555255777
40
0.194515555255777
40
0.25935407367437
40
0.25935407367437
40
0.389031110511554
40
0.389031110511554
40
0.42145036972085
40
0.42145036972085
40
0.453869628930146
40
0.453869628930146
40
0.518708147348737
40
0.518708147348737
40
0.583546665767329
40
0.583546665767329
40
0.64838518418592
40
0.64838518418592
40
0.778062221023103
40
0.778062221023103
40
0.8104814802324
40
0.8104814802324
40
0.842900739441697
40
0.842900739441697
40
0.90773925786029
40
0.90773925786029
40
0.972577776278883
40
0.972577776278883
40
1
40
1
40
1
40
1
41
1
10
25.2075143207054
20
-1.82256372107119
30
0
41
1
10
24.8385382643532
20
-1.78131384398481
30
0
41
1
10
24.4741918836277
20
-1.69531513541389
30
0
41
1
10
23.9235278544872
20
-1.50788502276029
30
1E-16
41
1
10
23.7394256172405
20
-1.43515219408559
30
1E-16
41
1
10
23.3687722412862
20
-1.27166155035368
30
1E-16
41
1
10
23.184806577232
20
-1.18235614493372
30
1E-16
41
1
10
22.6344896387123
20
-0.895546714451797
30
1E-16
41
1
10
22.2704861737844
20
-0.678037143892453
30
0
41
1
10
21.8077306596251
20
-0.388712132458579
30
0
41
1
10
21.7147566488069
20
-0.329900072695892
30
0
41
1
10
21.5300471928644
20
-0.212106285978337
30
0
41
1
10
21.4380386764531
20
-0.152967263480292
30
0
41
1
10
21.1625908618346
20
0.0244524541678572
30
0
41
1
10
20.9797473789087
20
0.142765473068835
30
0
41
1
10
20.6136329532573
20
0.376323036061962
30
0
41
1
10
20.4303874021771
20
0.491608476394106
30
0
41
1
10
20.0617108117731
20
0.716336183680795
30
0
41
1
10
19.8755440767075
20
0.825852872600422
30
-1E-16
41
1
10
19.3230359739746
20
1.13333106293822
30
-1E-16
41
1
10
18.9590586072671
20
1.31312384253627
30
-1E-16
41
1
10
18.499353691015
20
1.49445221834384
30
-1E-16
41
1
10
18.407189098888
20
1.52855910903958
30
-1E-16
41
1
10
18.2221567822185
20
1.59213981097781
30
0
41
1
10
18.1291791126274
20
1.62162417604946
30
0
41
1
10
17.8519942755879
20
1.70175983307556
30
0
41
1
10
17.6686220570358
20
1.74456690107161
30
0
41
1
10
17.3024090168184
20
1.80818052141106
30
0
41
1
10
17.1195283049973
20
1.82899079955479
30
0
41
1
10
16.8583167565311
20
1.84259225286351
30
0
41
1
10
16.7805483675005
20
1.84461968315756
30
0
41
1
10
16.7026126499759
20
1.84460079821801
30
0
0
SPLINE
5
FD
100
AcDbEntity
8
1
62
256
6
ByLayer
370
18
48
1
60
0
100
AcDbSpline
70
4
71
3
72
8
73
4
40
0
40
0
40
0
40
0
40
1
40
1
40
1
40
1
41
1
10
8.56967492724908
20
-1.75567072973567
30
0
41
1
10
8.23017097769932
20
-1.82064624952031
30
0
41
1
10
7.89162973412289
20
-1.84818663015474
30
0
41
1
10
7.54811377998857
20
-1.83629414210046
30
0
0
SPLINE
5
FE
100
AcDbEntity
8
1
62
256
6
ByLayer
370
18
48
1
60
0
100
AcDbSpline
70
4
71
3
72
8
73
4
40
0
40
0
40
0
40
0
40
1
40
1
40
1
40
1
41
1
10
25.9973072639477
20
0.131333135518389
30
0
41
1
10
26.0009118237501
20
0.0434303237108224
30
0
41
1
10
26.000883445768
20
-0.0441223650420568
30
0
41
1
10
25.9973072639488
20
-0.131333135493378
30
0
0
SPLINE
5
FF
100
AcDbEntity
8
SK1
62
256
6
ByLayer
370
18
48
1
60
0
100
AcDbSpline
70
4
71
3
72
8
73
4
40
0
40
0
40
0
40
0
40
1
40
1
40
1
40
1
41
1
10
-35.8509618943233
20
-2.2129041937514
30
0
41
1
10
-35.8173581812517
20
-2.2468778536506
30
0
41
1
10
-35.7837019009723
20
-2.28080461342168
30
0
41
1
10
-35.7499999999999
20
-2.31469067070097
30
0
0
SPLINE
5
100
100
AcDbEntity
8
SK1
62
256
6
ByLayer
370
18
48
1
60
0
100
AcDbSpline
70
4
71
3
72
8
73
4
40
0
40
0
40
0
40
0
40
1
40
1
40
1
40
1
41
1
10
-36.0000000000001
20
-1.44052052921299
30
1E-16
41
1
10
-35.9478735570756
20
-1.54699111384016
30
1E-16
41
1
10
-35.897619057052
20
-1.65043072964335
30
1E-16
41
1
10
-35.8509618943233
20
-1.75020587907616
30
1E-16
0
SPLINE
5
101
100
AcDbEntity
8
SK1
62
256
6
ByLayer
370
18
48
1
60
0
100
AcDbSpline
70
4
71
3
72
10
73
6
40
0
40
0
40
0
40
0
40
0.5
40
0.5
40
1
40
1
40
1
40
1
41
1
10
-35.8509618943233
20
2.2129041937514
30
0
41
1
10
-35.8741904300927
20
2.1880515549268
30
0
41
1
10
-35.8986222732874
20
2.16025819136277
30
0
41
1
10
-35.9485161922248
20
2.10054363108819
30
0
41
1
10
-35.974056478015
20
2.06854591149988
30
0
41
1
10
-35.9999999999999
20
2.03466712533913
30
0
0
SPLINE
5
102
100
AcDbEntity
8
SK1
62
256
6
ByLayer
370
18
48
1
60
0
100
AcDbSpline
70
4
71
3
72
8
73
4
40
0
40
0
40
0
40
0
40
1
40
1
40
1
40
1
41
1
10
-35.75
20
2.31469067070105
30
0
41
1
10
-35.7302671892305
20
2.33453130688849
30
0
41
1
10
-35.7114536170719
20
2.35353056876957
30
0
41
1
10
-35.6950605828443
20
2.36993923657894
30
0
0
SPLINE
5
103
100
AcDbEntity
8
SK1
62
256
6
ByLayer
370
18
48
1
60
0
100
AcDbSpline
70
4
71
3
72
12
73
8
40
0
40
0
40
0
40
0
40
0.249999999999999
40
0.249999999999999
40
0.499999999999997
40
0.499999999999997
40
1
40
1
40
1
40
1
41
1
10
-35.65
20
-2.01195853869876
30
-1E-16
41
1
10
-35.65
20
-2.00223605572771
30
-1E-16
41
1
10
-35.6543403470552
20
-1.98888029440593
30
-1E-16
41
1
10
-35.6670034572333
20
-1.96130746498267
30
-1E-16
41
1
10
-35.6754069618006
20
-1.9467439687879
30
-1E-16
41
1
10
-35.7033744297257
20
-1.90403991459087
30
-1E-16
41
1
10
-35.7260009806425
20
-1.87612251251946
30
-1E-16
41
1
10
-35.7500000000001
20
-1.8519923560257
30
-1E-16
0
SPLINE
5
104
100
AcDbEntity
8
SK1
62
256
6
ByLayer
370
18
48
1
60
0
100
AcDbSpline
70
4
71
3
72
8
73
4
40
0
40
0
40
0
40
0
40
1
40
1
40
1
40
1
41
1
10
-35.8509618943233
20
2.2129041937514
30
0
41
1
10
-35.8173581812517
20
2.2468778536506
30
0
41
1
10
-35.7837019009723
20
2.28080461342168
30
0
41
1
10
-35.7499999999999
20
2.31469067070097
30
0
0
SPLINE
5
105
100
AcDbEntity
8
SK1
62
256
6
ByLayer
370
18
48
1
60
0
100
AcDbSpline
70
4
71
3
72
10
73
6
40
0
40
0
40
0
40
0
40
0.5
40
0.5
40
1
40
1
40
1
40
1
41
1
10
-35.8509618943233
20
-2.2129041937514
30
0
41
1
10
-35.8741904300927
20
-2.1880515549268
30
0
41
1
10
-35.8986222732874
20
-2.16025819136277
30
0
41
1
10
-35.9485161922248
20
-2.10054363108819
30
0
41
1
10
-35.974056478015
20
-2.06854591149988
30
0
41
1
10
-35.9999999999999
20
-2.03466712533913
30
0
0
SPLINE
5
106
100
AcDbEntity
8
SK1
62
256
6
ByLayer
370
18
48
1
60
0
100
AcDbSpline
70
4
71
3
72
8
73
4
40
0
40
0
40
0
40
0
40
1
40
1
40
1
40
1
41
1
10
-35.75
20
-1.85199235602565
30
-1E-16
41
1
10
-35.7837021642162
20
-1.8181060340641
30
-1E-16
41
1
10
-35.8173584564029
20
-1.78417926079499
30
1E-16
41
1
10
-35.8509618943233
20
-1.75020587907616
30
1E-16
0
SPLINE
5
107
100
AcDbEntity
8
SK1
62
256
6
ByLayer
370
18
48
1
60
0
100
AcDbSpline
70
4
71
3
72
12
73
8
40
0
40
0
40
0
40
0
40
0.5
40
0.5
40
0.75
40
0.75
40
1
40
1
40
1
40
1
41
1
10
-35.75
20
-2.31469067070105
30
0
41
1
10
-35.7259913046562
20
-2.33883055605318
30
0
41
1
10
-35.7033433879313
20
-2.36172492783243
30
0
41
1
10
-35.6754686754417
20
-2.38947242465568
30
0
41
1
10
-35.667025596347
20
-2.39778492208086
30
0
41
1
10
-35.6543350076412
20
-2.4098592118041
30
0
41
1
10
-35.65
20
-2.41368435644398
30
0
41
1
10
-35.65
20
-2.41296374475064
30
0
0
SPLINE
5
108
100
AcDbEntity
8
1
62
256
6
ByLayer
370
18
48
1
60
0
100
AcDbSpline
70
4
71
2
72
6
73
3
40
0
40
0
40
0
40
1
40
1
40
1
41
1
10
15.86713105585
20
-0.000990064373724
30
0
41
1
10
15.8670584333266
20
-0.0009836751893602
30
0
41
1
10
15.8669858094664
20
-0.0009752487425772
30
0
0
SPLINE
5
109
100
AcDbEntity
8
1
62
256
6
ByLayer
370
18
48
1
60
0
100
AcDbSpline
70
4
71
1
72
4
73
2
40
0
40
0
40
1
40
1
41
1
10
25.3713846323626
20
1.7448902186367
30
0
41
1
10
25.3302542992619
20
1.77265427729287
30
0
0
SPLINE
5
10A
100
AcDbEntity
8
1
62
256
6
ByLayer
370
18
48
1
60
0
100
AcDbSpline
70
4
71
1
72
4
73
2
40
0
40
0
40
1
40
1
41
1
10
25.3302542992619
20
-1.77265427729287
30
0
41
1
10
25.3713846323626
20
-1.7448902186367
30
0
0
SPLINE
5
10B
100
AcDbEntity
8
1
62
256
6
ByLayer
370
18
48
1
60
0
100
AcDbSpline
70
4
71
3
72
10
73
6
40
0
40
0
40
0
40
0
40
0.0010945738583836
40
0.445879443903666
40
1
40
1
40
1
40
1
41
1
10
24.9645761076441
20
0.521532616519863
30
0
41
1
10
24.963791491783
20
0.521823794291862
30
0
41
1
10
24.6441795109985
20
0.640448769997192
30
0
41
1
10
23.9340113490837
20
0.924496372476455
30
-1E-16
41
1
10
23.2290326481364
20
1.21877311040694
30
-1E-16
41
1
10
22.8403105035093
20
1.38807973339442
30
-1E-16
0
SPLINE
5
10C
100
AcDbEntity
8
1
62
256
6
ByLayer
370
18
48
1
60
0
100
AcDbSpline
70
4
71
3
72
8
73
4
40
0
40
0
40
0
40
0
40
1
40
1
40
1
40
1
41
1
10
22.8403105035503
20
-1.3880797333766
30
1E-16
41
1
10
22.9378644399607
20
-1.34559044440488
30
1E-16
41
1
10
23.0355663256396
20
-1.30348302006587
30
1E-16
41
1
10
23.133400490898
20
-1.26171289213963
30
1E-16
0
SPLINE
5
10D
100
AcDbEntity
8
1
62
256
6
ByLayer
370
18
48
1
60
0
100
AcDbSpline
70
4
71
3
72
24
73
20
40
0
40
0
40
0
40
0
40
6.04425780696E-05
40
0.0001344967364798
40
0.0002043507543651
40
0.0002699227307746
40
0.0003946444826765
40
0.0010347534874857
40
0.0015400521201188
40
0.0024535160639235
40
0.0041220883430573
40
0.0072208984921756
40
0.013134643364183
40
0.0249071234972674
40
0.0497945491809522
40
0.186683232254331
40
0.390961962766963
40
0.662051055552183
40
1
40
1
40
1
40
1
41
1
10
17.2926441233959
20
0.0396114867535289
30
0
41
1
10
17.2926527227746
20
0.0396119040456142
30
0
41
1
10
17.2926609323368
20
0.0396166220754992
30
0
41
1
10
17.2926218976794
20
0.0396414104750704
30
0
41
1
10
17.2924981141266
20
0.0396939617179157
30
0
41
1
10
17.2922996305553
20
0.0397728966918862
30
0
41
1
10
17.2914643851906
20
0.0400837545837476
30
0
41
1
10
17.2899205045243
20
0.040617497517303
30
0
41
1
10
17.2875379684973
20
0.0414441198444138
30
0
41
1
10
17.2839267234581
20
0.042697827514985
30
0
41
1
10
17.2773059116202
20
0.0449960461835417
30
0
41
1
10
17.2648412217844
20
0.0493238357531425
30
0
41
1
10
17.2405946934976
20
0.0577459831436045
30
0
41
1
10
17.1909228095659
20
0.0750220094480767
30
0
41
1
10
16.988484777892
20
0.145673577191587
30
0
41
1
10
16.562151419894
20
0.297371574538033
30
0
41
1
10
15.8527950545647
20
0.560958129668052
30
0
41
1
10
14.9172646503147
20
0.929022142383928
30
-1E-16
41
1
10
14.223378766868
20
1.2208119202389
30
-1E-16
41
1
10
13.8403859652916
20
1.38779892245293
30
-1E-16
0
SPLINE
5
10E
100
AcDbEntity
8
1
62
256
6
ByLayer
370
18
48
1
60
0
100
AcDbSpline
70
4
71
3
72
13
73
9
40
0
40
0
40
0
40
0
40
0.256741904603758
40
0.465183474963097
40
0.664000118358202
40
0.769199071872946
40
0.872852502228111
40
1
40
1
40
1
40
1
41
1
10
16.7034582293712
20
-1.75237586511719
30
0
41
1
10
16.9492061389994
20
-1.75243601183357
30
0
41
1
10
17.3944694064447
20
-1.75268705028796
30
0
41
1
10
18.0300298458342
20
-1.75281693340514
30
0
41
1
10
18.52054383189
20
-1.75406390785804
30
0
41
1
10
18.9107654272217
20
-1.75286012227844
30
0
41
1
10
19.2323455697378
20
-1.75275970095691
30
0
41
1
10
19.4532585661092
20
-1.75388757714828
30
0
41
1
10
19.5749582869159
20
-1.75434453129088
30
0
0
SPLINE
5
10F
100
AcDbEntity
8
1
62
256
6
ByLayer
370
18
48
1
60
0
100
AcDbSpline
70
4
71
3
72
15
73
11
40
0
40
0
40
0
40
0
40
0.239743635776823
40
0.405074458049805
40
0.501953162295124
40
0.581208181480089
40
0.653506578112597
40
0.750317672801828
40
0.917580059149993
40
1
40
1
40
1
40
1
41
1
10
11.3647795742567
20
1.74893161891873
30
0
41
1
10
11.1425297769281
20
1.74924985593444
30
0
41
1
10
10.767009961885
20
1.74931869437006
30
0
41
1
10
10.3017372658989
20
1.74895576939309
30
0
41
1
10
9.98515320671675
20
1.7477011017871
30
0
41
1
10
9.75493561113348
20
1.74796620282055
30
0
41
1
10
9.52438368308358
20
1.74825663714381
30
0
41
1
10
9.21451920121933
20
1.74829744359525
30
0
41
1
10
8.90428167498396
20
1.74368042553121
30
0
41
1
10
8.67902113473005
20
1.73848130395496
30
0
41
1
10
8.60456262901789
20
1.73654681078872
30
0
0
SPLINE
5
110
100
AcDbEntity
8
1
62
256
6
ByLayer
370
18
48
1
60
0
100
AcDbSpline
70
4
71
3
72
14
73
10
40
0
40
0
40
0
40
0
40
0.173765306630772
40
0.303702685475852
40
0.392743262625382
40
0.487876809556485
40
0.610200401868733
40
0.767239323463936
40
1
40
1
40
1
40
1
41
1
10
8.17972400421451
20
-1.72306124204118
30
0
41
1
10
8.30691680303318
20
-1.73273949117166
30
0
41
1
10
8.53484203537795
20
-1.74505403460688
30
0
41
1
10
8.83309237879396
20
-1.74772399141867
30
0
41
1
10
9.09135977596321
20
-1.7477123912721
30
0
41
1
10
9.34087478773435
20
-1.74842860066533
30
0
41
1
10
9.64678065790267
20
-1.74810696411637
30
0
41
1
10
10.0647064741782
20
-1.74754399178519
30
0
41
1
10
10.3828719251805
20
-1.74890631222783
30
0
41
1
10
10.5728564883927
20
-1.74928973242061
30
0
0
SPLINE
5
111
100
AcDbEntity
8
1
62
256
6
ByLayer
370
18
48
1
60
0
100
AcDbSpline
70
4
71
3
72
15
73
11
40
0
40
0
40
0
40
0
40
0.177815957376331
40
0.301583155010343
40
0.40082255148235
40
0.559563195056696
40
0.721975297939267
40
0.826529909682016
40
0.999500505845889
40
1
40
1
40
1
40
1
41
1
10
20.3650309873158
20
1.7536307018344
30
0
41
1
10
20.1971495435844
20
1.75397317420462
30
0
41
1
10
19.9124144054409
20
1.75410422155926
30
0
41
1
10
19.5339820763732
20
1.75520095126745
30
0
41
1
10
19.1735554050123
20
1.75220829684403
30
0
41
1
10
18.7766333590798
20
1.75346456293343
30
0
41
1
10
18.3747042025412
20
1.75382402405827
30
0
41
1
10
17.9593332836082
20
1.75280011495582
30
0
41
1
10
17.6968689086005
20
1.75267092902712
30
0
41
1
10
17.5331001943512
20
1.75259304402087
30
0
41
1
10
17.5326286345236
20
1.75259281978012
30
0
0
SPLINE
5
112
100
AcDbEntity
8
1
62
256
6
ByLayer
370
18
48
1
60
0
100
AcDbSpline
70
4
71
3
72
8
73
4
40
0
40
0
40
0
40
0
40
1
40
1
40
1
40
1
41
1
10
17.2024682186827
20
1.75244930973383
30
0
41
1
10
17.036135562485
20
1.75238868258441
30
0
41
1
10
16.8697977231323
20
1.75235306317799
30
0
41
1
10
16.7034582293712
20
1.75237586511719
30
0
0
LINE
5
84
100
AcDbEntity
8
1
62
256
6
ByLayer
370
18
48
1
60
0
100
AcDbLine
10
25.966756
20
0.028716
30
0
11
25.538334
21
0.50162
31
0
39
0
210
0
220
0
230
1
0
LINE
5
85
100
AcDbEntity
8
1
62
256
6
ByLayer
370
18
48
1
60
0
100
AcDbLine
10
0.769847
20
2.417566
30
0
11
0.769847
21
0
31
0
39
0
210
0
220
0
230
1
0
LINE
5
86
100
AcDbEntity
8
1
62
256
6
ByLayer
370
18
48
1
60
0
100
AcDbLine
10
0.769847
20
0
30
0
11
0.769847
21
-2.417566
31
0
39
0
210
0
220
0
230
1
0
LINE
5
87
100
AcDbEntity
8
1
62
256
6
ByLayer
370
18
48
1
60
0
100
AcDbLine
10
1.540195
20
1.835132
30
0
11
1.540195
21
0
31
0
39
0
210
0
220
0
230
1
0
LINE
5
88
100
AcDbEntity
8
1
62
256
6
ByLayer
370
18
48
1
60
0
100
AcDbLine
10
1.540195
20
0
30
0
11
1.540195
21
-1.835132
31
0
39
0
210
0
220
0
230
1
0
LINE
5
89
100
AcDbEntity
8
1
62
256
6
ByLayer
370
18
48
1
60
0
100
AcDbLine
10
0
20
3
30
0
11
0
21
0
31
0
39
0
210
0
220
0
230
1
0
LINE
5
8A
100
AcDbEntity
8
1
62
256
6
ByLayer
370
18
48
1
60
0
100
AcDbLine
10
0
20
0
30
0
11
0
21
-3
31
0
39
0
210
0
220
0
230
1
0
LINE
5
8B
100
AcDbEntity
8
1
62
256
6
ByLayer
370
18
48
1
60
0
100
AcDbLine
10
7.502364
20
-0.574151
30
0
11
7.503148
21
-0.566373
31
0
39
0
210
0
220
0
230
1
0
LINE
5
8C
100
AcDbEntity
8
1
62
256
6
ByLayer
370
18
48
1
60
0
100
AcDbLine
10
13.4
20
-0.978398
30
0
11
13.4
21
-1.014825
31
0
39
0
210
0
220
0
230
1
0
LINE
5
8D
100
AcDbEntity
8
SK1
62
256
6
ByLayer
370
18
48
1
60
0
100
AcDbLine
10
-36
20
-2.034667
30
0
11
-36
21
-1.440519
31
0
39
0
210
0
220
0
230
1
0
LINE
5
8F
100
AcDbEntity
8
SK1
62
256
6
ByLayer
370
18
48
1
60
0
100
AcDbLine
10
-35.65
20
-2.412964
30
0
11
-35.65
21
-2.011959
31
0
39
0
210
0
220
0
230
1
0
LINE
5
90
100
AcDbEntity
8
SK1
62
256
6
ByLayer
370
18
48
1
60
0
100
AcDbLine
10
0
20
3
30
0
11
0
21
-3
31
0
39
0
210
0
220
0
230
1
0
LINE
5
91
100
AcDbEntity
8
SK1
62
256
6
ByLayer
370
18
48
1
60
0
100
AcDbLine
10
-35.850962
20
-2.212904
30
0
11
-35.850962
21
-1.750149
31
0
39
0
210
0
220
0
230
1
0
LINE
5
92
100
AcDbEntity
8
SK1
62
256
6
ByLayer
370
18
48
1
60
0
100
AcDbLine
10
-35.75
20
-2.314691
30
0
11
-35.75
21
-1.851928
31
0
39
0
210
0
220
0
230
1
0
LINE
5
93
100
AcDbEntity
8
SK1
62
256
6
ByLayer
370
18
48
1
60
0
100
AcDbLine
10
-36
20
2.034667
30
0
11
-36
21
-1.440521
31
0
39
0
210
0
220
0
230
1
0
LINE
5
94
100
AcDbEntity
8
SK1
62
256
6
ByLayer
370
18
48
1
60
0
100
AcDbLine
10
-35.065
20
-3
30
0
11
-35.065
21
3
31
0
39
0
210
0
220
0
230
1
0
LINE
5
95
100
AcDbEntity
8
1
62
256
6
ByLayer
370
18
48
1
60
0
100
AcDbLine
10
24.775162
20
0.056337
30
0
11
24.774989
21
0.0586
31
0
39
0
210
0
220
0
230
1
0
LINE
5
96
100
AcDbEntity
8
1
62
256
6
ByLayer
370
18
48
1
60
0
100
AcDbLine
10
1.540195
20
-1.835132
30
0
11
7.699895
21
-1.838982
31
0
39
0
210
0
220
0
230
1
0
LINE
5
97
100
AcDbEntity
8
1
62
256
6
ByLayer
370
18
48
1
60
0
100
AcDbLine
10
11.36541
20
-1.841273
30
0
11
11.78386
21
-1.841534
31
0
39
0
210
0
220
0
230
1
0
LINE
5
98
100
AcDbEntity
8
1
62
256
6
ByLayer
370
18
48
1
60
0
100
AcDbLine
10
16.296437
20
-1.844355
30
0
11
16.700496
21
-1.844607
31
0
39
0
210
0
220
0
230
1
0
LINE
5
99
100
AcDbEntity
8
1
62
256
6
ByLayer
370
18
48
1
60
0
100
AcDbLine
10
20.366361
20
-1.846899
30
0
11
20.774817
21
-1.847154
31
0
39
0
210
0
220
0
230
1
0
LINE
5
9A
100
AcDbEntity
8
1
62
256
6
ByLayer
370
18
48
1
60
0
100
AcDbLine
10
20.774817
20
1.847154
30
0
11
20.366361
21
1.846899
31
0
39
0
210
0
220
0
230
1
0
LINE
5
9B
100
AcDbEntity
8
1
62
256
6
ByLayer
370
18
48
1
60
0
100
AcDbLine
10
16.700496
20
1.844607
30
0
11
16.296437
21
1.844355
31
0
39
0
210
0
220
0
230
1
0
LINE
5
9C
100
AcDbEntity
8
1
62
256
6
ByLayer
370
18
48
1
60
0
100
AcDbLine
10
11.78386
20
1.841534
30
0
11
11.36541
21
1.841273
31
0
39
0
210
0
220
0
230
1
0
LINE
5
9D
100
AcDbEntity
8
1
62
256
6
ByLayer
370
18
48
1
60
0
100
AcDbLine
10
7.699895
20
1.838982
30
0
11
1.540195
21
1.835132
31
0
39
0
210
0
220
0
230
1
0
LINE
5
9E
100
AcDbEntity
8
SK1
62
256
6
ByLayer
370
18
48
1
60
0
100
AcDbLine
10
-35.696279
20
-2.368721
30
0
11
-35.065
21
-3
31
0
39
0
210
0
220
0
230
1
0
LINE
5
9F
100
AcDbEntity
8
SK1
62
256
6
ByLayer
370
18
48
1
60
0
100
AcDbLine
10
-35.065
20
3
30
0
11
-35.696279
21
2.368721
31
0
39
0
210
0
220
0
230
1
0
LINE
5
A0
100
AcDbEntity
8
SK1
62
256
6
ByLayer
370
18
48
1
60
0
100
AcDbLine
10
-35.065
20
-3
30
0
11
0
21
-3
31
0
39
0
210
0
220
0
230
1
0
LINE
5
A1
100
AcDbEntity
8
SK1
62
256
6
ByLayer
370
18
48
1
60
0
100
AcDbLine
10
0
20
3
30
0
11
-35.065
21
3
31
0
39
0
210
0
220
0
230
1
0
LINE
5
A2
100
AcDbEntity
8
SK4
62
256
6
ByLayer
370
18
48
0.05
60
0
100
AcDbLine
10
31
20
0
30
0
11
-41
21
0
31
0
39
0
210
0
220
0
230
1
0
LINE
5
A4
100
AcDbEntity
8
4
62
256
6
ByLayer
370
18
48
0.05
60
0
100
AcDbLine
10
-36
20
0
30
0
11
31
21
0
31
0
39
0
210
0
220
0
230
1
0
LINE
5
A6
100
AcDbEntity
8
80
62
256
6
ByLayer
370
18
48
1
60
0
100
AcDbLine
10
0
20
0
30
0
11
-6
21
0
31
0
39
0
210
0
220
0
230
1
0
LINE
5
A7
100
AcDbEntity
8
81
62
256
6
ByLayer
370
18
48
1
60
0
100
AcDbLine
10
26
20
0
30
0
11
32
21
0
31
0
39
0
210
0
220
0
230
1
0
LINE
5
A8
100
AcDbEntity
8
SK2
62
256
6
ByLayer
370
13
48
1
60
0
100
AcDbLine
10
26.542925
20
1.491774
30
0
11
33.92585
21
21.777546
31
0
39
0
210
0
220
0
230
1
0
LINE
5
AA
100
AcDbEntity
8
SK2
62
256
6
ByLayer
370
13
48
1
60
0
100
AcDbLine
10
26.542925
20
-1.491774
30
0
11
33.92585
21
-21.777546
31
0
39
0
210
0
220
0
230
1
0
LINE
5
AB
100
AcDbEntity
8
1
62
256
6
ByLayer
370
13
48
1
60
0
100
AcDbLine
10
32.84
20
18.793999
30
0
11
35.936608
21
17.977694
31
0
39
0
210
0
220
0
230
1
0
LINE
5
AC
100
AcDbEntity
8
1
62
256
6
ByLayer
370
13
48
1
60
0
100
AcDbLine
10
32.84
20
18.793999
30
0
11
35.619821
21
17.204046
31
0
39
0
210
0
220
0
230
1
0
LINE
5
AD
100
AcDbEntity
8
1
62
256
6
ByLayer
370
13
48
1
60
0
100
AcDbLine
10
35.936608
20
17.977694
30
0
11
35.619821
21
17.204046
31
0
39
0
210
0
220
0
230
1
0
LINE
5
AE
100
AcDbEntity
8
1
62
256
6
ByLayer
370
13
48
1
60
0
100
AcDbLine
10
32.84
20
-18.793999
30
0
11
35.619818
21
-17.204047
31
0
39
0
210
0
220
0
230
1
0
LINE
5
AF
100
AcDbEntity
8
1
62
256
6
ByLayer
370
13
48
1
60
0
100
AcDbLine
10
32.84
20
-18.793999
30
0
11
35.936611
21
-17.977692
31
0
39
0
210
0
220
0
230
1
0
LINE
5
B0
100
AcDbEntity
8
1
62
256
6
ByLayer
370
13
48
1
60
0
100
AcDbLine
10
35.619818
20
-17.204047
30
0
11
35.936611
21
-17.977692
31
0
39
0
210
0
220
0
230
1
0
MTEXT
5
113
100
AcDbEntity
8
SK2
62
256
6
ByLayer
370
18
48
1
60
0
100
AcDbMText
10
39.717388
20
-2.467451
30
0
210
0
220
0
230
1
1
\W0.7237;140.00
40
3.50012
41
0
44
1.084337
50
0
71
7
72
5
7
iso_b_vert
0
MTEXT
5
116
100
AcDbEntity
8
SK6
62
256
6
ByLayer
370
18
48
1
60
0
100
AcDbMText
10
-44.331725
20
-96.261044
30
0
210
0
220
0
230
1
1
\W0.7241;860.1-0370-011A1-GM X1BM
40
3.175
41
0
44
1.084337
50
0
71
7
72
5
7
iso_b_vert
0
DIMENSION
5
119
100
AcDbEntity
8
SK2
62
256
6
ByLayer
370
18
48
1
60
0
100
AcDbDimension
2
_U0
10
26
20
-26.50012
30
0
11
13
21
-26.50012
31
0
70
32
71
2
72
1
41
1
210
0
220
0
230
1
3
Standard
100
AcDbAlignedDimension
13
0
23
-3
33
0
14
26
24
0
34
0
50
0
100
AcDbRotatedDimension
1001
ACAD
1000
DSTYLE
1002
{
1070
   371
1070
    13
1070
   372
1070
    13
1070
     3
1000

1070
   170
1070
     0
1070
   144
1040
1.0
1070
   277
1070
     2
1070
   284
1070
     8
1070
   278
1070
    46
1070
   146
1040
0.999966
1070
   345
1005
16
1070
   347
1005
16
1070
   346
1005
16
1070
   344
1005
11A
1070
   343
1005
11A
1070
   172
1070
     1
1070
    76
1070
     0
1070
    75
1070
     0
1070
   282
1070
     0
1070
   281
1070
     0
1070
    71
1070
     0
1070
    74
1070
     0
1070
   279
1070
     0
1070
   173
1070
     1
1070
   340
1005
114
1070
   271
1070
     1
1070
   272
1070
     2
1070
    77
1070
     1
1070
    73
1070
     1
1070
   171
1070
     3
1070
   274
1070
     4
1070
   177
1070
   150
1070
   176
1070
     9
1070
   178
1070
    43
1070
    78
1070
     8
1070
    48
1040
-0.1
1070
    41
1040
3.175
1070
   147
1040
1.75006
1070
    42
1040
1.5875
1070
    44
1040
3.175
1070
   140
1040
3.50012
1002
}
1001
ACAD_DSTYLE_DIM_LINETYPE
1070
   380
1005
16
1001
ACAD_DSTYLE_DIM_EXT1_LINETYPE
1070
   381
1005
16
1001
ACAD_DSTYLE_DIM_EXT2_LINETYPE
1070
   382
1005
16
0
DIMENSION
5
13F
100
AcDbEntity
8
2
62
256
6
ByLayer
370
18
48
1
60
0
100
AcDbDimension
2
_U1
10
32.75006
20
1.85
30
0
11
32.75006
21
17.423233
31
0
70
32
71
1
72
1
41
1
210
0
220
0
230
1
3
Standard
100
AcDbAlignedDimension
13
25.3267
23
-1.85
33
0
14
25.3267
24
1.85
34
0
50
90
100
AcDbRotatedDimension
1001
ACAD
1000
DSTYLE
1002
{
1070
   371
1070
    13
1070
   372
1070
    13
1070
     3
1000

1070
   170
1070
     0
1070
   144
1040
1.0
1070
   277
1070
     2
1070
   284
1070
     8
1070
   278
1070
    46
1070
   146
1040
0.999966
1070
   345
1005
16
1070
   347
1005
16
1070
   346
1005
16
1070
   344
1005
11A
1070
   343
1005
11A
1070
   172
1070
     1
1070
    76
1070
     0
1070
    75
1070
     0
1070
   282
1070
     0
1070
   281
1070
     0
1070
    71
1070
     0
1070
    74
1070
     0
1070
   279
1070
     0
1070
   173
1070
     1
1070
   340
1005
114
1070
   271
1070
     1
1070
   272
1070
     2
1070
    77
1070
     1
1070
    73
1070
     0
1070
   171
1070
     3
1070
   274
1070
     4
1070
   177
1070
   150
1070
   176
1070
     9
1070
   178
1070
    43
1070
    78
1070
     8
1070
    48
1040
-0.1
1070
    41
1040
3.175
1070
   147
1040
1.75006
1070
    42
1040
1.5875
1070
    44
1040
3.175
1070
   140
1040
3.50012
1002
}
1001
ACAD_DSTYLE_DIM_LINETYPE
1070
   380
1005
16
1001
ACAD_DSTYLE_DIM_EXT1_LINETYPE
1070
   381
1005
16
1001
ACAD_DSTYLE_DIM_EXT2_LINETYPE
1070
   382
1005
16
0
DIMENSION
5
15E
100
AcDbEntity
8
SK2
62
256
6
ByLayer
370
18
48
1
60
0
100
AcDbDimension
2
_U2
10
-39.24994
20
-3
30
0
11
-39.24994
21
17.10734
31
0
70
32
71
1
72
1
41
1
210
0
220
0
230
1
3
Standard
100
AcDbAlignedDimension
13
-36
23
3
33
0
14
-36
24
-3
34
0
50
90
100
AcDbRotatedDimension
1001
ACAD
1000
DSTYLE
1002
{
1070
   371
1070
    13
1070
   372
1070
    13
1070
     3
1000

1070
   170
1070
     0
1070
   144
1040
1.0
1070
   277
1070
     2
1070
   284
1070
     8
1070
   278
1070
    46
1070
   146
1040
0.999966
1070
   345
1005
16
1070
   347
1005
16
1070
   346
1005
16
1070
   344
1005
11A
1070
   343
1005
11A
1070
   172
1070
     1
1070
    76
1070
     0
1070
    75
1070
     0
1070
   282
1070
     0
1070
   281
1070
     0
1070
    71
1070
     0
1070
    74
1070
     0
1070
   279
1070
     0
1070
   173
1070
     1
1070
   340
1005
114
1070
   271
1070
     1
1070
   272
1070
     2
1070
    77
1070
     1
1070
    73
1070
     0
1070
   171
1070
     3
1070
   274
1070
     4
1070
   177
1070
   150
1070
   176
1070
     9
1070
   178
1070
    43
1070
    78
1070
     8
1070
    48
1040
-0.1
1070
    41
1040
3.175
1070
   147
1040
1.75006
1070
    42
1040
1.5875
1070
    44
1040
3.175
1070
   140
1040
3.50012
1002
}
1001
ACAD_DSTYLE_DIM_LINETYPE
1070
   380
1005
16
1001
ACAD_DSTYLE_DIM_EXT1_LINETYPE
1070
   381
1005
16
1001
ACAD_DSTYLE_DIM_EXT2_LINETYPE
1070
   382
1005
16
0
DIMENSION
5
17C
100
AcDbEntity
8
SK2
62
256
6
ByLayer
370
18
48
1
60
0
100
AcDbDimension
2
_U3
10
0
20
-26.50012
30
0
11
-18
21
-26.50012
31
0
70
32
71
1
72
1
41
1
210
0
220
0
230
1
3
Standard
100
AcDbAlignedDimension
13
-36
23
-3
33
0
14
0
24
-3
34
0
50
0
100
AcDbRotatedDimension
1001
ACAD
1000
DSTYLE
1002
{
1070
   371
1070
    13
1070
   372
1070
    13
1070
     3
1000

1070
   170
1070
     0
1070
   144
1040
1.0
1070
   277
1070
     2
1070
   284
1070
     8
1070
   278
1070
    46
1070
   146
1040
0.999966
1070
   345
1005
16
1070
   347
1005
16
1070
   346
1005
16
1070
   344
1005
11A
1070
   343
1005
11A
1070
   172
1070
     1
1070
    76
1070
     0
1070
    75
1070
     0
1070
   282
1070
     0
1070
   281
1070
     0
1070
    71
1070
     0
1070
    74
1070
     0
1070
   279
1070
     0
1070
   173
1070
     1
1070
   340
1005
114
1070
   271
1070
     1
1070
   272
1070
     2
1070
    77
1070
     1
1070
    73
1070
     1
1070
   171
1070
     3
1070
   274
1070
     4
1070
   177
1070
   150
1070
   176
1070
     9
1070
   178
1070
    43
1070
    78
1070
     8
1070
    48
1040
-0.1
1070
    41
1040
3.175
1070
   147
1040
1.75006
1070
    42
1040
1.5875
1070
    44
1040
3.175
1070
   140
1040
3.50012
1002
}
1001
ACAD_DSTYLE_DIM_LINETYPE
1070
   380
1005
16
1001
ACAD_DSTYLE_DIM_EXT1_LINETYPE
1070
   381
1005
16
1001
ACAD_DSTYLE_DIM_EXT2_LINETYPE
1070
   382
1005
16
0
DIMENSION
5
198
100
AcDbEntity
8
SK2
62
256
6
ByLayer
370
18
48
1
60
0
100
AcDbDimension
2
_U4
10
26
20
-17.74982
30
0
11
16
21
-17.74982
31
0
70
32
71
1
72
1
41
1
210
0
220
0
230
1
3
Standard
100
AcDbAlignedDimension
13
6
23
2.35
33
0
14
26
24
0
34
0
50
0
100
AcDbRotatedDimension
1001
ACAD
1000
DSTYLE
1002
{
1070
   371
1070
    13
1070
   372
1070
    13
1070
     3
1000

1070
   170
1070
     0
1070
   144
1040
1.0
1070
   277
1070
     2
1070
   284
1070
     8
1070
   278
1070
    46
1070
   146
1040
0.999966
1070
   345
1005
16
1070
   347
1005
16
1070
   346
1005
16
1070
   344
1005
11A
1070
   343
1005
11A
1070
   172
1070
     1
1070
    76
1070
     0
1070
    75
1070
     0
1070
   282
1070
     0
1070
   281
1070
     0
1070
    71
1070
     0
1070
    74
1070
     0
1070
   279
1070
     0
1070
   173
1070
     1
1070
   340
1005
114
1070
   271
1070
     1
1070
   272
1070
     2
1070
    77
1070
     1
1070
    73
1070
     1
1070
   171
1070
     3
1070
   274
1070
     4
1070
   177
1070
   150
1070
   176
1070
     9
1070
   178
1070
    43
1070
    78
1070
     8
1070
    48
1040
-0.1
1070
    41
1040
3.175
1070
   147
1040
1.75006
1070
    42
1040
1.5875
1070
    44
1040
3.175
1070
   140
1040
3.50012
1002
}
1001
ACAD_DSTYLE_DIM_LINETYPE
1070
   380
1005
16
1001
ACAD_DSTYLE_DIM_EXT1_LINETYPE
1070
   381
1005
16
1001
ACAD_DSTYLE_DIM_EXT2_LINETYPE
1070
   382
1005
16
0
DIMENSION
5
1B4
100
AcDbEntity
8
SK2
62
256
6
ByLayer
370
18
48
1
60
0
100
AcDbDimension
2
_U5
10
26
20
-9.82
30
0
11
20.15
21
-9.82
31
0
70
32
71
1
72
1
41
1
210
0
220
0
230
1
3
Standard
100
AcDbAlignedDimension
13
14.3
23
-1.85
33
0
14
26
24
0
34
0
50
0
100
AcDbRotatedDimension
1001
ACAD
1000
DSTYLE
1002
{
1070
   371
1070
    13
1070
   372
1070
    13
1070
     3
1000

1070
   170
1070
     0
1070
   144
1040
1.0
1070
   277
1070
     2
1070
   284
1070
     8
1070
   278
1070
    46
1070
   146
1040
1.25
1070
   345
1005
16
1070
   347
1005
16
1070
   346
1005
16
1070
   344
1005
11A
1070
   343
1005
11A
1070
   172
1070
     1
1070
    76
1070
     0
1070
    75
1070
     0
1070
   282
1070
     0
1070
   281
1070
     0
1070
    71
1070
     0
1070
    74
1070
     0
1070
   279
1070
     0
1070
   173
1070
     1
1070
   340
1005
114
1070
   271
1070
     1
1070
   272
1070
     2
1070
    77
1070
     1
1070
    73
1070
     1
1070
   171
1070
     3
1070
   274
1070
     4
1070
   177
1070
   150
1070
   176
1070
     9
1070
   178
1070
    43
1070
    78
1070
     8
1070
    48
1040
-0.1
1070
    41
1040
3.175
1070
   147
1040
0.42
1070
    42
1040
1.5875
1070
    44
1040
0.5
1070
   140
1040
2.8
1002
}
1001
ACAD_DSTYLE_DIM_LINETYPE
1070
   380
1005
16
1001
ACAD_DSTYLE_DIM_EXT1_LINETYPE
1070
   381
1005
16
1001
ACAD_DSTYLE_DIM_EXT2_LINETYPE
1070
   382
1005
16
0
DIMENSION
5
1D1
100
AcDbEntity
8
SK2
62
256
6
ByLayer
370
18
48
1
60
0
100
AcDbDimension
2
_U6
10
26
20
-36.50012
30
0
11
-5
21
-36.50012
31
0
70
32
71
1
72
1
41
1
210
0
220
0
230
1
3
Standard
100
AcDbAlignedDimension
13
-36
23
0
33
0
14
26
24
0
34
0
50
0
100
AcDbRotatedDimension
1001
ACAD
1000
DSTYLE
1002
{
1070
   371
1070
    13
1070
   372
1070
    13
1070
     3
1000

1070
   170
1070
     0
1070
   144
1040
1.0
1070
   277
1070
     2
1070
   284
1070
     8
1070
   278
1070
    46
1070
   146
1040
0.999966
1070
   345
1005
16
1070
   347
1005
16
1070
   346
1005
16
1070
   344
1005
11A
1070
   343
1005
11A
1070
   172
1070
     1
1070
    76
1070
     0
1070
    75
1070
     0
1070
   282
1070
     0
1070
   281
1070
     0
1070
    71
1070
     0
1070
    74
1070
     0
1070
   279
1070
     0
1070
   173
1070
     1
1070
   340
1005
114
1070
   271
1070
     1
1070
   272
1070
     2
1070
    77
1070
     1
1070
    73
1070
     1
1070
   171
1070
     3
1070
   274
1070
     4
1070
   177
1070
   150
1070
   176
1070
     9
1070
   178
1070
    43
1070
    78
1070
     8
1070
    48
1040
-0.1
1070
    41
1040
3.175
1070
   147
1040
1.75006
1070
    42
1040
1.5875
1070
    44
1040
3.175
1070
   140
1040
3.50012
1002
}
1001
ACAD_DSTYLE_DIM_LINETYPE
1070
   380
1005
16
1001
ACAD_DSTYLE_DIM_EXT1_LINETYPE
1070
   381
1005
16
1001
ACAD_DSTYLE_DIM_EXT2_LINETYPE
1070
   382
1005
16
0
ENDSEC
0
SECTION
2
OBJECTS
0
DICTIONARY
5
25d
330
0
100
AcDbDictionary
280
0
281
1
3
ACAD_GROUP
350
25e
3
ACAD_MLINESTYLE
350
25f
0
DICTIONARY
5
25e
330
0
100
AcDbDictionary
280
0
281
1
0
DICTIONARY
5
25f
330
0
100
AcDbDictionary
280
0
281
1
3
Standard
350
18
0
MLINESTYLE
5
18
330
25f
100
AcDbMlineStyle
2
Standard
70
0
3

62
256
51
90
52
90
71
2
49
-0.5
62
256
6
ByLayer
49
0.5
62
256
6
ByLayer
0
RASTERVARIABLES
5
24b
330

100
AcDbRasterVariables
90
0
70
1
71
1
72
1
0
ENDSEC
0
EOF
