0
SECTION
2
HEADER
9
$ACADVER
1
AC1015
9
$DWGCODEPAGE
3
ANSI_1252
9
$HANDSEED
5
240
9
$ANGBASE
50
0
9
$ANGDIR
70
0
9
$ATTMODE
70
1
9
$AUNITS
70
0
9
$AUPREC
70
0
9
$CECOLOR
62
256
9
$CELTSCALE
40
1
9
$CELTYPE
6
ByLayer
9
$CELWEIGHT
370
18
9
$CLAYER
8
0
9
$CMLJUST
70
0
9
$CMLSCALE
40
1
9
$CMLSTYLE
2
Standard
9
$DIMSTYLE
2
Standard
9
$TEXTSIZE
40
0.2
9
$TEXTSTYLE
7
Standard
9
$LUNITS
70
2
9
$LUPREC
70
4
9
$EXTNAMES
290
1
9
$INSUNITS
70
4
9
$LTSCALE
40
1
9
$LWDISPLAY
290
1
9
$PDMODE
70
0
9
$PDSIZE
40
0
9
$PLINEGEN
70
0
0
ENDSEC
0
SECTION
2
CLASSES
0
CLASS
1
RASTERVARIABLES
2
AcDbRasterVariables
3
ISM
90
0
280
0
281
0
0
ENDSEC
0
SECTION
2
TABLES
0
TABLE
2
VPORT
5
236
100
AcDbSymbolTable
0
VPORT
5
1
100
AcDbSymbolTableRecord
100
AcDbViewportTableRecord
2
*Active
70
0
10
0
20
0
11
1
21
1
12
-1
22
1
13
0
23
0
14
0.5
24
0.5
15
10
25
10
16
0
26
0
36
1
17
0
27
0
37
0
0
ENDTAB
0
TABLE
2
LTYPE
5
237
100
AcDbSymbolTable
0
LTYPE
5
14
100
AcDbSymbolTableRecord
100
AcDbLinetypeTableRecord
70
0
2
ByBlock
3

72
65
73
0
40
0
0
LTYPE
5
15
100
AcDbSymbolTableRecord
100
AcDbLinetypeTableRecord
70
0
2
ByLayer
3

72
65
73
0
40
0
0
LTYPE
5
16
100
AcDbSymbolTableRecord
100
AcDbLinetypeTableRecord
70
0
2
Continuous
3
Solid line
72
65
73
0
40
0
0
LTYPE
5
6E
100
AcDbSymbolTableRecord
100
AcDbLinetypeTableRecord
70
0
2
CENTER
3
____ _ ____ _ ____ _ ____
72
65
73
4
40
47.5
49
22
74
0
49
-8.5
74
0
49
8.5
74
0
49
-8.5
74
0
0
LTYPE
5
6F
100
AcDbSymbolTableRecord
100
AcDbLinetypeTableRecord
70
0
2
DASHED
3
__ __ __ __ __ __ __ __ __
72
65
73
2
40
25.72
49
12.86
74
0
49
-12.86
74
0
0
ENDTAB
0
TABLE
2
LAYER
5
238
100
AcDbSymbolTable
0
LAYER
5
10
100
AcDbSymbolTableRecord
100
AcDbLayerTableRecord
2
0
70
0
62
7
6
Continuous
290
1
370
-3
390
0
0
LAYER
5
71
100
AcDbSymbolTableRecord
100
AcDbLayerTableRecord
2
81
70
0
62
-3
6
Continuous
290
1
370
-3
390
0
0
LAYER
5
73
100
AcDbSymbolTableRecord
100
AcDbLayerTableRecord
2
80
70
0
62
-6
6
Continuous
290
1
370
-3
390
0
0
LAYER
5
75
100
AcDbSymbolTableRecord
100
AcDbLayerTableRecord
2
1
70
0
62
4
6
Continuous
290
1
370
-3
390
0
0
LAYER
5
B3
100
AcDbSymbolTableRecord
100
AcDbLayerTableRecord
2
4
70
0
62
-2
6
CENTER
290
1
370
-3
390
0
0
LAYER
5
115
100
AcDbSymbolTableRecord
100
AcDbLayerTableRecord
2
Defpoints
70
0
62
7
6
Continuous
290
0
370
-3
390
0
0
LAYER
5
13A
100
AcDbSymbolTableRecord
100
AcDbLayerTableRecord
2
2
70
0
62
7
6
Continuous
290
1
370
-3
390
0
0
LAYER
5
221
100
AcDbSymbolTableRecord
100
AcDbLayerTableRecord
2
SK1
70
0
62
4
6
Continuous
290
1
370
-3
390
0
0
LAYER
5
222
100
AcDbSymbolTableRecord
100
AcDbLayerTableRecord
2
SK4
70
0
62
2
6
CENTER
290
1
370
-3
390
0
0
LAYER
5
223
100
AcDbSymbolTableRecord
100
AcDbLayerTableRecord
2
SK3
70
0
62
1
6
DASHED
290
1
370
-3
390
0
0
LAYER
5
224
100
AcDbSymbolTableRecord
100
AcDbLayerTableRecord
2
SK2
70
0
62
7
6
Continuous
290
1
370
-3
390
0
0
LAYER
5
225
100
AcDbSymbolTableRecord
100
AcDbLayerTableRecord
2
SK6
70
0
62
5
6
Continuous
290
1
370
-3
390
0
0
ENDTAB
0
TABLE
2
STYLE
5
239
100
AcDbSymbolTable
0
STYLE
5
11
100
AcDbSymbolTableRecord
100
AcDbTextStyleTableRecord
2
Standard
3
txt
70
0
71
0
40
0
41
1
42
0
50
0
0
STYLE
5
F8
100
AcDbSymbolTableRecord
100
AcDbTextStyleTableRecord
2
iso_b_vert
3
simplex.shx
70
0
71
0
40
0
41
1
42
0
50
0
0
STYLE
5
F9
100
AcDbSymbolTableRecord
100
AcDbTextStyleTableRecord
2
DWGDirectTextStyle
3
simplex
70
0
71
0
40
0
41
1
42
0
50
0
0
ENDTAB
0
TABLE
2
DIMSTYLE
5
23a
100
AcDbSymbolTable
100
AcDbDimStyleTable
0
DIMSTYLE
105
27
100
AcDbSymbolTableRecord
100
AcDbDimStyleTableRecord
2
Standard
70
0
3
<>
41
0.18
42
0.0625
44
0.18
140
0.18
147
0.09
73
0
74
0
77
1
271
2
275
0
278
52
280
0
340
11
0
ENDTAB
0
TABLE
2
VIEW
5
23b
100
AcDbSymbolTable
0
ENDTAB
0
TABLE
2
UCS
5
23c
100
AcDbSymbolTable
0
ENDTAB
0
TABLE
2
APPID
5
23d
100
AcDbSymbolTable
0
APPID
5
12
100
AcDbSymbolTableRecord
100
AcDbRegAppTableRecord
2
ACAD
70
0
0
APPID
5
111
100
AcDbSymbolTableRecord
100
AcDbRegAppTableRecord
2
ACAD_DSTYLE_DIMBREAK
70
0
0
APPID
5
1E0
100
AcDbSymbolTableRecord
100
AcDbRegAppTableRecord
2
ACAD_DSTYLE_DIM_LINETYPE
70
0
0
APPID
5
1E1
100
AcDbSymbolTableRecord
100
AcDbRegAppTableRecord
2
ACAD_DSTYLE_DIM_EXT1_LINETYPE
70
0
0
APPID
5
1E2
100
AcDbSymbolTableRecord
100
AcDbRegAppTableRecord
2
ACAD_DSTYLE_DIM_EXT2_LINETYPE
70
0
0
APPID
5
21D
100
AcDbSymbolTableRecord
100
AcDbRegAppTableRecord
2
ACAD_MLEADERVER
70
0
0
ENDTAB
0
TABLE
2
BLOCK_RECORD
5
23e
100
AcDbSymbolTable
0
BLOCK_RECORD
5
1F
100
AcDbSymbolTableRecord
100
AcDbBlockTableRecord
2
*Model_Space
340
0
70
0
0
BLOCK_RECORD
5
1B
100
AcDbSymbolTableRecord
100
AcDbBlockTableRecord
2
*Paper_Space
340
0
70
0
0
BLOCK_RECORD
5
23
100
AcDbSymbolTableRecord
100
AcDbBlockTableRecord
2
*Paper_Space0
340
0
70
0
0
BLOCK_RECORD
5
116
100
AcDbSymbolTableRecord
100
AcDbBlockTableRecord
2
*D1
340
0
70
0
0
BLOCK_RECORD
5
122
100
AcDbSymbolTableRecord
100
AcDbBlockTableRecord
2
_U0
340
0
70
0
0
BLOCK_RECORD
5
12E
100
AcDbSymbolTableRecord
100
AcDbBlockTableRecord
2
*D3
340
0
70
0
0
BLOCK_RECORD
5
13B
100
AcDbSymbolTableRecord
100
AcDbBlockTableRecord
2
_U1
340
0
70
0
0
BLOCK_RECORD
5
147
100
AcDbSymbolTableRecord
100
AcDbBlockTableRecord
2
*D5
340
0
70
0
0
BLOCK_RECORD
5
154
100
AcDbSymbolTableRecord
100
AcDbBlockTableRecord
2
_U2
340
0
70
0
0
BLOCK_RECORD
5
160
100
AcDbSymbolTableRecord
100
AcDbBlockTableRecord
2
*D7
340
0
70
0
0
BLOCK_RECORD
5
16C
100
AcDbSymbolTableRecord
100
AcDbBlockTableRecord
2
_U3
340
0
70
0
0
BLOCK_RECORD
5
178
100
AcDbSymbolTableRecord
100
AcDbBlockTableRecord
2
*D9
340
0
70
0
0
BLOCK_RECORD
5
185
100
AcDbSymbolTableRecord
100
AcDbBlockTableRecord
2
_U4
340
0
70
0
0
BLOCK_RECORD
5
191
100
AcDbSymbolTableRecord
100
AcDbBlockTableRecord
2
*D11
340
0
70
0
0
BLOCK_RECORD
5
19D
100
AcDbSymbolTableRecord
100
AcDbBlockTableRecord
2
_U5
340
0
70
0
0
BLOCK_RECORD
5
1AA
100
AcDbSymbolTableRecord
100
AcDbBlockTableRecord
2
*D13
340
0
70
0
0
BLOCK_RECORD
5
1B8
100
AcDbSymbolTableRecord
100
AcDbBlockTableRecord
2
_U6
340
0
70
0
0
ENDTAB
0
ENDSEC
0
SECTION
2
BLOCKS
0
BLOCK
5
20
100
AcDbEntity
8
0
100
AcDbBlockBegin
2
*Model_Space
70
0
10
0
20
0
30
0
3
*Model_Space
0
ENDBLK
5
21
100
AcDbEntity
8
0
100
AcDbBlockEnd
0
BLOCK
5
1C
100
AcDbEntity
8
0
100
AcDbBlockBegin
2
*Paper_Space
70
0
10
0
20
0
30
0
3
*Paper_Space
0
ENDBLK
5
1D
100
AcDbEntity
8
0
100
AcDbBlockEnd
0
BLOCK
5
24
100
AcDbEntity
8
0
100
AcDbBlockBegin
2
*Paper_Space0
70
0
10
0
20
0
30
0
3
*Paper_Space0
0
ENDBLK
5
25
100
AcDbEntity
8
0
100
AcDbBlockEnd
0
BLOCK
5
117
100
AcDbEntity
8
0
100
AcDbBlockBegin
2
*D1
70
1
10
0
20
0
30
0
3
*D1
0
LINE
5
119
100
AcDbEntity
8
0
62
256
6
ByLayer
370
-2
48
1
60
0
100
AcDbLine
10
6
20
23.5875
30
0
11
6
21
52.1
31
0
39
0
210
0
220
0
230
1
0
LINE
5
11A
100
AcDbEntity
8
0
62
256
6
ByLayer
370
-2
48
1
60
0
100
AcDbLine
10
36
20
5.5875
30
0
11
36
21
52.1
31
0
39
0
210
0
220
0
230
1
0
LINE
5
11B
100
AcDbEntity
8
0
62
256
6
ByLayer
370
-2
48
1
60
0
100
AcDbLine
10
10.5
20
50.1
30
0
11
31.5
21
50.1
31
0
39
0
210
0
220
0
230
1
0
SOLID
5
11C
100
AcDbEntity
8
0
62
256
6
ByLayer
370
-1
48
1
60
0
100
AcDbTrace
10
10.5
20
50.85
30
0
11
10.5
21
49.35
31
0
12
6
22
50.1
32
0
13
6
23
50.1
33
0
39
0
210
0
220
0
230
1
0
SOLID
5
11D
100
AcDbEntity
8
0
62
256
6
ByLayer
370
-1
48
1
60
0
100
AcDbTrace
10
31.5
20
49.35
30
0
11
31.5
21
50.85
31
0
12
36
22
50.1
32
0
13
36
23
50.1
33
0
39
0
210
0
220
0
230
1
0
MTEXT
5
11E
100
AcDbEntity
8
0
62
256
6
ByLayer
370
18
48
1
60
0
100
AcDbMText
10
21
20
59.1
30
0
210
0
220
0
230
1
1
\A1;30
40
4.5
41
0
44
1
50
0
71
5
72
5
7
iso_b_vert
0
POINT
5
11F
100
AcDbEntity
8
Defpoints
62
0
6
ByLayer
370
-1
48
1
60
0
100
AcDbPoint
10
6
20
22
30
0
39
0
210
0
220
0
230
1
50
360
0
POINT
5
120
100
AcDbEntity
8
Defpoints
62
0
6
ByLayer
370
-1
48
1
60
0
100
AcDbPoint
10
36
20
4
30
0
39
0
210
0
220
0
230
1
50
360
0
POINT
5
121
100
AcDbEntity
8
Defpoints
62
0
6
ByLayer
370
-1
48
1
60
0
100
AcDbPoint
10
36
20
50.1
30
0
39
0
210
0
220
0
230
1
50
360
0
ENDBLK
5
118
100
AcDbEntity
8
0
100
AcDbBlockEnd
0
BLOCK
5
129
100
AcDbEntity
8
0
100
AcDbBlockBegin
2
_U0
70
0
10
0
20
0
30
0
3
_U0
0
MTEXT
5
123
100
AcDbEntity
8
SK2
62
256
6
ByLayer
370
18
48
1
60
0
100
AcDbMText
10
18.550758
20
51.427672
30
0
210
0
220
0
230
1
1
\W0.6740;30
40
4.5
41
0
44
1.084337
50
0
71
7
72
5
7
iso_b_vert
0
LINE
5
124
100
AcDbEntity
8
SK2
62
256
6
ByLayer
370
13
48
1
60
0
100
AcDbLine
10
6
20
23.5875
30
0
11
6
21
52.1
31
0
39
0
210
0
220
0
230
1
0
LINE
5
125
100
AcDbEntity
8
SK2
62
256
6
ByLayer
370
13
48
1
60
0
100
AcDbLine
10
36
20
5.5875
30
0
11
36
21
52.1
31
0
39
0
210
0
220
0
230
1
0
LINE
5
126
100
AcDbEntity
8
SK2
62
256
6
ByLayer
370
13
48
1
60
0
100
AcDbLine
10
6
20
50.1
30
0
11
36
21
50.1
31
0
39
0
210
0
220
0
230
1
0
SOLID
5
127
100
AcDbEntity
8
SK2
62
256
6
ByLayer
370
18
48
1
60
0
100
AcDbTrace
10
6
20
50.1
30
0
11
10.499996
21
51.097626
31
0
12
10.500004
22
49.102374
32
0
13
10.500004
23
49.102374
33
0
39
0
210
0
220
0
230
1
0
SOLID
5
128
100
AcDbEntity
8
SK2
62
256
6
ByLayer
370
18
48
1
60
0
100
AcDbTrace
10
36
20
50.1
30
0
11
31.500004
21
49.102374
31
0
12
31.499996
22
51.097626
32
0
13
31.499996
23
51.097626
33
0
39
0
210
0
220
0
230
1
0
ENDBLK
5
12A
100
AcDbEntity
8
0
100
AcDbBlockEnd
0
BLOCK
5
12F
100
AcDbEntity
8
0
100
AcDbBlockBegin
2
*D3
70
1
10
0
20
0
30
0
3
*D3
0
LINE
5
131
100
AcDbEntity
8
0
62
256
6
ByLayer
370
-2
48
1
60
0
100
AcDbLine
10
0
20
21.5875
30
0
11
0
21
63.1
31
0
39
0
210
0
220
0
230
1
0
LINE
5
132
100
AcDbEntity
8
0
62
256
6
ByLayer
370
-2
48
1
60
0
100
AcDbLine
10
36
20
15.5875
30
0
11
36
21
63.1
31
0
39
0
210
0
220
0
230
1
0
LINE
5
133
100
AcDbEntity
8
0
62
256
6
ByLayer
370
-2
48
1
60
0
100
AcDbLine
10
4.5
20
61.1
30
0
11
31.5
21
61.1
31
0
39
0
210
0
220
0
230
1
0
SOLID
5
134
100
AcDbEntity
8
0
62
256
6
ByLayer
370
-1
48
1
60
0
100
AcDbTrace
10
4.5
20
61.85
30
0
11
4.5
21
60.35
31
0
12
0
22
61.1
32
0
13
0
23
61.1
33
0
39
0
210
0
220
0
230
1
0
SOLID
5
135
100
AcDbEntity
8
0
62
256
6
ByLayer
370
-1
48
1
60
0
100
AcDbTrace
10
31.5
20
60.35
30
0
11
31.5
21
61.85
31
0
12
36
22
61.1
32
0
13
36
23
61.1
33
0
39
0
210
0
220
0
230
1
0
MTEXT
5
136
100
AcDbEntity
8
0
62
256
6
ByLayer
370
18
48
1
60
0
100
AcDbMText
10
18
20
70.1
30
0
210
0
220
0
230
1
1
\A1;36
40
4.5
41
0
44
1
50
0
71
5
72
5
7
iso_b_vert
0
POINT
5
137
100
AcDbEntity
8
Defpoints
62
0
6
ByLayer
370
-1
48
1
60
0
100
AcDbPoint
10
0
20
20
30
0
39
0
210
0
220
0
230
1
50
360
0
POINT
5
138
100
AcDbEntity
8
Defpoints
62
0
6
ByLayer
370
-1
48
1
60
0
100
AcDbPoint
10
36
20
14
30
0
39
0
210
0
220
0
230
1
50
360
0
POINT
5
139
100
AcDbEntity
8
Defpoints
62
0
6
ByLayer
370
-1
48
1
60
0
100
AcDbPoint
10
36
20
61.1
30
0
39
0
210
0
220
0
230
1
50
360
0
ENDBLK
5
130
100
AcDbEntity
8
0
100
AcDbBlockEnd
0
BLOCK
5
142
100
AcDbEntity
8
0
100
AcDbBlockBegin
2
_U1
70
0
10
0
20
0
30
0
3
_U1
0
MTEXT
5
13C
100
AcDbEntity
8
2
62
256
6
ByLayer
370
18
48
1
60
0
100
AcDbMText
10
15.550758
20
62.427672
30
0
210
0
220
0
230
1
1
\W0.6740;36
40
4.5
41
0
44
1.084337
50
0
71
7
72
5
7
iso_b_vert
0
LINE
5
13D
100
AcDbEntity
8
2
62
256
6
ByLayer
370
13
48
1
60
0
100
AcDbLine
10
0
20
21.5875
30
0
11
0
21
63.1
31
0
39
0
210
0
220
0
230
1
0
LINE
5
13E
100
AcDbEntity
8
2
62
256
6
ByLayer
370
13
48
1
60
0
100
AcDbLine
10
36
20
15.5875
30
0
11
36
21
63.1
31
0
39
0
210
0
220
0
230
1
0
LINE
5
13F
100
AcDbEntity
8
2
62
256
6
ByLayer
370
13
48
1
60
0
100
AcDbLine
10
0
20
61.1
30
0
11
36
21
61.1
31
0
39
0
210
0
220
0
230
1
0
SOLID
5
140
100
AcDbEntity
8
2
62
256
6
ByLayer
370
18
48
1
60
0
100
AcDbTrace
10
0
20
61.1
30
0
11
4.499996
21
62.097626
31
0
12
4.500004
22
60.102374
32
0
13
4.500004
23
60.102374
33
0
39
0
210
0
220
0
230
1
0
SOLID
5
141
100
AcDbEntity
8
2
62
256
6
ByLayer
370
18
48
1
60
0
100
AcDbTrace
10
36
20
61.1
30
0
11
31.500004
21
60.102374
31
0
12
31.499996
22
62.097626
32
0
13
31.499996
23
62.097626
33
0
39
0
210
0
220
0
230
1
0
ENDBLK
5
143
100
AcDbEntity
8
0
100
AcDbBlockEnd
0
BLOCK
5
148
100
AcDbEntity
8
0
100
AcDbBlockBegin
2
*D5
70
1
10
0
20
0
30
0
3
*D5
0
LINE
5
14A
100
AcDbEntity
8
0
62
256
6
ByLayer
370
-2
48
1
60
0
100
AcDbLine
10
36
20
15.5875
30
0
11
36
21
43.1
31
0
39
0
210
0
220
0
230
1
0
LINE
5
14B
100
AcDbEntity
8
0
62
256
6
ByLayer
370
-2
48
1
60
0
100
AcDbLine
10
22.5
20
15.5875
30
0
11
22.5
21
43.1
31
0
39
0
210
0
220
0
230
1
0
LINE
5
14C
100
AcDbEntity
8
0
62
256
6
ByLayer
370
-2
48
1
60
0
100
AcDbLine
10
40.5
20
41.1
30
0
11
45
21
41.1
31
0
39
0
210
0
220
0
230
1
0
LINE
5
14D
100
AcDbEntity
8
0
62
256
6
ByLayer
370
-2
48
1
60
0
100
AcDbLine
10
18
20
41.1
30
0
11
13.5
21
41.1
31
0
39
0
210
0
220
0
230
1
0
SOLID
5
14E
100
AcDbEntity
8
0
62
256
6
ByLayer
370
-1
48
1
60
0
100
AcDbTrace
10
40.5
20
41.85
30
0
11
40.5
21
40.35
31
0
12
36
22
41.1
32
0
13
36
23
41.1
33
0
39
0
210
0
220
0
230
1
0
SOLID
5
14F
100
AcDbEntity
8
0
62
256
6
ByLayer
370
-1
48
1
60
0
100
AcDbTrace
10
18
20
40.35
30
0
11
18
21
41.85
31
0
12
22.5
22
41.1
32
0
13
22.5
23
41.1
33
0
39
0
210
0
220
0
230
1
0
MTEXT
5
150
100
AcDbEntity
8
0
62
256
6
ByLayer
370
18
48
1
60
0
100
AcDbMText
10
29.25
20
50.1
30
0
210
0
220
0
230
1
1
\A1;13.5
40
4.5
41
0
44
1
50
0
71
5
72
5
7
iso_b_vert
0
POINT
5
151
100
AcDbEntity
8
Defpoints
62
0
6
ByLayer
370
-1
48
1
60
0
100
AcDbPoint
10
36
20
14
30
0
39
0
210
0
220
0
230
1
50
360
0
POINT
5
152
100
AcDbEntity
8
Defpoints
62
0
6
ByLayer
370
-1
48
1
60
0
100
AcDbPoint
10
22.5
20
14
30
0
39
0
210
0
220
0
230
1
50
360
0
POINT
5
153
100
AcDbEntity
8
Defpoints
62
0
6
ByLayer
370
-1
48
1
60
0
100
AcDbPoint
10
22.5
20
41.1
30
0
39
0
210
0
220
0
230
1
50
360
0
ENDBLK
5
149
100
AcDbEntity
8
0
100
AcDbBlockEnd
0
BLOCK
5
15B
100
AcDbEntity
8
0
100
AcDbBlockBegin
2
_U2
70
0
10
0
20
0
30
0
3
_U2
0
MTEXT
5
155
100
AcDbEntity
8
SK2
62
256
6
ByLayer
370
18
48
1
60
0
100
AcDbMText
10
24.888687
20
42.427672
30
0
210
0
220
0
230
1
1
\W0.6367;13,5
40
4.5
41
0
44
1.084337
50
0
71
7
72
5
7
iso_b_vert
0
LINE
5
156
100
AcDbEntity
8
SK2
62
256
6
ByLayer
370
13
48
1
60
0
100
AcDbLine
10
36
20
15.5875
30
0
11
36
21
43.1
31
0
39
0
210
0
220
0
230
1
0
LINE
5
157
100
AcDbEntity
8
SK2
62
256
6
ByLayer
370
13
48
1
60
0
100
AcDbLine
10
22.5
20
15.5875
30
0
11
22.5
21
43.1
31
0
39
0
210
0
220
0
230
1
0
LINE
5
158
100
AcDbEntity
8
SK2
62
256
6
ByLayer
370
13
48
1
60
0
100
AcDbLine
10
47.25
20
41.1
30
0
11
11.25
21
41.1
31
0
39
0
210
0
220
0
230
1
0
SOLID
5
159
100
AcDbEntity
8
SK2
62
256
6
ByLayer
370
18
48
1
60
0
100
AcDbTrace
10
36
20
41.1
30
0
11
40.499996
21
42.097626
31
0
12
40.500004
22
40.102374
32
0
13
40.500004
23
40.102374
33
0
39
0
210
0
220
0
230
1
0
SOLID
5
15A
100
AcDbEntity
8
SK2
62
256
6
ByLayer
370
18
48
1
60
0
100
AcDbTrace
10
22.5
20
41.1
30
0
11
18.000004
21
40.102374
31
0
12
17.999996
22
42.097626
32
0
13
17.999996
23
42.097626
33
0
39
0
210
0
220
0
230
1
0
ENDBLK
5
15C
100
AcDbEntity
8
0
100
AcDbBlockEnd
0
BLOCK
5
161
100
AcDbEntity
8
0
100
AcDbBlockBegin
2
*D7
70
1
10
0
20
0
30
0
3
*D7
0
LINE
5
163
100
AcDbEntity
8
0
62
256
6
ByLayer
370
-2
48
1
60
0
100
AcDbLine
10
0
20
21.5875
30
0
11
0
21
63.1
31
0
39
0
210
0
220
0
230
1
0
LINE
5
164
100
AcDbEntity
8
0
62
256
6
ByLayer
370
-2
48
1
60
0
100
AcDbLine
10
-24
20
15.9875
30
0
11
-24
21
63.1
31
0
39
0
210
0
220
0
230
1
0
LINE
5
165
100
AcDbEntity
8
0
62
256
6
ByLayer
370
-2
48
1
60
0
100
AcDbLine
10
-4.5
20
61.1
30
0
11
-19.5
21
61.1
31
0
39
0
210
0
220
0
230
1
0
SOLID
5
166
100
AcDbEntity
8
0
62
256
6
ByLayer
370
-1
48
1
60
0
100
AcDbTrace
10
-4.5
20
60.35
30
0
11
-4.5
21
61.85
31
0
12
0
22
61.1
32
0
13
0
23
61.1
33
0
39
0
210
0
220
0
230
1
0
SOLID
5
167
100
AcDbEntity
8
0
62
256
6
ByLayer
370
-1
48
1
60
0
100
AcDbTrace
10
-19.5
20
61.85
30
0
11
-19.5
21
60.35
31
0
12
-24
22
61.1
32
0
13
-24
23
61.1
33
0
39
0
210
0
220
0
230
1
0
MTEXT
5
168
100
AcDbEntity
8
0
62
256
6
ByLayer
370
18
48
1
60
0
100
AcDbMText
10
-12
20
70.1
30
0
210
0
220
0
230
1
1
\A1;24
40
4.5
41
0
44
1
50
0
71
5
72
5
7
iso_b_vert
0
POINT
5
169
100
AcDbEntity
8
Defpoints
62
0
6
ByLayer
370
-1
48
1
60
0
100
AcDbPoint
10
0
20
20
30
0
39
0
210
0
220
0
230
1
50
360
0
POINT
5
16A
100
AcDbEntity
8
Defpoints
62
0
6
ByLayer
370
-1
48
1
60
0
100
AcDbPoint
10
-24
20
14.4
30
0
39
0
210
0
220
0
230
1
50
360
0
POINT
5
16B
100
AcDbEntity
8
Defpoints
62
0
6
ByLayer
370
-1
48
1
60
0
100
AcDbPoint
10
-24
20
61.1
30
0
39
0
210
0
220
0
230
1
50
360
0
ENDBLK
5
162
100
AcDbEntity
8
0
100
AcDbBlockEnd
0
BLOCK
5
173
100
AcDbEntity
8
0
100
AcDbBlockBegin
2
_U3
70
0
10
0
20
0
30
0
3
_U3
0
MTEXT
5
16D
100
AcDbEntity
8
SK2
62
256
6
ByLayer
370
18
48
1
60
0
100
AcDbMText
10
-14.686157
20
62.427672
30
0
210
0
220
0
230
1
1
\W0.7167;24
40
4.5
41
0
44
1.084337
50
0
71
7
72
5
7
iso_b_vert
0
LINE
5
16E
100
AcDbEntity
8
SK2
62
256
6
ByLayer
370
13
48
1
60
0
100
AcDbLine
10
0
20
21.5875
30
0
11
0
21
63.1
31
0
39
0
210
0
220
0
230
1
0
LINE
5
16F
100
AcDbEntity
8
SK2
62
256
6
ByLayer
370
13
48
1
60
0
100
AcDbLine
10
-24
20
15.9875
30
0
11
-24
21
63.1
31
0
39
0
210
0
220
0
230
1
0
LINE
5
170
100
AcDbEntity
8
SK2
62
256
6
ByLayer
370
13
48
1
60
0
100
AcDbLine
10
0
20
61.1
30
0
11
-24
21
61.1
31
0
39
0
210
0
220
0
230
1
0
SOLID
5
171
100
AcDbEntity
8
SK2
62
256
6
ByLayer
370
18
48
1
60
0
100
AcDbTrace
10
0
20
61.1
30
0
11
-4.499996
21
60.102374
31
0
12
-4.500004
22
62.097626
32
0
13
-4.500004
23
62.097626
33
0
39
0
210
0
220
0
230
1
0
SOLID
5
172
100
AcDbEntity
8
SK2
62
256
6
ByLayer
370
18
48
1
60
0
100
AcDbTrace
10
-24
20
61.1
30
0
11
-19.500004
21
62.097626
31
0
12
-19.499996
22
60.102374
32
0
13
-19.499996
23
60.102374
33
0
39
0
210
0
220
0
230
1
0
ENDBLK
5
174
100
AcDbEntity
8
0
100
AcDbBlockEnd
0
BLOCK
5
179
100
AcDbEntity
8
0
100
AcDbBlockBegin
2
*D9
70
1
10
0
20
0
30
0
3
*D9
0
LINE
5
17B
100
AcDbEntity
8
0
62
256
6
ByLayer
370
-2
48
1
60
0
100
AcDbLine
10
-1
20
-5.5875
30
0
11
-1
21
-52.6
31
0
39
0
210
0
220
0
230
1
0
LINE
5
17C
100
AcDbEntity
8
0
62
256
6
ByLayer
370
-2
48
1
60
0
100
AcDbLine
10
36
20
-5.5875
30
0
11
36
21
-52.6
31
0
39
0
210
0
220
0
230
1
0
LINE
5
17D
100
AcDbEntity
8
0
62
256
6
ByLayer
370
-2
48
1
60
0
100
AcDbLine
10
36
20
-50.6
30
0
11
78.280054
21
-50.6
31
0
39
0
210
0
220
0
230
1
0
LINE
5
17E
100
AcDbEntity
8
0
62
256
6
ByLayer
370
-2
48
1
60
0
100
AcDbLine
10
3.5
20
-50.6
30
0
11
31.5
21
-50.6
31
0
39
0
210
0
220
0
230
1
0
SOLID
5
17F
100
AcDbEntity
8
0
62
256
6
ByLayer
370
-1
48
1
60
0
100
AcDbTrace
10
3.5
20
-49.85
30
0
11
3.5
21
-51.35
31
0
12
-1
22
-50.6
32
0
13
-1
23
-50.6
33
0
39
0
210
0
220
0
230
1
0
SOLID
5
180
100
AcDbEntity
8
0
62
256
6
ByLayer
370
-1
48
1
60
0
100
AcDbTrace
10
31.5
20
-51.35
30
0
11
31.5
21
-49.85
31
0
12
36
22
-50.6
32
0
13
36
23
-50.6
33
0
39
0
210
0
220
0
230
1
0
MTEXT
5
181
100
AcDbEntity
8
0
62
256
6
ByLayer
370
18
48
1
60
0
100
AcDbMText
10
67.887197
20
-41.6
30
0
210
0
220
0
230
1
1
\A1;37
40
4.5
41
0
44
1
50
0
71
5
72
5
7
iso_b_vert
0
POINT
5
182
100
AcDbEntity
8
Defpoints
62
0
6
ByLayer
370
-1
48
1
60
0
100
AcDbPoint
10
-1
20
-4
30
0
39
0
210
0
220
0
230
1
50
360
0
POINT
5
183
100
AcDbEntity
8
Defpoints
62
0
6
ByLayer
370
-1
48
1
60
0
100
AcDbPoint
10
36
20
-4
30
0
39
0
210
0
220
0
230
1
50
360
0
POINT
5
184
100
AcDbEntity
8
Defpoints
62
0
6
ByLayer
370
-1
48
1
60
0
100
AcDbPoint
10
36
20
-50.6
30
0
39
0
210
0
220
0
230
1
50
360
0
ENDBLK
5
17A
100
AcDbEntity
8
0
100
AcDbBlockEnd
0
BLOCK
5
18C
100
AcDbEntity
8
0
100
AcDbBlockBegin
2
_U4
70
0
10
0
20
0
30
0
3
_U4
0
MTEXT
5
186
100
AcDbEntity
8
SK2
62
256
6
ByLayer
370
18
48
1
60
0
100
AcDbMText
10
47.2385
20
-49.272328
30
0
210
0
220
0
230
1
1
\W0.7273;min 27-max 37
40
4.5
41
0
44
1.084337
50
0
71
7
72
5
7
iso_b_vert
0
LINE
5
187
100
AcDbEntity
8
SK2
62
256
6
ByLayer
370
13
48
1
60
0
100
AcDbLine
10
-1
20
-5.5875
30
0
11
-1
21
-52.6
31
0
39
0
210
0
220
0
230
1
0
LINE
5
188
100
AcDbEntity
8
SK2
62
256
6
ByLayer
370
13
48
1
60
0
100
AcDbLine
10
36
20
-5.5875
30
0
11
36
21
-52.6
31
0
39
0
210
0
220
0
230
1
0
LINE
5
189
100
AcDbEntity
8
SK2
62
256
6
ByLayer
370
13
48
1
60
0
100
AcDbLine
10
-1
20
-50.6
30
0
11
88.774393
21
-50.6
31
0
39
0
210
0
220
0
230
1
0
SOLID
5
18A
100
AcDbEntity
8
SK2
62
256
6
ByLayer
370
18
48
1
60
0
100
AcDbTrace
10
-1
20
-50.6
30
0
11
3.499996
21
-49.602374
31
0
12
3.500004
22
-51.597626
32
0
13
3.500004
23
-51.597626
33
0
39
0
210
0
220
0
230
1
0
SOLID
5
18B
100
AcDbEntity
8
SK2
62
256
6
ByLayer
370
18
48
1
60
0
100
AcDbTrace
10
36
20
-50.6
30
0
11
31.500004
21
-51.597626
31
0
12
31.499996
22
-49.602374
32
0
13
31.499996
23
-49.602374
33
0
39
0
210
0
220
0
230
1
0
ENDBLK
5
18D
100
AcDbEntity
8
0
100
AcDbBlockEnd
0
BLOCK
5
192
100
AcDbEntity
8
0
100
AcDbBlockBegin
2
*D11
70
1
10
0
20
0
30
0
3
*D11
0
LINE
5
194
100
AcDbEntity
8
0
62
256
6
ByLayer
370
-2
48
1
60
0
100
AcDbLine
10
28.2875
20
14
30
0
11
82.25
21
14
31
0
39
0
210
0
220
0
230
1
0
LINE
5
195
100
AcDbEntity
8
0
62
256
6
ByLayer
370
-2
48
1
60
0
100
AcDbLine
10
28.2875
20
-14
30
0
11
82.25
21
-14
31
0
39
0
210
0
220
0
230
1
0
LINE
5
196
100
AcDbEntity
8
0
62
256
6
ByLayer
370
-2
48
1
60
0
100
AcDbLine
10
80.25
20
9.5
30
0
11
80.25
21
-9.5
31
0
39
0
210
0
220
0
230
1
0
SOLID
5
197
100
AcDbEntity
8
0
62
256
6
ByLayer
370
-1
48
1
60
0
100
AcDbTrace
10
81
20
9.5
30
0
11
79.5
21
9.5
31
0
12
80.25
22
14
32
0
13
80.25
23
14
33
0
39
0
210
0
220
0
230
1
0
SOLID
5
198
100
AcDbEntity
8
0
62
256
6
ByLayer
370
-1
48
1
60
0
100
AcDbTrace
10
79.5
20
-9.5
30
0
11
81
21
-9.5
31
0
12
80.25
22
-14
32
0
13
80.25
23
-14
33
0
39
0
210
0
220
0
230
1
0
MTEXT
5
199
100
AcDbEntity
8
0
62
256
6
ByLayer
370
18
48
1
60
0
100
AcDbMText
10
71.25
20
0
30
0
210
0
220
0
230
1
1
\A1;28
40
4.5
41
0
44
1
50
90
71
5
72
5
7
iso_b_vert
0
POINT
5
19A
100
AcDbEntity
8
Defpoints
62
0
6
ByLayer
370
-1
48
1
60
0
100
AcDbPoint
10
26.7
20
14
30
0
39
0
210
0
220
0
230
1
50
360
0
POINT
5
19B
100
AcDbEntity
8
Defpoints
62
0
6
ByLayer
370
-1
48
1
60
0
100
AcDbPoint
10
26.7
20
-14
30
0
39
0
210
0
220
0
230
1
50
360
0
POINT
5
19C
100
AcDbEntity
8
Defpoints
62
0
6
ByLayer
370
-1
48
1
60
0
100
AcDbPoint
10
80.25
20
-14
30
0
39
0
210
0
220
0
230
1
50
360
0
ENDBLK
5
193
100
AcDbEntity
8
0
100
AcDbBlockEnd
0
BLOCK
5
1A5
100
AcDbEntity
8
0
100
AcDbBlockBegin
2
_U5
70
0
10
0
20
0
30
0
3
_U5
0
MTEXT
5
19E
100
AcDbEntity
8
SK2
62
256
6
ByLayer
370
18
48
1
60
0
100
AcDbMText
10
78.185366
20
-7.780242
30
0
210
0
220
0
230
1
1
%%c
40
3.5
41
0
44
1.084337
50
90
71
7
72
5
7
iso_b_vert
0
MTEXT
5
19F
100
AcDbEntity
8
SK2
62
256
6
ByLayer
370
18
48
1
60
0
100
AcDbMText
10
78.488328
20
2.764758
30
0
210
0
220
0
230
1
1
\W0.6740;28
40
4.5
41
0
44
1.084337
50
90
71
7
72
5
7
iso_b_vert
0
LINE
5
1A0
100
AcDbEntity
8
SK2
62
256
6
ByLayer
370
13
48
1
60
0
100
AcDbLine
10
28.2875
20
14
30
0
11
82.25
21
14
31
0
39
0
210
0
220
0
230
1
0
LINE
5
1A1
100
AcDbEntity
8
SK2
62
256
6
ByLayer
370
13
48
1
60
0
100
AcDbLine
10
28.2875
20
-14
30
0
11
82.25
21
-14
31
0
39
0
210
0
220
0
230
1
0
LINE
5
1A2
100
AcDbEntity
8
SK2
62
256
6
ByLayer
370
13
48
1
60
0
100
AcDbLine
10
80.25
20
14
30
0
11
80.25
21
-14
31
0
39
0
210
0
220
0
230
1
0
SOLID
5
1A3
100
AcDbEntity
8
SK2
62
256
6
ByLayer
370
18
48
1
60
0
100
AcDbTrace
10
80.25
20
14
30
0
11
81.247626
21
9.500004
31
0
12
79.252374
22
9.499996
32
0
13
79.252374
23
9.499996
33
0
39
0
210
0
220
0
230
1
0
SOLID
5
1A4
100
AcDbEntity
8
SK2
62
256
6
ByLayer
370
18
48
1
60
0
100
AcDbTrace
10
80.25
20
-14
30
0
11
79.252374
21
-9.500004
31
0
12
81.247626
22
-9.499996
32
0
13
81.247626
23
-9.499996
33
0
39
0
210
0
220
0
230
1
0
ENDBLK
5
1A6
100
AcDbEntity
8
0
100
AcDbBlockEnd
0
BLOCK
5
1AB
100
AcDbEntity
8
0
100
AcDbBlockBegin
2
*D13
70
1
10
0
20
0
30
0
3
*D13
0
LINE
5
1AD
100
AcDbEntity
8
0
62
256
6
ByLayer
370
-2
48
1
60
0
100
AcDbLine
10
37.5875
20
4
30
0
11
60.25
21
4
31
0
39
0
210
0
220
0
230
1
0
LINE
5
1AE
100
AcDbEntity
8
0
62
256
6
ByLayer
370
-2
48
1
60
0
100
AcDbLine
10
37.5875
20
-4
30
0
11
60.25
21
-4
31
0
39
0
210
0
220
0
230
1
0
LINE
5
1AF
100
AcDbEntity
8
0
62
256
6
ByLayer
370
-2
48
1
60
0
100
AcDbLine
10
58.25
20
4
30
0
11
58.25
21
29.506371
31
0
39
0
210
0
220
0
230
1
0
LINE
5
1B0
100
AcDbEntity
8
0
62
256
6
ByLayer
370
-2
48
1
60
0
100
AcDbLine
10
58.25
20
8.5
30
0
11
58.25
21
13
31
0
39
0
210
0
220
0
230
1
0
LINE
5
1B1
100
AcDbEntity
8
0
62
256
6
ByLayer
370
-2
48
1
60
0
100
AcDbLine
10
58.25
20
-8.5
30
0
11
58.25
21
-13
31
0
39
0
210
0
220
0
230
1
0
SOLID
5
1B2
100
AcDbEntity
8
0
62
256
6
ByLayer
370
-1
48
1
60
0
100
AcDbTrace
10
57.5
20
8.5
30
0
11
59
21
8.5
31
0
12
58.25
22
4
32
0
13
58.25
23
4
33
0
39
0
210
0
220
0
230
1
0
SOLID
5
1B3
100
AcDbEntity
8
0
62
256
6
ByLayer
370
-1
48
1
60
0
100
AcDbTrace
10
59
20
-8.5
30
0
11
57.5
21
-8.5
31
0
12
58.25
22
-4
32
0
13
58.25
23
-4
33
0
39
0
210
0
220
0
230
1
0
MTEXT
5
1B4
100
AcDbEntity
8
0
62
256
6
ByLayer
370
18
48
1
60
0
100
AcDbMText
10
49.25
20
21.256371
30
0
210
0
220
0
230
1
1
\A1;8
40
4.5
41
0
44
1
50
90
71
5
72
5
7
iso_b_vert
0
POINT
5
1B5
100
AcDbEntity
8
Defpoints
62
0
6
ByLayer
370
-1
48
1
60
0
100
AcDbPoint
10
36
20
4
30
0
39
0
210
0
220
0
230
1
50
360
0
POINT
5
1B6
100
AcDbEntity
8
Defpoints
62
0
6
ByLayer
370
-1
48
1
60
0
100
AcDbPoint
10
36
20
-4
30
0
39
0
210
0
220
0
230
1
50
360
0
POINT
5
1B7
100
AcDbEntity
8
Defpoints
62
0
6
ByLayer
370
-1
48
1
60
0
100
AcDbPoint
10
58.25
20
-4
30
0
39
0
210
0
220
0
230
1
50
360
0
ENDBLK
5
1AC
100
AcDbEntity
8
0
100
AcDbBlockEnd
0
BLOCK
5
1C0
100
AcDbEntity
8
0
100
AcDbBlockBegin
2
_U6
70
0
10
0
20
0
30
0
3
_U6
0
MTEXT
5
1B9
100
AcDbEntity
8
SK2
62
256
6
ByLayer
370
18
48
1
60
0
100
AcDbMText
10
56.185366
20
15.1575
30
0
210
0
220
0
230
1
1
%%c
40
3.5
41
0
44
1.084337
50
90
71
7
72
5
7
iso_b_vert
0
MTEXT
5
1BA
100
AcDbEntity
8
SK2
62
256
6
ByLayer
370
18
48
1
60
0
100
AcDbMText
10
56.488328
20
25.7025
30
0
210
0
220
0
230
1
1
\W0.5404;8
40
4.5
41
0
44
1.084337
50
90
71
7
72
5
7
iso_b_vert
0
LINE
5
1BB
100
AcDbEntity
8
SK2
62
256
6
ByLayer
370
13
48
1
60
0
100
AcDbLine
10
37.5875
20
4
30
0
11
60.25
21
4
31
0
39
0
210
0
220
0
230
1
0
LINE
5
1BC
100
AcDbEntity
8
SK2
62
256
6
ByLayer
370
13
48
1
60
0
100
AcDbLine
10
37.5875
20
-4
30
0
11
60.25
21
-4
31
0
39
0
210
0
220
0
230
1
0
LINE
5
1BD
100
AcDbEntity
8
SK2
62
256
6
ByLayer
370
13
48
1
60
0
100
AcDbLine
10
58.25
20
-15.25
30
0
11
58.25
21
27.512742
31
0
39
0
210
0
220
0
230
1
0
SOLID
5
1BE
100
AcDbEntity
8
SK2
62
256
6
ByLayer
370
18
48
1
60
0
100
AcDbTrace
10
58.25
20
4
30
0
11
57.252374
21
8.499996
31
0
12
59.247626
22
8.500004
32
0
13
59.247626
23
8.500004
33
0
39
0
210
0
220
0
230
1
0
SOLID
5
1BF
100
AcDbEntity
8
SK2
62
256
6
ByLayer
370
18
48
1
60
0
100
AcDbTrace
10
58.25
20
-4
30
0
11
59.247626
21
-8.499996
31
0
12
57.252374
22
-8.500004
32
0
13
57.252374
23
-8.500004
33
0
39
0
210
0
220
0
230
1
0
ENDBLK
5
1C1
100
AcDbEntity
8
0
100
AcDbBlockEnd
0
ENDSEC
0
SECTION
2
ENTITIES
0
ARC
5
C9
100
AcDbEntity
8
1
62
256
6
ByLayer
370
18
48
1
60
0
100
AcDbCircle
39
0
10
24.597915
20
-6
30
0
40
20
210
0
220
0
230
1
100
AcDbArc
50
78
51
90
0
ARC
5
CA
100
AcDbEntity
8
1
62
256
6
ByLayer
370
18
48
1
60
0
100
AcDbCircle
39
0
10
23.200208
20
-15
30
0
40
1
210
0
220
0
230
1
100
AcDbArc
50
90
51
160
0
ARC
5
CB
100
AcDbEntity
8
1
62
256
6
ByLayer
370
18
48
1
60
0
100
AcDbCircle
39
0
10
24.597915
20
6
30
0
40
20
210
0
220
0
230
1
100
AcDbArc
50
270
51
282
0
ARC
5
CC
100
AcDbEntity
8
1
62
256
6
ByLayer
370
18
48
1
60
0
100
AcDbCircle
39
0
10
23.200208
20
15
30
0
40
1
210
0
220
0
230
1
100
AcDbArc
50
200
51
270
0
ARC
5
CD
100
AcDbEntity
8
1
62
256
6
ByLayer
370
18
48
1
60
0
100
AcDbCircle
39
0
10
34.8
20
-11.051483
30
0
40
1.2
210
0
220
0
230
1
100
AcDbArc
50
282
51
0
0
ARC
5
CE
100
AcDbEntity
8
1
62
256
6
ByLayer
370
18
48
1
60
0
100
AcDbCircle
39
0
10
34.8
20
11.051483
30
0
40
1.2
210
0
220
0
230
1
100
AcDbArc
50
0
51
78
0
ARC
5
CF
100
AcDbEntity
8
SK1
62
256
6
ByLayer
370
18
48
1
60
0
100
AcDbCircle
39
0
10
-0.6
20
15
30
0
40
0.999999999999989
210
0
220
0
230
1
100
AcDbArc
50
293.578178
51
306.869898
0
ARC
5
D0
100
AcDbEntity
8
SK1
62
256
6
ByLayer
370
18
48
1
60
0
100
AcDbCircle
39
0
10
-0.6
20
-15
30
0
40
0.999999999999989
210
0
220
0
230
1
100
AcDbArc
50
53.130102
51
66.421822
0
ARC
5
D1
100
AcDbEntity
8
1
62
256
6
ByLayer
370
18
48
1
60
0
100
AcDbCircle
39
0
10
5
20
21
30
0
40
1
210
0
220
0
230
1
100
AcDbArc
50
270
51
0
0
ARC
5
D2
100
AcDbEntity
8
1
62
256
6
ByLayer
370
18
48
1
60
0
100
AcDbCircle
39
0
10
5
20
-21
30
0
40
1
210
0
220
0
230
1
100
AcDbArc
50
0
51
90
0
ARC
5
D3
100
AcDbEntity
8
1
62
256
6
ByLayer
370
18
48
1
60
0
100
AcDbCircle
39
0
10
18.888031
20
-21
30
0
40
1
210
0
220
0
230
1
100
AcDbArc
50
270
51
340
0
ARC
5
D4
100
AcDbEntity
8
1
62
256
6
ByLayer
370
18
48
1
60
0
100
AcDbCircle
39
0
10
18.888031
20
21
30
0
40
1
210
0
220
0
230
1
100
AcDbArc
50
20
51
90
0
ARC
5
D5
100
AcDbEntity
8
1
62
256
6
ByLayer
370
18
48
1
60
0
100
AcDbCircle
39
0
10
7
20
-21
30
0
40
1
210
0
220
0
230
1
100
AcDbArc
50
180
51
270
0
ARC
5
D6
100
AcDbEntity
8
1
62
256
6
ByLayer
370
18
48
1
60
0
100
AcDbCircle
39
0
10
7
20
21
30
0
40
1
210
0
220
0
230
1
100
AcDbArc
50
90
51
180
0
POINT
5
70
100
AcDbEntity
8
81
62
256
6
ByLayer
370
18
48
1
60
0
100
AcDbPoint
10
36
20
0
30
0
39
0
210
0
220
0
230
1
50
360
0
POINT
5
72
100
AcDbEntity
8
80
62
256
6
ByLayer
370
18
48
1
60
0
100
AcDbPoint
10
0
20
0
30
0
39
0
210
0
220
0
230
1
50
360
0
POINT
5
74
100
AcDbEntity
8
1
62
256
6
ByLayer
370
18
48
1
60
1
100
AcDbPoint
10
6
20
22
30
0
39
0
210
0
220
0
230
1
50
360
0
POINT
5
76
100
AcDbEntity
8
1
62
256
6
ByLayer
370
18
48
1
60
1
100
AcDbPoint
10
36
20
4
30
0
39
0
210
0
220
0
230
1
50
360
0
POINT
5
77
100
AcDbEntity
8
1
62
256
6
ByLayer
370
18
48
1
60
1
100
AcDbPoint
10
0
20
20
30
0
39
0
210
0
220
0
230
1
50
360
0
POINT
5
78
100
AcDbEntity
8
1
62
256
6
ByLayer
370
18
48
1
60
1
100
AcDbPoint
10
36
20
14
30
0
39
0
210
0
220
0
230
1
50
360
0
POINT
5
79
100
AcDbEntity
8
1
62
256
6
ByLayer
370
18
48
1
60
1
100
AcDbPoint
10
36
20
14
30
0
39
0
210
0
220
0
230
1
50
360
0
POINT
5
7A
100
AcDbEntity
8
1
62
256
6
ByLayer
370
18
48
1
60
1
100
AcDbPoint
10
22.5
20
14
30
0
39
0
210
0
220
0
230
1
50
360
0
POINT
5
7B
100
AcDbEntity
8
1
62
256
6
ByLayer
370
18
48
1
60
1
100
AcDbPoint
10
0
20
20
30
0
39
0
210
0
220
0
230
1
50
360
0
POINT
5
7C
100
AcDbEntity
8
1
62
256
6
ByLayer
370
18
48
1
60
1
100
AcDbPoint
10
-24
20
14.4
30
0
39
0
210
0
220
0
230
1
50
360
0
POINT
5
7D
100
AcDbEntity
8
1
62
256
6
ByLayer
370
18
48
1
60
1
100
AcDbPoint
10
-1
20
-4
30
0
39
0
210
0
220
0
230
1
50
360
0
POINT
5
7E
100
AcDbEntity
8
1
62
256
6
ByLayer
370
18
48
1
60
1
100
AcDbPoint
10
26.7
20
14
30
0
39
0
210
0
220
0
230
1
50
360
0
POINT
5
7F
100
AcDbEntity
8
1
62
256
6
ByLayer
370
18
48
1
60
1
100
AcDbPoint
10
26.7
20
-14
30
0
39
0
210
0
220
0
230
1
50
360
0
POINT
5
80
100
AcDbEntity
8
1
62
256
6
ByLayer
370
18
48
1
60
1
100
AcDbPoint
10
36
20
4
30
0
39
0
210
0
220
0
230
1
50
360
0
POINT
5
81
100
AcDbEntity
8
1
62
256
6
ByLayer
370
18
48
1
60
1
100
AcDbPoint
10
36
20
-4
30
0
39
0
210
0
220
0
230
1
50
360
0
SPLINE
5
D7
100
AcDbEntity
8
1
62
256
6
ByLayer
370
18
48
1
60
0
100
AcDbSpline
70
2053
71
3
72
122
73
118
40
0
40
0
40
0
40
0
40
0.0312500000000005
40
0.0312500000000005
40
0.062500000000001
40
0.062500000000001
40
0.0781250000000012
40
0.0781250000000012
40
0.0937500000000014
40
0.0937500000000014
40
0.125000000000002
40
0.125000000000002
40
0.140625000000002
40
0.140625000000002
40
0.156250000000002
40
0.156250000000002
40
0.187500000000002
40
0.187500000000002
40
0.203125000000003
40
0.203125000000003
40
0.218750000000003
40
0.218750000000003
40
0.226562500000003
40
0.226562500000003
40
0.234375000000003
40
0.234375000000003
40
0.250000000000003
40
0.250000000000003
40
0.257812500000003
40
0.257812500000003
40
0.265625000000003
40
0.265625000000003
40
0.281250000000003
40
0.281250000000003
40
0.289062500000003
40
0.289062500000003
40
0.296875000000003
40
0.296875000000003
40
0.312500000000003
40
0.312500000000003
40
0.328125000000004
40
0.328125000000004
40
0.335937500000004
40
0.335937500000004
40
0.343750000000004
40
0.343750000000004
40
0.375000000000004
40
0.375000000000004
40
0.390625000000004
40
0.390625000000004
40
0.406250000000004
40
0.406250000000004
40
0.437500000000005
40
0.437500000000005
40
0.453125000000005
40
0.453125000000005
40
0.468750000000006
40
0.468750000000006
40
0.500000000000006
40
0.500000000000006
40
0.531250000000007
40
0.531250000000007
40
0.539062500000007
40
0.539062500000007
40
0.546875000000007
40
0.546875000000007
40
0.562500000000007
40
0.562500000000007
40
0.593750000000007
40
0.593750000000007
40
0.601562500000007
40
0.601562500000007
40
0.609375000000007
40
0.609375000000007
40
0.625000000000007
40
0.625000000000007
40
0.640625000000007
40
0.640625000000007
40
0.648437500000007
40
0.648437500000007
40
0.656250000000007
40
0.656250000000007
40
0.687500000000006
40
0.687500000000006
40
0.703125000000006
40
0.703125000000006
40
0.718750000000006
40
0.718750000000006
40
0.750000000000005
40
0.750000000000005
40
0.765625000000005
40
0.765625000000005
40
0.781250000000004
40
0.781250000000004
40
0.796875000000004
40
0.796875000000004
40
0.812500000000004
40
0.812500000000004
40
0.828125000000003
40
0.828125000000003
40
0.843750000000003
40
0.843750000000003
40
0.875000000000002
40
0.875000000000002
40
0.890625000000002
40
0.890625000000002
40
0.906250000000002
40
0.906250000000002
40
0.921875000000002
40
0.921875000000002
40
0.937500000000001
40
0.937500000000001
40
0.968750000000001
40
0.968750000000001
40
0.984375
40
0.984375
40
1
40
1
40
1
40
1
41
1
10
7.74999999999997
20
-18.4390889145857
30
0
41
1
10
7.74999999999997
20
-18.2280236478607
30
0
41
1
10
7.77975340017358
20
-18.0115004626127
30
0
41
1
10
7.89104958680494
20
-17.5680651875923
30
0
41
1
10
7.97264253318002
20
-17.3411499948429
30
0
41
1
10
8.13253860374647
20
-16.9935971753679
30
0
41
1
10
8.19239435587136
20
-16.8761021194769
30
0
41
1
10
8.32340834894913
20
-16.6415572140486
30
0
41
1
10
8.39450481654183
20
-16.5245127823446
30
0
41
1
10
8.62430709112752
20
-16.174445509549
30
0
41
1
10
8.7993260147004
20
-15.9424173392977
30
0
41
1
10
9.09686611591854
20
-15.5989689510379
30
0
41
1
10
9.20192678436786
20
-15.4852670080708
30
0
41
1
10
9.42490567853028
20
-15.2601229613503
30
0
41
1
10
9.54246383792773
20
-15.1491060955572
30
0
41
1
10
9.91061180621605
20
-14.8259280128431
30
0
41
1
10
10.1777329094164
20
-14.6218442086802
30
0
41
1
10
10.6203660028667
20
-14.3422800557514
30
0
41
1
10
10.7758806793586
20
-14.2531993901412
30
0
41
1
10
11.0968473627372
20
-14.0902799750344
30
0
41
1
10
11.2627416372763
20
-14.0160587072435
30
0
41
1
10
11.5209120556753
20
-13.9177346275405
30
0
41
1
10
11.6085288062379
20
-13.8871350834574
30
0
41
1
10
11.7871599228901
20
-13.8307509482036
30
0
41
1
10
11.8785248912391
20
-13.8048817834945
30
0
41
1
10
12.1556560836809
20
-13.7359532683156
30
0
41
1
10
12.3429129043143
20
-13.7018508301964
30
0
41
1
10
12.6277739947666
20
-13.6697994215667
30
0
41
1
10
12.7233913569074
20
-13.6623024907206
30
0
41
1
10
12.9160036538397
20
-13.6539444824466
30
0
41
1
10
13.0134810975034
20
-13.6531037555251
30
0
41
1
10
13.3041919501555
20
-13.6608261772407
30
0
41
1
10
13.494875997162
20
-13.679428619491
30
0
41
1
10
13.7765834756615
20
-13.7257922308019
30
0
41
1
10
13.8697647663943
20
-13.7443275754367
30
0
41
1
10
14.0547301610316
20
-13.787318822956
30
0
41
1
10
14.1469030405792
20
-13.8118998515115
30
0
41
1
10
14.4178933081154
20
-13.8931080796185
30
0
41
1
10
14.5912822943335
20
-13.957024196317
30
0
41
1
10
14.9258578607107
20
-14.1007055363874
30
0
41
1
10
15.0870326834955
20
-14.180486611994
30
0
41
1
10
15.320761565318
20
-14.3101191375275
30
0
41
1
10
15.3975404312842
20
-14.3551328498227
30
0
41
1
10
15.5473021861193
20
-14.4474622458832
30
0
41
1
10
15.6202793302609
20
-14.4947552526003
30
0
41
1
10
15.9764609018067
20
-14.7361642623225
30
0
41
1
10
16.2340230322737
20
-14.9447758776459
30
0
41
1
10
16.5880122711715
20
-15.2725259518432
30
0
41
1
10
16.7005242294726
20
-15.3843141844613
30
0
41
1
10
16.915177331967
20
-15.6121584708685
30
0
41
1
10
17.0161718155886
20
-15.7270027162016
30
0
41
1
10
17.3011188941988
20
-16.0727143695163
30
0
41
1
10
17.4674911578718
20
-16.305003312303
30
0
41
1
10
17.6838325242314
20
-16.6538881029165
30
0
41
1
10
17.7503611384818
20
-16.7702735263675
30
0
41
1
10
17.8720696584639
20
-17.0029944308607
30
0
41
1
10
17.9273805975818
20
-17.1196437119375
30
0
41
1
10
18.0746138869425
20
-17.4671618819215
30
0
41
1
10
18.1468769789124
20
-17.6926396841312
30
0
41
1
10
18.2384223105567
20
-18.1307046288029
30
0
41
1
10
18.2577396803963
20
-18.3432942252321
30
0
41
1
10
18.244582941444
20
-18.6007445586282
30
0
41
1
10
18.2400706097858
20
-18.6518205024656
30
0
41
1
10
18.2271075916177
20
-18.7531391853547
30
0
41
1
10
18.2186320232218
20
-18.8034524309412
30
0
41
1
10
18.1873530405758
20
-18.9516517827411
30
0
41
1
10
18.158674150628
20
-19.0472650359306
30
0
41
1
10
18.0484582082515
20
-19.3248693168898
30
0
41
1
10
17.9429883206951
20
-19.497647154983
30
0
41
1
10
17.7656881151916
20
-19.6989824473762
30
0
41
1
10
17.7278130493406
20
-19.7386247615011
30
0
41
1
10
17.6481090378859
20
-19.815660796488
30
0
41
1
10
17.6062502284999
20
-19.8531096821964
30
0
41
1
10
17.4746511609379
20
-19.9623798950944
30
0
41
1
10
17.3789010347351
20
-20.0311292655159
30
0
41
1
10
17.171057457082
20
-20.161016486762
30
0
41
1
10
17.058966729407
20
-20.2221541540531
30
0
41
1
10
16.878013409083
20
-20.3084826093545
30
0
41
1
10
16.8155557525685
20
-20.3363613352893
30
0
41
1
10
16.6862160854198
20
-20.3903655249868
30
0
41
1
10
16.6191214138541
20
-20.4165671421988
30
0
41
1
10
16.2747500529385
20
-20.5423284894858
30
0
41
1
10
15.9745180361531
20
-20.6252690386932
30
0
41
1
10
15.4872659115298
20
-20.7280651721462
30
0
41
1
10
15.3186519915301
20
-20.7586890226201
30
0
41
1
10
14.9684317277732
20
-20.81300570025
30
0
41
1
10
14.7891494433874
20
-20.8363122859636
30
0
41
1
10
14.2445813404064
20
-20.8951239299526
30
0
41
1
10
13.8703766485476
20
-20.9200901535738
30
0
41
1
10
13.2917030315359
20
-20.9374461825883
30
0
41
1
10
13.0985310600603
20
-20.9397297035702
30
0
41
1
10
12.7151262995005
20
-20.9375355981099
30
0
41
1
10
12.5243247609149
20
-20.9330746152705
30
0
41
1
10
12.1445188193859
20
-20.9173177008308
30
0
41
1
10
11.9555142533069
20
-20.9060232218735
30
0
41
1
10
11.5793685869667
20
-20.876031634088
30
0
41
1
10
11.3957065562175
20
-20.8576042089312
30
0
41
1
10
11.0375117286129
20
-20.8137549305468
30
0
41
1
10
10.8628664608177
20
-20.7883234710313
30
0
41
1
10
10.5224347644897
20
-20.7298763100989
30
0
41
1
10
10.3563063889543
20
-20.6967825191653
30
0
41
1
10
9.87376775439719
20
-20.5851732175922
30
0
41
1
10
9.58227512224747
20
-20.4966787109442
30
0
41
1
10
9.18743851610685
20
-20.3394783755172
30
0
41
1
10
9.06255590428648
20
-20.2827612615963
30
0
41
1
10
8.82897202534002
20
-20.1611122070297
30
0
41
1
10
8.72137896672862
20
-20.096815826448
30
0
41
1
10
8.52345293785618
20
-19.960956345476
30
0
41
1
10
8.43312429909722
20
-19.8893931049772
30
0
41
1
10
8.26910429720769
20
-19.7385621887452
30
0
41
1
10
8.19526035887
20
-19.6590945241194
30
0
41
1
10
7.99936686643542
20
-19.4095993876299
30
0
41
1
10
7.90512166054322
20
-19.2318962756564
30
0
41
1
10
7.81151963277063
20
-18.947568452033
30
0
41
1
10
7.7883422138365
20
-18.8498254297227
30
0
41
1
10
7.75754040044797
20
-18.6482249242777
30
0
41
1
10
7.74999999999997
20
-18.5446215479483
30
0
41
1
10
7.74999999999997
20
-18.4390889145857
30
0
0
SPLINE
5
D8
100
AcDbEntity
8
SK1
62
256
6
ByLayer
370
18
48
1
60
0
100
AcDbSpline
70
4
71
3
72
287
73
283
40
0
40
0
40
0
40
0
40
0.0011263633574008
40
0.0046149858345605
40
0.0081036083117201
40
0.0115922307888798
40
0.0150808532660395
40
0.0185694757431991
40
0.0220580982203588
40
0.0255467206975185
40
0.0290353431746781
40
0.0325239656518378
40
0.0360125881289975
40
0.0395012106061571
40
0.0429898330833168
40
0.0464784555604764
40
0.0534557005147957
40
0.0569443229919554
40
0.0604329454691151
40
0.0639215679462747
40
0.0674101904234344
40
0.0743874353777537
40
0.0778760578549134
40
0.0813646803320731
40
0.0848533028092327
40
0.0883419252863924
40
0.091830547763552
40
0.0953191702407116
40
0.102296415195031
40
0.105785037672191
40
0.10927366014935
40
0.11276228262651
40
0.11625090510367
40
0.119739527580829
40
0.123228150057989
40
0.126716772535149
40
0.130205395012308
40
0.137182639966628
40
0.140671262443787
40
0.144159884920947
40
0.151137129875266
40
0.158114374829586
40
0.161602997306745
40
0.165091619783905
40
0.168580242261065
40
0.172068864738224
40
0.175557487215384
40
0.179046109692544
40
0.180790420931123
40
0.182534732169703
40
0.186023354646863
40
0.189511977124023
40
0.193000599601182
40
0.199977844555501
40
0.203466467032661
40
0.206955089509821
40
0.210443711986981
40
0.21393233446414
40
0.2174209569413
40
0.22090957941846
40
0.224398201895619
40
0.227886824372779
40
0.231375446849938
40
0.234864069327098
40
0.241841314281418
40
0.245329936758577
40
0.248818559235737
40
0.250562870474317
40
0.252307181712897
40
0.255795804190056
40
0.262773049144375
40
0.266261671621535
40
0.269750294098695
40
0.276727539053014
40
0.283704784007333
40
0.287193406484493
40
0.290682028961653
40
0.297659273915972
40
0.301147896393132
40
0.304636518870291
40
0.308125141347451
40
0.311613763824611
40
0.31510238630177
40
0.31859100877893
40
0.325568253733249
40
0.332545498687569
40
0.336034121164728
40
0.339522743641888
40
0.343011366119048
40
0.346499988596208
40
0.353477233550527
40
0.360454478504846
40
0.367431723459165
40
0.374408968413484
40
0.377897590890644
40
0.381386213367804
40
0.384874835844964
40
0.388363458322123
40
0.391852080799283
40
0.395340703276443
40
0.398829325753602
40
0.402317948230762
40
0.405806570707922
40
0.409295193185081
40
0.412783815662241
40
0.416272438139401
40
0.41976106061656
40
0.42324968309372
40
0.42673830557088
40
0.430226928048039
40
0.433715550525199
40
0.437204173002359
40
0.440692795479518
40
0.444181417956678
40
0.447670040433838
40
0.449414351672417
40
0.451158662910997
40
0.454647285388157
40
0.456391596626737
40
0.458135907865316
40
0.459880219103896
40
0.461624530342476
40
0.463368841581056
40
0.465113152819636
40
0.466857464058216
40
0.468601775296795
40
0.472090397773955
40
0.473834709012535
40
0.475579020251115
40
0.477323331489695
40
0.479067642728275
40
0.480811953966854
40
0.482556265205434
40
0.484300576444014
40
0.486044887682594
40
0.487789198921174
40
0.489533510159753
40
0.491277821398333
40
0.493022132636913
40
0.494766443875493
40
0.496510755114073
40
0.498255066352653
40
0.499999377591232
40
0.501743688829812
40
0.503488000068392
40
0.505232311306972
40
0.506976622545552
40
0.508720933784132
40
0.510465245022711
40
0.512209556261291
40
0.513953867499871
40
0.515698178738451
40
0.517442489977031
40
0.519186801215611
40
0.520931112454191
40
0.52267542369277
40
0.52441973493135
40
0.52616404616993
40
0.52790835740851
40
0.531396979885669
40
0.533141291124249
40
0.534885602362829
40
0.536629913601409
40
0.538374224839989
40
0.540118536078569
40
0.541862847317148
40
0.543607158555728
40
0.545351469794308
40
0.548840092271468
40
0.550584403510047
40
0.552328714748627
40
0.555817337225787
40
0.559305959702947
40
0.562794582180106
40
0.566283204657266
40
0.569771827134426
40
0.573260449611585
40
0.576749072088745
40
0.580237694565905
40
0.583726317043064
40
0.587214939520224
40
0.590703561997384
40
0.594192184474543
40
0.597680806951703
40
0.601169429428863
40
0.604658051906022
40
0.608146674383182
40
0.611635296860342
40
0.615123919337501
40
0.618612541814661
40
0.622101164291821
40
0.62558978676898
40
0.6325670317233
40
0.639544276677619
40
0.646521521631938
40
0.653498766586258
40
0.656987389063417
40
0.660476011540577
40
0.663964634017736
40
0.667453256494896
40
0.674430501449216
40
0.681407746403535
40
0.684896368880695
40
0.688384991357854
40
0.691873613835014
40
0.695362236312174
40
0.698850858789333
40
0.702339481266493
40
0.709316726220812
40
0.712805348697972
40
0.716293971175131
40
0.723271216129451
40
0.73024846108377
40
0.73373708356093
40
0.737225706038089
40
0.744202950992409
40
0.747691573469568
40
0.749435884708148
40
0.751180195946728
40
0.754668818423888
40
0.758157440901047
40
0.765134685855367
40
0.768623308332526
40
0.772111930809686
40
0.775600553286846
40
0.779089175764005
40
0.782577798241165
40
0.786066420718325
40
0.789555043195485
40
0.793043665672644
40
0.796532288149804
40
0.800020910626963
40
0.806998155581283
40
0.810486778058442
40
0.813975400535602
40
0.817464023012762
40
0.819208334251341
40
0.820952645489921
40
0.824441267967081
40
0.827929890444241
40
0.8314185129214
40
0.83490713539856
40
0.83839575787572
40
0.841884380352879
40
0.848861625307199
40
0.855838870261518
40
0.859327492738678
40
0.862816115215837
40
0.869793360170157
40
0.873281982647316
40
0.876770605124476
40
0.880259227601636
40
0.883747850078795
40
0.887236472555955
40
0.890725095033115
40
0.894213717510274
40
0.897702339987434
40
0.904679584941753
40
0.908168207418913
40
0.911656829896072
40
0.915145452373232
40
0.918634074850392
40
0.922122697327552
40
0.925611319804711
40
0.93258856475903
40
0.93607718723619
40
0.93956580971335
40
0.943054432190509
40
0.946543054667669
40
0.953520299621989
40
0.960497544576308
40
0.967474789530627
40
0.970963412007787
40
0.974452034484946
40
0.977940656962106
40
0.981429279439266
40
0.984917901916425
40
0.988406524393585
40
0.991895146870745
40
0.995383769347905
40
0.998872391825064
40
1
40
1
40
1
40
1
41
1
10
-22.5
20
-13.4956568896976
30
0
41
1
10
-22.5
20
-13.4959565557463
30
0
41
1
10
-22.5
20
-13.4970361203892
30
0
41
1
10
-22.5
20
-13.4978715423881
30
0
41
1
10
-22.5
20
-13.4969168014739
30
0
41
1
10
-22.5
20
-13.4939634903146
30
0
41
1
10
-22.5
20
-13.4890446841776
30
0
41
1
10
-22.5
20
-13.4821927509398
30
0
41
1
10
-22.5
20
-13.4734380181859
30
0
41
1
10
-22.5
20
-13.4628103286331
30
0
41
1
10
-22.5
20
-13.4503375548199
30
0
41
1
10
-22.5
20
-13.4360470510206
30
0
41
1
10
-22.5
20
-13.4199649415155
30
0
41
1
10
-22.5
20
-13.4021158939438
30
0
41
1
10
-22.5
20
-13.3825245595672
30
0
41
1
10
-22.5
20
-13.3540536969874
30
0
41
1
10
-22.5
20
-13.3223661764574
30
0
41
1
10
-22.5
20
-13.2871835921006
30
0
41
1
10
-22.5
20
-13.2592105165633
30
0
41
1
10
-22.5
20
-13.2296213845592
30
0
41
1
10
-22.5
20
-13.1879639125281
30
0
41
1
10
-22.5
20
-13.143384141029
30
0
41
1
10
-22.5
20
-13.0954724456838
30
0
41
1
10
-22.5
20
-13.0580721081213
30
0
41
1
10
-22.5
20
-13.0191589652135
30
0
41
1
10
-22.5
20
-12.9787481114295
30
0
41
1
10
-22.5
20
-12.9368537080862
30
0
41
1
10
-22.5
20
-12.8789380178894
30
0
41
1
10
-22.5
20
-12.8184132466048
30
0
41
1
10
-22.5
20
-12.7547247990428
30
0
41
1
10
-22.5
20
-12.7056201424592
30
0
41
1
10
-22.5
20
-12.6551113940766
30
0
41
1
10
-22.5
20
-12.6032111946844
30
0
41
1
10
-22.5
20
-12.5499298292215
30
0
41
1
10
-22.5
20
-12.4952790541085
30
0
41
1
10
-22.5
20
-12.4392702870471
30
0
41
1
10
-22.5
20
-12.3626709807027
30
0
41
1
10
-22.5
20
-12.2837700876339
30
0
41
1
10
-22.5
20
-12.2018541939414
30
0
41
1
10
-22.5
20
-12.1181901818312
30
0
41
1
10
-22.5
20
-12.0106580919609
30
0
41
1
10
-22.5
20
-11.8988608066557
30
0
41
1
10
-22.5
20
-11.8066391033683
30
0
41
1
10
-22.5
20
-11.7363216229303
30
0
41
1
10
-22.5
20
-11.664755015164
30
0
41
1
10
-22.5
20
-11.5919461625789
30
0
41
1
10
-22.5
20
-11.5179033535968
30
0
41
1
10
-22.5
20
-11.4552554448703
30
0
41
1
10
-22.5
20
-11.4043881128182
30
0
41
1
10
-22.5
20
-11.3531143441571
30
0
41
1
10
-22.5
20
-11.2884404756242
30
0
41
1
10
-22.5
20
-11.2095312195267
30
0
41
1
10
-22.5
20
-11.1025558384385
30
0
41
1
10
-22.5
20
-10.9936883968037
30
0
41
1
10
-22.5
20
-10.881957410682
30
0
41
1
10
-22.5
20
-10.7971107724731
30
0
41
1
10
-22.5
20
-10.7110950034658
30
0
41
1
10
-22.5
20
-10.6239149629423
30
0
41
1
10
-22.5
20
-10.5355769962349
30
0
41
1
10
-22.5
20
-10.4460865401309
30
0
41
1
10
-22.5
20
-10.3554481360506
30
0
41
1
10
-22.5
20
-10.2636671117607
30
0
41
1
10
-22.5
20
-10.1707494782419
30
0
41
1
10
-22.5
20
-10.0451570606616
30
0
41
1
10
-22.5
20
-9.91789360326428
30
0
41
1
10
-22.5
20
-9.7878008492857
30
0
41
1
10
-22.5
20
-9.70579080403837
30
0
41
1
10
-22.5
20
-9.63944491324963
30
0
41
1
10
-22.5
20
-9.57273013875857
30
0
41
1
10
-22.5
20
-9.45508835059124
30
0
41
1
10
-22.5
20
-9.31898451102214
30
0
41
1
10
-22.5
20
-9.18004984465043
30
0
41
1
10
-22.5
20
-9.0396637144479
30
0
41
1
10
-22.5
20
-8.8619729936481
30
0
41
1
10
-22.5
20
-8.68069429599308
30
0
41
1
10
-22.5
20
-8.53310893988203
30
0
41
1
10
-22.5
20
-8.38410356414289
30
0
41
1
10
-22.5
20
-8.23370694014301
30
0
41
1
10
-22.5
20
-8.08045169790759
30
0
41
1
10
-22.5
20
-7.96465013686171
30
0
41
1
10
-22.5
20
-7.84779994085653
30
0
41
1
10
-22.5
20
-7.72990620240671
30
0
41
1
10
-22.5
20
-7.6109708771202
30
0
41
1
10
-22.5
20
-7.4507365478344
30
0
41
1
10
-22.5
20
-7.24848505302427
30
0
41
1
10
-22.5
20
-7.04280522024894
30
0
41
1
10
-22.5
20
-6.87569116366484
30
0
41
1
10
-22.5
20
-6.74956631857708
30
0
41
1
10
-22.5
20
-6.6224282598192
30
0
41
1
10
-22.5
20
-6.451255571394
30
0
41
1
10
-22.5
20
-6.23550104742759
30
0
41
1
10
-22.5
20
-5.97220551419213
30
0
41
1
10
-22.5
20
-5.70495655337433
30
0
41
1
10
-22.5
20
-5.47933703089231
30
0
41
1
10
-22.5
20
-5.29623478947158
30
0
41
1
10
-22.5
20
-5.15823571506778
30
0
41
1
10
-22.5
20
-5.01927991936705
30
0
41
1
10
-22.5
20
-4.87937424460151
30
0
41
1
10
-22.5
20
-4.73852585442467
30
0
41
1
10
-22.5
20
-4.59674271442694
30
0
41
1
10
-22.5
20
-4.45403251641869
30
0
41
1
10
-22.5
20
-4.31040320562681
30
0
41
1
10
-22.5
20
-4.1658649918152
30
0
41
1
10
-22.5
20
-4.02042950258553
30
0
41
1
10
-22.5
20
-3.87410940415094
30
0
41
1
10
-22.5
20
-3.72691655621918
30
0
41
1
10
-22.5
20
-3.57886234252629
30
0
41
1
10
-22.5
20
-3.42996282061054
30
0
41
1
10
-22.5
20
-3.2802363758513
30
0
41
1
10
-22.5
20
-3.12970236953149
30
0
41
1
10
-22.5
20
-2.9783800820847
30
0
41
1
10
-22.5
20
-2.82629223006825
30
0
41
1
10
-22.5
20
-2.67346522993279
30
0
41
1
10
-22.5
20
-2.51992552331163
30
0
41
1
10
-22.5
20
-2.39172837491469
30
0
41
1
10
-22.5
20
-2.28823685042076
30
0
41
1
10
-22.5
20
-2.18454583019772
30
0
41
1
10
-22.5
20
-2.08161605220536
30
0
41
1
10
-22.5
20
-1.97729736527978
30
0
41
1
10
-22.5
20
-1.89920687090043
30
0
41
1
10
-22.5
20
-1.82098461234611
30
0
41
1
10
-22.5
20
-1.74263820265685
30
0
41
1
10
-22.5
20
-1.66417088377818
30
0
41
1
10
-22.5
20
-1.58559131690836
30
0
41
1
10
-22.5
20
-1.50690430877853
30
0
41
1
10
-22.5
20
-1.40144071039387
30
0
41
1
10
-22.5
20
-1.29707565327635
30
0
41
1
10
-22.5
20
-1.19121866112906
30
0
41
1
10
-22.5
20
-1.11209555133374
30
0
41
1
10
-22.5
20
-1.03290641330761
30
0
41
1
10
-22.5
20
-0.953656082911976
30
0
41
1
10
-22.5
20
-0.874352236673616
30
0
41
1
10
-22.5
20
-0.795000235128668
30
0
41
1
10
-22.5
20
-0.715606595157226
30
0
41
1
10
-22.5
20
-0.63617667254502
30
0
41
1
10
-22.5
20
-0.556716044364009
30
0
41
1
10
-22.5
20
-0.477229377934975
30
0
41
1
10
-22.5
20
-0.397721596430074
30
0
41
1
10
-22.5
20
-0.318196574925025
30
0
41
1
10
-22.5
20
-0.238658616598514
30
0
41
1
10
-22.5
20
-0.159110863620981
30
0
41
1
10
-22.5
20
-0.0795570195282949
30
0
41
1
10
-22.5
20
-4.3520458E-09
30
0
41
1
10
-22.5
20
0.0795570008675952
30
0
41
1
10
-22.5
20
0.159110826532412
30
0
41
1
10
-22.5
20
0.238658582119825
30
0
41
1
10
-22.5
20
0.318196568076161
30
0
41
1
10
-22.5
20
0.397721593521055
30
0
41
1
10
-22.5
20
0.477229338262958
30
0
41
1
10
-22.5
20
0.556715993884097
30
0
41
1
10
-22.5
20
0.63617666680787
30
0
41
1
10
-22.5
20
0.71560660892132
30
0
41
1
10
-22.5
20
0.795000198505278
30
0
41
1
10
-22.5
20
0.874352168955852
30
0
41
1
10
-22.5
20
0.95365606681014
30
0
41
1
10
-22.5
20
1.03290644237791
30
0
41
1
10
-22.5
20
1.11209553564783
30
0
41
1
10
-22.5
20
1.1912185842138
30
0
41
1
10
-22.5
20
1.29707563275716
30
0
41
1
10
-22.5
20
1.40144074045128
30
0
41
1
10
-22.5
20
1.50690426712365
30
0
41
1
10
-22.5
20
1.58559123041411
30
0
41
1
10
-22.5
20
1.66417084854152
30
0
41
1
10
-22.5
20
1.74263823347056
30
0
41
1
10
-22.5
20
1.82098464012651
30
0
41
1
10
-22.5
20
1.89920682890118
30
0
41
1
10
-22.5
20
1.97729727415896
30
0
41
1
10
-22.5
20
2.08161602870015
30
0
41
1
10
-22.5
20
2.18454587114542
30
0
41
1
10
-22.5
20
2.2882368400623
30
0
41
1
10
-22.5
20
2.39172828921559
30
0
41
1
10
-22.5
20
2.51992549648591
30
0
41
1
10
-22.5
20
2.67346525953189
30
0
41
1
10
-22.5
20
2.8262921676581
30
0
41
1
10
-22.5
20
2.97838003358396
30
0
41
1
10
-22.5
20
3.12970257053468
30
0
41
1
10
-22.5
20
3.28023687778401
30
0
41
1
10
-22.5
20
3.4299627769704
30
0
41
1
10
-22.5
20
3.57886126909131
30
0
41
1
10
-22.5
20
3.72691565105669
30
0
41
1
10
-22.5
20
3.87410976932693
30
0
41
1
10
-22.5
20
4.02043049501106
30
0
41
1
10
-22.5
20
4.16586580001649
30
0
41
1
10
-22.5
20
4.31040309161111
30
0
41
1
10
-22.5
20
4.45403157575558
30
0
41
1
10
-22.5
20
4.59674211262629
30
0
41
1
10
-22.5
20
4.73852599905979
30
0
41
1
10
-22.5
20
4.87937450907222
30
0
41
1
10
-22.5
20
5.01927995326392
30
0
41
1
10
-22.5
20
5.15823567759486
30
0
41
1
10
-22.5
20
5.29623480232564
30
0
41
1
10
-22.5
20
5.47933703035866
30
0
41
1
10
-22.5
20
5.70495651005669
30
0
41
1
10
-22.5
20
5.97220551217549
30
0
41
1
10
-22.5
20
6.23550102644131
30
0
41
1
10
-22.5
20
6.4512555331213
30
0
41
1
10
-22.5
20
6.62242827644155
30
0
41
1
10
-22.5
20
6.74956632065386
30
0
41
1
10
-22.5
20
6.87569112826711
30
0
41
1
10
-22.5
20
7.04280518235291
30
0
41
1
10
-22.5
20
7.24848505186407
30
0
41
1
10
-22.5
20
7.45073654157579
30
0
41
1
10
-22.5
20
7.61097083499584
30
0
41
1
10
-22.5
20
7.72990617143802
30
0
41
1
10
-22.5
20
7.84779993569691
30
0
41
1
10
-22.5
20
7.96465014223952
30
0
41
1
10
-22.5
20
8.08045168982594
30
0
41
1
10
-22.5
20
8.23370690743869
30
0
41
1
10
-22.5
20
8.38410353449396
30
0
41
1
10
-22.5
20
8.53310893756458
30
0
41
1
10
-22.5
20
8.68069429175796
30
0
41
1
10
-22.5
20
8.86197296792949
30
0
41
1
10
-22.5
20
9.03966368952015
30
0
41
1
10
-22.5
20
9.18004983919923
30
0
41
1
10
-22.5
20
9.31898450356377
30
0
41
1
10
-22.5
20
9.45508832781687
30
0
41
1
10
-22.5
20
9.57273011219269
30
0
41
1
10
-22.5
20
9.63944489130404
30
0
41
1
10
-22.5
20
9.70579078784203
30
0
41
1
10
-22.5
20
9.78780083934149
30
0
41
1
10
-22.5
20
9.9178935930201
30
0
41
1
10
-22.5
20
10.0451570413025
30
0
41
1
10
-22.5
20
10.1707494549495
30
0
41
1
10
-22.5
20
10.2636670923514
30
0
41
1
10
-22.5
20
10.3554481215356
30
0
41
1
10
-22.5
20
10.4460865275718
30
0
41
1
10
-22.5
20
10.5355769819029
30
0
41
1
10
-22.5
20
10.6239149454148
30
0
41
1
10
-22.5
20
10.7110949831286
30
0
41
1
10
-22.5
20
10.7971107518715
30
0
41
1
10
-22.5
20
10.881957392112
30
0
41
1
10
-22.5
20
10.9936883814227
30
0
41
1
10
-22.5
20
11.1025558247745
30
0
41
1
10
-22.5
20
11.2095312020912
30
0
41
1
10
-22.5
20
11.2884404549429
30
0
41
1
10
-22.5
20
11.3531143221947
30
0
41
1
10
-22.5
20
11.4043880916922
30
0
41
1
10
-22.5
20
11.4552554262223
30
0
41
1
10
-22.5
20
11.5179033392113
30
0
41
1
10
-22.5
20
11.59194615036
30
0
41
1
10
-22.5
20
11.6647550005754
30
0
41
1
10
-22.5
20
11.7363216027856
30
0
41
1
10
-22.5
20
11.8066390784571
30
0
41
1
10
-22.5
20
11.8988607853737
30
0
41
1
10
-22.5
20
12.0106580823312
30
0
41
1
10
-22.5
20
12.1181901660327
30
0
41
1
10
-22.5
20
12.2018541666219
30
0
41
1
10
-22.5
20
12.2837700633604
30
0
41
1
10
-22.5
20
12.3626709718699
30
0
41
1
10
-22.5
20
12.4392702770472
30
0
41
1
10
-22.5
20
12.4952790326449
30
0
41
1
10
-22.5
20
12.5499297998313
30
0
41
1
10
-22.5
20
12.6032111684974
30
0
41
1
10
-22.5
20
12.6551113810006
30
0
41
1
10
-22.5
20
12.7056201369325
30
0
41
1
10
-22.5
20
12.7547247883428
30
0
41
1
10
-22.5
20
12.8184132188765
30
0
41
1
10
-22.5
20
12.8789379874313
30
0
41
1
10
-22.5
20
12.9368537004399
30
0
41
1
10
-22.5
20
12.9787481075024
30
0
41
1
10
-22.5
20
13.0191589474766
30
0
41
1
10
-22.5
20
13.0580720783436
30
0
41
1
10
-22.5
20
13.0954724183383
30
0
41
1
10
-22.5
20
13.1433841284413
30
0
41
1
10
-22.5
20
13.1879639126742
30
0
41
1
10
-22.5
20
13.2296213566399
30
0
41
1
10
-22.5
20
13.2592104836088
30
0
41
1
10
-22.5
20
13.2871835761246
30
0
41
1
10
-22.5
20
13.3223661774289
30
0
41
1
10
-22.5
20
13.3620642251226
30
0
41
1
10
-22.5
20
13.402990048048
30
0
41
1
10
-22.5
20
13.4312436783152
30
0
41
1
10
-22.5
20
13.4503375493538
30
0
41
1
10
-22.5
20
13.4628104278487
30
0
41
1
10
-22.5
20
13.4734382711797
30
0
41
1
10
-22.5
20
13.4821928739338
30
0
41
1
10
-22.5
20
13.4890441905268
30
0
41
1
10
-22.5
20
13.4939625245411
30
0
41
1
10
-22.5
20
13.4969161903089
30
0
41
1
10
-22.5
20
13.4978716184631
30
0
41
1
10
-22.5
20
13.497036319605
30
0
41
1
10
-22.5
20
13.4959563479051
30
0
41
1
10
-22.5
20
13.4956562773427
30
0
0
SPLINE
5
D9
100
AcDbEntity
8
SK1
62
256
6
ByLayer
370
18
48
1
60
0
100
AcDbSpline
70
4
71
3
72
24
73
20
40
0
40
0
40
0
40
0
40
0.250000000000001
40
0.250000000000001
40
0.500000000000001
40
0.500000000000001
40
0.625000000000001
40
0.625000000000001
40
0.750000000000002
40
0.750000000000002
40
0.812500000000001
40
0.812500000000001
40
0.875000000000001
40
0.875000000000001
40
0.906250000000001
40
0.906250000000001
40
0.937500000000001
40
0.937500000000001
40
1
40
1
40
1
40
1
41
1
10
-1.30710678118655
20
3.62781725664615
30
0
41
1
10
-1.27668453291463
20
3.78212308479135
30
0
41
1
10
-1.24216894361868
20
3.93398824770154
30
0
41
1
10
-1.16077398327337
20
4.23236365169217
30
0
41
1
10
-1.11410703752745
20
4.37933268310846
30
0
41
1
10
-1.02709553867305
20
4.59256928859347
30
0
41
1
10
-0.995116720198922
20
4.66266858366532
30
0
41
1
10
-0.921756293939893
20
4.7979686800274
30
0
41
1
10
-0.88093559785176
20
4.86334184876202
30
0
41
1
10
-0.803759710397998
20
4.95360164898068
30
0
41
1
10
-0.775353909590507
20
4.98222160107784
30
0
41
1
10
-0.710417102430711
20
5.0316543750771
30
0
41
1
10
-0.672905235706764
20
5.05301456959728
30
0
41
1
10
-0.609903088653169
20
5.06932192720456
30
0
41
1
10
-0.588493507310858
20
5.07194672129916
30
0
41
1
10
-0.544749997564509
20
5.07084577117553
30
0
41
1
10
-0.523311125415006
20
5.06708508199603
30
0
41
1
10
-0.461957218190179
20
5.04813517735707
30
0
41
1
10
-0.426487186903671
20
5.02630216465263
30
0
41
1
10
-0.394976888875277
20
5.00092441402836
30
0
0
SPLINE
5
DA
100
AcDbEntity
8
SK1
62
256
6
ByLayer
370
18
48
1
60
0
100
AcDbSpline
70
4
71
3
72
26
73
22
40
0
40
0
40
0
40
0
40
0.25
40
0.25
40
0.499999999999999
40
0.499999999999999
40
0.624999999999998
40
0.624999999999998
40
0.749999999999997
40
0.749999999999997
40
0.812499999999996
40
0.812499999999996
40
0.874999999999995
40
0.874999999999995
40
0.906249999999997
40
0.906249999999997
40
0.937499999999998
40
0.937499999999998
40
0.968749999999999
40
0.968749999999999
40
1
40
1
40
1
40
1
41
1
10
-0.199999999999989
20
-5.7031760547294
30
0
41
1
10
-0.199999999999989
20
-5.63823579019922
30
0
41
1
10
-0.201272969697669
20
-5.57293605649767
30
0
41
1
10
-0.207502897007231
20
-5.44150249678583
30
0
41
1
10
-0.212379710104358
20
-5.37529109300473
30
0
41
1
10
-0.224682606237138
20
-5.27544442994119
30
0
41
1
10
-0.229617185866118
20
-5.24213518580066
30
0
41
1
10
-0.242229041643526
20
-5.17551725566017
30
0
41
1
10
-0.249833221611823
20
-5.14218113288854
30
0
41
1
10
-0.265207031268602
20
-5.0932644583045
30
0
41
1
10
-0.270998974325863
20
-5.07711544581878
30
0
41
1
10
-0.285075712605874
20
-5.04543234149878
30
0
41
1
10
-0.293382354784512
20
-5.02955049623256
30
0
41
1
10
-0.309973406893022
20
-5.00825285180761
30
0
41
1
10
-0.316214408917744
20
-5.00161256354832
30
0
41
1
10
-0.330656646938507
20
-4.99083059730333
30
0
41
1
10
-0.339105605325329
20
-4.98673490231508
30
0
41
1
10
-0.356551440191851
20
-4.98388998792123
30
0
41
1
10
-0.365376268604251
20
-4.98514225758567
30
0
41
1
10
-0.381257580405588
20
-4.99109645865985
30
0
41
1
10
-0.388437394911733
20
-4.99565833585206
30
0
41
1
10
-0.394976888882155
20
-5.00092508225595
30
0
0
SPLINE
5
DB
100
AcDbEntity
8
SK1
62
256
6
ByLayer
370
13
48
1
60
0
100
AcDbSpline
70
4
71
3
72
107
73
103
40
0
40
0
40
0
40
0
40
0.0019284613239006
40
0.0105817150326213
40
0.019234968741342
40
0.0278882224500627
40
0.0365414761587834
40
0.0451947298675041
40
0.0538479835762248
40
0.0625012372849455
40
0.0711544909936662
40
0.0798077447023869
40
0.0884609984111076
40
0.0971142521198284
40
0.105767505828549
40
0.11442075953727
40
0.12307401324599
40
0.131727266954711
40
0.140380520663432
40
0.149033774372153
40
0.157687028080873
40
0.166340281789594
40
0.174993535498315
40
0.192300042915756
40
0.209606550333197
40
0.226913057750639
40
0.24421956516808
40
0.252872818876801
40
0.261526072585522
40
0.270179326294242
40
0.278832580002963
40
0.296139087420405
40
0.313445594837846
40
0.322098848546567
40
0.330752102255287
40
0.339405355964008
40
0.348058609672729
40
0.356711863381449
40
0.36536511709017
40
0.382671624507611
40
0.391324878216332
40
0.399978131925053
40
0.417284639342494
40
0.434591146759936
40
0.443244400468656
40
0.451897654177377
40
0.469204161594818
40
0.477857415303539
40
0.4821840421579
40
0.48651066901226
40
0.495163922720981
40
0.503817176429701
40
0.521123683847143
40
0.529776937555863
40
0.538430191264584
40
0.547083444973305
40
0.555736698682025
40
0.564389952390746
40
0.573043206099467
40
0.581696459808188
40
0.590349713516908
40
0.599002967225629
40
0.60765622093435
40
0.624962728351791
40
0.633615982060512
40
0.642269235769233
40
0.650922489477953
40
0.655249116332314
40
0.659575743186674
40
0.668228996895395
40
0.676882250604115
40
0.685535504312836
40
0.694188758021557
40
0.702842011730277
40
0.711495265438998
40
0.72880177285644
40
0.746108280273881
40
0.754761533982602
40
0.763414787691322
40
0.780721295108764
40
0.789374548817484
40
0.798027802526205
40
0.806681056234926
40
0.815334309943647
40
0.823987563652367
40
0.832640817361088
40
0.841294071069809
40
0.849947324778529
40
0.867253832195971
40
0.875907085904691
40
0.884560339613412
40
0.893213593322133
40
0.901866847030854
40
0.910520100739574
40
0.919173354448295
40
0.936479861865736
40
0.945133115574457
40
0.953786369283178
40
0.962439622991898
40
0.971092876700619
40
0.988399384118061
40
1
40
1
40
1
40
1
41
1
10
-1.49503997793931
20
2.5946511583831
30
0
41
1
10
-1.49503997793931
20
2.60647323876154
30
0
41
1
10
-1.49503997793931
20
2.67130381064959
30
0
41
1
10
-1.49503997793931
20
2.78881794429316
30
0
41
1
10
-1.49503997793931
20
2.94652918151195
30
0
41
1
10
-1.49503997793931
20
3.1033357799555
30
0
41
1
10
-1.49503997793931
20
3.25922165821993
30
0
41
1
10
-1.49503997793931
20
3.41417271020586
30
0
41
1
10
-1.49503997793931
20
3.56817690176541
30
0
41
1
10
-1.49503997793931
20
3.7212231412766
30
0
41
1
10
-1.49503997793931
20
3.87330192992579
30
0
41
1
10
-1.49503997793931
20
4.02440432752809
30
0
41
1
10
-1.49503997793931
20
4.17452288947305
30
0
41
1
10
-1.49503997793931
20
4.32365113214263
30
0
41
1
10
-1.49503997793931
20
4.47178260268984
30
0
41
1
10
-1.49503997793931
20
4.61891156596767
30
0
41
1
10
-1.49503997793931
20
4.7650332428635
30
0
41
1
10
-1.49503997793931
20
4.91014315579861
30
0
41
1
10
-1.49503997793931
20
5.05423706888553
30
0
41
1
10
-1.49503997793931
20
5.19731095553271
30
0
41
1
10
-1.49503997793931
20
5.33936157753735
30
0
41
1
10
-1.49503997793931
20
5.48038541909952
30
0
41
1
10
-1.49503997793931
20
5.66717892097088
30
0
41
1
10
-1.49503997793931
20
5.89779783511918
30
0
41
1
10
-1.49503997793931
20
6.17053536578155
30
0
41
1
10
-1.49503997793931
20
6.43910149333703
30
0
41
1
10
-1.49503997793931
20
6.6592985841524
30
0
41
1
10
-1.49503997793931
20
6.83355373772449
30
0
41
1
10
-1.49503997793931
20
6.96311018452545
30
0
41
1
10
-1.49503997793931
20
7.09160986883526
30
0
41
1
10
-1.49503997793931
20
7.261636811758
30
0
41
1
10
-1.49503997793931
20
7.47128766686797
30
0
41
1
10
-1.49503997793931
20
7.67738589461936
30
0
41
1
10
-1.49503997793931
20
7.84029852533041
30
0
41
1
10
-1.49503997793931
20
7.96134016006346
30
0
41
1
10
-1.49503997793931
20
8.08130642958628
30
0
41
1
10
-1.49503997793931
20
8.20019570647173
30
0
41
1
10
-1.49503997793931
20
8.31800483202281
30
0
41
1
10
-1.49503997793931
20
8.47372854841302
30
0
41
1
10
-1.49503997793931
20
8.62702158956
30
0
41
1
10
-1.49503997793931
20
8.77838738443313
30
0
41
1
10
-1.49503997793931
20
8.92829537712967
30
0
41
1
10
-1.49503997793931
20
9.11275363063515
30
0
41
1
10
-1.49503997793931
20
9.29353602958125
30
0
41
1
10
-1.49503997793931
20
9.43608246295526
30
0
41
1
10
-1.49503997793931
20
9.57714511427093
30
0
41
1
10
-1.49503997793931
20
9.71574944153573
30
0
41
1
10
-1.49503997793931
20
9.83522786489038
30
0
41
1
10
-1.49503997793931
20
9.90295235506755
30
0
41
1
10
-1.49503997793931
20
9.97030026745779
30
0
41
1
10
-1.49503997793931
20
10.0536983054632
30
0
41
1
10
-1.49503997793931
20
10.1857467684219
30
0
41
1
10
-1.49503997793931
20
10.3153089364435
30
0
41
1
10
-1.49503997793931
20
10.4427777751693
30
0
41
1
10
-1.49503997793931
20
10.5371758780398
30
0
41
1
10
-1.49503997793931
20
10.6304166849825
30
0
41
1
10
-1.49503997793931
20
10.7224950378189
30
0
41
1
10
-1.49503997793931
20
10.8134057967923
30
0
41
1
10
-1.49503997793931
20
10.9031442025602
30
0
41
1
10
-1.49503997793931
20
10.9917054044732
30
0
41
1
10
-1.49503997793931
20
11.0790834423827
30
0
41
1
10
-1.49503997793931
20
11.1652732784127
30
0
41
1
10
-1.49503997793931
20
11.278660103453
30
0
41
1
10
-1.49503997793931
20
11.3894728900619
30
0
41
1
10
-1.49503997793931
20
11.4980348993556
30
0
41
1
10
-1.49503997793931
20
11.5781957241672
30
0
41
1
10
-1.49503997793931
20
11.643948764099
30
0
41
1
10
-1.49503997793931
20
11.6959849101866
30
0
41
1
10
-1.49503997793931
20
11.7476093345099
30
0
41
1
10
-1.49503997793931
20
11.8113057028001
30
0
41
1
10
-1.49503997793931
20
11.8865286504803
30
0
41
1
10
-1.49503997793931
20
11.9605000871413
30
0
41
1
10
-1.49503997793931
20
12.0332119345842
30
0
41
1
10
-1.49503997793931
20
12.1046570208051
30
0
41
1
10
-1.49503997793931
20
12.1982668977617
30
0
41
1
10
-1.49503997793931
20
12.3119621458456
30
0
41
1
10
-1.49503997793931
20
12.4213295833849
30
0
41
1
10
-1.49503997793931
20
12.50627175547
30
0
41
1
10
-1.49503997793931
20
12.5894449005116
30
0
41
1
10
-1.49503997793931
20
12.6698142834541
30
0
41
1
10
-1.49503997793931
20
12.74760324418
30
0
41
1
10
-1.49503997793931
20
12.8045464062654
30
0
41
1
10
-1.49503997793931
20
12.860113205584
30
0
41
1
10
-1.49503997793931
20
12.9142925944038
30
0
41
1
10
-1.49503997793931
20
12.9670724273821
30
0
41
1
10
-1.49503997793931
20
13.0184419638584
30
0
41
1
10
-1.49503997793931
20
13.0683888145289
30
0
41
1
10
-1.49503997793931
20
13.1331066142243
30
0
41
1
10
-1.49503997793931
20
13.1948224098965
30
0
41
1
10
-1.49503997793931
20
13.2536925499096
30
0
41
1
10
-1.49503997793931
20
13.2963307178616
30
0
41
1
10
-1.49503997793931
20
13.3374647662751
30
0
41
1
10
-1.49503997793931
20
13.3770798968994
30
0
41
1
10
-1.49503997793931
20
13.4151607370273
30
0
41
1
10
-1.49503997793931
20
13.4638962341071
30
0
41
1
10
-1.49503997793931
20
13.509413016618
30
0
41
1
10
-1.49503997793931
20
13.5518061457236
30
0
41
1
10
-1.49503997793931
20
13.5819600687286
30
0
41
1
10
-1.49503997793931
20
13.6104729008558
30
0
41
1
10
-1.49503997793931
20
13.6462985077496
30
0
41
1
10
-1.49503997793928
20
13.6814821016253
30
0
41
1
10
-1.49503997793931
20
13.7053631769562
30
0
41
1
10
-1.49503997793931
20
13.7144201585296
30
0
0
SPLINE
5
DC
100
AcDbEntity
8
SK1
62
256
6
ByLayer
370
18
48
1
60
0
100
AcDbSpline
70
4
71
3
72
18
73
14
40
0
40
0
40
0
40
0
40
0.0617685230978791
40
0.249107190021127
40
0.342776523482753
40
0.436445856944376
40
0.530115190406002
40
0.623784523867627
40
0.71745385732925
40
0.811123190790875
40
0.904792524252499
40
0.998461857714125
40
1
40
1
40
1
40
1
41
1
10
-1.49503997793931
20
13.714419367255
30
0
41
1
10
-1.49503997793928
20
13.718874422901
30
0
41
1
10
-1.49503997793928
20
13.7363273856273
30
0
41
1
10
-1.49503997793931
20
13.7574597557179
30
0
41
1
10
-1.49503997793931
20
13.7769347476405
30
0
41
1
10
-1.49503997793931
20
13.7896781830989
30
0
41
1
10
-1.49503997793931
20
13.8005402090708
30
0
41
1
10
-1.49503997793931
20
13.8094909095343
30
0
41
1
10
-1.49503997793931
20
13.8164982902869
30
0
41
1
10
-1.49503997793931
20
13.8215305966481
30
0
41
1
10
-1.49503997793931
20
13.8245539604948
30
0
41
1
10
-1.49503997793931
20
13.8252115898462
30
0
41
1
10
-1.49503997793931
20
13.8251845660174
30
0
41
1
10
-1.49503997793927
20
13.8251835659174
30
0
0
SPLINE
5
DD
100
AcDbEntity
8
SK1
62
256
6
ByLayer
370
13
48
1
60
0
100
AcDbSpline
70
4
71
3
72
91
73
87
40
0
40
0
40
0
40
0
40
0.0047231557611533
40
0.0147478622403375
40
0.0247725687195217
40
0.034797275198706
40
0.0448219816778902
40
0.0648713946362586
40
0.0849208075946271
40
0.104970220552996
40
0.125019633511364
40
0.135044339990548
40
0.145069046469732
40
0.155093752948917
40
0.165118459428101
40
0.185167872386469
40
0.205217285344838
40
0.215241991824022
40
0.225266698303206
40
0.23529140478239
40
0.245316111261575
40
0.255340817740759
40
0.265365524219943
40
0.285414937178312
40
0.295439643657496
40
0.30546435013668
40
0.325513763095048
40
0.345563176053417
40
0.355587882532601
40
0.365612589011785
40
0.385662001970154
40
0.395686708449338
40
0.40069906168893
40
0.405711414928522
40
0.415736121407706
40
0.425760827886891
40
0.445810240845259
40
0.455834947324443
40
0.465859653803627
40
0.475884360282812
40
0.485909066761996
40
0.49593377324118
40
0.505958479720364
40
0.515983186199549
40
0.526007892678733
40
0.536032599157917
40
0.546057305637101
40
0.56610671859547
40
0.576131425074654
40
0.586156131553838
40
0.596180838033022
40
0.601193191272615
40
0.606205544512207
40
0.616230250991391
40
0.626254957470575
40
0.636279663949759
40
0.646304370428943
40
0.656329076908128
40
0.666353783387312
40
0.68640319634568
40
0.706452609304049
40
0.716477315783233
40
0.726502022262417
40
0.746551435220786
40
0.75657614169997
40
0.766600848179154
40
0.776625554658338
40
0.786650261137522
40
0.796674967616707
40
0.806699674095891
40
0.816724380575075
40
0.826749087054259
40
0.846798500012628
40
0.856823206491812
40
0.866847912970996
40
0.87687261945018
40
0.886897325929365
40
0.896922032408549
40
0.906946738887733
40
0.926996151846102
40
0.937020858325286
40
0.94704556480447
40
0.957070271283654
40
0.967094977762838
40
0.987144390721207
40
1
40
1
40
1
40
1
41
1
10
-0.394976888875277
20
5.0009244140283
30
0
41
1
10
-0.394976888875277
20
5.02359271293304
30
0
41
1
10
-0.394976888875277
20
5.09425517295406
30
0
41
1
10
-0.394976888875277
20
5.21232773385495
30
0
41
1
10
-0.394976888875277
20
5.35463940810163
30
0
41
1
10
-0.394976888875277
20
5.49591838220567
30
0
41
1
10
-0.394976888875277
20
5.68302324019061
30
0
41
1
10
-0.394976888875277
20
5.91406385279547
30
0
41
1
10
-0.394976888875277
20
6.18726433662556
30
0
41
1
10
-0.394976888875277
20
6.45627503636445
30
0
41
1
10
-0.394976888875277
20
6.67684685573994
30
0
41
1
10
-0.394976888875277
20
6.85136200824962
30
0
41
1
10
-0.394976888875277
20
6.98112244545175
30
0
41
1
10
-0.394976888875277
20
7.10982244878713
30
0
41
1
10
-0.394976888875277
20
7.28009509164627
30
0
41
1
10
-0.394976888875277
20
7.49008089634199
30
0
41
1
10
-0.394976888875277
20
7.69650359349293
30
0
41
1
10
-0.394976888875277
20
7.85964213989763
30
0
41
1
10
-0.394976888875277
20
7.98086143927398
30
0
41
1
10
-0.394976888875277
20
8.10100252302422
30
0
41
1
10
-0.394976888875277
20
8.22006379392718
30
0
41
1
10
-0.394976888875277
20
8.33804225713789
30
0
41
1
10
-0.394976888875277
20
8.49397418950429
30
0
41
1
10
-0.394976888875277
20
8.64751154095558
30
0
41
1
10
-0.394976888875277
20
8.79907643306458
30
0
41
1
10
-0.394976888875277
20
8.94918033853523
30
0
41
1
10
-0.394976888875277
20
9.13390678694702
30
0
41
1
10
-0.394976888875277
20
9.3149499665038
30
0
41
1
10
-0.394976888875277
20
9.45767861814849
30
0
41
1
10
-0.394976888875277
20
9.59892076352932
30
0
41
1
10
-0.394976888875277
20
9.73773600630287
30
0
41
1
10
-0.394976888875277
20
9.85736934874495
30
0
41
1
10
-0.394976888875277
20
9.92517900727512
30
0
41
1
10
-0.394976888875277
20
9.99261143893298
30
0
41
1
10
-0.394976888875277
20
10.0761265525343
30
0
41
1
10
-0.394976888875277
20
10.2083399780688
30
0
41
1
10
-0.394976888875277
20
10.3380960413352
30
0
41
1
10
-0.394976888875277
20
10.4657231550753
30
0
41
1
10
-0.394976888875277
20
10.5602461340712
30
0
41
1
10
-0.394976888875277
20
10.6536100721469
30
0
41
1
10
-0.394976888875277
20
10.74580988339
30
0
41
1
10
-0.394976888875277
20
10.8368404439692
30
0
41
1
10
-0.394976888875277
20
10.9266969759659
30
0
41
1
10
-0.394976888875277
20
11.0153746780185
30
0
41
1
10
-0.394976888875277
20
11.102867622286
30
0
41
1
10
-0.394976888875277
20
11.1891707558493
30
0
41
1
10
-0.394976888875277
20
11.3026972493618
30
0
41
1
10
-0.394976888875277
20
11.4136741241806
30
0
41
1
10
-0.394976888875277
20
11.5223699646631
30
0
41
1
10
-0.394976888875277
20
11.6026363586083
30
0
41
1
10
-0.394976888875277
20
11.6684804259269
30
0
41
1
10
-0.394976888875277
20
11.7205808778945
30
0
41
1
10
-0.394976888875277
20
11.7722691621604
30
0
41
1
10
-0.394976888875277
20
11.8360539668501
30
0
41
1
10
-0.394976888875277
20
11.9113764581405
30
0
41
1
10
-0.394976888875277
20
11.9854459580753
30
0
41
1
10
-0.394976888875277
20
12.0582544060742
30
0
41
1
10
-0.394976888875277
20
12.1297946053789
30
0
41
1
10
-0.394976888875277
20
12.2235215734124
30
0
41
1
10
-0.394976888875277
20
12.3373769122162
30
0
41
1
10
-0.394976888875277
20
12.4468991604423
30
0
41
1
10
-0.394976888875277
20
12.5319491453114
30
0
41
1
10
-0.394976888875277
20
12.6152283382819
30
0
41
1
10
-0.394976888875277
20
12.6957215859151
30
0
41
1
10
-0.394976888875277
20
12.7736108931729
30
0
41
1
10
-0.394976888875277
20
12.8306328717281
30
0
41
1
10
-0.394976888875277
20
12.8862769376535
30
0
41
1
10
-0.394976888875277
20
12.9405320737836
30
0
41
1
10
-0.394976888875277
20
12.9933861020735
30
0
41
1
10
-0.394976888875277
20
13.0448282447276
30
0
41
1
10
-0.394976888875277
20
13.094846134259
30
0
41
1
10
-0.394976888875277
20
13.1596507604527
30
0
41
1
10
-0.394976888875277
20
13.2214670183476
30
0
41
1
10
-0.394976888875277
20
13.2804176635455
30
0
41
1
10
-0.394976888875277
20
13.3231185671574
30
0
41
1
10
-0.394976888875277
20
13.3643136176474
30
0
41
1
10
-0.394976888875277
20
13.4039879614121
30
0
41
1
10
-0.394976888875277
20
13.4421262012037
30
0
41
1
10
-0.394976888875277
20
13.4909311840823
30
0
41
1
10
-0.394976888875277
20
13.5365270016785
30
0
41
1
10
-0.394976888875277
20
13.5789821852606
30
0
41
1
10
-0.394976888875277
20
13.6091837483775
30
0
41
1
10
-0.394976888875277
20
13.6377421071264
30
0
41
1
10
-0.394976888875277
20
13.6736219510479
30
0
41
1
10
-0.394976888875306
20
13.7083936630962
30
0
41
1
10
-0.394976888875277
20
13.7319531130901
30
0
41
1
10
-0.394976888875277
20
13.7406754139597
30
0
0
SPLINE
5
DE
100
AcDbEntity
8
SK1
62
256
6
ByLayer
370
18
48
1
60
0
100
AcDbSpline
70
4
71
3
72
15
73
11
40
0
40
0
40
0
40
0
40
0.0913510532080764
40
0.345951819458396
40
0.473252202583558
40
0.600552585708716
40
0.727852968833876
40
0.855153351959036
40
0.982453735084195
40
1
40
1
40
1
40
1
41
1
10
-0.394976888875277
20
13.7406755174035
30
0
41
1
10
-0.394976888875277
20
13.7455563478668
30
0
41
1
10
-0.394976888875277
20
13.7634686421583
30
0
41
1
10
-0.394976888875277
20
13.7849758313288
30
0
41
1
10
-0.394976888875277
20
13.8044829705053
30
0
41
1
10
-0.394976888875277
20
13.8172492272358
30
0
41
1
10
-0.394976888875277
20
13.8281310063336
30
0
41
1
10
-0.394976888875277
20
13.8370982474882
30
0
41
1
10
-0.394976888875277
20
13.842101166137
30
0
41
1
10
-0.394976888875277
20
13.8443369604552
30
0
41
1
10
-0.394976888875277
20
13.8446015176322
30
0
0
SPLINE
5
DF
100
AcDbEntity
8
SK1
62
256
6
ByLayer
370
18
48
1
60
0
100
AcDbSpline
70
4
71
3
72
8
73
4
40
0
40
0
40
0
40
0
40
1
40
1
40
1
40
1
41
1
10
-1.30710678118655
20
3.62781725664615
30
0
41
1
10
-1.37353763980974
20
3.2908708034243
30
0
41
1
10
-1.4372149826398
20
2.94709379867734
30
0
41
1
10
-1.49503997793931
20
2.5946511583831
30
0
0
SPLINE
5
E0
100
AcDbEntity
8
SK1
62
256
6
ByLayer
370
18
48
1
60
0
100
AcDbSpline
70
4
71
3
72
30
73
26
40
0
40
0
40
0
40
0
40
0.249999999999987
40
0.249999999999987
40
0.374999999999982
40
0.374999999999982
40
0.437499999999981
40
0.437499999999981
40
0.468749999999979
40
0.468749999999979
40
0.499999999999978
40
0.499999999999978
40
0.515624999999979
40
0.515624999999979
40
0.531249999999979
40
0.531249999999979
40
0.54687499999998
40
0.54687499999998
40
0.562499999999981
40
0.562499999999981
40
0.624999999999984
40
0.624999999999984
40
0.749999999999989
40
0.749999999999989
40
1
40
1
40
1
40
1
41
1
10
-1.49503997793931
20
2.5946511583831
30
0
41
1
10
-1.51026746272268
20
2.50183982455954
30
0
41
1
10
-1.52651400478425
20
2.40922455962411
30
0
41
1
10
-1.55478813482398
20
2.27186617316025
30
0
41
1
10
-1.56483850627194
20
2.22626541767525
30
0
41
1
10
-1.58232732166977
20
2.15928180695383
30
0
41
1
10
-1.58855430949953
20
2.13715881603295
30
0
41
1
10
-1.59928375148641
20
2.10496662261355
30
0
41
1
10
-1.60308610086514
20
2.09441763009693
30
0
41
1
10
-1.61160304975013
20
2.07406881511588
30
0
41
1
10
-1.61627802336253
20
2.06410999368941
30
0
41
1
10
-1.62496893049993
20
2.05149541629649
30
0
41
1
10
-1.62816482150976
20
2.04762113463224
30
0
41
1
10
-1.63581311778785
20
2.04242474357426
30
0
41
1
10
-1.64047550516952
20
2.04153346480729
30
0
41
1
10
-1.64893986683214
20
2.04619400336986
30
0
41
1
10
-1.65243193129894
20
2.0510811318737
30
0
41
1
10
-1.65796633561408
20
2.06142619765947
30
0
41
1
10
-1.66019890815173
20
2.06715816278916
30
0
41
1
10
-1.66988903742802
20
2.09599783238286
30
0
41
1
10
-1.67400497309845
20
2.12069181839035
30
0
41
1
10
-1.68477614120369
20
2.19380514302557
30
0
41
1
10
-1.68861651052396
20
2.24263416926132
30
0
41
1
10
-1.69768397047525
20
2.38915025298931
30
0
41
1
10
-1.69960876100487
20
2.48671898766878
30
0
41
1
10
-1.69999999999999
20
2.58372509632824
30
0
0
SPLINE
5
E1
100
AcDbEntity
8
SK1
62
256
6
ByLayer
370
18
48
1
60
0
100
AcDbSpline
70
4
71
3
72
30
73
26
40
0
40
0
40
0
40
0
40
0.250000000000011
40
0.250000000000011
40
0.375000000000017
40
0.375000000000017
40
0.406250000000018
40
0.406250000000018
40
0.437500000000019
40
0.437500000000019
40
0.45312500000002
40
0.45312500000002
40
0.46875000000002
40
0.46875000000002
40
0.484375000000021
40
0.484375000000021
40
0.500000000000022
40
0.500000000000022
40
0.562500000000019
40
0.562500000000019
40
0.625000000000017
40
0.625000000000017
40
0.750000000000012
40
0.750000000000012
40
1
40
1
40
1
40
1
41
1
10
-1.69999999999999
20
-2.5837250319525
30
0
41
1
10
-1.69960577308385
20
-2.48597799469368
30
0
41
1
10
-1.69767355238125
20
-2.38798982618383
30
0
41
1
10
-1.68844262802614
20
-2.24033510329085
30
0
41
1
10
-1.6845074563401
20
-2.19070814790987
30
0
41
1
10
-1.67522587914647
20
-2.12935469948886
30
0
41
1
10
-1.67312828441314
20
-2.11712975813973
30
0
41
1
10
-1.66799661065505
20
-2.09285679379497
30
0
41
1
10
-1.66501908824247
20
-2.08070007713747
30
0
41
1
10
-1.65873245221243
20
-2.06342051623659
30
0
41
1
10
-1.65636984487855
20
-2.05788078872456
30
0
41
1
10
-1.6502314389501
20
-2.04803772586055
30
0
41
1
10
-1.64627248366918
20
-2.04380832654701
30
0
41
1
10
-1.63739722305132
20
-2.04164679415919
30
0
41
1
10
-1.63308445530919
20
-2.04380258018924
30
0
41
1
10
-1.6259558268479
20
-2.05010802243771
30
0
41
1
10
-1.62290108509802
20
-2.05425244180921
30
0
41
1
10
-1.60906040432977
20
-2.07622701889977
30
0
41
1
10
-1.60160514051978
20
-2.09765684448178
30
0
41
1
10
-1.58759099418748
20
-2.14045324455242
30
0
41
1
10
-1.58147400139296
20
-2.16239311413949
30
0
41
1
10
-1.56425204899801
20
-2.22885918383594
30
0
41
1
10
-1.55431624483137
20
-2.27405720199991
30
0
41
1
10
-1.52629464539098
20
-2.41049928039393
30
0
41
1
10
-1.5101601902295
20
-2.50249360080107
30
0
41
1
10
-1.49503997793931
20
-2.59465115086957
30
0
0
SPLINE
5
E2
100
AcDbEntity
8
SK1
62
256
6
ByLayer
370
18
48
1
60
0
100
AcDbSpline
70
4
71
3
72
24
73
20
40
0
40
0
40
0
40
0
40
0.0312500000000002
40
0.0312500000000002
40
0.0625000000000005
40
0.0625000000000005
40
0.0937500000000007
40
0.0937500000000007
40
0.125000000000001
40
0.125000000000001
40
0.187500000000001
40
0.187500000000001
40
0.250000000000002
40
0.250000000000002
40
0.500000000000001
40
0.500000000000001
40
0.75
40
0.75
40
1
40
1
40
1
40
1
41
1
10
-0.394976888875306
20
-13.8446019297682
30
0
41
1
10
-0.388468629926223
20
-13.8449779249513
30
0
41
1
10
-0.381324590932508
20
-13.8456530881874
30
0
41
1
10
-0.365549387179669
20
-13.8480385128452
30
0
41
1
10
-0.356796789473208
20
-13.8498063080825
30
0
41
1
10
-0.33943557506214
20
-13.8544574766954
30
0
41
1
10
-0.330979789430131
20
-13.8573064570468
30
0
41
1
10
-0.316458103440112
20
-13.8630021925908
30
0
41
1
10
-0.310232882497218
20
-13.8658582165516
30
0
41
1
10
-0.293637826177644
20
-13.8741901944621
30
0
41
1
10
-0.28535631043701
20
-13.8793708582821
30
0
41
1
10
-0.271048178733793
20
-13.8892040331652
30
0
41
1
10
-0.265213225486406
20
-13.8937947816306
30
0
41
1
10
-0.239456395896667
20
-13.9157444690285
30
0
41
1
10
-0.228706663403358
20
-13.9303424576193
30
0
41
1
10
-0.21235583734952
20
-13.9561898875121
30
0
41
1
10
-0.207496542760396
20
-13.9673765992813
30
0
41
1
10
-0.201274525742747
20
-13.9872294917001
30
0
41
1
10
-0.200000000000017
20
-13.9958729075743
30
0
41
1
10
-0.200000000000017
20
-14.0034375364995
30
0
0
SPLINE
5
E3
100
AcDbEntity
8
SK1
62
256
6
ByLayer
370
18
48
1
60
0
100
AcDbSpline
70
4
71
3
72
20
73
16
40
0
40
0
40
0
40
0
40
0.25
40
0.25
40
0.375
40
0.375
40
0.4375
40
0.4375
40
0.5
40
0.5
40
0.75
40
0.75
40
0.875
40
0.875
40
1
40
1
40
1
40
1
41
1
10
-1.69999999999999
20
2.58372509632824
30
0
41
1
10
-1.7661113123057
20
2.16779007042712
30
0
41
1
10
-1.82315204782358
20
1.74563966403682
30
0
41
1
10
-1.88431819816688
20
1.09996691447753
30
0
41
1
10
-1.90058047077932
20
0.882646870115906
30
0
41
1
10
-1.91721350759224
20
0.553023201537258
30
0
41
1
10
-1.92146378406954
20
0.442540802025718
30
0
41
1
10
-1.92715977707795
20
0.220285135648766
30
0
41
1
10
-1.9285879277983
20
0.108677548680845
30
0
41
1
10
-1.92849632274928
20
-0.445359331572973
30
0
41
1
10
-1.90492944339624
20
-0.881328490161167
30
0
41
1
10
-1.84396151081333
20
-1.52649956093143
30
0
41
1
10
-1.81946627012516
20
-1.7401081785566
30
0
41
1
10
-1.76401082902217
20
-2.16479512178205
30
0
41
1
10
-1.73306081558337
20
-2.37572486620758
30
0
41
1
10
-1.69999999999999
20
-2.58372503195247
30
0
0
SPLINE
5
E4
100
AcDbEntity
8
SK1
62
256
6
ByLayer
370
18
48
1
60
0
100
AcDbSpline
70
4
71
3
72
116
73
112
40
0
40
0
40
0
40
0
40
0.0075236721921046
40
0.0155476304364708
40
0.0235715886808371
40
0.0315955469252034
40
0.0396195051695697
40
0.047643463413936
40
0.0556674216583023
40
0.0636913799026685
40
0.0717153381470348
40
0.0797392963914011
40
0.0957872128801337
40
0.1038111711245
40
0.111835129368866
40
0.119859087613232
40
0.127883045857599
40
0.143930962346331
40
0.151954920590698
40
0.159978878835064
40
0.16800283707943
40
0.176026795323797
40
0.184050753568163
40
0.192074711812529
40
0.208122628301262
40
0.216146586545628
40
0.224170544789994
40
0.232194503034361
40
0.240218461278727
40
0.248242419523093
40
0.256266377767459
40
0.264290336011826
40
0.272314294256192
40
0.288362210744925
40
0.296386168989291
40
0.304410127233657
40
0.32045804372239
40
0.336505960211122
40
0.344529918455489
40
0.352553876699855
40
0.360577834944221
40
0.368601793188587
40
0.376625751432954
40
0.38464970967732
40
0.388661688799503
40
0.392673667921686
40
0.400697626166053
40
0.408721584410419
40
0.416745542654785
40
0.432793459143518
40
0.440817417387884
40
0.44884137563225
40
0.456865333876617
40
0.464889292120983
40
0.472913250365349
40
0.480937208609715
40
0.488961166854082
40
0.496985125098448
40
0.505009083342814
40
0.513033041587181
40
0.529080958075913
40
0.53710491632028
40
0.545128874564646
40
0.549140853686829
40
0.553152832809012
40
0.561176791053378
40
0.577224707542111
40
0.585248665786477
40
0.593272624030843
40
0.609320540519576
40
0.625368457008309
40
0.633392415252675
40
0.641416373497041
40
0.657464289985774
40
0.66548824823014
40
0.673512206474506
40
0.681536164718873
40
0.689560122963239
40
0.697584081207605
40
0.705608039451971
40
0.721655955940704
40
0.737703872429437
40
0.745727830673803
40
0.753751788918169
40
0.761775747162536
40
0.769799705406902
40
0.785847621895634
40
0.801895538384367
40
0.8179434548731
40
0.833991371361832
40
0.842015329606198
40
0.850039287850565
40
0.858063246094931
40
0.866087204339297
40
0.874111162583664
40
0.88213512082803
40
0.890159079072396
40
0.898183037316762
40
0.906206995561129
40
0.914230953805495
40
0.922254912049861
40
0.930278870294228
40
0.938302828538594
40
0.94632678678296
40
0.954350745027326
40
0.962374703271693
40
0.970398661516059
40
0.978422619760425
40
0.986446578004791
40
0.994470536249158
40
1
40
1
40
1
40
1
41
1
10
-1.69999999999999
20
-14.0157960321163
30
0
41
1
10
-1.69999999999999
20
-14.014480367833
30
0
41
1
10
-1.70000000000002
20
-14.0111456741777
30
0
41
1
10
-1.69999999999999
20
-14.0041924220526
30
0
41
1
10
-1.69999999999999
20
-13.9951249982352
30
0
41
1
10
-1.69999999999999
20
-13.9841238377961
30
0
41
1
10
-1.69999999999999
20
-13.9712195410175
30
0
41
1
10
-1.69999999999999
20
-13.9564420504847
30
0
41
1
10
-1.69999999999999
20
-13.9398197437578
30
0
41
1
10
-1.69999999999999
20
-13.9213794981548
30
0
41
1
10
-1.69999999999999
20
-13.9011479145568
30
0
41
1
10
-1.69999999999999
20
-13.8718187984145
30
0
41
1
10
-1.69999999999999
20
-13.8389980176944
30
0
41
1
10
-1.69999999999999
20
-13.8027899277569
30
0
41
1
10
-1.69999999999999
20
-13.7739560268625
30
0
41
1
10
-1.69999999999999
20
-13.7434661079967
30
0
41
1
10
-1.69999999999999
20
-13.7006353167884
30
0
41
1
10
-1.69999999999999
20
-13.6545611570253
30
0
41
1
10
-1.69999999999999
20
-13.6053356175566
30
0
41
1
10
-1.69999999999999
20
-13.5668499598694
30
0
41
1
10
-1.69999999999999
20
-13.5268172136993
30
0
41
1
10
-1.69999999999999
20
-13.4852529409442
30
0
41
1
10
-1.69999999999999
20
-13.4421723383994
30
0
41
1
10
-1.69999999999999
20
-13.3827344481881
30
0
41
1
10
-1.69999999999999
20
-13.3203101272292
30
0
41
1
10
-1.69999999999999
20
-13.2549799687684
30
0
41
1
10
-1.69999999999999
20
-13.2045321176789
30
0
41
1
10
-1.69999999999999
20
-13.1526505331688
30
0
41
1
10
-1.69999999999999
20
-13.0993474417035
30
0
41
1
10
-1.69999999999999
20
-13.0446338377524
30
0
41
1
10
-1.69999999999999
20
-12.9885221046098
30
0
41
1
10
-1.69999999999999
20
-12.9310230820619
30
0
41
1
10
-1.69999999999999
20
-12.8525264302737
30
0
41
1
10
-1.69999999999999
20
-12.7712834981639
30
0
41
1
10
-1.69999999999999
20
-12.687362440577
30
0
41
1
10
-1.69999999999999
20
-12.6016599065257
30
0
41
1
10
-1.69999999999999
20
-12.4912006631364
30
0
41
1
10
-1.69999999999999
20
-12.3763763795169
30
0
41
1
10
-1.69999999999999
20
-12.2819407102379
30
0
41
1
10
-1.69999999999999
20
-12.2098248313331
30
0
41
1
10
-1.69999999999999
20
-12.1364317035572
30
0
41
1
10
-1.69999999999999
20
-12.0617686735772
30
0
41
1
10
-1.69999999999999
20
-11.9858436943514
30
0
41
1
10
-1.69999999999999
20
-11.9215236271769
30
0
41
1
10
-1.69999999999999
20
-11.869448828233
30
0
41
1
10
-1.69999999999999
20
-11.8169591619061
30
0
41
1
10
-1.69999999999999
20
-11.7505641463283
30
0
41
1
10
-1.69999999999999
20
-11.6696587897978
30
0
41
1
10
-1.69999999999999
20
-11.5601529310588
30
0
41
1
10
-1.69999999999999
20
-11.4481829097131
30
0
41
1
10
-1.69999999999999
20
-11.3338110691597
30
0
41
1
10
-1.69999999999999
20
-11.2468221981049
30
0
41
1
10
-1.69999999999999
20
-11.1586337774266
30
0
41
1
10
-1.69999999999999
20
-11.069250952524
30
0
41
1
10
-1.69999999999999
20
-10.9786794570574
30
0
41
1
10
-1.69999999999999
20
-10.8869237943964
30
0
41
1
10
-1.69999999999999
20
-10.7939888545435
30
0
41
1
10
-1.69999999999999
20
-10.6998796625668
30
0
41
1
10
-1.69999999999999
20
-10.6046008653873
30
0
41
1
10
-1.69999999999999
20
-10.4760157822056
30
0
41
1
10
-1.69999999999999
20
-10.3450861597474
30
0
41
1
10
-1.69999999999999
20
-10.2118742978003
30
0
41
1
10
-1.69999999999999
20
-10.127650582945
30
0
41
1
10
-1.69999999999999
20
-10.059706595653
30
0
41
1
10
-1.69999999999999
20
-9.99138145148612
30
0
41
1
10
-1.69999999999999
20
-9.87081045044334
30
0
41
1
10
-1.69999999999999
20
-9.73071863089592
30
0
41
1
10
-1.69999999999999
20
-9.58839009925038
30
0
41
1
10
-1.69999999999999
20
-9.44455857133374
30
0
41
1
10
-1.69999999999999
20
-9.26193699842017
30
0
41
1
10
-1.69999999999999
20
-9.07558728630886
30
0
41
1
10
-1.69999999999999
20
-8.92429762219672
30
0
41
1
10
-1.69999999999999
20
-8.77152769372714
30
0
41
1
10
-1.69999999999999
20
-8.61651163422607
30
0
41
1
10
-1.69999999999999
20
-8.45931946186533
30
0
41
1
10
-1.69999999999999
20
-8.34031608257325
30
0
41
1
10
-1.69999999999999
20
-8.22021382021134
30
0
41
1
10
-1.69999999999999
20
-8.09901466976936
30
0
41
1
10
-1.69999999999999
20
-7.97672004102665
30
0
41
1
10
-1.69999999999999
20
-7.81221412115067
30
0
41
1
10
-1.69999999999999
20
-7.60382757721297
30
0
41
1
10
-1.69999999999999
20
-7.391814483107
30
0
41
1
10
-1.69999999999999
20
-7.22005471809891
30
0
41
1
10
-1.69999999999999
20
-7.0901422748378
30
0
41
1
10
-1.69999999999999
20
-6.95914718913937
30
0
41
1
10
-1.69999999999999
20
-6.78305839594086
30
0
41
1
10
-1.69999999999999
20
-6.56021849497904
30
0
41
1
10
-1.69999999999999
20
-6.28851702131561
30
0
41
1
10
-1.69999999999999
20
-6.01251450148573
30
0
41
1
10
-1.69999999999999
20
-5.77892152593586
30
0
41
1
10
-1.69999999999999
20
-5.58993219435266
30
0
41
1
10
-1.69999999999999
20
-5.44710902267545
30
0
41
1
10
-1.69999999999999
20
-5.30321731736851
30
0
41
1
10
-1.69999999999999
20
-5.15825863689906
30
0
41
1
10
-1.69999999999999
20
-5.01223421717728
30
0
41
1
10
-1.69999999999999
20
-4.86514572624662
30
0
41
1
10
-1.69999999999999
20
-4.7169946256985
30
0
41
1
10
-1.69999999999999
20
-4.56778315161375
30
0
41
1
10
-1.69999999999999
20
-4.41751369191317
30
0
41
1
10
-1.69999999999999
20
-4.26618881241484
30
0
41
1
10
-1.69999999999999
20
-4.11381118090259
30
0
41
1
10
-1.69999999999999
20
-3.9603838288908
30
0
41
1
10
-1.69999999999999
20
-3.80591068333541
30
0
41
1
10
-1.69999999999999
20
-3.65039703338328
30
0
41
1
10
-1.69999999999999
20
-3.49384788295134
30
0
41
1
10
-1.69999999999999
20
-3.33626946559076
30
0
41
1
10
-1.69999999999999
20
-3.17766896347746
30
0
41
1
10
-1.69999999999999
20
-3.01805529196176
30
0
41
1
10
-1.69999999999999
20
-2.85743848960826
30
0
41
1
10
-1.69999999999999
20
-2.71257747842986
30
0
41
1
10
-1.69999999999999
20
-2.62111400924692
30
0
41
1
10
-1.69999999999999
20
-2.5837250319525
30
0
0
SPLINE
5
E5
100
AcDbEntity
8
SK1
62
256
6
ByLayer
370
18
48
1
60
0
100
AcDbSpline
70
4
71
3
72
114
73
110
40
0
40
0
40
0
40
0
40
0.0055294501867932
40
0.0135533950331042
40
0.0215773398794151
40
0.0296012847257261
40
0.0376252295720371
40
0.045649174418348
40
0.053673119264659
40
0.06169706411097
40
0.0697210089572809
40
0.0777449538035919
40
0.0857688986499029
40
0.0937928434962139
40
0.101816788342525
40
0.109840733188836
40
0.117864678035147
40
0.125888622881458
40
0.133912567727769
40
0.14193651257408
40
0.149960457420391
40
0.157984402266702
40
0.166008347113013
40
0.182056236805635
40
0.198104126498257
40
0.214152016190878
40
0.2301999058835
40
0.238223850729811
40
0.246247795576122
40
0.254271740422433
40
0.262295685268744
40
0.278343574961366
40
0.294391464653988
40
0.302415409500299
40
0.31043935434661
40
0.318463299192921
40
0.326487244039232
40
0.334511188885543
40
0.342535133731854
40
0.358583023424476
40
0.366606968270787
40
0.374630913117098
40
0.39067880280972
40
0.406726692502342
40
0.414750637348653
40
0.422774582194964
40
0.438822471887586
40
0.446846416733897
40
0.450858389157052
40
0.454870361580207
40
0.462894306426518
40
0.470918251272829
40
0.486966140965451
40
0.494990085811762
40
0.503014030658073
40
0.511037975504384
40
0.519061920350695
40
0.527085865197006
40
0.535109810043317
40
0.543133754889628
40
0.551157699735939
40
0.55918164458225
40
0.567205589428561
40
0.583253479121183
40
0.591277423967494
40
0.599301368813805
40
0.607325313660116
40
0.611337286083271
40
0.615349258506427
40
0.623373203352738
40
0.631397148199049
40
0.63942109304536
40
0.647445037891671
40
0.655468982737982
40
0.663492927584293
40
0.679540817276915
40
0.695588706969537
40
0.703612651815848
40
0.711636596662159
40
0.72768448635478
40
0.735708431201091
40
0.743732376047402
40
0.751756320893713
40
0.759780265740024
40
0.767804210586335
40
0.775828155432646
40
0.783852100278957
40
0.791876045125268
40
0.80792393481789
40
0.815947879664201
40
0.823971824510512
40
0.831995769356823
40
0.840019714203134
40
0.848043659049445
40
0.856067603895756
40
0.872115493588378
40
0.880139438434689
40
0.888163383281
40
0.896187328127311
40
0.904211272973622
40
0.920259162666244
40
0.936307052358866
40
0.952354942051488
40
0.960378886897798
40
0.96840283174411
40
0.976426776590421
40
0.984450721436732
40
0.992474666283042
40
1
40
1
40
1
40
1
41
1
10
-1.69999999999999
20
2.58372509632827
30
0
41
1
10
-1.69999999999999
20
2.62111404232408
30
0
41
1
10
-1.69999999999999
20
2.71257747642741
30
0
41
1
10
-1.69999999999999
20
2.85743846779499
30
0
41
1
10
-1.69999999999999
20
3.01805527431182
30
0
41
1
10
-1.69999999999999
20
3.17766893265431
30
0
41
1
10
-1.69999999999999
20
3.33626943234705
30
0
41
1
10
-1.69999999999999
20
3.49384789900154
30
0
41
1
10
-1.69999999999999
20
3.65039714326571
30
0
41
1
10
-1.69999999999999
20
3.80591077742719
30
0
41
1
10
-1.69999999999999
20
3.96038358832212
30
0
41
1
10
-1.69999999999999
20
4.11381092681606
30
0
41
1
10
-1.69999999999999
20
4.26618872973953
30
0
41
1
10
-1.69999999999999
20
4.41751381174834
30
0
41
1
10
-1.69999999999999
20
4.56778337246482
30
0
41
1
10
-1.69999999999999
20
4.71699468615466
30
0
41
1
10
-1.69999999999999
20
4.86514556778678
30
0
41
1
10
-1.69999999999999
20
5.01223405348068
30
0
41
1
10
-1.69999999999999
20
5.15825857839869
30
0
41
1
10
-1.69999999999999
20
5.30321729486519
30
0
41
1
10
-1.69999999999999
20
5.44710899667646
30
0
41
1
10
-1.69999999999999
20
5.58993216915877
30
0
41
1
10
-1.69999999999999
20
5.77892152059965
30
0
41
1
10
-1.69999999999999
20
6.01251447744062
30
0
41
1
10
-1.69999999999999
20
6.28851700104784
30
0
41
1
10
-1.69999999999999
20
6.56021848903171
30
0
41
1
10
-1.69999999999999
20
6.7830583657493
30
0
41
1
10
-1.69999999999999
20
6.95914717066265
30
0
41
1
10
-1.69999999999999
20
7.09014226669851
30
0
41
1
10
-1.69999999999999
20
7.22005470774221
30
0
41
1
10
-1.69999999999999
20
7.39181445781463
30
0
41
1
10
-1.69999999999999
20
7.60382755625838
30
0
41
1
10
-1.69999999999999
20
7.81221411547432
30
0
41
1
10
-1.69999999999999
20
7.9767200242907
30
0
41
1
10
-1.69999999999999
20
8.09901464495698
30
0
41
1
10
-1.69999999999999
20
8.22021379775831
30
0
41
1
10
-1.69999999999999
20
8.34031606829598
30
0
41
1
10
-1.69999999999999
20
8.45931945344486
30
0
41
1
10
-1.69999999999999
20
8.61651162008161
30
0
41
1
10
-1.69999999999999
20
8.77152766795061
30
0
41
1
10
-1.69999999999999
20
8.92429760284432
30
0
41
1
10
-1.69999999999999
20
9.07558727703642
30
0
41
1
10
-1.69999999999999
20
9.26193698423123
30
0
41
1
10
-1.69999999999999
20
9.44455854729449
30
0
41
1
10
-1.69999999999999
20
9.58839008121353
30
0
41
1
10
-1.69999999999999
20
9.73071862052217
30
0
41
1
10
-1.69999999999999
20
9.87081043657869
30
0
41
1
10
-1.69999999999999
20
9.9913814320609
30
0
41
1
10
-1.69999999999999
20
10.0597065749413
30
0
41
1
10
-1.69999999999999
20
10.1276505623382
30
0
41
1
10
-1.69999999999999
20
10.2118742799613
30
0
41
1
10
-1.69999999999999
20
10.3450861470912
30
0
41
1
10
-1.69999999999999
20
10.4760157679139
30
0
41
1
10
-1.69999999999999
20
10.6046008465563
30
0
41
1
10
-1.69999999999999
20
10.6998796425436
30
0
41
1
10
-1.69999999999999
20
10.7939888359847
30
0
41
1
10
-1.69999999999999
20
10.8869237783616
30
0
41
1
10
-1.69999999999999
20
10.9786794422307
30
0
41
1
10
-1.69999999999999
20
11.0692509372408
30
0
41
1
10
-1.69999999999999
20
11.1586337603462
30
0
41
1
10
-1.69999999999999
20
11.2468221792499
30
0
41
1
10
-1.69999999999999
20
11.3338110499831
30
0
41
1
10
-1.69999999999999
20
11.448182891669
30
0
41
1
10
-1.69999999999999
20
11.5601529159528
30
0
41
1
10
-1.69999999999999
20
11.6696587742526
30
0
41
1
10
-1.69999999999999
20
11.7505641289662
30
0
41
1
10
-1.69999999999999
20
11.8169591426362
30
0
41
1
10
-1.69999999999999
20
11.8694488081267
30
0
41
1
10
-1.69999999999999
20
11.9215236068653
30
0
41
1
10
-1.69999999999999
20
11.9858436758677
30
0
41
1
10
-1.69999999999999
20
12.0617686582407
30
0
41
1
10
-1.69999999999999
20
12.1364316894724
30
0
41
1
10
-1.69999999999999
20
12.209824815618
30
0
41
1
10
-1.69999999999999
20
12.2819406900945
30
0
41
1
10
-1.69999999999999
20
12.3763763558488
30
0
41
1
10
-1.69999999999999
20
12.4912006491746
30
0
41
1
10
-1.69999999999999
20
12.6016598943421
30
0
41
1
10
-1.69999999999999
20
12.6873624197502
30
0
41
1
10
-1.69999999999999
20
12.7712834714132
30
0
41
1
10
-1.69999999999999
20
12.8525264142953
30
0
41
1
10
-1.69999999999999
20
12.9310230723471
30
0
41
1
10
-1.69999999999999
20
12.9885220902628
30
0
41
1
10
-1.69999999999999
20
13.0446338149516
30
0
41
1
10
-1.69999999999999
20
13.099347414251
30
0
41
1
10
-1.69999999999999
20
13.1526505121852
30
0
41
1
10
-1.69999999999999
20
13.2045321061977
30
0
41
1
10
-1.69999999999999
20
13.254979960848
30
0
41
1
10
-1.69999999999999
20
13.3203101073726
30
0
41
1
10
-1.69999999999999
20
13.3827344162836
30
0
41
1
10
-1.69999999999999
20
13.4421723218484
30
0
41
1
10
-1.69999999999999
20
13.485252935173
30
0
41
1
10
-1.69999999999999
20
13.5268172028035
30
0
41
1
10
-1.69999999999999
20
13.5668499361124
30
0
41
1
10
-1.69999999999999
20
13.6053355893185
30
0
41
1
10
-1.69999999999999
20
13.6545611373555
30
0
41
1
10
-1.69999999999999
20
13.7006353174901
30
0
41
1
10
-1.69999999999999
20
13.7434660879001
30
0
41
1
10
-1.69999999999999
20
13.773955994413
30
0
41
1
10
-1.69999999999999
20
13.8027899045868
30
0
41
1
10
-1.69999999999999
20
13.838998019961
30
0
41
1
10
-1.69999999999999
20
13.8800204120324
30
0
41
1
10
-1.69999999999999
20
13.9222750232465
30
0
41
1
10
-1.69999999999999
20
13.9515178138587
30
0
41
1
10
-1.69999999999999
20
13.9712195253815
30
0
41
1
10
-1.69999999999999
20
13.9841239086368
30
0
41
1
10
-1.69999999999999
20
13.9951252442004
30
0
41
1
10
-1.69999999999999
20
14.0041925984504
30
0
41
1
10
-1.69999999999996
20
14.0111457478415
30
0
41
1
10
-1.70000000000002
20
14.0144803195502
30
0
41
1
10
-1.70000000000005
20
14.0157960962053
30
0
0
SPLINE
5
E6
100
AcDbEntity
8
SK1
62
256
6
ByLayer
370
18
48
1
60
0
100
AcDbSpline
70
4
71
3
72
19
73
15
40
0
40
0
40
0
40
0
40
0.0013022634193992
40
0.0949940017298798
40
0.18868574004036
40
0.282377478350841
40
0.376069216661321
40
0.469760954971802
40
0.563452693282283
40
0.657144431592763
40
0.750836169903244
40
0.844527908213724
40
0.938219646524205
40
1
40
1
40
1
40
1
41
1
10
-1.49503997793928
20
-13.8251837301171
30
0
41
1
10
-1.49503997793928
20
-13.8251847302171
30
0
41
1
10
-1.49503997793928
20
-13.8252109201288
30
0
41
1
10
-1.49503997793931
20
-13.8245545856003
30
0
41
1
10
-1.49503997793931
20
-13.821531562835
30
0
41
1
10
-1.49503997793931
20
-13.8164987457743
30
0
41
1
10
-1.49503997793931
20
-13.8094907530557
30
0
41
1
10
-1.49503997793931
20
-13.800539960484
30
0
41
1
10
-1.49503997793931
20
-13.7896781016746
30
0
41
1
10
-1.49503997793931
20
-13.7769347594832
30
0
41
1
10
-1.49503997793931
20
-13.7623389110759
30
0
41
1
10
-1.49503997793931
20
-13.7459180935577
30
0
41
1
10
-1.49503997793931
20
-13.7297669057549
30
0
41
1
10
-1.49503997793931
20
-13.7188752515493
30
0
41
1
10
-1.49503997793931
20
-13.7144191508069
30
0
0
SPLINE
5
E7
100
AcDbEntity
8
SK1
62
256
6
ByLayer
370
13
48
1
60
0
100
AcDbSpline
70
4
71
3
72
108
73
104
40
0
40
0
40
0
40
0
40
0.0029472964385893
40
0.0116005506986079
40
0.0289070592186451
40
0.0375603134786637
40
0.0462135677386823
40
0.0548668219987009
40
0.0635200762587195
40
0.0808265847787567
40
0.0894798390387753
40
0.0981330932987939
40
0.106786347558813
40
0.115439601818831
40
0.12409285607885
40
0.132746110338868
40
0.150052618858906
40
0.158705873118924
40
0.167359127378943
40
0.176012381638961
40
0.18466563589898
40
0.193318890158999
40
0.201972144419017
40
0.210625398679036
40
0.219278652939054
40
0.236585161459092
40
0.24523841571911
40
0.253891669979129
40
0.271198178499166
40
0.288504687019203
40
0.297157941279222
40
0.30581119553924
40
0.314464449799259
40
0.323117704059278
40
0.331770958319296
40
0.340424212579315
40
0.344750839709324
40
0.349077466839333
40
0.357730721099352
40
0.366383975359371
40
0.375037229619389
40
0.392343738139427
40
0.400996992399445
40
0.409650246659464
40
0.418303500919482
40
0.426956755179501
40
0.435610009439519
40
0.444263263699538
40
0.452916517959557
40
0.461569772219575
40
0.470223026479594
40
0.478876280739613
40
0.49618278925965
40
0.504836043519668
40
0.513489297779687
40
0.517815924909696
40
0.522142552039706
40
0.530795806299724
40
0.548102314819761
40
0.55675556907978
40
0.565408823339799
40
0.582715331859836
40
0.600021840379873
40
0.608675094639891
40
0.61732834889991
40
0.634634857419947
40
0.643288111679966
40
0.651941365939985
40
0.660594620200003
40
0.669247874460022
40
0.67790112872004
40
0.686554382980059
40
0.703860891500096
40
0.721167400020133
40
0.729820654280152
40
0.738473908540171
40
0.747127162800189
40
0.755780417060208
40
0.773086925580245
40
0.790393434100282
40
0.807699942620319
40
0.825006451140357
40
0.833659705400375
40
0.842312959660394
40
0.850966213920413
40
0.859619468180431
40
0.86827272244045
40
0.876925976700468
40
0.885579230960487
40
0.894232485220505
40
0.902885739480524
40
0.911538993740542
40
0.920192248000561
40
0.92884550226058
40
0.937498756520598
40
0.946152010780617
40
0.954805265040636
40
0.963458519300654
40
0.972111773560673
40
0.980765027820692
40
0.98941828208071
40
0.998071536340729
40
1
40
1
40
1
40
1
41
1
10
-1.49503997793928
20
-13.714419150804
30
0
41
1
10
-1.49503997793928
20
-13.7121174426137
30
0
41
1
10
-1.49503997793931
20
-13.7029234498691
30
0
41
1
10
-1.49503997793931
20
-13.6786965897716
30
0
41
1
10
-1.49503997793931
20
-13.646298505966
30
0
41
1
10
-1.49503997793931
20
-13.6104729213425
30
0
41
1
10
-1.49503997793931
20
-13.5819601013665
30
0
41
1
10
-1.49503997793931
20
-13.551806168738
30
0
41
1
10
-1.49503997793931
20
-13.5094130161235
30
0
41
1
10
-1.49503997793931
20
-13.4638962511352
30
0
41
1
10
-1.49503997793931
20
-13.4151607649325
30
0
41
1
10
-1.49503997793931
20
-13.3770799229021
30
0
41
1
10
-1.49503997793931
20
-13.3374647797226
30
0
41
1
10
-1.49503997793931
20
-13.296330722945
30
0
41
1
10
-1.49503997793931
20
-13.2536925631392
30
0
41
1
10
-1.49503997793931
20
-13.1948224412614
30
0
41
1
10
-1.49503997793931
20
-13.133106637017
30
0
41
1
10
-1.49503997793931
20
-13.0683888234861
30
0
41
1
10
-1.49503997793931
20
-13.0184419731185
30
0
41
1
10
-1.49503997793931
20
-12.9670724454163
30
0
41
1
10
-1.49503997793931
20
-12.9142926213842
30
0
41
1
10
-1.49503997793931
20
-12.8601132308426
30
0
41
1
10
-1.49503997793931
20
-12.8045464232669
30
0
41
1
10
-1.49503997793931
20
-12.7476032540011
30
0
41
1
10
-1.49503997793931
20
-12.6698142967672
30
0
41
1
10
-1.49503997793931
20
-12.5894449263383
30
0
41
1
10
-1.49503997793931
20
-12.5062717787185
30
0
41
1
10
-1.49503997793931
20
-12.4213295969168
30
0
41
1
10
-1.49503997793931
20
-12.3119621581916
30
0
41
1
10
-1.49503997793931
20
-12.1982669205398
30
0
41
1
10
-1.49503997793931
20
-12.1046570427268
30
0
41
1
10
-1.49503997793931
20
-12.0332119519516
30
0
41
1
10
-1.49503997793931
20
-11.960500101414
30
0
41
1
10
-1.49503997793931
20
-11.886528664654
30
0
41
1
10
-1.49503997793931
20
-11.8113057197552
30
0
41
1
10
-1.49503997793931
20
-11.747609354201
30
0
41
1
10
-1.49503997793931
20
-11.6959849306732
30
0
41
1
10
-1.49503997793931
20
-11.6439487843731
30
0
41
1
10
-1.49503997793931
20
-11.5781957427673
30
0
41
1
10
-1.49503997793931
20
-11.4980349156059
30
0
41
1
10
-1.49503997793931
20
-11.3894729046301
30
0
41
1
10
-1.49503997793931
20
-11.2786601205037
30
0
41
1
10
-1.49503997793931
20
-11.165273297363
30
0
41
1
10
-1.49503997793931
20
-11.0790834618892
30
0
41
1
10
-1.49503997793931
20
-10.9917054227684
30
0
41
1
10
-1.49503997793931
20
-10.9031442186804
30
0
41
1
10
-1.49503997793931
20
-10.8134058114344
30
0
41
1
10
-1.49503997793931
20
-10.7224950525573
30
0
41
1
10
-1.49503997793931
20
-10.630416702033
30
0
41
1
10
-1.49503997793931
20
-10.537175897834
30
0
41
1
10
-1.49503997793931
20
-10.4427777956644
30
0
41
1
10
-1.49503997793931
20
-10.3153089526253
30
0
41
1
10
-1.49503997793931
20
-10.1857467801784
30
0
41
1
10
-1.49503997793931
20
-10.0536983203575
30
0
41
1
10
-1.49503997793931
20
-9.97030028641953
30
0
41
1
10
-1.49503997793931
20
-9.90295237623948
30
0
41
1
10
-1.49503997793931
20
-9.835227886979
30
0
41
1
10
-1.49503997793931
20
-9.71574945872365
30
0
41
1
10
-1.49503997793931
20
-9.57714512355727
30
0
41
1
10
-1.49503997793931
20
-9.43608247629777
30
0
41
1
10
-1.49503997793931
20
-9.2935360539519
30
0
41
1
10
-1.49503997793931
20
-9.11275364912453
30
0
41
1
10
-1.49503997793931
20
-8.92829538452324
30
0
41
1
10
-1.49503997793931
20
-8.7783873974316
30
0
41
1
10
-1.49503997793931
20
-8.62702161678089
30
0
41
1
10
-1.49503997793931
20
-8.47372856948019
30
0
41
1
10
-1.49503997793931
20
-8.31800484031689
30
0
41
1
10
-1.49503997793931
20
-8.2001957134178
30
0
41
1
10
-1.49503997793931
20
-8.08130644558901
30
0
41
1
10
-1.49503997793931
20
-7.96134018717205
30
0
41
1
10
-1.49503997793931
20
-7.84029855153605
30
0
41
1
10
-1.49503997793931
20
-7.67738590051292
30
0
41
1
10
-1.49503997793931
20
-7.47128768043942
30
0
41
1
10
-1.49503997793931
20
-7.26163684175143
30
0
41
1
10
-1.49503997793931
20
-7.09160988853208
30
0
41
1
10
-1.49503997793931
20
-6.96311018885424
30
0
41
1
10
-1.49503997793931
20
-6.83355374310952
30
0
41
1
10
-1.49503997793931
20
-6.65929861735816
30
0
41
1
10
-1.49503997793931
20
-6.43910150489376
30
0
41
1
10
-1.49503997793931
20
-6.17053537924178
30
0
41
1
10
-1.49503997793931
20
-5.89779786635279
30
0
41
1
10
-1.49503997793931
20
-5.66717892451575
30
0
41
1
10
-1.49503997793931
20
-5.48038543010182
30
0
41
1
10
-1.49503997793931
20
-5.33936160781602
30
0
41
1
10
-1.49503997793931
20
-5.19731095699922
30
0
41
1
10
-1.49503997793931
20
-5.05423700692032
30
0
41
1
10
-1.49503997793931
20
-4.91014320448997
30
0
41
1
10
-1.49503997793931
20
-4.7650335666859
30
0
41
1
10
-1.49503997793931
20
-4.61891187892093
30
0
41
1
10
-1.49503997793931
20
-4.47178250674139
30
0
41
1
10
-1.49503997793931
20
-4.32365075555242
30
0
41
1
10
-1.49503997793931
20
-4.17452257114442
30
0
41
1
10
-1.49503997793931
20
-4.02440435063471
30
0
41
1
10
-1.49503997793931
20
-3.87330241838259
30
0
41
1
10
-1.49503997793931
20
-3.72122348266291
30
0
41
1
10
-1.49503997793931
20
-3.56817684914566
30
0
41
1
10
-1.49503997793931
20
-3.4141725129254
30
0
41
1
10
-1.49503997793931
20
-3.25922160409144
30
0
41
1
10
-1.49503997793931
20
-3.10333581737226
30
0
41
1
10
-1.49503997793931
20
-2.94652921585708
30
0
41
1
10
-1.49503997793931
20
-2.78881794693001
30
0
41
1
10
-1.49503997793931
20
-2.67130382016646
30
0
41
1
10
-1.49503997793931
20
-2.606473243442
30
0
41
1
10
-1.49503997793928
20
-2.59465115086957
30
0
0
SPLINE
5
E8
100
AcDbEntity
8
SK1
62
256
6
ByLayer
370
18
48
1
60
0
100
AcDbSpline
70
4
71
3
72
281
73
277
40
0
40
0
40
0
40
0
40
0.0026986516878125
40
0.0062508082850205
40
0.0098029648822286
40
0.0133551214794367
40
0.0169072780766448
40
0.0204594346738528
40
0.0240115912710609
40
0.0311159044654771
40
0.0382202176598932
40
0.0453245308543094
40
0.0488766874515174
40
0.0524288440487255
40
0.0559810006459335
40
0.0595331572431417
40
0.0666374704375578
40
0.0701896270347658
40
0.0737417836319739
40
0.077293940229182
40
0.0808460968263901
40
0.0843982534235982
40
0.0879504100208062
40
0.0950547232152224
40
0.0986068798124304
40
0.102159036409639
40
0.105711193006847
40
0.109263349604055
40
0.112815506201263
40
0.116367662798471
40
0.119919819395679
40
0.123471975992887
40
0.130576289187303
40
0.134128445784511
40
0.137680602381719
40
0.144784915576135
40
0.151889228770552
40
0.15544138536776
40
0.158993541964968
40
0.162545698562176
40
0.166097855159384
40
0.169650011756592
40
0.1732021683538
40
0.174978246652404
40
0.176754324951008
40
0.180306481548216
40
0.183858638145424
40
0.187410794742632
40
0.194515107937048
40
0.198067264534257
40
0.201619421131465
40
0.205171577728673
40
0.208723734325881
40
0.212275890923089
40
0.215828047520297
40
0.219380204117505
40
0.222932360714713
40
0.226484517311921
40
0.230036673909129
40
0.237140987103545
40
0.240693143700753
40
0.244245300297961
40
0.246021378596566
40
0.247797456895169
40
0.251349613492378
40
0.258453926686794
40
0.262006083284002
40
0.26555823988121
40
0.272662553075626
40
0.279766866270042
40
0.28331902286725
40
0.286871179464458
40
0.293975492658875
40
0.297527649256083
40
0.301079805853291
40
0.304631962450499
40
0.308184119047707
40
0.311736275644915
40
0.315288432242123
40
0.322392745436539
40
0.329497058630955
40
0.333049215228163
40
0.336601371825371
40
0.34015352842258
40
0.343705685019787
40
0.350809998214204
40
0.35791431140862
40
0.365018624603036
40
0.372122937797452
40
0.37567509439466
40
0.379227250991868
40
0.382779407589076
40
0.386331564186284
40
0.389883720783492
40
0.393435877380701
40
0.396988033977909
40
0.400540190575117
40
0.404092347172325
40
0.407644503769533
40
0.411196660366741
40
0.414748816963949
40
0.418300973561157
40
0.421853130158365
40
0.425405286755573
40
0.428957443352781
40
0.432509599949989
40
0.436061756547197
40
0.439613913144406
40
0.443166069741614
40
0.446718226338822
40
0.448494304637426
40
0.45027038293603
40
0.453822539533238
40
0.455598617831842
40
0.457374696130446
40
0.45915077442905
40
0.460926852727654
40
0.462702931026258
40
0.464479009324862
40
0.466255087623466
40
0.46803116592207
40
0.471583322519278
40
0.473359400817882
40
0.475135479116486
40
0.47691155741509
40
0.478687635713694
40
0.480463714012298
40
0.482239792310902
40
0.484015870609507
40
0.48579194890811
40
0.487568027206715
40
0.489344105505319
40
0.491120183803923
40
0.492896262102527
40
0.494672340401131
40
0.496448418699735
40
0.498224496998339
40
0.500000575296943
40
0.501776653595547
40
0.503552731894151
40
0.505328810192755
40
0.507104888491359
40
0.508880966789963
40
0.510657045088567
40
0.512433123387171
40
0.514209201685775
40
0.515985279984379
40
0.517761358282983
40
0.519537436581587
40
0.521313514880191
40
0.523089593178795
40
0.524865671477399
40
0.526641749776003
40
0.528417828074607
40
0.531969984671816
40
0.533746062970419
40
0.535522141269024
40
0.537298219567628
40
0.539074297866232
40
0.540850376164836
40
0.54262645446344
40
0.544402532762044
40
0.546178611060648
40
0.549730767657856
40
0.55150684595646
40
0.553282924255064
40
0.556835080852272
40
0.56038723744948
40
0.563939394046688
40
0.567491550643896
40
0.571043707241104
40
0.574595863838312
40
0.57814802043552
40
0.581700177032728
40
0.585252333629936
40
0.588804490227145
40
0.592356646824353
40
0.595908803421561
40
0.599460960018769
40
0.603013116615977
40
0.606565273213185
40
0.610117429810393
40
0.613669586407601
40
0.617221743004809
40
0.620773899602017
40
0.624326056199225
40
0.627878212796434
40
0.63498252599085
40
0.642086839185266
40
0.649191152379682
40
0.656295465574098
40
0.659847622171306
40
0.663399778768514
40
0.666951935365722
40
0.67050409196293
40
0.677608405157346
40
0.684712718351763
40
0.688264874948971
40
0.691817031546179
40
0.695369188143387
40
0.698921344740595
40
0.702473501337803
40
0.706025657935011
40
0.713129971129427
40
0.716682127726635
40
0.720234284323843
40
0.727338597518259
40
0.734442910712676
40
0.737995067309884
40
0.741547223907092
40
0.748651537101508
40
0.752203693698716
40
0.75397977199732
40
0.755755850295924
40
0.759308006893132
40
0.76286016349034
40
0.769964476684756
40
0.773516633281964
40
0.777068789879173
40
0.780620946476381
40
0.784173103073588
40
0.787725259670797
40
0.791277416268005
40
0.794829572865213
40
0.798381729462421
40
0.801933886059629
40
0.805486042656837
40
0.812590355851253
40
0.816142512448461
40
0.81969466904567
40
0.823246825642877
40
0.825022903941481
40
0.826798982240086
40
0.830351138837294
40
0.833903295434502
40
0.83745545203171
40
0.841007608628918
40
0.844559765226126
40
0.848111921823334
40
0.85521623501775
40
0.862320548212166
40
0.865872704809375
40
0.869424861406582
40
0.876529174600999
40
0.880081331198207
40
0.883633487795415
40
0.887185644392623
40
0.890737800989831
40
0.894289957587039
40
0.897842114184247
40
0.901394270781455
40
0.904946427378663
40
0.912050740573079
40
0.915602897170287
40
0.919155053767495
40
0.922707210364703
40
0.926259366961912
40
0.92981152355912
40
0.933363680156328
40
0.940467993350744
40
0.944020149947952
40
0.94757230654516
40
0.951124463142368
40
0.954676619739576
40
0.961780932933992
40
0.9653330895312
40
0.968885246128409
40
0.972437402725617
40
0.975989559322825
40
0.979541715920033
40
0.983093872517241
40
0.986646029114449
40
0.990198185711657
40
0.993750342308865
40
0.997302498906073
40
1
40
1
40
1
40
1
41
1
10
-24
20
12.6301285456257
30
0
41
1
10
-24
20
12.6295507146683
30
0
41
1
10
-24
20
12.6277960249356
30
0
41
1
10
-24
20
12.623548726994
30
0
41
1
10
-24
20
12.6171099043118
30
0
41
1
10
-24
20
12.6088736083307
30
0
41
1
10
-24
20
12.5988647342338
30
0
41
1
10
-24
20
12.5871069661155
30
0
41
1
10
-24
20
12.569020437469
30
0
41
1
10
-24
20
12.5424060911485
30
0
41
1
10
-24
20
12.5036823998811
30
0
41
1
10
-24
20
12.466179119183
30
0
41
1
10
-24
20
12.4326960489613
30
0
41
1
10
-24
20
12.4061495447384
30
0
41
1
10
-24
20
12.3780532328159
30
0
41
1
10
-24
20
12.3383402816863
30
0
41
1
10
-24
20
12.2962370819873
30
0
41
1
10
-24
20
12.2505027270978
30
0
41
1
10
-24
20
12.2149010201899
30
0
41
1
10
-24
20
12.1778433481664
30
0
41
1
10
-24
20
12.139344023803
30
0
41
1
10
-24
20
12.0994154546281
30
0
41
1
10
-24
20
12.0440223921018
30
0
41
1
10
-24
20
11.9866456328948
30
0
41
1
10
-24
20
11.9256779328098
30
0
41
1
10
-24
20
11.8787993022056
30
0
41
1
10
-24
20
11.8305656793587
30
0
41
1
10
-24
20
11.78099039585
30
0
41
1
10
-24
20
11.7300825884547
30
0
41
1
10
-24
20
11.6778529900837
30
0
41
1
10
-24
20
11.6243139686469
30
0
41
1
10
-24
20
11.5508590476175
30
0
41
1
10
-24
20
11.4758394707542
30
0
41
1
10
-24
20
11.3972466128896
30
0
41
1
10
-24
20
11.3169609533628
30
0
41
1
10
-24
20
11.2142799019792
30
0
41
1
10
-24
20
11.1074990885262
30
0
41
1
10
-24
20
11.0189464603389
30
0
41
1
10
-24
20
10.9516093773873
30
0
41
1
10
-24
20
10.8830697782116
30
0
41
1
10
-24
20
10.8133337656712
30
0
41
1
10
-24
20
10.7424101789121
30
0
41
1
10
-24
20
10.6825334430363
30
0
41
1
10
-24
20
10.6336671760819
30
0
41
1
10
-24
20
10.5844084477176
30
0
41
1
10
-24
20
10.5225869468266
30
0
41
1
10
-24
20
10.4469857296791
30
0
41
1
10
-24
20
10.3442039867663
30
0
41
1
10
-24
20
10.2404782892815
30
0
41
1
10
-24
20
10.133123847137
30
0
41
1
10
-24
20
10.0518274139735
30
0
41
1
10
-24
20
9.96941226524035
30
0
41
1
10
-24
20
9.8858827890852
30
0
41
1
10
-24
20
9.80124634105394
30
0
41
1
10
-24
20
9.71550990056983
30
0
41
1
10
-24
20
9.62867742465991
30
0
41
1
10
-24
20
9.54075474090101
30
0
41
1
10
-24
20
9.45175012870757
30
0
41
1
10
-24
20
9.33111730296773
30
0
41
1
10
-24
20
9.20992961158598
30
0
41
1
10
-24
20
9.08500600225796
30
0
41
1
10
-24
20
9.00666454438806
30
0
41
1
10
-24
20
8.94296708063843
30
0
41
1
10
-24
20
8.87892107357061
30
0
41
1
10
-24
20
8.76613371827506
30
0
41
1
10
-24
20
8.63663898523424
30
0
41
1
10
-24
20
8.50332881313912
30
0
41
1
10
-24
20
8.36865251940401
30
0
41
1
10
-24
20
8.19913342470036
30
0
41
1
10
-24
20
8.02625870426021
30
0
41
1
10
-24
20
7.88481232676438
30
0
41
1
10
-24
20
7.74204568631339
30
0
41
1
10
-24
20
7.59930458489882
30
0
41
1
10
-24
20
7.45257386795717
30
0
41
1
10
-24
20
7.34207855908448
30
0
41
1
10
-24
20
7.23061782890775
30
0
41
1
10
-24
20
7.11820191301106
30
0
41
1
10
-24
20
7.00483374343872
30
0
41
1
10
-24
20
6.8516785758469
30
0
41
1
10
-24
20
6.65959441745028
30
0
41
1
10
-24
20
6.46441027855923
30
0
41
1
10
-24
20
6.30499529459033
30
0
41
1
10
-24
20
6.18514753468796
30
0
41
1
10
-24
20
6.06440158167572
30
0
41
1
10
-24
20
5.90137597131746
30
0
41
1
10
-24
20
5.69736367955667
30
0
41
1
10
-24
20
5.44799894794272
30
0
41
1
10
-24
20
5.19525670130326
30
0
41
1
10
-24
20
4.98285125019774
30
0
41
1
10
-24
20
4.80950544532163
30
0
41
1
10
-24
20
4.67950096380329
30
0
41
1
10
-24
20
4.54872537799758
30
0
41
1
10
-24
20
4.41719445888799
30
0
41
1
10
-24
20
4.28492388892991
30
0
41
1
10
-24
20
4.15193103870837
30
0
41
1
10
-24
20
4.01823650200188
30
0
41
1
10
-24
20
3.88386015063671
30
0
41
1
10
-24
20
3.74882265025218
30
0
41
1
10
-24
20
3.61314816606938
30
0
41
1
10
-24
20
3.47686551917991
30
0
41
1
10
-24
20
3.34000139230267
30
0
41
1
10
-24
20
3.20258393847712
30
0
41
1
10
-24
20
3.06464837689458
30
0
41
1
10
-24
20
2.9262304523017
30
0
41
1
10
-24
20
2.78737006373561
30
0
41
1
10
-24
20
2.64810891556724
30
0
41
1
10
-24
20
2.50849315364215
30
0
41
1
10
-24
20
2.36857603859875
30
0
41
1
10
-24
20
2.22840727338092
30
0
41
1
10
-24
20
2.11231267734073
30
0
41
1
10
-24
20
2.01771125590744
30
0
41
1
10
-24
20
1.92310511773127
30
0
41
1
10
-24
20
1.8313714962141
30
0
41
1
10
-24
20
1.73663368976398
30
0
41
1
10
-24
20
1.66636839269287
30
0
41
1
10
-24
20
1.59612143913762
30
0
41
1
10
-24
20
1.52590617425699
30
0
41
1
10
-24
20
1.45572440081648
30
0
41
1
10
-24
20
1.38559146347788
30
0
41
1
10
-24
20
1.31551245865842
30
0
41
1
10
-24
20
1.22103102890804
30
0
41
1
10
-24
20
1.13019491172781
30
0
41
1
10
-24
20
1.03590357373665
30
0
41
1
10
-24
20
0.966211278320685
30
0
41
1
10
-24
20
0.896616942008535
30
0
41
1
10
-24
20
0.827119549474418
30
0
41
1
10
-24
20
0.757724503129253
30
0
41
1
10
-24
20
0.688430802184314
30
0
41
1
10
-24
20
0.619238394305086
30
0
41
1
10
-24
20
0.550143822342449
30
0
41
1
10
-24
20
0.481142957404018
30
0
41
1
10
-24
20
0.412229055265982
30
0
41
1
10
-24
20
0.343394373554958
30
0
41
1
10
-24
20
0.274627961865065
30
0
41
1
10
-24
20
0.205919183520024
30
0
41
1
10
-24
20
0.137254128872428
30
0
41
1
10
-24
20
0.068619580615092
30
0
41
1
10
-24
20
1.20069785E-08
30
0
41
1
10
-24
20
-0.0686195837654395
30
0
41
1
10
-24
20
-0.1372541822264
30
0
41
1
10
-24
20
-0.205919229600312
30
0
41
1
10
-24
20
-0.274627932715674
30
0
41
1
10
-24
20
-0.343394334295567
30
0
41
1
10
-24
20
-0.412229116407673
30
0
41
1
10
-24
20
-0.48114304712405
30
0
41
1
10
-24
20
-0.55014378989776
30
0
41
1
10
-24
20
-0.619238310392802
30
0
41
1
10
-24
20
-0.688430856535206
30
0
41
1
10
-24
20
-0.757724640342815
30
0
41
1
10
-24
20
-0.827119544713668
30
0
41
1
10
-24
20
-0.896616816711344
30
0
41
1
10
-24
20
-0.966211277672699
30
0
41
1
10
-24
20
-1.03590373801057
30
0
41
1
10
-24
20
-1.13019491751669
30
0
41
1
10
-24
20
-1.22103090337816
30
0
41
1
10
-24
20
-1.31551253110209
30
0
41
1
10
-24
20
-1.38559165365194
30
0
41
1
10
-24
20
-1.45572444737027
30
0
41
1
10
-24
20
-1.52590604398472
30
0
41
1
10
-24
20
-1.59612132289769
30
0
41
1
10
-24
20
-1.66636846888792
30
0
41
1
10
-24
20
-1.73663389391052
30
0
41
1
10
-24
20
-1.83137150908334
30
0
41
1
10
-24
20
-1.923104963833
30
0
41
1
10
-24
20
-2.01771124909399
30
0
41
1
10
-24
20
-2.11231287096447
30
0
41
1
10
-24
20
-2.22840729138045
30
0
41
1
10
-24
20
-2.36857592379664
30
0
41
1
10
-24
20
-2.50849329023109
30
0
41
1
10
-24
20
-2.64810899336408
30
0
41
1
10
-24
20
-2.7873694745272
30
0
41
1
10
-24
20
-2.92622914514115
30
0
41
1
10
-24
20
-3.06464867495961
30
0
41
1
10
-24
20
-3.20258694679339
30
0
41
1
10
-24
20
-3.34000339886188
30
0
41
1
10
-24
20
-3.47686412773234
30
0
41
1
10
-24
20
-3.61314539193521
30
0
41
1
10
-24
20
-3.74882070125759
30
0
41
1
10
-24
20
-3.88386081960974
30
0
41
1
10
-24
20
-4.01823910176785
30
0
41
1
10
-24
20
-4.15193237523465
30
0
41
1
10
-24
20
-4.28492323331267
30
0
41
1
10
-24
20
-4.41719365917407
30
0
41
1
10
-24
20
-4.54872525063163
30
0
41
1
10
-24
20
-4.67950102029136
30
0
41
1
10
-24
20
-4.8095053694127
30
0
41
1
10
-24
20
-4.98285124277228
30
0
41
1
10
-24
20
-5.19525677656026
30
0
41
1
10
-24
20
-5.44799891971269
30
0
41
1
10
-24
20
-5.69736372546626
30
0
41
1
10
-24
20
-5.90137602298265
30
0
41
1
10
-24
20
-6.0644015068855
30
0
41
1
10
-24
20
-6.1851475156806
30
0
41
1
10
-24
20
-6.30499537148731
30
0
41
1
10
-24
20
-6.46441033734266
30
0
41
1
10
-24
20
-6.65959438580623
30
0
41
1
10
-24
20
-6.85167858307042
30
0
41
1
10
-24
20
-7.00483382763792
30
0
41
1
10
-24
20
-7.11820195418233
30
0
41
1
10
-24
20
-7.2306178054078
30
0
41
1
10
-24
20
-7.34207852113332
30
0
41
1
10
-24
20
-7.45257387547733
30
0
41
1
10
-24
20
-7.59930464836137
30
0
41
1
10
-24
20
-7.74204572237986
30
0
41
1
10
-24
20
-7.88481230085068
30
0
41
1
10
-24
20
-8.02625870014725
30
0
41
1
10
-24
20
-8.19913346952643
30
0
41
1
10
-24
20
-8.36865254580422
30
0
41
1
10
-24
20
-8.50332879773273
30
0
41
1
10
-24
20
-8.63663898786112
30
0
41
1
10
-24
20
-8.76613375581505
30
0
41
1
10
-24
20
-8.87892111197036
30
0
41
1
10
-24
20
-8.94296710462893
30
0
41
1
10
-24
20
-9.00666455327519
30
0
41
1
10
-24
20
-9.08500599911847
30
0
41
1
10
-24
20
-9.20992961783276
30
0
41
1
10
-24
20
-9.33111733072479
30
0
41
1
10
-24
20
-9.45175015939358
30
0
41
1
10
-24
20
-9.54075475929304
30
0
41
1
10
-24
20
-9.62867743247332
30
0
41
1
10
-24
20
-9.71550990736878
30
0
41
1
10
-24
20
-9.80124635456619
30
0
41
1
10
-24
20
-9.88588281033205
30
0
41
1
10
-24
20
-9.9694122909747
30
0
41
1
10
-24
20
-10.0518274374696
30
0
41
1
10
-24
20
-10.1331238647016
30
0
41
1
10
-24
20
-10.240478300249
30
0
41
1
10
-24
20
-10.3442039980406
30
0
41
1
10
-24
20
-10.4469857502475
30
0
41
1
10
-24
20
-10.5225869730086
30
0
41
1
10
-24
20
-10.5844084741421
30
0
41
1
10
-24
20
-10.6336671988976
30
0
41
1
10
-24
20
-10.6825334589273
30
0
41
1
10
-24
20
-10.7424101865055
30
0
41
1
10
-24
20
-10.8133337727233
30
0
41
1
10
-24
20
-10.8830697936353
30
0
41
1
10
-24
20
-10.951609404873
30
0
41
1
10
-24
20
-11.0189464931514
30
0
41
1
10
-24
20
-11.1074991058536
30
0
41
1
10
-24
20
-11.2142799044294
30
0
41
1
10
-24
20
-11.3169609751522
30
0
41
1
10
-24
20
-11.3972466509688
30
0
41
1
10
-24
20
-11.4758394909226
30
0
41
1
10
-24
20
-11.5508590446085
30
0
41
1
10
-24
20
-11.6243139791192
30
0
41
1
10
-24
20
-11.6778530233414
30
0
41
1
10
-24
20
-11.7300826287653
30
0
41
1
10
-24
20
-11.7809904199399
30
0
41
1
10
-24
20
-11.8305656793297
30
0
41
1
10
-24
20
-11.8787992978642
30
0
41
1
10
-24
20
-11.9256779481161
30
0
41
1
10
-24
20
-11.9866456736684
30
0
41
1
10
-24
20
-12.0440224201629
30
0
41
1
10
-24
20
-12.099415447517
30
0
41
1
10
-24
20
-12.1393440246738
30
0
41
1
10
-24
20
-12.1778433772408
30
0
41
1
10
-24
20
-12.2149010599454
30
0
41
1
10
-24
20
-12.250502752964
30
0
41
1
10
-24
20
-12.2962370828382
30
0
41
1
10
-24
20
-12.3383402824608
30
0
41
1
10
-24
20
-12.3780532736994
30
0
41
1
10
-24
20
-12.4061495785297
30
0
41
1
10
-24
20
-12.4326960530149
30
0
41
1
10
-24
20
-12.4661791203578
30
0
41
1
10
-24
20
-12.4959885477691
30
0
41
1
10
-24
20
-12.523037071398
30
0
41
1
10
-24
20
-12.5415673540695
30
0
41
1
10
-24
20
-12.55843663992
30
0
41
1
10
-24
20
-12.5736235086905
30
0
41
1
10
-24
20
-12.5871069547276
30
0
41
1
10
-24
20
-12.5988645879939
30
0
41
1
10
-24
20
-12.6088733436887
30
0
41
1
10
-24
20
-12.617109869821
30
0
41
1
10
-24
20
-12.6235493215145
30
0
41
1
10
-24
20
-12.6277964614154
30
0
41
1
10
-24
20
-12.6295508283768
30
0
41
1
10
-24
20
-12.6301284544383
30
0
0
SPLINE
5
E9
100
AcDbEntity
8
SK1
62
256
6
ByLayer
370
18
48
1
60
0
100
AcDbSpline
70
4
71
3
72
28
73
24
40
0
40
0
40
0
40
0
40
0.0312499999999997
40
0.0312499999999997
40
0.0624999999999994
40
0.0624999999999994
40
0.0937499999999991
40
0.0937499999999991
40
0.124999999999999
40
0.124999999999999
40
0.156249999999999
40
0.156249999999999
40
0.187499999999998
40
0.187499999999998
40
0.249999999999998
40
0.249999999999998
40
0.374999999999999
40
0.374999999999999
40
0.499999999999999
40
0.499999999999999
40
0.75
40
0.75
40
1
40
1
40
1
40
1
41
1
10
-0.394976888875306
20
-5.00092508226666
30
0
41
1
10
-0.410801723401761
20
-5.01367001187649
30
0
41
1
10
-0.4275356640685
20
-5.02539849227227
30
0
41
1
10
-0.463639445662722
20
-5.04593511745526
30
0
41
1
10
-0.483045340971188
20
-5.05469251156407
30
0
41
1
10
-0.523643941254335
20
-5.06714353053124
30
0
41
1
10
-0.545504646180405
20
-5.07093169487291
30
0
41
1
10
-0.589142052071651
20
-5.07189455751234
30
0
41
1
10
-0.611301179626679
20
-5.06908452808301
30
0
41
1
10
-0.653272178018796
20
-5.05796409301064
30
0
41
1
10
-0.673415768762993
20
-5.04965465210225
30
0
41
1
10
-0.710707027308217
20
-5.0298546065529
30
0
41
1
10
-0.72798048516205
20
-5.01838752947953
30
0
41
1
10
-0.776992972545457
20
-4.98075525164194
30
0
41
1
10
-0.805333125323756
20
-4.95193028425504
30
0
41
1
10
-0.881947101638815
20
-4.86181030678483
30
0
41
1
10
-0.923425703606654
20
-4.79521679044083
30
0
41
1
10
-0.99664073006133
20
-4.65951765116259
30
0
41
1
10
-1.02822753812518
20
-4.58996776098428
30
0
41
1
10
-1.11453443489486
20
-4.37792667248573
30
0
41
1
10
-1.16086176131509
20
-4.23206106343818
30
0
41
1
10
-1.24217275767182
20
-3.93395789518041
30
0
41
1
10
-1.27672450018153
20
-3.78192043895177
30
0
41
1
10
-1.30710678118763
20
-3.62781610099958
30
0
0
SPLINE
5
EA
100
AcDbEntity
8
SK1
62
256
6
ByLayer
370
18
48
1
60
0
100
AcDbSpline
70
4
71
3
72
24
73
20
40
0
40
0
40
0
40
0
40
0.0312500000000004
40
0.0312500000000004
40
0.0625000000000009
40
0.0625000000000009
40
0.0937500000000013
40
0.0937500000000013
40
0.125000000000002
40
0.125000000000002
40
0.187500000000002
40
0.187500000000002
40
0.250000000000003
40
0.250000000000003
40
0.500000000000002
40
0.500000000000002
40
0.750000000000001
40
0.750000000000001
40
1
40
1
40
1
40
1
41
1
10
-0.394976888875277
20
5.0009244140283
30
0
41
1
10
-0.388468642918042
20
4.99568280562602
30
0
41
1
10
-0.381324616905118
20
4.99114019130744
30
0
41
1
10
-0.365549432031344
20
4.98518739058179
30
0
41
1
10
-0.356796835456947
20
4.98390560483415
30
0
41
1
10
-0.339435615628787
20
4.98662575165025
30
0
41
1
10
-0.33097982527795
20
4.99064303829888
30
0
41
1
10
-0.316458154456228
20
5.00137749301302
30
0
41
1
10
-0.310232936208735
20
5.00796421336076
30
0
41
1
10
-0.293637908337416
20
5.02913452505234
30
0
41
1
10
-0.285356392442338
20
5.04485242604295
30
0
41
1
10
-0.271048262620553
20
5.07695293962868
30
0
41
1
10
-0.265213301889361
20
5.09323765336512
30
0
41
1
10
-0.239456434884602
20
5.17522421433634
30
0
41
1
10
-0.22870667716569
20
5.24267174957387
30
0
41
1
10
-0.212355887615786
20
5.37559968949606
30
0
41
1
10
-0.207496565642373
20
5.44161594206676
30
0
41
1
10
-0.201274525264836
20
5.57292339447525
30
0
41
1
10
-0.200000000000017
20
5.63821129007246
30
0
41
1
10
-0.200000000000017
20
5.70317614351288
30
0
0
SPLINE
5
EB
100
AcDbEntity
8
SK1
62
256
6
ByLayer
370
18
48
1
60
0
100
AcDbSpline
70
4
71
3
72
16
73
12
40
0
40
0
40
0
40
0
40
0.0175440255730549
40
0.144844227573129
40
0.272144429573204
40
0.399444631573278
40
0.526744833573352
40
0.654045035573426
40
0.781345237573501
40
0.908645439573575
40
1
40
1
40
1
40
1
41
1
10
-0.394976888875306
20
-13.8446019297682
30
0
41
1
10
-0.394976888875306
20
-13.8443373794894
30
0
41
1
10
-0.394976888875277
20
-13.8421014019358
30
0
41
1
10
-0.394976888875277
20
-13.8370980881852
30
0
41
1
10
-0.394976888875277
20
-13.8281307581185
30
0
41
1
10
-0.394976888875277
20
-13.8172491473121
30
0
41
1
10
-0.394976888875277
20
-13.8044829828858
30
0
41
1
10
-0.394976888875277
20
-13.7898613788954
30
0
41
1
10
-0.394976888875277
20
-13.7734119916164
30
0
41
1
10
-0.394976888875277
20
-13.7568788304843
30
0
41
1
10
-0.394976888875277
20
-13.7455562391842
30
0
41
1
10
-0.394976888875306
20
-13.7406739297674
30
0
0
SPLINE
5
EC
100
AcDbEntity
8
SK1
62
256
6
ByLayer
370
13
48
1
60
0
100
AcDbSpline
70
4
71
3
72
92
73
88
40
0
40
0
40
0
40
0
40
0.0028307427682737
40
0.0128554513137747
40
0.0329048684047769
40
0.0429295769502779
40
0.0529542854957789
40
0.06297899404128
40
0.0730037025867811
40
0.0930531196777832
40
0.103077828223284
40
0.113102536768785
40
0.123127245314286
40
0.133151953859787
40
0.143176662405288
40
0.15320137095079
40
0.173250788041792
40
0.183275496587293
40
0.193300205132794
40
0.203324913678295
40
0.213349622223796
40
0.223374330769297
40
0.233399039314798
40
0.243423747860299
40
0.2534484564058
40
0.273497873496802
40
0.283522582042303
40
0.293547290587804
40
0.313596707678806
40
0.333646124769808
40
0.34367083331531
40
0.35369554186081
40
0.363720250406312
40
0.373744958951813
40
0.383769667497314
40
0.393794376042815
40
0.398806730315565
40
0.403819084588316
40
0.413843793133817
40
0.423868501679318
40
0.433893210224819
40
0.453942627315821
40
0.463967335861322
40
0.473992044406823
40
0.484016752952324
40
0.494041461497825
40
0.504066170043326
40
0.514090878588827
40
0.524115587134328
40
0.534140295679829
40
0.544165004225331
40
0.554189712770832
40
0.574239129861834
40
0.584263838407335
40
0.594288546952836
40
0.599300901225586
40
0.604313255498337
40
0.614337964043838
40
0.63438738113484
40
0.644412089680341
40
0.654436798225842
40
0.674486215316844
40
0.694535632407846
40
0.704560340953347
40
0.714585049498848
40
0.734634466589851
40
0.744659175135352
40
0.754683883680853
40
0.764708592226354
40
0.774733300771855
40
0.784758009317356
40
0.794782717862857
40
0.814832134953859
40
0.834881552044861
40
0.844906260590362
40
0.854930969135863
40
0.864955677681364
40
0.874980386226865
40
0.895029803317867
40
0.91507922040887
40
0.935128637499872
40
0.955178054590874
40
0.965202763136375
40
0.975227471681876
40
0.985252180227377
40
0.995276888772878
40
1
40
1
40
1
40
1
41
1
10
-0.39497688887522
20
-13.7406740824409
30
0
41
1
10
-0.394976888875249
20
-13.7387529711248
30
0
41
1
10
-0.394976888875249
20
-13.729921826986
30
0
41
1
10
-0.394976888875277
20
-13.706079968468
30
0
41
1
10
-0.394976888875277
20
-13.6736219491958
30
0
41
1
10
-0.394976888875277
20
-13.6377421279937
30
0
41
1
10
-0.394976888875277
20
-13.6091837809887
30
0
41
1
10
-0.394976888875277
20
-13.5789822078612
30
0
41
1
10
-0.394976888875277
20
-13.5365270011545
30
0
41
1
10
-0.394976888875277
20
-13.490931201485
30
0
41
1
10
-0.394976888875277
20
-13.4421262291561
30
0
41
1
10
-0.394976888875277
20
-13.4039879870964
30
0
41
1
10
-0.394976888875277
20
-13.3643136307331
30
0
41
1
10
-0.394976888875277
20
-13.3231185723383
30
0
41
1
10
-0.394976888875277
20
-13.2804176772461
30
0
41
1
10
-0.394976888875277
20
-13.221467049789
30
0
41
1
10
-0.394976888875277
20
-13.1596507828291
30
0
41
1
10
-0.394976888875277
20
-13.0948461430692
30
0
41
1
10
-0.394976888875277
20
-13.0448282543027
30
0
41
1
10
-0.394976888875277
20
-12.9933861205259
30
0
41
1
10
-0.394976888875277
20
-12.940532100831
30
0
41
1
10
-0.394976888875277
20
-12.8862769625636
30
0
41
1
10
-0.394976888875277
20
-12.8306328883531
30
0
41
1
10
-0.394976888875277
20
-12.773610902979
30
0
41
1
10
-0.394976888875277
20
-12.6957215996061
30
0
41
1
10
-0.394976888875277
20
-12.6152283642396
30
0
41
1
10
-0.394976888875277
20
-12.5319491682166
30
0
41
1
10
-0.394976888875277
20
-12.446899173783
30
0
41
1
10
-0.394976888875277
20
-12.3373769247913
30
0
41
1
10
-0.394976888875277
20
-12.2235215963167
30
0
41
1
10
-0.394976888875277
20
-12.1297946270485
30
0
41
1
10
-0.394976888875277
20
-12.0582544232072
30
0
41
1
10
-0.394976888875277
20
-11.9854459723214
30
0
41
1
10
-0.394976888875277
20
-11.9113764724791
30
0
41
1
10
-0.394976888875277
20
-11.836053984022
30
0
41
1
10
-0.394976888875277
20
-11.7722691819395
30
0
41
1
10
-0.394976888875277
20
-11.7205808983271
30
0
41
1
10
-0.394976888875277
20
-11.6684804460587
30
0
41
1
10
-0.394976888875277
20
-11.6026363770329
30
0
41
1
10
-0.394976888875277
20
-11.5223699808134
30
0
41
1
10
-0.394976888875277
20
-11.413674138825
30
0
41
1
10
-0.394976888875277
20
-11.3026972665534
30
0
41
1
10
-0.394976888875277
20
-11.1891707748317
30
0
41
1
10
-0.394976888875277
20
-11.1028676417001
30
0
41
1
10
-0.394976888875277
20
-11.0153746961414
30
0
41
1
10
-0.394976888875277
20
-10.9266969919675
30
0
41
1
10
-0.394976888875277
20
-10.8368404586376
30
0
41
1
10
-0.394976888875277
20
-10.7458098983122
30
0
41
1
10
-0.394976888875277
20
-10.6536100894112
30
0
41
1
10
-0.394976888875277
20
-10.5602461538978
30
0
41
1
10
-0.394976888875277
20
-10.4657231753345
30
0
41
1
10
-0.394976888875277
20
-10.338096057249
30
0
41
1
10
-0.394976888875277
20
-10.2083399899529
30
0
41
1
10
-0.394976888875277
20
-10.0761265678462
30
0
41
1
10
-0.394976888875277
20
-9.99261145812801
30
0
41
1
10
-0.394976888875277
20
-9.92517902838179
30
0
41
1
10
-0.394976888875277
20
-9.85736937045593
30
0
41
1
10
-0.394976888875277
20
-9.73773602301958
30
0
41
1
10
-0.394976888875277
20
-9.59892077296985
30
0
41
1
10
-0.394976888875277
20
-9.45767863215664
30
0
41
1
10
-0.394976888875277
20
-9.31494999082747
30
0
41
1
10
-0.394976888875277
20
-9.13390680482667
30
0
41
1
10
-0.394976888875277
20
-8.94918034619519
30
0
41
1
10
-0.394976888875277
20
-8.79907644696402
30
0
41
1
10
-0.394976888875277
20
-8.64751156797169
30
0
41
1
10
-0.394976888875277
20
-8.49397420958985
30
0
41
1
10
-0.394976888875277
20
-8.3380422654499
30
0
41
1
10
-0.394976888875277
20
-8.22006380191277
30
0
41
1
10
-0.394976888875277
20
-8.10100253994159
30
0
41
1
10
-0.394976888875277
20
-7.98086146605701
30
0
41
1
10
-0.394976888875277
20
-7.85964216476054
30
0
41
1
10
-0.394976888875277
20
-7.69650359935568
30
0
41
1
10
-0.394976888875277
20
-7.49008091096033
30
0
41
1
10
-0.394976888875277
20
-7.28009512097313
30
0
41
1
10
-0.394976888875277
20
-7.10982246715957
30
0
41
1
10
-0.394976888875277
20
-6.98112245032084
30
0
41
1
10
-0.394976888875277
20
-6.85136201549099
30
0
41
1
10
-0.394976888875277
20
-6.6768468885183
30
0
41
1
10
-0.394976888875277
20
-6.45627504712579
30
0
41
1
10
-0.394976888875277
20
-6.18726435105106
30
0
41
1
10
-0.394976888875277
20
-5.91406388300979
30
0
41
1
10
-0.394976888875277
20
-5.68302324398948
30
0
41
1
10
-0.394976888875277
20
-5.49591839522026
30
0
41
1
10
-0.394976888875277
20
-5.35463943777347
30
0
41
1
10
-0.394976888875277
20
-5.21232773830431
30
0
41
1
10
-0.394976888875277
20
-5.09425535366776
30
0
41
1
10
-0.394976888875277
20
-5.02359314607173
30
0
41
1
10
-0.394976888875277
20
-5.00092508225413
30
0
0
SPLINE
5
ED
100
AcDbEntity
8
SK1
62
256
6
ByLayer
370
18
48
1
60
0
100
AcDbSpline
70
4
71
3
72
24
73
20
40
0
40
0
40
0
40
0
40
0.0566107962125901
40
0.0566107962125901
40
0.292458097159443
40
0.292458097159443
40
0.528305398106296
40
0.528305398106296
40
0.646229048579721
40
0.646229048579721
40
0.764152699053146
40
0.764152699053146
40
0.823114524289859
40
0.823114524289859
40
0.882076349526573
40
0.882076349526573
40
0.941038174763286
40
0.941038174763286
40
1
40
1
40
1
40
1
41
1
10
-0.217769766829207
20
13.9477750956985
30
0
41
1
10
-0.218661054588665
20
13.9462698749464
30
0
41
1
10
-0.219597534884116
20
13.9447405263237
30
0
41
1
10
-0.224682934304894
20
13.9367111271039
30
0
41
1
10
-0.229617567212557
20
13.9298132257639
30
0
41
1
10
-0.242229439580512
20
13.9149025794458
30
0
41
1
10
-0.2498335888464
20
13.9068988482932
30
0
41
1
10
-0.265207264314426
20
13.8938007843296
30
0
41
1
10
-0.270999147250819
20
13.889246900443
30
0
41
1
10
-0.285075726022143
20
13.879554172366
30
0
41
1
10
-0.293382262191443
20
13.8743360124917
30
0
41
1
10
-0.309973208906371
20
13.8659795391831
30
0
41
1
10
-0.316214208385787
20
13.8631087549699
30
0
41
1
10
-0.330656403377105
20
13.8574219230767
30
0
41
1
10
-0.339105376305639
20
13.8545577585332
30
0
41
1
10
-0.356551358104838
20
13.849859688057
30
0
41
1
10
-0.36537623467359
20
13.848068489605
30
0
41
1
10
-0.381257584369365
20
13.8456585749161
30
0
41
1
10
-0.38843740666357
20
13.844979298583
30
0
41
1
10
-0.394976888882155
20
13.8446015176357
30
0
0
SPLINE
5
EE
100
AcDbEntity
8
SK1
62
256
6
ByLayer
370
18
48
1
60
0
100
AcDbSpline
70
4
71
3
72
8
73
4
40
0
40
0
40
0
40
0
40
1
40
1
40
1
40
1
41
1
10
-1.49503997793931
20
-2.59465115086957
30
0
41
1
10
-1.43721506486062
20
-2.94709344599571
30
0
41
1
10
-1.37353709472984
20
-3.29086972471191
30
0
41
1
10
-1.30710678118766
20
-3.62781610099944
30
0
0
SPLINE
5
EF
100
AcDbEntity
8
SK1
62
256
6
ByLayer
370
18
48
1
60
0
100
AcDbSpline
70
4
71
3
72
13
73
9
40
0
40
0
40
0
40
0
40
0.239456136997455
40
0.368359723417182
40
0.499998985516747
40
0.631638416576586
40
0.760542468702441
40
1
40
1
40
1
40
1
41
1
10
-1.69999999999999
20
-14.0200984156386
30
0
41
1
10
-1.6990919864528
20
-13.9940409390257
30
0
41
1
10
-1.69103284110332
20
-13.9566683539303
30
0
41
1
10
-1.66563592205637
20
-13.9104491790265
30
0
41
1
10
-1.63886378681673
20
-13.8791676243503
30
0
41
1
10
-1.60627712752265
20
-13.8540002532836
30
0
41
1
10
-1.5588406423667
20
-13.830956449625
30
0
41
1
10
-1.52111030874428
20
-13.8247841935567
30
0
41
1
10
-1.49503997793931
20
-13.8251858327438
30
0
0
SPLINE
5
F0
100
AcDbEntity
8
SK1
62
256
6
ByLayer
370
18
48
1
60
0
100
AcDbSpline
70
4
71
2
72
6
73
3
40
0
40
0
40
0
40
1
40
1
40
1
41
1
10
-1.69999999999999
20
14.0157970602974
30
0
41
1
10
-12.099999999963
20
13.7545958471854
30
0
41
1
10
-22.5
20
13.493394380475
30
0
0
SPLINE
5
F1
100
AcDbEntity
8
SK1
62
256
6
ByLayer
370
18
48
1
60
0
100
AcDbSpline
70
4
71
2
72
6
73
3
40
0
40
0
40
0
40
1
40
1
40
1
41
1
10
-22.5
20
13.4970852847173
30
0
41
1
10
-23.2499999989318
20
13.0640908004416
30
0
41
1
10
-24
20
12.6310961283886
30
0
0
SPLINE
5
F2
100
AcDbEntity
8
SK1
62
256
6
ByLayer
370
18
48
1
60
0
100
AcDbSpline
70
4
71
2
72
6
73
3
40
0
40
0
40
0
40
1
40
1
40
1
41
1
10
-1.49503997793931
20
-13.7129410868425
30
0
41
1
10
-0.945008433407281
20
-13.7266599565288
30
0
41
1
10
-0.394976888875277
20
-13.7403788260787
30
0
0
SPLINE
5
F3
100
AcDbEntity
8
SK1
62
256
6
ByLayer
370
18
48
1
60
0
100
AcDbSpline
70
4
71
3
72
13
73
9
40
0
40
0
40
0
40
0
40
0.239457531275261
40
0.368361583394592
40
0.500001014452615
40
0.6316402765553
40
0.760543862982304
40
1
40
1
40
1
40
1
41
1
10
-1.49503997793931
20
13.8251858293361
30
0
41
1
10
-1.52111030874494
20
13.8247841901529
30
0
41
1
10
-1.55884064236801
20
13.8309564462264
30
0
41
1
10
-1.60627712752338
20
13.8540002498916
30
0
41
1
10
-1.63886378681735
20
13.8791676209636
30
0
41
1
10
-1.66563592205679
20
13.9104491756452
30
0
41
1
10
-1.69103284110358
20
13.9566683505561
30
0
41
1
10
-1.69909198645308
20
13.9940409356568
30
0
41
1
10
-1.69999999999999
20
14.0200984122732
30
0
0
SPLINE
5
F4
100
AcDbEntity
8
SK1
62
256
6
ByLayer
370
18
48
1
60
0
100
AcDbSpline
70
4
71
2
72
6
73
3
40
0
40
0
40
0
40
1
40
1
40
1
41
1
10
-24
20
-12.6310964932104
30
0
41
1
10
-23.2499999989322
20
-13.0640911753538
30
0
41
1
10
-22.5
20
-13.4970856697526
30
0
0
SPLINE
5
F5
100
AcDbEntity
8
SK1
62
256
6
ByLayer
370
18
48
1
60
0
100
AcDbSpline
70
4
71
2
72
6
73
3
40
0
40
0
40
0
40
1
40
1
40
1
41
1
10
-0.394976888875277
20
13.740379899128
30
0
41
1
10
-0.945008433407281
20
13.7266611372792
30
0
41
1
10
-1.49503997793931
20
13.7129423752897
30
0
0
SPLINE
5
F6
100
AcDbEntity
8
SK1
62
256
6
ByLayer
370
18
48
1
60
0
100
AcDbSpline
70
4
71
2
72
6
73
3
40
0
40
0
40
0
40
1
40
1
40
1
41
1
10
-22.5
20
-13.4933966698402
30
0
41
1
10
-12.0999999999449
20
-13.7545973909208
30
0
41
1
10
-1.69999999999999
20
-14.0157977997179
30
0
0
LINE
5
82
100
AcDbEntity
8
1
62
256
6
ByLayer
370
13
48
1
60
0
100
AcDbLine
10
17.08
20
-16.5
30
0
11
17.08
21
-16.213
31
0
39
0
210
0
220
0
230
1
0
LINE
5
83
100
AcDbEntity
8
1
62
256
6
ByLayer
370
13
48
1
60
0
100
AcDbLine
10
8.92
20
-16.5
30
0
11
8.92
21
-16.211875
31
0
39
0
210
0
220
0
230
1
0
LINE
5
84
100
AcDbEntity
8
1
62
256
6
ByLayer
370
18
48
1
60
0
100
AcDbLine
10
17.095
20
-16.5
30
0
11
8.905
21
-16.5
31
0
39
0
210
0
220
0
230
1
0
LINE
5
85
100
AcDbEntity
8
1
62
256
6
ByLayer
370
18
48
1
60
0
100
AcDbLine
10
16.922022
20
-15.595
30
0
11
9.091717
21
-15.595
31
0
39
0
210
0
220
0
230
1
0
LINE
5
86
100
AcDbEntity
8
1
62
256
6
ByLayer
370
18
48
1
60
0
100
AcDbLine
10
0.3
20
-20
30
0
11
0.3
21
20
31
0
39
0
210
0
220
0
230
1
0
LINE
5
87
100
AcDbEntity
8
1
62
256
6
ByLayer
370
13
48
1
60
0
100
AcDbLine
10
19.827723
20
21.34202
30
0
11
19.827723
21
-21.34202
31
0
39
0
210
0
220
0
230
1
0
LINE
5
88
100
AcDbEntity
8
1
62
256
6
ByLayer
370
18
48
1
60
0
100
AcDbLine
10
36
20
-11.051483
30
0
11
36
21
11.051483
31
0
39
0
210
0
220
0
230
1
0
LINE
5
89
100
AcDbEntity
8
1
62
256
6
ByLayer
370
18
48
1
60
0
100
AcDbLine
10
6
20
0
30
0
11
6
21
-21
31
0
39
0
210
0
220
0
230
1
0
LINE
5
8A
100
AcDbEntity
8
1
62
256
6
ByLayer
370
18
48
1
60
0
100
AcDbLine
10
6
20
21
30
0
11
6
21
0
31
0
39
0
210
0
220
0
230
1
0
LINE
5
8B
100
AcDbEntity
8
1
62
256
6
ByLayer
370
13
48
1
60
0
100
AcDbLine
10
22.260515
20
-14.65798
30
0
11
22.260515
21
14.65798
31
0
39
0
210
0
220
0
230
1
0
LINE
5
8C
100
AcDbEntity
8
1
62
256
6
ByLayer
370
13
48
1
60
0
100
AcDbLine
10
23.200208
20
-14
30
0
11
23.200208
21
0
31
0
39
0
210
0
220
0
230
1
0
LINE
5
8D
100
AcDbEntity
8
1
62
256
6
ByLayer
370
13
48
1
60
0
100
AcDbLine
10
23.200208
20
0
30
0
11
23.200208
21
14
31
0
39
0
210
0
220
0
230
1
0
LINE
5
8E
100
AcDbEntity
8
1
62
256
6
ByLayer
370
13
48
1
60
0
100
AcDbLine
10
18.888031
20
22
30
0
11
18.888031
21
-22
31
0
39
0
210
0
220
0
230
1
0
LINE
5
8F
100
AcDbEntity
8
1
62
256
6
ByLayer
370
13
48
1
60
0
100
AcDbLine
10
35.049494
20
-12.22526
30
0
11
35.049494
21
12.22526
31
0
39
0
210
0
220
0
230
1
0
LINE
5
90
100
AcDbEntity
8
1
62
256
6
ByLayer
370
13
48
1
60
0
100
AcDbLine
10
5
20
20
30
0
11
5
21
-20
31
0
39
0
210
0
220
0
230
1
0
LINE
5
91
100
AcDbEntity
8
1
62
256
6
ByLayer
370
13
48
1
60
0
100
AcDbLine
10
24.597915
20
14
30
0
11
24.597915
21
-14
31
0
39
0
210
0
220
0
230
1
0
LINE
5
92
100
AcDbEntity
8
1
62
256
6
ByLayer
370
13
48
1
60
0
100
AcDbLine
10
28.756149
20
0
30
0
11
28.756149
21
-13.562952
31
0
39
0
210
0
220
0
230
1
0
LINE
5
93
100
AcDbEntity
8
1
62
256
6
ByLayer
370
13
48
1
60
0
100
AcDbLine
10
28.756149
20
13.562952
30
0
11
28.756149
21
0
31
0
39
0
210
0
220
0
230
1
0
LINE
5
94
100
AcDbEntity
8
1
62
256
6
ByLayer
370
13
48
1
60
0
100
AcDbLine
10
7
20
0
30
0
11
7
21
-22
31
0
39
0
210
0
220
0
230
1
0
LINE
5
95
100
AcDbEntity
8
1
62
256
6
ByLayer
370
13
48
1
60
0
100
AcDbLine
10
7
20
22
30
0
11
7
21
0
31
0
39
0
210
0
220
0
230
1
0
LINE
5
96
100
AcDbEntity
8
1
62
256
6
ByLayer
370
18
48
1
60
0
100
AcDbLine
10
0
20
-19.7
30
0
11
0
21
19.7
31
0
39
0
210
0
220
0
230
1
0
LINE
5
97
100
AcDbEntity
8
SK1
62
256
6
ByLayer
370
18
48
1
60
0
100
AcDbLine
10
-0.2
20
-14.083485
30
0
11
-0.2
21
-5.703176
31
0
39
0
210
0
220
0
230
1
0
LINE
5
99
100
AcDbEntity
8
SK1
62
256
6
ByLayer
370
18
48
1
60
0
100
AcDbLine
10
-0.2
20
5.703176
30
0
11
-0.2
21
14.083485
31
0
39
0
210
0
220
0
230
1
0
LINE
5
9A
100
AcDbEntity
8
SK1
62
256
6
ByLayer
370
13
48
1
60
0
100
AcDbLine
10
-1.307107
20
-3.627816
30
0
11
-1.307107
21
3.627817
31
0
39
0
210
0
220
0
230
1
0
LINE
5
9B
100
AcDbEntity
8
SK4
62
256
6
ByLayer
370
18
48
0.05
60
0
100
AcDbLine
10
-34
20
0
30
0
11
46
21
0
31
0
39
0
210
0
220
0
230
1
0
LINE
5
9D
100
AcDbEntity
8
SK3
62
256
6
ByLayer
370
18
48
0.05
60
0
100
AcDbLine
10
0.5
20
-4
30
0
11
0.5
21
4
31
0
39
0
210
0
220
0
230
1
0
LINE
5
9F
100
AcDbEntity
8
SK3
62
256
6
ByLayer
370
18
48
0.05
60
0
100
AcDbLine
10
-1
20
-2.5
30
0
11
0.5
21
-4
31
0
39
0
210
0
220
0
230
1
0
LINE
5
A0
100
AcDbEntity
8
SK3
62
256
6
ByLayer
370
18
48
0.05
60
0
100
AcDbLine
10
0.5
20
4
30
0
11
-1
21
2.5
31
0
39
0
210
0
220
0
230
1
0
LINE
5
A1
100
AcDbEntity
8
SK3
62
256
6
ByLayer
370
18
48
0.05
60
0
100
AcDbLine
10
36
20
4
30
0
11
0.5
21
4
31
0
39
0
210
0
220
0
230
1
0
LINE
5
A2
100
AcDbEntity
8
1
62
256
6
ByLayer
370
18
48
1
60
0
100
AcDbLine
10
17.095
20
-16.5
30
0
11
17.38197
21
-16.21303
31
0
39
0
210
0
220
0
230
1
0
LINE
5
A3
100
AcDbEntity
8
1
62
256
6
ByLayer
370
18
48
1
60
0
100
AcDbLine
10
8.616998
20
-16.211998
30
0
11
8.905
21
-16.5
31
0
39
0
210
0
220
0
230
1
0
LINE
5
A4
100
AcDbEntity
8
1
62
256
6
ByLayer
370
18
48
1
60
0
100
AcDbLine
10
35.049494
20
12.22526
30
0
11
28.756149
21
13.562952
31
0
39
0
210
0
220
0
230
1
0
LINE
5
A5
100
AcDbEntity
8
1
62
256
6
ByLayer
370
18
48
1
60
0
100
AcDbLine
10
28.756149
20
-13.562952
30
0
11
35.049494
21
-12.22526
31
0
39
0
210
0
220
0
230
1
0
LINE
5
A6
100
AcDbEntity
8
1
62
256
6
ByLayer
370
18
48
1
60
0
100
AcDbLine
10
24.597915
20
14
30
0
11
23.200208
21
14
31
0
39
0
210
0
220
0
230
1
0
LINE
5
A7
100
AcDbEntity
8
1
62
256
6
ByLayer
370
18
48
1
60
0
100
AcDbLine
10
23.200208
20
-14
30
0
11
24.597915
21
-14
31
0
39
0
210
0
220
0
230
1
0
LINE
5
A8
100
AcDbEntity
8
1
62
256
6
ByLayer
370
18
48
1
60
0
100
AcDbLine
10
0
20
-19.7
30
0
11
0.3
21
-20
31
0
39
0
210
0
220
0
230
1
0
LINE
5
A9
100
AcDbEntity
8
1
62
256
6
ByLayer
370
18
48
1
60
0
100
AcDbLine
10
0.3
20
20
30
0
11
0
21
19.7
31
0
39
0
210
0
220
0
230
1
0
LINE
5
AA
100
AcDbEntity
8
1
62
256
6
ByLayer
370
18
48
1
60
0
100
AcDbLine
10
5
20
20
30
0
11
0.3
21
20
31
0
39
0
210
0
220
0
230
1
0
LINE
5
AB
100
AcDbEntity
8
1
62
256
6
ByLayer
370
18
48
1
60
0
100
AcDbLine
10
0.3
20
-20
30
0
11
5
21
-20
31
0
39
0
210
0
220
0
230
1
0
LINE
5
AC
100
AcDbEntity
8
1
62
256
6
ByLayer
370
18
48
1
60
0
100
AcDbLine
10
22.260515
20
14.65798
30
0
11
19.827723
21
21.34202
31
0
39
0
210
0
220
0
230
1
0
LINE
5
AD
100
AcDbEntity
8
1
62
256
6
ByLayer
370
18
48
1
60
0
100
AcDbLine
10
19.827723
20
-21.34202
30
0
11
22.260515
21
-14.65798
31
0
39
0
210
0
220
0
230
1
0
LINE
5
AE
100
AcDbEntity
8
1
62
256
6
ByLayer
370
18
48
1
60
0
100
AcDbLine
10
18.888031
20
22
30
0
11
7
21
22
31
0
39
0
210
0
220
0
230
1
0
LINE
5
AF
100
AcDbEntity
8
1
62
256
6
ByLayer
370
18
48
1
60
0
100
AcDbLine
10
7
20
-22
30
0
11
18.888031
21
-22
31
0
39
0
210
0
220
0
230
1
0
LINE
5
B0
100
AcDbEntity
8
81
62
256
6
ByLayer
370
18
48
1
60
0
100
AcDbLine
10
36
20
0
30
0
11
40.742527
21
0
31
0
39
0
210
0
220
0
230
1
0
LINE
5
B1
100
AcDbEntity
8
80
62
256
6
ByLayer
370
18
48
1
60
0
100
AcDbLine
10
0
20
0
30
0
11
-10.875929
21
0
31
0
39
0
210
0
220
0
230
1
0
LINE
5
B2
100
AcDbEntity
8
4
62
256
6
ByLayer
370
18
48
0.05
60
0
100
AcDbLine
10
36
20
0
30
0
11
0
21
0
31
0
39
0
210
0
220
0
230
1
0
LINE
5
B4
100
AcDbEntity
8
SK3
62
256
6
ByLayer
370
18
48
0.05
60
0
100
AcDbLine
10
0.5
20
-4
30
0
11
36
21
-4
31
0
39
0
210
0
220
0
230
1
0
LINE
5
B5
100
AcDbEntity
8
SK3
62
256
6
ByLayer
370
18
48
0.05
60
0
100
AcDbLine
10
-1
20
2.5
30
0
11
-1
21
-2.5
31
0
39
0
210
0
220
0
230
1
0
LINE
5
B6
100
AcDbEntity
8
SK2
62
256
6
ByLayer
370
13
48
1
60
0
100
AcDbLine
10
-52.1
20
-20
30
0
11
-52.1
21
20
31
0
39
0
210
0
220
0
230
1
0
LINE
5
B8
100
AcDbEntity
8
SK2
62
256
6
ByLayer
370
13
48
1
60
0
100
AcDbLine
10
-1.5875
20
20
30
0
11
-54.1
21
20
31
0
39
0
210
0
220
0
230
1
0
LINE
5
B9
100
AcDbEntity
8
SK2
62
256
6
ByLayer
370
13
48
1
60
0
100
AcDbLine
10
-1.5875
20
-20
30
0
11
-54.1
21
-20
31
0
39
0
210
0
220
0
230
1
0
LINE
5
BA
100
AcDbEntity
8
1
62
256
6
ByLayer
370
18
48
1
60
1
100
AcDbLine
10
-52.1
20
20
30
0
11
-51.102374
21
15.500004
31
0
39
0
210
0
220
0
230
1
0
LINE
5
BB
100
AcDbEntity
8
1
62
256
6
ByLayer
370
18
48
1
60
1
100
AcDbLine
10
-51.102374
20
15.500004
30
0
11
-53.097626
21
15.499996
31
0
39
0
210
0
220
0
230
1
0
LINE
5
BC
100
AcDbEntity
8
1
62
256
6
ByLayer
370
18
48
1
60
1
100
AcDbLine
10
-53.097626
20
15.499996
30
0
11
-52.1
21
20
31
0
39
0
210
0
220
0
230
1
0
LINE
5
BD
100
AcDbEntity
8
1
62
256
6
ByLayer
370
18
48
1
60
1
100
AcDbLine
10
-52.1
20
-20
30
0
11
-53.097626
21
-15.500004
31
0
39
0
210
0
220
0
230
1
0
LINE
5
BE
100
AcDbEntity
8
1
62
256
6
ByLayer
370
18
48
1
60
1
100
AcDbLine
10
-53.097626
20
-15.500004
30
0
11
-51.102374
21
-15.499996
31
0
39
0
210
0
220
0
230
1
0
LINE
5
BF
100
AcDbEntity
8
1
62
256
6
ByLayer
370
18
48
1
60
1
100
AcDbLine
10
-51.102374
20
-15.499996
30
0
11
-52.1
21
-20
31
0
39
0
210
0
220
0
230
1
0
LINE
5
C0
100
AcDbEntity
8
SK2
62
256
6
ByLayer
370
13
48
1
60
0
100
AcDbLine
10
-64.1
20
-22
30
0
11
-64.1
21
22
31
0
39
0
210
0
220
0
230
1
0
LINE
5
C1
100
AcDbEntity
8
SK2
62
256
6
ByLayer
370
13
48
1
60
0
100
AcDbLine
10
4.4125
20
22
30
0
11
-66.1
21
22
31
0
39
0
210
0
220
0
230
1
0
LINE
5
C2
100
AcDbEntity
8
SK2
62
256
6
ByLayer
370
13
48
1
60
0
100
AcDbLine
10
4.4125
20
-22
30
0
11
-66.1
21
-22
31
0
39
0
210
0
220
0
230
1
0
LINE
5
C3
100
AcDbEntity
8
1
62
256
6
ByLayer
370
18
48
1
60
1
100
AcDbLine
10
-64.1
20
22
30
0
11
-63.639216
21
18.500002
31
0
39
0
210
0
220
0
230
1
0
LINE
5
C4
100
AcDbEntity
8
1
62
256
6
ByLayer
370
18
48
1
60
1
100
AcDbLine
10
-63.639216
20
18.500002
30
0
11
-64.560784
21
18.499998
31
0
39
0
210
0
220
0
230
1
0
LINE
5
C5
100
AcDbEntity
8
1
62
256
6
ByLayer
370
18
48
1
60
1
100
AcDbLine
10
-64.560784
20
18.499998
30
0
11
-64.1
21
22
31
0
39
0
210
0
220
0
230
1
0
LINE
5
C6
100
AcDbEntity
8
1
62
256
6
ByLayer
370
18
48
1
60
1
100
AcDbLine
10
-64.1
20
-22
30
0
11
-64.560784
21
-18.500002
31
0
39
0
210
0
220
0
230
1
0
LINE
5
C7
100
AcDbEntity
8
1
62
256
6
ByLayer
370
18
48
1
60
1
100
AcDbLine
10
-64.560784
20
-18.500002
30
0
11
-63.639216
21
-18.499998
31
0
39
0
210
0
220
0
230
1
0
LINE
5
C8
100
AcDbEntity
8
1
62
256
6
ByLayer
370
18
48
1
60
1
100
AcDbLine
10
-63.639216
20
-18.499998
30
0
11
-64.1
21
-22
31
0
39
0
210
0
220
0
230
1
0
LINE
5
FB
100
AcDbEntity
8
1
62
256
6
ByLayer
370
18
48
1
60
1
100
AcDbLine
10
-52.1
20
20
30
0
11
-51.102374
21
15.500004
31
0
39
0
210
0
220
0
230
1
0
LINE
5
FC
100
AcDbEntity
8
1
62
256
6
ByLayer
370
18
48
1
60
1
100
AcDbLine
10
-51.102374
20
15.500004
30
0
11
-53.097626
21
15.499996
31
0
39
0
210
0
220
0
230
1
0
LINE
5
FD
100
AcDbEntity
8
1
62
256
6
ByLayer
370
18
48
1
60
1
100
AcDbLine
10
-53.097626
20
15.499996
30
0
11
-52.1
21
20
31
0
39
0
210
0
220
0
230
1
0
LINE
5
FF
100
AcDbEntity
8
1
62
256
6
ByLayer
370
18
48
1
60
1
100
AcDbLine
10
-52.1
20
-20
30
0
11
-53.097626
21
-15.500004
31
0
39
0
210
0
220
0
230
1
0
LINE
5
100
100
AcDbEntity
8
1
62
256
6
ByLayer
370
18
48
1
60
1
100
AcDbLine
10
-53.097626
20
-15.500004
30
0
11
-51.102374
21
-15.499996
31
0
39
0
210
0
220
0
230
1
0
LINE
5
101
100
AcDbEntity
8
1
62
256
6
ByLayer
370
18
48
1
60
1
100
AcDbLine
10
-51.102374
20
-15.499996
30
0
11
-52.1
21
-20
31
0
39
0
210
0
220
0
230
1
0
LINE
5
105
100
AcDbEntity
8
1
62
256
6
ByLayer
370
18
48
1
60
1
100
AcDbLine
10
-64.1
20
22
30
0
11
-63.639216
21
18.500002
31
0
39
0
210
0
220
0
230
1
0
LINE
5
106
100
AcDbEntity
8
1
62
256
6
ByLayer
370
18
48
1
60
1
100
AcDbLine
10
-63.639216
20
18.500002
30
0
11
-64.560784
21
18.499998
31
0
39
0
210
0
220
0
230
1
0
LINE
5
107
100
AcDbEntity
8
1
62
256
6
ByLayer
370
18
48
1
60
1
100
AcDbLine
10
-64.560784
20
18.499998
30
0
11
-64.1
21
22
31
0
39
0
210
0
220
0
230
1
0
LINE
5
109
100
AcDbEntity
8
1
62
256
6
ByLayer
370
18
48
1
60
1
100
AcDbLine
10
-64.1
20
-22
30
0
11
-64.560784
21
-18.500002
31
0
39
0
210
0
220
0
230
1
0
LINE
5
10A
100
AcDbEntity
8
1
62
256
6
ByLayer
370
18
48
1
60
1
100
AcDbLine
10
-64.560784
20
-18.500002
30
0
11
-63.639216
21
-18.499998
31
0
39
0
210
0
220
0
230
1
0
LINE
5
10B
100
AcDbEntity
8
1
62
256
6
ByLayer
370
18
48
1
60
1
100
AcDbLine
10
-63.639216
20
-18.499998
30
0
11
-64.1
21
-22
31
0
39
0
210
0
220
0
230
1
0
MTEXT
5
F7
100
AcDbEntity
8
SK2
62
256
6
ByLayer
370
18
48
1
60
0
100
AcDbMText
10
-54.111672
20
-4.936314
30
0
210
0
220
0
230
1
1
%%c
40
4.5
41
0
44
1.084337
50
90
71
7
72
5
7
iso_b_vert
0
MTEXT
5
FA
100
AcDbEntity
8
SK2
62
256
6
ByLayer
370
18
48
1
60
0
100
AcDbMText
10
-54.111672
20
1.77853
30
0
210
0
220
0
230
1
1
\W0.7361;40
40
4.5
41
0
44
1.084337
50
90
71
7
72
5
7
iso_b_vert
0
MTEXT
5
103
100
AcDbEntity
8
SK2
62
256
6
ByLayer
370
18
48
1
60
0
100
AcDbMText
10
-66.111672
20
-5.173915
30
0
210
0
220
0
230
1
1
%%c
40
4.5
41
0
44
1.084337
50
90
71
7
72
5
7
iso_b_vert
0
MTEXT
5
104
100
AcDbEntity
8
SK2
62
256
6
ByLayer
370
18
48
1
60
0
100
AcDbMText
10
-66.111672
20
1.540929
30
0
210
0
220
0
230
1
1
\W0.7685;44
40
4.5
41
0
44
1.084337
50
90
71
7
72
5
7
iso_b_vert
0
MTEXT
5
10D
100
AcDbEntity
8
SK6
62
256
6
ByLayer
370
18
48
1
60
0
100
AcDbMText
10
-28.873633
20
27.532634
30
0
210
0
220
0
230
1
1
\W0.2969; 
40
3.5
41
0
44
1.084337
50
0
71
7
72
5
7
iso_b_vert
0
MTEXT
5
10F
100
AcDbEntity
8
SK6
62
256
6
ByLayer
370
18
48
1
60
0
100
AcDbMText
10
-28.873633
20
27.532634
30
0
210
0
220
0
230
1
1
\W0.2969; 
40
3.5
41
0
44
1.084337
50
0
71
7
72
5
7
iso_b_vert
0
MTEXT
5
110
100
AcDbEntity
8
SK6
62
256
6
ByLayer
370
18
48
1
60
0
100
AcDbMText
10
-7.8145
20
-34.217366
30
0
210
0
220
0
230
1
1
\W0.7336;930-C4-T-08-036
40
3.5
41
0
44
1.084337
50
0
71
7
72
5
7
iso_b_vert
0
HATCH
5
FE
100
AcDbEntity
8
SK2
62
256
6
ByLayer
370
13
48
1
60
0
100
AcDbHatch
10
0
20
0
30
0
210
0
220
0
230
1
2
ANSI31
70
0
71
0
91
1
92
5
93
3
72
1
10
-52.1
20
20
11
-51.1023740181135
21
15.5000036644848
72
1
10
-51.1023740181135
20
15.5000036644848
11
-53.0976259818865
21
15.4999963355152
72
1
10
-53.0976259818865
20
15.4999963355152
11
-52.1
21
20
97
0
75
0
76
1
52
0
41
0.0062
77
0
78
1
53
45
43
0
44
0
45
-0.0139193969876572
46
0.0139193969876572
79
0
47
0
98
1
10
0
20
0
0
HATCH
5
102
100
AcDbEntity
8
SK2
62
256
6
ByLayer
370
13
48
1
60
0
100
AcDbHatch
10
0
20
0
30
0
210
0
220
0
230
1
2
ANSI31
70
0
71
0
91
1
92
5
93
3
72
1
10
-52.1
20
-20
11
-53.0976259818865
21
-15.5000036644848
72
1
10
-53.0976259818865
20
-15.5000036644848
11
-51.1023740181135
21
-15.4999963355152
72
1
10
-51.1023740181135
20
-15.4999963355152
11
-52.1
21
-20
97
0
75
0
76
1
52
0
41
0.0062
77
0
78
1
53
45
43
0
44
0
45
-0.0139193969876572
46
0.0139193969876572
79
0
47
0
98
1
10
0
20
0
0
HATCH
5
108
100
AcDbEntity
8
SK2
62
256
6
ByLayer
370
13
48
1
60
0
100
AcDbHatch
10
0
20
0
30
0
210
0
220
0
230
1
2
ANSI31
70
0
71
0
91
1
92
5
93
3
72
1
10
-64.1
20
22
11
-63.6392162584472
21
18.5000016925532
72
1
10
-63.6392162584472
20
18.5000016925532
11
-64.5607837415528
21
18.4999983074468
72
1
10
-64.5607837415528
20
18.4999983074468
11
-64.1
21
22
97
0
75
0
76
1
52
0
41
0.0062
77
0
78
1
53
45
43
0
44
0
45
-0.0139193969876572
46
0.0139193969876572
79
0
47
0
98
1
10
0
20
0
0
HATCH
5
10C
100
AcDbEntity
8
SK2
62
256
6
ByLayer
370
13
48
1
60
0
100
AcDbHatch
10
0
20
0
30
0
210
0
220
0
230
1
2
ANSI31
70
0
71
0
91
1
92
5
93
3
72
1
10
-64.1
20
-22
11
-64.5607837415528
21
-18.5000016925532
72
1
10
-64.5607837415528
20
-18.5000016925532
11
-63.6392162584472
21
-18.4999983074468
72
1
10
-63.6392162584472
20
-18.4999983074468
11
-64.1
21
-22
97
0
75
0
76
1
52
0
41
0.0062
77
0
78
1
53
45
43
0
44
0
45
-0.0139193969876572
46
0.0139193969876572
79
0
47
0
98
1
10
0
20
0
0
DIMENSION
5
112
100
AcDbEntity
8
SK2
62
256
6
ByLayer
370
18
48
1
60
0
100
AcDbDimension
2
_U0
10
36
20
50.1
30
0
11
21
21
50.1
31
0
70
32
71
1
72
1
41
1
210
0
220
0
230
1
3
Standard
100
AcDbAlignedDimension
13
6
23
22
33
0
14
36
24
4
34
0
50
0
100
AcDbRotatedDimension
1001
ACAD
1000
DSTYLE
1002
{
1070
   371
1070
    13
1070
   372
1070
    13
1070
   170
1070
     0
1070
   144
1040
1.0
1070
   277
1070
     2
1070
   284
1070
     8
1070
   278
1070
    44
1070
   146
1040
0.777778
1070
   345
1005
16
1070
   347
1005
16
1070
   346
1005
16
1070
   344
1005
0
1070
   343
1005
0
1070
   172
1070
     1
1070
    76
1070
     0
1070
    75
1070
     0
1070
   282
1070
     0
1070
   281
1070
     0
1070
    71
1070
     0
1070
    74
1070
     0
1070
   279
1070
     0
1070
   173
1070
     1
1070
   340
1005
F8
1070
   271
1070
     1
1070
   272
1070
     2
1070
    77
1070
     1
1070
    73
1070
     1
1070
   171
1070
     3
1070
   274
1070
     4
1070
   177
1070
     2
1070
   176
1070
     2
1070
   178
1070
     2
1070
    78
1070
     8
1070
    48
1040
-0.1
1070
    41
1040
4.5
1070
   147
1040
2.25
1070
    42
1040
1.5875
1070
    44
1040
2.0
1070
   140
1040
4.5
1002
}
1001
ACAD_DSTYLE_DIM_LINETYPE
1070
   380
1005
16
1001
ACAD_DSTYLE_DIM_EXT1_LINETYPE
1070
   381
1005
16
1001
ACAD_DSTYLE_DIM_EXT2_LINETYPE
1070
   382
1005
16
0
DIMENSION
5
12B
100
AcDbEntity
8
2
62
256
6
ByLayer
370
18
48
1
60
0
100
AcDbDimension
2
_U1
10
36
20
61.1
30
0
11
18
21
61.1
31
0
70
32
71
1
72
1
41
1
210
0
220
0
230
1
3
Standard
100
AcDbAlignedDimension
13
0
23
20
33
0
14
36
24
14
34
0
50
0
100
AcDbRotatedDimension
1001
ACAD
1000
DSTYLE
1002
{
1070
   371
1070
    13
1070
   372
1070
    13
1070
   170
1070
     0
1070
   144
1040
1.0
1070
   277
1070
     2
1070
   284
1070
     8
1070
   278
1070
    44
1070
   146
1040
0.777778
1070
   345
1005
16
1070
   347
1005
16
1070
   346
1005
16
1070
   344
1005
0
1070
   343
1005
0
1070
   172
1070
     1
1070
    76
1070
     0
1070
    75
1070
     0
1070
   282
1070
     0
1070
   281
1070
     0
1070
    71
1070
     0
1070
    74
1070
     0
1070
   279
1070
     0
1070
   173
1070
     1
1070
   340
1005
F8
1070
   271
1070
     1
1070
   272
1070
     2
1070
    77
1070
     1
1070
    73
1070
     1
1070
   171
1070
     3
1070
   274
1070
     4
1070
   177
1070
     2
1070
   176
1070
     2
1070
   178
1070
     2
1070
    78
1070
     8
1070
    48
1040
-0.1
1070
    41
1040
4.5
1070
   147
1040
2.25
1070
    42
1040
1.5875
1070
    44
1040
2.0
1070
   140
1040
4.5
1002
}
1001
ACAD_DSTYLE_DIM_LINETYPE
1070
   380
1005
16
1001
ACAD_DSTYLE_DIM_EXT1_LINETYPE
1070
   381
1005
16
1001
ACAD_DSTYLE_DIM_EXT2_LINETYPE
1070
   382
1005
16
0
DIMENSION
5
144
100
AcDbEntity
8
SK2
62
256
6
ByLayer
370
18
48
1
60
0
100
AcDbDimension
2
_U2
10
22.5
20
41.1
30
0
11
29.25
21
41.1
31
0
70
32
71
1
72
1
41
1
210
0
220
0
230
1
3
Standard
100
AcDbAlignedDimension
13
36
23
14
33
0
14
22.5
24
14
34
0
50
0
100
AcDbRotatedDimension
1001
ACAD
1000
DSTYLE
1002
{
1070
   371
1070
    13
1070
   372
1070
    13
1070
   170
1070
     0
1070
   144
1040
1.0
1070
   277
1070
     2
1070
   284
1070
     8
1070
   278
1070
    44
1070
   146
1040
0.777778
1070
   345
1005
16
1070
   347
1005
16
1070
   346
1005
16
1070
   344
1005
0
1070
   343
1005
0
1070
   172
1070
     1
1070
    76
1070
     0
1070
    75
1070
     0
1070
   282
1070
     0
1070
   281
1070
     0
1070
    71
1070
     0
1070
    74
1070
     0
1070
   279
1070
     0
1070
   173
1070
     1
1070
   340
1005
F8
1070
   271
1070
     1
1070
   272
1070
     2
1070
    77
1070
     1
1070
    73
1070
     1
1070
   171
1070
     3
1070
   274
1070
     4
1070
   177
1070
     2
1070
   176
1070
     2
1070
   178
1070
     2
1070
    78
1070
     8
1070
    48
1040
-0.1
1070
    41
1040
4.5
1070
   147
1040
2.25
1070
    42
1040
1.5875
1070
    44
1040
2.0
1070
   140
1040
4.5
1002
}
1001
ACAD_DSTYLE_DIM_LINETYPE
1070
   380
1005
16
1001
ACAD_DSTYLE_DIM_EXT1_LINETYPE
1070
   381
1005
16
1001
ACAD_DSTYLE_DIM_EXT2_LINETYPE
1070
   382
1005
16
0
DIMENSION
5
15D
100
AcDbEntity
8
SK2
62
256
6
ByLayer
370
18
48
1
60
0
100
AcDbDimension
2
_U3
10
-24
20
61.1
30
0
11
-12
21
61.1
31
0
70
32
71
1
72
1
41
1
210
0
220
0
230
1
3
Standard
100
AcDbAlignedDimension
13
0
23
20
33
0
14
-24
24
14.4
34
0
50
0
100
AcDbRotatedDimension
1001
ACAD
1000
DSTYLE
1002
{
1070
   371
1070
    13
1070
   372
1070
    13
1070
   170
1070
     0
1070
   144
1040
1.0
1070
   277
1070
     2
1070
   284
1070
     8
1070
   278
1070
    44
1070
   146
1040
0.777778
1070
   345
1005
16
1070
   347
1005
16
1070
   346
1005
16
1070
   344
1005
0
1070
   343
1005
0
1070
   172
1070
     1
1070
    76
1070
     0
1070
    75
1070
     0
1070
   282
1070
     0
1070
   281
1070
     0
1070
    71
1070
     0
1070
    74
1070
     0
1070
   279
1070
     0
1070
   173
1070
     1
1070
   340
1005
F8
1070
   271
1070
     1
1070
   272
1070
     2
1070
    77
1070
     1
1070
    73
1070
     1
1070
   171
1070
     3
1070
   274
1070
     4
1070
   177
1070
     2
1070
   176
1070
     2
1070
   178
1070
     2
1070
    78
1070
     8
1070
    48
1040
-0.1
1070
    41
1040
4.5
1070
   147
1040
2.25
1070
    42
1040
1.5875
1070
    44
1040
2.0
1070
   140
1040
4.5
1002
}
1001
ACAD_DSTYLE_DIM_LINETYPE
1070
   380
1005
16
1001
ACAD_DSTYLE_DIM_EXT1_LINETYPE
1070
   381
1005
16
1001
ACAD_DSTYLE_DIM_EXT2_LINETYPE
1070
   382
1005
16
0
DIMENSION
5
175
100
AcDbEntity
8
SK2
62
256
6
ByLayer
370
18
48
1
60
0
100
AcDbDimension
2
_U4
10
36
20
-50.6
30
0
11
67.887197
21
-50.6
31
0
70
32
71
1
72
1
41
1
210
0
220
0
230
1
3
Standard
100
AcDbAlignedDimension
13
-1
23
-4
33
0
14
36
24
-4
34
0
50
0
100
AcDbRotatedDimension
1001
ACAD
1000
DSTYLE
1002
{
1070
   371
1070
    13
1070
   372
1070
    13
1070
     3
1000

1070
   170
1070
     0
1070
   144
1040
1.0
1070
   277
1070
     2
1070
   284
1070
     8
1070
   278
1070
    44
1070
   146
1040
0.777778
1070
   345
1005
16
1070
   347
1005
16
1070
   346
1005
16
1070
   344
1005
0
1070
   343
1005
0
1070
   172
1070
     1
1070
    76
1070
     0
1070
    75
1070
     0
1070
   282
1070
     0
1070
   281
1070
     0
1070
    71
1070
     0
1070
    74
1070
     0
1070
   279
1070
     0
1070
   173
1070
     1
1070
   340
1005
F8
1070
   271
1070
     0
1070
   272
1070
     2
1070
    77
1070
     1
1070
    73
1070
     1
1070
   171
1070
     3
1070
   274
1070
     4
1070
   177
1070
     2
1070
   176
1070
     2
1070
   178
1070
     2
1070
    78
1070
     8
1070
    48
1040
-0.1
1070
    41
1040
4.5
1070
   147
1040
2.25
1070
    42
1040
1.5875
1070
    44
1040
2.0
1070
   140
1040
4.5
1002
}
1001
ACAD_DSTYLE_DIM_LINETYPE
1070
   380
1005
16
1001
ACAD_DSTYLE_DIM_EXT1_LINETYPE
1070
   381
1005
16
1001
ACAD_DSTYLE_DIM_EXT2_LINETYPE
1070
   382
1005
16
0
DIMENSION
5
18E
100
AcDbEntity
8
SK2
62
256
6
ByLayer
370
18
48
1
60
0
100
AcDbDimension
2
_U5
10
80.25
20
-14
30
0
11
80.25
21
0
31
0
70
32
71
1
72
1
41
1
210
0
220
0
230
1
3
Standard
100
AcDbAlignedDimension
13
26.7
23
14
33
0
14
26.7
24
-14
34
0
50
90
100
AcDbRotatedDimension
1001
ACAD
1000
DSTYLE
1002
{
1070
   371
1070
    13
1070
   372
1070
    13
1070
   170
1070
     0
1070
   144
1040
1.0
1070
   277
1070
     2
1070
   284
1070
     8
1070
   278
1070
    44
1070
   146
1040
0.777778
1070
   345
1005
16
1070
   347
1005
16
1070
   346
1005
16
1070
   344
1005
0
1070
   343
1005
0
1070
   172
1070
     1
1070
    76
1070
     0
1070
    75
1070
     0
1070
   282
1070
     0
1070
   281
1070
     0
1070
    71
1070
     0
1070
    74
1070
     0
1070
   279
1070
     0
1070
   173
1070
     1
1070
   340
1005
F8
1070
   271
1070
     1
1070
   272
1070
     2
1070
    77
1070
     1
1070
    73
1070
     0
1070
   171
1070
     3
1070
   274
1070
     4
1070
   177
1070
     2
1070
   176
1070
     2
1070
   178
1070
     2
1070
    78
1070
     8
1070
    48
1040
-0.1
1070
    41
1040
4.5
1070
   147
1040
2.25
1070
    42
1040
1.5875
1070
    44
1040
2.0
1070
   140
1040
4.5
1002
}
1001
ACAD_DSTYLE_DIM_LINETYPE
1070
   380
1005
16
1001
ACAD_DSTYLE_DIM_EXT1_LINETYPE
1070
   381
1005
16
1001
ACAD_DSTYLE_DIM_EXT2_LINETYPE
1070
   382
1005
16
0
DIMENSION
5
1A7
100
AcDbEntity
8
SK2
62
256
6
ByLayer
370
18
48
1
60
0
100
AcDbDimension
2
_U6
10
58.25
20
-4
30
0
11
58.25
21
21.256371
31
0
70
32
71
1
72
1
41
1
210
0
220
0
230
1
3
Standard
100
AcDbAlignedDimension
13
36
23
4
33
0
14
36
24
-4
34
0
50
90
100
AcDbRotatedDimension
1001
ACAD
1000
DSTYLE
1002
{
1070
   371
1070
    13
1070
   372
1070
    13
1070
   170
1070
     0
1070
   144
1040
1.0
1070
   277
1070
     2
1070
   284
1070
     8
1070
   278
1070
    44
1070
   146
1040
0.777778
1070
   345
1005
16
1070
   347
1005
16
1070
   346
1005
16
1070
   344
1005
0
1070
   343
1005
0
1070
   172
1070
     1
1070
    76
1070
     0
1070
    75
1070
     0
1070
   282
1070
     0
1070
   281
1070
     0
1070
    71
1070
     0
1070
    74
1070
     0
1070
   279
1070
     0
1070
   173
1070
     1
1070
   340
1005
F8
1070
   271
1070
     1
1070
   272
1070
     2
1070
    77
1070
     1
1070
    73
1070
     0
1070
   171
1070
     3
1070
   274
1070
     4
1070
   177
1070
     2
1070
   176
1070
     2
1070
   178
1070
     2
1070
    78
1070
     8
1070
    48
1040
-0.1
1070
    41
1040
4.5
1070
   147
1040
2.25
1070
    42
1040
1.5875
1070
    44
1040
2.0
1070
   140
1040
4.5
1002
}
1001
ACAD_DSTYLE_DIM_LINETYPE
1070
   380
1005
16
1001
ACAD_DSTYLE_DIM_EXT1_LINETYPE
1070
   381
1005
16
1001
ACAD_DSTYLE_DIM_EXT2_LINETYPE
1070
   382
1005
16
0
ENDSEC
0
SECTION
2
OBJECTS
0
DICTIONARY
5
233
330
0
100
AcDbDictionary
280
0
281
1
3
ACAD_GROUP
350
234
3
ACAD_MLINESTYLE
350
235
0
DICTIONARY
5
234
330
0
100
AcDbDictionary
280
0
281
1
0
DICTIONARY
5
235
330
0
100
AcDbDictionary
280
0
281
1
3
Standard
350
18
0
MLINESTYLE
5
18
330
235
100
AcDbMlineStyle
2
Standard
70
0
3

62
256
51
90
52
90
71
2
49
-0.5
62
256
6
ByLayer
49
0.5
62
256
6
ByLayer
0
RASTERVARIABLES
5
220
330

100
AcDbRasterVariables
90
0
70
1
71
1
72
1
0
ENDSEC
0
EOF
