0
SECTION
2
HEADER
9
$ACADVER
1
AC1015
9
$DWGCODEPAGE
3
ANSI_1252
9
$HANDSEED
5
305
9
$ANGBASE
50
0
9
$ANGDIR
70
0
9
$ATTMODE
70
1
9
$AUNITS
70
0
9
$AUPREC
70
0
9
$CECOLOR
62
256
9
$CELTSCALE
40
1
9
$CELTYPE
6
ByLayer
9
$CELWEIGHT
370
18
9
$CLAYER
8
0
9
$CMLJUST
70
0
9
$CMLSCALE
40
1
9
$CMLSTYLE
2
Standard
9
$DIMSTYLE
2
Standard
9
$TEXTSIZE
40
0.2
9
$TEXTSTYLE
7
Standard
9
$LUNITS
70
2
9
$LUPREC
70
4
9
$EXTNAMES
290
1
9
$INSUNITS
70
4
9
$LTSCALE
40
1
9
$LWDISPLAY
290
1
9
$PDMODE
70
0
9
$PDSIZE
40
0
9
$PLINEGEN
70
0
0
ENDSEC
0
SECTION
2
CLASSES
0
CLASS
1
RASTERVARIABLES
2
AcDbRasterVariables
3
ISM
90
0
280
0
281
0
0
ENDSEC
0
SECTION
2
TABLES
0
TABLE
2
VPORT
5
2fb
100
AcDbSymbolTable
0
VPORT
5
1
100
AcDbSymbolTableRecord
100
AcDbViewportTableRecord
2
*Active
70
0
10
0
20
0
11
1
21
1
12
-1
22
1
13
0
23
0
14
0.5
24
0.5
15
10
25
10
16
0
26
0
36
1
17
0
27
0
37
0
0
ENDTAB
0
TABLE
2
LTYPE
5
2fc
100
AcDbSymbolTable
0
LTYPE
5
14
100
AcDbSymbolTableRecord
100
AcDbLinetypeTableRecord
70
0
2
ByBlock
3

72
65
73
0
40
0
0
LTYPE
5
15
100
AcDbSymbolTableRecord
100
AcDbLinetypeTableRecord
70
0
2
ByLayer
3

72
65
73
0
40
0
0
LTYPE
5
16
100
AcDbSymbolTableRecord
100
AcDbLinetypeTableRecord
70
0
2
Continuous
3
Solid line
72
65
73
0
40
0
0
LTYPE
5
6E
100
AcDbSymbolTableRecord
100
AcDbLinetypeTableRecord
70
0
2
CENTER
3
____ _ ____ _ ____ _ ____
72
65
73
4
40
47.5
49
22
74
0
49
-8.5
74
0
49
8.5
74
0
49
-8.5
74
0
0
LTYPE
5
6F
100
AcDbSymbolTableRecord
100
AcDbLinetypeTableRecord
70
0
2
DASHED
3
__ __ __ __ __ __ __ __ __
72
65
73
2
40
25.72
49
12.86
74
0
49
-12.86
74
0
0
ENDTAB
0
TABLE
2
LAYER
5
2fd
100
AcDbSymbolTable
0
LAYER
5
10
100
AcDbSymbolTableRecord
100
AcDbLayerTableRecord
2
0
70
0
62
7
6
Continuous
290
1
370
-3
390
0
0
LAYER
5
71
100
AcDbSymbolTableRecord
100
AcDbLayerTableRecord
2
80
70
0
62
-6
6
Continuous
290
1
370
-3
390
0
0
LAYER
5
73
100
AcDbSymbolTableRecord
100
AcDbLayerTableRecord
2
81
70
0
62
-3
6
Continuous
290
1
370
-3
390
0
0
LAYER
5
75
100
AcDbSymbolTableRecord
100
AcDbLayerTableRecord
2
1
70
0
62
4
6
Continuous
290
1
370
-3
390
0
0
LAYER
5
151
100
AcDbSymbolTableRecord
100
AcDbLayerTableRecord
2
4
70
0
62
-2
6
CENTER
290
1
370
-3
390
0
0
LAYER
5
228
100
AcDbSymbolTableRecord
100
AcDbLayerTableRecord
2
Defpoints
70
0
62
7
6
Continuous
290
0
370
-3
390
0
0
LAYER
5
235
100
AcDbSymbolTableRecord
100
AcDbLayerTableRecord
2
2
70
0
62
7
6
Continuous
290
1
370
-3
390
0
0
LAYER
5
2e8
100
AcDbSymbolTableRecord
100
AcDbLayerTableRecord
2
SK4
70
0
62
2
6
CENTER
290
1
370
-3
390
0
0
LAYER
5
2e9
100
AcDbSymbolTableRecord
100
AcDbLayerTableRecord
2
SK6
70
0
62
5
6
Continuous
290
1
370
-3
390
0
0
LAYER
5
2ea
100
AcDbSymbolTableRecord
100
AcDbLayerTableRecord
2
SK2
70
0
62
7
6
Continuous
290
1
370
-3
390
0
0
ENDTAB
0
TABLE
2
STYLE
5
2fe
100
AcDbSymbolTable
0
STYLE
5
11
100
AcDbSymbolTableRecord
100
AcDbTextStyleTableRecord
2
Standard
3
txt
70
0
71
0
40
0
41
1
42
0
50
0
0
STYLE
5
221
100
AcDbSymbolTableRecord
100
AcDbTextStyleTableRecord
2
iso-1
3
isocp.shx
70
0
71
0
40
0
41
1
42
0
50
0
0
STYLE
5
222
100
AcDbSymbolTableRecord
100
AcDbTextStyleTableRecord
2
DWGDirectTextStyle
3
isocp
70
0
71
0
40
0
41
1
42
0
50
0
0
ENDTAB
0
TABLE
2
DIMSTYLE
5
2ff
100
AcDbSymbolTable
100
AcDbDimStyleTable
0
DIMSTYLE
105
27
100
AcDbSymbolTableRecord
100
AcDbDimStyleTableRecord
2
Standard
70
0
3
<>
41
0.18
42
0.0625
44
0.18
140
0.18
147
0.09
73
0
74
0
77
1
271
2
275
0
278
52
280
0
340
11
0
ENDTAB
0
TABLE
2
VIEW
5
300
100
AcDbSymbolTable
0
ENDTAB
0
TABLE
2
UCS
5
301
100
AcDbSymbolTable
0
ENDTAB
0
TABLE
2
APPID
5
302
100
AcDbSymbolTable
0
APPID
5
12
100
AcDbSymbolTableRecord
100
AcDbRegAppTableRecord
2
ACAD
70
0
0
APPID
5
224
100
AcDbSymbolTableRecord
100
AcDbRegAppTableRecord
2
ACAD_DSTYLE_DIMBREAK
70
0
0
APPID
5
2A7
100
AcDbSymbolTableRecord
100
AcDbRegAppTableRecord
2
ACAD_DSTYLE_DIM_LINETYPE
70
0
0
APPID
5
2A8
100
AcDbSymbolTableRecord
100
AcDbRegAppTableRecord
2
ACAD_DSTYLE_DIM_EXT1_LINETYPE
70
0
0
APPID
5
2A9
100
AcDbSymbolTableRecord
100
AcDbRegAppTableRecord
2
ACAD_DSTYLE_DIM_EXT2_LINETYPE
70
0
0
APPID
5
2E4
100
AcDbSymbolTableRecord
100
AcDbRegAppTableRecord
2
ACAD_MLEADERVER
70
0
0
ENDTAB
0
TABLE
2
BLOCK_RECORD
5
303
100
AcDbSymbolTable
0
BLOCK_RECORD
5
1F
100
AcDbSymbolTableRecord
100
AcDbBlockTableRecord
2
*Model_Space
340
0
70
0
0
BLOCK_RECORD
5
1B
100
AcDbSymbolTableRecord
100
AcDbBlockTableRecord
2
*Paper_Space
340
0
70
0
0
BLOCK_RECORD
5
23
100
AcDbSymbolTableRecord
100
AcDbBlockTableRecord
2
*Paper_Space0
340
0
70
0
0
BLOCK_RECORD
5
229
100
AcDbSymbolTableRecord
100
AcDbBlockTableRecord
2
*D1
340
0
70
0
0
BLOCK_RECORD
5
236
100
AcDbSymbolTableRecord
100
AcDbBlockTableRecord
2
_U0
340
0
70
0
0
BLOCK_RECORD
5
242
100
AcDbSymbolTableRecord
100
AcDbBlockTableRecord
2
*D3
340
0
70
0
0
BLOCK_RECORD
5
24E
100
AcDbSymbolTableRecord
100
AcDbBlockTableRecord
2
_U1
340
0
70
0
0
BLOCK_RECORD
5
25A
100
AcDbSymbolTableRecord
100
AcDbBlockTableRecord
2
*D5
340
0
70
0
0
BLOCK_RECORD
5
266
100
AcDbSymbolTableRecord
100
AcDbBlockTableRecord
2
_U2
340
0
70
0
0
BLOCK_RECORD
5
272
100
AcDbSymbolTableRecord
100
AcDbBlockTableRecord
2
*D7
340
0
70
0
0
BLOCK_RECORD
5
27F
100
AcDbSymbolTableRecord
100
AcDbBlockTableRecord
2
_U3
340
0
70
0
0
ENDTAB
0
ENDSEC
0
SECTION
2
BLOCKS
0
BLOCK
5
20
100
AcDbEntity
8
0
100
AcDbBlockBegin
2
*Model_Space
70
0
10
0
20
0
30
0
3
*Model_Space
0
ENDBLK
5
21
100
AcDbEntity
8
0
100
AcDbBlockEnd
0
BLOCK
5
1C
100
AcDbEntity
8
0
100
AcDbBlockBegin
2
*Paper_Space
70
0
10
0
20
0
30
0
3
*Paper_Space
0
ENDBLK
5
1D
100
AcDbEntity
8
0
100
AcDbBlockEnd
0
BLOCK
5
24
100
AcDbEntity
8
0
100
AcDbBlockBegin
2
*Paper_Space0
70
0
10
0
20
0
30
0
3
*Paper_Space0
0
ENDBLK
5
25
100
AcDbEntity
8
0
100
AcDbBlockEnd
0
BLOCK
5
22A
100
AcDbEntity
8
0
100
AcDbBlockBegin
2
*D1
70
1
10
0
20
0
30
0
3
*D1
0
LINE
5
22C
100
AcDbEntity
8
0
62
256
6
ByLayer
370
-2
48
1
60
0
100
AcDbLine
10
29.5875
20
0
30
0
11
48.908942
21
0
31
0
39
0
210
0
220
0
230
1
0
LINE
5
22D
100
AcDbEntity
8
0
62
256
6
ByLayer
370
-2
48
1
60
0
100
AcDbLine
10
24.5875
20
27
30
0
11
48.908942
21
27
31
0
39
0
210
0
220
0
230
1
0
LINE
5
22E
100
AcDbEntity
8
0
62
256
6
ByLayer
370
-2
48
1
60
0
100
AcDbLine
10
45.733942
20
3.175
30
0
11
45.733942
21
23.825
31
0
39
0
210
0
220
0
230
1
0
SOLID
5
22F
100
AcDbEntity
8
0
62
256
6
ByLayer
370
-1
48
1
60
0
100
AcDbTrace
10
45.204776
20
3.175
30
0
11
46.263109
21
3.175
31
0
12
45.733942
22
0
32
0
13
45.733942
23
0
33
0
39
0
210
0
220
0
230
1
0
SOLID
5
230
100
AcDbEntity
8
0
62
256
6
ByLayer
370
-1
48
1
60
0
100
AcDbTrace
10
46.263109
20
23.825
30
0
11
45.204776
21
23.825
31
0
12
45.733942
22
27
32
0
13
45.733942
23
27
33
0
39
0
210
0
220
0
230
1
0
MTEXT
5
231
100
AcDbEntity
8
0
62
256
6
ByLayer
370
18
48
1
60
0
100
AcDbMText
10
39.10613
20
13.5
30
0
210
0
220
0
230
1
1
\A1;27
40
3.175
41
0
44
1
50
90
71
5
72
5
7
iso-1
0
POINT
5
232
100
AcDbEntity
8
Defpoints
62
0
6
ByLayer
370
-1
48
1
60
0
100
AcDbPoint
10
28
20
0
30
0
39
0
210
0
220
0
230
1
50
360
0
POINT
5
233
100
AcDbEntity
8
Defpoints
62
0
6
ByLayer
370
-1
48
1
60
0
100
AcDbPoint
10
23
20
27
30
0
39
0
210
0
220
0
230
1
50
360
0
POINT
5
234
100
AcDbEntity
8
Defpoints
62
0
6
ByLayer
370
-1
48
1
60
0
100
AcDbPoint
10
45.733942
20
27
30
0
39
0
210
0
220
0
230
1
50
360
0
ENDBLK
5
22B
100
AcDbEntity
8
0
100
AcDbBlockEnd
0
BLOCK
5
23D
100
AcDbEntity
8
0
100
AcDbBlockBegin
2
_U0
70
0
10
0
20
0
30
0
3
_U0
0
MTEXT
5
237
100
AcDbEntity
8
2
62
256
6
ByLayer
370
13
48
1
60
0
100
AcDbMText
10
45.384191
20
11.810566
30
0
210
0
220
0
230
1
1
\W0.6474;27
40
3.175
41
0
44
0.963855
50
90
71
7
72
5
7
iso-1
0
LINE
5
238
100
AcDbEntity
8
2
62
256
6
ByLayer
370
13
48
1
60
0
100
AcDbLine
10
24.5875
20
27
30
0
11
48.908942
21
27
31
0
39
0
210
0
220
0
230
1
0
LINE
5
239
100
AcDbEntity
8
2
62
256
6
ByLayer
370
13
48
1
60
0
100
AcDbLine
10
29.5875
20
0
30
0
11
48.908942
21
0
31
0
39
0
210
0
220
0
230
1
0
LINE
5
23A
100
AcDbEntity
8
2
62
256
6
ByLayer
370
13
48
1
60
0
100
AcDbLine
10
45.733942
20
27
30
0
11
45.733942
21
0
31
0
39
0
210
0
220
0
230
1
0
SOLID
5
23B
100
AcDbEntity
8
2
62
256
6
ByLayer
370
18
48
1
60
0
100
AcDbTrace
10
45.733942
20
27
30
0
11
46.151939
21
23.825002
31
0
12
45.315946
22
23.824998
32
0
13
45.315946
23
23.824998
33
0
39
0
210
0
220
0
230
1
0
SOLID
5
23C
100
AcDbEntity
8
2
62
256
6
ByLayer
370
18
48
1
60
0
100
AcDbTrace
10
45.733942
20
0
30
0
11
45.315946
21
3.174998
31
0
12
46.151939
22
3.175002
32
0
13
46.151939
23
3.175002
33
0
39
0
210
0
220
0
230
1
0
ENDBLK
5
23E
100
AcDbEntity
8
0
100
AcDbBlockEnd
0
BLOCK
5
243
100
AcDbEntity
8
0
100
AcDbBlockBegin
2
*D3
70
1
10
0
20
0
30
0
3
*D3
0
LINE
5
245
100
AcDbEntity
8
0
62
256
6
ByLayer
370
-2
48
1
60
0
100
AcDbLine
10
0
20
-1.5875
30
0
11
0
21
-36.261276
31
0
39
0
210
0
220
0
230
1
0
LINE
5
246
100
AcDbEntity
8
0
62
256
6
ByLayer
370
-2
48
1
60
0
100
AcDbLine
10
30
20
-11.5875
30
0
11
30
21
-36.261276
31
0
39
0
210
0
220
0
230
1
0
LINE
5
247
100
AcDbEntity
8
0
62
256
6
ByLayer
370
-2
48
1
60
0
100
AcDbLine
10
3.175
20
-33.086276
30
0
11
26.825
21
-33.086276
31
0
39
0
210
0
220
0
230
1
0
SOLID
5
248
100
AcDbEntity
8
0
62
256
6
ByLayer
370
-1
48
1
60
0
100
AcDbTrace
10
3.175
20
-32.557109
30
0
11
3.175
21
-33.615442
31
0
12
0
22
-33.086276
32
0
13
0
23
-33.086276
33
0
39
0
210
0
220
0
230
1
0
SOLID
5
249
100
AcDbEntity
8
0
62
256
6
ByLayer
370
-1
48
1
60
0
100
AcDbTrace
10
26.825
20
-33.615442
30
0
11
26.825
21
-32.557109
31
0
12
30
22
-33.086276
32
0
13
30
23
-33.086276
33
0
39
0
210
0
220
0
230
1
0
MTEXT
5
24A
100
AcDbEntity
8
0
62
256
6
ByLayer
370
18
48
1
60
0
100
AcDbMText
10
15
20
-26.458463
30
0
210
0
220
0
230
1
1
\A1;30
40
3.175
41
0
44
1
50
0
71
5
72
5
7
iso-1
0
POINT
5
24B
100
AcDbEntity
8
Defpoints
62
0
6
ByLayer
370
-1
48
1
60
0
100
AcDbPoint
10
0
20
0
30
0
39
0
210
0
220
0
230
1
50
360
0
POINT
5
24C
100
AcDbEntity
8
Defpoints
62
0
6
ByLayer
370
-1
48
1
60
0
100
AcDbPoint
10
30
20
-10
30
0
39
0
210
0
220
0
230
1
50
360
0
POINT
5
24D
100
AcDbEntity
8
Defpoints
62
0
6
ByLayer
370
-1
48
1
60
0
100
AcDbPoint
10
30
20
-33.086276
30
0
39
0
210
0
220
0
230
1
50
360
0
ENDBLK
5
244
100
AcDbEntity
8
0
100
AcDbBlockEnd
0
BLOCK
5
255
100
AcDbEntity
8
0
100
AcDbBlockBegin
2
_U1
70
0
10
0
20
0
30
0
3
_U1
0
MTEXT
5
24F
100
AcDbEntity
8
2
62
256
6
ByLayer
370
13
48
1
60
0
100
AcDbMText
10
13.335966
20
-32.425374
30
0
210
0
220
0
230
1
1
\W0.6474;30
40
3.175
41
0
44
0.963855
50
0
71
7
72
5
7
iso-1
0
LINE
5
250
100
AcDbEntity
8
2
62
256
6
ByLayer
370
13
48
1
60
0
100
AcDbLine
10
0
20
-1.5875
30
0
11
0
21
-36.261276
31
0
39
0
210
0
220
0
230
1
0
LINE
5
251
100
AcDbEntity
8
2
62
256
6
ByLayer
370
13
48
1
60
0
100
AcDbLine
10
30
20
-11.5875
30
0
11
30
21
-36.261276
31
0
39
0
210
0
220
0
230
1
0
LINE
5
252
100
AcDbEntity
8
2
62
256
6
ByLayer
370
13
48
1
60
0
100
AcDbLine
10
0
20
-33.086276
30
0
11
30
21
-33.086276
31
0
39
0
210
0
220
0
230
1
0
SOLID
5
253
100
AcDbEntity
8
2
62
256
6
ByLayer
370
18
48
1
60
0
100
AcDbTrace
10
0
20
-33.086276
30
0
11
3.174998
21
-32.668279
31
0
12
3.175002
22
-33.504272
32
0
13
3.175002
23
-33.504272
33
0
39
0
210
0
220
0
230
1
0
SOLID
5
254
100
AcDbEntity
8
2
62
256
6
ByLayer
370
18
48
1
60
0
100
AcDbTrace
10
30
20
-33.086276
30
0
11
26.825002
21
-33.504272
31
0
12
26.824998
22
-32.668279
32
0
13
26.824998
23
-32.668279
33
0
39
0
210
0
220
0
230
1
0
ENDBLK
5
256
100
AcDbEntity
8
0
100
AcDbBlockEnd
0
BLOCK
5
25B
100
AcDbEntity
8
0
100
AcDbBlockBegin
2
*D5
70
1
10
0
20
0
30
0
3
*D5
0
LINE
5
25D
100
AcDbEntity
8
0
62
256
6
ByLayer
370
-2
48
1
60
0
100
AcDbLine
10
0
20
1.5875
30
0
11
0
21
38.202312
31
0
39
0
210
0
220
0
230
1
0
LINE
5
25E
100
AcDbEntity
8
0
62
256
6
ByLayer
370
-2
48
1
60
0
100
AcDbLine
10
23
20
28.5875
30
0
11
23
21
38.202312
31
0
39
0
210
0
220
0
230
1
0
LINE
5
25F
100
AcDbEntity
8
0
62
256
6
ByLayer
370
-2
48
1
60
0
100
AcDbLine
10
3.175
20
35.027312
30
0
11
19.825
21
35.027312
31
0
39
0
210
0
220
0
230
1
0
SOLID
5
260
100
AcDbEntity
8
0
62
256
6
ByLayer
370
-1
48
1
60
0
100
AcDbTrace
10
3.175
20
35.556478
30
0
11
3.175
21
34.498145
31
0
12
0
22
35.027312
32
0
13
0
23
35.027312
33
0
39
0
210
0
220
0
230
1
0
SOLID
5
261
100
AcDbEntity
8
0
62
256
6
ByLayer
370
-1
48
1
60
0
100
AcDbTrace
10
19.825
20
34.498145
30
0
11
19.825
21
35.556478
31
0
12
23
22
35.027312
32
0
13
23
23
35.027312
33
0
39
0
210
0
220
0
230
1
0
MTEXT
5
262
100
AcDbEntity
8
0
62
256
6
ByLayer
370
18
48
1
60
0
100
AcDbMText
10
11.5
20
41.655124
30
0
210
0
220
0
230
1
1
\A1;23
40
3.175
41
0
44
1
50
0
71
5
72
5
7
iso-1
0
POINT
5
263
100
AcDbEntity
8
Defpoints
62
0
6
ByLayer
370
-1
48
1
60
0
100
AcDbPoint
10
0
20
0
30
0
39
0
210
0
220
0
230
1
50
360
0
POINT
5
264
100
AcDbEntity
8
Defpoints
62
0
6
ByLayer
370
-1
48
1
60
0
100
AcDbPoint
10
23
20
27
30
0
39
0
210
0
220
0
230
1
50
360
0
POINT
5
265
100
AcDbEntity
8
Defpoints
62
0
6
ByLayer
370
-1
48
1
60
0
100
AcDbPoint
10
23
20
35.027312
30
0
39
0
210
0
220
0
230
1
50
360
0
ENDBLK
5
25C
100
AcDbEntity
8
0
100
AcDbBlockEnd
0
BLOCK
5
26D
100
AcDbEntity
8
0
100
AcDbBlockBegin
2
_U2
70
0
10
0
20
0
30
0
3
_U2
0
MTEXT
5
267
100
AcDbEntity
8
2
62
256
6
ByLayer
370
13
48
1
60
0
100
AcDbMText
10
9.835966
20
35.688213
30
0
210
0
220
0
230
1
1
\W0.6474;23
40
3.175
41
0
44
0.963855
50
0
71
7
72
5
7
iso-1
0
LINE
5
268
100
AcDbEntity
8
2
62
256
6
ByLayer
370
13
48
1
60
0
100
AcDbLine
10
0
20
1.5875
30
0
11
0
21
38.202312
31
0
39
0
210
0
220
0
230
1
0
LINE
5
269
100
AcDbEntity
8
2
62
256
6
ByLayer
370
13
48
1
60
0
100
AcDbLine
10
23
20
28.5875
30
0
11
23
21
38.202312
31
0
39
0
210
0
220
0
230
1
0
LINE
5
26A
100
AcDbEntity
8
2
62
256
6
ByLayer
370
13
48
1
60
0
100
AcDbLine
10
0
20
35.027312
30
0
11
23
21
35.027312
31
0
39
0
210
0
220
0
230
1
0
SOLID
5
26B
100
AcDbEntity
8
2
62
256
6
ByLayer
370
18
48
1
60
0
100
AcDbTrace
10
0
20
35.027312
30
0
11
3.174998
21
35.445308
31
0
12
3.175002
22
34.609315
32
0
13
3.175002
23
34.609315
33
0
39
0
210
0
220
0
230
1
0
SOLID
5
26C
100
AcDbEntity
8
2
62
256
6
ByLayer
370
18
48
1
60
0
100
AcDbTrace
10
23
20
35.027312
30
0
11
19.825002
21
34.609315
31
0
12
19.824998
22
35.445308
32
0
13
19.824998
23
35.445308
33
0
39
0
210
0
220
0
230
1
0
ENDBLK
5
26E
100
AcDbEntity
8
0
100
AcDbBlockEnd
0
BLOCK
5
273
100
AcDbEntity
8
0
100
AcDbBlockBegin
2
*D7
70
1
10
0
20
0
30
0
3
*D7
0
LINE
5
275
100
AcDbEntity
8
0
62
256
6
ByLayer
370
-2
48
1
60
0
100
AcDbLine
10
-1.0675
20
-20
30
0
11
-18.575432
21
-20
31
0
39
0
210
0
220
0
230
1
0
LINE
5
276
100
AcDbEntity
8
0
62
256
6
ByLayer
370
-2
48
1
60
0
100
AcDbLine
10
-1.0675
20
20
30
0
11
-18.575432
21
20
31
0
39
0
210
0
220
0
230
1
0
LINE
5
277
100
AcDbEntity
8
0
62
256
6
ByLayer
370
-2
48
1
60
0
100
AcDbLine
10
-15.400432
20
-16.825
30
0
11
-15.400432
21
16.825
31
0
39
0
210
0
220
0
230
1
0
SOLID
5
278
100
AcDbEntity
8
0
62
256
6
ByLayer
370
-1
48
1
60
0
100
AcDbTrace
10
-15.929598
20
-16.825
30
0
11
-14.871265
21
-16.825
31
0
12
-15.400432
22
-20
32
0
13
-15.400432
23
-20
33
0
39
0
210
0
220
0
230
1
0
SOLID
5
279
100
AcDbEntity
8
0
62
256
6
ByLayer
370
-1
48
1
60
0
100
AcDbTrace
10
-14.871265
20
16.825
30
0
11
-15.929598
21
16.825
31
0
12
-15.400432
22
20
32
0
13
-15.400432
23
20
33
0
39
0
210
0
220
0
230
1
0
MTEXT
5
27A
100
AcDbEntity
8
0
62
256
6
ByLayer
370
18
48
1
60
0
100
AcDbMText
10
-22.028244
20
0
30
0
210
0
220
0
230
1
1
\A1;40
40
3.175
41
0
44
1
50
90
71
5
72
5
7
iso-1
0
POINT
5
27B
100
AcDbEntity
8
Defpoints
62
0
6
ByLayer
370
-1
48
1
60
0
100
AcDbPoint
10
0.52
20
-20
30
0
39
0
210
0
220
0
230
1
50
360
0
POINT
5
27C
100
AcDbEntity
8
Defpoints
62
0
6
ByLayer
370
-1
48
1
60
0
100
AcDbPoint
10
0.52
20
20
30
0
39
0
210
0
220
0
230
1
50
360
0
POINT
5
27D
100
AcDbEntity
8
Defpoints
62
0
6
ByLayer
370
-1
48
1
60
0
100
AcDbPoint
10
-15.400432
20
20
30
0
39
0
210
0
220
0
230
1
50
360
0
ENDBLK
5
274
100
AcDbEntity
8
0
100
AcDbBlockEnd
0
BLOCK
5
287
100
AcDbEntity
8
0
100
AcDbBlockBegin
2
_U3
70
0
10
0
20
0
30
0
3
_U3
0
MTEXT
5
280
100
AcDbEntity
8
SK2
62
256
6
ByLayer
370
13
48
1
60
0
100
AcDbMText
10
-16.543933
20
2.492375
30
0
210
0
220
0
230
1
1
\W0.7183;40
40
3.175
41
0
44
0.963855
50
90
71
7
72
5
7
iso-1
0
MTEXT
5
281
100
AcDbEntity
8
SK2
62
256
6
ByLayer
370
13
48
1
60
0
100
AcDbMText
10
-16.543933
20
-6.238875
30
0
210
0
220
0
230
1
1
%%c
40
3.175
41
0
44
0.963855
50
90
71
7
72
5
7
iso-1
0
LINE
5
282
100
AcDbEntity
8
SK2
62
256
6
ByLayer
370
13
48
1
60
0
100
AcDbLine
10
-1.0675
20
-20
30
0
11
-18.575432
21
-20
31
0
39
0
210
0
220
0
230
1
0
LINE
5
283
100
AcDbEntity
8
SK2
62
256
6
ByLayer
370
13
48
1
60
0
100
AcDbLine
10
-1.0675
20
20
30
0
11
-18.575432
21
20
31
0
39
0
210
0
220
0
230
1
0
LINE
5
284
100
AcDbEntity
8
SK2
62
256
6
ByLayer
370
13
48
1
60
0
100
AcDbLine
10
-15.400432
20
-20
30
0
11
-15.400432
21
20
31
0
39
0
210
0
220
0
230
1
0
SOLID
5
285
100
AcDbEntity
8
SK2
62
256
6
ByLayer
370
18
48
1
60
0
100
AcDbTrace
10
-15.400432
20
-20
30
0
11
-15.818428
21
-16.825002
31
0
12
-14.982435
22
-16.824998
32
0
13
-14.982435
23
-16.824998
33
0
39
0
210
0
220
0
230
1
0
SOLID
5
286
100
AcDbEntity
8
SK2
62
256
6
ByLayer
370
18
48
1
60
0
100
AcDbTrace
10
-15.400432
20
20
30
0
11
-14.982435
21
16.825002
31
0
12
-15.818428
22
16.824998
32
0
13
-15.818428
23
16.824998
33
0
39
0
210
0
220
0
230
1
0
ENDBLK
5
288
100
AcDbEntity
8
0
100
AcDbBlockEnd
0
ENDSEC
0
SECTION
2
ENTITIES
0
ARC
5
156
100
AcDbEntity
8
1
62
256
6
ByLayer
370
18
48
1
60
0
100
AcDbCircle
39
0
10
17.919927
20
-26.697693
30
0
40
9.5
210
0
220
0
230
1
100
AcDbArc
50
75.462197
51
96.97729
0
ARC
5
157
100
AcDbEntity
8
1
62
256
6
ByLayer
370
18
48
1
60
0
100
AcDbCircle
39
0
10
-22.25
20
-10
30
0
40
7.75
210
0
220
0
230
-1
100
AcDbArc
50
283.948627
51
284.537803
0
ARC
5
158
100
AcDbEntity
8
1
62
256
6
ByLayer
370
18
48
1
60
0
100
AcDbCircle
39
0
10
-22.25
20
-10
30
0
40
7.75
210
0
220
0
230
-1
100
AcDbArc
50
180
51
283.948627
0
ARC
5
159
100
AcDbEntity
8
1
62
256
6
ByLayer
370
18
48
1
60
0
100
AcDbCircle
39
0
10
-22.25
20
-10
30
0
40
6.74999999999995
210
0
220
0
230
-1
100
AcDbArc
50
180
51
207.57401
0
ARC
5
15A
100
AcDbEntity
8
1
62
256
6
ByLayer
370
18
48
1
60
0
100
AcDbCircle
39
0
10
-22.25
20
-10
30
0
40
6.75000000000007
210
0
220
0
230
-1
100
AcDbArc
50
207.57401
51
284.537803
0
ARC
5
15B
100
AcDbEntity
8
1
62
256
6
ByLayer
370
18
48
1
60
0
100
AcDbCircle
39
0
10
-17.919927
20
-26.697693
30
0
40
10.4999999999915
210
0
220
0
230
-1
100
AcDbArc
50
81.78493
51
104.537803
0
ARC
5
15C
100
AcDbEntity
8
1
62
256
6
ByLayer
370
18
48
1
60
0
100
AcDbCircle
39
0
10
17.850805
20
-27.711849
30
0
40
10.5
210
0
220
0
230
1
100
AcDbArc
50
76.051373
51
95.930597
0
ELLIPSE
5
15D
100
AcDbEntity
8
1
62
256
6
ByLayer
370
18
48
1
60
0
100
AcDbEllipse
10
12.625792
20
-0.000256
30
0
11
-23.2533887369324
21
0.0018980036652081
31
0
210
0
220
0
230
1
40
0.963786
41
1.01057498807326
42
1.01852551495189
0
ELLIPSE
5
15E
100
AcDbEntity
8
1
62
256
6
ByLayer
370
18
48
1
60
0
100
AcDbEllipse
10
8.933839
20
0
30
0
11
-0.0224632116785232
21
19.9999999926285
31
0
210
0
220
0
230
1
40
0.024147
41
0.0792044733599682
42
0.941952141834457
0
ELLIPSE
5
15F
100
AcDbEntity
8
1
62
256
6
ByLayer
370
18
48
1
60
0
100
AcDbEllipse
10
18.37046
20
11.115213
30
0
11
8.42660291620564
21
4.3866118238383
31
0
210
0
220
0
230
1
40
0.99863
41
2.66218858322472
42
3.09858081700054
0
ELLIPSE
5
160
100
AcDbEntity
8
1
62
256
6
ByLayer
370
18
48
1
60
0
100
AcDbEllipse
10
9.872943
20
11.105675
30
0
11
0.999999999999886
21
0
31
0
210
0
220
0
230
1
40
0.046436
41
-3.11742424559832
42
-1.54662791880334
0
ELLIPSE
5
161
100
AcDbEntity
8
1
62
256
6
ByLayer
370
18
48
1
60
0
100
AcDbEllipse
10
9.872943
20
16.893741
30
0
11
-0.999924016575805
21
4.17025756773665
31
0
210
0
220
0
230
1
40
0.002956
41
-1.19387318456173
42
-0.738790587740797
0
ELLIPSE
5
162
100
AcDbEntity
8
1
62
256
6
ByLayer
370
18
48
1
60
0
100
AcDbEllipse
10
13.957293
20
0
30
0
11
-4.8091309855209
21
19.9999122296765
31
0
210
0
220
0
230
1
40
0.012311
41
-0.00296033966750635
42
0.0431582552014997
0
ELLIPSE
5
163
100
AcDbEntity
8
1
62
256
6
ByLayer
370
18
48
1
60
0
100
AcDbEllipse
10
13.957293
20
0
30
0
11
-4.80913101780795
21
19.999912363809
31
0
210
0
220
0
230
1
40
0.012311
41
-0.455044749393171
42
-0.00296033965755042
0
ELLIPSE
5
164
100
AcDbEntity
8
1
62
256
6
ByLayer
370
18
48
1
60
0
100
AcDbEllipse
10
19.633973
20
0
30
0
11
-6.3463745363701
21
19.8250473512585
31
0
210
0
220
0
230
1
40
0.415923
41
1.02578280360309
42
1.49681237829763
0
ELLIPSE
5
165
100
AcDbEntity
8
1
62
256
6
ByLayer
370
18
48
1
60
0
100
AcDbEllipse
10
18.394626
20
11.068791
30
0
11
7.53959208201782
21
3.92486321249199
31
0
210
0
220
0
230
1
40
0.99863
41
2.66218858299909
42
-2.0502003973856
0
ELLIPSE
5
166
100
AcDbEntity
8
1
62
256
6
ByLayer
370
18
48
1
60
0
100
AcDbEllipse
10
14.19701
20
10.429992
30
0
11
3.28194008185712
21
1.70846987065553
31
0
210
0
220
0
230
1
40
0.99863
41
2.66162868386809
42
3.1415926530737
0
ELLIPSE
5
167
100
AcDbEntity
8
1
62
256
6
ByLayer
370
18
48
1
60
0
100
AcDbEllipse
10
14.197013
20
10.429987
30
0
11
3.28194008293835
21
1.70846986863732
31
0
210
0
220
0
230
1
40
0.99863
41
2.66162710939356
42
-3.14159265348799
0
ELLIPSE
5
168
100
AcDbEntity
8
1
62
256
6
ByLayer
370
18
48
1
60
0
100
AcDbEllipse
10
14.19701
20
10.429992
30
0
11
3.28194008272146
21
1.70846986904338
31
0
210
0
220
0
230
1
40
0.99863
41
3.14159265358979
42
-2.05076187111579
0
ELLIPSE
5
169
100
AcDbEntity
8
1
62
256
6
ByLayer
370
18
48
1
60
0
100
AcDbEllipse
10
14.209096
20
10.406775
30
0
11
2.83843466630629
21
1.4775955620994
31
0
210
0
220
0
230
1
40
0.99863
41
2.6616271093812
42
3.14159265358979
0
ELLIPSE
5
16A
100
AcDbEntity
8
1
62
256
6
ByLayer
370
18
48
1
60
0
100
AcDbEllipse
10
20.700089
20
-0.151924
30
0
11
10.9999999999997
21
0
31
0
210
0
220
0
230
1
40
0.267949
41
-2.63843753685599
42
-1.792979195116
0
ELLIPSE
5
16B
100
AcDbEntity
8
1
62
256
6
ByLayer
370
18
48
1
60
0
100
AcDbEllipse
10
14.344423
20
10.146815
30
0
11
2.83843466578603
21
1.47759556307138
31
0
210
0
220
0
230
1
40
0.99863
41
2.66162710903621
42
3.09572078761688
0
ELLIPSE
5
16C
100
AcDbEntity
8
1
62
256
6
ByLayer
370
18
48
1
60
0
100
AcDbEllipse
10
14.110426
20
19.062379
30
0
11
-3.99213578730633
21
2.4209566605804
31
0
210
0
220
0
230
1
40
0.950153
41
1.39531203584805
42
1.42396965688466
0
ELLIPSE
5
16D
100
AcDbEntity
8
1
62
256
6
ByLayer
370
18
48
1
60
0
100
AcDbEllipse
10
14.04298
20
19.191944
30
0
11
3.99154874930003
21
2.07786875956148
31
0
210
0
220
0
230
1
40
0.99863
41
-2.71977795362348
42
-1.51194731793672
0
ELLIPSE
5
16E
100
AcDbEntity
8
1
62
256
6
ByLayer
370
18
48
1
60
0
100
AcDbEllipse
10
102.085159
20
0
30
0
11
88.5014170303474
21
13.2397184023216
31
0
210
0
220
0
230
1
40
0.169379
41
3.01669355519039
42
-2.9118594076992
0
ELLIPSE
5
16F
100
AcDbEntity
8
1
62
256
6
ByLayer
370
18
48
1
60
0
100
AcDbEllipse
10
20.700089
20
1.479019
30
0
11
6.34808018346297
21
12.9371067251512
31
0
210
0
220
0
230
1
40
0.694392
41
3.1011268745189
42
-2.74860450184415
0
ELLIPSE
5
170
100
AcDbEntity
8
1
62
256
6
ByLayer
370
18
48
1
60
0
100
AcDbEllipse
10
18.37046
20
2.624383
30
0
11
-0.00112250498916196
21
0.999999370195546
31
0
210
0
220
0
230
1
40
0.02414
41
-2.19629457681031
42
-1.61726270363594
0
ELLIPSE
5
171
100
AcDbEntity
8
1
62
256
6
ByLayer
370
18
48
1
60
0
100
AcDbEllipse
10
22.512174
20
15.900862
30
0
11
2.72312325785634
21
1.41756824263308
31
0
210
0
220
0
230
1
40
0.99863
41
0
42
6.28318530717959
0
ELLIPSE
5
172
100
AcDbEntity
8
1
62
256
6
ByLayer
370
18
48
1
60
0
100
AcDbEllipse
10
22.532511
20
15.861794
30
0
11
2.67092460792261
21
1.39039534539296
31
0
210
0
220
0
230
1
40
0.99863
41
0
42
6.28318530717959
0
ELLIPSE
5
173
100
AcDbEntity
8
1
62
256
6
ByLayer
370
18
48
1
60
0
100
AcDbEllipse
10
22.539773
20
15.847844
30
0
11
2.55744552888551
21
1.33132187591894
31
0
210
0
220
0
230
1
40
0.99863
41
0
42
6.28318530717959
0
ELLIPSE
5
174
100
AcDbEntity
8
1
62
256
6
ByLayer
370
18
48
1
60
0
100
AcDbEllipse
10
22.519093
20
15.887571
30
0
11
2.32840343709219
21
1.2120901097432
31
0
210
0
220
0
230
1
40
0.99863
41
0
42
3.14159265358979
0
ELLIPSE
5
175
100
AcDbEntity
8
1
62
256
6
ByLayer
370
18
48
1
60
0
100
AcDbEllipse
10
22.519093
20
15.887571
30
0
11
2.3284034370798
21
1.21209010976732
31
0
210
0
220
0
230
1
40
0.99863
41
3.14159265358979
42
-2.05076187110422
0
ELLIPSE
5
176
100
AcDbEntity
8
1
62
256
6
ByLayer
370
18
48
1
60
0
100
AcDbEllipse
10
22.512437
20
15.900357
30
0
11
1.59661949972176
21
0.83114750382121
31
0
210
0
220
0
230
1
40
0.99863
41
0
42
6.28318530717959
0
ELLIPSE
5
177
100
AcDbEntity
8
1
62
256
6
ByLayer
370
18
48
1
60
0
100
AcDbEllipse
10
22.512437
20
15.900357
30
0
11
1.48707366190857
21
0.774121549927122
31
0
210
0
220
0
230
1
40
0.99863
41
2.13523778612082
42
-3.09516887449987
0
ELLIPSE
5
178
100
AcDbEntity
8
1
62
256
6
ByLayer
370
18
48
1
60
0
100
AcDbEllipse
10
22.49172
20
5.337026
30
0
11
1.41921733129828
21
0.738797784518455
31
0
210
0
220
0
230
1
40
0.99863
41
2.6616271069196
42
3.14159265122445
0
ELLIPSE
5
179
100
AcDbEntity
8
1
62
256
6
ByLayer
370
18
48
1
60
0
100
AcDbEllipse
10
22.639133
20
5.053848
30
0
11
1.41921733416992
21
0.73879777913585
31
0
210
0
220
0
230
1
40
0.99863
41
2.66162711073655
42
3.04152339617536
0
ELLIPSE
5
17A
100
AcDbEntity
8
1
62
256
6
ByLayer
370
18
48
1
60
0
100
AcDbEllipse
10
21.349757
20
15.13869
30
0
11
0.25900716333203
21
0.134830594981065
31
0
210
0
220
0
230
1
40
0.99863
41
1.87036577469415
42
3.02954916169119
0
ELLIPSE
5
17B
100
AcDbEntity
8
1
62
256
6
ByLayer
370
18
48
1
60
0
100
AcDbEllipse
10
21.350538
20
16.528376
30
0
11
0.25900716328858
21
0.134830595063591
31
0
210
0
220
0
230
1
40
0.99863
41
0.829043640637286
42
3.04857507076093
0
ELLIPSE
5
17C
100
AcDbEntity
8
1
62
256
6
ByLayer
370
18
48
1
60
0
100
AcDbEllipse
10
22.512437
20
15.900357
30
0
11
1.48707366177228
21
0.774121550187605
31
0
210
0
220
0
230
1
40
0.99863
41
-3.09516887467496
42
-2.05076187115989
0
ELLIPSE
5
17D
100
AcDbEntity
8
1
62
256
6
ByLayer
370
18
48
1
60
0
100
AcDbEllipse
10
22.512437
20
15.900357
30
0
11
1.48707366183147
21
0.774121550072867
31
0
210
0
220
0
230
1
40
0.99863
41
1.09083078250702
42
2.13523778602226
0
ELLIPSE
5
17E
100
AcDbEntity
8
1
62
256
6
ByLayer
370
18
48
1
60
0
100
AcDbEllipse
10
20.662864
20
15.833147
30
0
11
0.60848943196866
21
0.31675954790168
31
0
210
0
220
0
230
1
40
0.99863
41
-1.27122687793831
42
-0.60157958423641
0
ELLIPSE
5
17F
100
AcDbEntity
8
1
62
256
6
ByLayer
370
18
48
1
60
0
100
AcDbEllipse
10
20.662864
20
15.833147
30
0
11
0.608489433213412
21
0.316759545598363
31
0
210
0
220
0
230
1
40
0.99863
41
-0.358351497980602
42
5.08915495390122E-09
0
ELLIPSE
5
180
100
AcDbEntity
8
1
62
256
6
ByLayer
370
18
48
1
60
0
100
AcDbEllipse
10
22.518994
20
15.88776
30
0
11
1.07017882377661
21
0.557099221900561
31
0
210
0
220
0
230
1
40
0.99863
41
2.59259492589854
42
2.73066019251306
0
ELLIPSE
5
181
100
AcDbEntity
8
1
62
256
6
ByLayer
370
18
48
1
60
0
100
AcDbEllipse
10
22.546873
20
15.834205
30
0
11
1.07017882377661
21
0.557099221900561
31
0
210
0
220
0
230
1
40
0.99863
41
2.59259492589854
42
2.73066019251306
0
ELLIPSE
5
182
100
AcDbEntity
8
1
62
256
6
ByLayer
370
18
48
1
60
0
100
AcDbEllipse
10
22.546873
20
15.834205
30
0
11
1.07017857029572
21
0.557099701742027
31
0
210
0
220
0
230
1
40
0.99863
41
1.61303428437226
42
2.59259447599727
0
ELLIPSE
5
183
100
AcDbEntity
8
1
62
256
6
ByLayer
370
18
48
1
60
0
100
AcDbEllipse
10
21.604108
20
17.472178
30
0
11
0.608489431518303
21
0.316759548760597
31
0
210
0
220
0
230
1
40
0.99863
41
-2.31254901308982
42
-1.52855836946938
0
ELLIPSE
5
184
100
AcDbEntity
8
1
62
256
6
ByLayer
370
18
48
1
60
0
100
AcDbEllipse
10
22.546873
20
15.834205
30
0
11
1.07017857019827
21
0.557099701928653
31
0
210
0
220
0
230
1
40
0.99863
41
0.56862728068244
42
1.61303428419749
0
ELLIPSE
5
185
100
AcDbEntity
8
1
62
256
6
ByLayer
370
18
48
1
60
0
100
AcDbEllipse
10
22.512437
20
15.900357
30
0
11
1.48707366182442
21
0.774121550087505
31
0
210
0
220
0
230
1
40
0.99863
41
-2.05076187109231
42
-1.00635486757742
0
ELLIPSE
5
186
100
AcDbEntity
8
1
62
256
6
ByLayer
370
18
48
1
60
0
100
AcDbEllipse
10
22.512437
20
15.900357
30
0
11
1.48707366182573
21
0.774121550083736
31
0
210
0
220
0
230
1
40
0.99863
41
0.0464237789844139
42
1.09083078249968
0
ELLIPSE
5
187
100
AcDbEntity
8
1
62
256
6
ByLayer
370
18
48
1
60
0
100
AcDbEllipse
10
23.491481
20
17.473238
30
0
11
0.608489432029515
21
0.316759547754431
31
0
210
0
220
0
230
1
40
0.99863
41
-3.14159265208032
42
-2.57296537133681
0
ELLIPSE
5
188
100
AcDbEntity
8
1
62
256
6
ByLayer
370
18
48
1
60
0
100
AcDbEllipse
10
22.546873
20
15.834205
30
0
11
1.0701785702275
21
0.557099701873879
31
0
210
0
220
0
230
1
40
0.99863
41
-0.338121773205675
42
0.568627280733571
0
ELLIPSE
5
189
100
AcDbEntity
8
1
62
256
6
ByLayer
370
18
48
1
60
0
100
AcDbEllipse
10
23.491481
20
17.473238
30
0
11
0.608489431628577
21
0.316759548546812
31
0
210
0
220
0
230
1
40
0.99863
41
-2.572965372634
42
-1.78897472901271
0
ELLIPSE
5
18A
100
AcDbEntity
8
1
62
256
6
ByLayer
370
18
48
1
60
0
100
AcDbEllipse
10
22.512437
20
15.900357
30
0
11
1.48707366176132
21
0.774121550206228
31
0
210
0
220
0
230
1
40
0.99863
41
-1.00635486765751
42
0.0464237789020072
0
ELLIPSE
5
18B
100
AcDbEntity
8
1
62
256
6
ByLayer
370
18
48
1
60
0
100
AcDbEllipse
10
25.318568
20
-0.967654
30
0
11
3.01964344108647
21
0.014133033998395
31
0
210
0
220
0
230
1
40
0.968485
41
0.462378310657475
42
1.55377056686085
0
ELLIPSE
5
18C
100
AcDbEntity
8
1
62
256
6
ByLayer
370
18
48
1
60
0
100
AcDbEllipse
10
25.54868
20
-1.409694
30
0
11
3.54804333271078
21
1.84699445294429
31
0
210
0
220
0
230
1
40
0.99863
41
-0.10928627937829
42
1.09139225620227
0
ELLIPSE
5
18D
100
AcDbEntity
8
1
62
256
6
ByLayer
370
18
48
1
60
0
100
AcDbEllipse
10
25.318568
20
-0.967654
30
0
11
3.01964344131892
21
0.014133035298863
31
0
210
0
220
0
230
1
40
0.968485
41
0.227320334920145
42
0.462378310222431
0
ELLIPSE
5
18E
100
AcDbEntity
8
1
62
256
6
ByLayer
370
18
48
1
60
0
100
AcDbEllipse
10
25.524514
20
-1.363272
30
0
11
2.66103249667158
21
1.38524584485655
31
0
210
0
220
0
230
1
40
0.99863
41
-0.235057977279708
42
-1.96117195751857E-09
0
ELLIPSE
5
18F
100
AcDbEntity
8
1
62
256
6
ByLayer
370
18
48
1
60
0
100
AcDbEllipse
10
29.404563
20
-0.392273
30
0
11
0.970235053817023
21
0.24216510967772
31
0
210
0
220
0
230
1
40
0.050897
41
-3.12938752105484
42
-2.01357599118407
0
ELLIPSE
5
190
100
AcDbEntity
8
1
62
256
6
ByLayer
370
18
48
1
60
0
100
AcDbEllipse
10
12.625847
20
0.00017
30
0
11
23.2534558336276
21
0.00126076656970448
31
0
210
0
220
0
230
1
40
0.963787
41
2.12309456978288
42
2.13104507872989
0
ELLIPSE
5
191
100
AcDbEntity
8
1
62
256
6
ByLayer
370
18
48
1
60
0
100
AcDbEllipse
10
20.700108
20
2.601148
30
0
11
11.000045455478
21
9.95620381235947E-07
31
0
210
0
220
0
230
1
40
0.052275
41
-1.80440052025704
42
-1.79298008324111
0
ELLIPSE
5
192
100
AcDbEntity
8
1
62
256
6
ByLayer
370
18
48
1
60
0
100
AcDbEllipse
10
18.515585
20
10.836431
30
0
11
-9.20829812650133
21
4.48623363409483
31
0
210
0
220
0
230
1
40
0.885152
41
0.874056375281499
42
1.12188046421555
0
ELLIPSE
5
193
100
AcDbEntity
8
1
62
256
6
ByLayer
370
18
48
1
60
0
100
AcDbEllipse
10
18.515585
20
10.836431
30
0
11
-9.20829807163029
21
4.48623368798712
31
0
210
0
220
0
230
1
40
0.885152
41
0.810618764222649
42
0.874056382462101
0
ELLIPSE
5
194
100
AcDbEntity
8
1
62
256
6
ByLayer
370
18
48
1
60
0
100
AcDbEllipse
10
13.9751
20
19.322341
30
0
11
-3.99213740343301
21
2.42095528880644
31
0
210
0
220
0
230
-1
40
0.950153
41
-1.39531160673692
42
-1.23954301451632
0
ELLIPSE
5
195
100
AcDbEntity
8
1
62
256
6
ByLayer
370
18
48
1
60
0
100
AcDbEllipse
10
13.89315
20
19.479764
30
0
11
3.99154874997861
21
2.0778687582471
31
0
210
0
220
0
230
1
40
0.99863
41
3.1394229529278
42
-2.9042041624877
0
ELLIPSE
5
196
100
AcDbEntity
8
1
62
256
6
ByLayer
370
18
48
1
60
0
100
AcDbEllipse
10
14.346839
20
10.142173
30
0
11
2.74973358286686
21
1.4314207010034
31
0
210
0
220
0
230
1
40
0.99863
41
2.66162710930079
42
-2.84529282251175
0
ELLIPSE
5
197
100
AcDbEntity
8
1
62
256
6
ByLayer
370
18
48
1
60
0
100
AcDbEllipse
10
22.641549
20
5.049206
30
0
11
1.33051624960278
21
0.692622920154015
31
0
210
0
220
0
230
1
40
0.99863
41
2.66162710906164
42
-2.93031477611277
0
ELLIPSE
5
198
100
AcDbEntity
8
1
62
256
6
ByLayer
370
18
48
1
60
0
100
AcDbEllipse
10
14.209096
20
10.406775
30
0
11
2.8384346661573
21
1.47759556237747
31
0
210
0
220
0
230
1
40
0.99863
41
3.14159265358979
42
-2.05076187110226
0
ELLIPSE
5
199
100
AcDbEntity
8
1
62
256
6
ByLayer
370
18
48
1
60
0
100
AcDbEllipse
10
14.043705
20
19.190551
30
0
11
3.99154524548066
21
2.07787522692759
31
0
210
0
220
0
230
-1
40
0.99863
41
1.45980118830075
42
1.51194895294513
0
ELLIPSE
5
19A
100
AcDbEntity
8
1
62
256
6
ByLayer
370
18
48
1
60
0
100
AcDbEllipse
10
17.665785
20
15.89814
30
0
11
1.20026083238394
21
0.0654098540858069
31
0
210
0
220
0
230
1
40
0.989715
41
2.61106358754269
42
-2.71994328418298
0
ELLIPSE
5
19B
100
AcDbEntity
8
1
62
256
6
ByLayer
370
18
48
1
60
0
100
AcDbEllipse
10
22.506453
20
5.719617
30
0
11
0.70406484883802
21
0.366512961749853
31
0
210
0
220
0
230
-1
40
0.99863
41
0.959931088589185
42
3.14159265358979
0
ELLIPSE
5
19C
100
AcDbEntity
8
1
62
256
6
ByLayer
370
18
48
1
60
0
100
AcDbEllipse
10
27.358563
20
15.903583
30
0
11
1.20026083238248
21
0.0654098540947945
31
0
210
0
220
0
230
1
40
0.989715
41
-0.530529066054778
42
0.421649369399535
0
ELLIPSE
5
19D
100
AcDbEntity
8
1
62
256
6
ByLayer
370
18
48
1
60
0
100
AcDbEllipse
10
22.517895
20
26.082106
30
0
11
0.704064848837194
21
0.366512961751462
31
0
210
0
220
0
230
1
40
0.99863
41
0
42
2.18166156499842
0
ELLIPSE
5
19E
100
AcDbEntity
8
1
62
256
6
ByLayer
370
18
48
1
60
0
100
AcDbEllipse
10
22.519093
20
15.887571
30
0
11
2.32840343710043
21
1.21209010972746
31
0
210
0
220
0
230
-1
40
0.99863
41
0
42
2.05076187108709
0
ELLIPSE
5
19F
100
AcDbEntity
8
1
62
256
6
ByLayer
370
18
48
1
60
0
100
AcDbEllipse
10
22.546269
20
15.835366
30
0
11
2.32840343709459
21
1.21209010973861
31
0
210
0
220
0
230
1
40
0.99863
41
-2.05076187109189
42
0
0
ELLIPSE
5
1A0
100
AcDbEntity
8
1
62
256
6
ByLayer
370
18
48
1
60
0
100
AcDbEllipse
10
22.546269
20
15.835366
30
0
11
2.32840343706115
21
1.21209010980353
31
0
210
0
220
0
230
1
40
0.99863
41
3.14159265358979
42
-2.05076187111975
0
ELLIPSE
5
1A1
100
AcDbEntity
8
1
62
256
6
ByLayer
370
18
48
1
60
0
100
AcDbEllipse
10
22.49172
20
5.337026
30
0
11
1.41921733309876
21
0.738797781150161
31
0
210
0
220
0
230
1
40
0.99863
41
-1.98822110927851
42
-0.47996554428022
0
ELLIPSE
5
1A2
100
AcDbEntity
8
1
62
256
6
ByLayer
370
18
48
1
60
0
100
AcDbEllipse
10
22.49172
20
5.337026
30
0
11
1.419217333066
21
0.738797781213219
31
0
210
0
220
0
230
1
40
0.99863
41
3.14159265358979
42
-2.113302632916
0
ELLIPSE
5
1A3
100
AcDbEntity
8
1
62
256
6
ByLayer
370
18
48
1
60
0
100
AcDbEllipse
10
22.546873
20
15.834205
30
0
11
1.07017857022914
21
0.557099701858618
31
0
210
0
220
0
230
1
40
0.99863
41
2.73065974270923
42
-2.68501461437471
0
ELLIPSE
5
1A4
100
AcDbEntity
8
1
62
256
6
ByLayer
370
18
48
1
60
0
100
AcDbEllipse
10
21.604108
20
17.472178
30
0
11
0.608489431807541
21
0.316759548208589
31
0
210
0
220
0
230
1
40
0.99863
41
-1.52855836855964
42
-0.744567724940845
0
ELLIPSE
5
1A5
100
AcDbEntity
8
1
62
256
6
ByLayer
370
18
48
1
60
0
100
AcDbEllipse
10
22.547651
20
17.217212
30
0
11
0.259007163291562
21
0.134830595057824
31
0
210
0
220
0
230
-1
40
0.99863
41
-2.39702492790126
42
-0.177234401647245
0
ELLIPSE
5
1A6
100
AcDbEntity
8
1
62
256
6
ByLayer
370
18
48
1
60
0
100
AcDbEllipse
10
22.546873
20
15.834205
30
0
11
1.07017857012384
21
0.557099702072977
31
0
210
0
220
0
230
1
40
0.99863
41
-2.49951009658712
42
-1.70437274187079
0
ELLIPSE
5
1A7
100
AcDbEntity
8
1
62
256
6
ByLayer
370
18
48
1
60
0
100
AcDbEllipse
10
21.602266
20
14.195172
30
0
11
0.608489422529655
21
0.31675956500981
31
0
210
0
220
0
230
-1
40
0.99863
41
2.71568499490023E-08
42
0.215363390112977
0
ELLIPSE
5
1A8
100
AcDbEntity
8
1
62
256
6
ByLayer
370
18
48
1
60
0
100
AcDbEllipse
10
22.546873
20
15.834205
30
0
11
1.07017857019401
21
0.557099701935678
31
0
210
0
220
0
230
1
40
0.99863
41
-1.38115758432182
42
-0.548998177773536
0
ELLIPSE
5
1A9
100
AcDbEntity
8
1
62
256
6
ByLayer
370
18
48
1
60
0
100
AcDbEllipse
10
23.74399
20
16.52972
30
0
11
0.259007163269636
21
0.13483059510032
31
0
210
0
220
0
230
1
40
0.99863
41
0
42
1.35261792422187
0
ELLIPSE
5
1AA
100
AcDbEntity
8
1
62
256
6
ByLayer
370
18
48
1
60
0
100
AcDbEllipse
10
22.518994
20
15.88776
30
0
11
1.07017847426695
21
0.557099883620745
31
0
210
0
220
0
230
1
40
0.99863
41
-0.548998348090994
42
-0.410933081190084
0
ELLIPSE
5
1AB
100
AcDbEntity
8
1
62
256
6
ByLayer
370
18
48
1
60
0
100
AcDbEllipse
10
24.430882
20
15.835263
30
0
11
0.608489427045671
21
0.316759557773821
31
0
210
0
220
0
230
1
40
0.99863
41
3.14159263881194
42
-2.83029687778957
0
ELLIPSE
5
1AC
100
AcDbEntity
8
1
62
256
6
ByLayer
370
18
48
1
60
0
100
AcDbEllipse
10
25.524514
20
2.632413
30
0
11
-0.00112250498675578
21
0.999999370027308
31
0
210
0
220
0
230
1
40
0.02414
41
-2.32346506842555
42
-1.61726270354916
0
ELLIPSE
5
1AD
100
AcDbEntity
8
1
62
256
6
ByLayer
370
18
48
1
60
0
100
AcDbEllipse
10
25.220245
20
7.713181
30
0
11
1.35796886630707
21
3.56954128281303
31
0
210
0
220
0
230
1
40
0.160483
41
0.377297904465628
42
0.526722862159386
0
ELLIPSE
5
1AE
100
AcDbEntity
8
1
62
256
6
ByLayer
370
18
48
1
60
0
100
AcDbEllipse
10
26.367789
20
11.29144
30
0
11
0.105923132283306
21
0.203545445758669
31
0
210
0
220
0
230
1
40
0.022559
41
2.05969717448504
42
2.58329595000798
0
ELLIPSE
5
1AF
100
AcDbEntity
8
1
62
256
6
ByLayer
370
18
48
1
60
0
100
AcDbEllipse
10
27.078179
20
12.65939
30
0
11
0.416405433950742
21
0.800178656384595
31
0
210
0
220
0
230
1
40
0.022559
41
1.01249962319506
42
2.05969717441966
0
POINT
5
70
100
AcDbEntity
8
80
62
256
6
ByLayer
370
18
48
1
60
0
100
AcDbPoint
10
0
20
0
30
0
39
0
210
0
220
0
230
1
50
360
0
POINT
5
72
100
AcDbEntity
8
81
62
256
6
ByLayer
370
18
48
1
60
0
100
AcDbPoint
10
23
20
27
30
0
39
0
210
0
220
0
230
1
50
360
0
SPLINE
5
1B0
100
AcDbEntity
8
1
62
256
6
ByLayer
370
18
48
1
60
0
100
AcDbSpline
70
4
71
1
72
4
73
2
40
0
40
0
40
1
40
1
41
1
10
0.425000000000001
20
4.725
30
0
41
1
10
0.138378406783225
20
4.725
30
0
0
SPLINE
5
1B1
100
AcDbEntity
8
1
62
256
6
ByLayer
370
18
48
1
60
0
100
AcDbSpline
70
4
71
2
72
6
73
3
40
0
40
0
40
0
40
1
40
1
40
1
41
1
10
0.367750000000089
20
-18.5728978049261
30
0
41
1
10
0.407071232962511
20
-18.5977664108557
30
0
41
1
10
0.425
20
-18.6220156259537
30
0
0
SPLINE
5
1B2
100
AcDbEntity
8
1
62
256
6
ByLayer
370
18
48
1
60
0
100
AcDbSpline
70
4
71
2
72
6
73
3
40
0
40
0
40
0
40
1
40
1
40
1
41
1
10
0.367750000000089
20
-17.0728978049261
30
0
41
1
10
0.404784902257408
20
-17.0958653936083
30
0
41
1
10
0.424999999999951
20
-17.1220156259535
30
0
0
SPLINE
5
1B3
100
AcDbEntity
8
1
62
256
6
ByLayer
370
18
48
1
60
0
100
AcDbSpline
70
4
71
2
72
6
73
3
40
0
40
0
40
0
40
1
40
1
40
1
41
1
10
0.367750000000075
20
-15.5728978049261
30
0
41
1
10
0.40357880648727
20
-15.5947161203566
30
0
41
1
10
0.425000000000001
20
-15.6220156259537
30
0
0
SPLINE
5
1B4
100
AcDbEntity
8
1
62
256
6
ByLayer
370
18
48
1
60
0
100
AcDbSpline
70
4
71
2
72
6
73
3
40
0
40
0
40
0
40
1
40
1
40
1
41
1
10
0.367750000000074
20
-14.0728978049261
30
0
41
1
10
0.402806845952412
20
-14.0939841379816
30
0
41
1
10
0.42499999999993
20
-14.1220156259536
30
0
0
SPLINE
5
1B5
100
AcDbEntity
8
1
62
256
6
ByLayer
370
18
48
1
60
0
100
AcDbSpline
70
4
71
2
72
6
73
3
40
0
40
0
40
0
40
1
40
1
40
1
41
1
10
0.367750000000061
20
-12.5728978049261
30
0
41
1
10
0.402285215671731
20
-12.593482616831
30
0
41
1
10
0.425000000000001
20
-12.6220156259537
30
0
0
SPLINE
5
1B6
100
AcDbEntity
8
1
62
256
6
ByLayer
370
18
48
1
60
0
100
AcDbSpline
70
4
71
2
72
6
73
3
40
0
40
0
40
0
40
1
40
1
40
1
41
1
10
0.367750000000062
20
-11.0728978049261
30
0
41
1
10
0.401919480316605
20
-11.0931233503012
30
0
41
1
10
0.424999999999959
20
-11.1220156259537
30
0
0
SPLINE
5
1B7
100
AcDbEntity
8
1
62
256
6
ByLayer
370
18
48
1
60
0
100
AcDbSpline
70
4
71
2
72
6
73
3
40
0
40
0
40
0
40
1
40
1
40
1
41
1
10
0.367750000000051
20
-9.57289780492609
30
0
41
1
10
0.401657736674884
20
-9.59285970996932
30
0
41
1
10
0.424999999999972
20
-9.6220156259537
30
0
0
SPLINE
5
1B8
100
AcDbEntity
8
1
62
256
6
ByLayer
370
18
48
1
60
0
100
AcDbSpline
70
4
71
2
72
6
73
3
40
0
40
0
40
0
40
1
40
1
40
1
41
1
10
0.367750000000051
20
-8.07289780492609
30
0
41
1
10
0.401469478809705
20
-8.09266490608558
30
0
41
1
10
0.424999999999982
20
-8.12201562595372
30
0
0
SPLINE
5
1B9
100
AcDbEntity
8
1
62
256
6
ByLayer
370
18
48
1
60
0
100
AcDbSpline
70
4
71
2
72
6
73
3
40
0
40
0
40
0
40
1
40
1
40
1
41
1
10
0.367750000000044
20
-6.57289780492609
30
0
41
1
10
0.401335787235228
20
-6.59252259215386
30
0
41
1
10
0.425000000000001
20
-6.62201562595375
30
0
0
SPLINE
5
1BA
100
AcDbEntity
8
1
62
256
6
ByLayer
370
18
48
1
60
0
100
AcDbSpline
70
4
71
1
72
4
73
2
40
0
40
0
40
1
40
1
41
1
10
0.367750000000038
20
-5.07289780492609
30
0
41
1
10
0.424999999999998
20
-5.12201562595376
30
0
0
SPLINE
5
1BB
100
AcDbEntity
8
1
62
256
6
ByLayer
370
18
48
1
60
0
100
AcDbSpline
70
4
71
1
72
4
73
2
40
0
40
0
40
1
40
1
41
1
10
0.367750000000029
20
5.4271021950739
30
0
41
1
10
0.425000000000004
20
5.37798437404623
30
0
0
SPLINE
5
1BC
100
AcDbEntity
8
1
62
256
6
ByLayer
370
18
48
1
60
0
100
AcDbSpline
70
4
71
1
72
4
73
2
40
0
40
0
40
1
40
1
41
1
10
0.367750000000034
20
6.92710219507391
30
0
41
1
10
0.425000000000001
20
6.87798437404624
30
0
0
SPLINE
5
1BD
100
AcDbEntity
8
1
62
256
6
ByLayer
370
18
48
1
60
0
100
AcDbSpline
70
4
71
1
72
4
73
2
40
0
40
0
40
1
40
1
41
1
10
0.367750000000045
20
8.4271021950739
30
0
41
1
10
0.424999999999998
20
8.37798437404626
30
0
0
SPLINE
5
1BE
100
AcDbEntity
8
1
62
256
6
ByLayer
370
18
48
1
60
0
100
AcDbSpline
70
4
71
1
72
4
73
2
40
0
40
0
40
1
40
1
41
1
10
0.367750000000053
20
9.92710219507391
30
0
41
1
10
0.424999999999994
20
9.87798437404627
30
0
0
SPLINE
5
1BF
100
AcDbEntity
8
1
62
256
6
ByLayer
370
18
48
1
60
0
100
AcDbSpline
70
4
71
1
72
4
73
2
40
0
40
0
40
1
40
1
41
1
10
0.36775000000007
20
11.4271021950739
30
0
41
1
10
0.424999999999992
20
11.3779843740463
30
0
0
SPLINE
5
1C0
100
AcDbEntity
8
1
62
256
6
ByLayer
370
18
48
1
60
0
100
AcDbSpline
70
4
71
1
72
4
73
2
40
0
40
0
40
1
40
1
41
1
10
0.36775000000008
20
12.9271021950739
30
0
41
1
10
0.424999999999989
20
12.8779843740463
30
0
0
SPLINE
5
1C1
100
AcDbEntity
8
1
62
256
6
ByLayer
370
18
48
1
60
0
100
AcDbSpline
70
4
71
1
72
4
73
2
40
0
40
0
40
1
40
1
41
1
10
0.367750000000102
20
14.4271021950739
30
0
41
1
10
0.424999999999989
20
14.3779843740463
30
0
0
SPLINE
5
1C2
100
AcDbEntity
8
1
62
256
6
ByLayer
370
18
48
1
60
0
100
AcDbSpline
70
4
71
1
72
4
73
2
40
0
40
0
40
1
40
1
41
1
10
0.367750000000115
20
15.9271021950739
30
0
41
1
10
0.42499999999999
20
15.8779843740464
30
0
0
SPLINE
5
1C3
100
AcDbEntity
8
1
62
256
6
ByLayer
370
18
48
1
60
0
100
AcDbSpline
70
4
71
1
72
4
73
2
40
0
40
0
40
1
40
1
41
1
10
0.367750000000143
20
17.4271021950739
30
0
41
1
10
0.425000000000001
20
17.3779843740464
30
0
0
SPLINE
5
1C4
100
AcDbEntity
8
1
62
256
6
ByLayer
370
18
48
1
60
0
100
AcDbSpline
70
4
71
1
72
4
73
2
40
0
40
0
40
1
40
1
41
1
10
0.367750000000127
20
18.9271021950739
30
0
41
1
10
0.425000000000001
20
18.8779843740464
30
0
0
SPLINE
5
1C5
100
AcDbEntity
8
1
62
256
6
ByLayer
370
18
48
1
60
0
100
AcDbSpline
70
4
71
2
72
6
73
3
40
0
40
0
40
0
40
1
40
1
40
1
41
1
10
0.425000000000001
20
-18.6220156259537
30
0
41
1
10
0.514944326084404
20
-18.7563638682503
30
0
41
1
10
0.425000000004149
20
-18.8779843740463
30
0
0
SPLINE
5
1C6
100
AcDbEntity
8
1
62
256
6
ByLayer
370
18
48
1
60
0
100
AcDbSpline
70
4
71
3
72
10
73
6
40
0
40
0
40
0
40
0
40
0.359061305651412
40
0.867425932477952
40
1
40
1
40
1
40
1
41
1
10
0.425000000000001
20
-17.1220156259537
30
0
41
1
10
0.446752840540814
20
-17.1527500114318
30
0
41
1
10
0.480348989667078
20
-17.2264287693495
30
0
41
1
10
0.467338163941934
20
-17.3157056022578
30
0
41
1
10
0.433151694270918
20
-17.3673875752573
30
0
41
1
10
0.425000000000001
20
-17.3779843740463
30
0
0
SPLINE
5
1C7
100
AcDbEntity
8
1
62
256
6
ByLayer
370
18
48
1
60
0
100
AcDbSpline
70
4
71
3
72
10
73
6
40
0
40
0
40
0
40
0
40
0.323227259655573
40
0.74015537456473
40
1
40
1
40
1
40
1
41
1
10
0.425000000000001
20
-15.6220156259537
30
0
41
1
10
0.444621850345643
20
-15.6489976224125
30
0
41
1
10
0.475041139791281
20
-15.7110558175734
30
0
41
1
10
0.470861735240226
20
-15.8017944818298
30
0
41
1
10
0.440664987869796
20
-15.8570776758767
30
0
41
1
10
0.425
20
-15.8779843740463
30
0
0
SPLINE
5
1C8
100
AcDbEntity
8
1
62
256
6
ByLayer
370
18
48
1
60
0
100
AcDbSpline
70
4
71
3
72
11
73
7
40
0
40
0
40
0
40
0
40
0.273791133051781
40
0.573898452780748
40
0.934979199520175
40
1
40
1
40
1
40
1
41
1
10
0.425000000000001
20
-14.1220156259537
30
0
41
1
10
0.441674635676618
20
-14.1442236360773
30
0
41
1
10
0.467070127545911
20
-14.1918517250732
30
0
41
1
10
0.474576170186943
20
-14.2759099531616
30
0
41
1
10
0.453312394032467
20
-14.3397269075467
30
0
41
1
10
0.42897300723262
20
-14.372970478379
30
0
41
1
10
0.425000000000022
20
-14.3779843740463
30
0
0
SPLINE
5
1C9
100
AcDbEntity
8
1
62
256
6
ByLayer
370
18
48
1
60
0
100
AcDbSpline
70
4
71
3
72
11
73
7
40
0
40
0
40
0
40
0
40
0.299595782973105
40
0.58544472064968
40
0.914665863363442
40
1
40
1
40
1
40
1
41
1
10
0.425000000000001
20
-12.6220156259537
30
0
41
1
10
0.443134448000735
20
-12.6461202234496
30
0
41
1
10
0.467954170875
20
-12.6945829157901
30
0
41
1
10
0.473687377780347
20
-12.7776084197
30
0
41
1
10
0.453038308089223
20
-12.8393184399721
30
0
41
1
10
0.430150566952355
20
-12.871480888494
30
0
41
1
10
0.425000000000071
20
-12.8779843740463
30
0
0
SPLINE
5
1CA
100
AcDbEntity
8
1
62
256
6
ByLayer
370
18
48
1
60
0
100
AcDbSpline
70
4
71
3
72
11
73
7
40
0
40
0
40
0
40
0
40
0.320668788292145
40
0.596253429731612
40
0.902624315132046
40
1
40
1
40
1
40
1
41
1
10
0.425000000000001
20
-11.1220156259537
30
0
41
1
10
0.444341510955101
20
-11.1476709951157
30
0
41
1
10
0.468753680201938
20
-11.1969694545238
30
0
41
1
10
0.472954859519806
20
-11.2796008728619
30
0
41
1
10
0.452611813668268
20
-11.3395044450394
30
0
41
1
10
0.430819860278433
20
-11.3706450872338
30
0
41
1
10
0.425000000000086
20
-11.3779843740463
30
0
0
SPLINE
5
1CB
100
AcDbEntity
8
1
62
256
6
ByLayer
370
18
48
1
60
0
100
AcDbSpline
70
4
71
3
72
11
73
7
40
0
40
0
40
0
40
0
40
0.268426852783633
40
0.536142882768767
40
0.822997402856571
40
1
40
1
40
1
40
1
41
1
10
0.425000000000001
20
-9.62201562595374
30
0
41
1
10
0.441129850274898
20
-9.64296629751169
30
0
41
1
10
0.464675037388319
20
-9.68655328727374
30
0
41
1
10
0.474323327840919
20
-9.76206065950599
30
0
41
1
10
0.458281310836901
20
-9.82808275412174
30
0
41
1
10
0.435536720033094
20
-9.8645748740938
30
0
41
1
10
0.425
20
-9.87798437404626
30
0
0
SPLINE
5
1CC
100
AcDbEntity
8
1
62
256
6
ByLayer
370
18
48
1
60
0
100
AcDbSpline
70
4
71
3
72
11
73
7
40
0
40
0
40
0
40
0
40
0.262300940467452
40
0.524106489879756
40
0.798370606561296
40
1
40
1
40
1
40
1
41
1
10
0.425000000000001
20
-8.12201562595374
30
0
41
1
10
0.440698827995158
20
-8.14226613710632
30
0
41
1
10
0.463816400455984
20
-8.18460590562494
30
0
41
1
10
0.474282315996012
20
-8.25810388810568
30
0
41
1
10
0.459532874279748
20
-8.32519339670618
30
0
41
1
10
0.436965648664661
20
-8.36275315928242
30
0
41
1
10
0.425
20
-8.37798437404626
30
0
0
SPLINE
5
1CD
100
AcDbEntity
8
1
62
256
6
ByLayer
370
18
48
1
60
0
100
AcDbSpline
70
4
71
3
72
11
73
7
40
0
40
0
40
0
40
0
40
0.257630923897985
40
0.514937679228876
40
0.779989376279897
40
1
40
1
40
1
40
1
41
1
10
0.425000000000001
20
-6.62201562595375
30
0
41
1
10
0.440363223156043
20
-6.641725769495
30
0
41
1
10
0.463141103460148
20
-6.68310486180467
30
0
41
1
10
0.474212072187391
20
-6.75508407760448
30
0
41
1
10
0.460460829143347
20
-6.8230217220851
30
0
41
1
10
0.438032526542034
20
-6.86140126454694
30
0
41
1
10
0.425000000000002
20
-6.87798437404625
30
0
0
SPLINE
5
1CE
100
AcDbEntity
8
1
62
256
6
ByLayer
370
18
48
1
60
0
100
AcDbSpline
70
4
71
3
72
11
73
7
40
0
40
0
40
0
40
0
40
0.254150603132819
40
0.508108220615797
40
0.766512423956292
40
1
40
1
40
1
40
1
41
1
10
0.425000000000001
20
-5.12201562595376
30
0
41
1
10
0.440108461948196
20
-5.141318342137
30
0
41
1
10
0.462624634407996
20
-5.18197435453655
30
0
41
1
10
0.474137488831545
20
-5.25282670341189
30
0
41
1
10
0.461139675050613
20
-5.32141888978674
30
0
41
1
10
0.438816472711839
20
-5.36041380153344
30
0
41
1
10
0.425
20
-5.37798437404624
30
0
0
SPLINE
5
1CF
100
AcDbEntity
8
1
62
256
6
ByLayer
370
18
48
1
60
0
100
AcDbSpline
70
4
71
3
72
11
73
7
40
0
40
0
40
0
40
0
40
0.255438862433937
40
0.510700785736606
40
0.769819072668927
40
1
40
1
40
1
40
1
41
1
10
0.425000000000001
20
5.37798437404623
30
0
41
1
10
0.440154341531964
20
5.35863464292564
30
0
41
1
10
0.462710304847239
20
5.31784647968561
30
0
41
1
10
0.474165670073554
20
5.24674100113176
30
0
41
1
10
0.460979845976603
20
5.17820374513749
30
0
41
1
10
0.438646227741554
20
5.13937305057233
30
0
41
1
10
0.425000000000001
20
5.12201562595377
30
0
0
SPLINE
5
1D0
100
AcDbEntity
8
1
62
256
6
ByLayer
370
18
48
1
60
0
100
AcDbSpline
70
4
71
3
72
11
73
7
40
0
40
0
40
0
40
0
40
0.259426069937423
40
0.518550375300799
40
0.784565529271517
40
1
40
1
40
1
40
1
41
1
10
0.425000000000001
20
6.87798437404624
30
0
41
1
10
0.440427505929781
20
6.85820828812036
30
0
41
1
10
0.46325984569008
20
6.81664414394949
30
0
41
1
10
0.474245338367491
20
6.74431196160429
30
0
41
1
10
0.46023335494983
20
6.67644902160292
30
0
41
1
10
0.437795056365349
20
6.63829924741245
30
0
41
1
10
0.425000000000002
20
6.62201562595376
30
0
0
SPLINE
5
1D1
100
AcDbEntity
8
1
62
256
6
ByLayer
370
18
48
1
60
0
100
AcDbSpline
70
4
71
3
72
11
73
7
40
0
40
0
40
0
40
0
40
0.264739415832514
40
0.529013868222003
40
0.804528441088322
40
1
40
1
40
1
40
1
41
1
10
0.425000000000001
20
8.37798437404625
30
0
41
1
10
0.440786776967142
20
8.3576435227514
30
0
41
1
10
0.463976485599819
20
8.31505077718733
30
0
41
1
10
0.47431665641623
20
8.24107330037615
30
0
41
1
10
0.459214942110132
20
8.17408206242711
30
0
41
1
10
0.436642356839559
20
8.13683598946191
30
0
41
1
10
0.425000000000003
20
8.12201562595375
30
0
0
SPLINE
5
1D2
100
AcDbEntity
8
1
62
256
6
ByLayer
370
18
48
1
60
0
100
AcDbSpline
70
4
71
3
72
11
73
7
40
0
40
0
40
0
40
0
40
0.271726069590793
40
0.542782318851903
40
0.831222011931086
40
1
40
1
40
1
40
1
41
1
10
0.425000000000001
20
9.87798437404626
30
0
41
1
10
0.441249955883084
20
9.85691013617672
30
0
41
1
10
0.46488936776293
20
9.81297807387655
30
0
41
1
10
0.474350678249282
20
9.73682278448697
30
0
41
1
10
0.457834583612786
20
9.67092826713405
30
0
41
1
10
0.435097451081062
20
9.63486315560761
30
0
41
1
10
0.425000000000001
20
9.62201562595374
30
0
0
SPLINE
5
1D3
100
AcDbEntity
8
1
62
256
6
ByLayer
370
18
48
1
60
0
100
AcDbSpline
70
4
71
3
72
11
73
7
40
0
40
0
40
0
40
0
40
0.320442915738616
40
0.600611494771413
40
0.907907141580444
40
1
40
1
40
1
40
1
41
1
10
0.425000000000001
20
11.3779843740463
30
0
41
1
10
0.44421746161952
20
11.3526017424028
30
0
41
1
10
0.468703848749688
20
11.3032767564178
30
0
41
1
10
0.473062526985012
20
11.2202392860251
30
0
41
1
10
0.452368989139414
20
11.1599783358129
30
0
41
1
10
0.430544139379429
20
11.1290062809748
30
0
41
1
10
0.425000000000065
20
11.1220156259537
30
0
0
SPLINE
5
1D4
100
AcDbEntity
8
1
62
256
6
ByLayer
370
18
48
1
60
0
100
AcDbSpline
70
4
71
3
72
11
73
7
40
0
40
0
40
0
40
0
40
0.2993815453512
40
0.591681415142113
40
0.922645635207815
40
1
40
1
40
1
40
1
41
1
10
0.425000000000001
20
12.8779843740463
30
0
41
1
10
0.442978778540552
20
12.8542070651155
30
0
41
1
10
0.46791098667948
20
12.8056693499088
30
0
41
1
10
0.47383683412065
20
12.7220688577783
30
0
41
1
10
0.452667170489083
20
12.6598757868528
30
0
41
1
10
0.42971589228879
20
12.6279667816774
30
0
41
1
10
0.425000000000038
20
12.6220156259537
30
0
0
SPLINE
5
1D5
100
AcDbEntity
8
1
62
256
6
ByLayer
370
18
48
1
60
0
100
AcDbSpline
70
4
71
3
72
11
73
7
40
0
40
0
40
0
40
0
40
0.273613247682742
40
0.583301902339118
40
0.947745760837099
40
1
40
1
40
1
40
1
41
1
10
0.425000000000001
20
14.3779843740463
30
0
41
1
10
0.44147550040776
20
14.3561743007081
30
0
41
1
10
0.46705405819557
20
14.3083746891386
30
0
41
1
10
0.474800686248197
20
14.2234472611195
30
0
41
1
10
0.452707884621422
20
14.1589377205258
30
0
41
1
10
0.428240131043427
20
14.1260973677744
30
0
41
1
10
0.425000000000004
20
14.1220156259537
30
0
0
SPLINE
5
1D6
100
AcDbEntity
8
1
62
256
6
ByLayer
370
18
48
1
60
0
100
AcDbSpline
70
4
71
3
72
10
73
6
40
0
40
0
40
0
40
0
40
0.338542021692252
40
0.690868013598308
40
1
40
1
40
1
40
1
41
1
10
0.425000000000001
20
15.8779843740463
30
0
41
1
10
0.445289024140059
20
15.8504331231102
30
0
41
1
10
0.472674975569723
20
15.7932942912719
30
0
41
1
10
0.47165751089614
20
15.7031820710024
30
0
41
1
10
0.44382962340441
20
15.6477084240189
30
0
41
1
10
0.425000000000004
20
15.6220156259537
30
0
0
SPLINE
5
1D7
100
AcDbEntity
8
1
62
256
6
ByLayer
370
18
48
1
60
0
100
AcDbSpline
70
4
71
3
72
10
73
6
40
0
40
0
40
0
40
0
40
0.389162431054224
40
0.819156208478793
40
1
40
1
40
1
40
1
41
1
10
0.425000000000001
20
17.3779843740464
30
0
41
1
10
0.448175559374817
20
17.3459944039632
30
0
41
1
10
0.477748768542775
20
17.277988932518
30
0
41
1
10
0.467805442114213
20
17.1884523280356
30
0
41
1
10
0.4363705997573
20
17.1371405365645
30
0
41
1
10
0.424999999999999
20
17.1220156259536
30
0
0
SPLINE
5
1D8
100
AcDbEntity
8
1
62
256
6
ByLayer
370
18
48
1
60
0
100
AcDbSpline
70
4
71
2
72
6
73
3
40
0
40
0
40
0
40
1
40
1
40
1
41
1
10
0.425000000000001
20
18.8779843740464
30
0
41
1
10
0.51551629082387
20
18.7559073987863
30
0
41
1
10
0.425000000007167
20
18.6220156259536
30
0
0
SPLINE
5
1D9
100
AcDbEntity
8
1
62
256
6
ByLayer
370
18
48
1
60
0
100
AcDbSpline
70
4
71
3
72
12
73
8
40
0
40
0
40
0
40
0
40
0.182664770735933
40
0.36638715280082
40
0.553715117305497
40
0.742425487101862
40
1
40
1
40
1
40
1
41
1
10
8.53006798058795
20
11.7637700225026
30
0
41
1
10
8.52606695788304
20
11.5457585086073
30
0
41
1
10
8.5357312678981
20
11.1034286766772
30
0
41
1
10
8.60222757392286
20
10.4174202577186
30
0
41
1
10
8.72788362243932
20
9.71282093904721
30
0
41
1
10
8.94002245386775
20
8.90779710179627
30
0
41
1
10
9.15089322448173
20
8.34509092100994
30
0
41
1
10
9.29276890269487
20
8.02071544157091
30
0
0
SPLINE
5
1DA
100
AcDbEntity
8
1
62
256
6
ByLayer
370
18
48
1
60
0
100
AcDbSpline
70
4
71
2
72
6
73
3
40
0
40
0
40
0
40
1
40
1
40
1
41
1
10
9.51637126616505
20
18.4314003756465
30
0
41
1
10
9.64498858786317
20
17.898436661851
30
0
41
1
10
9.89710878660984
20
17.4105484848607
30
0
0
SPLINE
5
1DB
100
AcDbEntity
8
1
62
256
6
ByLayer
370
18
48
1
60
0
100
AcDbSpline
70
4
71
3
72
13
73
9
40
0
40
0
40
0
40
0
40
0.0430508320640098
40
0.338048042690444
40
0.567654372219836
40
0.757534943116429
40
0.948036987171438
40
1
40
1
40
1
40
1
41
1
10
10.8409259493244
20
-19.894457708998
30
0
41
1
10
10.8217509515668
20
-19.8939749364241
30
0
41
1
10
10.6725298877969
20
-19.8898109315297
30
0
41
1
10
10.4295779932628
20
-19.8788177197886
30
0
41
1
10
10.1811581401777
20
-19.853313960862
30
0
41
1
10
10.0431035625633
20
-19.8217688838161
30
0
41
1
10
10.0139213666064
20
-19.7936358561748
30
0
41
1
10
10.0232030021283
20
-19.7772814308651
30
0
41
1
10
10.0263478927407
20
-19.7737199332852
30
0
0
SPLINE
5
1DC
100
AcDbEntity
8
1
62
256
6
ByLayer
370
18
48
1
60
0
100
AcDbSpline
70
4
71
2
72
6
73
3
40
0
40
0
40
0
40
1
40
1
40
1
41
1
10
10.8409259493244
20
-19.894457708998
30
0
41
1
10
10.7246477214998
20
-19.9998611354611
30
0
41
1
10
10.72497902062
20
-19.9999999998134
30
0
0
SPLINE
5
1DD
100
AcDbEntity
8
1
62
256
6
ByLayer
370
18
48
1
60
0
100
AcDbSpline
70
4
71
3
72
14
73
10
40
0
40
0
40
0
40
0
40
0.14504594284965
40
0.290091852003935
40
0.422577265825751
40
0.555062586637778
40
0.691402479423056
40
0.827742153995921
40
1
40
1
40
1
40
1
41
1
10
16.7659056809894
20
-17.2680468809003
30
0
41
1
10
16.4481888609463
20
-17.3011715868491
30
0
41
1
10
15.8187573117916
20
-17.3957283241547
30
0
41
1
10
14.9157460255871
20
-17.6164899416875
30
0
41
1
10
14.0624978702924
20
-17.9062231880273
30
0
41
1
10
13.2534542142534
20
-18.2578876181388
30
0
41
1
10
12.4697689844625
20
-18.6807217797595
30
0
41
1
10
11.6512529794825
20
-19.2169836808522
30
0
41
1
10
11.1236280281178
20
-19.6410728016701
30
0
41
1
10
10.8409259493244
20
-19.894457708998
30
0
0
SPLINE
5
1DE
100
AcDbEntity
8
1
62
256
6
ByLayer
370
18
48
1
60
0
100
AcDbSpline
70
4
71
1
72
4
73
2
40
0
40
0
40
1
40
1
41
1
10
11.0633677443733
20
-1.57315676184824
30
0
41
1
10
10.9417395462268
20
-1.16698338433432
30
0
0
SPLINE
5
1DF
100
AcDbEntity
8
1
62
256
6
ByLayer
370
18
48
1
60
0
100
AcDbSpline
70
4
71
3
72
16
73
12
40
0
40
0
40
0
40
0
40
0.0996288763185661
40
0.22418212868542
40
0.349201033995628
40
0.473922845504681
40
0.595993508559897
40
0.718501518405718
40
0.841079405984894
40
0.963245688072793
40
1
40
1
40
1
40
1
41
1
10
13.9937833729605
20
-11.2691701298086
30
0
41
1
10
13.7793644559198
20
-11.0255683601327
30
0
41
1
10
13.3289401092701
20
-10.453138379039
30
0
41
1
10
12.7448632267078
20
-9.46787702158225
30
0
41
1
10
12.24175645355
20
-8.3284862946069
30
0
41
1
10
11.8495823887384
20
-7.12893227165861
30
0
41
1
10
11.5499879543343
20
-5.88390043725813
30
0
41
1
10
11.3279935670532
20
-4.60685459260065
30
0
41
1
10
11.1727216902949
20
-3.30063857015278
30
0
41
1
10
11.0976298207136
20
-2.28378568522068
30
0
41
1
10
11.0691573977211
20
-1.70681625496319
30
0
41
1
10
11.0633677443733
20
-1.57315676184824
30
0
0
SPLINE
5
1E0
100
AcDbEntity
8
1
62
256
6
ByLayer
370
18
48
1
60
0
100
AcDbSpline
70
4
71
3
72
11
73
7
40
0
40
0
40
0
40
0
40
0.282400928180177
40
0.566618863982858
40
0.824053620759866
40
1
40
1
40
1
40
1
41
1
10
21.1129106146252
20
15.4070469627671
30
0
41
1
10
21.0873542671725
20
15.3832827767373
30
0
41
1
10
21.0474894046503
20
15.3293172020472
30
0
41
1
10
21.0182526026706
20
15.2276706123974
30
0
41
1
10
21.0280839806879
20
15.1318970443823
30
0
41
1
10
21.0508238494977
20
15.0792206889921
30
0
41
1
10
21.062840741747
20
15.0581534488207
30
0
0
SPLINE
5
1E1
100
AcDbEntity
8
1
62
256
6
ByLayer
370
18
48
1
60
0
100
AcDbSpline
70
4
71
3
72
12
73
8
40
0
40
0
40
0
40
0
40
0.0836664693986218
40
0.377494478412224
40
0.675250736114391
40
0.992093849998043
40
1
40
1
40
1
40
1
41
1
10
21.0637863221696
20
16.7409336130501
30
0
41
1
10
21.0595264054103
20
16.7335978237851
30
0
41
1
10
21.0418826025336
20
16.7000044782418
30
0
41
1
10
21.0225127659613
20
16.6333172897819
30
0
41
1
10
21.0247219696227
20
16.5422245065829
30
0
41
1
10
21.0442986631694
20
16.4845265082409
30
0
41
1
10
21.058365675502
20
16.4572548702289
30
0
41
1
10
21.0587107561392
20
16.4565921609855
30
0
0
SPLINE
5
1E2
100
AcDbEntity
8
1
62
256
6
ByLayer
370
18
48
1
60
0
100
AcDbSpline
70
4
71
3
72
12
73
8
40
0
40
0
40
0
40
0
40
0.0573009716925505
40
0.280031064926646
40
0.505395285878049
40
0.744943740650593
40
1
40
1
40
1
40
1
41
1
10
21.062840741747
20
15.0581534488207
30
0
41
1
10
21.0666917060114
20
15.0515383439446
30
0
41
1
10
21.086572164487
20
15.0201676454089
30
0
41
1
10
21.1337567769009
20
14.9702738106412
30
0
41
1
10
21.2129895016384
20
14.9254857651222
30
0
41
1
10
21.3036075108704
20
14.905847600073
30
0
41
1
10
21.362848767431
20
14.9106191219171
30
0
41
1
10
21.393344380351
20
14.9180799061565
30
0
0
SPLINE
5
1E3
100
AcDbEntity
8
1
62
256
6
ByLayer
370
18
48
1
60
0
100
AcDbSpline
70
4
71
3
72
11
73
7
40
0
40
0
40
0
40
0
40
0.284186472106434
40
0.569985996508075
40
0.828961317192128
40
1
40
1
40
1
40
1
41
1
10
21.3944419030041
20
16.8712605201733
30
0
41
1
10
21.3601568981074
20
16.8812897288591
30
0
41
1
10
21.2919153234989
20
16.8884248975678
30
0
41
1
10
21.1876138478216
20
16.862417387826
30
0
41
1
10
21.1096380791142
20
16.8062782515746
30
0
41
1
10
21.0756800475501
20
16.7610224842416
30
0
41
1
10
21.0637863221696
20
16.7409336130501
30
0
0
SPLINE
5
1E4
100
AcDbEntity
8
1
62
256
6
ByLayer
370
18
48
1
60
0
100
AcDbSpline
70
4
71
3
72
10
73
6
40
0
40
0
40
0
40
0
40
0.494848865875522
40
0.898966292198758
40
1
40
1
40
1
40
1
41
1
10
21.1129106146252
20
15.4070469627671
30
0
41
1
10
21.1668534176783
20
15.4563712376793
30
0
41
1
10
21.2456475533132
20
15.5598280976988
30
0
41
1
10
21.3007186505825
20
15.7082224978878
30
0
41
1
10
21.3135942527739
20
15.7877720621838
30
0
41
1
10
21.3156729438377
20
15.8039525906208
30
0
0
SPLINE
5
1E5
100
AcDbEntity
8
1
62
256
6
ByLayer
370
18
48
1
60
0
100
AcDbSpline
70
4
71
2
72
6
73
3
40
0
40
0
40
0
40
1
40
1
40
1
41
1
10
21.2416961366287
20
16.2068781367593
30
0
41
1
10
21.189006086062
20
16.3062988348382
30
0
41
1
10
21.1134583529573
20
16.3818167219486
30
0
0
SPLINE
5
1E6
100
AcDbEntity
8
1
62
256
6
ByLayer
370
18
48
1
60
0
100
AcDbSpline
70
4
71
2
72
6
73
3
40
0
40
0
40
0
40
1
40
1
40
1
41
1
10
21.3157663701745
20
15.9702165933309
30
0
41
1
10
21.2979949646261
20
16.0995216455631
30
0
41
1
10
21.2416961366287
20
16.2068781367593
30
0
0
SPLINE
5
1E7
100
AcDbEntity
8
1
62
256
6
ByLayer
370
18
48
1
60
0
100
AcDbSpline
70
4
71
3
72
13
73
9
40
0
40
0
40
0
40
0
40
0.0806066853748762
40
0.283821665544082
40
0.488228118219394
40
0.66714738518801
40
0.903652470286035
40
1
40
1
40
1
40
1
41
1
10
22.1810917040129
20
14.5689140342375
30
0
41
1
10
22.1703763967307
20
14.5897616087845
30
0
41
1
10
22.1282631082509
20
14.661032642791
30
0
41
1
10
22.0283837276719
20
14.7756640042541
30
0
41
1
10
21.864705440742
20
14.8791141736715
30
0
41
1
10
21.6731936773414
20
14.9379119640385
30
0
41
1
10
21.5155484033543
20
14.9415295443571
30
0
41
1
10
21.4204864556517
20
14.9247043994191
30
0
41
1
10
21.3933443803506
20
14.9180799061561
30
0
0
SPLINE
5
1E8
100
AcDbEntity
8
1
62
256
6
ByLayer
370
18
48
1
60
0
100
AcDbSpline
70
4
71
3
72
13
73
9
40
0
40
0
40
0
40
0
40
0.212275563556794
40
0.386387565009911
40
0.561520404343328
40
0.714816161336367
40
0.917450739141732
40
1
40
1
40
1
40
1
41
1
10
21.3944419030041
20
16.8712605201733
30
0
41
1
10
21.465973249199
20
16.8497331350448
30
0
41
1
10
21.5980421740302
20
16.8340537314731
30
0
41
1
10
21.8034891060317
20
16.8693125608026
30
0
41
1
10
21.9759480340287
20
16.9585818261248
30
0
41
1
10
22.1200919952973
20
17.0965357287505
30
0
41
1
10
22.1976557407532
20
17.2340670777931
30
0
41
1
10
22.227318201528
20
17.3269493414588
30
0
41
1
10
22.2341344192114
20
17.3544317170278
30
0
0
SPLINE
5
1E9
100
AcDbEntity
8
1
62
256
6
ByLayer
370
18
48
1
60
0
100
AcDbSpline
70
4
71
1
72
4
73
2
40
0
40
0
40
1
40
1
41
1
10
22.2324944233702
20
14.4358513353559
30
0
41
1
10
22.1810917040129
20
14.5689140342375
30
0
0
SPLINE
5
1EA
100
AcDbEntity
8
1
62
256
6
ByLayer
370
18
48
1
60
0
100
AcDbSpline
70
4
71
3
72
12
73
8
40
0
40
0
40
0
40
0
40
0.0633880296714098
40
0.286000988160519
40
0.511590094520422
40
0.751639968867295
40
1
40
1
40
1
40
1
41
1
10
22.5133777739105
20
17.5750494628037
30
0
41
1
10
22.5048941077247
20
17.5750370678339
30
0
41
1
10
22.4670182372078
20
17.5733695328075
30
0
41
1
10
22.4000145507322
20
17.5564997671418
30
0
41
1
10
22.3234632140606
20
17.5087656660379
30
0
41
1
10
22.2645972103759
20
17.4388032408265
30
0
41
1
10
22.2415870643627
20
17.3844480360411
30
0
41
1
10
22.2341344192114
20
17.3544317170278
30
0
0
SPLINE
5
1EB
100
AcDbEntity
8
1
62
256
6
ByLayer
370
18
48
1
60
0
100
AcDbSpline
70
4
71
3
72
11
73
7
40
0
40
0
40
0
40
0
40
0.133871108074498
40
0.479686249810481
40
0.793044314612343
40
1
40
1
40
1
40
1
41
1
10
22.2543836592954
20
14.3791942472418
30
0
41
1
10
22.260409729487
20
14.3674913431634
30
0
41
1
10
22.2849251601934
20
14.327562405691
30
0
41
1
10
22.3442031123042
20
14.2696012507215
30
0
41
1
10
22.4319472228771
20
14.2320860127994
30
0
41
1
10
22.4881483427316
20
14.2258223243781
30
0
41
1
10
22.511495702474
20
14.225664888395
30
0
0
SPLINE
5
1EC
100
AcDbEntity
8
1
62
256
6
ByLayer
370
18
48
1
60
0
100
AcDbSpline
70
4
71
3
72
12
73
8
40
0
40
0
40
0
40
0
40
0.063388029671422
40
0.286000988160513
40
0.511590094520434
40
0.751639968867292
40
1
40
1
40
1
40
1
41
1
10
22.511495702474
20
14.225664888395
30
0
41
1
10
22.5199794868744
20
14.2256770562769
30
0
41
1
10
22.5578926982853
20
14.2272728601135
30
0
41
1
10
22.6252758066753
20
14.2434137630627
30
0
41
1
10
22.7029217344659
20
14.2890451741909
30
0
41
1
10
22.7634381419531
20
14.3558372031953
30
0
41
1
10
22.7877966968647
20
14.4076021385869
30
0
41
1
10
22.7960045422208
20
14.4361677315045
30
0
0
SPLINE
5
1ED
100
AcDbEntity
8
1
62
256
6
ByLayer
370
18
48
1
60
0
100
AcDbSpline
70
4
71
1
72
4
73
2
40
0
40
0
40
1
40
1
41
1
10
22.7976445380621
20
17.3547481131764
30
0
41
1
10
22.8524438126278
20
17.2151606924461
30
0
0
SPLINE
5
1EE
100
AcDbEntity
8
1
62
256
6
ByLayer
370
18
48
1
60
0
100
AcDbSpline
70
4
71
3
72
13
73
9
40
0
40
0
40
0
40
0
40
0.0806066853748735
40
0.283821665544081
40
0.488228118219389
40
0.667147385188009
40
0.903652470286032
40
1
40
1
40
1
40
1
41
1
10
22.8524438126278
20
17.2151606924461
30
0
41
1
10
22.8636676743624
20
17.1933361938854
30
0
41
1
10
22.9074203193177
20
17.1189159853896
30
0
41
1
10
23.009477412349
20
17.0001012772282
30
0
41
1
10
23.173530243823
20
16.8959316144357
30
0
41
1
10
23.3630521643168
20
16.8409562767282
30
0
41
1
10
23.5175892098099
20
16.843309547793
30
0
41
1
10
23.6103566271402
20
16.8645424445661
30
0
41
1
10
23.6367945810816
20
16.8725195423762
30
0
0
SPLINE
5
1EF
100
AcDbEntity
8
1
62
256
6
ByLayer
370
18
48
1
60
0
100
AcDbSpline
70
4
71
3
72
11
73
7
40
0
40
0
40
0
40
0
40
0.284186472106432
40
0.569985996508078
40
0.828961317192138
40
1
40
1
40
1
40
1
41
1
10
23.6356970584281
20
14.919338928359
30
0
41
1
10
23.6691111227625
20
14.910982780927
30
0
41
1
10
23.7358019426514
20
14.9068265843179
30
0
41
1
10
23.8383024566702
20
14.9362937092171
30
0
41
1
10
23.9153885768583
20
14.9941418443735
30
0
41
1
10
23.9491964464771
20
15.0396860701195
30
0
41
1
10
23.961087154215
20
15.0597807381486
30
0
0
SPLINE
5
1F0
100
AcDbEntity
8
1
62
256
6
ByLayer
370
18
48
1
60
0
100
AcDbSpline
70
4
71
3
72
12
73
8
40
0
40
0
40
0
40
0
40
0.0573009716925565
40
0.280031064926634
40
0.505395285878049
40
0.744943740650584
40
1
40
1
40
1
40
1
41
1
10
23.9620327346375
20
16.742560902378
30
0
41
1
10
23.958181857566
20
16.7491758397584
30
0
41
1
10
23.9383344561232
20
16.7804830363247
30
0
41
1
10
23.8915120892205
20
16.8296810039398
30
0
41
1
10
23.8133583852671
20
16.8723962698182
30
0
41
1
10
23.7243925451358
20
16.8888606475541
30
0
41
1
10
23.6665137353772
20
16.8814718897543
30
0
41
1
10
23.6367945810812
20
16.8725195423758
30
0
0
SPLINE
5
1F1
100
AcDbEntity
8
1
62
256
6
ByLayer
370
18
48
1
60
0
100
AcDbSpline
70
4
71
2
72
6
73
3
40
0
40
0
40
0
40
1
40
1
40
1
41
1
10
23.7222222479861
20
15.8053038049235
30
0
41
1
10
23.7391841952307
20
15.6775537076252
30
0
41
1
10
23.7932599875133
20
15.5744676283047
30
0
0
SPLINE
5
1F2
100
AcDbEntity
8
1
62
256
6
ByLayer
370
18
48
1
60
0
100
AcDbSpline
70
4
71
2
72
6
73
3
40
0
40
0
40
0
40
1
40
1
40
1
41
1
10
23.7932599875133
20
15.5744676283047
30
0
41
1
10
23.8438588568416
20
15.4790640520091
30
0
41
1
10
23.9167646661665
20
15.4086212532604
30
0
0
SPLINE
5
1F3
100
AcDbEntity
8
1
62
256
6
ByLayer
370
18
48
1
60
0
100
AcDbSpline
70
4
71
3
72
11
73
7
40
0
40
0
40
0
40
0
40
0.282400928180174
40
0.566618863982851
40
0.824053620759869
40
1
40
1
40
1
40
1
41
1
10
23.9173124044987
20
16.383391012442
30
0
41
1
10
23.9419917072136
20
16.4088399857375
30
0
41
1
10
23.9802916938072
20
16.4658116591173
30
0
41
1
10
24.0077026924219
20
16.5709655843988
30
0
41
1
10
23.996951438182
20
16.6685062181963
30
0
41
1
10
23.9740530454021
20
16.7214870953
30
0
41
1
10
23.9620327346375
20
16.742560902378
30
0
0
SPLINE
5
1F4
100
AcDbEntity
8
1
62
256
6
ByLayer
370
18
48
1
60
0
100
AcDbSpline
70
4
71
3
72
12
73
8
40
0
40
0
40
0
40
0
40
0.0836664693986282
40
0.377494478412235
40
0.675250736114388
40
0.992093849998039
40
1
40
1
40
1
40
1
41
1
10
23.961087154215
20
15.0597807381486
30
0
41
1
10
23.96534718919
20
15.0671163003233
30
0
41
1
10
23.9830283524306
20
15.1006378772753
30
0
41
1
10
24.0027773342123
20
15.1665967345645
30
0
41
1
10
24.0016639449599
20
15.2555844778691
30
0
41
1
10
23.9831742041866
20
15.3111944593612
30
0
41
1
10
23.9697339644947
20
15.3372620783323
30
0
41
1
10
23.9694041879184
20
15.3378953887483
30
0
0
SPLINE
5
1F5
100
AcDbEntity
8
1
62
256
6
ByLayer
370
18
48
1
60
0
100
AcDbSpline
70
4
71
1
72
4
73
2
40
0
40
0
40
1
40
1
41
1
10
28.3775168663909
20
15.1404626714221
30
0
41
1
10
28.3578842142061
20
15.2271492103328
30
0
0
SPLINE
5
1F6
100
AcDbEntity
8
1
62
256
6
ByLayer
370
18
48
1
60
0
100
AcDbSpline
70
4
71
1
72
4
73
2
40
0
40
0
40
1
40
1
41
1
10
28.4630716925432
20
15.3585000525261
30
0
41
1
10
28.3774896221939
20
15.140476629119
30
0
0
SPLINE
5
1F7
100
AcDbEntity
8
1
62
256
6
ByLayer
370
18
48
1
60
0
100
AcDbSpline
70
4
71
3
72
10
73
6
40
0
40
0
40
0
40
0
40
0.303726475317223
40
0.780537341727344
40
1
40
1
40
1
40
1
41
1
10
29
20
-0.540648734686311
30
0
41
1
10
29.0038444878775
20
-0.473179427388039
30
0
41
1
10
29.0312623756367
20
-0.306225970472299
30
0
41
1
10
29.1550739233392
20
-0.121825667324442
30
0
41
1
10
29.2456852236931
20
0.0018619067414676
30
0
41
1
10
29.2767295713245
20
0.0398305012362935
30
0
0
SPLINE
5
1F8
100
AcDbEntity
8
1
62
256
6
ByLayer
370
18
48
1
60
0
100
AcDbSpline
70
4
71
2
72
6
73
3
40
0
40
0
40
0
40
1
40
1
40
1
41
1
10
29.2767295713241
20
0.0398305012354023
30
0
41
1
10
29.284915263789
20
0.0506314942147683
30
0
41
1
10
29.2965777769356
20
0.0567845589874477
30
0
0
SPLINE
5
1F9
100
AcDbEntity
8
1
62
256
6
ByLayer
370
18
48
1
60
0
100
AcDbSpline
70
4
71
1
72
4
73
2
40
0
40
0
40
1
40
1
41
1
10
0.425000000000001
20
-17.3779843740463
30
0
41
1
10
0.367750000000017
20
-17.4271021950739
30
0
0
SPLINE
5
1FA
100
AcDbEntity
8
1
62
256
6
ByLayer
370
18
48
1
60
0
100
AcDbSpline
70
4
71
1
72
4
73
2
40
0
40
0
40
1
40
1
41
1
10
0.424999999999991
20
-15.8779843740463
30
0
41
1
10
0.367750000000017
20
-15.9271021950739
30
0
0
SPLINE
5
1FB
100
AcDbEntity
8
1
62
256
6
ByLayer
370
18
48
1
60
0
100
AcDbSpline
70
4
71
1
72
4
73
2
40
0
40
0
40
1
40
1
41
1
10
0.425000000000001
20
-14.3779843740463
30
0
41
1
10
0.367750000000017
20
-14.4271021950739
30
0
0
SPLINE
5
1FC
100
AcDbEntity
8
1
62
256
6
ByLayer
370
18
48
1
60
0
100
AcDbSpline
70
4
71
1
72
4
73
2
40
0
40
0
40
1
40
1
41
1
10
0.424999999999989
20
-12.8779843740463
30
0
41
1
10
0.367750000000017
20
-12.9271021950739
30
0
0
SPLINE
5
1FD
100
AcDbEntity
8
1
62
256
6
ByLayer
370
18
48
1
60
0
100
AcDbSpline
70
4
71
1
72
4
73
2
40
0
40
0
40
1
40
1
41
1
10
0.425000000000001
20
-11.3779843740463
30
0
41
1
10
0.367750000000017
20
-11.4271021950739
30
0
0
SPLINE
5
1FE
100
AcDbEntity
8
1
62
256
6
ByLayer
370
18
48
1
60
0
100
AcDbSpline
70
4
71
1
72
4
73
2
40
0
40
0
40
1
40
1
41
1
10
0.425000000000001
20
-9.87798437404626
30
0
41
1
10
0.367750000000017
20
-9.92710219507391
30
0
0
SPLINE
5
1FF
100
AcDbEntity
8
1
62
256
6
ByLayer
370
18
48
1
60
0
100
AcDbSpline
70
4
71
1
72
4
73
2
40
0
40
0
40
1
40
1
41
1
10
0.425000000000001
20
-8.37798437404626
30
0
41
1
10
0.367750000000017
20
-8.42710219507391
30
0
0
SPLINE
5
200
100
AcDbEntity
8
1
62
256
6
ByLayer
370
18
48
1
60
0
100
AcDbSpline
70
4
71
1
72
4
73
2
40
0
40
0
40
1
40
1
41
1
10
0.425000000000001
20
-6.87798437404625
30
0
41
1
10
0.367750000000017
20
-6.92710219507391
30
0
0
SPLINE
5
201
100
AcDbEntity
8
1
62
256
6
ByLayer
370
18
48
1
60
0
100
AcDbSpline
70
4
71
1
72
4
73
2
40
0
40
0
40
1
40
1
41
1
10
0.425000000000001
20
-5.37798437404624
30
0
41
1
10
0.367750000000018
20
-5.42710219507391
30
0
0
SPLINE
5
202
100
AcDbEntity
8
1
62
256
6
ByLayer
370
18
48
1
60
0
100
AcDbSpline
70
4
71
2
72
6
73
3
40
0
40
0
40
0
40
1
40
1
40
1
41
1
10
0.425000000000001
20
6.62201562595376
30
0
41
1
10
0.400568602514058
20
6.59185074726414
30
0
41
1
10
0.367750000000016
20
6.5728978049261
30
0
0
SPLINE
5
203
100
AcDbEntity
8
1
62
256
6
ByLayer
370
18
48
1
60
0
100
AcDbSpline
70
4
71
2
72
6
73
3
40
0
40
0
40
0
40
1
40
1
40
1
41
1
10
0.425000000000001
20
8.12201562595375
30
0
41
1
10
0.400744185580777
20
8.09196937496823
30
0
41
1
10
0.367750000000015
20
8.07289780492609
30
0
0
SPLINE
5
204
100
AcDbEntity
8
1
62
256
6
ByLayer
370
18
48
1
60
0
100
AcDbSpline
70
4
71
2
72
6
73
3
40
0
40
0
40
0
40
1
40
1
40
1
41
1
10
0.425000000000001
20
9.62201562595374
30
0
41
1
10
0.400987675841798
20
9.59213928552903
30
0
41
1
10
0.367750000000014
20
9.5728978049261
30
0
0
SPLINE
5
205
100
AcDbEntity
8
1
62
256
6
ByLayer
370
18
48
1
60
0
100
AcDbSpline
70
4
71
2
72
6
73
3
40
0
40
0
40
0
40
1
40
1
40
1
41
1
10
0.425000000000001
20
11.1220156259537
30
0
41
1
10
0.401322180159281
20
11.0923802903586
30
0
41
1
10
0.367750000000012
20
11.0728978049261
30
0
0
SPLINE
5
206
100
AcDbEntity
8
1
62
256
6
ByLayer
370
18
48
1
60
0
100
AcDbSpline
70
4
71
2
72
6
73
3
40
0
40
0
40
0
40
1
40
1
40
1
41
1
10
0.425000000000001
20
12.6220156259537
30
0
41
1
10
0.4017848894014
20
12.5927243649122
30
0
41
1
10
0.367750000000011
20
12.5728978049261
30
0
0
SPLINE
5
207
100
AcDbEntity
8
1
62
256
6
ByLayer
370
18
48
1
60
0
100
AcDbSpline
70
4
71
2
72
6
73
3
40
0
40
0
40
0
40
1
40
1
40
1
41
1
10
0.425000000000001
20
14.1220156259537
30
0
41
1
10
0.402439200995363
20
14.0932258528717
30
0
41
1
10
0.367750000000009
20
14.0728978049261
30
0
0
SPLINE
5
208
100
AcDbEntity
8
1
62
256
6
ByLayer
370
18
48
1
60
0
100
AcDbSpline
70
4
71
2
72
6
73
3
40
0
40
0
40
0
40
1
40
1
40
1
41
1
10
0.425000000000001
20
15.6220156259537
30
0
41
1
10
0.403403077427926
20
15.5939840603209
30
0
41
1
10
0.367750000000008
20
15.5728978049261
30
0
0
SPLINE
5
209
100
AcDbEntity
8
1
62
256
6
ByLayer
370
18
48
1
60
0
100
AcDbSpline
70
4
71
2
72
6
73
3
40
0
40
0
40
0
40
1
40
1
40
1
41
1
10
0.424999999999952
20
17.1220156259534
30
0
41
1
10
0.404931906131059
20
17.0952018353971
30
0
41
1
10
0.367750000000007
20
17.0728978049261
30
0
0
SPLINE
5
20A
100
AcDbEntity
8
1
62
256
6
ByLayer
370
18
48
1
60
0
100
AcDbSpline
70
4
71
2
72
6
73
3
40
0
40
0
40
0
40
1
40
1
40
1
41
1
10
0.425000000000003
20
18.6220156259536
30
0
41
1
10
0.407827250739306
20
18.5974032450258
30
0
41
1
10
0.367750000000007
20
18.5728978049261
30
0
0
SPLINE
5
20B
100
AcDbEntity
8
1
62
256
6
ByLayer
370
18
48
1
60
0
100
AcDbSpline
70
4
71
3
72
12
73
8
40
0
40
0
40
0
40
0
40
0.231603194184195
40
0.463349194601577
40
0.68985193357556
40
0.902621136484893
40
1
40
1
40
1
40
1
41
1
10
1.82
20
6.475
30
0
41
1
10
1.82075996652728
20
6.57319563484781
30
0
41
1
10
1.85346603294199
20
6.75710390651888
30
0
41
1
10
2.00031295355557
20
7.00794105926543
30
0
41
1
10
2.2223859099298
20
7.18831104869036
30
0
41
1
10
2.44514276945713
20
7.26467848206588
30
0
41
1
10
2.57749451238157
20
7.274888851129
30
0
41
1
10
2.62
20
7.27500000000001
30
0
0
SPLINE
5
20C
100
AcDbEntity
8
1
62
256
6
ByLayer
370
18
48
1
60
0
100
AcDbSpline
70
4
71
3
72
12
73
8
40
0
40
0
40
0
40
0
40
0.197789681504871
40
0.395356093171635
40
0.599047808560419
40
0.815827313767398
40
1
40
1
40
1
40
1
41
1
10
3.9
20
7.275
30
0
41
1
10
3.98863236458361
20
7.2739694742988
30
0
41
1
10
4.15515658271911
20
7.2476564703972
30
0
41
1
10
4.38613734820895
20
7.12740550992394
30
0
41
1
10
4.56788006477282
20
6.94093869479196
30
0
41
1
10
4.67707498348011
20
6.71258808435013
30
0
41
1
10
4.6996609549061
20
6.55210615276174
30
0
41
1
10
4.7
20
6.475
30
0
0
SPLINE
5
20D
100
AcDbEntity
8
1
62
256
6
ByLayer
370
18
48
1
60
0
100
AcDbSpline
70
4
71
3
72
12
73
8
40
0
40
0
40
0
40
0
40
0.231603194184195
40
0.463349194601577
40
0.68985193357556
40
0.902621136484895
40
1
40
1
40
1
40
1
41
1
10
4.7
20
-6.475
30
0
41
1
10
4.69924003347272
20
-6.57319563484781
30
0
41
1
10
4.666533967058
20
-6.75710390651887
30
0
41
1
10
4.51968704644443
20
-7.00794105926543
30
0
41
1
10
4.29761409007019
20
-7.18831104869036
30
0
41
1
10
4.07485723054287
20
-7.26467848206589
30
0
41
1
10
3.94250548761843
20
-7.274888851129
30
0
41
1
10
3.9
20
-7.27500000000001
30
0
0
SPLINE
5
20E
100
AcDbEntity
8
1
62
256
6
ByLayer
370
18
48
1
60
0
100
AcDbSpline
70
4
71
3
72
12
73
8
40
0
40
0
40
0
40
0
40
0.19778968150487
40
0.395356093171635
40
0.599047808560419
40
0.815827313767398
40
1
40
1
40
1
40
1
41
1
10
2.62
20
-7.275
30
0
41
1
10
2.5313676354164
20
-7.2739694742988
30
0
41
1
10
2.36484341728089
20
-7.2476564703972
30
0
41
1
10
2.13386265179106
20
-7.12740550992394
30
0
41
1
10
1.95211993522718
20
-6.94093869479196
30
0
41
1
10
1.84292501651989
20
-6.71258808435013
30
0
41
1
10
1.8203390450939
20
-6.55210615276174
30
0
41
1
10
1.82
20
-6.475
30
0
0
SPLINE
5
20F
100
AcDbEntity
8
1
62
256
6
ByLayer
370
18
48
1
60
0
100
AcDbSpline
70
4
71
1
72
4
73
2
40
0
40
0
40
1
40
1
41
1
10
0.138378406783221
20
-4.725
30
0
41
1
10
0.425000000000001
20
-4.725
30
0
0
SPLINE
5
210
100
AcDbEntity
8
1
62
256
6
ByLayer
370
18
48
1
60
0
100
AcDbSpline
70
4
71
1
72
4
73
2
40
0
40
0
40
1
40
1
41
1
10
0.425000000000001
20
5.12201562595377
30
0
41
1
10
0.367750000000017
20
5.07289780492609
30
0
0
SPLINE
5
211
100
AcDbEntity
8
1
62
256
6
ByLayer
370
18
48
1
60
0
100
AcDbSpline
70
4
71
1
72
4
73
2
40
0
40
0
40
1
40
1
41
1
10
0.425000000004149
20
-18.8779843740463
30
0
41
1
10
0.367750000000017
20
-18.9271021950739
30
0
0
SPLINE
5
212
100
AcDbEntity
8
1
62
256
6
ByLayer
370
18
48
1
60
0
100
AcDbSpline
70
4
71
3
72
10
73
6
40
0
40
0
40
0
40
0
40
0.465711457713881
40
0.931522328251576
40
1
40
1
40
1
40
1
41
1
10
8.87323477314892
20
19.9372563784267
30
0
41
1
10
8.8770237709314
20
19.9463448069123
30
0
41
1
10
8.91902703340219
20
19.9620585942431
30
0
41
1
10
9.04499195041682
20
19.9736113876658
30
0
41
1
10
9.13068284715785
20
19.9781760598495
30
0
41
1
10
9.14201650992901
20
19.9787345217895
30
0
0
SPLINE
5
213
100
AcDbEntity
8
1
62
256
6
ByLayer
370
18
48
1
60
0
100
AcDbSpline
70
4
71
3
72
18
73
14
40
0
40
0
40
0
40
0
40
0.0856050643712618
40
0.171214271316446
40
0.259499989564005
40
0.347792005676473
40
0.433316143628553
40
0.518845767340123
40
0.606468187500426
40
0.694094777260057
40
0.845703960975721
40
0.92285538850155
40
1
40
1
40
1
40
1
41
1
10
18.1537593587731
20
2.04174023510174
30
0
41
1
10
17.8915826411006
20
2.04537973865595
30
0
41
1
10
17.3726696028065
20
2.07328212424473
30
0
41
1
10
16.5997497639809
20
2.17948706978583
30
0
41
1
10
15.8418694123522
20
2.34807433931758
30
0
41
1
10
15.1124203744095
20
2.57359711993095
30
0
41
1
10
14.4234923208077
20
2.84762373684161
30
0
41
1
10
13.7720491694477
20
3.16480310830928
30
0
41
1
10
13.1553588373416
20
3.52391918866353
30
0
41
1
10
12.4365330543338
20
4.01478870127253
30
0
41
1
10
11.8157753129441
20
4.53283040395149
30
0
41
1
10
11.2915278179479
20
5.05050154149841
30
0
41
1
10
11.0539176172896
20
5.31018193396156
30
0
41
1
10
10.9417395462268
20
5.44025435885068
30
0
0
SPLINE
5
214
100
AcDbEntity
8
1
62
256
6
ByLayer
370
18
48
1
60
0
100
AcDbSpline
70
4
71
2
72
6
73
3
40
0
40
0
40
0
40
1
40
1
40
1
41
1
10
9.74574891597602
20
17.990770010033
30
0
41
1
10
9.83847087751974
20
17.6313943183264
30
0
41
1
10
10.0123727206707
20
17.220009177352
30
0
0
SPLINE
5
215
100
AcDbEntity
8
1
62
256
6
ByLayer
370
18
48
1
60
0
100
AcDbSpline
70
4
71
3
72
18
73
14
40
0
40
0
40
0
40
0
40
0.0752125307274004
40
0.138911336326871
40
0.202829186915491
40
0.266572009945685
40
0.363286196236435
40
0.460066600034473
40
0.558574566026075
40
0.657452284872663
40
0.756100441537914
40
0.878032924504899
40
1
40
1
40
1
40
1
41
1
10
16.4195897532041
20
-16.305437306523
30
0
41
1
10
16.1252963971278
20
-16.3487036439037
30
0
41
1
10
15.5967167393275
20
-16.4472022757611
30
0
41
1
10
14.8612822838369
20
-16.6454061640217
30
0
41
1
10
14.2098960933579
20
-16.8678150474446
30
0
41
1
10
13.5007525572208
20
-17.1612548452645
30
0
41
1
10
12.7753240035548
20
-17.5308526085768
30
0
41
1
10
12.0715612697116
20
-17.9657660086529
30
0
41
1
10
11.4823448540978
20
-18.3927896523143
30
0
41
1
10
10.9991245764037
20
-18.7937024868618
30
0
41
1
10
10.5835432255036
20
-19.1796890899896
30
0
41
1
10
10.2516491765848
20
-19.5212777779302
30
0
41
1
10
10.0883640126964
20
-19.6999056946814
30
0
41
1
10
10.0263478927407
20
-19.7737199332852
30
0
0
SPLINE
5
216
100
AcDbEntity
8
1
62
256
6
ByLayer
370
18
48
1
60
0
100
AcDbSpline
70
4
71
1
72
4
73
2
40
0
40
0
40
1
40
1
41
1
10
16.3491720190851
20
15.3349756806798
30
0
41
1
10
16.3485913019396
20
14.3015159451735
30
0
0
SPLINE
5
217
100
AcDbEntity
8
1
62
256
6
ByLayer
370
18
48
1
60
0
100
AcDbSpline
70
4
71
1
72
4
73
2
40
0
40
0
40
1
40
1
41
1
10
21.0587107561392
20
16.4565921609855
30
0
41
1
10
21.1134583529575
20
16.3818167219484
30
0
0
SPLINE
5
218
100
AcDbEntity
8
1
62
256
6
ByLayer
370
18
48
1
60
0
100
AcDbSpline
70
4
71
1
72
4
73
2
40
0
40
0
40
1
40
1
41
1
10
22.2324944233702
20
14.4358513353559
30
0
41
1
10
22.2543836592954
20
14.3791942472418
30
0
0
SPLINE
5
219
100
AcDbEntity
8
1
62
256
6
ByLayer
370
18
48
1
60
0
100
AcDbSpline
70
4
71
1
72
4
73
2
40
0
40
0
40
1
40
1
41
1
10
22.7976445380621
20
17.3547481131764
30
0
41
1
10
22.7742716329539
20
17.4142553032732
30
0
0
SPLINE
5
21A
100
AcDbEntity
8
1
62
256
6
ByLayer
370
18
48
1
60
0
100
AcDbSpline
70
4
71
3
72
11
73
7
40
0
40
0
40
0
40
0
40
0.133871108074496
40
0.479686249810484
40
0.793044314612329
40
1
40
1
40
1
40
1
41
1
10
22.7742716329539
20
17.4142553032732
30
0
41
1
10
22.7679455021452
20
17.426534618434
30
0
41
1
10
22.7424118450904
20
17.4684195505229
30
0
41
1
10
22.6817142620961
20
17.5291077910466
30
0
41
1
10
22.5930792461046
20
17.5683344423547
30
0
41
1
10
22.5367281513088
20
17.5748862299578
30
0
41
1
10
22.5133777739105
20
17.5750494628037
30
0
0
SPLINE
5
21B
100
AcDbEntity
8
1
62
256
6
ByLayer
370
18
48
1
60
0
100
AcDbSpline
70
4
71
3
72
13
73
9
40
0
40
0
40
0
40
0
40
0.212275563556796
40
0.386387565009911
40
0.561520404343329
40
0.714816161336363
40
0.917450739141731
40
1
40
1
40
1
40
1
41
1
10
23.6356970584281
20
14.919338928359
30
0
41
1
10
23.566084493895
20
14.9371803682097
30
0
41
1
10
23.4368677095017
20
14.9473808609766
30
0
41
1
10
23.2343789678455
20
14.9064394008656
30
0
41
1
10
23.0622860567216
20
14.816467023672
30
0
41
1
10
22.9161544092801
20
14.6823314306585
30
0
41
1
10
22.8354818015223
20
14.550772150533
30
0
41
1
10
22.8035248805502
20
14.4622975038973
30
0
41
1
10
22.7960045422209
20
14.4361677315045
30
0
0
SPLINE
5
21C
100
AcDbEntity
8
1
62
256
6
ByLayer
370
18
48
1
60
0
100
AcDbSpline
70
4
71
3
72
10
73
6
40
0
40
0
40
0
40
0
40
0.494848865875526
40
0.898966292198763
40
1
40
1
40
1
40
1
41
1
10
23.9173124044987
20
16.383391012442
30
0
41
1
10
23.8653073570464
20
16.3303443436541
30
0
41
1
10
23.789391227566
20
16.2213588852506
30
0
41
1
10
23.7366395459569
20
16.0685089290331
30
0
41
1
10
23.7243046859337
20
15.9879206086968
30
0
41
1
10
23.7223156743229
20
15.9715678076335
30
0
0
SPLINE
5
21D
100
AcDbEntity
8
1
62
256
6
ByLayer
370
18
48
1
60
0
100
AcDbSpline
70
4
71
1
72
4
73
2
40
0
40
0
40
1
40
1
41
1
10
23.9694041879184
20
15.3378953887483
30
0
41
1
10
23.9167646661664
20
15.4086212532606
30
0
0
SPLINE
5
21E
100
AcDbEntity
8
1
62
256
6
ByLayer
370
18
48
1
60
0
100
AcDbSpline
70
4
71
2
72
6
73
3
40
0
40
0
40
0
40
1
40
1
40
1
41
1
10
28.4990485833243
20
15.5664350329779
30
0
41
1
10
28.4910173062318
20
15.4606663345276
30
0
41
1
10
28.4630716925432
20
15.3585000525261
30
0
0
SPLINE
5
21F
100
AcDbEntity
8
1
62
256
6
ByLayer
370
18
48
1
60
0
100
AcDbSpline
70
4
71
3
72
12
73
8
40
0
40
0
40
0
40
0
40
0.0780270330070008
40
0.410996323953047
40
0.651500777944454
40
0.891834376212708
40
1
40
1
40
1
40
1
41
1
10
29.2965777769356
20
0.0567845589874473
30
0
41
1
10
29.3253364303452
20
-0.0160014882276332
30
0
41
1
10
29.4722002481029
20
-0.400882169668053
30
0
41
1
10
29.6434659889738
20
-1.03278191261359
30
0
41
1
10
29.8396219375054
20
-1.82367768916773
30
0
41
1
10
29.9640681885051
20
-2.4026582770994
30
0
41
1
10
29.9936320770373
20
-2.75070985592156
30
0
41
1
10
30.0000000000001
20
-2.85915973868198
30
0
0
LINE
5
74
100
AcDbEntity
8
1
62
256
6
ByLayer
370
18
48
1
60
0
100
AcDbLine
10
26.271654
20
11.111941
30
-4.530604
11
26.275517
21
11.120067
31
-4.517835
39
0
210
0
220
0
230
1
0
LINE
5
76
100
AcDbEntity
8
1
62
256
6
ByLayer
370
18
48
1
60
0
100
AcDbLine
10
10.91507
20
8.721523
30
1.152391
11
10.915073
21
8.721517
31
1.152265
39
0
210
0
220
0
230
1
0
LINE
5
77
100
AcDbEntity
8
1
62
256
6
ByLayer
370
18
48
1
60
0
100
AcDbLine
10
10.498091
20
10.42791
30
1.062976
11
10.498094
21
10.42791
31
1.062851
39
0
210
0
220
0
230
1
0
LINE
5
78
100
AcDbEntity
8
1
62
256
6
ByLayer
370
18
48
1
60
0
100
AcDbLine
10
10.501519
20
16.522775
30
0.779606
11
10.501516
21
16.522781
31
0.779731
39
0
210
0
220
0
230
1
0
LINE
5
79
100
AcDbEntity
8
1
62
256
6
ByLayer
370
18
48
1
60
0
100
AcDbLine
10
28.844621
20
14.088298
30
-4.468103
11
28.842366
21
14.092629
31
-4.467072
39
0
210
0
220
0
230
1
0
LINE
5
7A
100
AcDbEntity
8
1
62
256
6
ByLayer
370
18
48
1
60
0
100
AcDbLine
10
28.842366
20
14.092629
30
-4.467072
11
28.841241
21
14.094791
31
-4.468486
39
0
210
0
220
0
230
1
0
LINE
5
7B
100
AcDbEntity
8
1
62
256
6
ByLayer
370
18
48
1
60
0
100
AcDbLine
10
0.425
20
-18.877984
30
0
11
0.425
21
-19.078784
31
0
39
0
210
0
220
0
230
1
0
LINE
5
7C
100
AcDbEntity
8
1
62
256
6
ByLayer
370
18
48
1
60
0
100
AcDbLine
10
0.52
20
-19.078784
30
0
11
0.425
21
-19.078784
31
0
39
0
210
0
220
0
230
1
0
LINE
5
7D
100
AcDbEntity
8
1
62
256
6
ByLayer
370
18
48
1
60
0
100
AcDbLine
10
0.425
20
-17.377984
30
0
11
0.425
21
-18.622016
31
0
39
0
210
0
220
0
230
1
0
LINE
5
7E
100
AcDbEntity
8
1
62
256
6
ByLayer
370
18
48
1
60
0
100
AcDbLine
10
0.425
20
-15.877984
30
0
11
0.425
21
-17.122016
31
0
39
0
210
0
220
0
230
1
0
LINE
5
7F
100
AcDbEntity
8
1
62
256
6
ByLayer
370
18
48
1
60
0
100
AcDbLine
10
0.425
20
-14.377984
30
0
11
0.425
21
-15.622016
31
0
39
0
210
0
220
0
230
1
0
LINE
5
80
100
AcDbEntity
8
1
62
256
6
ByLayer
370
18
48
1
60
0
100
AcDbLine
10
0.425
20
-12.877984
30
0
11
0.425
21
-14.122016
31
0
39
0
210
0
220
0
230
1
0
LINE
5
81
100
AcDbEntity
8
1
62
256
6
ByLayer
370
18
48
1
60
0
100
AcDbLine
10
0.425
20
-11.377984
30
0
11
0.425
21
-12.622016
31
0
39
0
210
0
220
0
230
1
0
LINE
5
82
100
AcDbEntity
8
1
62
256
6
ByLayer
370
18
48
1
60
0
100
AcDbLine
10
0.425
20
-9.877984
30
0
11
0.425
21
-11.122016
31
0
39
0
210
0
220
0
230
1
0
LINE
5
83
100
AcDbEntity
8
1
62
256
6
ByLayer
370
18
48
1
60
0
100
AcDbLine
10
0.425
20
-8.377984
30
0
11
0.425
21
-9.622016
31
0
39
0
210
0
220
0
230
1
0
LINE
5
84
100
AcDbEntity
8
1
62
256
6
ByLayer
370
18
48
1
60
0
100
AcDbLine
10
0.425
20
-6.877984
30
0
11
0.425
21
-8.122016
31
0
39
0
210
0
220
0
230
1
0
LINE
5
85
100
AcDbEntity
8
1
62
256
6
ByLayer
370
18
48
1
60
0
100
AcDbLine
10
0.425
20
-5.377984
30
0
11
0.425
21
-6.622016
31
0
39
0
210
0
220
0
230
1
0
LINE
5
86
100
AcDbEntity
8
1
62
256
6
ByLayer
370
18
48
1
60
0
100
AcDbLine
10
0.425
20
-4.725
30
0
11
0.425
21
-5.122016
31
0
39
0
210
0
220
0
230
1
0
LINE
5
87
100
AcDbEntity
8
1
62
256
6
ByLayer
370
18
48
1
60
0
100
AcDbLine
10
0.425
20
5.122016
30
0
11
0.425
21
4.725
31
0
39
0
210
0
220
0
230
1
0
LINE
5
88
100
AcDbEntity
8
1
62
256
6
ByLayer
370
18
48
1
60
0
100
AcDbLine
10
0.82
20
4.725
30
0
11
0.425
21
4.725
31
0
39
0
210
0
220
0
230
1
0
LINE
5
89
100
AcDbEntity
8
1
62
256
6
ByLayer
370
18
48
1
60
0
100
AcDbLine
10
0.425
20
6.622016
30
0
11
0.425
21
5.377984
31
0
39
0
210
0
220
0
230
1
0
LINE
5
8A
100
AcDbEntity
8
1
62
256
6
ByLayer
370
18
48
1
60
0
100
AcDbLine
10
0.425
20
8.122016
30
0
11
0.425
21
6.877984
31
0
39
0
210
0
220
0
230
1
0
LINE
5
8B
100
AcDbEntity
8
1
62
256
6
ByLayer
370
18
48
1
60
0
100
AcDbLine
10
0.425
20
9.622016
30
0
11
0.425
21
8.377984
31
0
39
0
210
0
220
0
230
1
0
LINE
5
8C
100
AcDbEntity
8
1
62
256
6
ByLayer
370
18
48
1
60
0
100
AcDbLine
10
0.425
20
11.122016
30
0
11
0.425
21
9.877984
31
0
39
0
210
0
220
0
230
1
0
LINE
5
8D
100
AcDbEntity
8
1
62
256
6
ByLayer
370
18
48
1
60
0
100
AcDbLine
10
0.425
20
12.622016
30
0
11
0.425
21
11.377984
31
0
39
0
210
0
220
0
230
1
0
LINE
5
8E
100
AcDbEntity
8
1
62
256
6
ByLayer
370
18
48
1
60
0
100
AcDbLine
10
0.425
20
14.122016
30
0
11
0.425
21
12.877984
31
0
39
0
210
0
220
0
230
1
0
LINE
5
8F
100
AcDbEntity
8
1
62
256
6
ByLayer
370
18
48
1
60
0
100
AcDbLine
10
0.425
20
15.622016
30
0
11
0.425
21
14.377984
31
0
39
0
210
0
220
0
230
1
0
LINE
5
90
100
AcDbEntity
8
1
62
256
6
ByLayer
370
18
48
1
60
0
100
AcDbLine
10
0.425
20
17.122016
30
0
11
0.425
21
15.877984
31
0
39
0
210
0
220
0
230
1
0
LINE
5
91
100
AcDbEntity
8
1
62
256
6
ByLayer
370
18
48
1
60
0
100
AcDbLine
10
0.425
20
18.622016
30
0
11
0.425
21
17.377984
31
0
39
0
210
0
220
0
230
1
0
LINE
5
92
100
AcDbEntity
8
1
62
256
6
ByLayer
370
18
48
1
60
0
100
AcDbLine
10
0.425
20
19.078784
30
0
11
0.425
21
18.877984
31
0
39
0
210
0
220
0
230
1
0
LINE
5
93
100
AcDbEntity
8
1
62
256
6
ByLayer
370
18
48
1
60
0
100
AcDbLine
10
9.148912
20
20
30
0
11
0.52
21
20
31
0
39
0
210
0
220
0
230
1
0
LINE
5
94
100
AcDbEntity
8
1
62
256
6
ByLayer
370
18
48
1
60
0
100
AcDbLine
10
8.873235
20
11.104553
30
0
11
8.530068
21
11.76377
31
0
39
0
210
0
220
0
230
1
0
LINE
5
95
100
AcDbEntity
8
1
62
256
6
ByLayer
370
18
48
1
60
0
100
AcDbLine
10
8.873235
20
11.104553
30
0
11
8.873235
21
19.937256
31
0
39
0
210
0
220
0
230
1
0
LINE
5
96
100
AcDbEntity
8
1
62
256
6
ByLayer
370
18
48
1
60
0
100
AcDbLine
10
9.745749
20
17.99077
30
0
11
9.516371
21
18.4314
31
0
39
0
210
0
220
0
230
1
0
LINE
5
97
100
AcDbEntity
8
1
62
256
6
ByLayer
370
18
48
1
60
0
100
AcDbLine
10
10.498091
20
10.42791
30
0
11
10.501516
21
16.522781
31
0
39
0
210
0
220
0
230
1
0
LINE
5
98
100
AcDbEntity
8
1
62
256
6
ByLayer
370
18
48
1
60
0
100
AcDbLine
10
10.498094
20
10.42791
30
0
11
11.010031
21
10.404979
31
0
39
0
210
0
220
0
230
1
0
LINE
5
99
100
AcDbEntity
8
1
62
256
6
ByLayer
370
18
48
1
60
0
100
AcDbLine
10
10.498094
20
10.42791
30
0
11
10.501519
21
16.522775
31
0
39
0
210
0
220
0
230
1
0
LINE
5
9A
100
AcDbEntity
8
1
62
256
6
ByLayer
370
18
48
1
60
0
100
AcDbLine
10
10.94174
20
5.440254
30
0
11
10.94174
21
-1.166983
31
0
39
0
210
0
220
0
230
1
0
LINE
5
9B
100
AcDbEntity
8
1
62
256
6
ByLayer
370
18
48
1
60
0
100
AcDbLine
10
11.010031
20
10.404979
30
0
11
11.145358
21
10.145019
31
0
39
0
210
0
220
0
230
1
0
LINE
5
9C
100
AcDbEntity
8
1
62
256
6
ByLayer
370
18
48
1
60
0
100
AcDbLine
10
11.010031
20
10.404979
30
0
11
11.01318
21
16.010118
31
0
39
0
210
0
220
0
230
1
0
LINE
5
9D
100
AcDbEntity
8
1
62
256
6
ByLayer
370
18
48
1
60
0
100
AcDbLine
10
11.247745
20
10.140433
30
0
11
11.145358
21
10.145019
31
0
39
0
210
0
220
0
230
1
0
LINE
5
9E
100
AcDbEntity
8
1
62
256
6
ByLayer
370
18
48
1
60
0
100
AcDbLine
10
11.148507
20
15.750157
30
0
11
11.145358
21
10.145019
31
0
39
0
210
0
220
0
230
1
0
LINE
5
9F
100
AcDbEntity
8
1
62
256
6
ByLayer
370
18
48
1
60
0
100
AcDbLine
10
11.247745
20
10.140433
30
0
11
11.250849
21
15.664238
31
0
39
0
210
0
220
0
230
1
0
LINE
5
A0
100
AcDbEntity
8
1
62
256
6
ByLayer
370
18
48
1
60
0
100
AcDbLine
10
20.683184
20
6.737625
30
0
11
14.194933
21
6.733982
31
0
39
0
210
0
220
0
230
1
0
LINE
5
A1
100
AcDbEntity
8
1
62
256
6
ByLayer
370
18
48
1
60
0
100
AcDbLine
10
14.194936
20
6.733976
30
0
11
14.207299
21
7.210226
31
0
39
0
210
0
220
0
230
1
0
LINE
5
A2
100
AcDbEntity
8
1
62
256
6
ByLayer
370
18
48
1
60
0
100
AcDbLine
10
16.206368
20
14.301436
30
0
11
16.204501
21
10.979603
31
0
39
0
210
0
220
0
230
1
0
LINE
5
A3
100
AcDbEntity
8
1
62
256
6
ByLayer
370
18
48
1
60
0
100
AcDbLine
10
16.427533
20
11.230903
30
0
11
16.204501
21
10.979603
31
0
39
0
210
0
220
0
230
1
0
LINE
5
A4
100
AcDbEntity
8
1
62
256
6
ByLayer
370
18
48
1
60
0
100
AcDbLine
10
16.204501
20
10.979603
30
0
11
18.872639
21
10.981101
31
0
39
0
210
0
220
0
230
1
0
LINE
5
A5
100
AcDbEntity
8
1
62
256
6
ByLayer
370
18
48
1
60
0
100
AcDbLine
10
16.206368
20
14.301436
30
0
11
16.429138
21
14.08782
31
0
39
0
210
0
220
0
230
1
0
LINE
5
A6
100
AcDbEntity
8
1
62
256
6
ByLayer
370
18
48
1
60
0
100
AcDbLine
10
16.349326
20
14.317425
30
0
11
16.348591
21
14.301516
31
0
39
0
210
0
220
0
230
1
0
LINE
5
A7
100
AcDbEntity
8
1
62
256
6
ByLayer
370
18
48
1
60
0
100
AcDbLine
10
16.349897
20
15.333583
30
0
11
16.349326
21
14.317425
31
0
39
0
210
0
220
0
230
1
0
LINE
5
A8
100
AcDbEntity
8
1
62
256
6
ByLayer
370
18
48
1
60
0
100
AcDbLine
10
16.349326
20
14.317425
30
0
11
17.135628
21
14.317867
31
0
39
0
210
0
220
0
230
1
0
LINE
5
A9
100
AcDbEntity
8
1
62
256
6
ByLayer
370
18
48
1
60
0
100
AcDbLine
10
16.429138
20
14.08782
30
0
11
16.427533
21
11.230903
31
0
39
0
210
0
220
0
230
1
0
LINE
5
AA
100
AcDbEntity
8
1
62
256
6
ByLayer
370
18
48
1
60
0
100
AcDbLine
10
17.344807
20
12.185349
30
0
11
16.427533
21
11.230903
31
0
39
0
210
0
220
0
230
1
0
LINE
5
AB
100
AcDbEntity
8
1
62
256
6
ByLayer
370
18
48
1
60
0
100
AcDbLine
10
16.427533
20
11.230903
30
0
11
18.741923
21
11.232203
31
0
39
0
210
0
220
0
230
1
0
LINE
5
AC
100
AcDbEntity
8
1
62
256
6
ByLayer
370
18
48
1
60
0
100
AcDbLine
10
16.429138
20
14.08782
30
0
11
17.345369
21
13.18427
31
0
39
0
210
0
220
0
230
1
0
LINE
5
AD
100
AcDbEntity
8
1
62
256
6
ByLayer
370
18
48
1
60
0
100
AcDbLine
10
16.429138
20
14.08782
30
0
11
17.255142
21
14.088283
31
0
39
0
210
0
220
0
230
1
0
LINE
5
AE
100
AcDbEntity
8
1
62
256
6
ByLayer
370
18
48
1
60
0
100
AcDbLine
10
18.276136
20
-12.159944
30
0
11
26.300197
21
-11.500162
31
0
39
0
210
0
220
0
230
1
0
LINE
5
AF
100
AcDbEntity
8
1
62
256
6
ByLayer
370
18
48
1
60
0
100
AcDbLine
10
18.276136
20
-3.026914
30
0
11
18.276136
21
-12.159944
31
0
39
0
210
0
220
0
230
1
0
LINE
5
B0
100
AcDbEntity
8
1
62
256
6
ByLayer
370
18
48
1
60
0
100
AcDbLine
10
18.276136
20
-3.026914
30
0
11
26.300197
21
-3.512635
31
0
39
0
210
0
220
0
230
1
0
LINE
5
B1
100
AcDbEntity
8
1
62
256
6
ByLayer
370
18
48
1
60
0
100
AcDbLine
10
18.276136
20
2.040257
30
0
11
18.276136
21
-3.026914
31
0
39
0
210
0
220
0
230
1
0
LINE
5
B2
100
AcDbEntity
8
1
62
256
6
ByLayer
370
18
48
1
60
0
100
AcDbLine
10
18.394626
20
2.57796
30
0
11
25.54868
21
2.585991
31
0
39
0
210
0
220
0
230
1
0
LINE
5
B3
100
AcDbEntity
8
1
62
256
6
ByLayer
370
18
48
1
60
0
100
AcDbLine
10
20.19069
20
14.67548
30
0
11
20.217866
21
14.623275
31
0
39
0
210
0
220
0
230
1
0
LINE
5
B4
100
AcDbEntity
8
1
62
256
6
ByLayer
370
18
48
1
60
0
100
AcDbLine
10
20.304605
20
-17.501862
30
0
11
20.555624
21
-16.53388
31
0
39
0
210
0
220
0
230
1
0
LINE
5
B5
100
AcDbEntity
8
1
62
256
6
ByLayer
370
18
48
1
60
0
100
AcDbLine
10
20.633804
20
7.049046
30
0
11
20.521099
21
7.048983
31
0
39
0
210
0
220
0
230
1
0
LINE
5
B6
100
AcDbEntity
8
1
62
256
6
ByLayer
370
18
48
1
60
0
100
AcDbLine
10
20.633804
20
7.049046
30
0
11
20.570667
21
6.953762
31
0
39
0
210
0
220
0
230
1
0
LINE
5
B7
100
AcDbEntity
8
1
62
256
6
ByLayer
370
18
48
1
60
0
100
AcDbLine
10
21.142563
20
6.071729
30
0
11
20.633804
21
7.049046
31
0
39
0
210
0
220
0
230
1
0
LINE
5
B8
100
AcDbEntity
8
1
62
256
6
ByLayer
370
18
48
1
60
0
100
AcDbLine
10
20.892187
20
5.336128
30
0
11
21.0396
21
5.05295
31
0
39
0
210
0
220
0
230
1
0
LINE
5
B9
100
AcDbEntity
8
1
62
256
6
ByLayer
370
18
48
1
60
0
100
AcDbLine
10
20.892187
20
5.336128
30
0
11
20.892749
21
6.335049
31
0
39
0
210
0
220
0
230
1
0
LINE
5
BA
100
AcDbEntity
8
1
62
256
6
ByLayer
370
18
48
1
60
0
100
AcDbLine
10
21.141988
20
5.048364
30
0
11
21.0396
21
5.05295
31
0
39
0
210
0
220
0
230
1
0
LINE
5
BB
100
AcDbEntity
8
1
62
256
6
ByLayer
370
18
48
1
60
0
100
AcDbLine
10
21.040162
20
6.051872
30
0
11
21.0396
21
5.05295
31
0
39
0
210
0
220
0
230
1
0
LINE
5
BC
100
AcDbEntity
8
1
62
256
6
ByLayer
370
18
48
1
60
0
100
AcDbLine
10
21.144672
20
15.346033
30
0
11
21.112911
21
15.407047
31
0
39
0
210
0
220
0
230
1
0
LINE
5
BD
100
AcDbEntity
8
1
62
256
6
ByLayer
370
18
48
1
60
0
100
AcDbLine
10
21.271354
20
16.149907
30
0
11
21.241901
21
16.206485
31
0
39
0
210
0
220
0
230
1
0
LINE
5
BE
100
AcDbEntity
8
1
62
256
6
ByLayer
370
18
48
1
60
0
100
AcDbLine
10
21.315673
20
15.803953
30
0
11
21.343552
21
15.750397
31
0
39
0
210
0
220
0
230
1
0
LINE
5
BF
100
AcDbEntity
8
1
62
256
6
ByLayer
370
18
48
1
60
0
100
AcDbLine
10
21.343645
20
15.916661
30
0
11
21.315766
21
15.970217
31
0
39
0
210
0
220
0
230
1
0
LINE
5
C0
100
AcDbEntity
8
1
62
256
6
ByLayer
370
18
48
1
60
0
100
AcDbLine
10
21.426246
20
16.810166
30
0
11
21.394442
21
16.871261
31
0
39
0
210
0
220
0
230
1
0
LINE
5
C1
100
AcDbEntity
8
1
62
256
6
ByLayer
370
18
48
1
60
0
100
AcDbLine
10
22.210756
20
14.511932
30
0
11
22.180573
21
14.569912
31
0
39
0
210
0
220
0
230
1
0
LINE
5
C2
100
AcDbEntity
8
1
62
256
6
ByLayer
370
18
48
1
60
0
100
AcDbLine
10
22.265938
20
17.293337
30
0
11
22.234134
21
17.354432
31
0
39
0
210
0
220
0
230
1
0
LINE
5
C3
100
AcDbEntity
8
1
62
256
6
ByLayer
370
18
48
1
60
0
100
AcDbLine
10
22.852809
20
17.214459
30
0
11
22.882991
21
17.156478
31
0
39
0
210
0
220
0
230
1
0
LINE
5
C4
100
AcDbEntity
8
1
62
256
6
ByLayer
370
18
48
1
60
0
100
AcDbLine
10
23.79294
20
15.575082
30
0
11
23.822393
21
15.518503
31
0
39
0
210
0
220
0
230
1
0
LINE
5
C5
100
AcDbEntity
8
1
62
256
6
ByLayer
370
18
48
1
60
0
100
AcDbLine
10
24.301834
20
6.739657
30
0
11
24.091814
21
6.336846
31
0
39
0
210
0
220
0
230
1
0
LINE
5
C6
100
AcDbEntity
8
1
62
256
6
ByLayer
370
18
48
1
60
0
100
AcDbLine
10
30
20
6.742856
30
0
11
24.301834
21
6.739657
31
0
39
0
210
0
220
0
230
1
0
LINE
5
C7
100
AcDbEntity
8
1
62
256
6
ByLayer
370
18
48
1
60
0
100
AcDbLine
10
24.574408
20
7.216047
30
0
11
24.301837
21
6.739651
31
0
39
0
210
0
220
0
230
1
0
LINE
5
C8
100
AcDbEntity
8
1
62
256
6
ByLayer
370
18
48
1
60
0
100
AcDbLine
10
26.277181
20
11.236434
30
0
11
28.843015
21
11.237874
31
0
39
0
210
0
220
0
230
1
0
LINE
5
C9
100
AcDbEntity
8
1
62
256
6
ByLayer
370
18
48
1
60
0
100
AcDbLine
10
26.300197
20
-11.500162
30
0
11
28.233292
21
-13.124535
31
0
39
0
210
0
220
0
230
1
0
LINE
5
CA
100
AcDbEntity
8
1
62
256
6
ByLayer
370
18
48
1
60
0
100
AcDbLine
10
26.300197
20
-11.500162
30
0
11
26.300197
21
-3.512635
31
0
39
0
210
0
220
0
230
1
0
LINE
5
CB
100
AcDbEntity
8
1
62
256
6
ByLayer
370
18
48
1
60
0
100
AcDbLine
10
26.300197
20
-3.512635
30
0
11
28.389758
21
-0.837525
31
0
39
0
210
0
220
0
230
1
0
LINE
5
CC
100
AcDbEntity
8
1
62
256
6
ByLayer
370
18
48
1
60
0
100
AcDbLine
10
26.774692
20
12.190643
30
0
11
27.900833
21
12.191276
31
0
39
0
210
0
220
0
230
1
0
LINE
5
CD
100
AcDbEntity
8
1
62
256
6
ByLayer
370
18
48
1
60
0
100
AcDbLine
10
27.767174
20
14.094187
30
0
11
28.841241
21
14.094791
31
0
39
0
210
0
220
0
230
1
0
LINE
5
CE
100
AcDbEntity
8
1
62
256
6
ByLayer
370
18
48
1
60
0
100
AcDbLine
10
28.843015
20
11.237874
30
0
11
27.900833
21
12.191276
31
0
39
0
210
0
220
0
230
1
0
LINE
5
CF
100
AcDbEntity
8
1
62
256
6
ByLayer
370
18
48
1
60
0
100
AcDbLine
10
27.901395
20
13.190197
30
0
11
27.900833
21
12.191276
31
0
39
0
210
0
220
0
230
1
0
LINE
5
D0
100
AcDbEntity
8
1
62
256
6
ByLayer
370
18
48
1
60
0
100
AcDbLine
10
27.901395
20
13.190197
30
0
11
28.842366
21
14.092629
31
0
39
0
210
0
220
0
230
1
0
LINE
5
D1
100
AcDbEntity
8
1
62
256
6
ByLayer
370
18
48
1
60
0
100
AcDbLine
10
28.377517
20
15.140463
30
0
11
27.942731
21
14.306558
31
0
39
0
210
0
220
0
230
1
0
LINE
5
D2
100
AcDbEntity
8
1
62
256
6
ByLayer
370
18
48
1
60
0
100
AcDbLine
10
27.951793
20
14.32394
30
0
11
28.721728
21
14.324372
31
0
39
0
210
0
220
0
230
1
0
LINE
5
D3
100
AcDbEntity
8
1
62
256
6
ByLayer
370
18
48
1
60
0
100
AcDbLine
10
28.185546
20
0.021974
30
0
11
28.015025
21
0.349541
31
0
39
0
210
0
220
0
230
1
0
LINE
5
D4
100
AcDbEntity
8
1
62
256
6
ByLayer
370
18
48
1
60
0
100
AcDbLine
10
28.389758
20
-0.837525
30
0
11
28.257443
21
-0.294801
31
0
39
0
210
0
220
0
230
1
0
LINE
5
D5
100
AcDbEntity
8
1
62
256
6
ByLayer
370
18
48
1
60
0
100
AcDbLine
10
28.434551
20
-0.635023
30
0
11
28.257443
21
-0.294801
31
0
39
0
210
0
220
0
230
1
0
LINE
5
D6
100
AcDbEntity
8
1
62
256
6
ByLayer
370
18
48
1
60
0
100
AcDbLine
10
28.337176
20
15.06309
30
0
11
28.721728
21
14.324372
31
0
39
0
210
0
220
0
230
1
0
LINE
5
D7
100
AcDbEntity
8
1
62
256
6
ByLayer
370
18
48
1
60
0
100
AcDbLine
10
29
20
-3.245371
30
0
11
28.389758
21
-0.837525
31
0
39
0
210
0
220
0
230
1
0
LINE
5
D8
100
AcDbEntity
8
1
62
256
6
ByLayer
370
18
48
1
60
0
100
AcDbLine
10
29
20
-2.900497
30
0
11
28.434551
21
-0.635023
31
0
39
0
210
0
220
0
230
1
0
LINE
5
D9
100
AcDbEntity
8
1
62
256
6
ByLayer
370
18
48
1
60
0
100
AcDbLine
10
28.841241
20
14.094791
30
0
11
28.721728
21
14.324372
31
0
39
0
210
0
220
0
230
1
0
LINE
5
DA
100
AcDbEntity
8
1
62
256
6
ByLayer
370
18
48
1
60
0
100
AcDbLine
10
29.085266
20
10.986835
30
0
11
28.843015
21
11.237874
31
0
39
0
210
0
220
0
230
1
0
LINE
5
DB
100
AcDbEntity
8
1
62
256
6
ByLayer
370
18
48
1
60
0
100
AcDbLine
10
28.844621
20
14.088298
30
0
11
28.843015
21
11.237874
31
0
39
0
210
0
220
0
230
1
0
LINE
5
DC
100
AcDbEntity
8
1
62
256
6
ByLayer
370
18
48
1
60
0
100
AcDbLine
10
29.086748
20
13.623176
30
0
11
28.844621
21
14.088298
31
0
39
0
210
0
220
0
230
1
0
LINE
5
DD
100
AcDbEntity
8
1
62
256
6
ByLayer
370
18
48
1
60
0
100
AcDbLine
10
30
20
-10
30
0
11
29
21
-10
31
0
39
0
210
0
220
0
230
1
0
LINE
5
DE
100
AcDbEntity
8
1
62
256
6
ByLayer
370
18
48
1
60
0
100
AcDbLine
10
29
20
-2.85916
30
0
11
29
21
-2.900497
31
0
39
0
210
0
220
0
230
1
0
LINE
5
DF
100
AcDbEntity
8
1
62
256
6
ByLayer
370
18
48
1
60
0
100
AcDbLine
10
30
20
-2.85916
30
0
11
29
21
-2.85916
31
0
39
0
210
0
220
0
230
1
0
LINE
5
E0
100
AcDbEntity
8
1
62
256
6
ByLayer
370
18
48
1
60
0
100
AcDbLine
10
29
20
-0.540649
30
0
11
29
21
-2.85916
31
0
39
0
210
0
220
0
230
1
0
LINE
5
E1
100
AcDbEntity
8
1
62
256
6
ByLayer
370
18
48
1
60
0
100
AcDbLine
10
30
20
0.422963
30
0
11
29.296578
21
0.056785
31
0
39
0
210
0
220
0
230
1
0
LINE
5
E2
100
AcDbEntity
8
1
62
256
6
ByLayer
370
18
48
1
60
0
100
AcDbLine
10
30
20
-2.85916
30
0
11
30
21
-10
31
0
39
0
210
0
220
0
230
1
0
LINE
5
E3
100
AcDbEntity
8
1
62
256
6
ByLayer
370
18
48
1
60
0
100
AcDbLine
10
30
20
0.422963
30
0
11
30
21
-2.85916
31
0
39
0
210
0
220
0
230
1
0
LINE
5
E4
100
AcDbEntity
8
1
62
256
6
ByLayer
370
18
48
1
60
0
100
AcDbLine
10
30
20
0.422963
30
0
11
30
21
6.742856
31
0
39
0
210
0
220
0
230
1
0
LINE
5
E5
100
AcDbEntity
8
1
62
256
6
ByLayer
370
18
48
1
60
0
100
AcDbLine
10
0.36775
20
-17.427102
30
0
11
-0.3
21
-17.812628
31
0
39
0
210
0
220
0
230
1
0
LINE
5
E6
100
AcDbEntity
8
1
62
256
6
ByLayer
370
18
48
1
60
0
100
AcDbLine
10
-0.3
20
-17.812628
30
0
11
-0.3
21
-18.187372
31
0
39
0
210
0
220
0
230
1
0
LINE
5
E7
100
AcDbEntity
8
1
62
256
6
ByLayer
370
18
48
1
60
0
100
AcDbLine
10
-0.3
20
-18.187372
30
0
11
0.36775
21
-18.572898
31
0
39
0
210
0
220
0
230
1
0
LINE
5
E8
100
AcDbEntity
8
1
62
256
6
ByLayer
370
18
48
1
60
0
100
AcDbLine
10
0.36775
20
-15.927102
30
0
11
-0.3
21
-16.312628
31
0
39
0
210
0
220
0
230
1
0
LINE
5
E9
100
AcDbEntity
8
1
62
256
6
ByLayer
370
18
48
1
60
0
100
AcDbLine
10
-0.3
20
-16.312628
30
0
11
-0.3
21
-16.687372
31
0
39
0
210
0
220
0
230
1
0
LINE
5
EA
100
AcDbEntity
8
1
62
256
6
ByLayer
370
18
48
1
60
0
100
AcDbLine
10
-0.3
20
-16.687372
30
0
11
0.36775
21
-17.072898
31
0
39
0
210
0
220
0
230
1
0
LINE
5
EB
100
AcDbEntity
8
1
62
256
6
ByLayer
370
18
48
1
60
0
100
AcDbLine
10
0.36775
20
-14.427102
30
0
11
-0.3
21
-14.812628
31
0
39
0
210
0
220
0
230
1
0
LINE
5
EC
100
AcDbEntity
8
1
62
256
6
ByLayer
370
18
48
1
60
0
100
AcDbLine
10
-0.3
20
-14.812628
30
0
11
-0.3
21
-15.187372
31
0
39
0
210
0
220
0
230
1
0
LINE
5
ED
100
AcDbEntity
8
1
62
256
6
ByLayer
370
18
48
1
60
0
100
AcDbLine
10
-0.3
20
-15.187372
30
0
11
0.36775
21
-15.572898
31
0
39
0
210
0
220
0
230
1
0
LINE
5
EE
100
AcDbEntity
8
1
62
256
6
ByLayer
370
18
48
1
60
0
100
AcDbLine
10
0.36775
20
-12.927102
30
0
11
-0.3
21
-13.312628
31
0
39
0
210
0
220
0
230
1
0
LINE
5
EF
100
AcDbEntity
8
1
62
256
6
ByLayer
370
18
48
1
60
0
100
AcDbLine
10
-0.3
20
-13.312628
30
0
11
-0.3
21
-13.687372
31
0
39
0
210
0
220
0
230
1
0
LINE
5
F0
100
AcDbEntity
8
1
62
256
6
ByLayer
370
18
48
1
60
0
100
AcDbLine
10
-0.3
20
-13.687372
30
0
11
0.36775
21
-14.072898
31
0
39
0
210
0
220
0
230
1
0
LINE
5
F1
100
AcDbEntity
8
1
62
256
6
ByLayer
370
18
48
1
60
0
100
AcDbLine
10
0.36775
20
-11.427102
30
0
11
-0.3
21
-11.812628
31
0
39
0
210
0
220
0
230
1
0
LINE
5
F2
100
AcDbEntity
8
1
62
256
6
ByLayer
370
18
48
1
60
0
100
AcDbLine
10
-0.3
20
-11.812628
30
0
11
-0.3
21
-12.187372
31
0
39
0
210
0
220
0
230
1
0
LINE
5
F3
100
AcDbEntity
8
1
62
256
6
ByLayer
370
18
48
1
60
0
100
AcDbLine
10
-0.3
20
-12.187372
30
0
11
0.36775
21
-12.572898
31
0
39
0
210
0
220
0
230
1
0
LINE
5
F4
100
AcDbEntity
8
1
62
256
6
ByLayer
370
18
48
1
60
0
100
AcDbLine
10
0.36775
20
-9.927102
30
0
11
-0.3
21
-10.312628
31
0
39
0
210
0
220
0
230
1
0
LINE
5
F5
100
AcDbEntity
8
1
62
256
6
ByLayer
370
18
48
1
60
0
100
AcDbLine
10
-0.3
20
-10.312628
30
0
11
-0.3
21
-10.687372
31
0
39
0
210
0
220
0
230
1
0
LINE
5
F6
100
AcDbEntity
8
1
62
256
6
ByLayer
370
18
48
1
60
0
100
AcDbLine
10
-0.3
20
-10.687372
30
0
11
0.36775
21
-11.072898
31
0
39
0
210
0
220
0
230
1
0
LINE
5
F7
100
AcDbEntity
8
1
62
256
6
ByLayer
370
18
48
1
60
0
100
AcDbLine
10
0.36775
20
-8.427102
30
0
11
-0.3
21
-8.812628
31
0
39
0
210
0
220
0
230
1
0
LINE
5
F8
100
AcDbEntity
8
1
62
256
6
ByLayer
370
18
48
1
60
0
100
AcDbLine
10
-0.3
20
-8.812628
30
0
11
-0.3
21
-9.187372
31
0
39
0
210
0
220
0
230
1
0
LINE
5
F9
100
AcDbEntity
8
1
62
256
6
ByLayer
370
18
48
1
60
0
100
AcDbLine
10
-0.3
20
-9.187372
30
0
11
0.36775
21
-9.572898
31
0
39
0
210
0
220
0
230
1
0
LINE
5
FA
100
AcDbEntity
8
1
62
256
6
ByLayer
370
18
48
1
60
0
100
AcDbLine
10
0.36775
20
-6.927102
30
0
11
-0.3
21
-7.312628
31
0
39
0
210
0
220
0
230
1
0
LINE
5
FB
100
AcDbEntity
8
1
62
256
6
ByLayer
370
18
48
1
60
0
100
AcDbLine
10
-0.3
20
-7.312628
30
0
11
-0.3
21
-7.687372
31
0
39
0
210
0
220
0
230
1
0
LINE
5
FC
100
AcDbEntity
8
1
62
256
6
ByLayer
370
18
48
1
60
0
100
AcDbLine
10
-0.3
20
-7.687372
30
0
11
0.36775
21
-8.072898
31
0
39
0
210
0
220
0
230
1
0
LINE
5
FD
100
AcDbEntity
8
1
62
256
6
ByLayer
370
18
48
1
60
0
100
AcDbLine
10
0.36775
20
-5.427102
30
0
11
-0.3
21
-5.812628
31
0
39
0
210
0
220
0
230
1
0
LINE
5
FE
100
AcDbEntity
8
1
62
256
6
ByLayer
370
18
48
1
60
0
100
AcDbLine
10
-0.3
20
-5.812628
30
0
11
-0.3
21
-6.187372
31
0
39
0
210
0
220
0
230
1
0
LINE
5
FF
100
AcDbEntity
8
1
62
256
6
ByLayer
370
18
48
1
60
0
100
AcDbLine
10
-0.3
20
-6.187372
30
0
11
0.36775
21
-6.572898
31
0
39
0
210
0
220
0
230
1
0
LINE
5
100
100
AcDbEntity
8
1
62
256
6
ByLayer
370
18
48
1
60
0
100
AcDbLine
10
0.36775
20
6.572898
30
0
11
-0.3
21
6.187372
31
0
39
0
210
0
220
0
230
1
0
LINE
5
101
100
AcDbEntity
8
1
62
256
6
ByLayer
370
18
48
1
60
0
100
AcDbLine
10
-0.3
20
6.187372
30
0
11
-0.3
21
5.812628
31
0
39
0
210
0
220
0
230
1
0
LINE
5
102
100
AcDbEntity
8
1
62
256
6
ByLayer
370
18
48
1
60
0
100
AcDbLine
10
-0.3
20
5.812628
30
0
11
0.36775
21
5.427102
31
0
39
0
210
0
220
0
230
1
0
LINE
5
103
100
AcDbEntity
8
1
62
256
6
ByLayer
370
18
48
1
60
0
100
AcDbLine
10
0.36775
20
8.072898
30
0
11
-0.3
21
7.687372
31
0
39
0
210
0
220
0
230
1
0
LINE
5
104
100
AcDbEntity
8
1
62
256
6
ByLayer
370
18
48
1
60
0
100
AcDbLine
10
-0.3
20
7.687372
30
0
11
-0.3
21
7.312628
31
0
39
0
210
0
220
0
230
1
0
LINE
5
105
100
AcDbEntity
8
1
62
256
6
ByLayer
370
18
48
1
60
0
100
AcDbLine
10
-0.3
20
7.312628
30
0
11
0.36775
21
6.927102
31
0
39
0
210
0
220
0
230
1
0
LINE
5
106
100
AcDbEntity
8
1
62
256
6
ByLayer
370
18
48
1
60
0
100
AcDbLine
10
0.36775
20
9.572898
30
0
11
-0.3
21
9.187372
31
0
39
0
210
0
220
0
230
1
0
LINE
5
107
100
AcDbEntity
8
1
62
256
6
ByLayer
370
18
48
1
60
0
100
AcDbLine
10
-0.3
20
9.187372
30
0
11
-0.3
21
8.812628
31
0
39
0
210
0
220
0
230
1
0
LINE
5
108
100
AcDbEntity
8
1
62
256
6
ByLayer
370
18
48
1
60
0
100
AcDbLine
10
-0.3
20
8.812628
30
0
11
0.36775
21
8.427102
31
0
39
0
210
0
220
0
230
1
0
LINE
5
109
100
AcDbEntity
8
1
62
256
6
ByLayer
370
18
48
1
60
0
100
AcDbLine
10
0.36775
20
11.072898
30
0
11
-0.3
21
10.687372
31
0
39
0
210
0
220
0
230
1
0
LINE
5
10A
100
AcDbEntity
8
1
62
256
6
ByLayer
370
18
48
1
60
0
100
AcDbLine
10
-0.3
20
10.687372
30
0
11
-0.3
21
10.312628
31
0
39
0
210
0
220
0
230
1
0
LINE
5
10B
100
AcDbEntity
8
1
62
256
6
ByLayer
370
18
48
1
60
0
100
AcDbLine
10
-0.3
20
10.312628
30
0
11
0.36775
21
9.927102
31
0
39
0
210
0
220
0
230
1
0
LINE
5
10C
100
AcDbEntity
8
1
62
256
6
ByLayer
370
18
48
1
60
0
100
AcDbLine
10
0.36775
20
12.572898
30
0
11
-0.3
21
12.187372
31
0
39
0
210
0
220
0
230
1
0
LINE
5
10D
100
AcDbEntity
8
1
62
256
6
ByLayer
370
18
48
1
60
0
100
AcDbLine
10
-0.3
20
12.187372
30
0
11
-0.3
21
11.812628
31
0
39
0
210
0
220
0
230
1
0
LINE
5
10E
100
AcDbEntity
8
1
62
256
6
ByLayer
370
18
48
1
60
0
100
AcDbLine
10
-0.3
20
11.812628
30
0
11
0.36775
21
11.427102
31
0
39
0
210
0
220
0
230
1
0
LINE
5
10F
100
AcDbEntity
8
1
62
256
6
ByLayer
370
18
48
1
60
0
100
AcDbLine
10
0.36775
20
14.072898
30
0
11
-0.3
21
13.687372
31
0
39
0
210
0
220
0
230
1
0
LINE
5
110
100
AcDbEntity
8
1
62
256
6
ByLayer
370
18
48
1
60
0
100
AcDbLine
10
-0.3
20
13.687372
30
0
11
-0.3
21
13.312628
31
0
39
0
210
0
220
0
230
1
0
LINE
5
111
100
AcDbEntity
8
1
62
256
6
ByLayer
370
18
48
1
60
0
100
AcDbLine
10
-0.3
20
13.312628
30
0
11
0.36775
21
12.927102
31
0
39
0
210
0
220
0
230
1
0
LINE
5
112
100
AcDbEntity
8
1
62
256
6
ByLayer
370
18
48
1
60
0
100
AcDbLine
10
0.36775
20
15.572898
30
0
11
-0.3
21
15.187372
31
0
39
0
210
0
220
0
230
1
0
LINE
5
113
100
AcDbEntity
8
1
62
256
6
ByLayer
370
18
48
1
60
0
100
AcDbLine
10
-0.3
20
15.187372
30
0
11
-0.3
21
14.812628
31
0
39
0
210
0
220
0
230
1
0
LINE
5
114
100
AcDbEntity
8
1
62
256
6
ByLayer
370
18
48
1
60
0
100
AcDbLine
10
-0.3
20
14.812628
30
0
11
0.36775
21
14.427102
31
0
39
0
210
0
220
0
230
1
0
LINE
5
115
100
AcDbEntity
8
1
62
256
6
ByLayer
370
18
48
1
60
0
100
AcDbLine
10
0.36775
20
17.072898
30
0
11
-0.3
21
16.687372
31
0
39
0
210
0
220
0
230
1
0
LINE
5
116
100
AcDbEntity
8
1
62
256
6
ByLayer
370
18
48
1
60
0
100
AcDbLine
10
-0.3
20
16.687372
30
0
11
-0.3
21
16.312628
31
0
39
0
210
0
220
0
230
1
0
LINE
5
117
100
AcDbEntity
8
1
62
256
6
ByLayer
370
18
48
1
60
0
100
AcDbLine
10
-0.3
20
16.312628
30
0
11
0.36775
21
15.927102
31
0
39
0
210
0
220
0
230
1
0
LINE
5
118
100
AcDbEntity
8
1
62
256
6
ByLayer
370
18
48
1
60
0
100
AcDbLine
10
0.36775
20
18.572898
30
0
11
-0.3
21
18.187372
31
0
39
0
210
0
220
0
230
1
0
LINE
5
119
100
AcDbEntity
8
1
62
256
6
ByLayer
370
18
48
1
60
0
100
AcDbLine
10
-0.3
20
18.187372
30
0
11
-0.3
21
17.812628
31
0
39
0
210
0
220
0
230
1
0
LINE
5
11A
100
AcDbEntity
8
1
62
256
6
ByLayer
370
18
48
1
60
0
100
AcDbLine
10
-0.3
20
17.812628
30
0
11
0.36775
21
17.427102
31
0
39
0
210
0
220
0
230
1
0
LINE
5
11B
100
AcDbEntity
8
1
62
256
6
ByLayer
370
18
48
1
60
0
100
AcDbLine
10
0.82
20
4.725
30
0
11
1.82
21
5.725
31
0
39
0
210
0
220
0
230
1
0
LINE
5
11C
100
AcDbEntity
8
1
62
256
6
ByLayer
370
18
48
1
60
0
100
AcDbLine
10
1.82
20
6.475
30
0
11
1.82
21
5.725
31
0
39
0
210
0
220
0
230
1
0
LINE
5
11D
100
AcDbEntity
8
1
62
256
6
ByLayer
370
18
48
1
60
0
100
AcDbLine
10
3.9
20
7.275
30
0
11
2.62
21
7.275
31
0
39
0
210
0
220
0
230
1
0
LINE
5
11E
100
AcDbEntity
8
1
62
256
6
ByLayer
370
18
48
1
60
0
100
AcDbLine
10
4.7
20
-6.475
30
0
11
4.7
21
6.475
31
0
39
0
210
0
220
0
230
1
0
LINE
5
11F
100
AcDbEntity
8
1
62
256
6
ByLayer
370
18
48
1
60
0
100
AcDbLine
10
2.62
20
-7.275
30
0
11
3.9
21
-7.275
31
0
39
0
210
0
220
0
230
1
0
LINE
5
120
100
AcDbEntity
8
1
62
256
6
ByLayer
370
18
48
1
60
0
100
AcDbLine
10
1.82
20
-5.725
30
0
11
1.82
21
-6.475
31
0
39
0
210
0
220
0
230
1
0
LINE
5
121
100
AcDbEntity
8
1
62
256
6
ByLayer
370
18
48
1
60
0
100
AcDbLine
10
1.82
20
-5.725
30
0
11
0.82
21
-4.725
31
0
39
0
210
0
220
0
230
1
0
LINE
5
122
100
AcDbEntity
8
1
62
256
6
ByLayer
370
18
48
1
60
0
100
AcDbLine
10
0.425
20
-4.725
30
0
11
0.82
21
-4.725
31
0
39
0
210
0
220
0
230
1
0
LINE
5
123
100
AcDbEntity
8
1
62
256
6
ByLayer
370
18
48
1
60
0
100
AcDbLine
10
0.138378
20
-4.725
30
0
11
0.088378
21
-4.911603
31
0
39
0
210
0
220
0
230
1
0
LINE
5
124
100
AcDbEntity
8
1
62
256
6
ByLayer
370
18
48
1
60
0
100
AcDbLine
10
0.088378
20
-4.911603
30
0
11
0.36775
21
-5.072898
31
0
39
0
210
0
220
0
230
1
0
LINE
5
125
100
AcDbEntity
8
1
62
256
6
ByLayer
370
18
48
1
60
0
100
AcDbLine
10
0.36775
20
5.072898
30
0
11
0.088378
21
4.911603
31
0
39
0
210
0
220
0
230
1
0
LINE
5
126
100
AcDbEntity
8
1
62
256
6
ByLayer
370
18
48
1
60
0
100
AcDbLine
10
0.088378
20
4.911603
30
0
11
0.138378
21
4.725
31
0
39
0
210
0
220
0
230
1
0
LINE
5
127
100
AcDbEntity
8
1
62
256
6
ByLayer
370
18
48
1
60
0
100
AcDbLine
10
0.36775
20
-18.927102
30
0
11
0.268003
21
-18.984691
31
0
39
0
210
0
220
0
230
1
0
LINE
5
128
100
AcDbEntity
8
1
62
256
6
ByLayer
370
18
48
1
60
0
100
AcDbLine
10
0.52
20
20
30
0
11
0.52
21
19.078784
31
0
39
0
210
0
220
0
230
1
0
LINE
5
129
100
AcDbEntity
8
1
62
256
6
ByLayer
370
18
48
1
60
0
100
AcDbLine
10
0.425
20
19.078784
30
0
11
0.52
21
19.078784
31
0
39
0
210
0
220
0
230
1
0
LINE
5
12A
100
AcDbEntity
8
1
62
256
6
ByLayer
370
18
48
1
60
0
100
AcDbLine
10
0.268003
20
18.984691
30
0
11
0.36775
21
18.927102
31
0
39
0
210
0
220
0
230
1
0
LINE
5
12B
100
AcDbEntity
8
1
62
256
6
ByLayer
370
18
48
1
60
0
100
AcDbLine
10
0.52
20
-19.078784
30
0
11
0.52
21
-20
31
0
39
0
210
0
220
0
230
1
0
LINE
5
12C
100
AcDbEntity
8
1
62
256
6
ByLayer
370
18
48
1
60
0
100
AcDbLine
10
0.52
20
-20
30
0
11
10.734502
21
-20
31
0
39
0
210
0
220
0
230
1
0
LINE
5
12D
100
AcDbEntity
8
1
62
256
6
ByLayer
370
18
48
1
60
0
100
AcDbLine
10
25.356292
20
1.956643
30
0
11
18.276136
21
2.040257
31
0
39
0
210
0
220
0
230
1
0
LINE
5
12E
100
AcDbEntity
8
1
62
256
6
ByLayer
370
18
48
1
60
0
100
AcDbLine
10
11.148507
20
15.750157
30
0
11
11.01318
21
16.010118
31
0
39
0
210
0
220
0
230
1
0
LINE
5
12F
100
AcDbEntity
8
1
62
256
6
ByLayer
370
18
48
1
60
0
100
AcDbLine
10
9.897109
20
17.410548
30
0
11
9.897109
21
11.059252
31
0
39
0
210
0
220
0
230
1
0
LINE
5
130
100
AcDbEntity
8
1
62
256
6
ByLayer
370
18
48
1
60
0
100
AcDbLine
10
29
20
-3.245371
30
0
11
29
21
-2.900497
31
0
39
0
210
0
220
0
230
1
0
LINE
5
131
100
AcDbEntity
8
1
62
256
6
ByLayer
370
18
48
1
60
0
100
AcDbLine
10
29
20
-10
30
0
11
29
21
-3.245371
31
0
39
0
210
0
220
0
230
1
0
LINE
5
132
100
AcDbEntity
8
1
62
256
6
ByLayer
370
18
48
1
60
0
100
AcDbLine
10
21.141988
20
5.048364
30
0
11
21.142563
21
6.071729
31
0
39
0
210
0
220
0
230
1
0
LINE
5
133
100
AcDbEntity
8
1
62
256
6
ByLayer
370
18
48
1
60
0
100
AcDbLine
10
21.142563
20
6.071729
30
0
11
21.040162
21
6.051872
31
0
39
0
210
0
220
0
230
1
0
LINE
5
134
100
AcDbEntity
8
1
62
256
6
ByLayer
370
18
48
1
60
0
100
AcDbLine
10
20.892749
20
6.335049
30
0
11
21.040162
21
6.051872
31
0
39
0
210
0
220
0
230
1
0
LINE
5
135
100
AcDbEntity
8
1
62
256
6
ByLayer
370
18
48
1
60
0
100
AcDbLine
10
20.892749
20
6.335049
30
0
11
20.683184
21
6.737625
31
0
39
0
210
0
220
0
230
1
0
LINE
5
136
100
AcDbEntity
8
1
62
256
6
ByLayer
370
18
48
1
60
0
100
AcDbLine
10
20.683184
20
6.737619
30
0
11
20.43534
21
7.213723
31
0
39
0
210
0
220
0
230
1
0
LINE
5
137
100
AcDbEntity
8
1
62
256
6
ByLayer
370
18
48
1
60
0
100
AcDbLine
10
20.43534
20
7.213723
30
0
11
14.207299
21
7.210226
31
0
39
0
210
0
220
0
230
1
0
LINE
5
138
100
AcDbEntity
8
1
62
256
6
ByLayer
370
18
48
1
60
0
100
AcDbLine
10
16.349172
20
15.334976
30
0
11
16.349897
21
15.333583
31
0
39
0
210
0
220
0
230
1
0
LINE
5
139
100
AcDbEntity
8
1
62
256
6
ByLayer
370
18
48
1
60
0
100
AcDbLine
10
16.348591
20
14.301516
30
0
11
16.206368
21
14.301436
31
0
39
0
210
0
220
0
230
1
0
LINE
5
13A
100
AcDbEntity
8
1
62
256
6
ByLayer
370
18
48
1
60
0
100
AcDbLine
10
16.597144
20
15.352286
30
0
11
21.802388
21
5.353104
31
0
39
0
210
0
220
0
230
1
0
LINE
5
13B
100
AcDbEntity
8
1
62
256
6
ByLayer
370
18
48
1
60
0
100
AcDbLine
10
23.210107
20
5.353895
30
0
11
28.426592
21
15.358928
31
0
39
0
210
0
220
0
230
1
0
LINE
5
13C
100
AcDbEntity
8
1
62
256
6
ByLayer
370
18
48
1
60
0
100
AcDbLine
10
28.427204
20
16.449437
30
0
11
23.22196
21
26.448619
31
0
39
0
210
0
220
0
230
1
0
LINE
5
13D
100
AcDbEntity
8
1
62
256
6
ByLayer
370
18
48
1
60
0
100
AcDbLine
10
21.814242
20
26.447828
30
0
11
16.597757
21
16.442795
31
0
39
0
210
0
220
0
230
1
0
LINE
5
13E
100
AcDbEntity
8
1
62
256
6
ByLayer
370
18
48
1
60
0
100
AcDbLine
10
17.345369
20
13.18427
30
0
11
17.72563
21
13.184484
31
0
39
0
210
0
220
0
230
1
0
LINE
5
13F
100
AcDbEntity
8
1
62
256
6
ByLayer
370
18
48
1
60
0
100
AcDbLine
10
17.345369
20
13.18427
30
0
11
17.344807
21
12.185349
31
0
39
0
210
0
220
0
230
1
0
LINE
5
140
100
AcDbEntity
8
1
62
256
6
ByLayer
370
18
48
1
60
0
100
AcDbLine
10
17.344807
20
12.185349
30
0
11
18.245484
21
12.185854
31
0
39
0
210
0
220
0
230
1
0
LINE
5
141
100
AcDbEntity
8
1
62
256
6
ByLayer
370
18
48
1
60
0
100
AcDbLine
10
24.874673
20
17.047456
30
0
11
24.847496
21
17.099661
31
0
39
0
210
0
220
0
230
1
0
LINE
5
142
100
AcDbEntity
8
1
62
256
6
ByLayer
370
18
48
1
60
0
100
AcDbLine
10
24.091814
20
6.336846
30
0
11
24.091252
21
5.337924
31
0
39
0
210
0
220
0
230
1
0
LINE
5
143
100
AcDbEntity
8
1
62
256
6
ByLayer
370
18
48
1
60
0
100
AcDbLine
10
22.590794
20
3.741932
30
0
11
22.390853
21
3.74182
31
0
39
0
210
0
220
0
230
1
0
LINE
5
144
100
AcDbEntity
8
1
62
256
6
ByLayer
370
18
48
1
60
0
100
AcDbLine
10
22.264298
20
14.374757
30
0
11
22.232494
21
14.435851
31
0
39
0
210
0
220
0
230
1
0
LINE
5
145
100
AcDbEntity
8
1
62
256
6
ByLayer
370
18
48
1
60
0
100
AcDbLine
10
23.668598
20
16.811425
30
0
11
23.636795
21
16.87252
31
0
39
0
210
0
220
0
230
1
0
LINE
5
146
100
AcDbEntity
8
1
62
256
6
ByLayer
370
18
48
1
60
0
100
AcDbLine
10
23.948527
20
15.347607
30
0
11
23.916765
21
15.408621
31
0
39
0
210
0
220
0
230
1
0
LINE
5
147
100
AcDbEntity
8
1
62
256
6
ByLayer
370
18
48
1
60
0
100
AcDbLine
10
30
20
6.74285
30
0
11
30
21
7.219093
31
0
39
0
210
0
220
0
230
1
0
LINE
5
148
100
AcDbEntity
8
1
62
256
6
ByLayer
370
18
48
1
60
0
100
AcDbLine
10
30
20
7.219093
30
0
11
24.574408
21
7.216047
31
0
39
0
210
0
220
0
230
1
0
LINE
5
149
100
AcDbEntity
8
1
62
256
6
ByLayer
370
18
48
1
60
0
100
AcDbLine
10
26.164303
20
10.985195
30
0
11
29.085266
21
10.986835
31
0
39
0
210
0
220
0
230
1
0
LINE
5
14A
100
AcDbEntity
8
1
62
256
6
ByLayer
370
18
48
1
60
0
100
AcDbLine
10
29.085266
20
10.986835
30
0
11
29.086748
21
13.623176
31
0
39
0
210
0
220
0
230
1
0
LINE
5
14B
100
AcDbEntity
8
1
62
256
6
ByLayer
370
18
48
1
60
0
100
AcDbLine
10
29.086748
20
13.623176
30
0
11
30
21
11.868835
31
0
39
0
210
0
220
0
230
1
0
LINE
5
14C
100
AcDbEntity
8
1
62
256
6
ByLayer
370
18
48
1
60
0
100
AcDbLine
10
30
20
7.219093
30
0
11
30
21
11.868835
31
0
39
0
210
0
220
0
230
1
0
LINE
5
14D
100
AcDbEntity
8
1
62
256
6
ByLayer
370
18
48
1
60
0
100
AcDbLine
10
27.283456
20
13.091246
30
0
11
27.866399
21
14.173922
31
0
39
0
210
0
220
0
230
1
0
LINE
5
14E
100
AcDbEntity
8
1
62
256
6
ByLayer
370
18
48
1
60
0
100
AcDbLine
10
27.866399
20
14.173922
30
0
11
27.942731
21
14.306558
31
0
39
0
210
0
220
0
230
1
0
LINE
5
14F
100
AcDbEntity
8
1
62
256
6
ByLayer
370
18
48
1
60
0
100
AcDbLine
10
27.295669
20
13.189857
30
0
11
27.901395
21
13.190197
31
0
39
0
210
0
220
0
230
1
0
LINE
5
150
100
AcDbEntity
8
4
62
256
6
ByLayer
370
18
48
0.05
60
0
100
AcDbLine
10
0
20
0
30
0
11
23
21
0
31
0
39
0
210
0
220
0
230
1
0
LINE
5
152
100
AcDbEntity
8
SK4
62
256
6
ByLayer
370
18
48
0.05
60
0
100
AcDbLine
10
-5
20
0
30
0
11
28
21
0
31
0
39
0
210
0
220
0
230
1
0
LINE
5
154
100
AcDbEntity
8
80
62
256
6
ByLayer
370
18
48
1
60
0
100
AcDbLine
10
0
20
0
30
0
11
-2.3
21
0
31
0
39
0
210
0
220
0
230
1
0
LINE
5
155
100
AcDbEntity
8
81
62
256
6
ByLayer
370
18
48
1
60
0
100
AcDbLine
10
23
20
27
30
0
11
25.3
21
27
31
0
39
0
210
0
220
0
230
1
0
MTEXT
5
220
100
AcDbEntity
8
SK6
62
256
6
ByLayer
370
13
48
1
60
0
100
AcDbMText
10
-3.192522
20
49.45292
30
0
210
0
220
0
230
1
1
\W0.7589;TITR-W4R-D13X-27A
40
3.175
41
0
44
0.963855
50
0
71
7
72
5
7
iso-1
0
DIMENSION
5
225
100
AcDbEntity
8
2
62
256
6
ByLayer
370
13
48
1
60
0
100
AcDbDimension
2
_U0
10
45.733942
20
27
30
0
11
45.733942
21
13.5
31
0
70
32
71
1
72
1
41
1
210
0
220
0
230
1
3
Standard
100
AcDbAlignedDimension
13
28
23
0
33
0
14
23
24
27
34
0
50
-90
100
AcDbRotatedDimension
1001
ACAD
1000
DSTYLE
1002
{
1070
   371
1070
    13
1070
   372
1070
    13
1070
   170
1070
     0
1070
   144
1040
1.0
1070
   277
1070
     2
1070
   284
1070
     8
1070
   278
1070
    44
1070
   146
1040
1.102362
1070
   345
1005
16
1070
   347
1005
16
1070
   346
1005
16
1070
   344
1005
0
1070
   343
1005
0
1070
   172
1070
     1
1070
    76
1070
     0
1070
    75
1070
     0
1070
   282
1070
     0
1070
   281
1070
     0
1070
    71
1070
     0
1070
    74
1070
     0
1070
   279
1070
     0
1070
   173
1070
     1
1070
   340
1005
221
1070
   271
1070
     3
1070
   272
1070
     3
1070
    77
1070
     1
1070
    73
1070
     0
1070
   171
1070
     4
1070
   274
1070
     4
1070
   177
1070
     7
1070
   176
1070
     7
1070
   178
1070
     7
1070
    78
1070
     8
1070
    48
1040
-0.1
1070
    41
1040
3.175
1070
   147
1040
1.5875
1070
    42
1040
1.5875
1070
    44
1040
3.175
1070
   140
1040
3.175
1002
}
1001
ACAD_DSTYLE_DIM_LINETYPE
1070
   380
1005
16
1001
ACAD_DSTYLE_DIM_EXT1_LINETYPE
1070
   381
1005
16
1001
ACAD_DSTYLE_DIM_EXT2_LINETYPE
1070
   382
1005
16
0
DIMENSION
5
23F
100
AcDbEntity
8
2
62
256
6
ByLayer
370
13
48
1
60
0
100
AcDbDimension
2
_U1
10
30
20
-33.086276
30
0
11
15
21
-33.086276
31
0
70
32
71
1
72
1
41
1
210
0
220
0
230
1
3
Standard
100
AcDbAlignedDimension
13
0
23
0
33
0
14
30
24
-10
34
0
50
0
100
AcDbRotatedDimension
1001
ACAD
1000
DSTYLE
1002
{
1070
   371
1070
    13
1070
   372
1070
    13
1070
   170
1070
     0
1070
   144
1040
1.0
1070
   277
1070
     2
1070
   284
1070
     8
1070
   278
1070
    44
1070
   146
1040
1.102362
1070
   345
1005
16
1070
   347
1005
16
1070
   346
1005
16
1070
   344
1005
0
1070
   343
1005
0
1070
   172
1070
     1
1070
    76
1070
     0
1070
    75
1070
     0
1070
   282
1070
     0
1070
   281
1070
     0
1070
    71
1070
     0
1070
    74
1070
     0
1070
   279
1070
     0
1070
   173
1070
     1
1070
   340
1005
221
1070
   271
1070
     3
1070
   272
1070
     3
1070
    77
1070
     1
1070
    73
1070
     1
1070
   171
1070
     4
1070
   274
1070
     4
1070
   177
1070
     7
1070
   176
1070
     7
1070
   178
1070
     7
1070
    78
1070
     8
1070
    48
1040
-0.1
1070
    41
1040
3.175
1070
   147
1040
1.5875
1070
    42
1040
1.5875
1070
    44
1040
3.175
1070
   140
1040
3.175
1002
}
1001
ACAD_DSTYLE_DIM_LINETYPE
1070
   380
1005
16
1001
ACAD_DSTYLE_DIM_EXT1_LINETYPE
1070
   381
1005
16
1001
ACAD_DSTYLE_DIM_EXT2_LINETYPE
1070
   382
1005
16
0
DIMENSION
5
257
100
AcDbEntity
8
2
62
256
6
ByLayer
370
13
48
1
60
0
100
AcDbDimension
2
_U2
10
23
20
35.027312
30
0
11
11.5
21
35.027312
31
0
70
32
71
1
72
1
41
1
210
0
220
0
230
1
3
Standard
100
AcDbAlignedDimension
13
0
23
0
33
0
14
23
24
27
34
0
50
0
100
AcDbRotatedDimension
1001
ACAD
1000
DSTYLE
1002
{
1070
   371
1070
    13
1070
   372
1070
    13
1070
   170
1070
     0
1070
   144
1040
1.0
1070
   277
1070
     2
1070
   284
1070
     8
1070
   278
1070
    44
1070
   146
1040
1.102362
1070
   345
1005
16
1070
   347
1005
16
1070
   346
1005
16
1070
   344
1005
0
1070
   343
1005
0
1070
   172
1070
     1
1070
    76
1070
     0
1070
    75
1070
     0
1070
   282
1070
     0
1070
   281
1070
     0
1070
    71
1070
     0
1070
    74
1070
     0
1070
   279
1070
     0
1070
   173
1070
     1
1070
   340
1005
221
1070
   271
1070
     3
1070
   272
1070
     3
1070
    77
1070
     1
1070
    73
1070
     1
1070
   171
1070
     4
1070
   274
1070
     4
1070
   177
1070
     7
1070
   176
1070
     7
1070
   178
1070
     7
1070
    78
1070
     8
1070
    48
1040
-0.1
1070
    41
1040
3.175
1070
   147
1040
1.5875
1070
    42
1040
1.5875
1070
    44
1040
3.175
1070
   140
1040
3.175
1002
}
1001
ACAD_DSTYLE_DIM_LINETYPE
1070
   380
1005
16
1001
ACAD_DSTYLE_DIM_EXT1_LINETYPE
1070
   381
1005
16
1001
ACAD_DSTYLE_DIM_EXT2_LINETYPE
1070
   382
1005
16
0
DIMENSION
5
26F
100
AcDbEntity
8
SK2
62
256
6
ByLayer
370
13
48
1
60
0
100
AcDbDimension
2
_U3
10
-15.400432
20
20
30
0
11
-15.400432
21
0
31
0
70
32
71
1
72
1
41
1
210
0
220
0
230
1
3
Standard
100
AcDbAlignedDimension
13
0.52
23
-20
33
0
14
0.52
24
20
34
0
50
90
100
AcDbRotatedDimension
1001
ACAD
1000
DSTYLE
1002
{
1070
   371
1070
    13
1070
   372
1070
    13
1070
     3
1000
%%c<>
1070
   170
1070
     0
1070
   144
1040
1.0
1070
   277
1070
     2
1070
   284
1070
     8
1070
   278
1070
    44
1070
   146
1040
1.102362
1070
   345
1005
16
1070
   347
1005
16
1070
   346
1005
16
1070
   344
1005
0
1070
   343
1005
0
1070
   172
1070
     1
1070
    76
1070
     0
1070
    75
1070
     0
1070
   282
1070
     0
1070
   281
1070
     0
1070
    71
1070
     0
1070
    74
1070
     0
1070
   279
1070
     0
1070
   173
1070
     1
1070
   340
1005
221
1070
   271
1070
     3
1070
   272
1070
     3
1070
    77
1070
     1
1070
    73
1070
     0
1070
   171
1070
     4
1070
   274
1070
     4
1070
   177
1070
     7
1070
   176
1070
     7
1070
   178
1070
     7
1070
    78
1070
     8
1070
    48
1040
-0.1
1070
    41
1040
3.175
1070
   147
1040
1.5875
1070
    42
1040
1.5875
1070
    44
1040
3.175
1070
   140
1040
3.175
1002
}
1001
ACAD_DSTYLE_DIM_LINETYPE
1070
   380
1005
16
1001
ACAD_DSTYLE_DIM_EXT1_LINETYPE
1070
   381
1005
16
1001
ACAD_DSTYLE_DIM_EXT2_LINETYPE
1070
   382
1005
16
0
ENDSEC
0
SECTION
2
OBJECTS
0
DICTIONARY
5
2f8
330
0
100
AcDbDictionary
280
0
281
1
3
ACAD_GROUP
350
2f9
3
ACAD_MLINESTYLE
350
2fa
0
DICTIONARY
5
2f9
330
0
100
AcDbDictionary
280
0
281
1
0
DICTIONARY
5
2fa
330
0
100
AcDbDictionary
280
0
281
1
3
Standard
350
18
0
MLINESTYLE
5
18
330
2fa
100
AcDbMlineStyle
2
Standard
70
0
3

62
256
51
90
52
90
71
2
49
-0.5
62
256
6
ByLayer
49
0.5
62
256
6
ByLayer
0
RASTERVARIABLES
5
2e7
330

100
AcDbRasterVariables
90
0
70
1
71
1
72
1
0
ENDSEC
0
EOF
