0
SECTION
2
HEADER
9
$ACADVER
1
AC1015
9
$DWGCODEPAGE
3
ANSI_1252
9
$HANDSEED
5
451
9
$ANGBASE
50
0
9
$ANGDIR
70
0
9
$ATTMODE
70
1
9
$AUNITS
70
0
9
$AUPREC
70
0
9
$CECOLOR
62
256
9
$CELTSCALE
40
1
9
$CELTYPE
6
ByLayer
9
$CELWEIGHT
370
18
9
$CLAYER
8
0
9
$CMLJUST
70
0
9
$CMLSCALE
40
1
9
$CMLSTYLE
2
Standard
9
$DIMSTYLE
2
Standard
9
$TEXTSIZE
40
0.2
9
$TEXTSTYLE
7
Standard
9
$LUNITS
70
2
9
$LUPREC
70
4
9
$EXTNAMES
290
1
9
$INSUNITS
70
4
9
$LTSCALE
40
1
9
$LWDISPLAY
290
1
9
$PDMODE
70
0
9
$PDSIZE
40
0
9
$PLINEGEN
70
0
0
ENDSEC
0
SECTION
2
CLASSES
0
CLASS
1
RASTERVARIABLES
2
AcDbRasterVariables
3
ISM
90
0
280
0
281
0
0
ENDSEC
0
SECTION
2
TABLES
0
TABLE
2
VPORT
5
447
100
AcDbSymbolTable
0
VPORT
5
1
100
AcDbSymbolTableRecord
100
AcDbViewportTableRecord
2
*Active
70
0
10
0
20
0
11
1
21
1
12
-1
22
1
13
0
23
0
14
0.5
24
0.5
15
10
25
10
16
0
26
0
36
1
17
0
27
0
37
0
0
ENDTAB
0
TABLE
2
LTYPE
5
448
100
AcDbSymbolTable
0
LTYPE
5
14
100
AcDbSymbolTableRecord
100
AcDbLinetypeTableRecord
70
0
2
ByBlock
3

72
65
73
0
40
0
0
LTYPE
5
15
100
AcDbSymbolTableRecord
100
AcDbLinetypeTableRecord
70
0
2
ByLayer
3

72
65
73
0
40
0
0
LTYPE
5
16
100
AcDbSymbolTableRecord
100
AcDbLinetypeTableRecord
70
0
2
Continuous
3
Solid line
72
65
73
0
40
0
0
LTYPE
5
6E
100
AcDbSymbolTableRecord
100
AcDbLinetypeTableRecord
70
0
2
CENTER
3
____ _ ____ _ ____ _ ____
72
65
73
4
40
47.5
49
22
74
0
49
-8.5
74
0
49
8.5
74
0
49
-8.5
74
0
0
LTYPE
5
6F
100
AcDbSymbolTableRecord
100
AcDbLinetypeTableRecord
70
0
2
DASHED
3
__ __ __ __ __ __ __ __ __
72
65
73
2
40
25.72
49
12.86
74
0
49
-12.86
74
0
0
ENDTAB
0
TABLE
2
LAYER
5
449
100
AcDbSymbolTable
0
LAYER
5
10
100
AcDbSymbolTableRecord
100
AcDbLayerTableRecord
2
0
70
0
62
7
6
Continuous
290
1
370
-3
390
0
0
LAYER
5
71
100
AcDbSymbolTableRecord
100
AcDbLayerTableRecord
2
1
70
0
62
4
6
Continuous
290
1
370
-3
390
0
0
LAYER
5
73
100
AcDbSymbolTableRecord
100
AcDbLayerTableRecord
2
80
70
0
62
-6
6
Continuous
290
1
370
-3
390
0
0
LAYER
5
75
100
AcDbSymbolTableRecord
100
AcDbLayerTableRecord
2
81
70
0
62
-3
6
Continuous
290
1
370
-3
390
0
0
LAYER
5
142
100
AcDbSymbolTableRecord
100
AcDbLayerTableRecord
2
4
70
0
62
-2
6
CENTER
290
1
370
-3
390
0
0
LAYER
5
180
100
AcDbSymbolTableRecord
100
AcDbLayerTableRecord
2
2
70
0
62
7
6
Continuous
290
1
370
-3
390
0
0
LAYER
5
35B
100
AcDbSymbolTableRecord
100
AcDbLayerTableRecord
2
Defpoints
70
0
62
7
6
Continuous
290
0
370
-3
390
0
0
LAYER
5
433
100
AcDbSymbolTableRecord
100
AcDbLayerTableRecord
2
SK1
70
0
62
4
6
Continuous
290
1
370
-3
390
0
0
LAYER
5
434
100
AcDbSymbolTableRecord
100
AcDbLayerTableRecord
2
SK4
70
0
62
2
6
CENTER
290
1
370
-3
390
0
0
LAYER
5
435
100
AcDbSymbolTableRecord
100
AcDbLayerTableRecord
2
SK2
70
0
62
7
6
Continuous
290
1
370
-3
390
0
0
LAYER
5
436
100
AcDbSymbolTableRecord
100
AcDbLayerTableRecord
2
SK6
70
0
62
5
6
Continuous
290
1
370
-3
390
0
0
ENDTAB
0
TABLE
2
STYLE
5
44a
100
AcDbSymbolTable
0
STYLE
5
11
100
AcDbSymbolTableRecord
100
AcDbTextStyleTableRecord
2
Standard
3
txt
70
0
71
0
40
0
41
1
42
0
50
0
0
STYLE
5
336
100
AcDbSymbolTableRecord
100
AcDbTextStyleTableRecord
2
iso_b_vert
3
simplex.shx
70
0
71
0
40
0
41
1
42
0
50
0
0
STYLE
5
337
100
AcDbSymbolTableRecord
100
AcDbTextStyleTableRecord
2
DWGDirectTextStyle
3
simplex
70
0
71
0
40
0
41
1
42
0
50
0
0
ENDTAB
0
TABLE
2
DIMSTYLE
5
44b
100
AcDbSymbolTable
100
AcDbDimStyleTable
0
DIMSTYLE
105
27
100
AcDbSymbolTableRecord
100
AcDbDimStyleTableRecord
2
Standard
70
0
3
<>
41
0.18
42
0.0625
44
0.18
140
0.18
147
0.09
73
0
74
0
77
1
271
2
275
0
278
52
280
0
340
11
0
ENDTAB
0
TABLE
2
VIEW
5
44c
100
AcDbSymbolTable
0
ENDTAB
0
TABLE
2
UCS
5
44d
100
AcDbSymbolTable
0
ENDTAB
0
TABLE
2
APPID
5
44e
100
AcDbSymbolTable
0
APPID
5
12
100
AcDbSymbolTableRecord
100
AcDbRegAppTableRecord
2
ACAD
70
0
0
APPID
5
357
100
AcDbSymbolTableRecord
100
AcDbRegAppTableRecord
2
ACAD_DSTYLE_DIMBREAK
70
0
0
APPID
5
3F2
100
AcDbSymbolTableRecord
100
AcDbRegAppTableRecord
2
ACAD_DSTYLE_DIM_LINETYPE
70
0
0
APPID
5
3F3
100
AcDbSymbolTableRecord
100
AcDbRegAppTableRecord
2
ACAD_DSTYLE_DIM_EXT1_LINETYPE
70
0
0
APPID
5
3F4
100
AcDbSymbolTableRecord
100
AcDbRegAppTableRecord
2
ACAD_DSTYLE_DIM_EXT2_LINETYPE
70
0
0
APPID
5
42F
100
AcDbSymbolTableRecord
100
AcDbRegAppTableRecord
2
ACAD_MLEADERVER
70
0
0
ENDTAB
0
TABLE
2
BLOCK_RECORD
5
44f
100
AcDbSymbolTable
0
BLOCK_RECORD
5
1F
100
AcDbSymbolTableRecord
100
AcDbBlockTableRecord
2
*Model_Space
340
0
70
0
0
BLOCK_RECORD
5
1B
100
AcDbSymbolTableRecord
100
AcDbBlockTableRecord
2
*Paper_Space
340
0
70
0
0
BLOCK_RECORD
5
23
100
AcDbSymbolTableRecord
100
AcDbBlockTableRecord
2
*Paper_Space0
340
0
70
0
0
BLOCK_RECORD
5
35C
100
AcDbSymbolTableRecord
100
AcDbBlockTableRecord
2
*D1
340
0
70
0
0
BLOCK_RECORD
5
368
100
AcDbSymbolTableRecord
100
AcDbBlockTableRecord
2
_U0
340
0
70
0
0
BLOCK_RECORD
5
374
100
AcDbSymbolTableRecord
100
AcDbBlockTableRecord
2
*D3
340
0
70
0
0
BLOCK_RECORD
5
381
100
AcDbSymbolTableRecord
100
AcDbBlockTableRecord
2
_U1
340
0
70
0
0
BLOCK_RECORD
5
38D
100
AcDbSymbolTableRecord
100
AcDbBlockTableRecord
2
*D5
340
0
70
0
0
BLOCK_RECORD
5
399
100
AcDbSymbolTableRecord
100
AcDbBlockTableRecord
2
_U2
340
0
70
0
0
BLOCK_RECORD
5
3A5
100
AcDbSymbolTableRecord
100
AcDbBlockTableRecord
2
*D7
340
0
70
0
0
BLOCK_RECORD
5
3B1
100
AcDbSymbolTableRecord
100
AcDbBlockTableRecord
2
_U3
340
0
70
0
0
BLOCK_RECORD
5
3BD
100
AcDbSymbolTableRecord
100
AcDbBlockTableRecord
2
*D9
340
0
70
0
0
BLOCK_RECORD
5
3CB
100
AcDbSymbolTableRecord
100
AcDbBlockTableRecord
2
_U4
340
0
70
0
0
ENDTAB
0
ENDSEC
0
SECTION
2
BLOCKS
0
BLOCK
5
20
100
AcDbEntity
8
0
100
AcDbBlockBegin
2
*Model_Space
70
0
10
0
20
0
30
0
3
*Model_Space
0
ENDBLK
5
21
100
AcDbEntity
8
0
100
AcDbBlockEnd
0
BLOCK
5
1C
100
AcDbEntity
8
0
100
AcDbBlockBegin
2
*Paper_Space
70
0
10
0
20
0
30
0
3
*Paper_Space
0
ENDBLK
5
1D
100
AcDbEntity
8
0
100
AcDbBlockEnd
0
BLOCK
5
24
100
AcDbEntity
8
0
100
AcDbBlockBegin
2
*Paper_Space0
70
0
10
0
20
0
30
0
3
*Paper_Space0
0
ENDBLK
5
25
100
AcDbEntity
8
0
100
AcDbBlockEnd
0
BLOCK
5
35D
100
AcDbEntity
8
0
100
AcDbBlockBegin
2
*D1
70
1
10
0
20
0
30
0
3
*D1
0
LINE
5
35F
100
AcDbEntity
8
0
62
256
6
ByLayer
370
-2
48
1
60
0
100
AcDbLine
10
0
20
-21.3375
30
0
11
0
21
-71.775
31
0
39
0
210
0
220
0
230
1
0
LINE
5
360
100
AcDbEntity
8
0
62
256
6
ByLayer
370
-2
48
1
60
0
100
AcDbLine
10
159
20
-10.5875
30
0
11
159
21
-71.775
31
0
39
0
210
0
220
0
230
1
0
LINE
5
361
100
AcDbEntity
8
0
62
256
6
ByLayer
370
-2
48
1
60
0
100
AcDbLine
10
4.175
20
-68.6
30
0
11
154.825
21
-68.6
31
0
39
0
210
0
220
0
230
1
0
SOLID
5
362
100
AcDbEntity
8
0
62
256
6
ByLayer
370
-1
48
1
60
0
100
AcDbTrace
10
4.175
20
-67.904167
30
0
11
4.175
21
-69.295833
31
0
12
0
22
-68.6
32
0
13
0
23
-68.6
33
0
39
0
210
0
220
0
230
1
0
SOLID
5
363
100
AcDbEntity
8
0
62
256
6
ByLayer
370
-1
48
1
60
0
100
AcDbTrace
10
154.825
20
-69.295833
30
0
11
154.825
21
-67.904167
31
0
12
159
22
-68.6
32
0
13
159
23
-68.6
33
0
39
0
210
0
220
0
230
1
0
MTEXT
5
364
100
AcDbEntity
8
0
62
256
6
ByLayer
370
18
48
1
60
0
100
AcDbMText
10
79.5
20
-59.20625
30
0
210
0
220
0
230
1
1
\A1;159
40
4.5
41
0
44
1
50
0
71
5
72
5
7
iso_b_vert
0
POINT
5
365
100
AcDbEntity
8
Defpoints
62
0
6
ByLayer
370
-1
48
1
60
0
100
AcDbPoint
10
0
20
-19.75
30
0
39
0
210
0
220
0
230
1
50
360
0
POINT
5
366
100
AcDbEntity
8
Defpoints
62
0
6
ByLayer
370
-1
48
1
60
0
100
AcDbPoint
10
159
20
-9
30
0
39
0
210
0
220
0
230
1
50
360
0
POINT
5
367
100
AcDbEntity
8
Defpoints
62
0
6
ByLayer
370
-1
48
1
60
0
100
AcDbPoint
10
159
20
-68.6
30
0
39
0
210
0
220
0
230
1
50
360
0
ENDBLK
5
35E
100
AcDbEntity
8
0
100
AcDbBlockEnd
0
BLOCK
5
36F
100
AcDbEntity
8
0
100
AcDbBlockBegin
2
_U0
70
0
10
0
20
0
30
0
3
_U0
0
MTEXT
5
369
100
AcDbEntity
8
2
62
256
6
ByLayer
370
18
48
1
60
0
100
AcDbMText
10
75.931801
20
-67.272328
30
0
210
0
220
0
230
1
1
\W0.6328;159
40
4.5
41
0
44
1.084337
50
0
71
7
72
5
7
iso_b_vert
0
LINE
5
36A
100
AcDbEntity
8
2
62
256
6
ByLayer
370
13
48
1
60
0
100
AcDbLine
10
0
20
-21.3375
30
0
11
0
21
-71.775
31
0
39
0
210
0
220
0
230
1
0
LINE
5
36B
100
AcDbEntity
8
2
62
256
6
ByLayer
370
13
48
1
60
0
100
AcDbLine
10
159
20
-10.5875
30
0
11
159
21
-71.775
31
0
39
0
210
0
220
0
230
1
0
LINE
5
36C
100
AcDbEntity
8
2
62
256
6
ByLayer
370
13
48
1
60
0
100
AcDbLine
10
0
20
-68.6
30
0
11
159
21
-68.6
31
0
39
0
210
0
220
0
230
1
0
SOLID
5
36D
100
AcDbEntity
8
2
62
256
6
ByLayer
370
18
48
1
60
0
100
AcDbTrace
10
0
20
-68.6
30
0
11
4.174997
21
-67.674425
31
0
12
4.175003
22
-69.525575
32
0
13
4.175003
23
-69.525575
33
0
39
0
210
0
220
0
230
1
0
SOLID
5
36E
100
AcDbEntity
8
2
62
256
6
ByLayer
370
18
48
1
60
0
100
AcDbTrace
10
159
20
-68.6
30
0
11
154.825003
21
-69.525575
31
0
12
154.824997
22
-67.674425
32
0
13
154.824997
23
-67.674425
33
0
39
0
210
0
220
0
230
1
0
ENDBLK
5
370
100
AcDbEntity
8
0
100
AcDbBlockEnd
0
BLOCK
5
375
100
AcDbEntity
8
0
100
AcDbBlockBegin
2
*D3
70
1
10
0
20
0
30
0
3
*D3
0
LINE
5
377
100
AcDbEntity
8
0
62
256
6
ByLayer
370
-2
48
1
60
0
100
AcDbLine
10
-15
20
-14.0875
30
0
11
-15
21
-71.775
31
0
39
0
210
0
220
0
230
1
0
LINE
5
378
100
AcDbEntity
8
0
62
256
6
ByLayer
370
-2
48
1
60
0
100
AcDbLine
10
0
20
-21.3375
30
0
11
0
21
-71.775
31
0
39
0
210
0
220
0
230
1
0
LINE
5
379
100
AcDbEntity
8
0
62
256
6
ByLayer
370
-2
48
1
60
0
100
AcDbLine
10
-19.175
20
-68.6
30
0
11
-23.35
21
-68.6
31
0
39
0
210
0
220
0
230
1
0
LINE
5
37A
100
AcDbEntity
8
0
62
256
6
ByLayer
370
-2
48
1
60
0
100
AcDbLine
10
4.175
20
-68.6
30
0
11
8.35
21
-68.6
31
0
39
0
210
0
220
0
230
1
0
SOLID
5
37B
100
AcDbEntity
8
0
62
256
6
ByLayer
370
-1
48
1
60
0
100
AcDbTrace
10
-19.175
20
-69.295833
30
0
11
-19.175
21
-67.904167
31
0
12
-15
22
-68.6
32
0
13
-15
23
-68.6
33
0
39
0
210
0
220
0
230
1
0
SOLID
5
37C
100
AcDbEntity
8
0
62
256
6
ByLayer
370
-1
48
1
60
0
100
AcDbTrace
10
4.175
20
-67.904167
30
0
11
4.175
21
-69.295833
31
0
12
0
22
-68.6
32
0
13
0
23
-68.6
33
0
39
0
210
0
220
0
230
1
0
MTEXT
5
37D
100
AcDbEntity
8
0
62
256
6
ByLayer
370
18
48
1
60
0
100
AcDbMText
10
-7.5
20
-59.20625
30
0
210
0
220
0
230
1
1
\A1;15
40
4.5
41
0
44
1
50
0
71
5
72
5
7
iso_b_vert
0
POINT
5
37E
100
AcDbEntity
8
Defpoints
62
0
6
ByLayer
370
-1
48
1
60
0
100
AcDbPoint
10
-15
20
-12.5
30
0
39
0
210
0
220
0
230
1
50
360
0
POINT
5
37F
100
AcDbEntity
8
Defpoints
62
0
6
ByLayer
370
-1
48
1
60
0
100
AcDbPoint
10
0
20
-19.75
30
0
39
0
210
0
220
0
230
1
50
360
0
POINT
5
380
100
AcDbEntity
8
Defpoints
62
0
6
ByLayer
370
-1
48
1
60
0
100
AcDbPoint
10
0
20
-68.6
30
0
39
0
210
0
220
0
230
1
50
360
0
ENDBLK
5
376
100
AcDbEntity
8
0
100
AcDbBlockEnd
0
BLOCK
5
388
100
AcDbEntity
8
0
100
AcDbBlockBegin
2
_U1
70
0
10
0
20
0
30
0
3
_U1
0
MTEXT
5
382
100
AcDbEntity
8
SK2
62
256
6
ByLayer
370
18
48
1
60
0
100
AcDbMText
10
-9.386828
20
-67.272328
30
0
210
0
220
0
230
1
1
\W0.5321;15
40
4.5
41
0
44
1.084337
50
0
71
7
72
5
7
iso_b_vert
0
LINE
5
383
100
AcDbEntity
8
SK2
62
256
6
ByLayer
370
13
48
1
60
0
100
AcDbLine
10
-15
20
-14.0875
30
0
11
-15
21
-71.775
31
0
39
0
210
0
220
0
230
1
0
LINE
5
384
100
AcDbEntity
8
SK2
62
256
6
ByLayer
370
13
48
1
60
0
100
AcDbLine
10
0
20
-21.3375
30
0
11
0
21
-71.775
31
0
39
0
210
0
220
0
230
1
0
LINE
5
385
100
AcDbEntity
8
SK2
62
256
6
ByLayer
370
13
48
1
60
0
100
AcDbLine
10
-26.25
20
-68.6
30
0
11
11.25
21
-68.6
31
0
39
0
210
0
220
0
230
1
0
SOLID
5
386
100
AcDbEntity
8
SK2
62
256
6
ByLayer
370
18
48
1
60
0
100
AcDbTrace
10
-15
20
-68.6
30
0
11
-19.174997
21
-69.525575
31
0
12
-19.175003
22
-67.674425
32
0
13
-19.175003
23
-67.674425
33
0
39
0
210
0
220
0
230
1
0
SOLID
5
387
100
AcDbEntity
8
SK2
62
256
6
ByLayer
370
18
48
1
60
0
100
AcDbTrace
10
0
20
-68.6
30
0
11
4.174997
21
-67.674425
31
0
12
4.175003
22
-69.525575
32
0
13
4.175003
23
-69.525575
33
0
39
0
210
0
220
0
230
1
0
ENDBLK
5
389
100
AcDbEntity
8
0
100
AcDbBlockEnd
0
BLOCK
5
38E
100
AcDbEntity
8
0
100
AcDbBlockBegin
2
*D5
70
1
10
0
20
0
30
0
3
*D5
0
LINE
5
390
100
AcDbEntity
8
0
62
256
6
ByLayer
370
-2
48
1
60
0
100
AcDbLine
10
159
20
-10.5875
30
0
11
159
21
-61.775
31
0
39
0
210
0
220
0
230
1
0
LINE
5
391
100
AcDbEntity
8
0
62
256
6
ByLayer
370
-2
48
1
60
0
100
AcDbLine
10
13.9436
20
-21.3375
30
0
11
13.9436
21
-61.775
31
0
39
0
210
0
220
0
230
1
0
LINE
5
392
100
AcDbEntity
8
0
62
256
6
ByLayer
370
-2
48
1
60
0
100
AcDbLine
10
154.825
20
-58.6
30
0
11
18.1186
21
-58.6
31
0
39
0
210
0
220
0
230
1
0
SOLID
5
393
100
AcDbEntity
8
0
62
256
6
ByLayer
370
-1
48
1
60
0
100
AcDbTrace
10
154.825
20
-59.295833
30
0
11
154.825
21
-57.904167
31
0
12
159
22
-58.6
32
0
13
159
23
-58.6
33
0
39
0
210
0
220
0
230
1
0
SOLID
5
394
100
AcDbEntity
8
0
62
256
6
ByLayer
370
-1
48
1
60
0
100
AcDbTrace
10
18.1186
20
-57.904167
30
0
11
18.1186
21
-59.295833
31
0
12
13.9436
22
-58.6
32
0
13
13.9436
23
-58.6
33
0
39
0
210
0
220
0
230
1
0
MTEXT
5
395
100
AcDbEntity
8
0
62
256
6
ByLayer
370
18
48
1
60
0
100
AcDbMText
10
86.4718
20
-49.20625
30
0
210
0
220
0
230
1
1
\A1;145.1
40
4.5
41
0
44
1
50
0
71
5
72
5
7
iso_b_vert
0
POINT
5
396
100
AcDbEntity
8
Defpoints
62
0
6
ByLayer
370
-1
48
1
60
0
100
AcDbPoint
10
159
20
-9
30
0
39
0
210
0
220
0
230
1
50
360
0
POINT
5
397
100
AcDbEntity
8
Defpoints
62
0
6
ByLayer
370
-1
48
1
60
0
100
AcDbPoint
10
13.9436
20
-19.75
30
0
39
0
210
0
220
0
230
1
50
360
0
POINT
5
398
100
AcDbEntity
8
Defpoints
62
0
6
ByLayer
370
-1
48
1
60
0
100
AcDbPoint
10
13.9436
20
-58.6
30
0
39
0
210
0
220
0
230
1
50
360
0
ENDBLK
5
38F
100
AcDbEntity
8
0
100
AcDbBlockEnd
0
BLOCK
5
3A0
100
AcDbEntity
8
0
100
AcDbBlockBegin
2
_U2
70
0
10
0
20
0
30
0
3
_U2
0
MTEXT
5
39A
100
AcDbEntity
8
SK2
62
256
6
ByLayer
370
18
48
1
60
0
100
AcDbMText
10
80.636158
20
-57.272328
30
0
210
0
220
0
230
1
1
\W0.6968;145.1
40
4.5
41
0
44
1.084337
50
0
71
7
72
5
7
iso_b_vert
0
LINE
5
39B
100
AcDbEntity
8
SK2
62
256
6
ByLayer
370
13
48
1
60
0
100
AcDbLine
10
159
20
-10.5875
30
0
11
159
21
-61.775
31
0
39
0
210
0
220
0
230
1
0
LINE
5
39C
100
AcDbEntity
8
SK2
62
256
6
ByLayer
370
13
48
1
60
0
100
AcDbLine
10
13.9436
20
-21.3375
30
0
11
13.9436
21
-61.775
31
0
39
0
210
0
220
0
230
1
0
LINE
5
39D
100
AcDbEntity
8
SK2
62
256
6
ByLayer
370
13
48
1
60
0
100
AcDbLine
10
159
20
-58.6
30
0
11
13.9436
21
-58.6
31
0
39
0
210
0
220
0
230
1
0
SOLID
5
39E
100
AcDbEntity
8
SK2
62
256
6
ByLayer
370
18
48
1
60
0
100
AcDbTrace
10
159
20
-58.6
30
0
11
154.825003
21
-59.525575
31
0
12
154.824997
22
-57.674425
32
0
13
154.824997
23
-57.674425
33
0
39
0
210
0
220
0
230
1
0
SOLID
5
39F
100
AcDbEntity
8
SK2
62
256
6
ByLayer
370
18
48
1
60
0
100
AcDbTrace
10
13.9436
20
-58.6
30
0
11
18.118597
21
-57.674425
31
0
12
18.118603
22
-59.525575
32
0
13
18.118603
23
-59.525575
33
0
39
0
210
0
220
0
230
1
0
ENDBLK
5
3A1
100
AcDbEntity
8
0
100
AcDbBlockEnd
0
BLOCK
5
3A6
100
AcDbEntity
8
0
100
AcDbBlockBegin
2
*D7
70
1
10
0
20
0
30
0
3
*D7
0
LINE
5
3A8
100
AcDbEntity
8
0
62
256
6
ByLayer
370
-2
48
1
60
0
100
AcDbLine
10
30
20
-10.5875
30
0
11
30
21
-51.775
31
0
39
0
210
0
220
0
230
1
0
LINE
5
3A9
100
AcDbEntity
8
0
62
256
6
ByLayer
370
-2
48
1
60
0
100
AcDbLine
10
159
20
-10.5875
30
0
11
159
21
-51.775
31
0
39
0
210
0
220
0
230
1
0
LINE
5
3AA
100
AcDbEntity
8
0
62
256
6
ByLayer
370
-2
48
1
60
0
100
AcDbLine
10
34.175
20
-48.6
30
0
11
154.825
21
-48.6
31
0
39
0
210
0
220
0
230
1
0
SOLID
5
3AB
100
AcDbEntity
8
0
62
256
6
ByLayer
370
-1
48
1
60
0
100
AcDbTrace
10
34.175
20
-47.904167
30
0
11
34.175
21
-49.295833
31
0
12
30
22
-48.6
32
0
13
30
23
-48.6
33
0
39
0
210
0
220
0
230
1
0
SOLID
5
3AC
100
AcDbEntity
8
0
62
256
6
ByLayer
370
-1
48
1
60
0
100
AcDbTrace
10
154.825
20
-49.295833
30
0
11
154.825
21
-47.904167
31
0
12
159
22
-48.6
32
0
13
159
23
-48.6
33
0
39
0
210
0
220
0
230
1
0
MTEXT
5
3AD
100
AcDbEntity
8
0
62
256
6
ByLayer
370
18
48
1
60
0
100
AcDbMText
10
94.5
20
-39.20625
30
0
210
0
220
0
230
1
1
\A1;129
40
4.5
41
0
44
1
50
0
71
5
72
5
7
iso_b_vert
0
POINT
5
3AE
100
AcDbEntity
8
Defpoints
62
0
6
ByLayer
370
-1
48
1
60
0
100
AcDbPoint
10
30
20
-9
30
0
39
0
210
0
220
0
230
1
50
360
0
POINT
5
3AF
100
AcDbEntity
8
Defpoints
62
0
6
ByLayer
370
-1
48
1
60
0
100
AcDbPoint
10
159
20
-9
30
0
39
0
210
0
220
0
230
1
50
360
0
POINT
5
3B0
100
AcDbEntity
8
Defpoints
62
0
6
ByLayer
370
-1
48
1
60
0
100
AcDbPoint
10
159
20
-48.6
30
0
39
0
210
0
220
0
230
1
50
360
0
ENDBLK
5
3A7
100
AcDbEntity
8
0
100
AcDbBlockEnd
0
BLOCK
5
3B8
100
AcDbEntity
8
0
100
AcDbBlockBegin
2
_U3
70
0
10
0
20
0
30
0
3
_U3
0
MTEXT
5
3B2
100
AcDbEntity
8
SK2
62
256
6
ByLayer
370
18
48
1
60
0
100
AcDbMText
10
90.931801
20
-47.272328
30
0
210
0
220
0
230
1
1
\W0.6328;129
40
4.5
41
0
44
1.084337
50
0
71
7
72
5
7
iso_b_vert
0
LINE
5
3B3
100
AcDbEntity
8
SK2
62
256
6
ByLayer
370
13
48
1
60
0
100
AcDbLine
10
30
20
-10.5875
30
0
11
30
21
-51.775
31
0
39
0
210
0
220
0
230
1
0
LINE
5
3B4
100
AcDbEntity
8
SK2
62
256
6
ByLayer
370
13
48
1
60
0
100
AcDbLine
10
159
20
-10.5875
30
0
11
159
21
-51.775
31
0
39
0
210
0
220
0
230
1
0
LINE
5
3B5
100
AcDbEntity
8
SK2
62
256
6
ByLayer
370
13
48
1
60
0
100
AcDbLine
10
30
20
-48.6
30
0
11
159
21
-48.6
31
0
39
0
210
0
220
0
230
1
0
SOLID
5
3B6
100
AcDbEntity
8
SK2
62
256
6
ByLayer
370
18
48
1
60
0
100
AcDbTrace
10
30
20
-48.6
30
0
11
34.174997
21
-47.674425
31
0
12
34.175003
22
-49.525575
32
0
13
34.175003
23
-49.525575
33
0
39
0
210
0
220
0
230
1
0
SOLID
5
3B7
100
AcDbEntity
8
SK2
62
256
6
ByLayer
370
18
48
1
60
0
100
AcDbTrace
10
159
20
-48.6
30
0
11
154.825003
21
-49.525575
31
0
12
154.824997
22
-47.674425
32
0
13
154.824997
23
-47.674425
33
0
39
0
210
0
220
0
230
1
0
ENDBLK
5
3B9
100
AcDbEntity
8
0
100
AcDbBlockEnd
0
BLOCK
5
3BE
100
AcDbEntity
8
0
100
AcDbBlockBegin
2
*D9
70
1
10
0
20
0
30
0
3
*D9
0
LINE
5
3C0
100
AcDbEntity
8
0
62
256
6
ByLayer
370
-2
48
1
60
0
100
AcDbLine
10
158.5369
20
-6.0875
30
0
11
158.5369
21
-41.775
31
0
39
0
210
0
220
0
230
1
0
LINE
5
3C1
100
AcDbEntity
8
0
62
256
6
ByLayer
370
-2
48
1
60
0
100
AcDbLine
10
159
20
-1.5875
30
0
11
159
21
-41.775
31
0
39
0
210
0
220
0
230
1
0
LINE
5
3C2
100
AcDbEntity
8
0
62
256
6
ByLayer
370
-2
48
1
60
0
100
AcDbLine
10
159
20
-38.6
30
0
11
195.351786
21
-38.6
31
0
39
0
210
0
220
0
230
1
0
LINE
5
3C3
100
AcDbEntity
8
0
62
256
6
ByLayer
370
-2
48
1
60
0
100
AcDbLine
10
154.3619
20
-38.6
30
0
11
150.1869
21
-38.6
31
0
39
0
210
0
220
0
230
1
0
LINE
5
3C4
100
AcDbEntity
8
0
62
256
6
ByLayer
370
-2
48
1
60
0
100
AcDbLine
10
163.175
20
-38.6
30
0
11
167.35
21
-38.6
31
0
39
0
210
0
220
0
230
1
0
SOLID
5
3C5
100
AcDbEntity
8
0
62
256
6
ByLayer
370
-1
48
1
60
0
100
AcDbTrace
10
154.3619
20
-39.295833
30
0
11
154.3619
21
-37.904167
31
0
12
158.5369
22
-38.6
32
0
13
158.5369
23
-38.6
33
0
39
0
210
0
220
0
230
1
0
SOLID
5
3C6
100
AcDbEntity
8
0
62
256
6
ByLayer
370
-1
48
1
60
0
100
AcDbTrace
10
163.175
20
-37.904167
30
0
11
163.175
21
-39.295833
31
0
12
159
22
-38.6
32
0
13
159
23
-38.6
33
0
39
0
210
0
220
0
230
1
0
MTEXT
5
3C7
100
AcDbEntity
8
0
62
256
6
ByLayer
370
18
48
1
60
0
100
AcDbMText
10
181.350893
20
-29.20625
30
0
210
0
220
0
230
1
1
\A1;0.46
40
4.5
41
0
44
1
50
0
71
5
72
5
7
iso_b_vert
0
POINT
5
3C8
100
AcDbEntity
8
Defpoints
62
0
6
ByLayer
370
-1
48
1
60
0
100
AcDbPoint
10
158.5369
20
-4.5
30
0
39
0
210
0
220
0
230
1
50
360
0
POINT
5
3C9
100
AcDbEntity
8
Defpoints
62
0
6
ByLayer
370
-1
48
1
60
0
100
AcDbPoint
10
159
20
0
30
0
39
0
210
0
220
0
230
1
50
360
0
POINT
5
3CA
100
AcDbEntity
8
Defpoints
62
0
6
ByLayer
370
-1
48
1
60
0
100
AcDbPoint
10
159
20
-38.6
30
0
39
0
210
0
220
0
230
1
50
360
0
ENDBLK
5
3BF
100
AcDbEntity
8
0
100
AcDbBlockEnd
0
BLOCK
5
3D2
100
AcDbEntity
8
0
100
AcDbBlockBegin
2
_U4
70
0
10
0
20
0
30
0
3
_U4
0
MTEXT
5
3CC
100
AcDbEntity
8
2
62
256
6
ByLayer
370
18
48
1
60
0
100
AcDbMText
10
171.351
20
-37.272328
30
0
210
0
220
0
230
1
1
\W0.7640;0.46
40
4.5
41
0
44
1.084337
50
0
71
7
72
5
7
iso_b_vert
0
LINE
5
3CD
100
AcDbEntity
8
2
62
256
6
ByLayer
370
13
48
1
60
0
100
AcDbLine
10
158.5369
20
-6.0875
30
0
11
158.5369
21
-41.775
31
0
39
0
210
0
220
0
230
1
0
LINE
5
3CE
100
AcDbEntity
8
2
62
256
6
ByLayer
370
13
48
1
60
0
100
AcDbLine
10
159
20
-1.5875
30
0
11
159
21
-41.775
31
0
39
0
210
0
220
0
230
1
0
LINE
5
3CF
100
AcDbEntity
8
2
62
256
6
ByLayer
370
13
48
1
60
0
100
AcDbLine
10
182.147698
20
-38.6
30
0
11
147.2869
21
-38.6
31
0
39
0
210
0
220
0
230
1
0
SOLID
5
3D0
100
AcDbEntity
8
2
62
256
6
ByLayer
370
18
48
1
60
0
100
AcDbTrace
10
158.5369
20
-38.6
30
0
11
154.361903
21
-39.525575
31
0
12
154.361897
22
-37.674425
32
0
13
154.361897
23
-37.674425
33
0
39
0
210
0
220
0
230
1
0
SOLID
5
3D1
100
AcDbEntity
8
2
62
256
6
ByLayer
370
18
48
1
60
0
100
AcDbTrace
10
159
20
-38.6
30
0
11
163.174997
21
-37.674425
31
0
12
163.175003
22
-39.525575
32
0
13
163.175003
23
-39.525575
33
0
39
0
210
0
220
0
230
1
0
ENDBLK
5
3D3
100
AcDbEntity
8
0
100
AcDbBlockEnd
0
ENDSEC
0
SECTION
2
ENTITIES
0
ARC
5
189
100
AcDbEntity
8
SK1
62
256
6
ByLayer
370
13
48
1
60
0
100
AcDbCircle
39
0
10
-0.3
20
12.9
30
0
40
0.599999999999998
210
0
220
0
230
1
100
AcDbArc
50
270
51
300
0
ARC
5
18A
100
AcDbEntity
8
SK1
62
256
6
ByLayer
370
13
48
1
60
0
100
AcDbCircle
39
0
10
-0.3
20
-12.9
30
0
40
0.599999999999998
210
0
220
0
230
1
100
AcDbArc
50
60
51
90
0
ARC
5
18B
100
AcDbEntity
8
1
62
256
6
ByLayer
370
13
48
1
60
0
100
AcDbCircle
39
0
10
5.5
20
-16.5
30
0
40
0.5
210
0
220
0
230
1
100
AcDbArc
50
90
51
180
0
ARC
5
18C
100
AcDbEntity
8
1
62
256
6
ByLayer
370
13
48
1
60
0
100
AcDbCircle
39
0
10
5.5
20
16.5
30
0
40
0.5
210
0
220
0
230
1
100
AcDbArc
50
180
51
270
0
ARC
5
18D
100
AcDbEntity
8
1
62
256
6
ByLayer
370
13
48
1
60
0
100
AcDbCircle
39
0
10
157.351672
20
8.402151
30
0
40
0.075
210
0
220
0
230
1
100
AcDbArc
50
8.974534
51
93
0
ARC
5
18E
100
AcDbEntity
8
1
62
256
6
ByLayer
370
13
48
1
60
0
100
AcDbCircle
39
0
10
157.379489
20
4.147112
30
0
40
0.075
210
0
220
0
230
1
100
AcDbArc
50
273
51
352.543899
0
ARC
5
18F
100
AcDbEntity
8
1
62
256
6
ByLayer
370
13
48
1
60
0
100
AcDbCircle
39
0
10
152.077816
20
8.029895
30
0
40
0.075
210
0
220
0
230
1
100
AcDbArc
50
71.092405
51
93
0
ARC
5
190
100
AcDbEntity
8
1
62
256
6
ByLayer
370
13
48
1
60
0
100
AcDbCircle
39
0
10
152.105633
20
3.774857
30
0
40
0.075
210
0
220
0
230
1
100
AcDbArc
50
273
51
303.323645
0
ELLIPSE
5
191
100
AcDbEntity
8
1
62
256
6
ByLayer
370
13
48
1
60
0
100
AcDbEllipse
10
152.921277
20
2.524028
30
0
11
-0.0680367431163263
21
1.29821839518092
31
0
210
0
220
0
230
1
40
0.995725
41
0
42
0.901830883780268
0
ELLIPSE
5
192
100
AcDbEntity
8
1
62
256
6
ByLayer
370
13
48
1
60
0
100
AcDbEllipse
10
151.253182
20
3.39478
30
0
11
-0.00212587133334401
21
-0.149984934813714
31
0
210
0
220
0
230
1
40
0.092168
41
-1.56465514491251
42
-0.0696346549931302
0
ELLIPSE
5
193
100
AcDbEntity
8
1
62
256
6
ByLayer
370
13
48
1
60
0
100
AcDbEllipse
10
158.533257
20
6.388032
30
0
11
-0.00785039343649897
21
0.149794430213179
31
0
210
0
220
0
230
1
40
0.995725
41
-1.75405589825432
42
-1.46607657167532
0
ELLIPSE
5
194
100
AcDbEntity
8
1
62
256
6
ByLayer
370
13
48
1
60
0
100
AcDbEllipse
10
158.423503
20
4.293266
30
0
11
0.00785039343644105
21
-0.149794430213191
31
0
210
0
220
0
230
1
40
0.995725
41
0.0959931088591557
42
1.38753675533548
0
ELLIPSE
5
195
100
AcDbEntity
8
1
62
256
6
ByLayer
370
13
48
1
60
0
100
AcDbEllipse
10
158.428116
20
4.293508
30
0
11
0.00785039343644105
21
-0.149794430213191
31
0
210
0
220
0
230
1
40
0.995725
41
0.0959931088593451
42
1.38753675533587
0
ELLIPSE
5
196
100
AcDbEntity
8
1
62
256
6
ByLayer
370
13
48
1
60
0
100
AcDbEllipse
10
150.975841
20
8.225581
30
0
11
-0.0436502644762192
21
-0.25549276189231
31
0
210
0
220
0
230
1
40
0.960623
41
-2.83535486674984
42
-1.53011605222993
0
ELLIPSE
5
197
100
AcDbEntity
8
1
62
256
6
ByLayer
370
13
48
1
60
0
100
AcDbEllipse
10
154.665933
20
6.085217
30
0
11
0.0699521520797063
21
-1.33476657543376
31
0
210
0
220
0
230
1
40
0.995725
41
2.87563155024231
42
-1.62293252536886
0
ELLIPSE
5
198
100
AcDbEntity
8
1
62
256
6
ByLayer
370
13
48
1
60
0
100
AcDbEllipse
10
154.665933
20
6.085217
30
0
11
0.0699521520797063
21
-1.33476657543376
31
0
210
0
220
0
230
1
40
0.995725
41
-1.62293252536886
42
-0.016989452914328
0
ELLIPSE
5
199
100
AcDbEntity
8
1
62
256
6
ByLayer
370
13
48
1
60
0
100
AcDbEllipse
10
157.550583
20
4.111436
30
0
11
0.00523359562429324
21
-0.0998629534754456
31
0
210
0
220
0
230
1
40
0.995725
41
-1.75405589825405
42
0.0959931088605118
0
ELLIPSE
5
19A
100
AcDbEntity
8
1
62
256
6
ByLayer
370
13
48
1
60
0
100
AcDbEllipse
10
157.603942
20
4.170438
30
0
11
-0.0435852065194606
21
-0.158111345871856
31
0
210
0
220
0
230
1
40
0.080185
41
-1.54411081848654
42
0.0266855082523608
0
ELLIPSE
5
19B
100
AcDbEntity
8
1
62
256
6
ByLayer
370
13
48
1
60
0
100
AcDbEllipse
10
154.625551
20
8.055804
30
0
11
0.0039251967182204
21
-0.0748972151065931
31
0
210
0
220
0
230
1
40
0.092371
41
1.5707963267949
42
3.14159265358569
0
ELLIPSE
5
19C
100
AcDbEntity
8
1
62
256
6
ByLayer
370
13
48
1
60
0
100
AcDbEllipse
10
158.237018
20
3.938615
30
0
11
-0.0436502644916597
21
-0.255492761888227
31
0
210
0
220
0
230
1
40
0.960623
41
0.30623778689869
42
1.2414427649199
0
ELLIPSE
5
19D
100
AcDbEntity
8
1
62
256
6
ByLayer
370
13
48
1
60
0
100
AcDbEllipse
10
157.95288
20
8.781798
30
0
11
-0.00205858338350429
21
0.149985873449646
31
0
210
0
220
0
230
1
40
0.092302
41
0.00356790892017812
42
1.57436423571418
0
ELLIPSE
5
19E
100
AcDbEntity
8
1
62
256
6
ByLayer
370
13
48
1
60
0
100
AcDbEllipse
10
151.456771
20
5.143817
30
0
11
-0.0915879234258239
21
1.74760168582047
31
0
210
0
220
0
230
1
40
0.995725
41
3.10312211148837
42
3.13286600732982
0
ELLIPSE
5
19F
100
AcDbEntity
8
1
62
256
6
ByLayer
370
13
48
1
60
0
100
AcDbEllipse
10
157.645963
20
8.655147
30
0
11
-0.458505441895368
21
-0.353314653439511
31
0
210
0
220
0
230
1
40
0.479615
41
-2.09905942790064
42
-1.63253590619585
0
ELLIPSE
5
1A0
100
AcDbEntity
8
1
62
256
6
ByLayer
370
13
48
1
60
0
100
AcDbEllipse
10
158.080457
20
0.032959
30
0
11
0.465790010562154
21
-8.88780285931571
31
0
210
0
220
0
230
1
40
0.995725
41
3.07534344057205
42
3.10312211148863
0
ELLIPSE
5
1A1
100
AcDbEntity
8
1
62
256
6
ByLayer
370
13
48
1
60
0
100
AcDbEllipse
10
157.790787
20
8.756148
30
0
11
0.122557354636323
21
-0.08648522893851
31
0
210
0
220
0
230
1
40
0.057286
41
-2.9097242064026
42
-1.64344076612791
0
ELLIPSE
5
1A2
100
AcDbEntity
8
1
62
256
6
ByLayer
370
13
48
1
60
0
100
AcDbEllipse
10
151.024577
20
7.883258
30
0
11
0.0222321776352624
21
-0.148343285246061
31
0
210
0
220
0
230
1
40
0.091945
41
-3.05448529856356
42
-1.57968743413492
0
ELLIPSE
5
1A3
100
AcDbEntity
8
1
62
256
6
ByLayer
370
13
48
1
60
0
100
AcDbEllipse
10
151.618852
20
3.399345
30
0
11
0.00653729335064122
21
-0.149857478277354
31
0
210
0
220
0
230
1
40
0.092367
41
-1.56998679074977
42
-0.0232440763741143
0
ELLIPSE
5
1A4
100
AcDbEntity
8
1
62
256
6
ByLayer
370
13
48
1
60
0
100
AcDbEllipse
10
157.042616
20
6.369498
30
0
11
0.036635169370057
21
-0.699040674328202
31
0
210
0
220
0
230
1
40
0.995725
41
1.38753675533552
42
1.6755160819146
0
ELLIPSE
5
1A5
100
AcDbEntity
8
1
62
256
6
ByLayer
370
13
48
1
60
0
100
AcDbEllipse
10
156.51758
20
9.652013
30
0
11
0.0811207321765554
21
-1.5478757788696
31
0
210
0
220
0
230
1
40
0.995725
41
0.676021157721338
42
0.901830883780602
0
ELLIPSE
5
1A6
100
AcDbEntity
8
1
62
256
6
ByLayer
370
13
48
1
60
0
100
AcDbEllipse
10
151.259835
20
3.545005
30
0
11
0.0157007868728817
21
-0.299588860426374
31
0
210
0
220
0
230
1
40
0.995725
41
-1.4660765716757
42
-0.0662492130183439
0
ELLIPSE
5
1A7
100
AcDbEntity
8
1
62
256
6
ByLayer
370
13
48
1
60
0
100
AcDbEllipse
10
158.192858
20
8.63176
30
0
11
0.0157007868728817
21
-0.299588860426374
31
0
210
0
220
0
230
1
40
0.995725
41
1.67551608191438
42
3.07534344057183
0
ELLIPSE
5
1A8
100
AcDbEntity
8
1
62
256
6
ByLayer
370
13
48
1
60
0
100
AcDbEllipse
10
150.990686
20
3.91215
30
0
11
-0.0701174095392191
21
0.249530450742213
31
0
210
0
220
0
230
1
40
0.960623
41
1.53011605221937
42
1.90015045648217
0
ELLIPSE
5
1A9
100
AcDbEntity
8
1
62
256
6
ByLayer
370
13
48
1
60
0
100
AcDbEllipse
10
150.752901
20
5.807379
30
0
11
-0.148731686424787
21
0.0194649801756577
31
0
210
0
220
0
230
1
40
0.016833
41
0.263284196992698
42
1.47983423648432
0
ELLIPSE
5
1AA
100
AcDbEntity
8
1
62
256
6
ByLayer
370
13
48
1
60
0
100
AcDbEllipse
10
158.69518
20
6.369145
30
0
11
0.148731686424787
21
-0.0194649801756567
31
0
210
0
220
0
230
1
40
0.016833
41
-1.66175841710529
42
-0.0909620903116288
0
ELLIPSE
5
1AB
100
AcDbEntity
8
1
62
256
6
ByLayer
370
13
48
1
60
0
100
AcDbEllipse
10
151.02919
20
7.8835
30
0
11
0.00785039343644105
21
-0.149794430213191
31
0
210
0
220
0
230
1
40
0.995725
41
-3.04559954473105
42
-1.75405589825469
0
ELLIPSE
5
1AC
100
AcDbEntity
8
1
62
256
6
ByLayer
370
13
48
1
60
0
100
AcDbEllipse
10
152.077816
20
8.029895
30
0
11
0.0743658432123937
21
-0.00973249008782829
31
0
210
0
220
0
230
1
40
0.016833
41
1.47983423648208
42
3.05063056328417
0
ELLIPSE
5
1AD
100
AcDbEntity
8
1
62
256
6
ByLayer
370
13
48
1
60
0
100
AcDbEllipse
10
158.194899
20
8.781744
30
0
11
0.00212587133334383
21
0.149984934813714
31
0
210
0
220
0
230
1
40
0.092168
41
0.00614118188112251
42
1.57693750867728
0
ELLIPSE
5
1AE
100
AcDbEntity
8
1
62
256
6
ByLayer
370
13
48
1
60
0
100
AcDbEllipse
10
151.621282
20
3.449539
30
0
11
0.0104671912485877
21
-0.199725906950914
31
0
210
0
220
0
230
1
40
0.995725
41
-0.0087266462611237
42
0.901830883780014
0
ELLIPSE
5
1AF
100
AcDbEntity
8
1
62
256
6
ByLayer
370
13
48
1
60
0
100
AcDbEllipse
10
157.379489
20
4.147112
30
0
11
0.0243032116522819
21
0.0709531810659986
31
0
210
0
220
0
230
1
40
0.085751
41
-3.10712136639351
42
-1.53632503960626
0
ELLIPSE
5
1B0
100
AcDbEntity
8
1
62
256
6
ByLayer
370
13
48
1
60
0
100
AcDbEllipse
10
154.831755
20
4.121203
30
0
11
0.0039251967182204
21
-0.0748972151065931
31
0
210
0
220
0
230
1
40
0.092371
41
0
42
1.5707963267949
0
ELLIPSE
5
1B1
100
AcDbEntity
8
1
62
256
6
ByLayer
370
13
48
1
60
0
100
AcDbEllipse
10
156.51808
20
2.712528
30
0
11
-1.06244664018099
21
-1.0984363418124
31
0
210
0
220
0
230
1
40
0.695792
41
2.89972207094727
42
-3.01162237895597
0
ELLIPSE
5
1B2
100
AcDbEntity
8
1
62
256
6
ByLayer
370
13
48
1
60
0
100
AcDbEllipse
10
151.947116
20
3.661496
30
0
11
0.005233595624293
21
-0.0998629534754409
31
0
210
0
220
0
230
1
40
0.995725
41
0.657926248776472
42
1.67551608191449
0
ELLIPSE
5
1B3
100
AcDbEntity
8
1
62
256
6
ByLayer
370
13
48
1
60
0
100
AcDbEllipse
10
157.87393
20
6.502036
30
0
11
0.14816366586316
21
0.0233993187505487
31
0
210
0
220
0
230
1
40
0.009655
41
1.66279490126813
42
-3.04959407911989
0
ELLIPSE
5
1B4
100
AcDbEntity
8
1
62
256
6
ByLayer
370
13
48
1
60
0
100
AcDbEllipse
10
151.90211
20
8.06533
30
0
11
0.00523359562429324
21
-0.0998629534754456
31
0
210
0
220
0
230
1
40
0.995725
41
1.38753675533517
42
3.10860046488735
0
ELLIPSE
5
1B5
100
AcDbEntity
8
1
62
256
6
ByLayer
370
13
48
1
60
0
100
AcDbEllipse
10
152.916664
20
2.523786
30
0
11
-0.0732703387406598
21
1.39808134865639
31
0
210
0
220
0
230
1
40
0.995725
41
0.657926248777005
42
0.90183088378061
0
ELLIPSE
5
1B6
100
AcDbEntity
8
1
62
256
6
ByLayer
370
13
48
1
60
0
100
AcDbEllipse
10
157.963636
20
7.031257
30
0
11
-0.0915879234258239
21
1.74760168582047
31
0
210
0
220
0
230
1
40
0.995725
41
-0.0384705421014248
42
-0.00872664625998709
0
ELLIPSE
5
1B7
100
AcDbEntity
8
1
62
256
6
ByLayer
370
13
48
1
60
0
100
AcDbEllipse
10
151.602833
20
3.448573
30
0
11
-0.00261679781216635
21
0.0499314767377268
31
0
210
0
220
0
230
1
40
0.995725
41
3.13286600732938
42
-2.23976176980926
0
ELLIPSE
5
1B8
100
AcDbEntity
8
1
62
256
6
ByLayer
370
13
48
1
60
0
100
AcDbEllipse
10
151.314589
20
8.323334
30
0
11
-0.492925138898446
21
0.30345228957646
31
0
210
0
220
0
230
1
40
0.479615
41
-1.50905674736806
42
-1.04253322567905
0
ELLIPSE
5
1B9
100
AcDbEntity
8
1
62
256
6
ByLayer
370
13
48
1
60
0
100
AcDbEllipse
10
158.19747
20
8.632002
30
0
11
0.0157007868728817
21
-0.299588860426374
31
0
210
0
220
0
230
1
40
0.995725
41
1.67551608191485
42
3.07534344057212
0
ELLIPSE
5
1BA
100
AcDbEntity
8
1
62
256
6
ByLayer
370
13
48
1
60
0
100
AcDbEllipse
10
151.657294
20
3.420375
30
0
11
-0.122557354636323
21
0.0864852289385105
31
0
210
0
220
0
230
1
40
0.057286
41
1.49815188746207
42
3.06894821425346
0
ELLIPSE
5
1BB
100
AcDbEntity
8
1
62
256
6
ByLayer
370
13
48
1
60
0
100
AcDbEllipse
10
151.47522
20
5.144784
30
0
11
0.0994383168615833
21
-1.89739611603369
31
0
210
0
220
0
230
1
40
0.995725
41
-0.0384705421018396
42
-0.00872664626036669
0
ELLIPSE
5
1BC
100
AcDbEntity
8
1
62
256
6
ByLayer
370
13
48
1
60
0
100
AcDbEllipse
10
152.39624
20
5.806543
30
0
11
0.0444855628064978
21
-0.848835104541388
31
0
210
0
220
0
230
1
40
0.995725
41
-1.75405589825425
42
-1.46607657167522
0
ELLIPSE
5
1BD
100
AcDbEntity
8
1
62
256
6
ByLayer
370
13
48
1
60
0
100
AcDbEllipse
10
150.753471
20
5.764335
30
0
11
-0.148163665863163
21
-0.0233993187505333
31
0
210
0
220
0
230
1
40
0.009655
41
-1.4787977523211
42
-0.264869913410968
0
ELLIPSE
5
1BE
100
AcDbEntity
8
1
62
256
6
ByLayer
370
13
48
1
60
0
100
AcDbEllipse
10
157.659646
20
6.287781
30
0
11
0.0743658432123937
21
-0.00973249008782829
31
0
210
0
220
0
230
1
40
0.016833
41
5.34639776505146E-05
42
1.47983423648391
0
ELLIPSE
5
1BF
100
AcDbEntity
8
1
62
256
6
ByLayer
370
13
48
1
60
0
100
AcDbEllipse
10
152.558588
20
9.444531
30
0
11
-0.0680367431163263
21
1.29821839518092
31
0
210
0
220
0
230
1
40
0.995725
41
2.6297647943156
42
3.14159265358944
0
ELLIPSE
5
1C0
100
AcDbEntity
8
1
62
256
6
ByLayer
370
13
48
1
60
0
100
AcDbEllipse
10
157.829229
20
8.777179
30
0
11
-0.00653729335064144
21
0.149857478277354
31
0
210
0
220
0
230
1
40
0.092367
41
0.000809536045656042
42
1.57160586284002
0
ELLIPSE
5
1C1
100
AcDbEntity
8
1
62
256
6
ByLayer
370
13
48
1
60
0
100
AcDbEllipse
10
151.495201
20
3.394726
30
0
11
0.00205858338350387
21
-0.149985873449646
31
0
210
0
220
0
230
1
40
0.092302
41
-1.56722841787561
42
-0.0491492667756157
0
ELLIPSE
5
1C2
100
AcDbEntity
8
1
62
256
6
ByLayer
370
13
48
1
60
0
100
AcDbEllipse
10
156.65427
20
2.719666
30
0
11
0.0680367431158204
21
-1.29821839518095
31
0
210
0
220
0
230
1
40
0.995725
41
2.23976176980952
42
-3.14159265358938
0
ELLIPSE
5
1C3
100
AcDbEntity
8
1
62
256
6
ByLayer
370
13
48
1
60
0
100
AcDbEllipse
10
156.536029
20
9.652979
30
0
11
-0.0680367431163263
21
1.29821839518092
31
0
210
0
220
0
230
1
40
0.995725
41
-3.14159265358944
42
-2.23976176980875
0
ELLIPSE
5
1C4
100
AcDbEntity
8
1
62
256
6
ByLayer
370
13
48
1
60
0
100
AcDbEllipse
10
157.977473
20
7.031982
30
0
11
0.0994383168615833
21
-1.89739611603369
31
0
210
0
220
0
230
1
40
0.995725
41
3.10312211148836
42
3.13286600732982
0
ELLIPSE
5
1C5
100
AcDbEntity
8
1
62
256
6
ByLayer
370
13
48
1
60
0
100
AcDbEllipse
10
158.340375
20
8.655192
30
0
11
0.14816366586316
21
0.0233993187505487
31
0
210
0
220
0
230
1
40
0.009655
41
0.0919985744735827
42
1.66279490126857
0
ELLIPSE
5
1C6
100
AcDbEntity
8
1
62
256
6
ByLayer
370
13
48
1
60
0
100
AcDbEllipse
10
152.421607
20
5.807872
30
0
11
-0.0327099726520799
21
0.624143459221596
31
0
210
0
220
0
230
1
40
0.995725
41
1.38753675533557
42
1.67551608191456
0
ELLIPSE
5
1C7
100
AcDbEntity
8
1
62
256
6
ByLayer
370
13
48
1
60
0
100
AcDbEllipse
10
151.79766
20
5.889226
30
0
11
-0.0743658432123936
21
0.00973249008782887
31
0
210
0
220
0
230
1
40
0.016833
41
-1.66175841710589
42
-0.0909620903084588
0
ELLIPSE
5
1C8
100
AcDbEntity
8
1
62
256
6
ByLayer
370
13
48
1
60
0
100
AcDbEllipse
10
152.177952
20
9.424582
30
0
11
-1.29314721094465
21
0.892905666557339
31
0
210
0
220
0
230
1
40
0.704848
41
1.51718378623567
42
1.88902464364728
0
ELLIPSE
5
1C9
100
AcDbEntity
8
1
62
256
6
ByLayer
370
13
48
1
60
0
100
AcDbEllipse
10
157.047858
20
9.679804
30
0
11
-1.48860000565796
21
-1.14708392966334
31
0
210
0
220
0
230
1
40
0.479615
41
1.46274480406873
42
1.50905670601869
0
ELLIPSE
5
1CA
100
AcDbEntity
8
1
62
256
6
ByLayer
370
13
48
1
60
0
100
AcDbEllipse
10
152.077816
20
8.029895
30
0
11
-0.024303211652283
21
-0.0709531810659983
31
0
210
0
220
0
230
1
40
0.085751
41
1.60526761398354
42
-3.10712136640235
0
ELLIPSE
5
1CB
100
AcDbEntity
8
1
62
256
6
ByLayer
370
13
48
1
60
0
100
AcDbEllipse
10
154.681877
20
6.086052
30
0
11
0.0736286858157442
21
-1.40491901818815
31
0
210
0
220
0
230
1
40
0.995725
41
-0.853733629912535
42
0
0
ELLIPSE
5
1CC
100
AcDbEntity
8
1
62
256
6
ByLayer
370
13
48
1
60
0
100
AcDbEllipse
10
154.681877
20
6.086052
30
0
11
0.0736286858157442
21
-1.40491901818815
31
0
210
0
220
0
230
1
40
0.995725
41
0
42
-2.28787081989087
0
ELLIPSE
5
1CD
100
AcDbEntity
8
1
62
256
6
ByLayer
370
13
48
1
60
0
100
AcDbEllipse
10
156.291582
20
9.640169
30
0
11
0.0680367431158204
21
-1.29821839518095
31
0
210
0
220
0
230
1
40
0.995725
41
0
42
0.511827859274143
0
ELLIPSE
5
1CE
100
AcDbEntity
8
1
62
256
6
ByLayer
370
13
48
1
60
0
100
AcDbEllipse
10
157.024167
20
6.368531
30
0
11
0.0444855628064978
21
-0.848835104541388
31
0
210
0
220
0
230
1
40
0.995725
41
1.38753675533555
42
1.67551608191457
0
ELLIPSE
5
1CF
100
AcDbEntity
8
1
62
256
6
ByLayer
370
13
48
1
60
0
100
AcDbEllipse
10
158.062008
20
0.031992
30
0
11
-0.457939617129119
21
8.73800842910235
31
0
210
0
220
0
230
1
40
0.995725
41
-0.0662492130181243
42
-0.0384705421015384
0
ELLIPSE
5
1D0
100
AcDbEntity
8
1
62
256
6
ByLayer
370
13
48
1
60
0
100
AcDbEllipse
10
151.570917
20
5.918402
30
0
11
-0.148731686424787
21
0.0194649801756577
31
0
210
0
220
0
230
1
40
0.016833
41
1.47983423648432
42
3.05063056327851
0
ELLIPSE
5
1D1
100
AcDbEntity
8
1
62
256
6
ByLayer
370
13
48
1
60
0
100
AcDbEllipse
10
151.107706
20
3.521332
30
0
11
-0.148163665863163
21
-0.0233993187505333
31
0
210
0
220
0
230
1
40
0.009655
41
-1.47879775232126
42
0.0919985744686624
0
ELLIPSE
5
1D2
100
AcDbEntity
8
1
62
256
6
ByLayer
370
13
48
1
60
0
100
AcDbEllipse
10
157.510189
20
8.515511
30
0
11
0.005233595624293
21
-0.0998629534754409
31
0
210
0
220
0
230
1
40
0.995725
41
-2.48366640481244
42
-1.46607657167445
0
ELLIPSE
5
1D3
100
AcDbEntity
8
1
62
256
6
ByLayer
370
13
48
1
60
0
100
AcDbEllipse
10
158.423503
20
4.293266
30
0
11
-0.0222321776352508
21
0.148343285246062
31
0
210
0
220
0
230
1
40
0.091945
41
1.56190521945469
42
3.13270154624834
0
ELLIPSE
5
1D4
100
AcDbEntity
8
1
62
256
6
ByLayer
370
13
48
1
60
0
100
AcDbEllipse
10
156.413805
20
9.646574
30
0
11
0.0680367431158204
21
-1.29821839518095
31
0
210
0
220
0
230
1
40
0.995725
41
0.855518971143628
42
0.88366871662976
0
ELLIPSE
5
1D5
100
AcDbEntity
8
1
62
256
6
ByLayer
370
13
48
1
60
0
100
AcDbEllipse
10
158.429187
20
4.301985
30
0
11
-0.0436502644827075
21
-0.255492761890505
31
0
210
0
220
0
230
1
40
0.960623
41
0.306237786864568
42
1.6114766013874
0
ELLIPSE
5
1D6
100
AcDbEntity
8
1
62
256
6
ByLayer
370
13
48
1
60
0
100
AcDbEllipse
10
151.376849
20
12.144049
30
0
11
0.465790010562154
21
-8.88780285931571
31
0
210
0
220
0
230
1
40
0.995725
41
-0.066249213018507
42
-0.0384705421019237
0
ELLIPSE
5
1D7
100
AcDbEntity
8
1
62
256
6
ByLayer
370
13
48
1
60
0
100
AcDbEllipse
10
158.547093
20
6.388757
30
0
11
0.0157007868728814
21
-0.299588860426368
31
0
210
0
220
0
230
1
40
0.995725
41
1.38753675533548
42
1.67551608191457
0
ELLIPSE
5
1D8
100
AcDbEntity
8
1
62
256
6
ByLayer
370
13
48
1
60
0
100
AcDbEllipse
10
157.836024
20
8.727468
30
0
11
0.0104671912485877
21
-0.199725906950914
31
0
210
0
220
0
230
1
40
0.995725
41
3.13286600732938
42
-2.23976176980889
0
ELLIPSE
5
1D9
100
AcDbEntity
8
1
62
256
6
ByLayer
370
13
48
1
60
0
100
AcDbEllipse
10
151.574151
20
5.674488
30
0
11
-0.148163665863163
21
-0.0233993187505333
31
0
210
0
220
0
230
1
40
0.009655
41
-3.04959407911743
42
-1.4787977523211
0
ELLIPSE
5
1DA
100
AcDbEntity
8
1
62
256
6
ByLayer
370
13
48
1
60
0
100
AcDbEllipse
10
152.414689
20
5.80751
30
0
11
0.036635169370057
21
-0.699040674328202
31
0
210
0
220
0
230
1
40
0.995725
41
-1.75405589825427
42
-1.4660765716752
0
ELLIPSE
5
1DB
100
AcDbEntity
8
1
62
256
6
ByLayer
370
13
48
1
60
0
100
AcDbEllipse
10
152.902828
20
2.523061
30
0
11
0.0811207321765554
21
-1.5478757788696
31
0
210
0
220
0
230
1
40
0.995725
41
-2.46557149586846
42
-2.23976176980919
0
ELLIPSE
5
1DC
100
AcDbEntity
8
1
62
256
6
ByLayer
370
13
48
1
60
0
100
AcDbEllipse
10
156.672219
20
9.660117
30
0
11
-1.19272915816612
21
-1.02318492682669
31
0
210
0
220
0
230
1
40
0.704848
41
1.25256800991842
42
1.62440886727898
0
ELLIPSE
5
1DD
100
AcDbEntity
8
1
62
256
6
ByLayer
370
13
48
1
60
0
100
AcDbEllipse
10
151.800038
20
5.709877
30
0
11
-0.0740818329315814
21
-0.0116996593752667
31
0
210
0
220
0
230
1
40
0.009655
41
0.0919985744748388
42
1.66279490126875
0
ELLIPSE
5
1DE
100
AcDbEntity
8
1
62
256
6
ByLayer
370
13
48
1
60
0
100
AcDbEllipse
10
152.077816
20
8.029895
30
0
11
0.0039251967182204
21
-0.0748972151065931
31
0
210
0
220
0
230
1
40
0.995725
41
-3.1415764844009
42
-1.7540558982547
0
ELLIPSE
5
1DF
100
AcDbEntity
8
1
62
256
6
ByLayer
370
13
48
1
60
0
100
AcDbEllipse
10
158.075845
20
0.032717
30
0
11
0.465790010562154
21
-8.88780285931571
31
0
210
0
220
0
230
1
40
0.995725
41
3.07534344057167
42
3.10312211148826
0
ELLIPSE
5
1E0
100
AcDbEntity
8
1
62
256
6
ByLayer
370
13
48
1
60
0
100
AcDbEllipse
10
151.942504
20
3.661254
30
0
11
0.005233595624293
21
-0.0998629534754409
31
0
210
0
220
0
230
1
40
0.995725
41
0.657926248776815
42
1.67551608191506
0
ELLIPSE
5
1E1
100
AcDbEntity
8
1
62
256
6
ByLayer
370
13
48
1
60
0
100
AcDbEllipse
10
151.844139
20
8.006085
30
0
11
-0.157303252985729
21
-0.0460731444176655
31
0
210
0
220
0
230
1
40
0.019548
41
-3.05924451048834
42
-1.48844818368562
0
ELLIPSE
5
1E2
100
AcDbEntity
8
1
62
256
6
ByLayer
370
13
48
1
60
0
100
AcDbEllipse
10
156.142441
20
2.692842
30
0
11
-1.47354137845442
21
-1.15353097006029
31
0
210
0
220
0
230
1
40
0.477356
41
2.83717552000247
42
2.88348743781706
0
ELLIPSE
5
1E3
100
AcDbEntity
8
1
62
256
6
ByLayer
370
13
48
1
60
0
100
AcDbEllipse
10
157.351672
20
8.402151
30
0
11
-0.0740818329315814
21
-0.0116996593752667
31
0
210
0
220
0
230
1
40
0.009655
41
1.66279490126789
42
3.14137689874233
0
ELLIPSE
5
1E4
100
AcDbEntity
8
1
62
256
6
ByLayer
370
13
48
1
60
0
100
AcDbEllipse
10
151.844139
20
8.006085
30
0
11
-0.0435852065163983
21
-0.158111345862212
31
0
210
0
220
0
230
1
40
0.080185
41
-3.11490714533464
42
-1.54411081852754
0
ELLIPSE
5
1E5
100
AcDbEntity
8
1
62
256
6
ByLayer
370
13
48
1
60
0
100
AcDbEllipse
10
156.776494
20
2.726071
30
0
11
-0.0680367431163263
21
1.29821839518092
31
0
210
0
220
0
230
1
40
0.995725
41
-0.883668716629785
42
-0.855518971143656
0
ELLIPSE
5
1E6
100
AcDbEntity
8
1
62
256
6
ByLayer
370
13
48
1
60
0
100
AcDbEllipse
10
151.906722
20
8.065572
30
0
11
0.00523359562429324
21
-0.0998629534754456
31
0
210
0
220
0
230
1
40
0.995725
41
1.38753675533517
42
-3.04559954472984
0
ELLIPSE
5
1E7
100
AcDbEntity
8
1
62
256
6
ByLayer
370
13
48
1
60
0
100
AcDbEllipse
10
157.817575
20
8.726501
30
0
11
-0.00261679781216635
21
0.0499314767377268
31
0
210
0
220
0
230
1
40
0.995725
41
-0.00872664626155283
42
0.901830883780488
0
ELLIPSE
5
1E8
100
AcDbEntity
8
1
62
256
6
ByLayer
370
13
48
1
60
0
100
AcDbEllipse
10
151.616669
20
3.449298
30
0
11
0.0104671912485877
21
-0.199725906950914
31
0
210
0
220
0
230
1
40
0.995725
41
0.0114030181919552
42
0.901830883780551
0
ELLIPSE
5
1E9
100
AcDbEntity
8
1
62
256
6
ByLayer
370
13
48
1
60
0
100
AcDbEllipse
10
157.379489
20
4.147112
30
0
11
0.0039251967182204
21
-0.0748972151065931
31
0
210
0
220
0
230
1
40
0.995725
41
-0.380878809690031
42
1.96739047048074E-05
0
ELLIPSE
5
1EA
100
AcDbEntity
8
1
62
256
6
ByLayer
370
13
48
1
60
0
100
AcDbEllipse
10
157.603942
20
4.170438
30
0
11
-0.157303252989882
21
-0.0460731444188718
31
0
210
0
220
0
230
1
40
0.019548
41
-1.4884481836829
42
0.0823481430948193
0
ELLIPSE
5
1EB
100
AcDbEntity
8
1
62
256
6
ByLayer
370
13
48
1
60
0
100
AcDbEllipse
10
151.241386
20
3.544039
30
0
11
-0.00785039343649925
21
0.149794430213185
31
0
210
0
220
0
230
1
40
0.995725
41
1.67551608191428
42
3.07534344057183
0
ELLIPSE
5
1EC
100
AcDbEntity
8
1
62
256
6
ByLayer
370
13
48
1
60
0
100
AcDbEllipse
10
151.028118
20
7.875023
30
0
11
-0.0436502645121387
21
-0.25549276188251
31
0
210
0
220
0
230
1
40
0.960623
41
-2.83535486661373
42
-1.53011605207891
0
ELLIPSE
5
1ED
100
AcDbEntity
8
1
62
256
6
ByLayer
370
13
48
1
60
0
100
AcDbEllipse
10
151.3584
20
12.143082
30
0
11
-0.457939617129119
21
8.73800842910235
31
0
210
0
220
0
230
1
40
0.995725
41
3.07534344057167
42
3.10312211148825
0
ELLIPSE
5
1EE
100
AcDbEntity
8
1
62
256
6
ByLayer
370
13
48
1
60
0
100
AcDbEllipse
10
156.898717
20
2.732477
30
0
11
-0.0680367431163263
21
1.29821839518092
31
0
210
0
220
0
230
1
40
0.995725
41
-0.511827859273388
42
3.94191709649303E-13
0
ELLIPSE
5
1EF
100
AcDbEntity
8
1
62
256
6
ByLayer
370
13
48
1
60
0
100
AcDbEllipse
10
151.547007
20
3.396211
30
0
11
0.00653729335064122
21
-0.149857478277354
31
0
210
0
220
0
230
1
40
0.092367
41
-1.56998679074977
42
0.000809536043636734
0
ELLIPSE
5
1F0
100
AcDbEntity
8
1
62
256
6
ByLayer
370
13
48
1
60
0
100
AcDbEllipse
10
154.735571
20
6.088866
30
0
11
0.0757589256077712
21
-1.44556641483746
31
0
210
0
220
0
230
1
40
0.995725
41
0
42
6.28318530717959
0
ELLIPSE
5
1F1
100
AcDbEntity
8
1
62
256
6
ByLayer
370
13
48
1
60
0
100
AcDbEllipse
10
158.179022
20
8.631035
30
0
11
-0.00785039343649925
21
0.149794430213185
31
0
210
0
220
0
230
1
40
0.995725
41
-1.46607657167532
42
-0.0662492130179686
0
ELLIPSE
5
1F2
100
AcDbEntity
8
1
62
256
6
ByLayer
370
13
48
1
60
0
100
AcDbEllipse
10
150.887151
20
5.787042
30
0
11
-0.00785039343649897
21
0.149794430213179
31
0
210
0
220
0
230
1
40
0.995725
41
1.38753675533547
42
1.67551608191448
0
ELLIPSE
5
1F3
100
AcDbEntity
8
1
62
256
6
ByLayer
370
13
48
1
60
0
100
AcDbEllipse
10
151.539695
20
3.507624
30
0
11
0.0209560818654385
21
-0.399865862513694
31
0
210
0
220
0
230
1
40
0.995725
41
0.435307362027166
42
0.901830883781035
0
ELLIPSE
5
1F4
100
AcDbEntity
8
1
62
256
6
ByLayer
370
13
48
1
60
0
100
AcDbEllipse
10
157.049534
20
6.36986
30
0
11
-0.0327099726520799
21
0.624143459221596
31
0
210
0
220
0
230
1
40
0.995725
41
-1.75405589825422
42
-1.46607657167518
0
ELLIPSE
5
1F5
100
AcDbEntity
8
1
62
256
6
ByLayer
370
13
48
1
60
0
100
AcDbEllipse
10
151.802312
20
9.404896
30
0
11
-1.60034760123187
21
0.985198536993185
31
0
210
0
220
0
230
1
40
0.479615
41
1.63253588270602
42
1.65246872167034
0
ELLIPSE
5
1F6
100
AcDbEntity
8
1
62
256
6
ByLayer
370
13
48
1
60
0
100
AcDbEllipse
10
158.423503
20
4.293266
30
0
11
0.148731686424787
21
-0.0194649801756567
31
0
210
0
220
0
230
1
40
0.016833
41
-1.66175841710567
42
-0.0909620903126969
0
ELLIPSE
5
1F7
100
AcDbEntity
8
1
62
256
6
ByLayer
370
13
48
1
60
0
100
AcDbEllipse
10
152.921277
20
2.524028
30
0
11
-0.0732703387406598
21
1.39808134865639
31
0
210
0
220
0
230
1
40
0.995725
41
0.657926248776646
42
0.901830883780222
0
ELLIPSE
5
1F8
100
AcDbEntity
8
1
62
256
6
ByLayer
370
13
48
1
60
0
100
AcDbEllipse
10
157.379489
20
4.147112
30
0
11
-0.0743658432123936
21
0.00973249008782887
31
0
210
0
220
0
230
1
40
0.016833
41
-3.14153918946722
42
-1.66175841710356
0
ELLIPSE
5
1F9
100
AcDbEntity
8
1
62
256
6
ByLayer
370
13
48
1
60
0
100
AcDbEllipse
10
152.105633
20
3.774857
30
0
11
0.0740818329315801
21
0.0116996593752744
31
0
210
0
220
0
230
1
40
0.009655
41
-3.04959407911434
42
-1.47879775232072
0
ELLIPSE
5
1FA
100
AcDbEntity
8
1
62
256
6
ByLayer
370
13
48
1
60
0
100
AcDbEllipse
10
150.9056
20
5.788009
30
0
11
0.0157007868728814
21
-0.299588860426368
31
0
210
0
220
0
230
1
40
0.995725
41
-1.7540558982547
42
-1.4660765716756
0
ELLIPSE
5
1FB
100
AcDbEntity
8
1
62
256
6
ByLayer
370
13
48
1
60
0
100
AcDbEllipse
10
152.105633
20
3.774857
30
0
11
0.0412025770551244
21
-0.0626685538688786
31
0
210
0
220
0
230
1
40
0.07982
41
-6.2684017802933E-05
42
1.52414298346549
0
ELLIPSE
5
1FC
100
AcDbEntity
8
1
62
256
6
ByLayer
370
13
48
1
60
0
100
AcDbEllipse
10
157.657268
20
6.46713
30
0
11
0.0740818329315801
21
0.0116996593752744
31
0
210
0
220
0
230
1
40
0.009655
41
-1.47879775231991
42
-0.000215754630367756
0
ELLIPSE
5
1FD
100
AcDbEntity
8
1
62
256
6
ByLayer
370
13
48
1
60
0
100
AcDbEllipse
10
157.91761
20
8.669384
30
0
11
0.0209560818654385
21
-0.399865862513694
31
0
210
0
220
0
230
1
40
0.995725
41
-2.70628529156193
42
-2.23976176980803
0
ELLIPSE
5
1FE
100
AcDbEntity
8
1
62
256
6
ByLayer
370
13
48
1
60
0
100
AcDbEllipse
10
157.351672
20
8.402151
30
0
11
-0.041202577055118
21
0.0626685538688828
31
0
210
0
220
0
230
1
40
0.07982
41
-1.61744967012506
42
-0.0466533433269588
0
ELLIPSE
5
1FF
100
AcDbEntity
8
1
62
256
6
ByLayer
370
13
48
1
60
0
100
AcDbEllipse
10
156.536029
20
9.652979
30
0
11
-0.0732703387406598
21
1.39808134865639
31
0
210
0
220
0
230
1
40
0.995725
41
-2.48366640481239
42
-2.23976176980877
0
ELLIPSE
5
200
100
AcDbEntity
8
1
62
256
6
ByLayer
370
13
48
1
60
0
100
AcDbEllipse
10
157.901074
20
8.780313
30
0
11
-0.00653729335064144
21
0.149857478277354
31
0
210
0
220
0
230
1
40
0.092367
41
0.000809536045656042
42
1.57160586284002
0
ELLIPSE
5
201
100
AcDbEntity
8
1
62
256
6
ByLayer
370
13
48
1
60
0
100
AcDbEllipse
10
152.105633
20
3.774857
30
0
11
0.0039251967182204
21
-0.0748972151065931
31
0
210
0
220
0
230
1
40
0.995725
41
-1.4660765716757
42
-1.55852545794994E-05
0
ELLIPSE
5
202
100
AcDbEntity
8
1
62
256
6
ByLayer
370
13
48
1
60
0
100
AcDbEllipse
10
158.69461
20
6.412189
30
0
11
0.14816366586316
21
0.0233993187505487
31
0
210
0
220
0
230
1
40
0.009655
41
0.0919985744779097
42
1.66279490126851
0
ELLIPSE
5
203
100
AcDbEntity
8
1
62
256
6
ByLayer
370
13
48
1
60
0
100
AcDbEllipse
10
157.351672
20
8.402151
30
0
11
0.0039251967182204
21
-0.0748972151065931
31
0
210
0
220
0
230
1
40
0.995725
41
3.14158483765015
42
-2.61421045510342
0
ELLIPSE
5
204
100
AcDbEntity
8
1
62
256
6
ByLayer
370
13
48
1
60
0
100
AcDbEllipse
10
157.877164
20
6.258122
30
0
11
0.148731686424787
21
-0.0194649801756567
31
0
210
0
220
0
230
1
40
0.016833
41
3.05063056327993
42
-1.66175841710567
0
ELLIPSE
5
205
100
AcDbEntity
8
1
62
256
6
ByLayer
370
13
48
1
60
0
100
AcDbEllipse
10
158.551705
20
6.388999
30
0
11
0.0157007868728814
21
-0.299588860426368
31
0
210
0
220
0
230
1
40
0.995725
41
1.38753675533586
42
1.67551608191495
0
ELLIPSE
5
206
100
AcDbEntity
8
1
62
256
6
ByLayer
370
13
48
1
60
0
100
AcDbEllipse
10
151.024577
20
7.883258
30
0
11
-0.148731686424787
21
0.0194649801756577
31
0
210
0
220
0
230
1
40
0.016833
41
0.263130755737626
42
1.47983423648451
0
ELLIPSE
5
207
100
AcDbEntity
8
1
62
256
6
ByLayer
370
13
48
1
60
0
100
AcDbEllipse
10
157.982085
20
7.032223
30
0
11
0.0994383168615833
21
-1.89739611603369
31
0
210
0
220
0
230
1
40
0.995725
41
3.10312211148874
42
3.13286600733021
0
ELLIPSE
5
208
100
AcDbEntity
8
1
62
256
6
ByLayer
370
13
48
1
60
0
100
AcDbEllipse
10
152.410077
20
5.807268
30
0
11
-0.0366351693703295
21
0.699040674328188
31
0
210
0
220
0
230
1
40
0.995725
41
1.38753675533556
42
1.6755160819146
0
ELLIPSE
5
209
100
AcDbEntity
8
1
62
256
6
ByLayer
370
18
48
1
60
0
100
AcDbEllipse
10
154.699095
20
5.305484
30
0
11
-0.204738742962693
21
-0.0107299028513237
31
0
210
0
220
0
230
1
40
0.498489
41
-1.5707963267949
42
-0.408437383824518
0
ELLIPSE
5
20A
100
AcDbEntity
8
1
62
256
6
ByLayer
370
18
48
1
60
0
100
AcDbEllipse
10
154.667016
20
6.085273
30
0
11
-0.0693451420224093
21
1.32318413354978
31
0
210
0
220
0
230
1
40
0.995725
41
9.22038546257331E-05
42
3.14158645645111
0
ELLIPSE
5
20B
100
AcDbEntity
8
1
62
256
6
ByLayer
370
18
48
1
60
0
100
AcDbEllipse
10
154.617409
20
6.864145
30
0
11
-0.204738742965393
21
-0.0107299028540718
31
0
210
0
220
0
230
1
40
0.498489
41
0.4084373838224
42
1.5707963267949
0
ELLIPSE
5
20C
100
AcDbEntity
8
1
62
256
6
ByLayer
370
18
48
1
60
0
100
AcDbEllipse
10
155.427987
20
6.125154
30
0
11
-0.0107759733904067
21
0.205617821205965
31
0
210
0
220
0
230
1
40
0.494235
41
-2.9194371863824
42
-0.513708864211731
0
ELLIPSE
5
20D
100
AcDbEntity
8
1
62
256
6
ByLayer
370
18
48
1
60
0
100
AcDbEllipse
10
154.308471
20
5.395173
30
0
11
-0.182583136812151
21
0.0937395545243927
31
0
210
0
220
0
230
1
40
0.497416
41
2.44414183573168
42
-2.95288588122167
0
ELLIPSE
5
20E
100
AcDbEntity
8
1
62
256
6
ByLayer
370
18
48
1
60
0
100
AcDbEllipse
10
154.726974
20
6.088416
30
0
11
0.0458619984556871
21
-0.875099061305433
31
0
210
0
220
0
230
1
40
0.995725
41
-0.523598775598353
42
0.523598775598228
0
ELLIPSE
5
20F
100
AcDbEntity
8
1
62
256
6
ByLayer
370
18
48
1
60
0
100
AcDbEllipse
10
155.350708
20
5.730369
30
0
11
-0.0928160042493723
21
-0.183547697066212
31
0
210
0
220
0
230
1
40
0.49529
41
-2.73559040010493
42
-1.5732314571482
0
ELLIPSE
5
210
100
AcDbEntity
8
1
62
256
6
ByLayer
370
18
48
1
60
0
100
AcDbEllipse
10
155.309865
20
6.509699
30
0
11
-0.111493507176758
21
0.172840289280753
31
0
210
0
220
0
230
1
40
0.49529
41
1.57323145712352
42
2.73559040010308
0
ELLIPSE
5
211
100
AcDbEntity
8
1
62
256
6
ByLayer
370
18
48
1
60
0
100
AcDbEllipse
10
155.008034
20
6.774456
30
0
11
-0.182583136812159
21
0.0937395545243912
31
0
210
0
220
0
230
1
40
0.497416
41
2.95779077331532
42
-0.697449354238089
0
ELLIPSE
5
212
100
AcDbEntity
8
1
62
256
6
ByLayer
370
18
48
1
60
0
100
AcDbEllipse
10
154.726974
20
6.088416
30
0
11
0.0458619984556871
21
-0.875099061305433
31
0
210
0
220
0
230
1
40
0.995725
41
2.61799387799152
42
-2.61799387799144
0
ELLIPSE
5
213
100
AcDbEntity
8
1
62
256
6
ByLayer
370
18
48
1
60
0
100
AcDbEllipse
10
154.726974
20
6.088416
30
0
11
0.0458619984556871
21
-0.875099061305433
31
0
210
0
220
0
230
1
40
0.995725
41
-2.61799387799144
42
-1.5707963267949
0
ELLIPSE
5
214
100
AcDbEntity
8
1
62
256
6
ByLayer
370
18
48
1
60
0
100
AcDbEllipse
10
155.309865
20
6.509699
30
0
11
-0.111493507166943
21
0.172840289277348
31
0
210
0
220
0
230
1
40
0.49529
41
0.410872514173227
42
1.57323145718939
0
ELLIPSE
5
215
100
AcDbEntity
8
1
62
256
6
ByLayer
370
18
48
1
60
0
100
AcDbEllipse
10
154.726974
20
6.088416
30
0
11
-0.0497191584311615
21
0.948698058016826
31
0
210
0
220
0
230
1
40
0.995725
41
0
42
6.28318530717959
0
ELLIPSE
5
216
100
AcDbEntity
8
1
62
256
6
ByLayer
370
18
48
1
60
0
100
AcDbEllipse
10
154.2383
20
6.734116
30
0
11
-0.171784475702854
21
-0.112311174146152
31
0
210
0
220
0
230
1
40
0.497416
41
2.9528858812215
42
-2.55538359160669
0
ELLIPSE
5
217
100
AcDbEntity
8
1
62
256
6
ByLayer
370
18
48
1
60
0
100
AcDbEllipse
10
154.658252
20
6.084814
30
0
11
-0.035494245524225
21
0.677270550470538
31
0
210
0
220
0
230
1
40
0.995725
41
-3.04305800877151
42
-2.0943951023932
0
ELLIPSE
5
218
100
AcDbEntity
8
1
62
256
6
ByLayer
370
18
48
1
60
0
100
AcDbEllipse
10
154.658252
20
6.084814
30
0
11
0.035494245523961
21
-0.677270550470552
31
0
210
0
220
0
230
1
40
0.995725
41
1.0471975511966
42
2.0943951023932
0
ELLIPSE
5
219
100
AcDbEntity
8
1
62
256
6
ByLayer
370
18
48
1
60
0
100
AcDbEllipse
10
154.726974
20
6.088416
30
0
11
0.0458619984556871
21
-0.875099061305433
31
0
210
0
220
0
230
1
40
0.995725
41
0.523598775598227
42
1.5707963267949
0
ELLIPSE
5
21A
100
AcDbEntity
8
1
62
256
6
ByLayer
370
18
48
1
60
0
100
AcDbEllipse
10
154.658252
20
6.084814
30
0
11
0.035494245523961
21
-0.677270550470552
31
0
210
0
220
0
230
1
40
0.995725
41
-1.9034447010322
42
-1.21869270683774
0
ELLIPSE
5
21B
100
AcDbEntity
8
1
62
256
6
ByLayer
370
18
48
1
60
0
100
AcDbEllipse
10
154.726974
20
6.088416
30
0
11
0.0458619984556871
21
-0.875099061305433
31
0
210
0
220
0
230
1
40
0.995725
41
1.5707963267949
42
2.61799387799152
0
ELLIPSE
5
21C
100
AcDbEntity
8
1
62
256
6
ByLayer
370
18
48
1
60
0
100
AcDbEllipse
10
155.078205
20
5.435513
30
0
11
-0.171784475702859
21
-0.112311174146145
31
0
210
0
220
0
230
1
40
0.497416
41
0.586207480380924
42
-2.95779077331575
0
ELLIPSE
5
21D
100
AcDbEntity
8
1
62
256
6
ByLayer
370
18
48
1
60
0
100
AcDbEllipse
10
154.658252
20
6.084814
30
0
11
0.035494245523961
21
-0.677270550470552
31
0
210
0
220
0
230
1
40
0.995725
41
-0.789358026845146
42
0
0
ELLIPSE
5
21E
100
AcDbEntity
8
1
62
256
6
ByLayer
370
18
48
1
60
0
100
AcDbEllipse
10
154.658252
20
6.084814
30
0
11
0.035494245523961
21
-0.677270550470552
31
0
210
0
220
0
230
1
40
0.995725
41
2.0943951023932
42
-3.14159265358975
0
ELLIPSE
5
21F
100
AcDbEntity
8
1
62
256
6
ByLayer
370
18
48
1
60
0
100
AcDbEllipse
10
154.658252
20
6.084814
30
0
11
0.035494245523961
21
-0.677270550470552
31
0
210
0
220
0
230
1
40
0.995725
41
3.14159265358975
42
-2.32785514401911
0
ELLIPSE
5
220
100
AcDbEntity
8
1
62
256
6
ByLayer
370
18
48
1
60
0
100
AcDbEllipse
10
155.350708
20
5.730369
30
0
11
-0.0928160042432409
21
-0.183547697058949
31
0
210
0
220
0
230
1
40
0.49529
41
-1.57323145716876
42
-0.410872514167636
0
ELLIPSE
5
221
100
AcDbEntity
8
1
62
256
6
ByLayer
370
18
48
1
60
0
100
AcDbEllipse
10
154.726974
20
6.088416
30
0
11
0.0458619984556871
21
-0.875099061305433
31
0
210
0
220
0
230
1
40
0.995725
41
-1.5707963267949
42
-0.523598775598353
0
ELLIPSE
5
222
100
AcDbEntity
8
1
62
256
6
ByLayer
370
18
48
1
60
0
100
AcDbEllipse
10
154.712762
20
6.087671
30
0
11
-0.0693451420224093
21
1.32318413354978
31
0
210
0
220
0
230
1
40
0.995725
41
0
42
6.28318530717959
0
ELLIPSE
5
223
100
AcDbEntity
8
1
62
256
6
ByLayer
370
18
48
1
60
0
100
AcDbEllipse
10
155.960611
20
-1.673257
30
0
11
-0.7
21
7.07447338557654E-16
31
0
210
0
220
0
230
1
40
0.993572
41
-3.14159201902165
42
-3.19258773862725E-16
0
ELLIPSE
5
224
100
AcDbEntity
8
1
62
256
6
ByLayer
370
18
48
1
60
0
100
AcDbEllipse
10
155.960611
20
-1.673257
30
0
11
-0.7
21
7.07447338557654E-16
31
0
210
0
220
0
230
1
40
0.993572
41
0
42
1.00334563690037
0
ELLIPSE
5
225
100
AcDbEntity
8
1
62
256
6
ByLayer
370
18
48
1
60
0
100
AcDbEllipse
10
155.960611
20
-1.673257
30
0
11
-0.7
21
7.07447338557654E-16
31
0
210
0
220
0
230
1
40
0.993572
41
2.72022698303794
42
-3.14159201902164
0
ELLIPSE
5
226
100
AcDbEntity
8
1
62
256
6
ByLayer
370
18
48
1
60
0
100
AcDbEllipse
10
155.960611
20
-1.707218
30
0
11
1
21
0
31
0
210
0
220
0
230
1
40
0.993572
41
0.367075117934059
42
3.14159213790682
0
ELLIPSE
5
227
100
AcDbEntity
8
1
62
256
6
ByLayer
370
18
48
1
60
0
100
AcDbEllipse
10
155.960611
20
-1.98946
30
0
11
-1.1
21
1.1117029605906E-15
31
0
210
0
220
0
230
1
40
0.993572
41
-0.483805053428317
42
-0.230416040189514
0
ELLIPSE
5
228
100
AcDbEntity
8
1
62
256
6
ByLayer
370
13
48
1
60
0
100
AcDbEllipse
10
134.353881
20
0
30
0
11
-94.7225561412986
21
0.0429714329724781
31
0
210
0
220
0
230
1
40
0.092638
41
-1.81146193721292
42
-1.75475359384562
0
ELLIPSE
5
229
100
AcDbEntity
8
1
62
256
6
ByLayer
370
13
48
1
60
0
100
AcDbEllipse
10
158.143734
20
-4.325278
30
0
11
-0.0635978216387722
21
-0.515891900346917
31
0
210
0
220
0
230
1
40
0.114054
41
-1.65022761831107
42
-0.0794312915089463
0
ELLIPSE
5
22A
100
AcDbEntity
8
1
62
256
6
ByLayer
370
13
48
1
60
0
100
AcDbEllipse
10
155.251323
20
4.899228
30
0
11
-0.732303155795455
21
-0.908883239333282
31
0
210
0
220
0
230
1
40
0.966608
41
0.713732916370824
42
1.21121301627475
0
ELLIPSE
5
22B
100
AcDbEntity
8
1
62
256
6
ByLayer
370
13
48
1
60
0
100
AcDbEllipse
10
149.668959
20
4.098233
30
0
11
0.0523359562429386
21
-0.998629534754574
31
0
210
0
220
0
230
1
40
0.995725
41
1.42343902937251
42
1.67551608191453
0
ELLIPSE
5
22C
100
AcDbEntity
8
1
62
256
6
ByLayer
370
13
48
1
60
0
100
AcDbEllipse
10
158.954411
20
0
30
0
11
-1.05826338480808
21
-8.77411859796397
31
0
210
0
220
0
230
1
40
0.117522
41
-1.34219891994228
42
-0.0969935344847738
0
ELLIPSE
5
22D
100
AcDbEntity
8
1
62
256
6
ByLayer
370
13
48
1
60
0
100
AcDbEllipse
10
161.550506
20
1.016545
30
0
11
-3.91109284526472
21
-1.2161503434457
31
0
210
0
220
0
230
1
40
0.869755
41
-0.339122223379813
42
-0.191570154013868
0
ELLIPSE
5
22E
100
AcDbEntity
8
1
62
256
6
ByLayer
370
13
48
1
60
0
100
AcDbEllipse
10
158.437766
20
3.448338
30
0
11
-0.0190690697125267
21
-0.501607015381593
31
0
210
0
220
0
230
1
40
0.195483
41
-0.331356157711754
42
-0.194946873885809
0
ELLIPSE
5
22F
100
AcDbEntity
8
1
62
256
6
ByLayer
370
13
48
1
60
0
100
AcDbEllipse
10
158.318894
20
0.055489
30
0
11
-0.011092630118465
21
0.505648761588236
31
0
210
0
220
0
230
1
40
0.102087
41
-0.128120847676001
42
0.15703749884316
0
ELLIPSE
5
230
100
AcDbEntity
8
1
62
256
6
ByLayer
370
13
48
1
60
0
100
AcDbEllipse
10
3.5
20
-16.873957
30
0
11
-0.5
21
5.05319527541181E-16
31
0
210
0
220
0
230
1
40
0.5
41
1.5707963267949
42
3.14159265358979
0
ELLIPSE
5
231
100
AcDbEntity
8
1
62
256
6
ByLayer
370
13
48
1
60
0
100
AcDbEllipse
10
158.05891
20
4.395476
30
0
11
-0.0199108520244668
21
1.00032306309901
31
0
210
0
220
0
230
1
40
0.104817
41
-3.13818930307006
42
-2.58337827008397
0
ELLIPSE
5
232
100
AcDbEntity
8
1
62
256
6
ByLayer
370
13
48
1
60
0
100
AcDbEllipse
10
155.823429
20
-1.57251
30
0
11
-1.1
21
1.1117029605906E-15
31
0
210
0
220
0
230
1
40
0.993572
41
-2.94926805411656
42
-0.185550014003986
0
ELLIPSE
5
233
100
AcDbEntity
8
1
62
256
6
ByLayer
370
13
48
1
60
0
100
AcDbEllipse
10
151.196056
20
3.935671
30
0
11
-1.01442626767794
21
0.817341026703207
31
0
210
0
220
0
230
1
40
0.775936
41
-3.07617439759349
42
-2.84372364138204
0
ELLIPSE
5
234
100
AcDbEntity
8
1
62
256
6
ByLayer
370
13
48
1
60
0
100
AcDbEllipse
10
149.086892
20
3.124174
30
0
11
-3.96879665138542
21
-0.70490664851524
31
0
210
0
220
0
230
1
40
0.015321
41
-3.01817314067538
42
-2.85180693770777
0
ELLIPSE
5
235
100
AcDbEntity
8
1
62
256
6
ByLayer
370
13
48
1
60
0
100
AcDbEllipse
10
156.061488
20
3.489697
30
0
11
-0.318392677210252
21
-0.395166625036978
31
0
210
0
220
0
230
1
40
0.966608
41
-2.26095467892417
42
-1.9303796351536
0
ELLIPSE
5
236
100
AcDbEntity
8
1
62
256
6
ByLayer
370
13
48
1
60
0
100
AcDbEllipse
10
150.87413
20
6.117644
30
0
11
-0.143594274980741
21
2.73994198789806
31
0
210
0
220
0
230
1
40
0.016833
41
0.334147027144031
42
0.896385686124393
0
ELLIPSE
5
237
100
AcDbEntity
8
1
62
256
6
ByLayer
370
13
48
1
60
0
100
AcDbEllipse
10
166.063306
20
-2.4E-05
30
0
11
-94.7226939446252
21
0.0429756521979288
31
0
210
0
220
0
230
1
40
0.092638
41
-1.40800768425005
42
-1.39235213495718
0
ELLIPSE
5
238
100
AcDbEntity
8
1
62
256
6
ByLayer
370
13
48
1
60
0
100
AcDbEllipse
10
152.169408
20
3.285722
30
0
11
-3.96879670958929
21
-0.704906659035725
31
0
210
0
220
0
230
1
40
0.015321
41
-3.01817314162432
42
-2.85180693984127
0
ELLIPSE
5
239
100
AcDbEntity
8
1
62
256
6
ByLayer
370
13
48
1
60
0
100
AcDbEllipse
10
146.5
20
2.318146
30
0
11
-1.5
21
1.51595858262354E-15
31
0
210
0
220
0
230
1
40
0.749133
41
-3.1071933181066
42
-1.69163390310904
0
ELLIPSE
5
23A
100
AcDbEntity
8
1
62
256
6
ByLayer
370
13
48
1
60
0
100
AcDbEllipse
10
150.706349
20
4.005574
30
0
11
0.49777492388443
21
-0.0471182040388855
31
0
210
0
220
0
230
1
40
0.013562
41
-2.15474624399718
42
-1.66230190308556
0
ELLIPSE
5
23B
100
AcDbEntity
8
1
62
256
6
ByLayer
370
13
48
1
60
0
100
AcDbEllipse
10
154.334751
20
-2.005987
30
0
11
-4.02199980794937
21
-0.0161445546379755
31
0
210
0
220
0
230
1
40
0.988129
41
3.00743383029879
42
-2.98932813252049
0
ELLIPSE
5
23C
100
AcDbEntity
8
1
62
256
6
ByLayer
370
13
48
1
60
0
100
AcDbEllipse
10
155.496429
20
-2.748425
30
0
11
-4.66025528550138
21
4.19611270215711
31
0
210
0
220
0
230
1
40
0.911526
41
-0.739146938748826
42
-0.547365408764771
0
ELLIPSE
5
23D
100
AcDbEntity
8
1
62
256
6
ByLayer
370
13
48
1
60
0
100
AcDbEllipse
10
149.440808
20
-0.000455
30
0
11
-1.17184542625548
21
-8.77481573075729
31
0
210
0
220
0
230
1
40
0.090396
41
2.99577686783504
42
3.00837545430912
0
ELLIPSE
5
23E
100
AcDbEntity
8
1
62
256
6
ByLayer
370
13
48
1
60
0
100
AcDbEllipse
10
155.823429
20
-1.815897
30
0
11
1
21
0
31
0
210
0
220
0
230
1
40
0.993572
41
2.15601649361558
42
2.97204568519374
0
ELLIPSE
5
23F
100
AcDbEntity
8
1
62
256
6
ByLayer
370
13
48
1
60
0
100
AcDbEllipse
10
149.938773
20
4.112373
30
0
11
-0.026167978121664
21
0.499314767377277
31
0
210
0
220
0
230
1
40
0.995725
41
-1.71815362421731
42
-1.46607657167526
0
ELLIPSE
5
240
100
AcDbEntity
8
1
62
256
6
ByLayer
370
13
48
1
60
0
100
AcDbEllipse
10
202.301088
20
-0.016297
30
0
11
-111.90117847852
21
0.0507179526421628
31
0
210
0
220
0
230
1
40
0.087646
41
-1.07686914351939
42
-1.05207188479419
0
ELLIPSE
5
241
100
AcDbEntity
8
1
62
256
6
ByLayer
370
13
48
1
60
0
100
AcDbEllipse
10
146.5
20
2.57058
30
0
11
-1.99958627062427
21
0.0487594631845629
31
0
210
0
220
0
230
1
40
0.834289
41
1.96704113831399
42
2.04627192222187
0
ELLIPSE
5
242
100
AcDbEntity
8
1
62
256
6
ByLayer
370
13
48
1
60
0
100
AcDbEllipse
10
151.2288
20
8.736255
30
0
11
-0.26167978121664
21
4.99314767377277
31
0
210
0
220
0
230
1
40
0.995725
41
2.79252680319536
42
2.92987709869108
0
ELLIPSE
5
243
100
AcDbEntity
8
1
62
256
6
ByLayer
370
13
48
1
60
0
100
AcDbEllipse
10
152.978972
20
3.328149
30
0
11
-0.318392676576233
21
-0.39516662565738
31
0
210
0
220
0
230
1
40
0.966608
41
-2.26095468063969
42
-1.67136891258465
0
ELLIPSE
5
244
100
AcDbEntity
8
1
62
256
6
ByLayer
370
13
48
1
60
0
100
AcDbEllipse
10
158.436641
20
-0.311411
30
0
11
-0.0221852602598765
21
1.01129752407019
31
0
210
0
220
0
230
1
40
0.102087
41
0.115231223789732
42
0.629477850377768
0
ELLIPSE
5
245
100
AcDbEntity
8
1
62
256
6
ByLayer
370
13
48
1
60
0
100
AcDbEllipse
10
151.076999
20
0
30
0
11
-0.463864559482707
21
8.77489482157654
31
0
210
0
220
0
230
1
40
0.092638
41
-0.131067127873456
42
-0.00561485496282385
0
ELLIPSE
5
246
100
AcDbEntity
8
1
62
256
6
ByLayer
370
13
48
1
60
0
100
AcDbEllipse
10
154.617805
20
-2.794471
30
0
11
-0.314015737459968
21
5.99177720852733
31
0
210
0
220
0
230
1
40
0.995725
41
0
42
0.226948274703351
0
ELLIPSE
5
247
100
AcDbEntity
8
1
62
256
6
ByLayer
370
13
48
1
60
0
100
AcDbEllipse
10
151.419993
20
5.26584
30
0
11
0.0601863496793794
21
-1.14842396496776
31
0
210
0
220
0
230
1
40
0.995725
41
-1.85185662295879
42
-1.46607657167527
0
ELLIPSE
5
248
100
AcDbEntity
8
1
62
256
6
ByLayer
370
13
48
1
60
0
100
AcDbEllipse
10
155.823429
20
-1.57251
30
0
11
1
21
0
31
0
210
0
220
0
230
1
40
0.993572
41
0
42
3.14159216280303
0
ELLIPSE
5
249
100
AcDbEntity
8
1
62
256
6
ByLayer
370
13
48
1
60
0
100
AcDbEllipse
10
150.698524
20
4.256862
30
0
11
0.493878886210534
21
0.0779977291684957
31
0
210
0
220
0
230
1
40
0.009655
41
1.66279490126851
42
2.15342361859069
0
ELLIPSE
5
24A
100
AcDbEntity
8
1
62
256
6
ByLayer
370
13
48
1
60
0
100
AcDbEllipse
10
152.172386
20
3.980013
30
0
11
0.0261679781214694
21
-0.499314767377288
31
0
210
0
220
0
230
1
40
0.092371
41
-0.645790707579245
42
-0.395138986075889
0
ELLIPSE
5
24B
100
AcDbEntity
8
1
62
256
6
ByLayer
370
13
48
1
60
0
100
AcDbEllipse
10
157.80108
20
-4.653784
30
0
11
-0.0947019150965504
21
-0.794566568870444
31
0
210
0
220
0
230
1
40
0.118116
41
0
42
6.28318530717959
0
ELLIPSE
5
24C
100
AcDbEntity
8
1
62
256
6
ByLayer
370
13
48
1
60
0
100
AcDbEllipse
10
162.087807
20
0.442479
30
0
11
-4.02199977796217
21
-0.0161444241752754
31
0
210
0
220
0
230
1
40
0.988129
41
0.0473500504765177
42
0.15226455366955
0
ELLIPSE
5
24D
100
AcDbEntity
8
1
62
256
6
ByLayer
370
13
48
1
60
0
100
AcDbEllipse
10
151.480128
20
3.95055
30
0
11
-0.732239876597669
21
-0.908920597627959
31
0
210
0
220
0
230
1
40
0.966601
41
1.81541545892033
42
1.84634191559483
0
ELLIPSE
5
24E
100
AcDbEntity
8
1
62
256
6
ByLayer
370
13
48
1
60
0
100
AcDbEllipse
10
374.877503
20
0
30
0
11
-310.834129233871
21
6.23129757981834
31
0
210
0
220
0
230
1
40
0.019877
41
0.758904604986773
42
0.796967559426017
0
ELLIPSE
5
24F
100
AcDbEntity
8
1
62
256
6
ByLayer
370
13
48
1
60
0
100
AcDbEllipse
10
150.557064
20
5.15258
30
0
11
0.493878886210534
21
0.0779977291684957
31
0
210
0
220
0
230
1
40
0.009655
41
1.80630216916198
42
2.15261456752556
0
ELLIPSE
5
250
100
AcDbEntity
8
1
62
256
6
ByLayer
370
13
48
1
60
0
100
AcDbEllipse
10
154.251453
20
4.195935
30
0
11
0.0523359562429386
21
-0.998629534754574
31
0
210
0
220
0
230
1
40
0.092371
41
-1.0471975511966
42
3.07690827536824E-13
0
ELLIPSE
5
251
100
AcDbEntity
8
1
62
256
6
ByLayer
370
13
48
1
60
0
100
AcDbEllipse
10
149.866487
20
3.959948
30
0
11
-0.29369042064903
21
-0.95590058940195
31
0
210
0
220
0
230
1
40
0.0868
41
-1.53907871771949
42
-0.388486816401876
0
ELLIPSE
5
252
100
AcDbEntity
8
1
62
256
6
ByLayer
370
13
48
1
60
0
100
AcDbEllipse
10
151.304551
20
3.941357
30
0
11
-0.0340183715581631
21
0.64910919759046
31
0
210
0
220
0
230
1
40
0.995725
41
1.42343902937248
42
2.29401437367445
0
ELLIPSE
5
253
100
AcDbEntity
8
1
62
256
6
ByLayer
370
13
48
1
60
0
100
AcDbEllipse
10
151.350673
20
3.943775
30
0
11
0.0601863496793794
21
-1.14842396496776
31
0
210
0
220
0
230
1
40
0.995725
41
0.0653149256522758
42
1.01160192723485
0
ELLIPSE
5
254
100
AcDbEntity
8
1
62
256
6
ByLayer
370
13
48
1
60
0
100
AcDbEllipse
10
151.321044
20
8.74109
30
0
11
0.314015737457632
21
-5.99177720852745
31
0
210
0
220
0
230
1
40
0.995725
41
-7.5080844193221E-06
42
0.22694827470334
0
ELLIPSE
5
255
100
AcDbEntity
8
1
62
256
6
ByLayer
370
13
48
1
60
0
100
AcDbEllipse
10
146.5
20
1.896566
30
0
11
-0.196475255349851
21
5.83904890289891
31
0
210
0
220
0
230
1
40
0.340865
41
-0.540792873571624
42
-0.460239880862819
0
ELLIPSE
5
256
100
AcDbEntity
8
1
62
256
6
ByLayer
370
13
48
1
60
0
100
AcDbEllipse
10
158.36692
20
-0.598058
30
0
11
-0.949421008844047
21
1.56926656402839
31
0
210
0
220
0
230
1
40
0.353998
41
-0.98039827143448
42
-0.810494540731068
0
ELLIPSE
5
257
100
AcDbEntity
8
1
62
256
6
ByLayer
370
13
48
1
60
0
100
AcDbEllipse
10
158.302916
20
0
30
0
11
-1.49619861722343
21
8.77409455831373
31
0
210
0
220
0
230
1
40
0.084209
41
1.56373749370096
42
1.63614284645297
0
ELLIPSE
5
258
100
AcDbEntity
8
1
62
256
6
ByLayer
370
13
48
1
60
0
100
AcDbEllipse
10
151.574365
20
3.955498
30
0
11
0.0601863496793794
21
-1.14842396496776
31
0
210
0
220
0
230
1
40
0.995725
41
-1.71815362421729
42
-1.4871612600539
0
ELLIPSE
5
259
100
AcDbEntity
8
1
62
256
6
ByLayer
370
13
48
1
60
0
100
AcDbEllipse
10
158.3791
20
3.445264
30
0
11
-0.00995542601302091
21
0.500161531549909
31
0
210
0
220
0
230
1
40
0.104817
41
1.9232655276992
42
-2.92553273488631
0
ELLIPSE
5
25A
100
AcDbEntity
8
1
62
256
6
ByLayer
370
13
48
1
60
0
100
AcDbEllipse
10
152.694695
20
3.934606
30
0
11
0.276595201761486
21
-0.960986521426041
31
0
210
0
220
0
230
1
40
0.090002
41
-1.25648776912587
42
-0.0208700618445917
0
POINT
5
70
100
AcDbEntity
8
1
62
256
6
ByLayer
370
18
48
1
60
0
100
AcDbPoint
10
0
20
0
30
0
39
0
210
0
220
0
230
1
50
360
0
POINT
5
72
100
AcDbEntity
8
80
62
256
6
ByLayer
370
18
48
1
60
0
100
AcDbPoint
10
0
20
0
30
0
39
0
210
0
220
0
230
1
50
360
0
POINT
5
74
100
AcDbEntity
8
81
62
256
6
ByLayer
370
18
48
1
60
0
100
AcDbPoint
10
159
20
0
30
0
39
0
210
0
220
0
230
1
50
360
0
POINT
5
76
100
AcDbEntity
8
1
62
256
6
ByLayer
370
18
48
1
60
1
100
AcDbPoint
10
0
20
-19.75
30
0
39
0
210
0
220
0
230
1
50
360
0
POINT
5
77
100
AcDbEntity
8
1
62
256
6
ByLayer
370
18
48
1
60
1
100
AcDbPoint
10
159
20
-9
30
0
39
0
210
0
220
0
230
1
50
360
0
POINT
5
78
100
AcDbEntity
8
1
62
256
6
ByLayer
370
18
48
1
60
1
100
AcDbPoint
10
-15
20
-12.5
30
0
39
0
210
0
220
0
230
1
50
360
0
POINT
5
79
100
AcDbEntity
8
1
62
256
6
ByLayer
370
18
48
1
60
1
100
AcDbPoint
10
0
20
-19.75
30
0
39
0
210
0
220
0
230
1
50
360
0
POINT
5
7A
100
AcDbEntity
8
1
62
256
6
ByLayer
370
18
48
1
60
1
100
AcDbPoint
10
159
20
-9
30
0
39
0
210
0
220
0
230
1
50
360
0
POINT
5
7B
100
AcDbEntity
8
1
62
256
6
ByLayer
370
18
48
1
60
1
100
AcDbPoint
10
13.9436
20
-19.75
30
0
39
0
210
0
220
0
230
1
50
360
0
POINT
5
7C
100
AcDbEntity
8
1
62
256
6
ByLayer
370
18
48
1
60
1
100
AcDbPoint
10
30
20
-9
30
0
39
0
210
0
220
0
230
1
50
360
0
POINT
5
7D
100
AcDbEntity
8
1
62
256
6
ByLayer
370
18
48
1
60
1
100
AcDbPoint
10
159
20
-9
30
0
39
0
210
0
220
0
230
1
50
360
0
POINT
5
7E
100
AcDbEntity
8
1
62
256
6
ByLayer
370
18
48
1
60
1
100
AcDbPoint
10
158.5369
20
-4.5
30
0
39
0
210
0
220
0
230
1
50
360
0
SPLINE
5
25B
100
AcDbEntity
8
1
62
256
6
ByLayer
370
13
48
1
60
0
100
AcDbSpline
70
4
71
3
72
8
73
4
40
0
40
0
40
0
40
0
40
1
40
1
40
1
40
1
41
1
10
158.226280156744
20
3.64292887887859
30
0
41
1
10
158.183333442191
20
3.6441488263435
30
0
41
1
10
158.14513174316
20
3.64762151788906
30
0
41
1
10
158.104581324188
20
3.65002402039357
30
0
0
SPLINE
5
25C
100
AcDbEntity
8
1
62
256
6
ByLayer
370
13
48
1
60
0
100
AcDbSpline
70
4
71
2
72
6
73
3
40
0
40
0
40
0
40
1
40
1
40
1
41
1
10
150.507340638131
20
5.78286232912737
30
0
41
0.997409491337352
10
150.507723079454
20
5.7540172622825
30
0
41
1
10
150.512222994176
20
5.72552396004627
30
0
0
SPLINE
5
25D
100
AcDbEntity
8
1
62
256
6
ByLayer
370
13
48
1
60
0
100
AcDbSpline
70
4
71
3
72
10
73
6
40
0
40
0
40
0
40
0
40
0.633233430228928
40
0.633233430228928
40
1
40
1
40
1
40
1
41
1
10
158.495979876821
20
3.64128652247598
30
0
41
1
10
158.466346939191
20
3.60869409119567
30
0
41
1
10
158.431440780808
20
3.58088918242154
30
0
41
1
10
158.370632416216
20
3.54717430265492
30
0
41
1
10
158.346927773057
20
3.53701306461744
30
0
41
1
10
158.322721075785
20
3.5289740952218
30
0
0
SPLINE
5
25E
100
AcDbEntity
8
1
62
256
6
ByLayer
370
13
48
1
60
0
100
AcDbSpline
70
4
71
3
72
10
73
6
40
0
40
0
40
0
40
0
40
0.5
40
0.5
40
1
40
1
40
1
40
1
41
1
10
152.007448281826
20
3.58542323416398
30
0
41
1
10
152.003766567131
20
3.58523028367284
30
0
41
1
10
151.98726595078
20
3.59576528003694
30
0
41
1
10
151.938444938627
20
3.6310676147709
30
0
41
1
10
151.906156629197
20
3.65570280356181
30
0
41
1
10
151.87519174585
20
3.67997031761553
30
0
0
SPLINE
5
25F
100
AcDbEntity
8
1
62
256
6
ByLayer
370
13
48
1
60
0
100
AcDbSpline
70
4
71
3
72
10
73
6
40
0
40
0
40
0
40
0
40
0.5
40
0.5
40
1
40
1
40
1
40
1
41
1
10
157.440632653815
20
8.59110068619526
30
0
41
1
10
157.43695093912
20
8.59090773570412
30
0
41
1
10
157.446251834195
20
8.57999541793652
30
0
41
1
10
157.484894830674
20
8.54415967600355
30
0
41
1
10
157.514251107414
20
8.51937082589058
30
0
41
1
10
157.545215990761
20
8.49510331183689
30
0
0
SPLINE
5
260
100
AcDbEntity
8
1
62
256
6
ByLayer
370
13
48
1
60
0
100
AcDbSpline
70
4
71
2
72
6
73
3
40
0
40
0
40
0
40
1
40
1
40
1
41
1
10
150.411310856728
20
5.8308778700787
30
0
41
0.997969722830986
10
150.408548536137
20
5.80977101067505
30
0
41
0.999121851837603
10
150.408170929951
20
5.78848494382404
30
0
0
SPLINE
5
261
100
AcDbEntity
8
1
62
256
6
ByLayer
370
13
48
1
60
0
100
AcDbSpline
70
4
71
1
72
4
73
2
40
0
40
0
40
1
40
1
41
1
10
150.866457947149
20
3.48252065858677
30
0
41
1
10
150.836426768027
20
3.48167761319118
30
0
0
SPLINE
5
262
100
AcDbEntity
8
1
62
256
6
ByLayer
370
13
48
1
60
0
100
AcDbSpline
70
4
71
3
72
16
73
12
40
0
40
0
40
0
40
0
40
0.500000000000016
40
0.500000000000016
40
0.750000000000008
40
0.750000000000008
40
0.812500000000006
40
0.812500000000006
40
0.875000000000004
40
0.875000000000004
40
1
40
1
40
1
40
1
41
1
10
154.835679698176
20
4.04630627675769
30
0
41
1
10
155.255738938455
20
4.06832064870804
30
0
41
1
10
155.675798122595
20
4.09033609185269
30
0
41
1
10
156.305887008267
20
4.12335716790992
30
0
41
1
10
156.5159167352
20
4.13436116237341
30
0
41
1
10
156.778453713687
20
4.14812319319211
30
0
41
1
10
156.830937001587
20
4.15187572040961
30
0
41
1
10
156.936059601519
20
4.15290805487703
30
0
41
1
10
156.988692590348
20
4.15045018258846
30
0
41
1
10
157.146804971181
20
4.1342229909622
30
0
41
1
10
157.251740841179
20
4.11163880784875
30
0
41
1
10
157.355410368646
20
4.07612944195338
30
0
0
SPLINE
5
263
100
AcDbEntity
8
1
62
256
6
ByLayer
370
13
48
1
60
0
100
AcDbSpline
70
4
71
3
72
10
73
6
40
0
40
0
40
0
40
0
40
0.5
40
0.5
40
1
40
1
40
1
40
1
41
1
10
152.040848504022
20
3.67687564378204
30
0
41
1
10
152.037165039881
20
3.67668260160636
30
0
41
1
10
152.01677289101
20
3.67695536316259
30
0
41
1
10
151.955368597747
20
3.67814934449052
30
0
41
1
10
151.914467454892
20
3.67905511992544
30
0
41
1
10
151.87519174585
20
3.67997031761553
30
0
0
SPLINE
5
264
100
AcDbEntity
8
1
62
256
6
ByLayer
370
13
48
1
60
0
100
AcDbSpline
70
4
71
2
72
6
73
3
40
0
40
0
40
0
40
1
40
1
40
1
41
1
10
158.949964697186
20
6.39414502153414
30
0
41
0.997409491337351
10
158.950347138509
20
6.36529995469046
30
0
41
1
10
158.946604190957
20
6.33670013611564
30
0
0
SPLINE
5
265
100
AcDbEntity
8
1
62
256
6
ByLayer
370
13
48
1
60
0
100
AcDbSpline
70
4
71
3
72
8
73
4
40
0
40
0
40
0
40
0
40
1
40
1
40
1
40
1
41
1
10
150.409288495737
20
5.77682487313487
30
0
41
1
10
150.408862440208
20
5.78089373927028
30
0
41
1
10
150.408494428616
20
5.78476508073734
30
0
41
1
10
150.40817092995
20
5.78848494382612
30
0
0
SPLINE
5
266
100
AcDbEntity
8
1
62
256
6
ByLayer
370
13
48
1
60
0
100
AcDbSpline
70
4
71
1
72
4
73
2
40
0
40
0
40
1
40
1
41
1
10
150.409288495737
20
5.77682487313484
30
0
41
1
10
150.507340638131
20
5.78286232912737
30
0
0
SPLINE
5
267
100
AcDbEntity
8
1
62
256
6
ByLayer
370
13
48
1
60
0
100
AcDbSpline
70
4
71
3
72
8
73
4
40
0
40
0
40
0
40
0
40
1
40
1
40
1
40
1
41
1
10
158.078445883758
20
9.03285027260412
30
0
41
1
10
158.036956266233
20
9.03286891640232
30
0
41
1
10
157.995467318972
20
9.03256223996499
30
0
41
1
10
157.953978870911
20
9.03201327077934
30
0
0
SPLINE
5
268
100
AcDbEntity
8
1
62
256
6
ByLayer
370
13
48
1
60
0
100
AcDbSpline
70
4
71
3
72
20
73
16
40
0
40
0
40
0
40
0
40
0.24999999999995
40
0.24999999999995
40
0.374999999999958
40
0.374999999999958
40
0.499999999999967
40
0.499999999999967
40
0.624999999999975
40
0.624999999999975
40
0.749999999999983
40
0.749999999999983
40
0.874999999999992
40
0.874999999999992
40
1
40
1
40
1
40
1
41
1
10
158.590847388169
20
8.69448669207478
30
0
41
1
10
158.583222930615
20
8.75170730172329
30
0
41
1
10
158.562004347843
20
8.80552350990322
30
0
41
1
10
158.514114628273
20
8.8770751257081
30
0
41
1
10
158.495769934651
20
8.89871750402986
30
0
41
1
10
158.454891654276
20
8.93811818466747
30
0
41
1
10
158.431989322934
20
8.9558679202211
30
0
41
1
10
158.383770058356
20
8.98580498312998
30
0
41
1
10
158.358329613043
20
8.99826688782198
30
0
41
1
10
158.304402671869
20
9.01745336845744
30
0
41
1
10
158.276655324798
20
9.02418438581537
30
0
41
1
10
158.220777098548
20
9.0322326492485
30
0
41
1
10
158.192270620668
20
9.03209470289605
30
0
41
1
10
158.135357823826
20
9.03268041067273
30
0
41
1
10
158.106901705152
20
9.03283748567998
30
0
41
1
10
158.078445883758
20
9.03285027260412
30
0
0
SPLINE
5
269
100
AcDbEntity
8
1
62
256
6
ByLayer
370
13
48
1
60
0
100
AcDbSpline
70
4
71
3
72
16
73
12
40
0
40
0
40
0
40
0
40
0.500000000000017
40
0.500000000000017
40
0.750000000000009
40
0.750000000000009
40
0.812500000000006
40
0.812500000000006
40
0.875000000000004
40
0.875000000000004
40
1
40
1
40
1
40
1
41
1
10
154.621625637142
20
8.13070107390385
30
0
41
1
10
154.201566396863
20
8.1086867019535
30
0
41
1
10
153.781507212723
20
8.08667125880885
30
0
41
1
10
153.15141832705
20
8.05365018275162
30
0
41
1
10
152.941388600118
20
8.0426461882881
30
0
41
1
10
152.678851621631
20
8.02888415746943
30
0
41
1
10
152.626368333731
20
8.02513163025191
30
0
41
1
10
152.521245733799
20
8.02409929578448
30
0
41
1
10
152.46861274497
20
8.02655716807308
30
0
41
1
10
152.310500364137
20
8.04278435969931
30
0
41
1
10
152.205564494139
20
8.06536854281273
30
0
41
1
10
152.101894966672
20
8.10087790870813
30
0
0
SPLINE
5
26A
100
AcDbEntity
8
1
62
256
6
ByLayer
370
13
48
1
60
0
100
AcDbSpline
70
4
71
2
72
6
73
3
40
0
40
0
40
0
40
1
40
1
40
1
41
1
10
150.507340638131
20
5.78286232912737
30
0
41
0.997409491337352
10
150.506958196809
20
5.81170739597109
30
0
41
1
10
150.510701144361
20
5.8403072145459
30
0
0
SPLINE
5
26B
100
AcDbEntity
8
1
62
256
6
ByLayer
370
13
48
1
60
0
100
AcDbSpline
70
4
71
3
72
18
73
14
40
0
40
0
40
0
40
0
40
0.124999999999978
40
0.124999999999978
40
0.249999999999955
40
0.249999999999955
40
0.312499999999959
40
0.312499999999959
40
0.374999999999963
40
0.374999999999963
40
0.49999999999997
40
0.49999999999997
40
1
40
1
40
1
40
1
41
1
10
157.358590354789
20
8.40251315753184
30
0
41
1
10
157.26050857899
20
8.33802751560182
30
0
41
1
10
157.15688448989
20
8.28630379888406
30
0
41
1
10
156.938937863665
20
8.20749098752083
30
0
41
1
10
156.823678135624
20
8.18051264707796
30
0
41
1
10
156.651356565371
20
8.16114843665446
30
0
41
1
10
156.593620996014
20
8.15890677685204
30
0
41
1
10
156.478255633303
20
8.15291304011356
30
0
41
1
10
156.420574746813
20
8.14989054215184
30
0
41
1
10
156.247533401106
20
8.14080428853566
30
0
41
1
10
156.132171990356
20
8.13475412018084
30
0
41
1
10
155.555362638545
20
8.10453609336793
30
0
41
1
10
155.093915985955
20
8.08034983631208
30
0
41
1
10
154.632469133618
20
8.05616643152393
30
0
0
SPLINE
5
26C
100
AcDbEntity
8
1
62
256
6
ByLayer
370
13
48
1
60
0
100
AcDbSpline
70
4
71
1
72
4
73
2
40
0
40
0
40
1
40
1
41
1
10
158.036358208222
20
3.54312857536016
30
0
41
1
10
158.104581324188
20
3.65002402039357
30
0
0
SPLINE
5
26D
100
AcDbEntity
8
1
62
256
6
ByLayer
370
13
48
1
60
0
100
AcDbSpline
70
4
71
3
72
8
73
4
40
0
40
0
40
0
40
0
40
1
40
1
40
1
40
1
41
1
10
158.104581324188
20
3.65002402039357
30
0
41
1
10
158.085654253565
20
3.64929721042566
30
0
41
1
10
158.068206145648
20
3.64939271603544
30
0
41
1
10
158.051037468023
20
3.64964358468254
30
0
0
SPLINE
5
26E
100
AcDbEntity
8
1
62
256
6
ByLayer
370
13
48
1
60
0
100
AcDbSpline
70
4
71
1
72
4
73
2
40
0
40
0
40
1
40
1
41
1
10
150.512222994176
20
5.72552396004627
30
0
41
1
10
150.417154051338
20
5.72285515259983
30
0
0
SPLINE
5
26F
100
AcDbEntity
8
1
62
256
6
ByLayer
370
13
48
1
60
0
100
AcDbSpline
70
4
71
3
72
9
73
5
40
0
40
0
40
0
40
0
40
0.5
40
1
40
1
40
1
40
1
41
1
10
151.503326464407
20
3.14499407988217
30
0
41
1
10
151.525182353049
20
3.14529405592762
30
0
41
1
10
151.568873028266
20
3.14685195750684
30
0
41
1
10
151.612541594805
20
3.14887294050561
30
0
41
1
10
151.63437864191
20
3.14982554683851
30
0
0
SPLINE
5
270
100
AcDbEntity
8
1
62
256
6
ByLayer
370
13
48
1
60
0
100
AcDbSpline
70
4
71
2
72
6
73
3
40
0
40
0
40
0
40
1
40
1
40
1
41
1
10
158.949964697186
20
6.39414502153414
30
0
41
0.997409491337352
10
158.949582255864
20
6.42299008837901
30
0
41
1
10
158.945082341142
20
6.45148339061527
30
0
0
SPLINE
5
271
100
AcDbEntity
8
1
62
256
6
ByLayer
370
13
48
1
60
0
100
AcDbSpline
70
4
71
1
72
4
73
2
40
0
40
0
40
1
40
1
41
1
10
157.981002252016
20
3.64534460250872
30
0
41
1
10
157.935656735449
20
3.57718670771064
30
0
0
SPLINE
5
272
100
AcDbEntity
8
1
62
256
6
ByLayer
370
13
48
1
60
0
100
AcDbSpline
70
4
71
3
72
18
73
14
40
0
40
0
40
0
40
0
40
0.12500000000003
40
0.12500000000003
40
0.25000000000006
40
0.25000000000006
40
0.312500000000074
40
0.312500000000074
40
0.375000000000089
40
0.375000000000089
40
0.500000000000089
40
0.500000000000089
40
1
40
1
40
1
40
1
41
1
10
152.112551580044
20
3.7752193385831
30
0
41
1
10
152.210633355843
20
3.83970498051315
30
0
41
1
10
152.314257444943
20
3.89142869723091
30
0
41
1
10
152.532204071168
20
3.97024150859409
30
0
41
1
10
152.647463799209
20
3.99721984903698
30
0
41
1
10
152.819785369462
20
4.01658405946048
30
0
41
1
10
152.877520938819
20
4.01882571926291
30
0
41
1
10
152.99288630153
20
4.02481945600138
30
0
41
1
10
153.05056718802
20
4.02784195396308
30
0
41
1
10
153.223608533727
20
4.03692820757928
30
0
41
1
10
153.338969944477
20
4.0429783759341
30
0
41
1
10
153.915779296288
20
4.07319640274699
30
0
41
1
10
154.377225948878
20
4.09738265980283
30
0
41
1
10
154.838672801215
20
4.12156606459098
30
0
0
SPLINE
5
273
100
AcDbEntity
8
1
62
256
6
ByLayer
370
13
48
1
60
0
100
AcDbSpline
70
4
71
3
72
10
73
6
40
0
40
0
40
0
40
0
40
0.470411496941364
40
0.470411496941364
40
1
40
1
40
1
40
1
41
1
10
157.406623566219
20
8.49956678331642
30
0
41
1
10
157.406652300379
20
8.49930728280617
30
0
41
1
10
157.419603375801
20
8.49870863732167
30
0
41
1
10
157.467971407492
20
8.49707795864896
30
0
41
1
10
157.505940281719
20
8.49601850952698
30
0
41
1
10
157.545215990761
20
8.49510331183691
30
0
0
SPLINE
5
274
100
AcDbEntity
8
1
62
256
6
ByLayer
370
13
48
1
60
0
100
AcDbSpline
70
4
71
3
72
24
73
20
40
0
40
0
40
0
40
0
40
0.125000000000096
40
0.125000000000096
40
0.250000000000191
40
0.250000000000191
40
0.375000000000286
40
0.375000000000286
40
0.500000000000382
40
0.500000000000382
40
0.5625000000005
40
0.5625000000005
40
0.593750000000486
40
0.593750000000486
40
0.625000000000471
40
0.625000000000471
40
0.750000000000268
40
0.750000000000268
40
1
40
1
40
1
40
1
41
1
10
150.667120861633
20
8.47019551059296
30
0
41
1
10
150.67745953141
20
8.47623107449644
30
0
41
1
10
150.689276040187
20
8.48231883048925
30
0
41
1
10
150.716771220926
20
8.49418327939185
30
0
41
1
10
150.732644776121
20
8.49999183433371
30
0
41
1
10
150.769726949669
20
8.50995679015136
30
0
41
1
10
150.791103331706
20
8.51399374279481
30
0
41
1
10
150.834334460082
20
8.51896574306457
30
0
41
1
10
150.855524281371
20
8.51985221275885
30
0
41
1
10
150.884751803985
20
8.5195093709446
30
0
41
1
10
150.89467347129
20
8.51953306841639
30
0
41
1
10
150.910041918804
20
8.51987684464137
30
0
41
1
10
150.915346529314
20
8.52010305947988
30
0
41
1
10
150.925497490516
20
8.52027411552351
30
0
41
1
10
150.930453087775
20
8.52028603462256
30
0
41
1
10
150.955079952717
20
8.52025284091076
30
0
41
1
10
150.974150403623
20
8.51983882383749
30
0
41
1
10
151.03004010995
20
8.51778527565747
30
0
41
1
10
151.065809799613
20
8.51551911384723
30
0
41
1
10
151.102692364456
20
8.51387972691532
30
0
0
SPLINE
5
275
100
AcDbEntity
8
1
62
256
6
ByLayer
370
13
48
1
60
0
100
AcDbSpline
70
4
71
3
72
18
73
14
40
0
40
0
40
0
40
0
40
0.0312500000000001
40
0.0312500000000001
40
0.0625000000000001
40
0.0625000000000001
40
0.125000000000001
40
0.125000000000001
40
0.250000000000002
40
0.250000000000002
40
0.500000000000004
40
0.500000000000004
40
1
40
1
40
1
40
1
41
1
10
158.627597477412
20
3.88999556808505
30
0
41
1
10
158.627016586388
20
3.88134178248021
30
0
41
1
10
158.626146021383
20
3.87182477794454
30
0
41
1
10
158.623849589471
20
3.85255206842334
30
0
41
1
10
158.622463886435
20
3.84326966945633
30
0
41
1
10
158.618260221203
20
3.81935361397862
30
0
41
1
10
158.61536645098
20
3.80729784737755
30
0
41
1
10
158.607285222535
20
3.77752170665639
30
0
41
1
10
158.602350257781
20
3.76477779508107
30
0
41
1
10
158.588134420451
20
3.73244103392523
30
0
41
1
10
158.579555777048
20
3.72074390803806
30
0
41
1
10
158.554843195702
20
3.69492063747251
30
0
41
1
10
158.539836050101
20
3.69148443126915
30
0
41
1
10
158.525423845425
20
3.69293632349547
30
0
0
SPLINE
5
276
100
AcDbEntity
8
1
62
256
6
ByLayer
370
13
48
1
60
0
100
AcDbSpline
70
4
71
3
72
9
73
5
40
0
40
0
40
0
40
0
40
0.5
40
1
40
1
40
1
40
1
41
1
10
157.953978870911
20
9.03201327077934
30
0
41
1
10
157.932122982269
20
9.03171329473389
30
0
41
1
10
157.888432307052
20
9.03015539315467
30
0
41
1
10
157.844763740513
20
9.0281344101559
30
0
41
1
10
157.822926693408
20
9.027181803823
30
0
0
SPLINE
5
277
100
AcDbEntity
8
1
62
256
6
ByLayer
370
13
48
1
60
0
100
AcDbSpline
70
4
71
3
72
8
73
4
40
0
40
0
40
0
40
0
40
1
40
1
40
1
40
1
41
1
10
151.102692364456
20
8.51387972691532
30
0
41
1
10
151.123160908973
20
8.51468732210682
30
0
41
1
10
151.142589353959
20
8.51469560156505
30
0
41
1
10
151.161821284151
20
8.51455286340314
30
0
0
SPLINE
5
278
100
AcDbEntity
8
1
62
256
6
ByLayer
370
13
48
1
60
0
100
AcDbSpline
70
4
71
1
72
4
73
2
40
0
40
0
40
1
40
1
41
1
10
150.968868012762
20
8.66593912265796
30
0
41
1
10
151.102692364456
20
8.51387972691532
30
0
0
SPLINE
5
279
100
AcDbEntity
8
1
62
256
6
ByLayer
370
13
48
1
60
0
100
AcDbSpline
70
4
71
1
72
4
73
2
40
0
40
0
40
1
40
1
41
1
10
150.510701144361
20
5.8403072145459
30
0
41
1
10
150.411310856728
20
5.8308778700787
30
0
0
SPLINE
5
27A
100
AcDbEntity
8
1
62
256
6
ByLayer
370
13
48
1
60
0
100
AcDbSpline
70
4
71
1
72
4
73
2
40
0
40
0
40
1
40
1
41
1
10
151.23185649187
20
8.51885184514254
30
0
41
1
10
151.099707298541
20
8.67483280570545
30
0
0
SPLINE
5
27B
100
AcDbEntity
8
1
62
256
6
ByLayer
370
13
48
1
60
0
100
AcDbSpline
70
4
71
3
72
8
73
4
40
0
40
0
40
0
40
0
40
1
40
1
40
1
40
1
41
1
10
150.409288495737
20
5.77682487313484
30
0
41
1
10
150.410845244397
20
5.76195779250745
30
0
41
1
10
150.413079033081
20
5.74463772758094
30
0
41
1
10
150.417154051338
20
5.72285515259983
30
0
0
SPLINE
5
27C
100
AcDbEntity
8
1
62
256
6
ByLayer
370
13
48
1
60
0
100
AcDbSpline
70
4
71
3
72
16
73
12
40
0
40
0
40
0
40
0
40
0.5
40
0.5
40
0.75
40
0.75
40
0.8125
40
0.8125
40
0.875
40
0.875
40
1
40
1
40
1
40
1
41
1
10
154.632469133618
20
8.05616643152396
30
0
41
1
10
154.205786446125
20
8.03380493941395
30
0
41
1
10
153.77910381855
20
8.01144228864476
30
0
41
1
10
153.139079754289
20
7.97790068976005
30
0
41
1
10
152.925738264659
20
7.9667227661289
30
0
41
1
10
152.659061747922
20
7.95274368136435
30
0
41
1
10
152.605594152174
20
7.94944344552505
30
0
41
1
10
152.499005196885
20
7.95053655856964
30
0
41
1
10
152.446168351614
20
7.9539364464209
30
0
41
1
10
152.288978803254
20
7.97237244789593
30
0
41
1
10
152.185938697867
20
7.99559258948801
30
0
41
1
10
152.084734185443
20
8.03025762703308
30
0
0
SPLINE
5
27D
100
AcDbEntity
8
1
62
256
6
ByLayer
370
13
48
1
60
0
100
AcDbSpline
70
4
71
3
72
18
73
14
40
0
40
0
40
0
40
0
40
0.0553337967176047
40
0.0553337967176047
40
0.11066759343521
40
0.11066759343521
40
0.221335186870381
40
0.221335186870381
40
0.442670373740756
40
0.442670373740756
40
0.885340747481482
40
0.885340747481482
40
1
40
1
40
1
40
1
41
1
10
150.836426768027
20
3.48167761319118
30
0
41
1
10
150.83790904378
20
3.47313195357509
30
0
41
1
10
150.839769637598
20
3.4637580830086
30
0
41
1
10
150.844068036124
20
3.44483099390536
30
0
41
1
10
150.846416423033
20
3.43574429030011
30
0
41
1
10
150.853096968674
20
3.41239865214339
30
0
41
1
10
150.857235057278
20
3.40071140964759
30
0
41
1
10
150.868384470139
20
3.37194310413153
30
0
41
1
10
150.874624502133
20
3.35978484931923
30
0
41
1
10
150.892142575569
20
3.32911119195461
30
0
41
1
10
150.901896906859
20
3.31837485655882
30
0
41
1
10
150.913344088742
20
3.30868099473707
30
0
41
1
10
150.915650470448
20
3.30691395309762
30
0
41
1
10
150.9179121133
20
3.30535517572707
30
0
0
SPLINE
5
27E
100
AcDbEntity
8
1
62
256
6
ByLayer
370
13
48
1
60
0
100
AcDbSpline
70
4
71
3
72
22
73
18
40
0
40
0
40
0
40
0
40
0.0624999999999686
40
0.0624999999999686
40
0.124999999999937
40
0.124999999999937
40
0.249999999999903
40
0.249999999999903
40
0.281249999999894
40
0.281249999999894
40
0.312499999999886
40
0.312499999999886
40
0.374999999999899
40
0.374999999999899
40
0.499999999999925
40
0.499999999999925
40
1
40
1
40
1
40
1
41
1
10
152.146557741271
20
3.71210302243696
30
0
41
1
10
152.194478339191
20
3.74360928844197
30
0
41
1
10
152.244269450805
20
3.77218383899455
30
0
41
1
10
152.347670900437
20
3.82334694539676
30
0
41
1
10
152.401583586348
20
3.84598485132369
30
0
41
1
10
152.564036190059
20
3.90278827558669
30
0
41
1
10
152.674694279478
20
3.92696276197361
30
0
41
1
10
152.815904526815
20
3.94039874586096
30
0
41
1
10
152.844343659379
20
3.94194055122088
30
0
41
1
10
152.901232934403
20
3.94496017553092
30
0
41
1
10
152.929684421994
20
3.94643017696211
30
0
41
1
10
153.015034083398
20
3.95086808544599
30
0
41
1
10
153.071927930227
20
3.95386068442613
30
0
41
1
10
153.242612678081
20
3.96282433843973
30
0
41
1
10
153.356403096065
20
3.96878892617866
30
0
41
1
10
153.925356119966
20
3.99859404575469
30
0
41
1
10
154.380517799463
20
4.02245225243186
30
0
41
1
10
154.835679698176
20
4.04630627675769
30
0
0
SPLINE
5
27F
100
AcDbEntity
8
1
62
256
6
ByLayer
370
13
48
1
60
0
100
AcDbSpline
70
4
71
3
72
18
73
14
40
0
40
0
40
0
40
0
40
0.124999999999952
40
0.124999999999952
40
0.249999999999905
40
0.249999999999905
40
0.499999999999873
40
0.499999999999873
40
0.624999999999905
40
0.624999999999905
40
0.749999999999937
40
0.749999999999937
40
1
40
1
40
1
40
1
41
1
10
150.866457947149
20
3.48252065858677
30
0
41
1
10
150.870964971868
20
3.44869599626784
30
0
41
1
10
150.880225831298
20
3.41582972978585
30
0
41
1
10
150.90702319957
20
3.35435628134235
30
0
41
1
10
150.924731645084
20
3.3248980626897
30
0
41
1
10
150.987404304411
20
3.24592006598266
30
0
41
1
10
151.042491211295
20
3.20382435805411
30
0
41
1
10
151.135273217396
20
3.16442936501815
30
0
41
1
10
151.168221412423
20
3.15535779590809
30
0
41
1
10
151.234103554488
20
3.14453143219103
30
0
41
1
10
151.267832667211
20
3.14492133838721
30
0
41
1
10
151.368761059713
20
3.1437490983204
30
0
41
1
10
151.436044313766
20
3.14410381212881
30
0
41
1
10
151.503326464407
20
3.1449940798822
30
0
0
SPLINE
5
280
100
AcDbEntity
8
1
62
256
6
ByLayer
370
13
48
1
60
0
100
AcDbSpline
70
4
71
3
72
16
73
12
40
0
40
0
40
0
40
0
40
0.500000000000016
40
0.500000000000016
40
0.750000000000024
40
0.750000000000024
40
0.812500000000018
40
0.812500000000018
40
0.875000000000012
40
0.875000000000012
40
1
40
1
40
1
40
1
41
1
10
154.838672801215
20
4.12156606459098
30
0
41
1
10
155.265355488708
20
4.14392755670096
30
0
41
1
10
155.692038116283
20
4.16629020747013
30
0
41
1
10
156.332062180544
20
4.19983180635489
30
0
41
1
10
156.545403670174
20
4.21100972998605
30
0
41
1
10
156.81208018691
20
4.22498881475059
30
0
41
1
10
156.865547782659
20
4.22828905058986
30
0
41
1
10
156.972136737948
20
4.2271959375453
30
0
41
1
10
157.024973583218
20
4.22379604969405
30
0
41
1
10
157.182163131579
20
4.20536004821898
30
0
41
1
10
157.285203236966
20
4.18213990662696
30
0
41
1
10
157.38640774939
20
4.14747486908183
30
0
0
SPLINE
5
281
100
AcDbEntity
8
1
62
256
6
ByLayer
370
13
48
1
60
0
100
AcDbSpline
70
4
71
3
72
9
73
5
40
0
40
0
40
0
40
0
40
0.5
40
1
40
1
40
1
40
1
41
1
10
150.968868012762
20
8.66593912265799
30
0
41
1
10
150.990635528595
20
8.66792535236581
30
0
41
1
10
151.034249706779
20
8.670942904274
30
0
41
1
10
151.077890302588
20
8.67349760058494
30
0
41
1
10
151.099707298541
20
8.67483280570542
30
0
0
SPLINE
5
282
100
AcDbEntity
8
1
62
256
6
ByLayer
370
13
48
1
60
0
100
AcDbSpline
70
4
71
3
72
10
73
6
40
0
40
0
40
0
40
0
40
0.183356050661451
40
0.183356050661451
40
1
40
1
40
1
40
1
41
1
10
150.723095721465
20
8.6399195803065
30
0
41
1
10
150.738028319419
20
8.64194835453532
30
0
41
1
10
150.753068204745
20
8.6435472596593
30
0
41
1
10
150.834909635425
20
8.65311136911888
30
0
41
1
10
150.901861382462
20
8.65979161361957
30
0
41
1
10
150.968868012762
20
8.66593912265796
30
0
0
SPLINE
5
283
100
AcDbEntity
8
1
62
256
6
ByLayer
370
13
48
1
60
0
100
AcDbSpline
70
4
71
3
72
22
73
18
40
0
40
0
40
0
40
0
40
0.0624999999999689
40
0.0624999999999689
40
0.124999999999938
40
0.124999999999938
40
0.249999999999904
40
0.249999999999904
40
0.281249999999895
40
0.281249999999895
40
0.312499999999887
40
0.312499999999887
40
0.3749999999999
40
0.3749999999999
40
0.499999999999926
40
0.499999999999926
40
1
40
1
40
1
40
1
41
1
10
157.310747594047
20
8.46490432822455
30
0
41
1
10
157.262826996127
20
8.43339806221954
30
0
41
1
10
157.213035884512
20
8.40482351166696
30
0
41
1
10
157.10963443488
20
8.35366040526475
30
0
41
1
10
157.05572174897
20
8.33102249933779
30
0
41
1
10
156.893269145259
20
8.27421907507488
30
0
41
1
10
156.78261105584
20
8.2500445886879
30
0
41
1
10
156.641400808503
20
8.23660860480055
30
0
41
1
10
156.612961675939
20
8.23506679944066
30
0
41
1
10
156.556072400915
20
8.23204717513062
30
0
41
1
10
156.527620913324
20
8.2305771736994
30
0
41
1
10
156.44227125192
20
8.22613926521552
30
0
41
1
10
156.385377405091
20
8.22314666623541
30
0
41
1
10
156.214692657236
20
8.21418301222181
30
0
41
1
10
156.100902239253
20
8.20821842448285
30
0
41
1
10
155.531949215351
20
8.17841330490683
30
0
41
1
10
155.076787535855
20
8.15455509822962
30
0
41
1
10
154.621625637142
20
8.13070107390382
30
0
0
SPLINE
5
284
100
AcDbEntity
8
1
62
256
6
ByLayer
370
13
48
1
60
0
100
AcDbSpline
70
4
71
3
72
22
73
18
40
0
40
0
40
0
40
0
40
0.25
40
0.25
40
0.375
40
0.375
40
0.499999999999999
40
0.499999999999999
40
0.624999999999999
40
0.624999999999999
40
0.749999999999999
40
0.749999999999999
40
0.812499999999999
40
0.812499999999999
40
0.875
40
0.875
40
1
40
1
40
1
40
1
41
1
10
158.525423845433
20
3.69293632350031
30
0
41
1
10
158.507117701504
20
3.68447092387805
30
0
41
1
10
158.486300855641
20
3.67585761329281
30
0
41
1
10
158.450175837901
20
3.66388774021098
30
0
41
1
10
158.437046374963
20
3.66001443579501
30
0
41
1
10
158.40944750586
20
3.65322780921699
30
0
41
1
10
158.394622072977
20
3.65025987343094
30
0
41
1
10
158.365618149216
20
3.64585165065589
30
0
41
1
10
158.351034165279
20
3.6443015693915
30
0
41
1
10
158.324074402551
20
3.6426540263613
30
0
41
1
10
158.311836888138
20
3.64275602494723
30
0
41
1
10
158.293969790233
20
3.64305189432039
30
0
41
1
10
158.287764462974
20
3.64301584647433
30
0
41
1
10
158.275133285639
20
3.64283832598076
30
0
41
1
10
158.268399941298
20
3.64254947380195
30
0
41
1
10
158.249660056851
20
3.64238228287104
30
0
41
1
10
158.237854280092
20
3.64260010349767
30
0
41
1
10
158.226280156744
20
3.64292887887859
30
0
0
SPLINE
5
285
100
AcDbEntity
8
1
62
256
6
ByLayer
370
18
48
1
60
0
100
AcDbSpline
70
4
71
3
72
8
73
4
40
0
40
0
40
0
40
0
40
1
40
1
40
1
40
1
41
1
10
154.149915119219
20
6.59245679104387
30
0
41
1
10
154.147710720967
20
6.59878066880256
30
0
41
1
10
154.145508702761
20
6.60510057948017
30
0
41
1
10
154.143308902548
20
6.61141678234873
30
0
0
SPLINE
5
286
100
AcDbEntity
8
1
62
256
6
ByLayer
370
18
48
1
60
0
100
AcDbSpline
70
4
71
3
72
16
73
12
40
0
40
0
40
0
40
0
40
0.125000000000096
40
0.125000000000096
40
0.250000000000192
40
0.250000000000192
40
0.500000000000128
40
0.500000000000128
40
0.750000000000064
40
0.750000000000064
40
1
40
1
40
1
40
1
41
1
10
154.560249079879
20
5.32347175670745
30
0
41
1
10
154.559697034941
20
5.31343472014907
30
0
41
1
10
154.556442245595
20
5.30384380426202
30
0
41
1
10
154.54446580643
20
5.28794251725105
30
0
41
1
10
154.535885646979
20
5.28178013146652
30
0
41
1
10
154.507274861748
20
5.26900025858404
30
0
41
1
10
154.48420571357
20
5.26719026359197
30
0
41
1
10
154.439222573673
20
5.27010422819086
30
0
41
1
10
154.416717311407
20
5.27485670202825
30
0
41
1
10
154.372903610852
20
5.28838233207543
30
0
41
1
10
154.351544572326
20
5.29721524789801
30
0
41
1
10
154.331012914551
20
5.30772472686215
30
0
0
SPLINE
5
287
100
AcDbEntity
8
1
62
256
6
ByLayer
370
18
48
1
60
0
100
AcDbSpline
70
4
71
3
72
18
73
14
40
0
40
0
40
0
40
0
40
0.125000000000008
40
0.125000000000008
40
0.250000000000015
40
0.250000000000015
40
0.500000000000027
40
0.500000000000027
40
0.750000000000039
40
0.750000000000039
40
0.87500000000002
40
0.87500000000002
40
1
40
1
40
1
40
1
41
1
10
155.441203608623
20
6.33238733576147
30
0
41
1
10
155.424842995981
20
6.33457798199819
30
0
41
1
10
155.409147537088
20
6.34060648415684
30
0
41
1
10
155.379105205466
20
6.3566212875584
30
0
41
1
10
155.364897690697
20
6.36664482414477
30
0
41
1
10
155.324918591965
20
6.4003695686614
30
0
41
1
10
155.301686692206
20
6.42768786844712
30
0
41
1
10
155.263292204699
20
6.48718335238772
30
0
41
1
10
155.248384212317
20
6.51878944640623
30
0
41
1
10
155.234638362842
20
6.56813011086416
30
0
41
1
10
155.231600970527
20
6.58458505619581
30
0
41
1
10
155.229844862477
20
6.61767138323413
30
0
41
1
10
155.231087844113
20
6.63407120109335
30
0
41
1
10
155.23617691022
20
6.64938535923025
30
0
0
SPLINE
5
288
100
AcDbEntity
8
1
62
256
6
ByLayer
370
18
48
1
60
0
100
AcDbSpline
70
4
71
3
72
8
73
4
40
0
40
0
40
0
40
0
40
1
40
1
40
1
40
1
41
1
10
154.481204001549
20
6.83174170081787
30
0
41
1
10
154.485583694472
20
6.82684689969463
30
0
41
1
10
154.489966901512
20
6.82194923590254
30
0
41
1
10
154.494353875481
20
6.8170485093473
30
0
0
SPLINE
5
289
100
AcDbEntity
8
1
62
256
6
ByLayer
370
18
48
1
60
0
100
AcDbSpline
70
4
71
3
72
8
73
4
40
0
40
0
40
0
40
0
40
1
40
1
40
1
40
1
41
1
10
153.9604368115
20
6.25085977499933
30
0
41
1
10
153.966668780501
20
6.25249353706459
30
0
41
1
10
153.972905364951
20
6.25412831822837
30
0
41
1
10
153.979146894775
20
6.25576419020283
30
0
0
SPLINE
5
28A
100
AcDbEntity
8
1
62
256
6
ByLayer
370
18
48
1
60
0
100
AcDbSpline
70
4
71
3
72
8
73
4
40
0
40
0
40
0
40
0
40
1
40
1
40
1
40
1
41
1
10
155.292024739809
20
5.58374528912771
30
0
41
1
10
155.294875655565
20
5.57745529391562
30
0
41
1
10
155.297725739051
20
5.57116934690021
30
0
41
1
10
155.300575038425
20
5.56488718284027
30
0
0
SPLINE
5
28B
100
AcDbEntity
8
1
62
256
6
ByLayer
370
18
48
1
60
0
100
AcDbSpline
70
4
71
3
72
8
73
4
40
0
40
0
40
0
40
0
40
1
40
1
40
1
40
1
41
1
10
154.201174780438
20
5.50727005677598
30
0
41
1
10
154.202702306936
20
5.51378160056015
30
0
41
1
10
154.204231651704
20
5.52029706368495
30
0
41
1
10
154.205762948808
20
5.5268167209413
30
0
0
SPLINE
5
28C
100
AcDbEntity
8
1
62
256
6
ByLayer
370
18
48
1
60
0
100
AcDbSpline
70
4
71
3
72
8
73
4
40
0
40
0
40
0
40
0
40
1
40
1
40
1
40
1
41
1
10
154.000736250406
20
5.84381474441011
30
0
41
1
10
153.994357917151
20
5.84478923738578
30
0
41
1
10
153.987984616202
20
5.84576316245875
30
0
41
1
10
153.981616011941
20
5.84673655646168
30
0
0
SPLINE
5
28D
100
AcDbEntity
8
1
62
256
6
ByLayer
370
18
48
1
60
0
100
AcDbSpline
70
4
71
3
72
18
73
14
40
0
40
0
40
0
40
0
40
0.125000000000023
40
0.125000000000023
40
0.250000000000046
40
0.250000000000046
40
0.500000000000092
40
0.500000000000092
40
0.750000000000138
40
0.750000000000138
40
0.875000000000069
40
0.875000000000069
40
1
40
1
40
1
40
1
41
1
10
154.494353875481
20
6.8170485093473
30
0
41
1
10
154.50455329216
20
6.80565465277826
30
0
41
1
10
154.51759620524
20
6.79696974129752
30
0
41
1
10
154.546337664042
20
6.78287677132582
30
0
41
1
10
154.5619945695
20
6.77759827634443
30
0
41
1
10
154.610784971437
20
6.76582592629387
30
0
41
1
10
154.645765187576
20
6.76328828951247
30
0
41
1
10
154.716144476628
20
6.76698103753176
30
0
41
1
10
154.751376787022
20
6.77318806452456
30
0
41
1
10
154.800991564719
20
6.790128219189
30
0
41
1
10
154.816955545781
20
6.79706406298251
30
0
41
1
10
154.846327293232
20
6.81419981898026
30
0
41
1
10
154.859692578622
20
6.82426608721198
30
0
41
1
10
154.870148798328
20
6.83674308671954
30
0
0
SPLINE
5
28E
100
AcDbEntity
8
1
62
256
6
ByLayer
370
18
48
1
60
0
100
AcDbSpline
70
4
71
3
72
18
73
14
40
0
40
0
40
0
40
0
40
0.124999999999988
40
0.124999999999988
40
0.249999999999976
40
0.249999999999976
40
0.499999999999984
40
0.499999999999984
40
0.749999999999992
40
0.749999999999992
40
0.874999999999996
40
0.874999999999996
40
1
40
1
40
1
40
1
41
1
10
155.292024739809
20
5.58374528912771
30
0
41
1
10
155.285363178268
20
5.5984427385751
30
0
41
1
10
155.282424999179
20
5.61451271837464
30
0
41
1
10
155.280695619267
20
5.64767191025604
30
0
41
1
10
155.281998477567
20
5.66437088590192
30
0
41
1
10
155.290508660207
20
5.71488491983291
30
0
41
1
10
155.302024309262
20
5.74785946160475
30
0
41
1
10
155.333974537024
20
5.81103070004994
30
0
41
1
10
155.354265606287
20
5.8406945483994
30
0
41
1
10
155.390518075693
20
5.87842216495724
30
0
41
1
10
155.403594868198
20
5.88986639864578
30
0
41
1
10
155.431784490084
20
5.90891917310771
30
0
41
1
10
155.446755333192
20
5.91655015434515
30
0
41
1
10
155.462792964254
20
5.92043788996872
30
0
0
SPLINE
5
28F
100
AcDbEntity
8
1
62
256
6
ByLayer
370
18
48
1
60
0
100
AcDbSpline
70
4
71
3
72
16
73
12
40
0
40
0
40
0
40
0
40
0.125000000000001
40
0.125000000000001
40
0.250000000000003
40
0.250000000000003
40
0.500000000000002
40
0.500000000000002
40
0.750000000000001
40
0.750000000000001
40
1
40
1
40
1
40
1
41
1
10
154.883634861093
20
6.85283220848157
30
0
41
1
10
154.885259855622
20
6.86292547594522
30
0
41
1
10
154.889600062561
20
6.87257327615791
30
0
41
1
10
154.90353373555
20
6.88857713744713
30
0
41
1
10
154.912968944027
20
6.89478433445237
30
0
41
1
10
154.943665704484
20
6.90767352866402
30
0
41
1
10
154.967592791645
20
6.90952848633296
30
0
41
1
10
155.013789029387
20
6.9066780974982
30
0
41
1
10
155.036656090626
20
6.90194458474156
30
0
41
1
10
155.080940800415
20
6.88844363924233
30
0
41
1
10
155.102403694015
20
6.87961616623355
30
0
41
1
10
155.122935351789
20
6.86910668726941
30
0
0
SPLINE
5
290
100
AcDbEntity
8
1
62
256
6
ByLayer
370
18
48
1
60
0
100
AcDbSpline
70
4
71
3
72
18
73
14
40
0
40
0
40
0
40
0
40
0.124999999999998
40
0.124999999999998
40
0.249999999999997
40
0.249999999999997
40
0.499999999999998
40
0.499999999999998
40
0.749999999999999
40
0.749999999999999
40
0.874999999999999
40
0.874999999999999
40
1
40
1
40
1
40
1
41
1
10
153.979146894775
20
6.25576419020283
30
0
41
1
10
153.993658027927
20
6.25956748149702
30
0
41
1
10
154.007307905307
20
6.26711564523518
30
0
41
1
10
154.033201558049
20
6.28601772611603
30
0
41
1
10
154.045316810794
20
6.29739406041591
30
0
41
1
10
154.079220768673
20
6.33490245841693
30
0
41
1
10
154.098673257863
20
6.36438411665696
30
0
41
1
10
154.130651391921
20
6.42744213136439
30
0
41
1
10
154.143113200516
20
6.46086278634007
30
0
41
1
10
154.153917703365
20
6.51152488275008
30
0
41
1
10
154.156171421297
20
6.52847930122928
30
0
41
1
10
154.15668778516
20
6.56164240214778
30
0
41
1
10
154.155040464868
20
6.57775343182703
30
0
41
1
10
154.149915119219
20
6.59245679104387
30
0
0
SPLINE
5
291
100
AcDbEntity
8
1
62
256
6
ByLayer
370
18
48
1
60
0
100
AcDbSpline
70
4
71
3
72
8
73
4
40
0
40
0
40
0
40
0
40
1
40
1
40
1
40
1
41
1
10
155.462792964254
20
5.92043788996872
30
0
41
1
10
155.469681011582
20
5.92210764448984
30
0
41
1
10
155.476565661311
20
5.92377638931578
30
0
41
1
10
155.483447129472
20
5.92544419018967
30
0
0
SPLINE
5
292
100
AcDbEntity
8
1
62
256
6
ByLayer
370
18
48
1
60
0
100
AcDbSpline
70
4
71
3
72
18
73
14
40
0
40
0
40
0
40
0
40
0.125000000000049
40
0.125000000000049
40
0.250000000000098
40
0.250000000000098
40
0.500000000000007
40
0.500000000000007
40
0.749999999999917
40
0.749999999999917
40
0.874999999999958
40
0.874999999999958
40
1
40
1
40
1
40
1
41
1
10
154.947585983548
20
5.35915357082425
30
0
41
1
10
154.935883457559
20
5.37046865277239
30
0
41
1
10
154.921535899728
20
5.37908519071891
30
0
41
1
10
154.890525645368
20
5.39305925815384
30
0
41
1
10
154.873919287476
20
5.39828799444163
30
0
41
1
10
154.822840955812
20
5.40994043917601
30
0
41
1
10
154.787082246537
20
5.412437276861
30
0
41
1
10
154.716703699046
20
5.40874456770527
30
0
41
1
10
154.682248196072
20
5.40257825146426
30
0
41
1
10
154.634923029025
20
5.38575809020941
30
0
41
1
10
154.619908482286
20
5.37887200416031
30
0
41
1
10
154.592805085108
20
5.36185512736301
30
0
41
1
10
154.5807440921
20
5.35185721419859
30
0
41
1
10
154.571791060701
20
5.33945899345201
30
0
0
SPLINE
5
293
100
AcDbEntity
8
1
62
256
6
ByLayer
370
18
48
1
60
0
100
AcDbSpline
70
4
71
3
72
8
73
4
40
0
40
0
40
0
40
0
40
1
40
1
40
1
40
1
41
1
10
154.962679939424
20
5.34456226437112
30
0
41
1
10
154.957650747341
20
5.34942302668574
30
0
41
1
10
154.95261947502
20
5.35428672681567
30
0
41
1
10
154.947585983548
20
5.35915357082428
30
0
0
SPLINE
5
294
100
AcDbEntity
8
1
62
256
6
ByLayer
370
18
48
1
60
0
100
AcDbSpline
70
4
71
3
72
16
73
12
40
0
40
0
40
0
40
0
40
0.124999999999991
40
0.124999999999991
40
0.249999999999982
40
0.249999999999982
40
0.499999999999988
40
0.499999999999988
40
0.749999999999994
40
0.749999999999994
40
1
40
1
40
1
40
1
41
1
10
155.300575038425
20
5.56488718284027
30
0
41
1
10
155.309247291031
20
5.55893210733549
30
0
41
1
10
155.316187911715
20
5.55084436625393
30
0
41
1
10
155.324450619204
20
5.53164586247209
30
0
41
1
10
155.325711208227
20
5.52073927923894
30
0
41
1
10
155.323006583481
20
5.48858111231013
30
0
41
1
10
155.313275831394
20
5.4672497797377
30
0
41
1
10
155.288619792327
20
5.42907335034297
30
0
41
1
10
155.27337632169
20
5.41172547921698
30
0
41
1
10
155.239951216229
20
5.38018907783587
30
0
41
1
10
155.22169130677
20
5.36598870100678
30
0
41
1
10
155.202370663251
20
5.35339065143256
30
0
0
SPLINE
5
295
100
AcDbEntity
8
1
62
256
6
ByLayer
370
18
48
1
60
0
100
AcDbSpline
70
4
71
3
72
8
73
4
40
0
40
0
40
0
40
0
40
1
40
1
40
1
40
1
41
1
10
154.870148798328
20
6.83674308671954
30
0
41
1
10
154.874645992082
20
6.8421094127759
30
0
41
1
10
154.879141307466
20
6.8474723802116
30
0
41
1
10
154.883634861093
20
6.85283220848157
30
0
0
SPLINE
5
296
100
AcDbEntity
8
1
62
256
6
ByLayer
370
18
48
1
60
0
100
AcDbSpline
70
4
71
3
72
8
73
4
40
0
40
0
40
0
40
0
40
1
40
1
40
1
40
1
41
1
10
155.462267929032
20
6.32956740872731
30
0
41
1
10
155.455249825611
20
6.33050676392162
30
0
41
1
10
155.448228459381
20
6.33144672533243
30
0
41
1
10
155.441203608623
20
6.33238733576147
30
0
0
SPLINE
5
297
100
AcDbEntity
8
1
62
256
6
ByLayer
370
18
48
1
60
0
100
AcDbSpline
70
4
71
3
72
16
73
12
40
0
40
0
40
0
40
0
40
0.250000000000001
40
0.250000000000001
40
0.500000000000001
40
0.500000000000001
40
0.750000000000002
40
0.750000000000002
40
0.875000000000001
40
0.875000000000001
40
1
40
1
40
1
40
1
41
1
10
154.251577603089
20
6.82344076269897
30
0
41
1
10
154.270906961077
20
6.83604449455294
30
0
41
1
10
154.291226673632
20
6.84706269035593
30
0
41
1
10
154.333435825813
20
6.8651099180247
30
0
41
1
10
154.355288725969
20
6.87217371991053
30
0
41
1
10
154.399725146558
20
6.87976847486774
30
0
41
1
10
154.422862810116
20
6.88040754519105
30
0
41
1
10
154.452817739471
20
6.87057122609517
30
0
41
1
10
154.461952562812
20
6.86529612223785
30
0
41
1
10
154.475395002905
20
6.85079248031508
30
0
41
1
10
154.47960854736
20
6.8416491422627
30
0
41
1
10
154.481204001549
20
6.83174170081787
30
0
0
SPLINE
5
298
100
AcDbEntity
8
1
62
256
6
ByLayer
370
18
48
1
60
0
100
AcDbSpline
70
4
71
3
72
16
73
12
40
0
40
0
40
0
40
0
40
0.249999999999982
40
0.249999999999982
40
0.499999999999965
40
0.499999999999965
40
0.749999999999947
40
0.749999999999947
40
0.874999999999973
40
0.874999999999973
40
1
40
1
40
1
40
1
41
1
10
154.331012914551
20
5.30772472686215
30
0
41
1
10
154.310471996088
20
5.31823894606794
30
0
41
1
10
154.290722558373
20
5.33044772218071
30
0
41
1
10
154.253674074535
20
5.35832804276635
30
0
41
1
10
154.236368354466
20
5.3739478639192
30
0
41
1
10
154.206645727442
20
5.40928090949046
30
0
41
1
10
154.193855739072
20
5.42942337927605
30
0
41
1
10
154.1857233433
20
5.46122231871169
30
0
41
1
10
154.185038469064
20
5.47214189628778
30
0
41
1
10
154.189314778406
20
5.49184933751775
30
0
41
1
10
154.194257264365
20
5.50050887522988
30
0
41
1
10
154.201174780438
20
5.50727005677598
30
0
0
SPLINE
5
299
100
AcDbEntity
8
1
62
256
6
ByLayer
370
18
48
1
60
0
100
AcDbSpline
70
4
71
3
72
8
73
4
40
0
40
0
40
0
40
0
40
1
40
1
40
1
40
1
41
1
10
154.571791060701
20
5.33945899345201
30
0
41
1
10
154.56794038445
20
5.33412654994231
30
0
41
1
10
154.564093134347
20
5.32879754616877
30
0
41
1
10
154.560249079879
20
5.32347175670745
30
0
0
SPLINE
5
29A
100
AcDbEntity
8
1
62
256
6
ByLayer
370
18
48
1
60
0
100
AcDbSpline
70
4
71
3
72
18
73
14
40
0
40
0
40
0
40
0
40
0.125000000000002
40
0.125000000000002
40
0.250000000000004
40
0.250000000000004
40
0.500000000000003
40
0.500000000000003
40
0.750000000000002
40
0.750000000000002
40
0.875000000000001
40
0.875000000000001
40
1
40
1
40
1
40
1
41
1
10
154.205762948808
20
5.5268167209413
30
0
41
1
10
154.209323110627
20
5.54197448149407
30
0
41
1
10
154.209277752551
20
5.55817336994591
30
0
41
1
10
154.205295548712
20
5.59110896953004
30
0
41
1
10
154.201279169782
20
5.60773891946451
30
0
41
1
10
154.18524876086
20
5.65695971485803
30
0
41
1
10
154.169331787344
20
5.68895861033121
30
0
41
1
10
154.130931003129
20
5.74832389645113
30
0
41
1
10
154.10854890504
20
5.77555787980992
30
0
41
1
10
154.070883435518
20
5.8093398182603
30
0
41
1
10
154.057647889549
20
5.81938327181817
30
0
41
1
10
154.029926681099
20
5.83547005633915
30
0
41
1
10
154.015566221607
20
5.84154899532035
30
0
41
1
10
154.000736250406
20
5.84381474441011
30
0
0
SPLINE
5
29B
100
AcDbEntity
8
1
62
256
6
ByLayer
370
18
48
1
60
0
100
AcDbSpline
70
4
71
3
72
16
73
12
40
0
40
0
40
0
40
0
40
0.125
40
0.125
40
0.25
40
0.25
40
0.5
40
0.5
40
0.75
40
0.75
40
1
40
1
40
1
40
1
41
1
10
155.483447129472
20
5.92544419018967
30
0
41
1
10
155.493571082151
20
5.92238083190628
30
0
41
1
10
155.504423251106
20
5.92198750732626
30
0
41
1
10
155.525070317653
20
5.92738049429741
30
0
41
1
10
155.534787357634
20
5.93310754003377
30
0
41
1
10
155.559648862547
20
5.95515360218576
30
0
41
1
10
155.571318582296
20
5.97601782272258
30
0
41
1
10
155.587849648684
20
6.01901946701472
30
0
41
1
10
155.592948475093
20
6.04177016362669
30
0
41
1
10
155.598812851634
20
6.08768227450915
30
0
41
1
10
155.599544123076
20
6.11095069149456
30
0
41
1
10
155.59833188187
20
6.13408163163621
30
0
0
SPLINE
5
29C
100
AcDbEntity
8
1
62
256
6
ByLayer
370
18
48
1
60
0
100
AcDbSpline
70
4
71
3
72
16
73
12
40
0
40
0
40
0
40
0
40
0.125
40
0.125
40
0.25
40
0.25
40
0.5
40
0.5
40
0.75
40
0.75
40
1
40
1
40
1
40
1
41
1
10
153.981616011941
20
5.84673655646168
30
0
41
1
10
153.972928189191
20
5.84268271086074
30
0
41
1
10
153.963275487958
20
5.84120797821808
30
0
41
1
10
153.944014958216
20
5.84455648212807
30
0
41
1
10
153.934601734255
20
5.84932308518702
30
0
41
1
10
153.909738561383
20
5.86875603989793
30
0
41
1
10
153.896829134783
20
5.88829985881677
30
0
41
1
10
153.877108582876
20
5.9294220406924
30
0
41
1
10
153.870027690734
20
5.95153186619618
30
0
41
1
10
153.859874600256
20
5.99660623989845
30
0
41
1
10
153.856827398726
20
6.01964225395696
30
0
41
1
10
153.85561638447
20
6.04274978249535
30
0
0
SPLINE
5
29D
100
AcDbEntity
8
1
62
256
6
ByLayer
370
18
48
1
60
0
100
AcDbSpline
70
4
71
3
72
16
73
12
40
0
40
0
40
0
40
0
40
0.125000000000016
40
0.125000000000016
40
0.250000000000031
40
0.250000000000031
40
0.500000000000021
40
0.500000000000021
40
0.75000000000001
40
0.75000000000001
40
1
40
1
40
1
40
1
41
1
10
154.143308902548
20
6.61141678234873
30
0
41
1
10
154.135709599532
20
6.61742808875883
30
0
41
1
10
154.129854396441
20
6.625572714166
30
0
41
1
10
154.123548922776
20
6.64487379222609
30
0
41
1
10
154.123143382779
20
6.65582518667995
30
0
41
1
10
154.127933982751
20
6.68809267493791
30
0
41
1
10
154.138522673821
20
6.70946897018723
30
0
41
1
10
154.164391810733
20
6.74770897534606
30
0
41
1
10
154.179997080343
20
6.76507580755282
30
0
41
1
10
154.213893195038
20
6.79663689348189
30
0
41
1
10
154.23225695957
20
6.81084271312471
30
0
41
1
10
154.251577603089
20
6.82344076269897
30
0
0
SPLINE
5
29E
100
AcDbEntity
8
1
62
256
6
ByLayer
370
18
48
1
60
0
100
AcDbSpline
70
4
71
3
72
16
73
12
40
0
40
0
40
0
40
0
40
0.25
40
0.25
40
0.5
40
0.5
40
0.75
40
0.75
40
0.875
40
0.875
40
1
40
1
40
1
40
1
41
1
10
155.59833188187
20
6.13408163163621
30
0
41
1
10
155.597119538844
20
6.15721451464435
30
0
41
1
10
155.593958973816
20
6.18028356921721
30
0
41
1
10
155.583327643853
20
6.22532809929274
30
0
41
1
10
155.575861656698
20
6.24745389078493
30
0
41
1
10
155.554960347256
20
6.28842408202419
30
0
41
1
10
155.541369133282
20
6.30779645408327
30
0
41
1
10
155.514175104566
20
6.32729785966924
30
0
41
1
10
155.503875899603
20
6.33199252908545
30
0
41
1
10
155.482740627902
20
6.3352002978194
30
0
41
1
10
155.472036610828
20
6.33368081575617
30
0
41
1
10
155.462267929032
20
6.32956740872734
30
0
0
SPLINE
5
29F
100
AcDbEntity
8
1
62
256
6
ByLayer
370
18
48
1
60
0
100
AcDbSpline
70
4
71
3
72
16
73
12
40
0
40
0
40
0
40
0
40
0.25000000000007
40
0.25000000000007
40
0.500000000000139
40
0.500000000000139
40
0.750000000000209
40
0.750000000000209
40
0.875000000000105
40
0.875000000000105
40
1
40
1
40
1
40
1
41
1
10
155.202370663251
20
5.35339065143256
30
0
41
1
10
155.183041305264
20
5.34078691957856
30
0
41
1
10
155.162617768854
20
5.32976328259795
30
0
41
1
10
155.11993677777
20
5.31169132690007
30
0
41
1
10
155.097722366056
20
5.30460857899632
30
0
41
1
10
155.052072296356
20
5.29695021938431
30
0
41
1
10
155.028079181601
20
5.29626631676354
30
0
41
1
10
154.996020712267
20
5.30599239400044
30
0
41
1
10
154.986028128025
20
5.31122254451381
30
0
41
1
10
154.970639010575
20
5.32562416539932
30
0
41
1
10
154.965346515363
20
5.33471095803861
30
0
41
1
10
154.962679939424
20
5.34456226437115
30
0
0
SPLINE
5
2A0
100
AcDbEntity
8
1
62
256
6
ByLayer
370
18
48
1
60
0
100
AcDbSpline
70
4
71
3
72
8
73
4
40
0
40
0
40
0
40
0
40
1
40
1
40
1
40
1
41
1
10
155.242709160535
20
6.66903390841304
30
0
41
1
10
155.240532134877
20
6.66248832582022
30
0
41
1
10
155.238354724828
20
6.65593889903326
30
0
41
1
10
155.23617691022
20
6.64938535923025
30
0
0
SPLINE
5
2A1
100
AcDbEntity
8
1
62
256
6
ByLayer
370
18
48
1
60
0
100
AcDbSpline
70
4
71
3
72
16
73
12
40
0
40
0
40
0
40
0
40
0.25000000000005
40
0.25000000000005
40
0.5000000000001
40
0.5000000000001
40
0.750000000000149
40
0.750000000000149
40
0.875000000000075
40
0.875000000000075
40
1
40
1
40
1
40
1
41
1
10
153.85561638447
20
6.04274978249535
30
0
41
1
10
153.854404823994
20
6.06586773355511
30
0
41
1
10
153.855027010762
20
6.08909742605968
30
0
41
1
10
153.860423598557
20
6.13503733832866
30
0
41
1
10
153.865151534422
20
6.15773043437628
30
0
41
1
10
153.880472152543
20
6.20069003723216
30
0
41
1
10
153.891247553329
20
6.22149399348979
30
0
41
1
10
153.914121856902
20
6.24351173475904
30
0
41
1
10
153.923000686457
20
6.24917868514981
30
0
41
1
10
153.941692774571
20
6.25443349497564
30
0
41
1
10
153.951388280364
20
6.25397796734191
30
0
41
1
10
153.9604368115
20
6.25085977499933
30
0
0
SPLINE
5
2A2
100
AcDbEntity
8
1
62
256
6
ByLayer
370
18
48
1
60
0
100
AcDbSpline
70
4
71
3
72
16
73
12
40
0
40
0
40
0
40
0
40
0.249999999999998
40
0.249999999999998
40
0.499999999999996
40
0.499999999999996
40
0.749999999999994
40
0.749999999999994
40
0.874999999999997
40
0.874999999999997
40
1
40
1
40
1
40
1
41
1
10
155.122935351789
20
6.86910668726941
30
0
41
1
10
155.143476270253
20
6.85859246806362
30
0
41
1
10
155.163121884114
20
6.84637825077317
30
0
41
1
10
155.199698529048
20
6.81847320215843
30
0
41
1
10
155.216642737559
20
6.80283443498766
30
0
41
1
10
155.245151715471
20
6.76743778476163
30
0
41
1
10
155.257086252645
20
6.74725048267857
30
0
41
1
10
155.263115108437
20
6.71534130138392
30
0
41
1
10
155.262942221773
20
6.70437677046388
30
0
41
1
10
155.256719235074
20
6.68456730819668
30
0
41
1
10
155.250697798358
20
6.67585122507145
30
0
41
1
10
155.242709160535
20
6.66903390841304
30
0
0
SPLINE
5
2A3
100
AcDbEntity
8
1
62
256
6
ByLayer
370
18
48
1
60
0
100
AcDbSpline
70
4
71
1
72
4
73
2
40
0
40
0
40
1
40
1
41
1
10
158.995098784773
20
-2.14363113025686
30
0
41
1
10
158.984092223519
20
-2.07458514652728
30
0
0
SPLINE
5
2A4
100
AcDbEntity
8
1
62
256
6
ByLayer
370
18
48
1
60
0
100
AcDbSpline
70
4
71
1
72
4
73
2
40
0
40
0
40
1
40
1
41
1
10
158.984092223519
20
-2.07458514652728
30
0
41
1
10
158.96223473991
20
-1.93746952768467
30
0
0
SPLINE
5
2A5
100
AcDbEntity
8
1
62
256
6
ByLayer
370
18
48
1
60
0
100
AcDbSpline
70
4
71
1
72
4
73
2
40
0
40
0
40
1
40
1
41
1
10
158.054128063077
20
-4.4903028940125
30
0
41
1
10
158.096158431338
20
-4.85737344595697
30
0
0
SPLINE
5
2A6
100
AcDbEntity
8
1
62
256
6
ByLayer
370
18
48
1
60
0
100
AcDbSpline
70
4
71
1
72
4
73
2
40
0
40
0
40
1
40
1
41
1
10
158.985164448307
20
-2.34399133644197
30
0
41
1
10
158.996601393075
20
-2.25767754335209
30
0
0
SPLINE
5
2A7
100
AcDbEntity
8
1
62
256
6
ByLayer
370
18
48
1
60
0
100
AcDbSpline
70
4
71
3
72
25
73
21
40
0
40
0
40
0
40
0
40
0.0162027153747057
40
0.0458780648821549
40
0.0755534143896041
40
0.134904113404502
40
0.253605511434299
40
0.372306909464096
40
0.476170632740168
40
0.491008307493892
40
0.520683657001342
40
0.550359006508791
40
0.609709705523689
40
0.728411103553486
40
0.847112501583282
40
0.906463200598181
40
0.93613855010563
40
0.965813899613079
40
0.995489249120528
40
1
40
1
40
1
40
1
41
1
10
158.069526978155
20
-4.29584324661633
30
0
41
1
10
158.09885883388
20
-4.28511792090419
30
0
41
1
10
158.180062717538
20
-4.24605333768704
30
0
41
1
10
158.279024711431
20
-4.12472734201896
30
0
41
1
10
158.356039545377
20
-3.91344783605811
30
0
41
1
10
158.375520439238
20
-3.58544961911897
30
0
41
1
10
158.44458825488
20
-3.14131059092162
30
0
41
1
10
158.514296882127
20
-2.62315283613918
30
0
41
1
10
158.5600411236
20
-2.26376723052192
30
0
41
1
10
158.59273354234
20
-2.02898818148202
30
0
41
1
10
158.585938764565
20
-1.89555814718614
30
0
41
1
10
158.542401658714
20
-1.71169205885573
30
0
41
1
10
158.501792335292
20
-1.40214012188778
30
0
41
1
10
158.424915946518
20
-0.953921030055483
30
0
41
1
10
158.357985653119
20
-0.503727684462831
30
0
41
1
10
158.301827278702
20
-0.1968286914516
30
0
41
1
10
158.28154067544
20
0.0013754750761166
30
0
41
1
10
158.225094513611
20
0.169891098261815
30
0
41
1
10
158.121880360605
20
0.25300092401821
30
0
41
1
10
158.063177801299
20
0.284558429277723
30
0
41
1
10
158.05538826602
20
0.288512255606321
30
0
0
SPLINE
5
2A8
100
AcDbEntity
8
1
62
256
6
ByLayer
370
18
48
1
60
0
100
AcDbSpline
70
4
71
2
72
11
73
8
40
0
40
0
40
0
40
0.25
40
0.5
40
0.75
40
0.75
40
0.875
40
1
40
1
40
1
41
1
10
158.385143203162
20
0.284081192857769
30
0
41
1
10
158.373226690819
20
0.325371870481035
30
0
41
1
10
158.326587852855
20
0.398382351006489
30
0
41
1
10
158.260460033128
20
0.455472307929085
30
0
41
1
10
158.219650603026
20
0.473839216788406
30
0
41
1
10
158.20069800085
20
0.482369125584739
30
0
41
1
10
158.15816970441
20
0.494532984515672
30
0
41
1
10
158.135922552051
20
0.49744305033991
30
0
0
SPLINE
5
2A9
100
AcDbEntity
8
1
62
256
6
ByLayer
370
18
48
1
60
0
100
AcDbSpline
70
4
71
2
72
6
73
3
40
0
40
0
40
0
40
1
40
1
40
1
41
1
10
158.459720217167
20
0.014924716081822
30
0
41
1
10
158.45589304047
20
0.0389332301125194
30
0
41
1
10
158.449149559309
20
0.062299371039785
30
0
0
SPLINE
5
2AA
100
AcDbEntity
8
1
62
256
6
ByLayer
370
18
48
1
60
0
100
AcDbSpline
70
4
71
1
72
4
73
2
40
0
40
0
40
1
40
1
41
1
10
158.925013445257
20
-2.79794659605938
30
0
41
1
10
158.96414021996
20
-2.50265966371546
30
0
0
SPLINE
5
2AB
100
AcDbEntity
8
1
62
256
6
ByLayer
370
18
48
1
60
0
100
AcDbSpline
70
4
71
1
72
4
73
2
40
0
40
0
40
1
40
1
41
1
10
158.96414021996
20
-2.50265966371546
30
0
41
1
10
158.985164448307
20
-2.34399133644197
30
0
0
SPLINE
5
2AC
100
AcDbEntity
8
1
62
256
6
ByLayer
370
18
48
1
60
0
100
AcDbSpline
70
4
71
1
72
4
73
2
40
0
40
0
40
1
40
1
41
1
10
158.69229492485
20
-4.55425639957974
30
0
41
1
10
158.925013445257
20
-2.79794659605938
30
0
0
SPLINE
5
2AD
100
AcDbEntity
8
1
62
256
6
ByLayer
370
18
48
1
60
0
100
AcDbSpline
70
4
71
1
72
4
73
2
40
0
40
0
40
1
40
1
41
1
10
158.91993596184
20
-1.67212227934391
30
0
41
1
10
158.675896767776
20
-0.141223951158139
30
0
0
SPLINE
5
2AE
100
AcDbEntity
8
1
62
256
6
ByLayer
370
18
48
1
60
0
100
AcDbSpline
70
4
71
1
72
4
73
2
40
0
40
0
40
1
40
1
41
1
10
158.675896767776
20
-0.141223951158111
30
0
41
1
10
158.459720217167
20
0.0149247160817936
30
0
0
SPLINE
5
2AF
100
AcDbEntity
8
1
62
256
6
ByLayer
370
18
48
1
60
0
100
AcDbSpline
70
4
71
2
72
6
73
3
40
0
40
0
40
0
40
1
40
1
40
1
41
1
10
158.006446906766
20
-4.50080560216099
30
0
41
1
10
158.03061074949
20
-4.49700302709996
30
0
41
1
10
158.054128063077
20
-4.49030289401253
30
0
0
SPLINE
5
2B0
100
AcDbEntity
8
1
62
256
6
ByLayer
370
18
48
1
60
0
100
AcDbSpline
70
4
71
3
72
12
73
8
40
0
40
0
40
0
40
0
40
0.499999999999909
40
0.499999999999909
40
0.749999999999955
40
0.749999999999955
40
1
40
1
40
1
40
1
41
1
10
158.308432732012
20
0.492527193559823
30
0
41
1
10
158.365851955276
20
0.484849642601773
30
0
41
1
10
158.420827804246
20
0.460046979867457
30
0
41
1
10
158.486712301063
20
0.403736526133741
30
0
41
1
10
158.50585000851
20
0.38171133938539
30
0
41
1
10
158.53708379138
20
0.333177459968056
30
0
41
1
10
158.548901866661
20
0.306654098463667
30
0
41
1
10
158.557653383125
20
0.279167674702364
30
0
0
SPLINE
5
2B1
100
AcDbEntity
8
1
62
256
6
ByLayer
370
18
48
1
60
0
100
AcDbSpline
70
4
71
1
72
4
73
2
40
0
40
0
40
1
40
1
41
1
10
158.996601393076
20
-2.25767754335215
30
0
41
1
10
158.773297229694
20
-2.05681617936975
30
0
0
SPLINE
5
2B2
100
AcDbEntity
8
1
62
256
6
ByLayer
370
18
48
1
60
0
100
AcDbSpline
70
4
71
1
72
4
73
2
40
0
40
0
40
1
40
1
41
1
10
158.492087005632
20
-4.17908935516894
30
0
41
1
10
158.69229492485
20
-4.55425639957977
30
0
0
SPLINE
5
2B3
100
AcDbEntity
8
1
62
256
6
ByLayer
370
18
48
1
60
0
100
AcDbSpline
70
4
71
1
72
4
73
2
40
0
40
0
40
1
40
1
41
1
10
158.96223473991
20
-1.93746952768467
30
0
41
1
10
158.91993596184
20
-1.67212227934391
30
0
0
SPLINE
5
2B4
100
AcDbEntity
8
1
62
256
6
ByLayer
370
18
48
1
60
0
100
AcDbSpline
70
4
71
1
72
4
73
2
40
0
40
0
40
1
40
1
41
1
10
158.477552673185
20
-4.80187502438196
30
0
41
1
10
158.277344753963
20
-4.42670797997155
30
0
0
SPLINE
5
2B5
100
AcDbEntity
8
1
62
256
6
ByLayer
370
18
48
1
60
0
100
AcDbSpline
70
4
71
2
72
11
73
8
40
0
40
0
40
0
40
0.25
40
0.5
40
0.75
40
0.75
40
0.875
40
1
40
1
40
1
41
1
10
158.277344753963
20
-4.42670797997152
30
0
41
1
10
158.318902571234
20
-4.41486806868812
30
0
41
1
10
158.392385410054
20
-4.36852903190302
30
0
41
1
10
158.449844723736
20
-4.30282629134456
30
0
41
1
10
158.468330461586
20
-4.262279190149
30
0
41
1
10
158.476915556611
20
-4.24344841803762
30
0
41
1
10
158.489158112459
20
-4.20119349962263
30
0
41
1
10
158.492087005632
20
-4.17908935516928
30
0
0
SPLINE
5
2B6
100
AcDbEntity
8
1
62
256
6
ByLayer
370
18
48
1
60
0
100
AcDbSpline
70
4
71
3
72
8
73
4
40
0
40
0
40
0
40
0
40
1
40
1
40
1
40
1
41
1
10
159.000010820439
20
-2.20060021993578
30
0
41
1
10
159.000262431238
20
-2.21969721789566
30
0
41
1
10
158.999107949101
20
-2.23873407172479
30
0
41
1
10
158.997172589596
20
-2.25773498048343
30
0
0
SPLINE
5
2B7
100
AcDbEntity
8
1
62
256
6
ByLayer
370
18
48
1
60
0
100
AcDbSpline
70
4
71
1
72
4
73
2
40
0
40
0
40
1
40
1
41
1
10
158.771794621391
20
-1.94276976627455
30
0
41
1
10
158.995098784773
20
-2.14363113025681
30
0
0
SPLINE
5
2B8
100
AcDbEntity
8
1
62
256
6
ByLayer
370
18
48
1
60
0
100
AcDbSpline
70
4
71
3
72
10
73
6
40
0
40
0
40
0
40
0
40
0.361030930135186
40
0.361030930135186
40
1
40
1
40
1
40
1
41
1
10
158.141128373434
20
-4.8977815372823
30
0
41
1
10
158.181894777026
20
-4.88616949603147
30
0
41
1
10
158.222661186677
20
-4.87455620443865
30
0
41
1
10
158.335577851871
20
-4.84238777749189
30
0
41
1
10
158.407728113529
20
-4.82183266063555
30
0
41
1
10
158.479878361875
20
-4.80128125313436
30
0
0
SPLINE
5
2B9
100
AcDbEntity
8
1
62
256
6
ByLayer
370
18
48
1
60
0
100
AcDbSpline
70
4
71
1
72
4
73
2
40
0
40
0
40
1
40
1
41
1
10
158.449149559309
20
0.0622993710398134
30
0
41
1
10
158.665326109905
20
-0.0938492962014266
30
0
0
SPLINE
5
2BA
100
AcDbEntity
8
1
62
256
6
ByLayer
370
18
48
1
60
0
100
AcDbSpline
70
4
71
3
72
8
73
4
40
0
40
0
40
0
40
0
40
1
40
1
40
1
40
1
41
1
10
158.665326109905
20
-0.0938492962013981
30
0
41
1
10
158.669821764014
20
-0.109426723515639
30
0
41
1
10
158.673345316638
20
-0.125218275167896
30
0
41
1
10
158.675896767776
20
-0.141223951158139
30
0
0
SPLINE
5
2BB
100
AcDbEntity
8
1
62
256
6
ByLayer
370
18
48
1
60
0
100
AcDbSpline
70
4
71
1
72
4
73
2
40
0
40
0
40
1
40
1
41
1
10
158.308432732012
20
0.492598219376987
30
0
41
1
10
158.091588990825
20
0.520962728697015
30
0
0
SPLINE
5
2BC
100
AcDbEntity
8
1
62
256
6
ByLayer
370
18
48
1
60
0
100
AcDbSpline
70
4
71
3
72
12
73
8
40
0
40
0
40
0
40
0
40
0.500000000000003
40
0.500000000000003
40
0.750000000000001
40
0.750000000000001
40
1
40
1
40
1
40
1
41
1
10
158.69229492485
20
-4.55432742539691
30
0
41
1
10
158.684567446967
20
-4.61137729602359
30
0
41
1
10
158.659614147117
20
-4.66600951859911
30
0
41
1
10
158.602930670721
20
-4.73146184726676
30
0
41
1
10
158.580761916747
20
-4.75047547149245
30
0
41
1
10
158.531913406077
20
-4.78150785312272
30
0
41
1
10
158.505217921123
20
-4.79324943909123
30
0
41
1
10
158.477552673185
20
-4.80194371157523
30
0
0
SPLINE
5
2BD
100
AcDbEntity
8
1
62
256
6
ByLayer
370
18
48
1
60
0
100
AcDbSpline
70
4
71
3
72
23
73
19
40
0
40
0
40
0
40
0
40
0.0105644773586797
40
0.0423852667403588
40
0.106026845503717
40
0.233310003030433
40
0.36059316055715
40
0.471965923393027
40
0.487876318083866
40
0.519697107465545
40
0.551517896847224
40
0.615159475610582
40
0.742442633137299
40
0.869725790664015
40
0.933367369427373
40
0.965188158809053
40
0.997008948190732
40
1
40
1
40
1
40
1
41
1
10
158.124679525694
20
-4.06862228631863
30
0
41
1
10
158.132474846837
20
-4.05796004869543
30
0
41
1
10
158.161379050752
20
-4.01213798679478
30
0
41
1
10
158.212642267096
20
-3.87150446896541
30
0
41
1
10
158.231286154629
20
-3.55759885912116
30
0
41
1
10
158.301172626705
20
-3.10819547921915
30
0
41
1
10
158.370617309485
20
-2.59199967488235
30
0
41
1
10
158.416403367659
20
-2.23228554003879
30
0
41
1
10
158.447339392702
20
-2.01011994872778
30
0
41
1
10
158.441897595525
20
-1.903258590208
30
0
41
1
10
158.399678861175
20
-1.72496025393758
30
0
41
1
10
158.358485687049
20
-1.41095780902654
30
0
41
1
10
158.281816731476
20
-0.963948133020438
30
0
41
1
10
158.215003487154
20
-0.514542094825998
30
0
41
1
10
158.158257493629
20
-0.204431831647923
30
0
41
1
10
158.139013729393
20
-0.0164164107311251
30
0
41
1
10
158.112469881411
20
0.0628281816272249
30
0
41
1
10
158.087826355313
20
0.0963678035907662
30
0
41
1
10
158.085631998638
20
0.0991930542638499
30
0
0
SPLINE
5
2BE
100
AcDbEntity
8
1
62
256
6
ByLayer
370
18
48
1
60
0
100
AcDbSpline
70
4
71
1
72
4
73
2
40
0
40
0
40
1
40
1
41
1
10
158.557653383125
20
0.279236361895386
30
0
41
1
10
158.385143203162
20
0.284081192857769
30
0
0
SPLINE
5
2BF
100
AcDbEntity
8
1
62
256
6
ByLayer
370
18
48
1
60
0
100
AcDbSpline
70
4
71
1
72
4
73
2
40
0
40
0
40
1
40
1
41
1
10
158.048454864535
20
-4.86768043295228
30
0
41
1
10
158.006446906766
20
-4.50080560216099
30
0
0
SPLINE
5
2C0
100
AcDbEntity
8
1
62
256
6
ByLayer
370
18
48
1
60
0
100
AcDbSpline
70
4
71
2
72
6
73
3
40
0
40
0
40
0
40
1
40
1
40
1
41
1
10
158.773297229694
20
-2.05681617936969
30
0
41
1
10
158.780867388573
20
-1.99968473914723
30
0
41
1
10
158.771794621392
20
-1.94276976627461
30
0
0
SPLINE
5
2C1
100
AcDbEntity
8
1
62
256
6
ByLayer
370
18
48
1
60
0
100
AcDbSpline
70
4
71
1
72
4
73
2
40
0
40
0
40
1
40
1
41
1
10
158.135922552051
20
0.497443050339967
30
0
41
1
10
158.308432732012
20
0.492598219376987
30
0
0
SPLINE
5
2C2
100
AcDbEntity
8
1
62
256
6
ByLayer
370
18
48
1
60
0
100
AcDbSpline
70
4
71
3
72
8
73
4
40
0
40
0
40
0
40
0
40
1
40
1
40
1
40
1
41
1
10
158.995438223038
20
-2.14358609076933
30
0
41
1
10
158.997982855602
20
-2.16251984747316
30
0
41
1
10
158.999759285502
20
-2.18150898009773
30
0
41
1
10
159.000010820439
20
-2.20060021993578
30
0
0
SPLINE
5
2C3
100
AcDbEntity
8
1
62
256
6
ByLayer
370
13
48
1
60
0
100
AcDbSpline
70
4
71
3
72
52
73
48
40
0
40
0
40
0
40
0
40
0.0312499999999963
40
0.0312499999999963
40
0.0468749999999951
40
0.0468749999999951
40
0.0546874999999946
40
0.0546874999999946
40
0.062499999999994
40
0.062499999999994
40
0.0703124999999934
40
0.0703124999999934
40
0.0781249999999928
40
0.0781249999999928
40
0.0937499999999927
40
0.0937499999999927
40
0.124999999999993
40
0.124999999999993
40
0.156249999999993
40
0.156249999999993
40
0.187499999999992
40
0.187499999999992
40
0.218749999999992
40
0.218749999999992
40
0.249999999999992
40
0.249999999999992
40
0.312499999999993
40
0.312499999999993
40
0.343749999999993
40
0.343749999999993
40
0.374999999999993
40
0.374999999999993
40
0.437499999999993
40
0.437499999999993
40
0.499999999999993
40
0.499999999999993
40
0.562499999999994
40
0.562499999999994
40
0.593749999999994
40
0.593749999999994
40
0.624999999999994
40
0.624999999999994
40
0.749999999999996
40
0.749999999999996
40
0.874999999999998
40
0.874999999999998
40
1
40
1
40
1
40
1
41
1
10
146.254070615451
20
-8.59757845818331
30
0
41
1
10
145.577378220779
20
-8.5889418670134
30
0
41
1
10
144.900633131316
20
-8.58008840780718
30
0
41
1
10
143.897419803419
20
-8.55465479745612
30
0
41
1
10
143.565129162136
20
-8.54403233109744
30
0
41
1
10
143.072856692409
20
-8.52054692879869
30
0
41
1
10
142.909793578488
20
-8.51143930208426
30
0
41
1
10
142.586203453387
20
-8.48961066400969
30
0
41
1
10
142.425815741217
20
-8.47672253528742
30
0
41
1
10
142.107024954532
20
-8.44716365017345
30
0
41
1
10
141.948739182404
20
-8.43053083056358
30
0
41
1
10
141.632855541948
20
-8.39563327353719
30
0
41
1
10
141.474593369533
20
-8.37759202168934
30
0
41
1
10
140.9999590636
20
-8.32110724568466
30
0
41
1
10
140.684221638694
20
-8.2799486742266
30
0
41
1
10
139.736967771723
20
-8.14728461420481
30
0
41
1
10
139.106011467348
20
-8.04623651857369
30
0
41
1
10
137.844355754432
20
-7.81971673849608
30
0
41
1
10
137.213832479154
20
-7.69404101696796
30
0
41
1
10
135.951390397223
20
-7.41999443521573
30
0
41
1
10
135.319161605543
20
-7.27188892871865
30
0
41
1
10
134.048150637744
20
-6.96088203518451
30
0
41
1
10
133.408916108364
20
-6.7981864971805
30
0
41
1
10
132.126408341872
20
-6.46729355851457
30
0
41
1
10
131.48263738701
20
-6.29871944137429
30
0
41
1
10
129.541742127486
20
-5.79235547228333
30
0
41
1
10
128.234774588826
20
-5.45450649378907
30
0
41
1
10
126.250214501089
20
-4.97619879017344
30
0
41
1
10
125.583918386849
20
-4.821435209545
30
0
41
1
10
124.247416920248
20
-4.52630194273527
30
0
41
1
10
123.577154683136
20
-4.38586364524988
30
0
41
1
10
121.559897019657
20
-3.99085385276811
30
0
41
1
10
120.206303439528
20
-3.76347225218433
30
0
41
1
10
117.484380956481
20
-3.37772109137791
30
0
41
1
10
116.116009793272
20
-3.21913500636205
30
0
41
1
10
113.358942687738
20
-3.00817910426176
30
0
41
1
10
111.979262959255
20
-2.95443903112897
30
0
41
1
10
109.908887724339
20
-2.91336212864854
30
0
41
1
10
109.218619624705
20
-2.9062416130509
30
0
41
1
10
107.837939489342
20
-2.89863428831436
30
0
41
1
10
107.147533024689
20
-2.89788883494796
30
0
41
1
10
103.69542154243
20
-2.89781044992083
30
0
41
1
10
100.933407777789
20
-2.91777633840601
30
0
41
1
10
95.4096024946062
20
-2.93892897229963
30
0
41
1
10
92.647689527265
20
-2.94266628375422
30
0
41
1
10
87.1238476955692
20
-2.93962926702216
30
0
41
1
10
84.3619214836823
20
-2.93460642872705
30
0
41
1
10
81.6000000000001
20
-2.93271158441101
30
0
0
SPLINE
5
2C4
100
AcDbEntity
8
1
62
256
6
ByLayer
370
13
48
1
60
0
100
AcDbSpline
70
4
71
3
72
24
73
20
40
0
40
0
40
0
40
0
40
0.211886912497548
40
0.211886912497548
40
0.423773824995097
40
0.423773824995097
40
0.635660737492645
40
0.635660737492645
40
0.74160419374142
40
0.74160419374142
40
0.794575921865809
40
0.794575921865809
40
0.847547649990198
40
0.847547649990198
40
0.900519378114587
40
0.900519378114587
40
0.953491106238977
40
0.953491106238977
40
1
40
1
40
1
40
1
41
1
10
146.598823371839
20
8.07051600382914
30
0
41
1
10
145.461694151333
20
8.17401066817754
30
0
41
1
10
144.327334111216
20
8.234798984751
30
0
41
1
10
142.058350379106
20
8.27211928915713
30
0
41
1
10
140.923756641826
20
8.2487015222072
30
0
41
1
10
138.648516246755
20
8.11556513166454
30
0
41
1
10
137.513258807094
20
8.00583143129151
30
0
41
1
10
135.811713474003
20
7.77802196331871
30
0
41
1
10
135.244654922952
20
7.69153502017264
30
0
41
1
10
134.393712956638
20
7.54607362455761
30
0
41
1
10
134.110006246381
20
7.49496418263936
30
0
41
1
10
133.54237922484
20
7.38751201728292
30
0
41
1
10
133.258452877805
20
7.33106308856421
30
0
41
1
10
132.690339820107
20
7.21461917374074
30
0
41
1
10
132.40615333148
20
7.15464590097594
30
0
41
1
10
131.837621158391
20
7.03304538847047
30
0
41
1
10
131.553416965563
20
6.97166826550171
30
0
41
1
10
131.019115270617
20
6.85232898300703
30
0
41
1
10
130.769000352372
20
6.7945666400295
30
0
41
1
10
130.518451930597
20
6.73509492216951
30
0
0
SPLINE
5
2C5
100
AcDbEntity
8
1
62
256
6
ByLayer
370
13
48
1
60
0
100
AcDbSpline
70
4
71
3
72
22
73
18
40
0
40
0
40
0
40
0
40
0.225161884774389
40
0.225161884774389
40
0.337742827161583
40
0.337742827161583
40
0.450323769548777
40
0.450323769548777
40
0.675485654323166
40
0.675485654323166
40
0.788066596710352
40
0.788066596710352
40
0.900647539097539
40
0.900647539097539
40
0.956938010291125
40
0.956938010291125
40
1
40
1
40
1
40
1
41
1
10
146.595270250826
20
3.14543766688311
30
0
41
1
10
146.22851446771
20
3.23364339988592
30
0
41
1
10
145.853763941385
20
3.29080174933756
30
0
41
1
10
145.280505956484
20
3.34061798360003
30
0
41
1
10
145.087510042962
20
3.35106191992139
30
0
41
1
10
144.697292093038
20
3.35989122592949
30
0
41
1
10
144.499105706256
20
3.35821388728741
30
0
41
1
10
143.906318218037
20
3.33494292451218
30
0
41
1
10
143.512960331484
20
3.29571501394392
30
0
41
1
10
142.925395752146
20
3.1997978056659
30
0
41
1
10
142.728968314642
20
3.16128247375522
30
0
41
1
10
142.347518072922
20
3.07275072920612
30
0
41
1
10
142.161434155031
20
3.02266170619976
30
0
41
1
10
141.890589917335
20
2.93769787181981
30
0
41
1
10
141.801366075661
20
2.9076015004224
30
0
41
1
10
141.648080383275
20
2.85166764265006
30
0
41
1
10
141.58332496707
20
2.82660950018965
30
0
41
1
10
141.520372821152
20
2.80066734440138
30
0
0
SPLINE
5
2C6
100
AcDbEntity
8
1
62
256
6
ByLayer
370
13
48
1
60
0
100
AcDbSpline
70
4
71
3
72
30
73
26
40
0
40
0
40
0
40
0
40
0.0607324830890976
40
0.197984428605437
40
0.354374466274785
40
0.529934151250664
40
0.546406735709997
40
0.563788935853909
40
0.582083401971412
40
0.601292621995955
40
0.621418896822281
40
0.642464310761458
40
0.66443069767701
40
0.687319603234036
40
0.71113224363165
40
0.735869461163424
40
0.761531676951264
40
0.788118841219455
40
0.815630381513213
40
0.844065149317254
40
0.873421365592393
40
0.903696565820558
40
0.934887545229375
40
0.96699030495551
40
1
40
1
40
1
40
1
41
1
10
29.027926242253
20
-3.10058822605862
30
0
41
1
10
29.0403471865743
20
-3.13897808688421
30
0
41
1
10
29.0826620482901
20
-3.26569075542875
30
0
41
1
10
29.1685181483722
20
-3.50068835569252
30
0
41
1
10
29.302817374628
20
-3.82192072871584
30
0
41
1
10
29.4176210369128
20
-4.0629331501132
30
0
41
1
10
29.4898345536221
20
-4.20593951142828
30
0
41
1
10
29.5079205043644
20
-4.24149982908199
30
0
41
1
10
29.5271030910456
20
-4.27882978017138
30
0
41
1
10
29.5474140059744
20
-4.31790021081986
30
0
41
1
10
29.5688886257236
20
-4.35867165936196
30
0
41
1
10
29.5915581318716
20
-4.4011004674816
30
0
41
1
10
29.6154509845398
20
-4.44513640412299
30
0
41
1
10
29.6405916512803
20
-4.49072273118202
30
0
41
1
10
29.667000076331
20
-4.53779556714261
30
0
41
1
10
29.6946908918187
20
-4.58628346110564
30
0
41
1
10
29.7236726580663
20
-4.63610690377405
30
0
41
1
10
29.753947059759
20
-4.68717793069379
30
0
41
1
10
29.7855080631787
20
-4.73939950064599
30
0
41
1
10
29.8183411185081
20
-4.79266584524038
30
0
41
1
10
29.8524220776426
20
-4.84685914750764
30
0
41
1
10
29.8877171539253
20
-4.90186075397486
30
0
41
1
10
29.9241787695666
20
-4.95750577272369
30
0
41
1
10
29.9617574529203
20
-5.01375884888023
30
0
41
1
10
29.9871346600212
20
-5.05075861623789
30
0
41
1
10
30
20
-5.06951618023228
30
0
0
SPLINE
5
2C7
100
AcDbEntity
8
1
62
256
6
ByLayer
370
13
48
1
60
0
100
AcDbSpline
70
4
71
3
72
8
73
4
40
0
40
0
40
0
40
0
40
1
40
1
40
1
40
1
41
1
10
147.321965527062
20
0.409699573518992
30
0
41
1
10
147.965958226379
20
0.362701522973396
30
0
41
1
10
148.609994256885
20
0.316112448671959
30
0
41
1
10
149.254070615451
20
0.269904005931892
30
0
0
SPLINE
5
2C8
100
AcDbEntity
8
1
62
256
6
ByLayer
370
13
48
1
60
0
100
AcDbSpline
70
4
71
3
72
8
73
4
40
0
40
0
40
0
40
0
40
1
40
1
40
1
40
1
41
1
10
145.660323678886
20
1.07790039754957
30
0
41
1
10
145.678107594126
20
1.07032982567094
30
0
41
1
10
145.695918440626
20
1.06287414538943
30
0
41
1
10
145.713709904714
20
1.05554789151458
30
0
0
SPLINE
5
2C9
100
AcDbEntity
8
1
62
256
6
ByLayer
370
13
48
1
60
0
100
AcDbSpline
70
4
71
3
72
10
73
6
40
0
40
0
40
0
40
0
40
0.721280976044658
40
0.721280976044658
40
1
40
1
40
1
40
1
41
1
10
150.456283441959
20
5.946289773301
30
0
41
1
10
150.40830175882
20
5.8755080050924
30
0
41
1
10
150.37101206895
20
5.80164187490735
30
0
41
1
10
150.332373537206
20
5.69786724923969
30
0
41
1
10
150.322979095118
20
5.66867249387249
30
0
41
1
10
150.315089323114
20
5.63974247381125
30
0
0
SPLINE
5
2CA
100
AcDbEntity
8
1
62
256
6
ByLayer
370
13
48
1
60
0
100
AcDbSpline
70
4
71
3
72
10
73
6
40
0
40
0
40
0
40
0
40
0.5
40
0.5
40
1
40
1
40
1
40
1
41
1
10
148.741973463957
20
-8.70557025306678
30
0
41
1
10
148.329904125707
20
-8.68588904940819
30
0
41
1
10
147.916028443923
20
-8.66718097054687
30
0
41
1
10
147.086078807533
20
-8.63161802552693
30
0
41
1
10
146.670076560427
20
-8.61467078841721
30
0
41
1
10
146.254070615451
20
-8.59757845818331
30
0
0
SPLINE
5
2CB
100
AcDbEntity
8
1
62
256
6
ByLayer
370
13
48
1
60
0
100
AcDbSpline
70
4
71
3
72
8
73
4
40
0
40
0
40
0
40
0
40
1
40
1
40
1
40
1
41
1
10
35
20
8.7748994981346
30
0
41
1
10
33.3333333367895
20
8.77489888887183
30
0
41
1
10
31.666666668072
20
8.77489851300743
30
0
41
1
10
30
20
8.77489851300743
30
0
0
SPLINE
5
2CC
100
AcDbEntity
8
1
62
256
6
ByLayer
370
13
48
1
60
0
100
AcDbSpline
70
4
71
3
72
8
73
4
40
0
40
0
40
0
40
0
40
1
40
1
40
1
40
1
41
1
10
145.07353402132
20
1.18279252806121
30
0
41
1
10
145.438108258835
20
0.944425059160693
30
0
41
1
10
145.830196763767
20
0.755898793509374
30
0
41
1
10
146.25407061545
20
0.626441752665954
30
0
0
SPLINE
5
2CD
100
AcDbEntity
8
1
62
256
6
ByLayer
370
13
48
1
60
0
100
AcDbSpline
70
4
71
3
72
8
73
4
40
0
40
0
40
0
40
0
40
1
40
1
40
1
40
1
41
1
10
146.598823371839
20
8.07051600382914
30
0
41
1
10
146.676930427169
20
8.2214735908718
30
0
41
1
10
146.753050485587
20
8.37345141015385
30
0
41
1
10
146.827390052144
20
8.52634343075516
30
0
0
SPLINE
5
2CE
100
AcDbEntity
8
1
62
256
6
ByLayer
370
13
48
1
60
0
100
AcDbSpline
70
4
71
3
72
8
73
4
40
0
40
0
40
0
40
0
40
1
40
1
40
1
40
1
41
1
10
146.598823371839
20
8.07051600382911
30
0
41
1
10
146.787849857957
20
7.75721067080181
30
0
41
1
10
146.990494231101
20
7.45250176842387
30
0
41
1
10
147.208305981332
20
7.15736742816432
30
0
0
SPLINE
5
2CF
100
AcDbEntity
8
1
62
256
6
ByLayer
370
13
48
1
60
0
100
AcDbSpline
70
4
71
3
72
42
73
38
40
0
40
0
40
0
40
0
40
0.0037635227060458
40
0.0037635227060458
40
0.0406611700132295
40
0.0406611700132295
40
0.0775588173204133
40
0.0775588173204133
40
0.114456464627597
40
0.114456464627597
40
0.151354111934781
40
0.151354111934781
40
0.188251759241965
40
0.188251759241965
40
0.225149406549148
40
0.225149406549148
40
0.262047053856332
40
0.262047053856332
40
0.335842348470699
40
0.335842348470699
40
0.372739995777882
40
0.372739995777882
40
0.409637643085066
40
0.409637643085066
40
0.446535290392249
40
0.446535290392249
40
0.483432937699433
40
0.483432937699433
40
0.520330585006616
40
0.520330585006616
40
0.557228232313799
40
0.557228232313799
40
0.704818821542533
40
0.704818821542533
40
0.852409410771266
40
0.852409410771266
40
1
40
1
40
1
40
1
41
1
10
134.623099383177
20
-7.09900869887244
30
0
41
1
10
134.561237692223
20
-7.1147631702172
30
0
41
1
10
134.499376645508
20
-7.13041353305016
30
0
41
1
10
133.831029069671
20
-7.29836547976697
30
0
41
1
10
133.224554581247
20
-7.44061431771891
30
0
41
1
10
132.007949852802
20
-7.70088931700616
30
0
41
1
10
131.39721316959
20
-7.81859501871097
30
0
41
1
10
130.168061817601
20
-8.02645348365007
30
0
41
1
10
129.551000825431
20
-8.11645188672355
30
0
41
1
10
128.309170028329
20
-8.27067499664017
30
0
41
1
10
127.684269177234
20
-8.33486745297694
30
0
41
1
10
126.426270011962
20
-8.44259297083804
30
0
41
1
10
125.793337110512
20
-8.48628744832584
30
0
41
1
10
124.520714843666
20
-8.55825956913722
30
0
41
1
10
123.881164626442
20
-8.5865717442073
30
0
41
1
10
122.595240768124
20
-8.63097677007016
30
0
41
1
10
121.950458591543
20
-8.64697264161248
30
0
41
1
10
120.009643218072
20
-8.68118351617682
30
0
41
1
10
118.706938860754
20
-8.68590004621919
30
0
41
1
10
116.738667587301
20
-8.68436467011841
30
0
41
1
10
116.080200999762
20
-8.68236410950041
30
0
41
1
10
114.758714502808
20
-8.67754479425079
30
0
41
1
10
114.097045538512
20
-8.67469393448681
30
0
41
1
10
112.773156626732
20
-8.67019067391314
30
0
41
1
10
112.11068267026
20
-8.66858619175486
30
0
41
1
10
110.785053026115
20
-8.66674923381814
30
0
41
1
10
110.121903613518
20
-8.66647489859255
30
0
41
1
10
108.795477364386
20
-8.66620859850823
30
0
41
1
10
108.132184884548
20
-8.66623867057996
30
0
41
1
10
106.805582805432
20
-8.66633441510473
30
0
41
1
10
106.142275510938
20
-8.66640832310335
30
0
41
1
10
102.825752630257
20
-8.66665816273678
30
0
41
1
10
100.172533650787
20
-8.6666007127435
30
0
41
1
10
94.8660956531878
20
-8.66647179347393
30
0
41
1
10
92.2128766472978
20
-8.66638626419154
30
0
41
1
10
86.9064384520621
20
-8.66629509671986
30
0
41
1
10
84.2532192583046
20
-8.66628165343667
30
0
41
1
10
81.6
20
-8.6662898763775
30
0
0
SPLINE
5
2D0
100
AcDbEntity
8
1
62
256
6
ByLayer
370
13
48
1
60
0
100
AcDbSpline
70
4
71
1
72
4
73
2
40
0
40
0
40
1
40
1
41
1
10
30.0100000003529
20
-8.23636547130511
30
0
41
1
10
30.0099999996471
20
-8.25015033617581
30
0
0
SPLINE
5
2D1
100
AcDbEntity
8
1
62
256
6
ByLayer
370
13
48
1
60
0
100
AcDbSpline
70
4
71
3
72
8
73
4
40
0
40
0
40
0
40
0
40
1
40
1
40
1
40
1
41
1
10
158.043109203047
20
0.526382615921818
30
0
41
1
10
158.129318512596
20
0.547094076275926
30
0
41
1
10
158.214620843459
20
0.555856061074962
30
0
41
1
10
158.299864355685
20
0.554738823523365
30
0
0
SPLINE
5
2D2
100
AcDbEntity
8
1
62
256
6
ByLayer
370
13
48
1
60
0
100
AcDbSpline
70
4
71
3
72
8
73
4
40
0
40
0
40
0
40
0
40
1
40
1
40
1
40
1
41
1
10
0
20
-3.071
30
0
41
1
10
0.166638779286302
20
-3.071
30
0
41
1
10
0.333306180615651
20
-3.071
30
0
41
1
10
0.5
20
-3.071
30
0
0
SPLINE
5
2D3
100
AcDbEntity
8
1
62
256
6
ByLayer
370
13
48
1
60
0
100
AcDbSpline
70
4
71
3
72
18
73
14
40
0
40
0
40
0
40
0
40
0.25
40
0.25
40
0.375
40
0.375
40
0.5
40
0.5
40
0.75
40
0.75
40
0.875
40
0.875
40
1
40
1
40
1
40
1
41
1
10
152.674059401237
20
3.61258140662261
30
0
41
1
10
152.668738851411
20
3.61230256843575
30
0
41
1
10
152.670002795644
20
3.62256102058913
30
0
41
1
10
152.685267891324
20
3.65097935147111
30
0
41
1
10
152.692626545803
20
3.66248386024884
30
0
41
1
10
152.712568805005
20
3.68798221983184
30
0
41
1
10
152.725419885779
20
3.70222700472817
30
0
41
1
10
152.771503147395
20
3.74469401347045
30
0
41
1
10
152.813690841467
20
3.77338675258767
30
0
41
1
10
152.886979806864
20
3.80457202145249
30
0
41
1
10
152.913491920649
20
3.81325000372414
30
0
41
1
10
152.96763664342
20
3.82573154176848
30
0
41
1
10
152.995501966784
20
3.82968636411817
30
0
41
1
10
153.024170311114
20
3.83120437472743
30
0
0
SPLINE
5
2D4
100
AcDbEntity
8
1
62
256
6
ByLayer
370
13
48
1
60
0
100
AcDbSpline
70
4
71
3
72
14
73
10
40
0
40
0
40
0
40
0
40
0.25
40
0.25
40
0.5
40
0.5
40
0.75
40
0.75
40
1
40
1
40
1
40
1
41
1
10
145.596626442733
20
0.983163326243812
30
0
41
1
10
145.673672781085
20
0.950888451996605
30
0
41
1
10
145.751864080416
20
0.926354085408832
30
0
41
1
10
145.910395629189
20
0.890781329680209
30
0
41
1
10
145.991541346202
20
0.879768968517567
30
0
41
1
10
146.150463516557
20
0.870434809457748
30
0
41
1
10
146.228576190974
20
0.87189481705488
30
0
41
1
10
146.382691535808
20
0.885072480495552
30
0
41
1
10
146.459182453103
20
0.896934305454323
30
0
41
1
10
146.533349544902
20
0.913059541934274
30
0
0
SPLINE
5
2D5
100
AcDbEntity
8
1
62
256
6
ByLayer
370
13
48
1
60
0
100
AcDbSpline
70
4
71
1
72
4
73
2
40
0
40
0
40
1
40
1
41
1
10
30.45
20
-5.06436427574391
30
0
41
1
10
30.01
20
-5.06436427574391
30
0
0
SPLINE
5
2D6
100
AcDbEntity
8
1
62
256
6
ByLayer
370
13
48
1
60
0
100
AcDbSpline
70
4
71
3
72
18
73
14
40
0
40
0
40
0
40
0
40
0.249999999999995
40
0.249999999999995
40
0.374999999999995
40
0.374999999999995
40
0.499999999999996
40
0.499999999999996
40
0.624999999999996
40
0.624999999999996
40
0.749999999999997
40
0.749999999999997
40
1
40
1
40
1
40
1
41
1
10
158.068483477033
20
0.404874967579332
30
0
41
1
10
158.069644042664
20
0.455000318529159
30
0
41
1
10
158.071563055727
20
0.501121703290181
30
0
41
1
10
158.075657605826
20
0.563884159480295
30
0
41
1
10
158.077233511336
20
0.583692241710082
30
0
41
1
10
158.080689409361
20
0.619518363240616
30
0
41
1
10
158.082581709783
20
0.635753979833794
30
0
41
1
10
158.086701522204
20
0.664803893374
30
0
41
1
10
158.088952981851
20
0.677709486296266
30
0
41
1
10
158.093669349335
20
0.69915220421899
30
0
41
1
10
158.096135406758
20
0.707764341644946
30
0
41
1
10
158.103855904019
20
0.727298430609579
30
0
41
1
10
158.109469235966
20
0.731758109035184
30
0
41
1
10
158.115179586666
20
0.726929195665605
30
0
0
SPLINE
5
2D7
100
AcDbEntity
8
1
62
256
6
ByLayer
370
13
48
1
60
0
100
AcDbSpline
70
4
71
3
72
14
73
10
40
0
40
0
40
0
40
0
40
0.0230419659423813
40
0.0230419659423813
40
0.348694643961588
40
0.348694643961588
40
0.674347321980794
40
0.674347321980794
40
1
40
1
40
1
40
1
41
1
10
30.4499923637703
20
-2.93083227655671
30
0
41
1
10
30.4499931974131
20
-2.94524912305747
30
0
41
1
10
30.4499940235766
20
-2.95979066066693
30
0
41
1
10
30.4500064081141
20
-3.18167041584903
30
0
41
1
10
30.4500164123019
20
-3.4128171523175
30
0
41
1
10
30.4500319793564
20
-3.89253048362383
30
0
41
1
10
30.4500375375709
20
-4.14095371614272
30
0
41
1
10
30.4500434714539
20
-4.62222028237216
30
0
41
1
10
30.450043845349
20
-4.85491978957947
30
0
41
1
10
30.4500416015801
20
-5.06436427561167
30
0
0
SPLINE
5
2D8
100
AcDbEntity
8
1
62
256
6
ByLayer
370
13
48
1
60
0
100
AcDbSpline
70
4
71
2
72
16
73
13
40
0
40
0
40
0
40
0.279225569492586
40
0.279225569492586
40
0.418838354238879
40
0.418838354238879
40
0.558451138985172
40
0.558451138985172
40
0.698063923731465
40
0.698063923731465
40
0.837676708477758
40
0.837676708477758
40
1
40
1
40
1
41
1
10
29.9999999999992
20
-5.06951618023228
30
0
41
1
10
27.4751139840154
20
-5.22389195156111
30
0
41
1
10
25.1881753355602
20
-6.09169444478709
30
0
41
1
10
24.0059998475097
20
-6.54028314508031
30
0
41
1
10
22.9273321393058
20
-7.17109153214165
30
0
41
1
10
21.8339134159551
20
-7.81052636087861
30
0
41
1
10
20.919259761856
20
-8.59423297126537
30
0
41
1
10
20.0069160026793
20
-9.37596038448629
30
0
41
1
10
19.2710852824317
20
-10.3014807320196
30
0
41
1
10
18.5489114579584
20
-11.2098235758479
30
0
41
1
10
18.0433470658035
20
-12.19641962523
30
0
41
1
10
17.4797485074202
20
-13.2962678735771
30
0
41
1
10
17.1962681799598
20
-14.4503459464895
30
0
0
SPLINE
5
2D9
100
AcDbEntity
8
1
62
256
6
ByLayer
370
13
48
1
60
0
100
AcDbSpline
70
4
71
3
72
10
73
6
40
0
40
0
40
0
40
0
40
0.252223861568319
40
0.252223861568319
40
1
40
1
40
1
40
1
41
1
10
150.296936985837
20
5.34037041163805
30
0
41
1
10
150.304625638737
20
5.33962337933585
30
0
41
1
10
150.312445021878
20
5.33884495537259
30
0
41
1
10
150.343936713383
20
5.33563195580319
30
0
41
1
10
150.368192986455
20
5.33299035663089
30
0
41
1
10
150.393141810048
20
5.33009869944584
30
0
0
SPLINE
5
2DA
100
AcDbEntity
8
1
62
256
6
ByLayer
370
13
48
1
60
0
100
AcDbSpline
70
4
71
3
72
8
73
4
40
0
40
0
40
0
40
0
40
1
40
1
40
1
40
1
41
1
10
30.45
20
-8.23642046904766
30
0
41
1
10
30.3033333331541
20
-8.23640322236631
30
0
41
1
10
30.1566666664746
20
-8.2363849002563
30
0
41
1
10
30.01
20
-8.23636547130508
30
0
0
SPLINE
5
2DB
100
AcDbEntity
8
1
62
256
6
ByLayer
370
13
48
1
60
0
100
AcDbSpline
70
4
71
3
72
10
73
6
40
0
40
0
40
0
40
0
40
0.5
40
0.5
40
1
40
1
40
1
40
1
41
1
10
149.063244025939
20
3.48748582156003
30
0
41
1
10
149.14207323838
20
3.40955445443626
30
0
41
1
10
149.224083536496
20
3.33584620574794
30
0
41
1
10
149.390816304709
20
3.20126515089029
30
0
41
1
10
149.475917660965
20
3.13995464432608
30
0
41
1
10
149.563252543219
20
3.08493455537874
30
0
0
SPLINE
5
2DC
100
AcDbEntity
8
1
62
256
6
ByLayer
370
13
48
1
60
0
100
AcDbSpline
70
4
71
3
72
8
73
4
40
0
40
0
40
0
40
0
40
1
40
1
40
1
40
1
41
1
10
157.561397000632
20
3.63821954230895
30
0
41
1
10
157.547009650747
20
3.6261409043762
30
0
41
1
10
157.533180909117
20
3.61406347016811
30
0
41
1
10
157.519946068152
20
3.60202337471813
30
0
0
SPLINE
5
2DD
100
AcDbEntity
8
1
62
256
6
ByLayer
370
13
48
1
60
0
100
AcDbSpline
70
4
71
3
72
12
73
8
40
0
40
0
40
0
40
0
40
0.250000000000002
40
0.250000000000002
40
0.500000000000003
40
0.500000000000003
40
1
40
1
40
1
40
1
41
1
10
146.801212809859
20
3.93399555056021
30
0
41
1
10
146.803991396468
20
3.94231714646219
30
0
41
1
10
146.810512468413
20
3.94891495812394
30
0
41
1
10
146.82512742362
20
3.95876053149547
30
0
41
1
10
146.833460135395
20
3.96228473912984
30
0
41
1
10
146.859104289496
20
3.97022901351187
30
0
41
1
10
146.877011137908
20
3.97218061549029
30
0
41
1
10
146.895382277182
20
3.97223095708534
30
0
0
SPLINE
5
2DE
100
AcDbEntity
8
1
62
256
6
ByLayer
370
13
48
1
60
0
100
AcDbSpline
70
4
71
3
72
8
73
4
40
0
40
0
40
0
40
0
40
1
40
1
40
1
40
1
41
1
10
145.596626442733
20
0.983163326243812
30
0
41
1
10
145.617857789548
20
1.01474277977201
30
0
41
1
10
145.639090288004
20
1.04632174730187
30
0
41
1
10
145.660323678886
20
1.07790039754957
30
0
0
SPLINE
5
2DF
100
AcDbEntity
8
1
62
256
6
ByLayer
370
13
48
1
60
0
100
AcDbSpline
70
4
71
3
72
14
73
10
40
0
40
0
40
0
40
0
40
0.499999999999992
40
0.499999999999992
40
0.624999999999994
40
0.624999999999994
40
0.749999999999996
40
0.749999999999996
40
1
40
1
40
1
40
1
41
1
10
30
20
-8.75814931725685
30
0
41
1
10
29.6981723009932
20
-8.75815160398827
30
0
41
1
10
29.4039276657973
20
-8.77163153175846
30
0
41
1
10
29.0454140265389
20
-8.8004974902764
30
0
41
1
10
28.9739575871202
20
-8.8068769677233
30
0
41
1
10
28.8342612031382
20
-8.82035456407218
30
0
41
1
10
28.7657895785399
20
-8.82746748534024
30
0
41
1
10
28.5644243181217
20
-8.84946289146021
30
0
41
1
10
28.4355583666018
20
-8.86502332365779
30
0
41
1
10
28.3121287673225
20
-8.88004489462512
30
0
0
SPLINE
5
2E0
100
AcDbEntity
8
1
62
256
6
ByLayer
370
13
48
1
60
0
100
AcDbSpline
70
4
71
3
72
8
73
4
40
0
40
0
40
0
40
0
40
1
40
1
40
1
40
1
41
1
10
152.688348221183
20
3.61333025358871
30
0
41
1
10
152.669952230539
20
3.5847764757346
30
0
41
1
10
152.654703069819
20
3.5541648607431
30
0
41
1
10
152.643152940947
20
3.52296227969165
30
0
0
SPLINE
5
2E1
100
AcDbEntity
8
1
62
256
6
ByLayer
370
13
48
1
60
0
100
AcDbSpline
70
4
71
3
72
8
73
4
40
0
40
0
40
0
40
0
40
1
40
1
40
1
40
1
41
1
10
139.26873878584
20
3.68241500641128
30
0
41
1
10
141.396689854791
20
2.8680784851957
30
0
41
1
10
143.521984016822
20
1.98818668124224
30
0
41
1
10
145.660323678886
20
1.07790039754957
30
0
0
SPLINE
5
2E2
100
AcDbEntity
8
1
62
256
6
ByLayer
370
13
48
1
60
0
100
AcDbSpline
70
4
71
3
72
12
73
8
40
0
40
0
40
0
40
0
40
0.0791869476911465
40
0.0791869476911465
40
0.539593473845573
40
0.539593473845573
40
1
40
1
40
1
40
1
41
1
10
139.000701375556
20
3.78343832631424
30
0
41
1
10
139.206565247831
20
3.79581423999514
30
0
41
1
10
139.412417020084
20
3.80754886765425
30
0
41
1
10
140.815036087227
20
3.88309167551404
30
0
41
1
10
142.011680896063
20
3.92558249326038
30
0
41
1
10
144.406438979295
20
3.96448961678729
30
0
41
1
10
145.603731034971
20
3.96087530801447
30
0
41
1
10
146.801212809869
20
3.93399555056001
30
0
0
SPLINE
5
2E3
100
AcDbEntity
8
1
62
256
6
ByLayer
370
13
48
1
60
0
100
AcDbSpline
70
4
71
3
72
10
73
6
40
0
40
0
40
0
40
0
40
0.5
40
0.5
40
1
40
1
40
1
40
1
41
1
10
157.003773060244
20
3.87287116262252
30
0
41
1
10
157.016447828142
20
3.86279326499812
30
0
41
1
10
157.027440049976
20
3.85494615620945
30
0
41
1
10
157.04418875395
20
3.84454890566414
30
0
41
1
10
157.050025128234
20
3.84191605259321
30
0
41
1
10
157.052924735405
20
3.84206801456582
30
0
0
SPLINE
5
2E4
100
AcDbEntity
8
1
62
256
6
ByLayer
370
13
48
1
60
0
100
AcDbSpline
70
4
71
3
72
12
73
8
40
0
40
0
40
0
40
0
40
0.250000000000006
40
0.250000000000006
40
0.500000000000012
40
0.500000000000012
40
1
40
1
40
1
40
1
41
1
10
149.063244025939
20
3.48748582156014
30
0
41
1
10
149.041888862225
20
3.54063416276981
30
0
41
1
10
149.021840949134
20
3.59681048874657
30
0
41
1
10
148.983414430553
20
3.71489218769168
30
0
41
1
10
148.964896523373
20
3.77732392953041
30
0
41
1
10
148.911947447883
20
3.96946587160289
30
0
41
1
10
148.880148917605
20
4.10185432297149
30
0
41
1
10
148.851623889585
20
4.23857912382914
30
0
0
SPLINE
5
2E5
100
AcDbEntity
8
1
62
256
6
ByLayer
370
13
48
1
60
0
100
AcDbSpline
70
4
71
3
72
10
73
6
40
0
40
0
40
0
40
0
40
0.5
40
0.5
40
1
40
1
40
1
40
1
41
1
10
154.197735375983
20
3.69243388080599
30
0
41
1
10
153.948341867425
20
3.67936372085487
30
0
41
1
10
153.698562246096
20
3.66627332559082
30
0
41
1
10
153.198487303366
20
3.64006550836729
30
0
41
1
10
152.948201747381
20
3.62694859819146
30
0
41
1
10
152.697952855921
20
3.61383360952203
30
0
0
SPLINE
5
2E6
100
AcDbEntity
8
1
62
256
6
ByLayer
370
13
48
1
60
0
100
AcDbSpline
70
4
71
3
72
14
73
10
40
0
40
0
40
0
40
0
40
0.25
40
0.25
40
0.5
40
0.5
40
0.75
40
0.75
40
1
40
1
40
1
40
1
41
1
10
157.945594428224
20
3.53837052970047
30
0
41
1
10
157.862481872505
20
3.53401478522468
30
0
41
1
10
157.780512852997
20
3.53873278233922
30
0
41
1
10
157.619683802073
20
3.56379678794005
30
0
41
1
10
157.544045194701
20
3.58351121485532
30
0
41
1
10
157.398231942066
20
3.63579838727685
30
0
41
1
10
157.328019592382
20
3.66863720525771
30
0
41
1
10
157.195924475243
20
3.74617723515971
30
0
41
1
10
157.13334543508
20
3.79114095678727
30
0
41
1
10
157.074507486924
20
3.84319911781375
30
0
0
SPLINE
5
2E7
100
AcDbEntity
8
1
62
256
6
ByLayer
370
13
48
1
60
0
100
AcDbSpline
70
4
71
3
72
14
73
10
40
0
40
0
40
0
40
0
40
0.25
40
0.25
40
0.5
40
0.5
40
0.75
40
0.75
40
1
40
1
40
1
40
1
41
1
10
152.204664881553
20
3.51121386909571
30
0
41
1
10
152.231889216852
20
3.50390171133168
30
0
41
1
10
152.255669749394
20
3.4955330449676
30
0
41
1
10
152.296470435815
20
3.47672172638627
30
0
41
1
10
152.313355618967
20
3.46623588799159
30
0
41
1
10
152.338371114242
20
3.44443196319995
30
0
41
1
10
152.346898323462
20
3.43283516016916
30
0
41
1
10
152.35552277917
20
3.40912709487455
30
0
41
1
10
152.35564318853
20
3.39724335891054
30
0
41
1
10
152.351939642528
20
3.38533252631598
30
0
0
SPLINE
5
2E8
100
AcDbEntity
8
1
62
256
6
ByLayer
370
13
48
1
60
0
100
AcDbSpline
70
4
71
3
72
10
73
6
40
0
40
0
40
0
40
0
40
0.5
40
0.5
40
1
40
1
40
1
40
1
41
1
10
147.9991126018
20
2.35679288581579
30
0
41
1
10
147.794985755269
20
2.51843282191265
30
0
41
1
10
147.571621217924
20
2.66060801896634
30
0
41
1
10
147.100615017737
20
2.92039476263034
30
0
41
1
10
146.852692009663
20
3.03772164349925
30
0
41
1
10
146.595270250829
20
3.14543766688149
30
0
0
SPLINE
5
2E9
100
AcDbEntity
8
1
62
256
6
ByLayer
370
13
48
1
60
0
100
AcDbSpline
70
4
71
3
72
30
73
26
40
0
40
0
40
0
40
0
40
0.0624999999999999
40
0.0624999999999999
40
0.0937499999999994
40
0.0937499999999994
40
0.124999999999999
40
0.124999999999999
40
0.249999999999998
40
0.249999999999998
40
0.312499999999998
40
0.312499999999998
40
0.343749999999998
40
0.343749999999998
40
0.374999999999998
40
0.374999999999998
40
0.499999999999999
40
0.499999999999999
40
0.625
40
0.625
40
0.6875
40
0.6875
40
0.75
40
0.75
40
1
40
1
40
1
40
1
41
1
10
28.3134084547852
20
-3.45553031529681
30
0
41
1
10
28.0518267559086
20
-3.49736991531179
30
0
41
1
10
27.7925712793807
20
-3.54886353759369
30
0
41
1
10
27.4071915273384
20
-3.64064364191773
30
0
41
1
10
27.2789755105708
20
-3.67376492540399
30
0
41
1
10
27.0259738809995
20
-3.74426701579836
30
0
41
1
10
26.9010955521713
20
-3.78165324264367
30
0
41
1
10
26.2845705626733
20
-3.97893684651533
30
0
41
1
10
25.8162972493241
20
-4.16959340640065
30
0
41
1
10
25.149464486705
20
-4.50239763470432
30
0
41
1
10
24.9326573374074
20
-4.62151105455953
30
0
41
1
10
24.6186356401109
20
-4.81090957973788
30
0
41
1
10
24.5158657611865
20
-4.87579475735265
30
0
41
1
10
24.3141256600529
20
-5.00906206861058
30
0
41
1
10
24.2160251326758
20
-5.07824461261021
30
0
41
1
10
23.7189238716409
20
-5.41808438964841
30
0
41
1
10
23.3069828401053
20
-5.67683221716359
30
0
41
1
10
22.4550936122172
20
-6.16855190578912
30
0
41
1
10
22.0151431707529
20
-6.40152170064508
30
0
41
1
10
21.3340900984408
20
-6.73153210369372
30
0
41
1
10
21.1032565346805
20
-6.83840683049468
30
0
41
1
10
20.6372715319834
20
-7.04439304542149
30
0
41
1
10
20.4018576281516
20
-7.14364362608268
30
0
41
1
10
19.2128225406959
20
-7.62140251182427
30
0
41
1
10
18.223555533058
20
-7.94481652643319
30
0
41
1
10
17.1960038795388
20
-8.20905767972843
30
0
0
SPLINE
5
2EA
100
AcDbEntity
8
1
62
256
6
ByLayer
370
13
48
1
60
0
100
AcDbSpline
70
4
71
3
72
20
73
16
40
0
40
0
40
0
40
0
40
0.124999999999999
40
0.124999999999999
40
0.249999999999999
40
0.249999999999999
40
0.374999999999998
40
0.374999999999998
40
0.499999999999999
40
0.499999999999999
40
0.624999999999999
40
0.624999999999999
40
0.749999999999999
40
0.749999999999999
40
1
40
1
40
1
40
1
41
1
10
4
20
-2.571
30
0
41
1
10
4
20
-2.60389774821195
30
0
41
1
10
3.99678494257208
20
-2.63624184361711
30
0
41
1
10
3.98419439193694
20
-2.69987035400635
30
0
41
1
10
3.97467366872795
20
-2.73147308526703
30
0
41
1
10
3.94976479213543
20
-2.79185817764826
30
0
41
1
10
3.93451788172342
20
-2.82050848046609
30
0
41
1
10
3.89848724652293
20
-2.87475678711834
30
0
41
1
10
3.87747676582194
20
-2.90050544992857
30
0
41
1
10
3.83150020044286
20
-2.94672618670299
30
0
41
1
10
3.80640396788004
20
-2.9674794039434
30
0
41
1
10
3.7518917705666
20
-3.00416260827171
30
0
41
1
10
3.7226879915313
20
-3.01986094142663
30
0
41
1
10
3.63229013364824
20
-3.05758366781257
30
0
41
1
10
3.56637837782782
20
-3.071
30
0
41
1
10
3.5
20
-3.071
30
0
0
SPLINE
5
2EB
100
AcDbEntity
8
1
62
256
6
ByLayer
370
13
48
1
60
0
100
AcDbSpline
70
4
71
3
72
18
73
14
40
0
40
0
40
0
40
0
40
0.125
40
0.125
40
0.25
40
0.25
40
0.375
40
0.375
40
0.5
40
0.5
40
0.75
40
0.75
40
1
40
1
40
1
40
1
41
1
10
3.5
20
3.071
30
0
41
1
10
3.53318312396189
20
3.071
30
0
41
1
10
3.56580077113165
20
3.06772944142102
30
0
41
1
10
3.62995315544904
20
3.05492360641406
30
0
41
1
10
3.66182755008378
20
3.04522639598446
30
0
41
1
10
3.72247408508454
20
3.0199811934595
30
0
41
1
10
3.75121974391541
20
3.00454335055147
30
0
41
1
10
3.80559192731957
20
2.96809541737147
30
0
41
1
10
3.83125659063921
20
2.94693871162792
30
0
41
1
10
3.90021432735634
20
2.87771137433788
30
0
41
1
10
3.93725856873135
20
2.82202497927847
30
0
41
1
10
3.98684158197713
20
2.70212539879356
30
0
41
1
10
4
20
2.63678300150227
30
0
41
1
10
4
20
2.571
30
0
0
SPLINE
5
2EC
100
AcDbEntity
8
1
62
256
6
ByLayer
370
13
48
1
60
0
100
AcDbSpline
70
4
71
3
72
14
73
10
40
0
40
0
40
0
40
0
40
0.25
40
0.25
40
0.5
40
0.5
40
0.75
40
0.75
40
1
40
1
40
1
40
1
41
1
10
28.3134084547852
20
-3.45553031529681
30
0
41
1
10
28.4366092632083
20
-3.37197372345031
30
0
41
1
10
28.5654507511525
20
-3.29782384031034
30
0
41
1
10
28.8344074306154
20
-3.16856600333145
30
0
41
1
10
28.975400113442
20
-3.11333059243523
30
0
41
1
10
29.2603463259672
20
-3.02559210005867
30
0
41
1
10
29.4051370026279
20
-2.99255177120503
30
0
41
1
10
29.6993323185847
20
-2.94804305457569
30
0
41
1
10
29.8494569008047
20
-2.93659768153802
30
0
41
1
10
30
20
-2.93656597199976
30
0
0
SPLINE
5
2ED
100
AcDbEntity
8
1
62
256
6
ByLayer
370
13
48
1
60
0
100
AcDbSpline
70
4
71
3
72
20
73
16
40
0
40
0
40
0
40
0
40
0.125
40
0.125
40
0.25
40
0.25
40
0.375
40
0.375
40
0.5
40
0.5
40
0.625000000000001
40
0.625000000000001
40
0.750000000000002
40
0.750000000000002
40
1
40
1
40
1
40
1
41
1
10
3.99999999999997
20
-18.243959371358
30
0
41
1
10
3.99999999999997
20
-18.2566676295507
30
0
41
1
10
3.99678494257208
20
-18.2690890336201
30
0
41
1
10
3.98419439193694
20
-18.2933903522278
30
0
41
1
10
3.97467366872792
20
-18.3053901227808
30
0
41
1
10
3.94976479213543
20
-18.3281976392569
30
0
41
1
10
3.93451788172339
20
-18.3389573045018
30
0
41
1
10
3.89848724652293
20
-18.3592361097101
30
0
41
1
10
3.87747676582191
20
-18.3688101588124
30
0
41
1
10
3.83150020044283
20
-18.3859290762728
30
0
41
1
10
3.80640396788002
20
-18.3935795209281
30
0
41
1
10
3.75189177056657
20
-18.4070624777333
30
0
41
1
10
3.7226879915313
20
-18.4128097037788
30
0
41
1
10
3.63229013364824
20
-18.4265948678156
30
0
41
1
10
3.56637837782779
20
-18.4314638449542
30
0
41
1
10
3.49999999999999
20
-18.4314638449542
30
0
0
SPLINE
5
2EE
100
AcDbEntity
8
1
62
256
6
ByLayer
370
13
48
1
60
0
100
AcDbSpline
70
4
71
3
72
18
73
14
40
0
40
0
40
0
40
0
40
0.124999999999999
40
0.124999999999999
40
0.249999999999998
40
0.249999999999998
40
0.374999999999996
40
0.374999999999996
40
0.499999999999995
40
0.499999999999995
40
0.749999999999998
40
0.749999999999998
40
1
40
1
40
1
40
1
41
1
10
3.49999999999999
20
-15.3604638449542
30
0
41
1
10
3.53318312396186
20
-15.3604638449542
30
0
41
1
10
3.56580077113162
20
-15.3625456542963
30
0
41
1
10
3.62995315544902
20
-15.3706886229251
30
0
41
1
10
3.66182755008376
20
-15.3768526080896
30
0
41
1
10
3.72247408508454
20
-15.3928725505714
30
0
41
1
10
3.75121974391539
20
-15.402658651521
30
0
41
1
10
3.80559192731954
20
-15.4257109267263
30
0
41
1
10
3.83125659063918
20
-15.4390688182802
30
0
41
1
10
3.90021432735631
20
-15.4826569876939
30
0
41
1
10
3.93725856873135
20
-15.5175655816787
30
0
41
1
10
3.9868415819771
20
-15.5921811754153
30
0
41
1
10
3.99999999999997
20
-15.6325880595068
30
0
41
1
10
3.99999999999997
20
-15.672959371358
30
0
0
SPLINE
5
2EF
100
AcDbEntity
8
1
62
256
6
ByLayer
370
13
48
1
60
0
100
AcDbSpline
70
4
71
3
72
10
73
6
40
0
40
0
40
0
40
0
40
0.5
40
0.5
40
1
40
1
40
1
40
1
41
1
10
145.073534021321
20
1.18279252806164
30
0
41
1
10
145.159835119191
20
1.15281817544849
30
0
41
1
10
145.246619221665
20
1.12132777616352
30
0
41
1
10
145.42103888105
20
1.05492220356729
30
0
41
1
10
145.508941114028
20
1.01989489607345
30
0
41
1
10
145.596626442734
20
0.983163326243783
30
0
0
SPLINE
5
2F0
100
AcDbEntity
8
1
62
256
6
ByLayer
370
13
48
1
60
0
100
AcDbSpline
70
4
71
3
72
14
73
10
40
0
40
0
40
0
40
0
40
0.25
40
0.25
40
0.5
40
0.5
40
0.75
40
0.75
40
1
40
1
40
1
40
1
41
1
10
156.60413497966
20
4.01882240930189
30
0
41
1
10
156.645962220832
20
4.02101448212522
30
0
41
1
10
156.687288632856
20
4.01794141777367
30
0
41
1
10
156.768984040027
20
4.00203512741152
30
0
41
1
10
156.807974916476
20
3.9893332869402
30
0
41
1
10
156.879809066649
20
3.9576808090097
30
0
41
1
10
156.911280152861
20
3.93939786852008
30
0
41
1
10
156.965409283825
20
3.90325562956428
30
0
41
1
10
156.986773640943
20
3.88638765529262
30
0
41
1
10
157.003773060244
20
3.87287116262252
30
0
0
SPLINE
5
2F1
100
AcDbEntity
8
1
62
256
6
ByLayer
370
13
48
1
60
0
100
AcDbSpline
70
4
71
3
72
8
73
4
40
0
40
0
40
0
40
0
40
1
40
1
40
1
40
1
41
1
10
35
20
-8.75813176152104
30
0
41
1
10
33.3333333306577
20
-8.75813168016776
30
0
41
1
10
31.6666666568762
20
-8.75813669012223
30
0
41
1
10
30
20
-8.75814931725685
30
0
0
SPLINE
5
2F2
100
AcDbEntity
8
1
62
256
6
ByLayer
370
13
48
1
60
0
100
AcDbSpline
70
4
71
3
72
12
73
8
40
0
40
0
40
0
40
0
40
0.250000000000011
40
0.250000000000011
40
0.500000000000022
40
0.500000000000022
40
1
40
1
40
1
40
1
41
1
10
147.577020110752
20
4.00290410587479
30
0
41
1
10
147.689819165878
20
4.01463066742684
30
0
41
1
10
147.799698158843
20
4.03032949008752
30
0
41
1
10
148.015988751725
20
4.06688201130331
30
0
41
1
10
148.122370641951
20
4.08774850042042
30
0
41
1
10
148.438030254483
20
4.15561189463938
30
0
41
1
10
148.643960747845
20
4.20775894797396
30
0
41
1
10
148.846209913579
20
4.26325631296515
30
0
0
SPLINE
5
2F3
100
AcDbEntity
8
1
62
256
6
ByLayer
370
13
48
1
60
0
100
AcDbSpline
70
4
71
3
72
18
73
14
40
0
40
0
40
0
40
0
40
0.250000000000007
40
0.250000000000007
40
0.375000000000007
40
0.375000000000007
40
0.500000000000008
40
0.500000000000008
40
0.750000000000004
40
0.750000000000004
40
0.875000000000002
40
0.875000000000002
40
1
40
1
40
1
40
1
41
1
10
30
20
-8.25014900748633
30
0
41
1
10
29.8410188743038
20
-8.25012785659769
30
0
41
1
10
29.685376648185
20
-8.26531762454863
30
0
41
1
10
29.4565062959263
20
-8.3090264011789
30
0
41
1
10
29.3809860286651
20
-8.32710317531959
30
0
41
1
10
29.2314620848599
20
-8.370165807794
30
0
41
1
10
29.157314324979
20
-8.39525223863407
30
0
41
1
10
28.9419535906372
20
-8.47877260902951
30
0
41
1
10
28.8060628205121
20
-8.54581835832903
30
0
41
1
10
28.6122604662498
20
-8.66122993489259
30
0
41
1
10
28.5491173082449
20
-8.70235452346662
30
0
41
1
10
28.4271740627842
20
-8.78857394082954
30
0
41
1
10
28.3685770645353
20
-8.83349149488242
30
0
41
1
10
28.3121287673224
20
-8.88004489462509
30
0
0
SPLINE
5
2F4
100
AcDbEntity
8
1
62
256
6
ByLayer
370
13
48
1
60
0
100
AcDbSpline
70
4
71
3
72
10
73
6
40
0
40
0
40
0
40
0
40
0.5
40
0.5
40
1
40
1
40
1
40
1
41
1
10
146.533349544902
20
0.913059541934302
30
0
41
1
10
146.653201129976
20
0.909998158949293
30
0
41
1
10
146.772198828765
20
0.916832786545342
30
0
41
1
10
147.008419490273
20
0.950517626786564
30
0
41
1
10
147.123123135583
20
0.977022448050036
30
0
41
1
10
147.234226513133
20
1.01278881144142
30
0
0
SPLINE
5
2F5
100
AcDbEntity
8
1
62
256
6
ByLayer
370
13
48
1
60
0
100
AcDbSpline
70
4
71
3
72
16
73
12
40
0
40
0
40
0
40
0
40
0.25
40
0.25
40
0.5
40
0.5
40
0.625
40
0.625
40
0.75
40
0.75
40
1
40
1
40
1
40
1
41
1
10
150.093108460879
20
2.86980899500759
30
0
41
1
10
150.391512170483
20
2.81241351823144
30
0
41
1
10
150.682908027333
20
2.77723490813381
30
0
41
1
10
151.251565634729
20
2.74242213673244
30
0
41
1
10
151.528818129012
20
2.74287357905274
30
0
41
1
10
151.932846841149
20
2.76541623163902
30
0
41
1
10
152.065075234432
20
2.77656845644921
30
0
41
1
10
152.323190203569
20
2.80504851832845
30
0
41
1
10
152.44928696306
20
2.82238918255166
30
0
41
1
10
152.818399161132
20
2.88222631196561
30
0
41
1
10
153.052328957923
20
2.93259225700808
30
0
41
1
10
153.272404796888
20
2.98918755434147
30
0
0
SPLINE
5
2F6
100
AcDbEntity
8
1
62
256
6
ByLayer
370
13
48
1
60
0
100
AcDbSpline
70
2053
71
3
72
68
73
64
40
0
40
0
40
0
40
0
40
0.0312500000000007
40
0.0312500000000007
40
0.0625000000000015
40
0.0625000000000015
40
0.0937500000000022
40
0.0937500000000022
40
0.125000000000003
40
0.125000000000003
40
0.156250000000004
40
0.156250000000004
40
0.187500000000004
40
0.187500000000004
40
0.218750000000005
40
0.218750000000005
40
0.250000000000006
40
0.250000000000006
40
0.281250000000007
40
0.281250000000007
40
0.312500000000007
40
0.312500000000007
40
0.343750000000008
40
0.343750000000008
40
0.375000000000009
40
0.375000000000009
40
0.406250000000009
40
0.406250000000009
40
0.43750000000001
40
0.43750000000001
40
0.468750000000011
40
0.468750000000011
40
0.500000000000012
40
0.500000000000012
40
0.531250000000012
40
0.531250000000012
40
0.562500000000013
40
0.562500000000013
40
0.593750000000014
40
0.593750000000014
40
0.625000000000014
40
0.625000000000014
40
0.656250000000015
40
0.656250000000015
40
0.687500000000016
40
0.687500000000016
40
0.750000000000013
40
0.750000000000013
40
0.781250000000011
40
0.781250000000011
40
0.81250000000001
40
0.81250000000001
40
0.843750000000008
40
0.843750000000008
40
0.875000000000006
40
0.875000000000006
40
0.906250000000005
40
0.906250000000005
40
0.937500000000003
40
0.937500000000003
40
0.968750000000002
40
0.968750000000002
40
1
40
1
40
1
40
1
41
1
10
155.823428988406
20
-0.0284292645957862
30
0
41
1
10
155.897318723623
20
-0.0284292645957862
30
0
41
1
10
155.969944865458
20
-0.0358481885570541
30
0
41
1
10
156.112772206895
20
-0.0649228504136374
30
0
41
1
10
156.183742835372
20
-0.0869587897119288
30
0
41
1
10
156.318523881919
20
-0.1442946038907
30
0
41
1
10
156.382361461296
20
-0.179371226243518
30
0
41
1
10
156.502959312561
20
-0.262280946514153
30
0
41
1
10
156.559685577715
20
-0.310367280463907
30
0
41
1
10
156.660941908662
20
-0.415191472005631
30
0
41
1
10
156.706206248509
20
-0.472365059618369
30
0
41
1
10
156.785722318175
20
-0.596462903172011
30
0
41
1
10
156.8188069424
20
-0.661627314895611
30
0
41
1
10
156.871849717894
20
-0.79692541160108
30
0
41
1
10
156.892005893127
20
-0.867975263710548
30
0
41
1
10
156.918077849156
20
-1.0114459250473
30
0
41
1
10
156.924119849379
20
-1.08355154242869
30
0
41
1
10
156.922614112123
20
-1.22846759933628
30
0
41
1
10
156.914855438665
20
-1.30166890036864
30
0
41
1
10
156.886292872503
20
-1.44303523747661
30
0
41
1
10
156.865557559729
20
-1.51190629483079
30
0
41
1
10
156.811000770408
20
-1.64601804344878
30
0
41
1
10
156.777312949524
20
-1.71057237229374
30
0
41
1
10
156.699319083634
20
-1.83099316782409
30
0
41
1
10
156.654786188879
20
-1.88746889504409
30
0
41
1
10
156.553886283343
20
-1.99254726198174
30
0
41
1
10
156.49905045228
20
-2.0395243082817
30
0
41
1
10
156.381096658516
20
-2.12218965739774
30
0
41
1
10
156.317269154075
20
-2.15822155221608
30
0
41
1
10
156.183280178286
20
-2.21671582984646
30
0
41
1
10
156.114190046883
20
-2.2388696196773
30
0
41
1
10
155.971788345063
20
-2.26897604929829
30
0
41
1
10
155.897619258375
20
-2.27682180575124
30
0
41
1
10
155.751502545419
20
-2.27697791324644
30
0
41
1
10
155.679018498318
20
-2.269572019539
30
0
41
1
10
155.535208652777
20
-2.23963512648803
30
0
41
1
10
155.465068305369
20
-2.21721125762352
30
0
41
1
10
155.331931058908
20
-2.15939494004073
30
0
41
1
10
155.267699409141
20
-2.12341424959394
30
0
41
1
10
155.148562795953
20
-2.0401843106537
30
0
41
1
10
155.093811082712
20
-1.99326570466573
30
0
41
1
10
154.993534787072
20
-1.88914464999743
30
0
41
1
10
154.948062554845
20
-1.83171656879952
30
0
41
1
10
154.869818229726
20
-1.71107844886114
30
0
41
1
10
154.836490960806
20
-1.64736109578027
30
0
41
1
10
154.754198911549
20
-1.44570932665277
30
0
41
1
10
154.725163033216
20
-1.30318080138738
30
0
41
1
10
154.722673243267
20
-1.08410315969582
30
0
41
1
10
154.728751931499
20
-1.0119709502446
30
0
41
1
10
154.75451243476
20
-0.869479674305381
30
0
41
1
10
154.77452248178
20
-0.798358906390234
30
0
41
1
10
154.827747686107
20
-0.662209528097577
30
0
41
1
10
154.860661611899
20
-0.597431046362289
30
0
41
1
10
154.939129567288
20
-0.474518053449742
30
0
41
1
10
154.985213106791
20
-0.416013623904348
30
0
41
1
10
155.086509822315
20
-0.310960046460224
30
0
41
1
10
155.142004602441
20
-0.263756675158192
30
0
41
1
10
155.262927519273
20
-0.180281210390433
30
0
41
1
10
155.327731368945
20
-0.144628417027491
30
0
41
1
10
155.461765630529
20
-0.0874565766779938
30
0
41
1
10
155.531991151232
20
-0.0654400530952444
30
0
41
1
10
155.676446445244
20
-0.03585396987026
30
0
41
1
10
155.74953925319
20
-0.0284292645957862
30
0
41
1
10
155.823428988406
20
-0.0284292645957862
30
0
0
SPLINE
5
2F7
100
AcDbEntity
8
1
62
256
6
ByLayer
370
13
48
1
60
0
100
AcDbSpline
70
4
71
3
72
10
73
6
40
0
40
0
40
0
40
0
40
0.5
40
0.5
40
1
40
1
40
1
40
1
41
1
10
146.895378107961
20
3.97223094565757
30
0
41
1
10
146.958658091853
20
3.97240444867455
30
0
41
1
10
147.021390338186
20
3.97031172528327
30
0
41
1
10
147.145741337412
20
3.96142852534155
30
0
41
1
10
147.207690844991
20
3.95457791043455
30
0
41
1
10
147.268008541932
20
3.94539063391022
30
0
0
SPLINE
5
2F8
100
AcDbEntity
8
1
62
256
6
ByLayer
370
13
48
1
60
0
100
AcDbSpline
70
4
71
3
72
10
73
6
40
0
40
0
40
0
40
0
40
0.5
40
0.5
40
1
40
1
40
1
40
1
41
1
10
81.6
20
-2.93271158441064
30
0
41
1
10
73.8333381514776
20
-2.9279659800994
30
0
41
1
10
66.0666669665227
20
-2.93450408131406
30
0
41
1
10
50.5333319144766
20
-2.93775084227917
30
0
41
1
10
42.7666667841451
20
-2.9357491809736
30
0
41
1
10
35
20
-2.93613725551654
30
0
0
SPLINE
5
2F9
100
AcDbEntity
8
1
62
256
6
ByLayer
370
13
48
1
60
0
100
AcDbSpline
70
4
71
3
72
8
73
4
40
0
40
0
40
0
40
0
40
1
40
1
40
1
40
1
41
1
10
157.663340984212
20
-0.698672434757924
30
0
41
1
10
157.732284894447
20
-1.08995297185243
30
0
41
1
10
157.746299716282
20
-1.47956169044275
30
0
41
1
10
157.710265627328
20
-1.86718315042262
30
0
0
SPLINE
5
2FA
100
AcDbEntity
8
1
62
256
6
ByLayer
370
13
48
1
60
0
100
AcDbSpline
70
4
71
3
72
8
73
4
40
0
40
0
40
0
40
0
40
1
40
1
40
1
40
1
41
1
10
149.254070615451
20
-8.72083445229583
30
0
41
1
10
149.083371564952
20
-8.71574638590917
30
0
41
1
10
148.912672514454
20
-8.7106583194994
30
0
41
1
10
148.741973463957
20
-8.70557025306641
30
0
0
SPLINE
5
2FB
100
AcDbEntity
8
1
62
256
6
ByLayer
370
13
48
1
60
0
100
AcDbSpline
70
4
71
3
72
10
73
6
40
0
40
0
40
0
40
0
40
0.5
40
0.5
40
1
40
1
40
1
40
1
41
1
10
148.846209913578
20
4.26325631296737
30
0
41
1
10
148.852243802004
20
4.33479145160774
30
0
41
1
10
148.850186755221
20
4.40599096090631
30
0
41
1
10
148.822840957194
20
4.54742627858695
30
0
41
1
10
148.79800801331
20
4.61419916830764
30
0
41
1
10
148.760673247867
20
4.6759244621563
30
0
0
SPLINE
5
2FC
100
AcDbEntity
8
1
62
256
6
ByLayer
370
13
48
1
60
0
100
AcDbSpline
70
4
71
3
72
14
73
10
40
0
40
0
40
0
40
0
40
0.25
40
0.25
40
0.5
40
0.5
40
0.75
40
0.75
40
1
40
1
40
1
40
1
41
1
10
146.533349544902
20
0.913059541934302
30
0
41
1
10
146.463466064215
20
0.909807521504803
30
0
41
1
10
146.392909092118
20
0.910397744604694
30
0
41
1
10
146.253811376467
20
0.919167481030826
30
0
41
1
10
146.184834819023
20
0.927313562122748
30
0
41
1
10
146.048034214768
20
0.951045380100965
30
0
41
1
10
145.98021002398
20
0.966630912306243
30
0
41
1
10
145.845759380976
20
1.00540086616829
30
0
41
1
10
145.778974263232
20
1.02868173628906
30
0
41
1
10
145.713913490054
20
1.05546407178474
30
0
0
SPLINE
5
2FD
100
AcDbEntity
8
1
62
256
6
ByLayer
370
13
48
1
60
0
100
AcDbSpline
70
4
71
3
72
8
73
4
40
0
40
0
40
0
40
0
40
1
40
1
40
1
40
1
41
1
10
153.272404796888
20
2.98918755434147
30
0
41
1
10
153.353645440773
20
3.01007961781309
30
0
41
1
10
153.432117716622
20
3.02871441230513
30
0
41
1
10
153.507654955973
20
3.04542847861404
30
0
0
SPLINE
5
2FE
100
AcDbEntity
8
1
62
256
6
ByLayer
370
13
48
1
60
0
100
AcDbSpline
70
4
71
3
72
10
73
6
40
0
40
0
40
0
40
0
40
0.5
40
0.5
40
1
40
1
40
1
40
1
41
1
10
155.877814459813
20
3.92006833071815
30
0
41
1
10
155.908858038743
20
3.94016879334578
30
0
41
1
10
155.944193291756
20
3.95734402097605
30
0
41
1
10
156.022703539337
20
3.98280314151023
30
0
41
1
10
156.063812800327
20
3.99048200777585
30
0
41
1
10
156.106686596629
20
3.99275220785509
30
0
0
SPLINE
5
2FF
100
AcDbEntity
8
1
62
256
6
ByLayer
370
13
48
1
60
0
100
AcDbSpline
70
4
71
3
72
18
73
14
40
0
40
0
40
0
40
0
40
0.125
40
0.125
40
0.25
40
0.25
40
0.375
40
0.375
40
0.5
40
0.5
40
0.75
40
0.75
40
1
40
1
40
1
40
1
41
1
10
147.268008541933
20
3.94539063391292
30
0
41
1
10
147.350996457291
20
3.90681595385451
30
0
41
1
10
147.431176799983
20
3.86278261132176
30
0
41
1
10
147.584906907576
20
3.76424563336835
30
0
41
1
10
147.656504401912
20
3.7110652004522
30
0
41
1
10
147.790376946663
20
3.59859500081973
30
0
41
1
10
147.852668994607
20
3.53933831470778
30
0
41
1
10
147.968681587371
20
3.41588484488005
30
0
41
1
10
148.02262693891
20
3.35130205052047
30
0
41
1
10
148.167025947752
20
3.15584833765766
30
0
41
1
10
148.241978233529
20
3.02134152225796
30
0
41
1
10
148.346316157066
20
2.74045648887912
30
0
41
1
10
148.373820820409
20
2.60054393372911
30
0
41
1
10
148.376657459868
20
2.46026168758917
30
0
0
SPLINE
5
300
100
AcDbEntity
8
1
62
256
6
ByLayer
370
13
48
1
60
0
100
AcDbSpline
70
4
71
3
72
12
73
8
40
0
40
0
40
0
40
0
40
0.250000000000024
40
0.250000000000024
40
0.500000000000047
40
0.500000000000047
40
1
40
1
40
1
40
1
41
1
10
155.371359804096
20
3.75394093079572
30
0
41
1
10
155.414562322709
20
3.75620507885563
30
0
41
1
10
155.458435392166
20
3.76134841123465
30
0
41
1
10
155.544912600706
20
3.77733519000137
30
0
41
1
10
155.587887982746
20
3.78820974612506
30
0
41
1
10
155.714679113845
20
3.82927601908352
30
0
41
1
10
155.796971319602
20
3.86772306079411
30
0
41
1
10
155.877814459813
20
3.92006833071815
30
0
0
SPLINE
5
301
100
AcDbEntity
8
1
62
256
6
ByLayer
370
13
48
1
60
0
100
AcDbSpline
70
4
71
3
72
8
73
4
40
0
40
0
40
0
40
0
40
1
40
1
40
1
40
1
41
1
10
150.51856103955
20
6.07017832170166
30
0
41
1
10
150.502316553021
20
6.02364244788882
30
0
41
1
10
150.480747131726
20
5.98237819507568
30
0
41
1
10
150.456283441959
20
5.946289773301
30
0
0
SPLINE
5
302
100
AcDbEntity
8
1
62
256
6
ByLayer
370
13
48
1
60
0
100
AcDbSpline
70
4
71
3
72
8
73
4
40
0
40
0
40
0
40
0
40
1
40
1
40
1
40
1
41
1
10
146.680815577298
20
3.43365206454638
30
0
41
1
10
146.68099898873
20
3.43431015297514
30
0
41
1
10
146.6812020906
20
3.43496402472331
30
0
41
1
10
146.681424137004
20
3.4356138448241
30
0
0
SPLINE
5
303
100
AcDbEntity
8
1
62
256
6
ByLayer
370
13
48
1
60
0
100
AcDbSpline
70
4
71
3
72
8
73
4
40
0
40
0
40
0
40
0
40
1
40
1
40
1
40
1
41
1
10
30.01
20
-8.2501503361928
30
0
41
1
10
30.0066666666666
20
-8.25014989386895
30
0
41
1
10
30.0033333333332
20
-8.25014945097345
30
0
41
1
10
30
20
-8.25014900750594
30
0
0
SPLINE
5
304
100
AcDbEntity
8
1
62
256
6
ByLayer
370
13
48
1
60
0
100
AcDbSpline
70
4
71
3
72
10
73
6
40
0
40
0
40
0
40
0
40
0.5
40
0.5
40
1
40
1
40
1
40
1
41
1
10
147.356213053527
20
3.96032702159056
30
0
41
1
10
147.392159600981
20
3.97008422679289
30
0
41
1
10
147.428396256618
20
3.97901825104324
30
0
41
1
10
147.501896033198
20
3.99397370783146
30
0
41
1
10
147.539176856367
20
4.00012773418592
30
0
41
1
10
147.577020110752
20
4.00290410587524
30
0
0
SPLINE
5
305
100
AcDbEntity
8
1
62
256
6
ByLayer
370
13
48
1
60
0
100
AcDbSpline
70
4
71
3
72
38
73
34
40
0
40
0
40
0
40
0
40
0.0213157587005373
40
0.0213157587005373
40
0.0408894435265269
40
0.0408894435265269
40
0.0604631283525166
40
0.0604631283525166
40
0.0800368131785063
40
0.0800368131785063
40
0.0996104980044961
40
0.0996104980044961
40
0.119184182830486
40
0.119184182830486
40
0.128971025243481
40
0.128971025243481
40
0.138757867656475
40
0.138757867656475
40
0.158331552482465
40
0.158331552482465
40
0.177905237308454
40
0.177905237308454
40
0.217052606960432
40
0.217052606960432
40
0.295347346264389
40
0.295347346264389
40
0.373642085568346
40
0.373642085568346
40
0.53023156417626
40
0.53023156417626
40
0.686821042784173
40
0.686821042784173
40
1
40
1
40
1
40
1
41
1
10
124.618462109263
20
-4.62654139585925
30
0
41
1
10
123.961353875493
20
-4.67658264756429
30
0
41
1
10
123.303425100736
20
-4.72096320078964
30
0
41
1
10
122.039830328941
20
-4.79803556042898
30
0
41
1
10
121.434295732774
20
-4.83143146063284
30
0
41
1
10
120.22188385145
20
-4.89245329489071
30
0
41
1
10
119.614984186511
20
-4.91989008400216
30
0
41
1
10
118.39949617941
20
-4.96680115269263
30
0
41
1
10
117.790892765369
20
-4.98615017379345
30
0
41
1
10
116.571758827514
20
-5.01584052956864
30
0
41
1
10
115.961243843026
20
-5.02640239605122
30
0
41
1
10
114.738640636103
20
-5.04195652966206
30
0
41
1
10
114.126661542194
20
-5.04741154104804
30
0
41
1
10
113.208032309901
20
-5.05528017897777
30
0
41
1
10
112.901666550835
20
-5.05767696545382
30
0
41
1
10
112.288388160661
20
-5.06140228834997
30
0
41
1
10
111.981442348411
20
-5.06265497380053
30
0
41
1
10
111.059689241696
20
-5.0644759720125
30
0
41
1
10
110.444187675313
20
-5.06371792617651
30
0
41
1
10
109.213505808881
20
-5.06293789905817
30
0
41
1
10
108.59815634345
20
-5.06250872387133
30
0
41
1
10
106.752120700401
20
-5.06140614812992
30
0
41
1
10
105.521448405709
20
-5.06107801012354
30
0
41
1
10
101.829410212164
20
-5.06155632703812
30
0
41
1
10
99.3680516248174
20
-5.06323698346253
30
0
41
1
10
94.445334064354
20
-5.06491894967965
30
0
41
1
10
91.9839751650087
20
-5.06530324424941
30
0
41
1
10
84.5998982532977
20
-5.06548003375195
30
0
41
1
10
79.6771801717495
20
-5.06472514109313
30
0
41
1
10
69.831744140021
20
-5.06450254321567
30
0
41
1
10
64.9090261190374
20
-5.06475301623001
30
0
41
1
10
50.1408720637113
20
-5.06485152958444
30
0
41
1
10
40.29543603338
20
-5.06433633232723
30
0
41
1
10
30.45
20
-5.06436427572973
30
0
0
SPLINE
5
306
100
AcDbEntity
8
1
62
256
6
ByLayer
370
13
48
1
60
0
100
AcDbSpline
70
4
71
3
72
8
73
4
40
0
40
0
40
0
40
0
40
1
40
1
40
1
40
1
41
1
10
0.5
20
3.071
30
0
41
1
10
0.333306180615665
20
3.071
30
0
41
1
10
0.166638779286316
20
3.071
30
0
41
1
10
0
20
3.071
30
0
0
SPLINE
5
307
100
AcDbEntity
8
1
62
256
6
ByLayer
370
13
48
1
60
0
100
AcDbSpline
70
4
71
3
72
8
73
4
40
0
40
0
40
0
40
0
40
1
40
1
40
1
40
1
41
1
10
150.707627223839
20
8.68254317729728
30
0
41
1
10
150.70354275137
20
8.69077321016314
30
0
41
1
10
150.708824709033
20
8.69832390777225
30
0
41
1
10
150.72335147674
20
8.70524847755206
30
0
0
SPLINE
5
308
100
AcDbEntity
8
1
62
256
6
ByLayer
370
13
48
1
60
0
100
AcDbSpline
70
4
71
3
72
10
73
6
40
0
40
0
40
0
40
0
40
0.682522596305912
40
0.682522596305912
40
1
40
1
40
1
40
1
41
1
10
151.684585663468
20
8.61898017809077
30
0
41
1
10
151.629967598564
20
8.60980823834927
30
0
41
1
10
151.571241859329
20
8.60146767083151
30
0
41
1
10
151.479379522302
20
8.59080468227086
30
0
41
1
10
151.449169520567
20
8.58763965309706
30
0
41
1
10
151.41824959844
20
8.58475028970136
30
0
0
SPLINE
5
309
100
AcDbEntity
8
1
62
256
6
ByLayer
370
13
48
1
60
0
100
AcDbSpline
70
4
71
3
72
14
73
10
40
0
40
0
40
0
40
0
40
0.41850057257568
40
0.41850057257568
40
0.627750858863521
40
0.627750858863521
40
0.837001145151362
40
0.837001145151362
40
1
40
1
40
1
40
1
41
1
10
14.2289829263781
20
-11.9268409413509
30
0
41
1
10
14.2805778606937
20
-11.5701941608199
30
0
41
1
10
14.3513796161722
20
-11.2158304896306
30
0
41
1
10
14.486035337602
20
-10.6875338740382
30
0
41
1
10
14.5356786189241
20
-10.5119784308087
30
0
41
1
10
14.6445958891854
20
-10.1619461635646
30
0
41
1
10
14.7039521126563
20
-9.98729244263322
30
0
41
1
10
14.8174514338305
20
-9.6797098846493
30
0
41
1
10
14.8698871315644
20
-9.54590983519711
30
0
41
1
10
14.9250710722471
20
-9.41299796482576
30
0
0
SPLINE
5
30A
100
AcDbEntity
8
1
62
256
6
ByLayer
370
13
48
1
60
0
100
AcDbSpline
70
4
71
3
72
8
73
4
40
0
40
0
40
0
40
0
40
1
40
1
40
1
40
1
41
1
10
146.25407061545
20
0.626441752665784
30
0
41
1
10
146.602300416589
20
0.509320984492263
30
0
41
1
10
146.958170256614
20
0.436249049198977
30
0
41
1
10
147.321965527062
20
0.409699573518736
30
0
0
SPLINE
5
30B
100
AcDbEntity
8
1
62
256
6
ByLayer
370
13
48
1
60
0
100
AcDbSpline
70
4
71
3
72
10
73
6
40
0
40
0
40
0
40
0
40
0.269032468971348
40
0.269032468971348
40
1
40
1
40
1
40
1
41
1
10
157.1552535718
20
3.90163265547528
30
0
41
1
10
157.147497915018
20
3.89132781797852
30
0
41
1
10
157.139757838201
20
3.88136517261896
30
0
41
1
10
157.11098397051
20
3.84569054740538
30
0
41
1
10
157.090409907944
20
3.82288987842256
30
0
41
1
10
157.069712706983
20
3.80352850399274
30
0
0
SPLINE
5
30C
100
AcDbEntity
8
1
62
256
6
ByLayer
370
13
48
1
60
0
100
AcDbSpline
70
4
71
3
72
40
73
36
40
0
40
0
40
0
40
0
40
0.0625000000000027
40
0.0625000000000027
40
0.125000000000005
40
0.125000000000005
40
0.249999999999998
40
0.249999999999998
40
0.312499999999994
40
0.312499999999994
40
0.374999999999991
40
0.374999999999991
40
0.437499999999987
40
0.437499999999987
40
0.499999999999983
40
0.499999999999983
40
0.624999999999966
40
0.624999999999966
40
0.656249999999968
40
0.656249999999968
40
0.687499999999969
40
0.687499999999969
40
0.749999999999973
40
0.749999999999973
40
0.781249999999978
40
0.781249999999978
40
0.812499999999983
40
0.812499999999983
40
0.874999999999989
40
0.874999999999989
40
0.937499999999994
40
0.937499999999994
40
0.968749999999997
40
0.968749999999997
40
1
40
1
40
1
40
1
41
1
10
149.115407238866
20
0.723946426968752
30
0
41
1
10
149.248786411418
20
0.710603415917404
30
0
41
1
10
149.383540711891
20
0.700050148425277
30
0
41
1
10
149.651947959421
20
0.685480968996359
30
0
41
1
10
149.785879137722
20
0.681420085971837
30
0
41
1
10
150.186785471309
20
0.67973523262944
30
0
41
1
10
150.452882343595
20
0.692503532179302
30
0
41
1
10
150.8498768212
20
0.737105653623786
30
0
41
1
10
150.981882759546
20
0.756304741716946
30
0
41
1
10
151.239838733994
20
0.803221449608088
30
0
41
1
10
151.36643416083
20
0.830994095172173
30
0
41
1
10
151.61455504139
20
0.895719989914141
30
0
41
1
10
151.736082805305
20
0.932669055845992
30
0
41
1
10
151.973602917621
20
1.01659060490613
30
0
41
1
10
152.090154830871
20
1.0638809126846
30
0
41
1
10
152.422316605157
20
1.21856891712883
30
0
41
1
10
152.623003891925
20
1.33916625964019
30
0
41
1
10
152.844803259836
20
1.51437735474087
30
0
41
1
10
152.88770687705
20
1.5506977538565
30
0
41
1
10
152.969160768673
20
1.62471926380516
30
0
41
1
10
153.007891521463
20
1.66255523906642
30
0
41
1
10
153.118137080401
20
1.77852151279373
30
0
41
1
10
153.183726451567
20
1.85910136854335
30
0
41
1
10
153.27004154535
20
1.98496042573638
30
0
41
1
10
153.296796559397
20
2.02774713594798
30
0
41
1
10
153.346171163227
20
2.11503012852154
30
0
41
1
10
153.368869273849
20
2.15970948280202
30
0
41
1
10
153.429901233614
20
2.29495550502304
30
0
41
1
10
153.461123626323
20
2.38634029713188
30
0
41
1
10
153.50545299496
20
2.57144622929698
30
0
41
1
10
153.518556393432
20
2.66516783073823
30
0
41
1
10
153.524633327827
20
2.807501410605
30
0
41
1
10
153.524374932448
20
2.85541446221149
30
0
41
1
10
153.51933187626
20
2.95076178687023
30
0
41
1
10
153.514569537512
20
2.99820554254725
30
0
41
1
10
153.507654955973
20
3.04542847861401
30
0
0
SPLINE
5
30D
100
AcDbEntity
8
1
62
256
6
ByLayer
370
13
48
1
60
0
100
AcDbSpline
70
4
71
3
72
10
73
6
40
0
40
0
40
0
40
0
40
0.5
40
0.5
40
1
40
1
40
1
40
1
41
1
10
152.32278499282
20
3.2126869433728
30
0
41
1
10
152.353640406749
20
3.24441698765329
30
0
41
1
10
152.387130996578
20
3.28366678843949
30
0
41
1
10
152.452117324345
20
3.37544291875551
30
0
41
1
10
152.4827374818
20
3.42653094260433
30
0
41
1
10
152.50987507685
20
3.48396608979101
30
0
0
SPLINE
5
30E
100
AcDbEntity
8
1
62
256
6
ByLayer
370
13
48
1
60
0
100
AcDbSpline
70
4
71
3
72
34
73
30
40
0
40
0
40
0
40
0
40
0.125000000000001
40
0.125000000000001
40
0.156250000000001
40
0.156250000000001
40
0.187500000000001
40
0.187500000000001
40
0.250000000000001
40
0.250000000000001
40
0.312500000000001
40
0.312500000000001
40
0.375000000000001
40
0.375000000000001
40
0.437500000000001
40
0.437500000000001
40
0.500000000000001
40
0.500000000000001
40
0.562500000000001
40
0.562500000000001
40
0.625000000000001
40
0.625000000000001
40
0.750000000000001
40
0.750000000000001
40
0.812500000000001
40
0.812500000000001
40
0.875
40
0.875
40
1
40
1
40
1
40
1
41
1
10
14.2283837427352
20
-13.3577366774568
30
0
41
1
10
14.1280249737208
20
-13.5025284164134
30
0
41
1
10
14.0594175338059
20
-13.6422004165317
30
0
41
1
10
14.0160116484189
20
-13.8100964676829
30
0
41
1
10
14.00950899959
20
-13.8433716882357
30
0
41
1
10
14.0011432086924
20
-13.9081208841627
30
0
41
1
10
13.999236027879
20
-13.9397362101062
30
0
41
1
10
14.0003178531052
20
-14.0323289669852
30
0
41
1
10
14.0099354651447
20
-14.091088527531
30
0
41
1
10
14.046373532296
20
-14.2027729288184
30
0
41
1
10
14.0735104754937
20
-14.2560303621655
30
0
41
1
10
14.1433448940851
20
-14.3540416786924
30
0
41
1
10
14.1859715240801
20
-14.3990295644181
30
0
41
1
10
14.2859076866928
20
-14.4813265652645
30
0
41
1
10
14.3434167753495
20
-14.5187190048592
30
0
41
1
10
14.4725457873974
20
-14.5853606078605
30
0
41
1
10
14.543194052846
20
-14.6141551218364
30
0
41
1
10
14.6960458908299
20
-14.6632019961104
30
0
41
1
10
14.7782540749698
20
-14.6834512627075
30
0
41
1
10
14.9542716236911
20
-14.71545869403
30
0
41
1
10
15.0485276071453
20
-14.7271898382736
30
0
41
1
10
15.3412174933518
20
-14.7493353413202
30
0
41
1
10
15.5512874277491
20
-14.7473410981595
30
0
41
1
10
15.8871362984478
20
-14.7209293659532
30
0
41
1
10
16.001755712166
20
-14.7082128180097
30
0
41
1
10
16.2332946814767
20
-14.6756572654579
30
0
41
1
10
16.3506436204873
20
-14.6557849645328
30
0
41
1
10
16.707338885217
20
-14.585633239742
30
0
41
1
10
16.9528643027785
20
-14.5243944102768
30
0
41
1
10
17.1991308167727
20
-14.4501312318719
30
0
0
SPLINE
5
30F
100
AcDbEntity
8
1
62
256
6
ByLayer
370
13
48
1
60
0
100
AcDbSpline
70
4
71
3
72
16
73
12
40
0
40
0
40
0
40
0
40
0.249999999999999
40
0.249999999999999
40
0.374999999999999
40
0.374999999999999
40
0.499999999999999
40
0.499999999999999
40
0.75
40
0.75
40
1
40
1
40
1
40
1
41
1
10
14.2289829263781
20
-11.9268409413509
30
0
41
1
10
14.1455680964669
20
-12.06219366785
30
0
41
1
10
14.0816445506218
20
-12.1957909087457
30
0
41
1
10
14.0158525241367
20
-12.393550104518
30
0
41
1
10
13.9989612951092
20
-12.4591821158622
30
0
41
1
10
13.97624809723
20
-12.5888831637647
30
0
41
1
10
13.9705785336628
20
-12.6519689182323
30
0
41
1
10
13.9705840038736
20
-12.8360254603447
30
0
41
1
10
13.9927218265294
20
-12.9519116467562
30
0
41
1
10
14.0805465090209
20
-13.1700026216095
30
0
41
1
10
14.1448836516242
20
-13.2688366554287
30
0
41
1
10
14.2283837427351
20
-13.3577366774568
30
0
0
SPLINE
5
310
100
AcDbEntity
8
1
62
256
6
ByLayer
370
13
48
1
60
0
100
AcDbSpline
70
4
71
3
72
8
73
4
40
0
40
0
40
0
40
0
40
1
40
1
40
1
40
1
41
1
10
146.827390052144
20
8.52634343075556
30
0
41
1
10
146.636305699546
20
8.53741037532981
30
0
41
1
10
146.445204267608
20
8.54727616085043
30
0
41
1
10
146.254070615451
20
8.55593779051304
30
0
0
SPLINE
5
311
100
AcDbEntity
8
1
62
256
6
ByLayer
370
13
48
1
60
0
100
AcDbSpline
70
4
71
3
72
8
73
4
40
0
40
0
40
0
40
0
40
1
40
1
40
1
40
1
41
1
10
35
20
-2.93613725551646
30
0
41
1
10
33.3333333268391
20
-2.93610263494099
30
0
41
1
10
31.6666666319307
20
-2.93621491486306
30
0
41
1
10
30
20
-2.93656597199976
30
0
0
SPLINE
5
312
100
AcDbEntity
8
1
62
256
6
ByLayer
370
13
48
1
60
0
100
AcDbSpline
70
4
71
3
72
36
73
32
40
0
40
0
40
0
40
0
40
0.125
40
0.125
40
0.187499999999999
40
0.187499999999999
40
0.249999999999999
40
0.249999999999999
40
0.374999999999999
40
0.374999999999999
40
0.437499999999998
40
0.437499999999998
40
0.499999999999998
40
0.499999999999998
40
0.562499999999997
40
0.562499999999997
40
0.593749999999997
40
0.593749999999997
40
0.624999999999997
40
0.624999999999997
40
0.749999999999997
40
0.749999999999997
40
0.781249999999998
40
0.781249999999998
40
0.812499999999998
40
0.812499999999998
40
0.874999999999999
40
0.874999999999999
40
0.937499999999999
40
0.937499999999999
40
1
40
1
40
1
40
1
41
1
10
17.1990798788107
20
-8.20826646019844
30
0
41
1
10
16.9523169652042
20
-8.27175711436621
30
0
41
1
10
16.7102153464534
20
-8.35305797317042
30
0
41
1
10
16.353691084064
20
-8.50046848433001
30
0
41
1
10
16.2359662782792
20
-8.55389345445235
30
0
41
1
10
16.0028419714935
20
-8.66968496337796
30
0
41
1
10
15.8875316312885
20
-8.73208972697441
30
0
41
1
10
15.5537291112399
20
-8.92850289856693
30
0
41
1
10
15.3442681105709
20
-9.07292010236517
30
0
41
1
10
15.0515970463634
20
-9.31177159277055
30
0
41
1
10
14.9569821548141
20
-9.39582549668486
30
0
41
1
10
14.7803435234073
20
-9.56797462964627
30
0
41
1
10
14.698084733742
20
-9.65611234634969
30
0
41
1
10
14.5454651583365
20
-9.83639676698834
30
0
41
1
10
14.4751013091347
20
-9.92854228279811
30
0
41
1
10
14.3787882240476
20
-10.0698495559399
30
0
41
1
10
14.3482278507223
20
-10.1174686846245
30
0
41
1
10
14.2903202759262
20
-10.213780577546
30
0
41
1
10
14.2629730450274
20
-10.2625116756089
30
0
41
1
10
14.1366737932278
20
-10.5048923608212
30
0
41
1
10
14.0663628504684
20
-10.6978780598788
30
0
41
1
10
14.0198041096134
20
-10.9380386138475
30
0
41
1
10
14.0125820622205
20
-10.9862234548848
30
0
41
1
10
14.0027023671067
20
-11.081389346834
30
0
41
1
10
14.0000319982117
20
-11.1282777514998
30
0
41
1
10
13.9987787328529
20
-11.2668906082206
30
0
41
1
10
14.0070565584626
20
-11.3565482743088
30
0
41
1
10
14.041094622991
20
-11.5305209413751
30
0
41
1
10
14.0670184178395
20
-11.6152090341953
30
0
41
1
10
14.1359168577626
20
-11.7773783678977
30
0
41
1
10
14.178501500265
20
-11.8541864004965
30
0
41
1
10
14.228982926378
20
-11.9268409413509
30
0
0
SPLINE
5
313
100
AcDbEntity
8
1
62
256
6
ByLayer
370
13
48
1
60
0
100
AcDbSpline
70
4
71
3
72
8
73
4
40
0
40
0
40
0
40
0
40
1
40
1
40
1
40
1
41
1
10
147.356213053529
20
3.96032702158669
30
0
41
1
10
147.328290625281
20
3.95144054034674
30
0
41
1
10
147.298601140721
20
3.94674126044654
30
0
41
1
10
147.268008541932
20
3.94539063391008
30
0
0
SPLINE
5
314
100
AcDbEntity
8
1
62
256
6
ByLayer
370
13
48
1
60
0
100
AcDbSpline
70
4
71
3
72
8
73
4
40
0
40
0
40
0
40
0
40
1
40
1
40
1
40
1
41
1
10
152.249771340831
20
3.17153466377491
30
0
41
1
10
152.2457247003
20
3.16554272028111
30
0
41
1
10
152.242333468561
20
3.16033420663234
30
0
41
1
10
152.239751446148
20
3.15601779640878
30
0
0
SPLINE
5
315
100
AcDbEntity
8
1
62
256
6
ByLayer
370
13
48
1
60
0
100
AcDbSpline
70
4
71
3
72
12
73
8
40
0
40
0
40
0
40
0
40
0.186307396162717
40
0.186307396162717
40
0.593153698081359
40
0.593153698081359
40
1
40
1
40
1
40
1
41
1
10
152.236068122758
20
3.14135710251247
30
0
41
1
10
152.237594863452
20
3.14136688206938
30
0
41
1
10
152.239991520729
20
3.14227340802802
30
0
41
1
10
152.250280693852
20
3.14797436218129
30
0
41
1
10
152.261253340525
20
3.15599889365677
30
0
41
1
10
152.288851699809
20
3.17941852924457
30
0
41
1
10
152.305051634729
20
3.19445091391097
30
0
41
1
10
152.322784992821
20
3.21268694337388
30
0
0
SPLINE
5
316
100
AcDbEntity
8
1
62
256
6
ByLayer
370
13
48
1
60
0
100
AcDbSpline
70
4
71
3
72
8
73
4
40
0
40
0
40
0
40
0
40
1
40
1
40
1
40
1
41
1
10
149.563252543219
20
3.08493455537868
30
0
41
1
10
149.732792331199
20
2.97812621060268
30
0
41
1
10
149.908081160002
20
2.9053974605948
30
0
41
1
10
150.093108460879
20
2.86980899500719
30
0
0
SPLINE
5
317
100
AcDbEntity
8
1
62
256
6
ByLayer
370
13
48
1
60
0
100
AcDbSpline
70
4
71
3
72
18
73
14
40
0
40
0
40
0
40
0
40
0.236770639514188
40
0.236770639514188
40
0.473541279028375
40
0.473541279028375
40
0.710311918542563
40
0.710311918542563
40
0.828697238299659
40
0.828697238299659
40
0.947082558056755
40
0.947082558056755
40
1
40
1
40
1
40
1
41
1
10
146.254070615451
20
8.55593779051304
30
0
41
1
10
144.978232259456
20
8.65464065636351
30
0
41
1
10
143.704791331706
20
8.69701367439913
30
0
41
1
10
141.153845314875
20
8.66712505477719
30
0
41
1
10
139.879943779156
20
8.59501912539639
30
0
41
1
10
137.328842606789
20
8.33899576112395
30
0
41
1
10
136.054950792491
20
8.15543664707516
30
0
41
1
10
134.142902125825
20
7.80012537860415
30
0
41
1
10
133.50652209871
20
7.66815022698253
30
0
41
1
10
132.232418908853
20
7.38056759831676
30
0
41
1
10
131.593817189726
20
7.22546622953141
30
0
41
1
10
130.666175932124
20
6.990070782099
30
0
41
1
10
130.379287704457
20
6.91591720851926
30
0
41
1
10
130.092041146057
20
6.84048495619714
30
0
0
SPLINE
5
318
100
AcDbEntity
8
1
62
256
6
ByLayer
370
13
48
1
60
0
100
AcDbSpline
70
4
71
3
72
10
73
6
40
0
40
0
40
0
40
0
40
0.5
40
0.5
40
1
40
1
40
1
40
1
41
1
10
81.6
20
-8.66628987637836
30
0
41
1
10
73.8333331122791
20
-8.68159493970899
30
0
41
1
10
66.0666685597901
20
-8.6970985406868
30
0
41
1
10
50.5333352680432
20
-8.72771108740002
30
0
41
1
10
42.766667086438
20
-8.74286698782154
30
0
41
1
10
35
20
-8.75813176152118
30
0
0
SPLINE
5
319
100
AcDbEntity
8
1
62
256
6
ByLayer
370
13
48
1
60
0
100
AcDbSpline
70
4
71
3
72
8
73
4
40
0
40
0
40
0
40
0
40
1
40
1
40
1
40
1
41
1
10
148.851623889586
20
4.23857912382937
30
0
41
1
10
148.849902962725
20
4.24682778819783
30
0
41
1
10
148.848097095628
20
4.25506137757682
30
0
41
1
10
148.846209913578
20
4.26325631296743
30
0
0
SPLINE
5
31A
100
AcDbEntity
8
1
62
256
6
ByLayer
370
13
48
1
60
0
100
AcDbSpline
70
4
71
1
72
4
73
2
40
0
40
0
40
1
40
1
41
1
10
30
20
-8.25014900747618
30
0
41
1
10
30
20
-8.75814931725685
30
0
0
SPLINE
5
31B
100
AcDbEntity
8
1
62
256
6
ByLayer
370
13
48
1
60
0
100
AcDbSpline
70
4
71
3
72
8
73
4
40
0
40
0
40
0
40
0
40
1
40
1
40
1
40
1
41
1
10
152.697952855921
20
3.61383360952203
30
0
41
1
10
152.694751315682
20
3.61366582390781
30
0
41
1
10
152.69154977082
20
3.61349803805132
30
0
41
1
10
152.688348221388
20
3.61333025195529
30
0
0
SPLINE
5
31C
100
AcDbEntity
8
1
62
256
6
ByLayer
370
13
48
1
60
0
100
AcDbSpline
70
4
71
3
72
40
73
36
40
0
40
0
40
0
40
0
40
0.125000000000011
40
0.125000000000011
40
0.187500000000011
40
0.187500000000011
40
0.25000000000001
40
0.25000000000001
40
0.312500000000009
40
0.312500000000009
40
0.375000000000009
40
0.375000000000009
40
0.406250000000008
40
0.406250000000008
40
0.437500000000008
40
0.437500000000008
40
0.468750000000007
40
0.468750000000007
40
0.500000000000007
40
0.500000000000007
40
0.562500000000006
40
0.562500000000006
40
0.625000000000005
40
0.625000000000005
40
0.687500000000004
40
0.687500000000004
40
0.750000000000004
40
0.750000000000004
40
0.812500000000003
40
0.812500000000003
40
0.875000000000002
40
0.875000000000002
40
0.937500000000001
40
0.937500000000001
40
1
40
1
40
1
40
1
41
1
10
152.643152940947
20
3.52296227969168
30
0
41
1
10
152.598541451203
20
3.40244469586338
30
0
41
1
10
152.537264233703
20
3.29600167676284
30
0
41
1
10
152.427489869844
20
3.15855270992733
30
0
41
1
10
152.388235630864
20
3.11681842791947
30
0
41
1
10
152.304323225488
20
3.04057353331265
30
0
41
1
10
152.25942130822
20
3.00590848815133
30
0
41
1
10
152.164480336555
20
2.94435238073689
30
0
41
1
10
152.114700020119
20
2.91751925670556
30
0
41
1
10
152.008098692507
20
2.87144132884171
30
0
41
1
10
151.950672715415
20
2.85202534193385
30
0
41
1
10
151.858087417758
20
2.8302592865621
30
0
41
1
10
151.825859372461
20
2.82417034593101
30
0
41
1
10
151.759096789108
20
2.81483941430949
30
0
41
1
10
151.725367461044
20
2.81170004309482
30
0
41
1
10
151.657202269575
20
2.80841451276595
30
0
41
1
10
151.622392163931
20
2.80828922775962
30
0
41
1
10
151.554090531561
20
2.81094982107717
30
0
41
1
10
151.520781807827
20
2.81368074474597
30
0
41
1
10
151.42257558883
20
2.82556809052309
30
0
41
1
10
151.359058702683
20
2.83851822862823
30
0
41
1
10
151.238069134573
20
2.87241254321651
30
0
41
1
10
151.180033622933
20
2.89343029919146
30
0
41
1
10
151.067435152074
20
2.94369278502936
30
0
41
1
10
151.012531475996
20
2.97320449314123
30
0
41
1
10
150.908172338537
20
3.03995120239631
30
0
41
1
10
150.858699551424
20
3.0771004707035
30
0
41
1
10
150.765136826234
20
3.15958149987657
30
0
41
1
10
150.721043796357
20
3.20489622570364
30
0
41
1
10
150.638883199525
20
3.3052523023444
30
0
41
1
10
150.601888510815
20
3.35903250211072
30
0
41
1
10
150.537125849471
20
3.47399403986068
30
0
41
1
10
150.509019009793
20
3.53610702176565
30
0
41
1
10
150.465160070172
20
3.6647521160819
30
0
41
1
10
150.449252243916
20
3.73113821035324
30
0
41
1
10
150.439875800416
20
3.79984166658417
30
0
0
SPLINE
5
31D
100
AcDbEntity
8
1
62
256
6
ByLayer
370
13
48
1
60
0
100
AcDbSpline
70
4
71
3
72
8
73
4
40
0
40
0
40
0
40
0
40
1
40
1
40
1
40
1
41
1
10
-2.84E-14
20
-17.9929783685108
30
0
41
1
10
0.166638784444743
20
-18.1391640353882
30
0
41
1
10
0.333306170116629
20
-18.285325253643
30
0
41
1
10
0.499999999999972
20
-18.4314638449542
30
0
0
SPLINE
5
31E
100
AcDbEntity
8
1
62
256
6
ByLayer
370
13
48
1
60
0
100
AcDbSpline
70
4
71
3
72
16
73
12
40
0
40
0
40
0
40
0
40
0.0811483501346757
40
0.0811483501346757
40
0.310861262601007
40
0.310861262601007
40
0.425717718834172
40
0.425717718834172
40
0.540574175067338
40
0.540574175067338
40
1
40
1
40
1
40
1
41
1
10
15.9727890104737
20
-8.67104870457851
30
0
41
1
10
15.8972055242513
20
-8.78792807232901
30
0
41
1
10
15.8237899207836
20
-8.90583078700362
30
0
41
1
10
15.5508722684518
20
-9.36140340764308
30
0
41
1
10
15.3670532414202
20
-9.70640158214172
30
0
41
1
10
15.1187075483129
20
-10.237017259758
30
0
41
1
10
15.0406991024942
20
-10.415549641375
30
0
41
1
10
14.8946923895559
20
-10.7741456712288
30
0
41
1
10
14.8265720120447
20
-10.9544670528584
30
0
41
1
10
14.5097708509789
20
-11.8610181144859
30
0
41
1
10
14.3314319611511
20
-12.6018718745179
30
0
41
1
10
14.2283837427352
20
-13.3577366774568
30
0
0
SPLINE
5
31F
100
AcDbEntity
8
1
62
256
6
ByLayer
370
13
48
1
60
0
100
AcDbSpline
70
4
71
3
72
8
73
4
40
0
40
0
40
0
40
0
40
1
40
1
40
1
40
1
41
1
10
152.178783723468
20
3.51824376232099
30
0
41
1
10
152.187590920123
20
3.51583875935569
30
0
41
1
10
152.196214772655
20
3.51348347563396
30
0
41
1
10
152.204664881553
20
3.51121386909568
30
0
0
SPLINE
5
320
100
AcDbEntity
8
1
62
256
6
ByLayer
370
13
48
1
60
0
100
AcDbSpline
70
4
71
3
72
14
73
10
40
0
40
0
40
0
40
0
40
0.25
40
0.25
40
0.5
40
0.5
40
0.75
40
0.75
40
1
40
1
40
1
40
1
41
1
10
146.681424137003
20
3.4356138448241
30
0
41
1
10
146.692694665661
20
3.46859711297981
30
0
41
1
10
146.703272743849
20
3.50601585468382
30
0
41
1
10
146.723339965163
20
3.58619930241946
30
0
41
1
10
146.732693348391
20
3.62840125163936
30
0
41
1
10
146.751215477645
20
3.71690141017635
30
0
41
1
10
146.759958943522
20
3.76147116285165
30
0
41
1
10
146.778577183171
20
3.85035357989489
30
0
41
1
10
146.787783041197
20
3.89377470319744
30
0
41
1
10
146.80121280986
20
3.93399555056277
30
0
0
SPLINE
5
321
100
AcDbEntity
8
1
62
256
6
ByLayer
370
13
48
1
60
0
100
AcDbSpline
70
4
71
3
72
42
73
38
40
0
40
0
40
0
40
0
40
0.103236478604552
40
0.103236478604552
40
0.154854717906829
40
0.154854717906829
40
0.206472957209106
40
0.206472957209106
40
0.30970943581366
40
0.30970943581366
40
0.412945914418213
40
0.412945914418213
40
0.464564153720489
40
0.464564153720489
40
0.516182393022765
40
0.516182393022765
40
0.541991512673903
40
0.541991512673903
40
0.567800632325041
40
0.567800632325041
40
0.619418871627316
40
0.619418871627316
40
0.722655350231865
40
0.722655350231865
40
0.77427358953414
40
0.77427358953414
40
0.800082709185277
40
0.800082709185277
40
0.825891828836414
40
0.825891828836414
40
0.87751006813869
40
0.87751006813869
40
0.929128307440965
40
0.929128307440965
40
0.980746546743241
40
0.980746546743241
40
1
40
1
40
1
40
1
41
1
10
145.073534021321
20
1.1827925280615
30
0
41
1
10
143.817520793808
20
1.74401941149031
30
0
41
1
10
142.563748217102
20
2.29529260648678
30
0
41
1
10
140.68098793471
20
3.09563096858011
30
0
41
1
10
140.053045212717
20
3.35796955057694
30
0
41
1
10
138.795498058811
20
3.87175172586208
30
0
41
1
10
138.165728500803
20
4.12322219262484
30
0
41
1
10
136.283951358501
20
4.85416336309822
30
0
41
1
10
135.03573009605
20
5.31173322365942
30
0
41
1
10
132.544928518157
20
6.15488589590527
30
0
41
1
10
131.302685399139
20
6.54095723699101
30
0
41
1
10
129.437342433506
20
7.05551646177258
30
0
41
1
10
128.814935177542
20
7.21577352880044
30
0
41
1
10
127.564301373144
20
7.50870563885735
30
0
41
1
10
126.936076137387
20
7.64135484133013
30
0
41
1
10
125.985324320598
20
7.81723807803104
30
0
41
1
10
125.666998293738
20
7.87203579971177
30
0
41
1
10
125.026822546688
20
7.97386060413723
30
0
41
1
10
124.704988617949
20
8.02091654344676
30
0
41
1
10
123.734585083574
20
8.15183849947016
30
0
41
1
10
123.08063269417
20
8.22551776406971
30
0
41
1
10
121.112957393037
20
8.41398803662307
30
0
41
1
10
119.78985647936
20
8.49743013810328
30
0
41
1
10
117.790337445164
20
8.58473811504916
30
0
41
1
10
117.121386336493
20
8.60735676457563
30
0
41
1
10
116.112833361363
20
8.63338477679292
30
0
41
1
10
115.775793384903
20
8.64075241073857
30
0
41
1
10
115.099751362945
20
8.65325986021128
30
0
41
1
10
114.760447735518
20
8.65839973155425
30
0
41
1
10
113.741965037116
20
8.67111509895685
30
0
41
1
10
113.062229501145
20
8.67608233800837
30
0
41
1
10
111.701399706344
20
8.68243305369444
30
0
41
1
10
111.020322561491
20
8.68380755405551
30
0
41
1
10
109.656845005505
20
8.6851161625915
30
0
41
1
10
108.974384203702
20
8.68504445243488
30
0
41
1
10
108.036419093134
20
8.68489426122807
30
0
41
1
10
107.781509177654
20
8.68484787480938
30
0
41
1
10
107.526519996008
20
8.68480310270573
30
0
0
SPLINE
5
322
100
AcDbEntity
8
1
62
256
6
ByLayer
370
13
48
1
60
0
100
AcDbSpline
70
4
71
3
72
8
73
4
40
0
40
0
40
0
40
0
40
1
40
1
40
1
40
1
41
1
10
146.595270250823
20
3.14543766687581
30
0
41
1
10
146.625782268212
20
3.24115222034516
30
0
41
1
10
146.653957593458
20
3.33728441659721
30
0
41
1
10
146.680815577298
20
3.43365206454641
30
0
0
SPLINE
5
323
100
AcDbEntity
8
1
62
256
6
ByLayer
370
13
48
1
60
0
100
AcDbSpline
70
4
71
3
72
30
73
26
40
0
40
0
40
0
40
0
40
0.249999999999999
40
0.249999999999999
40
0.374999999999999
40
0.374999999999999
40
0.499999999999999
40
0.499999999999999
40
0.624999999999999
40
0.624999999999999
40
0.640624999999999
40
0.640624999999999
40
0.656249999999999
40
0.656249999999999
40
0.687499999999999
40
0.687499999999999
40
0.749999999999999
40
0.749999999999999
40
0.875
40
0.875
40
0.90625
40
0.90625
40
0.9375
40
0.9375
40
1
40
1
40
1
40
1
41
1
10
17.196096224388
20
-14.4510460917335
30
0
41
1
10
18.21614522585
20
-14.1436043697173
30
0
41
1
10
19.1945339706962
20
-13.7690013069442
30
0
41
1
10
20.6014554741066
20
-13.1093029004038
30
0
41
1
10
21.0602663061484
20
-12.8730194501643
30
0
41
1
10
21.957224047564
20
-12.3671398227748
30
0
41
1
10
22.3957214959473
20
-12.0973129702996
30
0
41
1
10
23.2497596868022
20
-11.5240349864654
30
0
41
1
10
23.6634449212247
20
-11.22187192192
30
0
41
1
10
24.1134401778978
20
-10.8640081441182
30
0
41
1
10
24.1632252973842
20
-10.8239959390956
30
0
41
1
10
24.2623646305739
20
-10.7434698429543
30
0
41
1
10
24.3119450198203
20
-10.7032192788311
30
0
41
1
10
24.4626136413581
20
-10.5847116426093
30
0
41
1
10
24.5648852913385
20
-10.5078323756449
30
0
41
1
10
24.8771556969295
20
-10.2835461401159
30
0
41
1
10
25.0925962880598
20
-10.1424748795511
30
0
41
1
10
25.7610057532148
20
-9.74497689997997
30
0
41
1
10
26.2357819750947
20
-9.51393959007345
30
0
41
1
10
26.8703953752732
20
-9.27304421900118
30
0
41
1
10
26.9989736391123
20
-9.22746776131299
30
0
41
1
10
27.2571127099121
20
-9.1423610380364
30
0
41
1
10
27.3870137327659
20
-9.1026994289052
30
0
41
1
10
27.7792067849838
20
-8.9923742829634
30
0
41
1
10
28.0439834704617
20
-8.93035189944092
30
0
41
1
10
28.3121287673225
20
-8.88004489462512
30
0
0
SPLINE
5
324
100
AcDbEntity
8
1
62
256
6
ByLayer
370
13
48
1
60
0
100
AcDbSpline
70
4
71
3
72
10
73
6
40
0
40
0
40
0
40
0
40
0.392785721598203
40
0.392785721598203
40
1
40
1
40
1
40
1
41
1
10
30.45
20
-8.23642047111497
30
0
41
1
10
30.45
20
-7.82110767697458
30
0
41
1
10
30.45
20
-7.40579488293454
30
0
41
1
10
30.45
20
-6.34844281766661
30
0
41
1
10
30.45
20
-5.70640354657817
30
0
41
1
10
30.45
20
-5.06436427572973
30
0
0
SPLINE
5
325
100
AcDbEntity
8
1
62
256
6
ByLayer
370
13
48
1
60
0
100
AcDbSpline
70
4
71
3
72
8
73
4
40
0
40
0
40
0
40
0
40
1
40
1
40
1
40
1
41
1
10
0.499999999999986
20
-15.3604638449542
30
0
41
1
10
0.333306170116629
20
-15.214325253643
30
0
41
1
10
0.166638784444743
20
-15.0681640353882
30
0
41
1
10
-1.42E-14
20
-14.9219783685108
30
0
0
SPLINE
5
326
100
AcDbEntity
8
1
62
256
6
ByLayer
370
13
48
1
60
0
100
AcDbSpline
70
4
71
3
72
10
73
6
40
0
40
0
40
0
40
0
40
0.5
40
0.5
40
1
40
1
40
1
40
1
41
1
10
153.521618694176
20
3.85727457617585
30
0
41
1
10
153.564542188211
20
3.85952410117733
30
0
41
1
10
153.607090509905
20
3.85622620066178
30
0
41
1
10
153.691141215661
20
3.83926875500367
30
0
41
1
10
153.73044018849
20
3.8260235498355
30
0
41
1
10
153.766999383691
20
3.80944520010141
30
0
0
SPLINE
5
327
100
AcDbEntity
8
1
62
256
6
ByLayer
370
13
48
1
60
0
100
AcDbSpline
70
4
71
3
72
18
73
14
40
0
40
0
40
0
40
0
40
0.326324249002735
40
0.326324249002735
40
0.489486373504103
40
0.489486373504103
40
0.652648498005472
40
0.652648498005472
40
0.81581062250684
40
0.81581062250684
40
0.978972747008208
40
0.978972747008208
40
1
40
1
40
1
40
1
41
1
10
30.01
20
-5.06436427572973
30
0
41
1
10
30.01
20
-4.85305128547424
30
0
41
1
10
30.01
20
-4.62333871335824
30
0
41
1
10
30.01
20
-4.26081452244293
30
0
41
1
10
30.01
20
-4.13957740201582
30
0
41
1
10
30.01
20
-3.89633242802336
30
0
41
1
10
30.01
20
-3.77306232253551
30
0
41
1
10
30.01
20
-3.53302595529564
30
0
41
1
10
30.01
20
-3.41633861126761
30
0
41
1
10
30.01
20
-3.18955537146735
30
0
41
1
10
30.01
20
-3.07861336652525
30
0
41
1
10
30.01
20
-2.96186271060537
30
0
41
1
10
30.0100000000001
20
-2.94863348366329
30
0
41
1
10
30.0100000000001
20
-2.93550627573254
30
0
0
SPLINE
5
328
100
AcDbEntity
8
1
62
256
6
ByLayer
370
13
48
1
60
0
100
AcDbSpline
70
4
71
3
72
10
73
6
40
0
40
0
40
0
40
0
40
0.5
40
0.5
40
1
40
1
40
1
40
1
41
1
10
158.071070459634
20
0.238241553035351
30
0
41
1
10
158.069591256167
20
0.266699400723724
30
0
41
1
10
158.068632157569
20
0.294876701678902
30
0
41
1
10
158.067765925472
20
0.35063978816018
30
0
41
1
10
158.067870057976
20
0.378381122944802
30
0
41
1
10
158.068483477033
20
0.404874967579332
30
0
0
SPLINE
5
329
100
AcDbEntity
8
1
62
256
6
ByLayer
370
13
48
1
60
0
100
AcDbSpline
70
4
71
3
72
54
73
50
40
0
40
0
40
0
40
0
40
0.0170549601419772
40
0.0170549601419772
40
0.0342996099640482
40
0.0342996099640482
40
0.0515442597861193
40
0.0515442597861193
40
0.0687889096081903
40
0.0687889096081903
40
0.0860335594302613
40
0.0860335594302613
40
0.103278209252332
40
0.103278209252332
40
0.137767508896475
40
0.137767508896475
40
0.172256808540617
40
0.172256808540617
40
0.180879133451653
40
0.180879133451653
40
0.189501458362688
40
0.189501458362688
40
0.198123783273724
40
0.198123783273724
40
0.206746108184759
40
0.206746108184759
40
0.215368433095795
40
0.215368433095795
40
0.22399075800683
40
0.22399075800683
40
0.232613082917866
40
0.232613082917866
40
0.241235407828901
40
0.241235407828901
40
0.258480057650972
40
0.258480057650972
40
0.275724707473042
40
0.275724707473042
40
0.310214007117183
40
0.310214007117183
40
0.379192606405465
40
0.379192606405465
40
0.448171205693747
40
0.448171205693747
40
0.58612840427031
40
0.58612840427031
40
0.724085602846873
40
0.724085602846873
40
1
40
1
40
1
40
1
41
1
10
133.998613748564
20
-6.97248912680803
30
0
41
1
10
133.451616681539
20
-7.09514223659093
30
0
41
1
10
132.903997970162
20
-7.21045138785522
30
0
41
1
10
131.800035389443
20
-7.41881675996012
30
0
41
1
10
131.244479302113
20
-7.5109283630855
30
0
41
1
10
130.127453728105
20
-7.67967367947037
30
0
41
1
10
129.566025689945
20
-7.75651354726566
30
0
41
1
10
128.43703973102
20
-7.88988273133705
30
0
41
1
10
127.869426096721
20
-7.94621579757782
30
0
41
1
10
126.727857078506
20
-8.03914736621908
30
0
41
1
10
126.153964802629
20
-8.07613479721013
30
0
41
1
10
125.00040272178
20
-8.13760254287214
30
0
41
1
10
124.420413613441
20
-8.16242183611033
30
0
41
1
10
122.676765054181
20
-8.22505595225525
30
0
41
1
10
121.508346071004
20
-8.24921273618304
30
0
41
1
10
119.156653848509
20
-8.26770330230698
30
0
41
1
10
117.973376187664
20
-8.26323331739448
30
0
41
1
10
116.484033920851
20
-8.25899345405827
30
0
41
1
10
116.185610215705
20
-8.25827532664852
30
0
41
1
10
115.588778737042
20
-8.25790248897511
30
0
41
1
10
115.290250145336
20
-8.2584053175502
30
0
41
1
10
114.692991054453
20
-8.25908048700347
30
0
41
1
10
114.394258433622
20
-8.25913806422986
30
0
41
1
10
113.796584515319
20
-8.25604329590197
30
0
41
1
10
113.497646503639
20
-8.2524727508852
30
0
41
1
10
112.89950997573
20
-8.24375564518783
30
0
41
1
10
112.600313721638
20
-8.23886911448176
30
0
41
1
10
112.001641226501
20
-8.23322769821692
30
0
41
1
10
111.702155335696
20
-8.23320742080233
30
0
41
1
10
111.102966590473
20
-8.23605494888531
30
0
41
1
10
110.80326859863
20
-8.23866557407538
30
0
41
1
10
110.203779065114
20
-8.24286655664045
30
0
41
1
10
109.903991750871
20
-8.24412657779257
30
0
41
1
10
109.004600267824
20
-8.24577868942106
30
0
41
1
10
108.404949179366
20
-8.24476173914914
30
0
41
1
10
107.205644671088
20
-8.242377148934
30
0
41
1
10
106.605992571055
20
-8.24104356693329
30
0
41
1
10
104.807035535005
20
-8.23774408202192
30
0
41
1
10
103.607729748421
20
-8.23658713630476
30
0
41
1
10
100.00981051813
20
-8.23490520618304
30
0
41
1
10
97.6111957043891
20
-8.23581829081851
30
0
41
1
10
92.8139674865456
20
-8.23709310736376
30
0
41
1
10
90.4153533905219
20
-8.23789910491408
30
0
41
1
10
83.2195110942592
20
-8.23977619825885
30
0
41
1
10
78.4222828659174
20
-8.23987233399947
30
0
41
1
10
68.8278263293739
20
-8.23774503250513
30
0
41
1
10
64.0305980416758
20
-8.23588281164822
30
0
41
1
10
49.6389131865798
20
-8.23377640498057
30
0
41
1
10
40.0444565963831
20
-8.23624592875362
30
0
41
1
10
30.45
20
-8.23642047111497
30
0
0
SPLINE
5
32A
100
AcDbEntity
8
1
62
256
6
ByLayer
370
13
48
1
60
0
100
AcDbSpline
70
4
71
3
72
12
73
8
40
0
40
0
40
0
40
0
40
0.5
40
0.5
40
0.75
40
0.75
40
1
40
1
40
1
40
1
41
1
10
148.376657459868
20
2.46026168758951
30
0
41
1
10
148.490598618431
20
2.63797206478444
30
0
41
1
10
148.600964750631
20
2.81509214512695
30
0
41
1
10
148.769616317573
20
3.07399117816067
30
0
41
1
10
148.826361979818
20
3.15915355288033
30
0
41
1
10
148.942468063053
20
3.32613696374241
30
0
41
1
10
149.002074601395
20
3.40826465208912
30
0
41
1
10
149.063244025939
20
3.48748582156065
30
0
0
SPLINE
5
32B
100
AcDbEntity
8
1
62
256
6
ByLayer
370
13
48
1
60
0
100
AcDbSpline
70
4
71
3
72
12
73
8
40
0
40
0
40
0
40
0
40
0.499999999999945
40
0.499999999999945
40
0.749999999999972
40
0.749999999999972
40
1
40
1
40
1
40
1
41
1
10
153.766999383691
20
3.80944520010141
30
0
41
1
10
153.862099126688
20
3.7663207059669
30
0
41
1
10
153.958221411303
20
3.7372239714887
30
0
41
1
10
154.104825069757
20
3.71048571231825
30
0
41
1
10
154.154271603411
20
3.70445478355313
30
0
41
1
10
154.253204274152
20
3.69818492481664
30
0
41
1
10
154.303111249456
20
3.69795639632471
30
0
41
1
10
154.351943403604
20
3.70051558108122
30
0
0
SPLINE
5
32C
100
AcDbEntity
8
1
62
256
6
ByLayer
370
13
48
1
60
0
100
AcDbSpline
70
4
71
3
72
8
73
4
40
0
40
0
40
0
40
0
40
1
40
1
40
1
40
1
41
1
10
147.379166180457
20
1.06507621001285
30
0
41
1
10
147.942345883957
20
0.928057666954231
30
0
41
1
10
148.512391111288
20
0.808609755706556
30
0
41
1
10
149.097031203524
20
0.726513837382583
30
0
0
SPLINE
5
32D
100
AcDbEntity
8
1
62
256
6
ByLayer
370
13
48
1
60
0
100
AcDbSpline
70
4
71
3
72
8
73
4
40
0
40
0
40
0
40
0
40
1
40
1
40
1
40
1
41
1
10
146.681424137004
20
3.43561384482413
30
0
41
1
10
144.451701017278
20
3.49516943322146
30
0
41
1
10
142.22511011569
20
3.48343392294561
30
0
41
1
10
139.997412931932
20
3.40363895693136
30
0
0
SPLINE
5
32E
100
AcDbEntity
8
1
62
256
6
ByLayer
370
13
48
1
60
0
100
AcDbSpline
70
4
71
3
72
14
73
10
40
0
40
0
40
0
40
0
40
0.25
40
0.25
40
0.5
40
0.5
40
0.75
40
0.75
40
1
40
1
40
1
40
1
41
1
10
148.376657459868
20
2.46026168758942
30
0
41
1
10
148.357423870036
20
2.42362969837669
30
0
41
1
10
148.334046137043
20
2.38917232037994
30
0
41
1
10
148.275758642336
20
2.33053394048798
30
0
41
1
10
148.240777412765
20
2.30723360296062
30
0
41
1
10
148.16511084976
20
2.28654165956479
30
0
41
1
10
148.126254320715
20
2.29023776538645
30
0
41
1
10
148.057957891109
20
2.31463809823248
30
0
41
1
10
148.027199754169
20
2.33455178626787
30
0
41
1
10
147.9991126018
20
2.35679288581576
30
0
0
SPLINE
5
32F
100
AcDbEntity
8
1
62
256
6
ByLayer
370
13
48
1
60
0
100
AcDbSpline
70
4
71
3
72
8
73
4
40
0
40
0
40
0
40
0
40
1
40
1
40
1
40
1
41
1
10
146.895382259427
20
3.97223078714154
30
0
41
1
10
147.006580936575
20
5.03658764301701
30
0
41
1
10
147.111814163056
20
6.09797268887678
30
0
41
1
10
147.208321589183
20
7.15753878775098
30
0
0
SPLINE
5
330
100
AcDbEntity
8
1
62
256
6
ByLayer
370
13
48
1
60
0
100
AcDbSpline
70
4
71
2
72
6
73
3
40
0
40
0
40
0
40
1
40
1
40
1
41
1
10
139.19401464139
20
3.71099699903138
30
0
41
1
10
139.107175098106
20
3.74382761265747
30
0
41
1
10
139.023472473694
20
3.77796045045102
30
0
0
SPLINE
5
331
100
AcDbEntity
8
1
62
256
6
ByLayer
370
13
48
1
60
0
100
AcDbSpline
70
4
71
3
72
17
73
13
40
0
40
0
40
0
40
0
40
0.139084387449126
40
0.279668444353104
40
0.420643989655232
40
0.560884290606445
40
0.63371502507631
40
0.706082255666358
40
0.779563323498209
40
0.853649660955178
40
0.927426092623188
40
1
40
1
40
1
40
1
41
1
10
13.4436
20
-16
30
0
41
1
10
14.2921184649903
20
-15.8803255214399
30
0
41
1
10
15.9681959633568
20
-15.5369155435995
30
0
41
1
10
18.4166162091478
20
-14.704081683056
30
0
41
1
10
20.7426366077468
20
-13.566225744978
30
0
41
1
10
22.5620143888473
20
-12.3732605836998
30
0
41
1
10
23.9223191037823
20
-11.2746831097124
30
0
41
1
10
24.9198560572729
20
-10.376401529312
30
0
41
1
10
26.0817805282624
20
-9.67875480931903
30
0
41
1
10
27.3378047854939
20
-9.15779321798146
30
0
41
1
10
28.6595226586701
20
-8.84449621578432
30
0
41
1
10
29.5514836449032
20
-8.77541409627631
30
0
41
1
10
30
20
-8.77500000000003
30
0
0
SPLINE
5
332
100
AcDbEntity
8
1
62
256
6
ByLayer
370
13
48
1
60
0
100
AcDbSpline
70
4
71
3
72
16
73
12
40
0
40
0
40
0
40
0
40
0.0925722970865856
40
0.186699328829672
40
0.280519058776588
40
0.372751427809045
40
0.465610404393725
40
0.559193808477833
40
0.706866581848796
40
0.854227633941501
40
1
40
1
40
1
40
1
41
1
10
30
20
8.77499999999995
30
0
41
1
10
29.4248382486079
20
8.77609550891884
30
0
41
1
10
28.2897230128596
20
8.88719269485762
30
0
41
1
10
26.6353694986521
20
9.39880431430575
30
0
41
1
10
25.1070105246708
20
10.2121875879239
30
0
41
1
10
23.8337200375216
20
11.3601483685652
30
0
41
1
10
22.4906214959215
20
12.4137509502908
30
0
41
1
10
20.7739334800588
20
13.5324397014052
30
0
41
1
10
18.6465359760224
20
14.6134592334712
30
0
41
1
10
16.0884129217706
20
15.5093646435634
30
0
41
1
10
14.3332461847246
20
15.8744583459631
30
0
41
1
10
13.4436
20
16
30
0
0
SPLINE
5
333
100
AcDbEntity
8
1
62
256
6
ByLayer
370
13
48
1
60
0
100
AcDbSpline
70
4
71
1
72
4
73
2
40
0
40
0
40
1
40
1
41
1
10
158.495037457822
20
3.64026521312218
30
0
41
1
10
158.567782605399
20
3.70403090776102
30
0
0
SPLINE
5
334
100
AcDbEntity
8
1
62
256
6
ByLayer
370
13
48
1
60
0
100
AcDbSpline
70
4
71
1
72
4
73
2
40
0
40
0
40
1
40
1
41
1
10
150.915352568078
20
3.30298404338626
30
0
41
1
10
150.994364540195
20
3.24717160238097
30
0
0
LINE
5
7F
100
AcDbEntity
8
SK1
62
256
6
ByLayer
370
13
48
1
60
0
100
AcDbLine
10
-1.57646
20
12.3
30
0
11
-1.57646
21
-12.3
31
0
39
0
210
0
220
0
230
1
0
LINE
5
81
100
AcDbEntity
8
1
62
256
6
ByLayer
370
13
48
1
60
0
100
AcDbLine
10
157.590106
20
4.169713
30
0
11
158.409667
21
4.292541
31
0
39
0
210
0
220
0
230
1
0
LINE
5
82
100
AcDbEntity
8
1
62
256
6
ByLayer
370
13
48
1
60
0
100
AcDbLine
10
151.723616
20
5.899032
30
0
11
151.719004
21
5.89879
31
0
39
0
210
0
220
0
230
1
0
LINE
5
83
100
AcDbEntity
8
1
62
256
6
ByLayer
370
13
48
1
60
0
100
AcDbLine
10
158.492503
20
8.678865
30
0
11
158.846738
21
6.435862
31
0
39
0
210
0
220
0
230
1
0
LINE
5
84
100
AcDbEntity
8
1
62
256
6
ByLayer
370
13
48
1
60
0
100
AcDbLine
10
157.505121
20
8.896434
30
0
11
157.592275
21
8.901001
31
0
39
0
210
0
220
0
230
1
0
LINE
5
85
100
AcDbEntity
8
1
62
256
6
ByLayer
370
13
48
1
60
0
100
AcDbLine
10
157.452664
20
4.130665
30
0
11
157.451858
21
4.12451
31
0
39
0
210
0
220
0
230
1
0
LINE
5
86
100
AcDbEntity
8
1
62
256
6
ByLayer
370
13
48
1
60
0
100
AcDbLine
10
151.830302
20
8.00536
30
0
11
151.010741
21
7.882533
31
0
39
0
210
0
220
0
230
1
0
LINE
5
87
100
AcDbEntity
8
1
62
256
6
ByLayer
370
13
48
1
60
0
100
AcDbLine
10
150.748328
20
3.854997
30
0
11
150.773643
21
3.817284
31
0
39
0
210
0
220
0
230
1
0
LINE
5
88
100
AcDbEntity
8
1
62
256
6
ByLayer
370
13
48
1
60
0
100
AcDbLine
10
151.726595
20
3.153848
30
0
11
151.634379
21
3.149826
31
0
39
0
210
0
220
0
230
1
0
LINE
5
89
100
AcDbEntity
8
1
62
256
6
ByLayer
370
13
48
1
60
0
100
AcDbLine
10
157.899137
20
8.930411
30
0
11
157.894525
21
8.93017
31
0
39
0
210
0
220
0
230
1
0
LINE
5
8A
100
AcDbEntity
8
1
62
256
6
ByLayer
370
13
48
1
60
0
100
AcDbLine
10
152.045461
20
3.677117
30
0
11
152.040849
21
3.676876
31
0
39
0
210
0
220
0
230
1
0
LINE
5
8B
100
AcDbEntity
8
1
62
256
6
ByLayer
370
13
48
1
60
0
100
AcDbLine
10
158.445614
20
4.14491
30
0
11
157.560711
21
4.01229
31
0
39
0
210
0
220
0
230
1
0
LINE
5
8C
100
AcDbEntity
8
1
62
256
6
ByLayer
370
13
48
1
60
0
100
AcDbLine
10
158.651561
20
4.188078
30
0
11
158.627597
21
3.889996
31
0
39
0
210
0
220
0
230
1
0
LINE
5
8D
100
AcDbEntity
8
1
62
256
6
ByLayer
370
13
48
1
60
0
100
AcDbLine
10
158.450226
20
4.145152
30
0
11
157.565323
21
4.012532
31
0
39
0
210
0
220
0
230
1
0
LINE
5
8E
100
AcDbEntity
8
1
62
256
6
ByLayer
370
13
48
1
60
0
100
AcDbLine
10
150.609426
20
5.827233
30
0
11
150.881103
21
7.903112
31
0
39
0
210
0
220
0
230
1
0
LINE
5
8F
100
AcDbEntity
8
1
62
256
6
ByLayer
370
13
48
1
60
0
100
AcDbLine
10
157.887237
20
8.779588
30
0
11
157.815392
21
8.776453
31
0
39
0
210
0
220
0
230
1
0
LINE
5
90
100
AcDbEntity
8
1
62
256
6
ByLayer
370
13
48
1
60
0
100
AcDbLine
10
158.847879
20
6.349775
30
0
11
158.843267
21
6.349533
31
0
39
0
210
0
220
0
230
1
0
LINE
5
91
100
AcDbEntity
8
1
62
256
6
ByLayer
370
13
48
1
60
0
100
AcDbLine
10
158.492503
20
8.678865
30
0
11
158.487891
21
8.678624
31
0
39
0
210
0
220
0
230
1
0
LINE
5
92
100
AcDbEntity
8
1
62
256
6
ByLayer
370
13
48
1
60
0
100
AcDbLine
10
151.55708
20
5.917677
30
0
11
151.830302
21
8.00536
31
0
39
0
210
0
220
0
230
1
0
LINE
5
93
100
AcDbEntity
8
1
62
256
6
ByLayer
370
13
48
1
60
0
100
AcDbLine
10
150.739635
20
5.76361
30
0
11
151.09387
21
3.520607
31
0
39
0
210
0
220
0
230
1
0
LINE
5
94
100
AcDbEntity
8
1
62
256
6
ByLayer
370
13
48
1
60
0
100
AcDbLine
10
151.783781
20
3.33385
30
0
11
151.779169
21
3.333609
31
0
39
0
210
0
220
0
230
1
0
LINE
5
95
100
AcDbEntity
8
1
62
256
6
ByLayer
370
13
48
1
60
0
100
AcDbLine
10
157.823292
20
8.927062
30
0
11
157.894525
21
8.93017
31
0
39
0
210
0
220
0
230
1
0
LINE
5
96
100
AcDbEntity
8
1
62
256
6
ByLayer
370
13
48
1
60
0
100
AcDbLine
10
150.964802
20
3.498142
30
0
11
150.610567
21
5.741145
31
0
39
0
210
0
220
0
230
1
0
LINE
5
97
100
AcDbEntity
8
1
62
256
6
ByLayer
370
13
48
1
60
0
100
AcDbLine
10
151.984794
20
8.279498
30
0
11
150.995747
21
8.13127
31
0
39
0
210
0
220
0
230
1
0
LINE
5
98
100
AcDbEntity
8
1
62
256
6
ByLayer
370
13
48
1
60
0
100
AcDbLine
10
151.630013
20
3.24973
30
0
11
151.558168
21
3.246596
31
0
39
0
210
0
220
0
230
1
0
LINE
5
99
100
AcDbEntity
8
1
62
256
6
ByLayer
370
13
48
1
60
0
100
AcDbLine
10
150.510701
20
5.840307
30
0
11
150.781114
21
7.906529
31
0
39
0
210
0
220
0
230
1
0
LINE
5
9A
100
AcDbEntity
8
1
62
256
6
ByLayer
370
13
48
1
60
0
100
AcDbLine
10
158.680773
20
6.411464
30
0
11
158.326538
21
8.654467
31
0
39
0
210
0
220
0
230
1
0
LINE
5
9B
100
AcDbEntity
8
1
62
256
6
ByLayer
370
13
48
1
60
0
100
AcDbLine
10
158.487891
20
8.678624
30
0
11
158.842126
21
6.43562
31
0
39
0
210
0
220
0
230
1
0
LINE
5
9C
100
AcDbEntity
8
1
62
256
6
ByLayer
370
13
48
1
60
0
100
AcDbLine
10
158.450226
20
4.145152
30
0
11
158.445614
21
4.14491
31
0
39
0
210
0
220
0
230
1
0
LINE
5
9D
100
AcDbEntity
8
1
62
256
6
ByLayer
370
13
48
1
60
0
100
AcDbLine
10
152.003772
20
8.039701
30
0
11
152.005447
21
8.052497
31
0
39
0
210
0
220
0
230
1
0
LINE
5
9E
100
AcDbEntity
8
1
62
256
6
ByLayer
370
13
48
1
60
0
100
AcDbLine
10
157.474745
20
8.874648
30
0
11
157.456287
21
8.875461
31
0
39
0
210
0
220
0
230
1
0
LINE
5
9F
100
AcDbEntity
8
1
62
256
6
ByLayer
370
13
48
1
60
0
100
AcDbLine
10
158.946604
20
6.3367
30
0
11
158.676191
21
4.270479
31
0
39
0
210
0
220
0
230
1
0
LINE
5
A0
100
AcDbEntity
8
1
62
256
6
ByLayer
370
13
48
1
60
0
100
AcDbLine
10
151.72628
20
5.698161
30
0
11
151.721667
21
5.697919
31
0
39
0
210
0
220
0
230
1
0
LINE
5
A1
100
AcDbEntity
8
1
62
256
6
ByLayer
370
13
48
1
60
0
100
AcDbLine
10
152.626625
20
8.146312
30
0
11
156.604066
21
8.354761
31
0
39
0
210
0
220
0
230
1
0
LINE
5
A2
100
AcDbEntity
8
1
62
256
6
ByLayer
370
13
48
1
60
0
100
AcDbLine
10
158.525424
20
3.692936
30
0
11
158.517873
21
3.719608
31
0
39
0
210
0
220
0
230
1
0
LINE
5
A3
100
AcDbEntity
8
1
62
256
6
ByLayer
370
13
48
1
60
0
100
AcDbLine
10
158.340758
20
4.027633
30
0
11
158.461559
21
4.045738
31
0
39
0
210
0
220
0
230
1
0
LINE
5
A4
100
AcDbEntity
8
1
62
256
6
ByLayer
370
13
48
1
60
0
100
AcDbLine
10
151.806956
20
5.71024
30
0
11
152.112552
21
3.775219
31
0
39
0
210
0
220
0
230
1
0
LINE
5
A5
100
AcDbEntity
8
1
62
256
6
ByLayer
370
13
48
1
60
0
100
AcDbLine
10
150.415444
20
5.862458
30
0
11
150.411311
21
5.830878
31
0
39
0
210
0
220
0
230
1
0
LINE
5
A6
100
AcDbEntity
8
1
62
256
6
ByLayer
370
13
48
1
60
0
100
AcDbLine
10
152.005447
20
8.052497
30
0
11
152.000835
21
8.052255
31
0
39
0
210
0
220
0
230
1
0
LINE
5
A7
100
AcDbEntity
8
1
62
256
6
ByLayer
370
13
48
1
60
0
100
AcDbLine
10
150.943469
20
8.481828
30
0
11
150.727677
21
8.449488
31
0
39
0
210
0
220
0
230
1
0
LINE
5
A8
100
AcDbEntity
8
1
62
256
6
ByLayer
370
13
48
1
60
0
100
AcDbLine
10
158.846738
20
6.435862
30
0
11
158.842126
21
6.43562
31
0
39
0
210
0
220
0
230
1
0
LINE
5
A9
100
AcDbEntity
8
1
62
256
6
ByLayer
370
13
48
1
60
0
100
AcDbLine
10
157.827292
20
8.927277
30
0
11
157.82268
21
8.927035
31
0
39
0
210
0
220
0
230
1
0
LINE
5
AA
100
AcDbEntity
8
1
62
256
6
ByLayer
370
13
48
1
60
0
100
AcDbLine
10
152.000835
20
8.052255
30
0
11
151.719004
21
5.89879
31
0
39
0
210
0
220
0
230
1
0
LINE
5
AB
100
AcDbEntity
8
1
62
256
6
ByLayer
370
13
48
1
60
0
100
AcDbLine
10
151.191839
20
8.680471
30
0
11
151.099707
21
8.674833
31
0
39
0
210
0
220
0
230
1
0
LINE
5
AC
100
AcDbEntity
8
1
62
256
6
ByLayer
370
13
48
1
60
0
100
AcDbLine
10
158.409667
20
4.292541
30
0
11
158.681344
21
6.36842
31
0
39
0
210
0
220
0
230
1
0
LINE
5
AD
100
AcDbEntity
8
1
62
256
6
ByLayer
370
13
48
1
60
0
100
AcDbLine
10
151.00708
20
8.031855
30
0
11
151.891982
21
8.164475
31
0
39
0
210
0
220
0
230
1
0
LINE
5
AE
100
AcDbEntity
8
1
62
256
6
ByLayer
370
13
48
1
60
0
100
AcDbLine
10
158.945082
20
6.451483
30
0
11
158.590847
21
8.694487
31
0
39
0
210
0
220
0
230
1
0
LINE
5
AF
100
AcDbEntity
8
1
62
256
6
ByLayer
370
13
48
1
60
0
100
AcDbLine
10
151.721667
20
5.697919
30
0
11
152.040849
21
3.676876
31
0
39
0
210
0
220
0
230
1
0
LINE
5
B0
100
AcDbEntity
8
1
62
256
6
ByLayer
370
13
48
1
60
0
100
AcDbLine
10
158.847879
20
6.349775
30
0
11
158.576203
21
4.273896
31
0
39
0
210
0
220
0
230
1
0
LINE
5
B1
100
AcDbEntity
8
1
62
256
6
ByLayer
370
13
48
1
60
0
100
AcDbLine
10
152.084734
20
8.030258
30
0
11
151.804578
21
5.889589
31
0
39
0
210
0
220
0
230
1
0
LINE
5
B2
100
AcDbEntity
8
1
62
256
6
ByLayer
370
13
48
1
60
0
100
AcDbLine
10
158.26939
20
3.682368
30
0
11
158.517873
21
3.719608
31
0
39
0
210
0
220
0
230
1
0
LINE
5
B3
100
AcDbEntity
8
1
62
256
6
ByLayer
370
13
48
1
60
0
100
AcDbLine
10
151.533171
20
3.395486
30
0
11
151.605016
21
3.39862
31
0
39
0
210
0
220
0
230
1
0
LINE
5
B4
100
AcDbEntity
8
1
62
256
6
ByLayer
370
13
48
1
60
0
100
AcDbLine
10
152.031875
20
3.763141
30
0
11
151.72628
21
5.698161
31
0
39
0
210
0
220
0
230
1
0
LINE
5
B5
100
AcDbEntity
8
1
62
256
6
ByLayer
370
13
48
1
60
0
100
AcDbLine
10
150.781114
20
7.906529
30
0
11
150.734311
21
8.220377
31
0
39
0
210
0
220
0
230
1
0
LINE
5
B6
100
AcDbEntity
8
1
62
256
6
ByLayer
370
13
48
1
60
0
100
AcDbLine
10
157.73071
20
9.023159
30
0
11
157.822927
21
9.027182
31
0
39
0
210
0
220
0
230
1
0
LINE
5
B7
100
AcDbEntity
8
1
62
256
6
ByLayer
370
13
48
1
60
0
100
AcDbLine
10
158.26939
20
3.682368
30
0
11
158.461559
21
4.045738
31
0
39
0
210
0
220
0
230
1
0
LINE
5
B8
100
AcDbEntity
8
1
62
256
6
ByLayer
370
13
48
1
60
0
100
AcDbLine
10
151.010741
20
7.882533
30
0
11
150.739064
21
5.806654
31
0
39
0
210
0
220
0
230
1
0
LINE
5
B9
100
AcDbEntity
8
1
62
256
6
ByLayer
370
13
48
1
60
0
100
AcDbLine
10
156.83068
20
4.030695
30
0
11
152.85324
21
3.822246
31
0
39
0
210
0
220
0
230
1
0
LINE
5
BA
100
AcDbEntity
8
1
62
256
6
ByLayer
370
13
48
1
60
0
100
AcDbLine
10
158.843267
20
6.349533
30
0
11
158.571591
21
4.273654
31
0
39
0
210
0
220
0
230
1
0
LINE
5
BB
100
AcDbEntity
8
1
62
256
6
ByLayer
370
13
48
1
60
0
100
AcDbLine
10
158.550352
20
3.996339
30
0
11
158.517873
21
3.719608
31
0
39
0
210
0
220
0
230
1
0
LINE
5
BC
100
AcDbEntity
8
1
62
256
6
ByLayer
370
13
48
1
60
0
100
AcDbLine
10
158.576203
20
4.273896
30
0
11
158.571591
21
4.273654
31
0
39
0
210
0
220
0
230
1
0
LINE
5
BD
100
AcDbEntity
8
1
62
256
6
ByLayer
370
13
48
1
60
0
100
AcDbLine
10
157.664186
20
6.467493
30
0
11
157.35859
21
8.402513
31
0
39
0
210
0
220
0
230
1
0
LINE
5
BE
100
AcDbEntity
8
1
62
256
6
ByLayer
370
13
48
1
60
0
100
AcDbLine
10
158.051037
20
3.649644
30
0
11
157.732661
21
3.601929
31
0
39
0
210
0
220
0
230
1
0
LINE
5
BF
100
AcDbEntity
8
1
62
256
6
ByLayer
370
13
48
1
60
0
100
AcDbLine
10
150.943469
20
8.481828
30
0
11
150.995747
21
8.13127
31
0
39
0
210
0
220
0
230
1
0
LINE
5
C0
100
AcDbEntity
8
1
62
256
6
ByLayer
370
13
48
1
60
0
100
AcDbLine
10
151.161821
20
8.514553
30
0
11
151.480198
21
8.562268
31
0
39
0
210
0
220
0
230
1
0
LINE
5
C1
100
AcDbEntity
8
1
62
256
6
ByLayer
370
13
48
1
60
0
100
AcDbLine
10
150.417154
20
5.722855
30
0
11
150.836427
21
3.481678
31
0
39
0
210
0
220
0
230
1
0
LINE
5
C2
100
AcDbEntity
8
1
62
256
6
ByLayer
370
13
48
1
60
0
100
AcDbLine
10
157.565323
20
4.012532
30
0
11
157.560711
21
4.01229
31
0
39
0
210
0
220
0
230
1
0
LINE
5
C3
100
AcDbEntity
8
1
62
256
6
ByLayer
370
13
48
1
60
0
100
AcDbLine
10
157.545216
20
8.495103
30
0
11
157.860093
21
6.501311
31
0
39
0
210
0
220
0
230
1
0
LINE
5
C4
100
AcDbEntity
8
1
62
256
6
ByLayer
370
13
48
1
60
0
100
AcDbLine
10
157.71328
20
3.5825
30
0
11
157.626127
21
3.577932
31
0
39
0
210
0
220
0
230
1
0
LINE
5
C5
100
AcDbEntity
8
1
62
256
6
ByLayer
370
13
48
1
60
0
100
AcDbLine
10
157.386408
20
4.147475
30
0
11
157.666564
21
6.288144
31
0
39
0
210
0
220
0
230
1
0
LINE
5
C6
100
AcDbEntity
8
1
62
256
6
ByLayer
370
13
48
1
60
0
100
AcDbLine
10
157.411845
20
8.49989
30
0
11
157.424366
21
8.420607
31
0
39
0
210
0
220
0
230
1
0
LINE
5
C7
100
AcDbEntity
8
1
62
256
6
ByLayer
370
13
48
1
60
0
100
AcDbLine
10
157.827292
20
8.927277
30
0
11
157.899137
21
8.930411
31
0
39
0
210
0
220
0
230
1
0
LINE
5
C8
100
AcDbEntity
8
1
62
256
6
ByLayer
370
13
48
1
60
0
100
AcDbLine
10
157.955384
20
8.932024
30
0
11
157.950772
21
8.931782
31
0
39
0
210
0
220
0
230
1
0
LINE
5
C9
100
AcDbEntity
8
1
62
256
6
ByLayer
370
13
48
1
60
0
100
AcDbLine
10
152.045461
20
3.677117
30
0
11
152.031875
21
3.763141
31
0
39
0
210
0
220
0
230
1
0
LINE
5
CA
100
AcDbEntity
8
1
62
256
6
ByLayer
370
13
48
1
60
0
100
AcDbLine
10
158.201552
20
8.931969
30
0
11
158.19694
21
8.931727
31
0
39
0
210
0
220
0
230
1
0
LINE
5
CB
100
AcDbEntity
8
1
62
256
6
ByLayer
370
13
48
1
60
0
100
AcDbLine
10
157.553507
20
4.011479
30
0
11
157.560711
21
4.01229
31
0
39
0
210
0
220
0
230
1
0
LINE
5
CC
100
AcDbEntity
8
1
62
256
6
ByLayer
370
13
48
1
60
0
100
AcDbLine
10
151.723616
20
5.899032
30
0
11
152.003772
21
8.039701
31
0
39
0
210
0
220
0
230
1
0
LINE
5
CD
100
AcDbEntity
8
1
62
256
6
ByLayer
370
13
48
1
60
0
100
AcDbLine
10
157.472511
20
3.897509
30
0
11
158.340758
21
4.027633
31
0
39
0
210
0
220
0
230
1
0
LINE
5
CE
100
AcDbEntity
8
1
62
256
6
ByLayer
370
13
48
1
60
0
100
AcDbLine
10
150.512223
20
5.725524
30
0
11
150.866458
21
3.482521
31
0
39
0
210
0
220
0
230
1
0
LINE
5
CF
100
AcDbEntity
8
1
62
256
6
ByLayer
370
13
48
1
60
0
100
AcDbLine
10
157.863327
20
6.257397
30
0
11
157.590106
21
4.169713
31
0
39
0
210
0
220
0
230
1
0
LINE
5
D0
100
AcDbEntity
8
1
62
256
6
ByLayer
370
13
48
1
60
0
100
AcDbLine
10
152.01206
20
3.585665
30
0
11
152.007448
21
3.585423
31
0
39
0
210
0
220
0
230
1
0
LINE
5
D1
100
AcDbEntity
8
1
62
256
6
ByLayer
370
13
48
1
60
0
100
AcDbLine
10
158.22628
20
3.642929
30
0
11
158.340758
21
4.027633
31
0
39
0
210
0
220
0
230
1
0
LINE
5
D2
100
AcDbEntity
8
1
62
256
6
ByLayer
370
13
48
1
60
0
100
AcDbLine
10
151.875192
20
3.67997
30
0
11
151.560314
21
5.673763
31
0
39
0
210
0
220
0
230
1
0
LINE
5
D3
100
AcDbEntity
8
1
62
256
6
ByLayer
370
13
48
1
60
0
100
AcDbLine
10
150.320099
20
5.644739
30
0
11
150.748328
21
3.854997
31
0
39
0
210
0
220
0
230
1
0
LINE
5
D4
100
AcDbEntity
8
SK1
62
256
6
ByLayer
370
13
48
1
60
0
100
AcDbLine
10
-0.3
20
12.3
30
0
11
-0.3
21
-12.3
31
0
39
0
210
0
220
0
230
1
0
LINE
5
D5
100
AcDbEntity
8
SK1
62
256
6
ByLayer
370
13
48
1
60
0
100
AcDbLine
10
-8.57646
20
12.15
30
0
11
-8.57646
21
-12.15
31
0
39
0
210
0
220
0
230
1
0
LINE
5
D6
100
AcDbEntity
8
SK1
62
256
6
ByLayer
370
13
48
1
60
0
100
AcDbLine
10
-2
20
12.4975
30
0
11
-2
21
-12.4975
31
0
39
0
210
0
220
0
230
1
0
LINE
5
D7
100
AcDbEntity
8
SK1
62
256
6
ByLayer
370
13
48
1
60
0
100
AcDbLine
10
-6.5
20
12.4975
30
0
11
-6.5
21
-12.4975
31
0
39
0
210
0
220
0
230
1
0
LINE
5
D8
100
AcDbEntity
8
SK1
62
256
6
ByLayer
370
13
48
1
60
0
100
AcDbLine
10
-15
20
11.945576
30
0
11
-15
21
-11.945576
31
0
39
0
210
0
220
0
230
1
0
LINE
5
D9
100
AcDbEntity
8
SK1
62
256
6
ByLayer
370
13
48
1
60
0
100
AcDbLine
10
-13.5
20
12.3475
30
0
11
-13.5
21
-12.3475
31
0
39
0
210
0
220
0
230
1
0
LINE
5
DA
100
AcDbEntity
8
1
62
256
6
ByLayer
370
18
48
1
60
0
100
AcDbLine
10
155.462793
20
5.920438
30
0
11
155.400075
21
5.917151
31
0
39
0
210
0
220
0
230
1
0
LINE
5
DB
100
AcDbEntity
8
1
62
256
6
ByLayer
370
18
48
1
60
0
100
AcDbLine
10
155.236885
20
5.561549
30
0
11
155.229307
21
5.580458
31
0
39
0
210
0
220
0
230
1
0
LINE
5
DC
100
AcDbEntity
8
1
62
256
6
ByLayer
370
18
48
1
60
0
100
AcDbLine
10
154.494354
20
6.817049
30
0
11
154.431636
21
6.813762
31
0
39
0
210
0
220
0
230
1
0
LINE
5
DD
100
AcDbEntity
8
1
62
256
6
ByLayer
370
18
48
1
60
0
100
AcDbLine
10
155.398578
20
6.32623
30
0
11
155.378486
21
6.3291
31
0
39
0
210
0
220
0
230
1
0
LINE
5
DE
100
AcDbEntity
8
1
62
256
6
ByLayer
370
18
48
1
60
0
100
AcDbLine
10
154.571791
20
5.339459
30
0
11
154.509073
21
5.336172
31
0
39
0
210
0
220
0
230
1
0
LINE
5
DF
100
AcDbEntity
8
1
62
256
6
ByLayer
370
18
48
1
60
0
100
AcDbLine
10
155.173459
20
6.646098
30
0
11
155.17902
21
6.665696
31
0
39
0
210
0
220
0
230
1
0
LINE
5
E0
100
AcDbEntity
8
1
62
256
6
ByLayer
370
18
48
1
60
0
100
AcDbLine
10
153.981616
20
5.846737
30
0
11
153.948525
21
5.845002
31
0
39
0
210
0
220
0
230
1
0
LINE
5
E1
100
AcDbEntity
8
1
62
256
6
ByLayer
370
18
48
1
60
0
100
AcDbLine
10
155.400075
20
5.917151
30
0
11
155.419758
21
5.922106
31
0
39
0
210
0
220
0
230
1
0
LINE
5
E2
100
AcDbEntity
8
1
62
256
6
ByLayer
370
18
48
1
60
0
100
AcDbLine
10
155.462268
20
6.329567
30
0
11
155.398578
21
6.32623
31
0
39
0
210
0
220
0
230
1
0
LINE
5
E3
100
AcDbEntity
8
1
62
256
6
ByLayer
370
18
48
1
60
0
100
AcDbLine
10
155.292025
20
5.583745
30
0
11
155.229307
21
5.580458
31
0
39
0
210
0
220
0
230
1
0
LINE
5
E4
100
AcDbEntity
8
1
62
256
6
ByLayer
370
18
48
1
60
0
100
AcDbLine
10
154.481204
20
6.831742
30
0
11
154.417514
21
6.828404
31
0
39
0
210
0
220
0
230
1
0
LINE
5
E5
100
AcDbEntity
8
1
62
256
6
ByLayer
370
18
48
1
60
0
100
AcDbLine
10
154.431636
20
6.813762
30
0
11
154.417514
21
6.828404
31
0
39
0
210
0
220
0
230
1
0
LINE
5
E6
100
AcDbEntity
8
1
62
256
6
ByLayer
370
18
48
1
60
0
100
AcDbLine
10
155.242709
20
6.669034
30
0
11
155.17902
21
6.665696
31
0
39
0
210
0
220
0
230
1
0
LINE
5
E7
100
AcDbEntity
8
1
62
256
6
ByLayer
370
18
48
1
60
0
100
AcDbLine
10
154.560249
20
5.323472
30
0
11
154.496559
21
5.320134
31
0
39
0
210
0
220
0
230
1
0
LINE
5
E8
100
AcDbEntity
8
1
62
256
6
ByLayer
370
18
48
1
60
0
100
AcDbLine
10
155.300575
20
5.564887
30
0
11
155.236885
21
5.561549
31
0
39
0
210
0
220
0
230
1
0
LINE
5
E9
100
AcDbEntity
8
1
62
256
6
ByLayer
370
18
48
1
60
0
100
AcDbLine
10
155.483447
20
5.925444
30
0
11
155.419758
21
5.922106
31
0
39
0
210
0
220
0
230
1
0
LINE
5
EA
100
AcDbEntity
8
1
62
256
6
ByLayer
370
18
48
1
60
0
100
AcDbLine
10
155.441204
20
6.332387
30
0
11
155.378486
21
6.3291
31
0
39
0
210
0
220
0
230
1
0
LINE
5
EB
100
AcDbEntity
8
1
62
256
6
ByLayer
370
18
48
1
60
0
100
AcDbLine
10
155.236177
20
6.649385
30
0
11
155.173459
21
6.646098
31
0
39
0
210
0
220
0
230
1
0
LINE
5
EC
100
AcDbEntity
8
1
62
256
6
ByLayer
370
18
48
1
60
0
100
AcDbLine
10
153.960437
20
6.25086
30
0
11
153.927358
21
6.249126
31
0
39
0
210
0
220
0
230
1
0
LINE
5
ED
100
AcDbEntity
8
1
62
256
6
ByLayer
370
18
48
1
60
0
100
AcDbLine
10
154.496559
20
5.320134
30
0
11
154.509073
21
5.336172
31
0
39
0
210
0
220
0
230
1
0
LINE
5
EE
100
AcDbEntity
8
1
62
256
6
ByLayer
370
18
48
1
60
0
100
AcDbLine
10
158.141082
20
-4.897736
30
0
11
158.477553
21
-4.801875
31
0
39
0
210
0
220
0
230
1
0
LINE
5
EF
100
AcDbEntity
8
1
62
256
6
ByLayer
370
18
48
1
60
0
100
AcDbLine
10
158.385143
20
0.284081
30
0
11
158.44915
21
0.062299
31
0
39
0
210
0
220
0
230
1
0
LINE
5
F0
100
AcDbEntity
8
1
62
256
6
ByLayer
370
18
48
1
60
0
100
AcDbLine
10
158.665326
20
-0.093849
30
0
11
158.557653
21
0.279236
31
0
39
0
210
0
220
0
230
1
0
LINE
5
F1
100
AcDbEntity
8
1
62
256
6
ByLayer
370
18
48
1
60
0
100
AcDbLine
10
158.073077
20
0.505664
30
0
11
158.135923
21
0.497443
31
0
39
0
210
0
220
0
230
1
0
LINE
5
F2
100
AcDbEntity
8
1
62
256
6
ByLayer
370
18
48
1
60
0
100
AcDbLine
10
158.773297
20
-2.056816
30
0
11
158.492087
21
-4.179089
31
0
39
0
210
0
220
0
230
1
0
LINE
5
F3
100
AcDbEntity
8
1
62
256
6
ByLayer
370
18
48
1
60
0
100
AcDbLine
10
158.45972
20
0.014925
30
0
11
158.771795
21
-1.94277
31
0
39
0
210
0
220
0
230
1
0
LINE
5
F4
100
AcDbEntity
8
1
62
256
6
ByLayer
370
18
48
1
60
0
100
AcDbLine
10
158.277345
20
-4.426708
30
0
11
158.067385
21
-4.486526
31
0
39
0
210
0
220
0
230
1
0
LINE
5
F5
100
AcDbEntity
8
SK1
62
256
6
ByLayer
370
13
48
1
60
0
100
AcDbLine
10
-7.796888
20
12.15
30
0
11
-7.796888
21
-12.15
31
0
39
0
210
0
220
0
230
1
0
LINE
5
F6
100
AcDbEntity
8
SK1
62
256
6
ByLayer
370
13
48
1
60
0
100
AcDbLine
10
-9
20
12.3475
30
0
11
-9
21
-12.3475
31
0
39
0
210
0
220
0
230
1
0
LINE
5
F7
100
AcDbEntity
8
1
62
256
6
ByLayer
370
13
48
1
60
0
100
AcDbLine
10
35
20
8.775
30
0
11
35
21
-2.936137
31
0
39
0
210
0
220
0
230
1
0
LINE
5
F8
100
AcDbEntity
8
1
62
256
6
ByLayer
370
13
48
1
60
0
100
AcDbLine
10
0
20
3.071
30
0
11
0
21
-3.071
31
0
39
0
210
0
220
0
230
1
0
LINE
5
F9
100
AcDbEntity
8
1
62
256
6
ByLayer
370
13
48
1
60
0
100
AcDbLine
10
148.851624
20
4.238579
30
0
11
149.774243
21
3.955114
31
0
39
0
210
0
220
0
230
1
0
LINE
5
FA
100
AcDbEntity
8
1
62
256
6
ByLayer
370
13
48
1
60
0
100
AcDbLine
10
0.5
20
-15.360464
30
0
11
0.5
21
-3.071
31
0
39
0
210
0
220
0
230
1
0
LINE
5
FB
100
AcDbEntity
8
1
62
256
6
ByLayer
370
13
48
1
60
0
100
AcDbLine
10
150.304654
20
5.526806
30
0
11
150.71547
21
8.665848
31
0
39
0
210
0
220
0
230
1
0
LINE
5
FC
100
AcDbEntity
8
1
62
256
6
ByLayer
370
13
48
1
60
0
100
AcDbLine
10
150.430494
20
4.190479
30
0
11
150.289034
21
5.086197
31
0
39
0
210
0
220
0
230
1
0
LINE
5
FD
100
AcDbEntity
8
1
62
256
6
ByLayer
370
13
48
1
60
0
100
AcDbLine
10
158.357928
20
0.504723
30
0
11
158.355608
21
0.505027
31
0
39
0
210
0
220
0
230
1
0
LINE
5
FE
100
AcDbEntity
8
1
62
256
6
ByLayer
370
13
48
1
60
0
100
AcDbLine
10
3.5
20
-3.071
30
0
11
3.5
21
3.071
31
0
39
0
210
0
220
0
230
1
0
LINE
5
FF
100
AcDbEntity
8
1
62
256
6
ByLayer
370
13
48
1
60
0
100
AcDbLine
10
152.969425
20
2.973309
30
0
11
153.272405
21
2.989188
31
0
39
0
210
0
220
0
230
1
0
LINE
5
100
100
AcDbEntity
8
1
62
256
6
ByLayer
370
13
48
1
60
0
100
AcDbLine
10
154.628949
20
3.214347
30
0
11
157.709818
21
3.375808
31
0
39
0
210
0
220
0
230
1
0
LINE
5
101
100
AcDbEntity
8
1
62
256
6
ByLayer
370
13
48
1
60
0
100
AcDbLine
10
30
20
-8.758149
30
0
11
30
21
-8.775
31
0
39
0
210
0
220
0
230
1
0
LINE
5
102
100
AcDbEntity
8
1
62
256
6
ByLayer
370
13
48
1
60
0
100
AcDbLine
10
152.643153
20
3.522962
30
0
11
152.524771
21
3.516758
31
0
39
0
210
0
220
0
230
1
0
LINE
5
103
100
AcDbEntity
8
1
62
256
6
ByLayer
370
13
48
1
60
0
100
AcDbLine
10
158.114761
20
-0.176282
30
0
11
157.509565
21
0.470327
31
0
39
0
210
0
220
0
230
1
0
LINE
5
104
100
AcDbEntity
8
1
62
256
6
ByLayer
370
13
48
1
60
0
100
AcDbLine
10
3.5
20
-18.431464
30
0
11
3.5
21
-17.123957
31
0
39
0
210
0
220
0
230
1
0
LINE
5
105
100
AcDbEntity
8
1
62
256
6
ByLayer
370
13
48
1
60
0
100
AcDbLine
10
30
20
8.775
30
0
11
30
21
-2.936566
31
0
39
0
210
0
220
0
230
1
0
LINE
5
106
100
AcDbEntity
8
1
62
256
6
ByLayer
370
13
48
1
60
0
100
AcDbLine
10
152.53002
20
3.528265
30
0
11
152.204665
21
3.511214
31
0
39
0
210
0
220
0
230
1
0
LINE
5
107
100
AcDbEntity
8
1
62
256
6
ByLayer
370
13
48
1
60
0
100
AcDbLine
10
0
20
-17.123957
30
0
11
0
21
-17.992978
31
0
39
0
210
0
220
0
230
1
0
LINE
5
108
100
AcDbEntity
8
1
62
256
6
ByLayer
370
13
48
1
60
0
100
AcDbLine
10
5
20
19.75
30
0
11
5
21
-19.75
31
0
39
0
210
0
220
0
230
1
0
LINE
5
109
100
AcDbEntity
8
1
62
256
6
ByLayer
370
13
48
1
60
0
100
AcDbLine
10
147.356213
20
3.960327
30
0
11
147.356213
21
6.936865
31
0
39
0
210
0
220
0
230
1
0
LINE
5
10A
100
AcDbEntity
8
1
62
256
6
ByLayer
370
13
48
1
60
0
100
AcDbLine
10
0.5
20
-3.071
30
0
11
3.5
21
-3.071
31
0
39
0
210
0
220
0
230
1
0
LINE
5
10B
100
AcDbEntity
8
1
62
256
6
ByLayer
370
13
48
1
60
0
100
AcDbLine
10
158.333334
20
3.27162
30
0
11
158.316591
21
3.557814
31
0
39
0
210
0
220
0
230
1
0
LINE
5
10C
100
AcDbEntity
8
1
62
256
6
ByLayer
370
13
48
1
60
0
100
AcDbLine
10
0.5
20
-18.431464
30
0
11
3.5
21
-18.431464
31
0
39
0
210
0
220
0
230
1
0
LINE
5
10D
100
AcDbEntity
8
1
62
256
6
ByLayer
370
13
48
1
60
0
100
AcDbLine
10
157.074507
20
3.843199
30
0
11
154.197735
21
3.692434
31
0
39
0
210
0
220
0
230
1
0
LINE
5
10E
100
AcDbEntity
8
1
62
256
6
ByLayer
370
13
48
1
60
0
100
AcDbLine
10
0
20
-17.992978
30
0
11
0
21
-19.25
31
0
39
0
210
0
220
0
230
1
0
LINE
5
10F
100
AcDbEntity
8
1
62
256
6
ByLayer
370
13
48
1
60
0
100
AcDbLine
10
158.357353
20
3.033965
30
0
11
158.387834
21
2.97523
31
0
39
0
210
0
220
0
230
1
0
LINE
5
110
100
AcDbEntity
8
1
62
256
6
ByLayer
370
13
48
1
60
0
100
AcDbLine
10
147.57702
20
4.002904
30
0
11
148.760673
21
4.675924
31
0
39
0
210
0
220
0
230
1
0
LINE
5
111
100
AcDbEntity
8
1
62
256
6
ByLayer
370
13
48
1
60
0
100
AcDbLine
10
158.290098
20
-5.03163
30
0
11
158.075668
21
-4.838968
31
0
39
0
210
0
220
0
230
1
0
LINE
5
112
100
AcDbEntity
8
1
62
256
6
ByLayer
370
13
48
1
60
0
100
AcDbLine
10
0.5
20
-18.431464
30
0
11
0.5
21
-19.75
31
0
39
0
210
0
220
0
230
1
0
LINE
5
113
100
AcDbEntity
8
1
62
256
6
ByLayer
370
13
48
1
60
0
100
AcDbLine
10
156.106687
20
3.992752
30
0
11
156.604135
21
4.018822
31
0
39
0
210
0
220
0
230
1
0
LINE
5
114
100
AcDbEntity
8
1
62
256
6
ByLayer
370
13
48
1
60
0
100
AcDbLine
10
146.254071
20
8.685
30
0
11
146.254071
21
8.555938
31
0
39
0
210
0
220
0
230
1
0
LINE
5
115
100
AcDbEntity
8
1
62
256
6
ByLayer
370
13
48
1
60
0
100
AcDbLine
10
157.801263
20
-8.720834
30
0
11
158.290098
21
-5.03163
31
0
39
0
210
0
220
0
230
1
0
LINE
5
116
100
AcDbEntity
8
1
62
256
6
ByLayer
370
13
48
1
60
0
100
AcDbLine
10
157.801263
20
-8.720834
30
0
11
149.254071
21
-8.720834
31
0
39
0
210
0
220
0
230
1
0
LINE
5
117
100
AcDbEntity
8
1
62
256
6
ByLayer
370
13
48
1
60
0
100
AcDbLine
10
4
20
2.571
30
0
11
4
21
-2.571
31
0
39
0
210
0
220
0
230
1
0
LINE
5
118
100
AcDbEntity
8
1
62
256
6
ByLayer
370
13
48
1
60
0
100
AcDbLine
10
3.5
20
-15.360464
30
0
11
0.5
21
-15.360464
31
0
39
0
210
0
220
0
230
1
0
LINE
5
119
100
AcDbEntity
8
1
62
256
6
ByLayer
370
13
48
1
60
0
100
AcDbLine
10
157.663341
20
-0.698672
30
0
11
158.307797
21
-1.387226
31
0
39
0
210
0
220
0
230
1
0
LINE
5
11A
100
AcDbEntity
8
1
62
256
6
ByLayer
370
13
48
1
60
0
100
AcDbLine
10
157.709818
20
3.375808
30
0
11
157.510291
21
1.001263
31
0
39
0
210
0
220
0
230
1
0
LINE
5
11B
100
AcDbEntity
8
1
62
256
6
ByLayer
370
13
48
1
60
0
100
AcDbLine
10
81.6
20
8.685
30
0
11
81.6
21
-2.932712
31
0
39
0
210
0
220
0
230
1
0
LINE
5
11C
100
AcDbEntity
8
1
62
256
6
ByLayer
370
13
48
1
60
0
100
AcDbLine
10
153.024171
20
3.831204
30
0
11
153.521619
21
3.857275
31
0
39
0
210
0
220
0
230
1
0
LINE
5
11D
100
AcDbEntity
8
1
62
256
6
ByLayer
370
13
48
1
60
0
100
AcDbLine
10
150.651719
20
4.258769
30
0
11
150.652402
21
4.254445
31
0
39
0
210
0
220
0
230
1
0
LINE
5
11E
100
AcDbEntity
8
1
62
256
6
ByLayer
370
13
48
1
60
0
100
AcDbLine
10
0
20
-17.123957
30
0
11
3.5
21
-17.123957
31
0
39
0
210
0
220
0
230
1
0
LINE
5
11F
100
AcDbEntity
8
1
62
256
6
ByLayer
370
13
48
1
60
0
100
AcDbLine
10
13.4436
20
16
30
0
11
13.4436
21
-16
31
0
39
0
210
0
220
0
230
1
0
LINE
5
120
100
AcDbEntity
8
1
62
256
6
ByLayer
370
13
48
1
60
0
100
AcDbLine
10
157.509565
20
0.470327
30
0
11
157.553519
21
-0.064055
31
0
39
0
210
0
220
0
230
1
0
LINE
5
121
100
AcDbEntity
8
1
62
256
6
ByLayer
370
13
48
1
60
0
100
AcDbLine
10
5.5
20
16
30
0
11
5.5
21
-16
31
0
39
0
210
0
220
0
230
1
0
LINE
5
122
100
AcDbEntity
8
1
62
256
6
ByLayer
370
13
48
1
60
0
100
AcDbLine
10
148.760673
20
4.675924
30
0
11
147.356213
21
6.936865
31
0
39
0
210
0
220
0
230
1
0
LINE
5
123
100
AcDbEntity
8
1
62
256
6
ByLayer
370
13
48
1
60
0
100
AcDbLine
10
158.322743
20
-2.521571
30
0
11
157.710266
21
-1.867183
31
0
39
0
210
0
220
0
230
1
0
LINE
5
124
100
AcDbEntity
8
1
62
256
6
ByLayer
370
13
48
1
60
0
100
AcDbLine
10
81.6
20
-8.66629
30
0
11
81.6
21
-8.685
31
0
39
0
210
0
220
0
230
1
0
LINE
5
125
100
AcDbEntity
8
1
62
256
6
ByLayer
370
13
48
1
60
0
100
AcDbLine
10
158.314487
20
0.557138
30
0
11
158.357928
21
0.504723
31
0
39
0
210
0
220
0
230
1
0
LINE
5
126
100
AcDbEntity
8
1
62
256
6
ByLayer
370
13
48
1
60
0
100
AcDbLine
10
146.254071
20
-8.597578
30
0
11
146.254071
21
0.626442
31
0
39
0
210
0
220
0
230
1
0
LINE
5
127
100
AcDbEntity
8
1
62
256
6
ByLayer
370
13
48
1
60
0
100
AcDbLine
10
158.316591
20
3.557814
30
0
11
158.131335
21
3.548105
31
0
39
0
210
0
220
0
230
1
0
LINE
5
128
100
AcDbEntity
8
1
62
256
6
ByLayer
370
13
48
1
60
0
100
AcDbLine
10
149.254071
20
-8.720834
30
0
11
149.254071
21
0.269904
31
0
39
0
210
0
220
0
230
1
0
LINE
5
129
100
AcDbEntity
8
1
62
256
6
ByLayer
370
13
48
1
60
0
100
AcDbLine
10
0
20
-14.921874
30
0
11
0
21
-17.123957
31
0
39
0
210
0
220
0
230
1
0
LINE
5
12A
100
AcDbEntity
8
1
62
256
6
ByLayer
370
13
48
1
60
0
100
AcDbLine
10
0
20
3.071
30
0
11
0
21
19.25
31
0
39
0
210
0
220
0
230
1
0
LINE
5
12B
100
AcDbEntity
8
1
62
256
6
ByLayer
370
13
48
1
60
0
100
AcDbLine
10
152.674059
20
3.612581
30
0
11
152.688348
21
3.61333
31
0
39
0
210
0
220
0
230
1
0
LINE
5
12C
100
AcDbEntity
8
1
62
256
6
ByLayer
370
13
48
1
60
0
100
AcDbLine
10
158.114761
20
-0.176282
30
0
11
158.307797
21
-1.387226
31
0
39
0
210
0
220
0
230
1
0
LINE
5
12D
100
AcDbEntity
8
1
62
256
6
ByLayer
370
13
48
1
60
0
100
AcDbLine
10
3.5
20
3.071
30
0
11
0.5
21
3.071
31
0
39
0
210
0
220
0
230
1
0
LINE
5
12E
100
AcDbEntity
8
1
62
256
6
ByLayer
370
13
48
1
60
0
100
AcDbLine
10
35
20
-8.758132
30
0
11
35
21
-8.775
31
0
39
0
210
0
220
0
230
1
0
LINE
5
12F
100
AcDbEntity
8
1
62
256
6
ByLayer
370
13
48
1
60
0
100
AcDbLine
10
3.5
20
-17.123957
30
0
11
3.5
21
-15.360386
31
0
39
0
210
0
220
0
230
1
0
LINE
5
130
100
AcDbEntity
8
1
62
256
6
ByLayer
370
13
48
1
60
0
100
AcDbLine
10
158.400063
20
2.956955
30
0
11
158.402733
21
0.69292
31
0
39
0
210
0
220
0
230
1
0
LINE
5
131
100
AcDbEntity
8
1
62
256
6
ByLayer
370
13
48
1
60
0
100
AcDbLine
10
155.877814
20
3.920068
30
0
11
155.815984
21
3.916828
31
0
39
0
210
0
220
0
230
1
0
LINE
5
132
100
AcDbEntity
8
1
62
256
6
ByLayer
370
13
48
1
60
0
100
AcDbLine
10
149.254071
20
8.775
30
0
11
149.254071
21
8.643186
31
0
39
0
210
0
220
0
230
1
0
LINE
5
133
100
AcDbEntity
8
1
62
256
6
ByLayer
370
13
48
1
60
0
100
AcDbLine
10
154.303789
20
3.197306
30
0
11
154.628949
21
3.214347
31
0
39
0
210
0
220
0
230
1
0
LINE
5
134
100
AcDbEntity
8
1
62
256
6
ByLayer
370
13
48
1
60
0
100
AcDbLine
10
158.314487
20
0.557138
30
0
11
158.302859
21
0.558659
31
0
39
0
210
0
220
0
230
1
0
LINE
5
135
100
AcDbEntity
8
1
62
256
6
ByLayer
370
13
48
1
60
0
100
AcDbLine
10
4
20
-15.672959
30
0
11
4
21
-18.243959
31
0
39
0
210
0
220
0
230
1
0
LINE
5
136
100
AcDbEntity
8
1
62
256
6
ByLayer
370
13
48
1
60
0
100
AcDbLine
10
158.387834
20
2.97523
30
0
11
158.370702
21
2.974332
31
0
39
0
210
0
220
0
230
1
0
LINE
5
137
100
AcDbEntity
8
1
62
256
6
ByLayer
370
13
48
1
60
0
100
AcDbLine
10
157.709818
20
3.375808
30
0
11
158.079178
21
3.395165
31
0
39
0
210
0
220
0
230
1
0
LINE
5
138
100
AcDbEntity
8
1
62
256
6
ByLayer
370
13
48
1
60
0
100
AcDbLine
10
0.5
20
3.071
30
0
11
0.5
21
19.75
31
0
39
0
210
0
220
0
230
1
0
LINE
5
139
100
AcDbEntity
8
1
62
256
6
ByLayer
370
13
48
1
60
0
100
AcDbLine
10
30.01
20
-5.064364
30
0
11
30.01
21
-8.236365
31
0
39
0
210
0
220
0
230
1
0
LINE
5
13A
100
AcDbEntity
8
1
62
256
6
ByLayer
370
13
48
1
60
0
100
AcDbLine
10
157.510291
20
1.001263
30
0
11
158.068483
21
0.404875
31
0
39
0
210
0
220
0
230
1
0
LINE
5
13B
100
AcDbEntity
8
1
62
256
6
ByLayer
370
13
48
1
60
0
100
AcDbLine
10
0
20
-14.921978
30
0
11
0
21
-3.071
31
0
39
0
210
0
220
0
230
1
0
LINE
5
13C
100
AcDbEntity
8
1
62
256
6
ByLayer
370
13
48
1
60
0
100
AcDbLine
10
150.74844
20
7.826678
30
0
11
150.518561
21
6.070178
31
0
39
0
210
0
220
0
230
1
0
LINE
5
13D
100
AcDbEntity
8
1
62
256
6
ByLayer
370
13
48
1
60
0
100
AcDbLine
10
147.234227
20
1.012789
30
0
11
147.321966
21
0.4097
31
0
39
0
210
0
220
0
230
1
0
LINE
5
13E
100
AcDbEntity
8
1
62
256
6
ByLayer
370
13
48
1
60
0
100
AcDbLine
10
151.661196
20
8.440258
30
0
11
151.684586
21
8.61898
31
0
39
0
210
0
220
0
230
1
0
LINE
5
13F
100
AcDbEntity
8
1
62
256
6
ByLayer
370
13
48
1
60
0
100
AcDbLine
10
158.131335
20
3.548105
30
0
11
157.945594
21
3.538371
31
0
39
0
210
0
220
0
230
1
0
LINE
5
140
100
AcDbEntity
8
1
62
256
6
ByLayer
370
13
48
1
60
0
100
AcDbLine
10
158.322743
20
-2.521571
30
0
11
158.090127
21
-4.277113
31
0
39
0
210
0
220
0
230
1
0
LINE
5
141
100
AcDbEntity
8
4
62
256
6
ByLayer
370
18
48
0.05
60
0
100
AcDbLine
10
159
20
0
30
0
11
0
21
0
31
0
39
0
210
0
220
0
230
1
0
LINE
5
143
100
AcDbEntity
8
SK4
62
256
6
ByLayer
370
13
48
0.05
60
0
100
AcDbLine
10
159
20
0
30
0
11
-15
21
0
31
0
39
0
210
0
220
0
230
1
0
LINE
5
145
100
AcDbEntity
8
1
62
256
6
ByLayer
370
13
48
1
60
0
100
AcDbLine
10
107.565599
20
8.685
30
0
11
81.6
21
8.685
31
0
39
0
210
0
220
0
230
1
0
LINE
5
146
100
AcDbEntity
8
SK1
62
256
6
ByLayer
370
13
48
1
60
0
100
AcDbLine
10
-7.796888
20
12.15
30
0
11
-8.57646
21
12.15
31
0
39
0
210
0
220
0
230
1
0
LINE
5
147
100
AcDbEntity
8
SK1
62
256
6
ByLayer
370
13
48
1
60
0
100
AcDbLine
10
-8.57646
20
-12.15
30
0
11
-7.796888
21
-12.15
31
0
39
0
210
0
220
0
230
1
0
LINE
5
148
100
AcDbEntity
8
SK1
62
256
6
ByLayer
370
13
48
1
60
0
100
AcDbLine
10
-0.3
20
12.3
30
0
11
-1.57646
21
12.3
31
0
39
0
210
0
220
0
230
1
0
LINE
5
149
100
AcDbEntity
8
SK1
62
256
6
ByLayer
370
13
48
1
60
0
100
AcDbLine
10
-1.57646
20
-12.3
30
0
11
-0.3
21
-12.3
31
0
39
0
210
0
220
0
230
1
0
LINE
5
14A
100
AcDbEntity
8
SK1
62
256
6
ByLayer
370
13
48
1
60
0
100
AcDbLine
10
-9
20
12.3475
30
0
11
-13.5
21
12.3475
31
0
39
0
210
0
220
0
230
1
0
LINE
5
14B
100
AcDbEntity
8
SK1
62
256
6
ByLayer
370
13
48
1
60
0
100
AcDbLine
10
-13.5
20
-12.3475
30
0
11
-9
21
-12.3475
31
0
39
0
210
0
220
0
230
1
0
LINE
5
14C
100
AcDbEntity
8
SK1
62
256
6
ByLayer
370
13
48
1
60
0
100
AcDbLine
10
-8.57646
20
12.15
30
0
11
-9
21
12.3475
31
0
39
0
210
0
220
0
230
1
0
LINE
5
14D
100
AcDbEntity
8
SK1
62
256
6
ByLayer
370
13
48
1
60
0
100
AcDbLine
10
-9
20
-12.3475
30
0
11
-8.57646
21
-12.15
31
0
39
0
210
0
220
0
230
1
0
LINE
5
14E
100
AcDbEntity
8
SK1
62
256
6
ByLayer
370
13
48
1
60
0
100
AcDbLine
10
-15
20
-11.945576
30
0
11
-13.5
21
-12.3475
31
0
39
0
210
0
220
0
230
1
0
LINE
5
14F
100
AcDbEntity
8
SK1
62
256
6
ByLayer
370
13
48
1
60
0
100
AcDbLine
10
-13.5
20
12.3475
30
0
11
-15
21
11.945576
31
0
39
0
210
0
220
0
230
1
0
LINE
5
150
100
AcDbEntity
8
SK1
62
256
6
ByLayer
370
13
48
1
60
0
100
AcDbLine
10
-7.796888
20
-12.15
30
0
11
-6.5
21
-12.4975
31
0
39
0
210
0
220
0
230
1
0
LINE
5
151
100
AcDbEntity
8
SK1
62
256
6
ByLayer
370
13
48
1
60
0
100
AcDbLine
10
-6.5
20
12.4975
30
0
11
-7.796888
21
12.15
31
0
39
0
210
0
220
0
230
1
0
LINE
5
152
100
AcDbEntity
8
SK1
62
256
6
ByLayer
370
13
48
1
60
0
100
AcDbLine
10
-2
20
12.4975
30
0
11
-6.5
21
12.4975
31
0
39
0
210
0
220
0
230
1
0
LINE
5
153
100
AcDbEntity
8
SK1
62
256
6
ByLayer
370
13
48
1
60
0
100
AcDbLine
10
-6.5
20
-12.4975
30
0
11
-2
21
-12.4975
31
0
39
0
210
0
220
0
230
1
0
LINE
5
154
100
AcDbEntity
8
SK1
62
256
6
ByLayer
370
13
48
1
60
0
100
AcDbLine
10
-1.57646
20
12.3
30
0
11
-2
21
12.4975
31
0
39
0
210
0
220
0
230
1
0
LINE
5
155
100
AcDbEntity
8
SK1
62
256
6
ByLayer
370
13
48
1
60
0
100
AcDbLine
10
-2
20
-12.4975
30
0
11
-1.57646
21
-12.3
31
0
39
0
210
0
220
0
230
1
0
LINE
5
156
100
AcDbEntity
8
1
62
256
6
ByLayer
370
13
48
1
60
0
100
AcDbLine
10
30
20
-8.775
30
0
11
35
21
-8.775
31
0
39
0
210
0
220
0
230
1
0
LINE
5
157
100
AcDbEntity
8
1
62
256
6
ByLayer
370
13
48
1
60
0
100
AcDbLine
10
35
20
-8.775
30
0
11
81.6
21
-8.685
31
0
39
0
210
0
220
0
230
1
0
LINE
5
158
100
AcDbEntity
8
1
62
256
6
ByLayer
370
13
48
1
60
0
100
AcDbLine
10
150.604822
20
8.775
30
0
11
149.254071
21
8.775
31
0
39
0
210
0
220
0
230
1
0
LINE
5
159
100
AcDbEntity
8
1
62
256
6
ByLayer
370
13
48
1
60
0
100
AcDbLine
10
149.254071
20
8.775
30
0
11
146.254071
21
8.685
31
0
39
0
210
0
220
0
230
1
0
LINE
5
15A
100
AcDbEntity
8
1
62
256
6
ByLayer
370
13
48
1
60
0
100
AcDbLine
10
81.6
20
-8.685
30
0
11
117.433089
21
-8.685
31
0
39
0
210
0
220
0
230
1
0
LINE
5
15B
100
AcDbEntity
8
1
62
256
6
ByLayer
370
13
48
1
60
0
100
AcDbLine
10
146.254071
20
8.685
30
0
11
142.928702
21
8.685
31
0
39
0
210
0
220
0
230
1
0
LINE
5
15C
100
AcDbEntity
8
1
62
256
6
ByLayer
370
13
48
1
60
0
100
AcDbLine
10
0
20
-19.25
30
0
11
0.5
21
-19.75
31
0
39
0
210
0
220
0
230
1
0
LINE
5
15D
100
AcDbEntity
8
1
62
256
6
ByLayer
370
13
48
1
60
0
100
AcDbLine
10
81.6
20
8.685
30
0
11
35
21
8.775
31
0
39
0
210
0
220
0
230
1
0
LINE
5
15E
100
AcDbEntity
8
1
62
256
6
ByLayer
370
13
48
1
60
0
100
AcDbLine
10
5.5
20
-16
30
0
11
13.4436
21
-16
31
0
39
0
210
0
220
0
230
1
0
LINE
5
15F
100
AcDbEntity
8
1
62
256
6
ByLayer
370
13
48
1
60
0
100
AcDbLine
10
13.4436
20
16
30
0
11
5.5
21
16
31
0
39
0
210
0
220
0
230
1
0
LINE
5
160
100
AcDbEntity
8
1
62
256
6
ByLayer
370
13
48
1
60
0
100
AcDbLine
10
0.5
20
19.75
30
0
11
0
21
19.25
31
0
39
0
210
0
220
0
230
1
0
LINE
5
161
100
AcDbEntity
8
1
62
256
6
ByLayer
370
13
48
1
60
0
100
AcDbLine
10
5
20
19.75
30
0
11
0.5
21
19.75
31
0
39
0
210
0
220
0
230
1
0
LINE
5
162
100
AcDbEntity
8
1
62
256
6
ByLayer
370
13
48
1
60
0
100
AcDbLine
10
0.5
20
-19.75
30
0
11
5
21
-19.75
31
0
39
0
210
0
220
0
230
1
0
LINE
5
163
100
AcDbEntity
8
1
62
256
6
ByLayer
370
13
48
1
60
0
100
AcDbLine
10
158.455141
20
3.816304
30
0
11
158.64731
21
4.179674
31
0
39
0
210
0
220
0
230
1
0
LINE
5
164
100
AcDbEntity
8
1
62
256
6
ByLayer
370
13
48
1
60
0
100
AcDbLine
10
157.731349
20
6.47883
30
0
11
157.425754
21
8.41385
31
0
39
0
210
0
220
0
230
1
0
LINE
5
165
100
AcDbEntity
8
1
62
256
6
ByLayer
370
13
48
1
60
0
100
AcDbLine
10
157.453855
20
4.13738
30
0
11
157.734011
21
6.278049
31
0
39
0
210
0
220
0
230
1
0
LINE
5
166
100
AcDbEntity
8
1
62
256
6
ByLayer
370
18
48
1
60
0
100
AcDbLine
10
154.751918
20
5.410592
30
0
11
154.693747
21
5.407544
31
0
39
0
210
0
220
0
230
1
0
LINE
5
167
100
AcDbEntity
8
1
62
256
6
ByLayer
370
18
48
1
60
0
100
AcDbLine
10
154.622758
20
6.762085
30
0
11
154.68093
21
6.765133
31
0
39
0
210
0
220
0
230
1
0
LINE
5
168
100
AcDbEntity
8
1
62
256
6
ByLayer
370
18
48
1
60
0
100
AcDbLine
10
154.736361
20
4.762089
30
0
11
154.782107
21
4.764487
31
0
39
0
210
0
220
0
230
1
0
LINE
5
169
100
AcDbEntity
8
1
62
256
6
ByLayer
370
18
48
1
60
0
100
AcDbLine
10
154.643417
20
7.410855
30
0
11
154.59767
21
7.408458
31
0
39
0
210
0
220
0
230
1
0
LINE
5
16A
100
AcDbEntity
8
81
62
256
6
ByLayer
370
18
48
1
60
0
100
AcDbLine
10
159
20
0
30
0
11
166
21
0
31
0
39
0
210
0
220
0
230
1
0
LINE
5
16B
100
AcDbEntity
8
80
62
256
6
ByLayer
370
18
48
1
60
0
100
AcDbLine
10
0
20
0
30
0
11
-7
21
0
31
0
39
0
210
0
220
0
230
1
0
LINE
5
16C
100
AcDbEntity
8
SK2
62
256
6
ByLayer
370
13
48
1
60
0
100
AcDbLine
10
-35.725
20
23.75
30
0
11
-35.725
21
-23.75
31
0
39
0
210
0
220
0
230
1
0
LINE
5
16E
100
AcDbEntity
8
SK2
62
256
6
ByLayer
370
13
48
1
60
0
100
AcDbLine
10
-16.5875
20
-12.5
30
0
11
-38.9
21
-12.5
31
0
39
0
210
0
220
0
230
1
0
LINE
5
16F
100
AcDbEntity
8
SK2
62
256
6
ByLayer
370
13
48
1
60
0
100
AcDbLine
10
-16.5875
20
12.5
30
0
11
-38.9
21
12.5
31
0
39
0
210
0
220
0
230
1
0
LINE
5
170
100
AcDbEntity
8
1
62
256
6
ByLayer
370
18
48
1
60
1
100
AcDbLine
10
-35.725
20
-12.5
30
0
11
-34.799425
21
-16.674997
31
0
39
0
210
0
220
0
230
1
0
LINE
5
171
100
AcDbEntity
8
1
62
256
6
ByLayer
370
18
48
1
60
1
100
AcDbLine
10
-34.799425
20
-16.674997
30
0
11
-36.650575
21
-16.675003
31
0
39
0
210
0
220
0
230
1
0
LINE
5
172
100
AcDbEntity
8
1
62
256
6
ByLayer
370
18
48
1
60
1
100
AcDbLine
10
-36.650575
20
-16.675003
30
0
11
-35.725
21
-12.5
31
0
39
0
210
0
220
0
230
1
0
LINE
5
173
100
AcDbEntity
8
1
62
256
6
ByLayer
370
18
48
1
60
1
100
AcDbLine
10
-35.725
20
12.5
30
0
11
-36.650575
21
16.674997
31
0
39
0
210
0
220
0
230
1
0
LINE
5
174
100
AcDbEntity
8
1
62
256
6
ByLayer
370
18
48
1
60
1
100
AcDbLine
10
-36.650575
20
16.674997
30
0
11
-34.799425
21
16.675003
31
0
39
0
210
0
220
0
230
1
0
LINE
5
175
100
AcDbEntity
8
1
62
256
6
ByLayer
370
18
48
1
60
1
100
AcDbLine
10
-34.799425
20
16.675003
30
0
11
-35.725
21
12.5
31
0
39
0
210
0
220
0
230
1
0
LINE
5
176
100
AcDbEntity
8
SK2
62
256
6
ByLayer
370
13
48
1
60
0
100
AcDbLine
10
-45.725
20
-19.75
30
0
11
-45.725
21
19.75
31
0
39
0
210
0
220
0
230
1
0
LINE
5
177
100
AcDbEntity
8
SK2
62
256
6
ByLayer
370
13
48
1
60
0
100
AcDbLine
10
-1.5875
20
19.75
30
0
11
-48.9
21
19.75
31
0
39
0
210
0
220
0
230
1
0
LINE
5
178
100
AcDbEntity
8
SK2
62
256
6
ByLayer
370
13
48
1
60
0
100
AcDbLine
10
-1.5875
20
-19.75
30
0
11
-48.9
21
-19.75
31
0
39
0
210
0
220
0
230
1
0
LINE
5
179
100
AcDbEntity
8
1
62
256
6
ByLayer
370
18
48
1
60
1
100
AcDbLine
10
-45.725
20
19.75
30
0
11
-44.799425
21
15.575003
31
0
39
0
210
0
220
0
230
1
0
LINE
5
17A
100
AcDbEntity
8
1
62
256
6
ByLayer
370
18
48
1
60
1
100
AcDbLine
10
-44.799425
20
15.575003
30
0
11
-46.650575
21
15.574997
31
0
39
0
210
0
220
0
230
1
0
LINE
5
17B
100
AcDbEntity
8
1
62
256
6
ByLayer
370
18
48
1
60
1
100
AcDbLine
10
-46.650575
20
15.574997
30
0
11
-45.725
21
19.75
31
0
39
0
210
0
220
0
230
1
0
LINE
5
17C
100
AcDbEntity
8
1
62
256
6
ByLayer
370
18
48
1
60
1
100
AcDbLine
10
-45.725
20
-19.75
30
0
11
-46.650575
21
-15.575003
31
0
39
0
210
0
220
0
230
1
0
LINE
5
17D
100
AcDbEntity
8
1
62
256
6
ByLayer
370
18
48
1
60
1
100
AcDbLine
10
-46.650575
20
-15.575003
30
0
11
-44.799425
21
-15.574997
31
0
39
0
210
0
220
0
230
1
0
LINE
5
17E
100
AcDbEntity
8
1
62
256
6
ByLayer
370
18
48
1
60
1
100
AcDbLine
10
-44.799425
20
-15.574997
30
0
11
-45.725
21
-19.75
31
0
39
0
210
0
220
0
230
1
0
LINE
5
17F
100
AcDbEntity
8
2
62
256
6
ByLayer
370
13
48
1
60
0
100
AcDbLine
10
185.975
20
-9
30
0
11
185.975
21
38.861783
31
0
39
0
210
0
220
0
230
1
0
LINE
5
181
100
AcDbEntity
8
2
62
256
6
ByLayer
370
13
48
1
60
0
100
AcDbLine
10
160.5875
20
-9
30
0
11
189.15
21
-9
31
0
39
0
210
0
220
0
230
1
0
LINE
5
182
100
AcDbEntity
8
2
62
256
6
ByLayer
370
13
48
1
60
0
100
AcDbLine
10
160.5875
20
9
30
0
11
189.15
21
9
31
0
39
0
210
0
220
0
230
1
0
LINE
5
183
100
AcDbEntity
8
1
62
256
6
ByLayer
370
18
48
1
60
1
100
AcDbLine
10
185.975
20
-9
30
0
11
185.049425
21
-4.825003
31
0
39
0
210
0
220
0
230
1
0
LINE
5
184
100
AcDbEntity
8
1
62
256
6
ByLayer
370
18
48
1
60
1
100
AcDbLine
10
185.049425
20
-4.825003
30
0
11
186.900575
21
-4.824997
31
0
39
0
210
0
220
0
230
1
0
LINE
5
185
100
AcDbEntity
8
1
62
256
6
ByLayer
370
18
48
1
60
1
100
AcDbLine
10
186.900575
20
-4.824997
30
0
11
185.975
21
-9
31
0
39
0
210
0
220
0
230
1
0
LINE
5
186
100
AcDbEntity
8
1
62
256
6
ByLayer
370
18
48
1
60
1
100
AcDbLine
10
185.975
20
9
30
0
11
186.900575
21
4.825003
31
0
39
0
210
0
220
0
230
1
0
LINE
5
187
100
AcDbEntity
8
1
62
256
6
ByLayer
370
18
48
1
60
1
100
AcDbLine
10
186.900575
20
4.825003
30
0
11
185.049425
21
4.824997
31
0
39
0
210
0
220
0
230
1
0
LINE
5
188
100
AcDbEntity
8
1
62
256
6
ByLayer
370
18
48
1
60
1
100
AcDbLine
10
185.049425
20
4.824997
30
0
11
185.975
21
9
31
0
39
0
210
0
220
0
230
1
0
LINE
5
339
100
AcDbEntity
8
1
62
256
6
ByLayer
370
18
48
1
60
1
100
AcDbLine
10
-35.725
20
-12.5
30
0
11
-34.799425
21
-16.674997
31
0
39
0
210
0
220
0
230
1
0
LINE
5
33A
100
AcDbEntity
8
1
62
256
6
ByLayer
370
18
48
1
60
1
100
AcDbLine
10
-34.799425
20
-16.674997
30
0
11
-36.650575
21
-16.675003
31
0
39
0
210
0
220
0
230
1
0
LINE
5
33B
100
AcDbEntity
8
1
62
256
6
ByLayer
370
18
48
1
60
1
100
AcDbLine
10
-36.650575
20
-16.675003
30
0
11
-35.725
21
-12.5
31
0
39
0
210
0
220
0
230
1
0
LINE
5
33D
100
AcDbEntity
8
1
62
256
6
ByLayer
370
18
48
1
60
1
100
AcDbLine
10
-35.725
20
12.5
30
0
11
-36.650575
21
16.674997
31
0
39
0
210
0
220
0
230
1
0
LINE
5
33E
100
AcDbEntity
8
1
62
256
6
ByLayer
370
18
48
1
60
1
100
AcDbLine
10
-36.650575
20
16.674997
30
0
11
-34.799425
21
16.675003
31
0
39
0
210
0
220
0
230
1
0
LINE
5
33F
100
AcDbEntity
8
1
62
256
6
ByLayer
370
18
48
1
60
1
100
AcDbLine
10
-34.799425
20
16.675003
30
0
11
-35.725
21
12.5
31
0
39
0
210
0
220
0
230
1
0
LINE
5
343
100
AcDbEntity
8
1
62
256
6
ByLayer
370
18
48
1
60
1
100
AcDbLine
10
-45.725
20
19.75
30
0
11
-44.799425
21
15.575003
31
0
39
0
210
0
220
0
230
1
0
LINE
5
344
100
AcDbEntity
8
1
62
256
6
ByLayer
370
18
48
1
60
1
100
AcDbLine
10
-44.799425
20
15.575003
30
0
11
-46.650575
21
15.574997
31
0
39
0
210
0
220
0
230
1
0
LINE
5
345
100
AcDbEntity
8
1
62
256
6
ByLayer
370
18
48
1
60
1
100
AcDbLine
10
-46.650575
20
15.574997
30
0
11
-45.725
21
19.75
31
0
39
0
210
0
220
0
230
1
0
LINE
5
347
100
AcDbEntity
8
1
62
256
6
ByLayer
370
18
48
1
60
1
100
AcDbLine
10
-45.725
20
-19.75
30
0
11
-46.650575
21
-15.575003
31
0
39
0
210
0
220
0
230
1
0
LINE
5
348
100
AcDbEntity
8
1
62
256
6
ByLayer
370
18
48
1
60
1
100
AcDbLine
10
-46.650575
20
-15.575003
30
0
11
-44.799425
21
-15.574997
31
0
39
0
210
0
220
0
230
1
0
LINE
5
349
100
AcDbEntity
8
1
62
256
6
ByLayer
370
18
48
1
60
1
100
AcDbLine
10
-44.799425
20
-15.574997
30
0
11
-45.725
21
-19.75
31
0
39
0
210
0
220
0
230
1
0
LINE
5
34D
100
AcDbEntity
8
1
62
256
6
ByLayer
370
18
48
1
60
1
100
AcDbLine
10
185.975
20
-9
30
0
11
185.049425
21
-4.825003
31
0
39
0
210
0
220
0
230
1
0
LINE
5
34E
100
AcDbEntity
8
1
62
256
6
ByLayer
370
18
48
1
60
1
100
AcDbLine
10
185.049425
20
-4.825003
30
0
11
186.900575
21
-4.824997
31
0
39
0
210
0
220
0
230
1
0
LINE
5
34F
100
AcDbEntity
8
1
62
256
6
ByLayer
370
18
48
1
60
1
100
AcDbLine
10
186.900575
20
-4.824997
30
0
11
185.975
21
-9
31
0
39
0
210
0
220
0
230
1
0
LINE
5
351
100
AcDbEntity
8
1
62
256
6
ByLayer
370
18
48
1
60
1
100
AcDbLine
10
185.975
20
9
30
0
11
186.900575
21
4.825003
31
0
39
0
210
0
220
0
230
1
0
LINE
5
352
100
AcDbEntity
8
1
62
256
6
ByLayer
370
18
48
1
60
1
100
AcDbLine
10
186.900575
20
4.825003
30
0
11
185.049425
21
4.824997
31
0
39
0
210
0
220
0
230
1
0
LINE
5
353
100
AcDbEntity
8
1
62
256
6
ByLayer
370
18
48
1
60
1
100
AcDbLine
10
185.049425
20
4.824997
30
0
11
185.975
21
9
31
0
39
0
210
0
220
0
230
1
0
MTEXT
5
335
100
AcDbEntity
8
SK2
62
256
6
ByLayer
370
18
48
1
60
0
100
AcDbMText
10
-37.736672
20
-6.949399
30
0
210
0
220
0
230
1
1
%%c
40
4.5
41
0
44
1.084337
50
90
71
7
72
5
7
iso_b_vert
0
MTEXT
5
338
100
AcDbEntity
8
SK2
62
256
6
ByLayer
370
18
48
1
60
0
100
AcDbMText
10
-37.736672
20
4.265444
30
0
210
0
220
0
230
1
1
\W0.6740;25
40
4.5
41
0
44
1.084337
50
90
71
7
72
5
7
iso_b_vert
0
MTEXT
5
341
100
AcDbEntity
8
SK2
62
256
6
ByLayer
370
18
48
1
60
0
100
AcDbMText
10
-47.736672
20
-9.541655
30
0
210
0
220
0
230
1
1
%%c
40
4.5
41
0
44
1.084337
50
90
71
7
72
5
7
iso_b_vert
0
MTEXT
5
342
100
AcDbEntity
8
SK2
62
256
6
ByLayer
370
18
48
1
60
0
100
AcDbMText
10
-47.736672
20
1.673189
30
0
210
0
220
0
230
1
1
\W0.7346;39.5
40
4.5
41
0
44
1.084337
50
90
71
7
72
5
7
iso_b_vert
0
MTEXT
5
34B
100
AcDbEntity
8
2
62
256
6
ByLayer
370
18
48
1
60
0
100
AcDbMText
10
183.963328
20
23.600156
30
0
210
0
220
0
230
1
1
%%c
40
4.5
41
0
44
1.084337
50
90
71
7
72
5
7
iso_b_vert
0
MTEXT
5
34C
100
AcDbEntity
8
2
62
256
6
ByLayer
370
18
48
1
60
0
100
AcDbMText
10
183.963328
20
34.815
30
0
210
0
220
0
230
1
1
\W0.5321;18
40
4.5
41
0
44
1.084337
50
90
71
7
72
5
7
iso_b_vert
0
MTEXT
5
355
100
AcDbEntity
8
SK6
62
256
6
ByLayer
370
18
48
1
60
0
100
AcDbMText
10
9.308916
20
-94.592562
30
0
210
0
220
0
230
1
1
\W0.7549;DS20-D1800DM25-07
40
3.5
41
0
44
1.084337
50
0
71
7
72
5
7
iso_b_vert
0
HATCH
5
33C
100
AcDbEntity
8
SK2
62
256
6
ByLayer
370
13
48
1
60
0
100
AcDbHatch
10
0
20
0
30
0
210
0
220
0
230
1
2
ANSI31
70
0
71
0
91
1
92
5
93
3
72
1
10
-35.725
20
-12.5
11
-34.799424783472
21
-16.6749966001724
72
1
10
-34.799424783472
20
-16.6749966001724
11
-36.650575216528
21
-16.6750033998276
72
1
10
-36.650575216528
20
-16.6750033998276
11
-35.725
21
-12.5
97
0
75
0
76
1
52
0
41
0.0062
77
0
78
1
53
45
43
0
44
0
45
-0.0139193969876572
46
0.0139193969876572
79
0
47
0
98
1
10
0
20
0
0
HATCH
5
340
100
AcDbEntity
8
SK2
62
256
6
ByLayer
370
13
48
1
60
0
100
AcDbHatch
10
0
20
0
30
0
210
0
220
0
230
1
2
ANSI31
70
0
71
0
91
1
92
5
93
3
72
1
10
-35.725
20
12.5
11
-36.650575216528
21
16.6749966001724
72
1
10
-36.650575216528
20
16.6749966001724
11
-34.799424783472
21
16.6750033998277
72
1
10
-34.799424783472
20
16.6750033998277
11
-35.725
21
12.5
97
0
75
0
76
1
52
0
41
0.0062
77
0
78
1
53
45
43
0
44
0
45
-0.0139193969876572
46
0.0139193969876572
79
0
47
0
98
1
10
0
20
0
0
HATCH
5
346
100
AcDbEntity
8
SK2
62
256
6
ByLayer
370
13
48
1
60
0
100
AcDbHatch
10
0
20
0
30
0
210
0
220
0
230
1
2
ANSI31
70
0
71
0
91
1
92
5
93
3
72
1
10
-45.725
20
19.75
11
-44.799424783472
21
15.5750033998276
72
1
10
-44.799424783472
20
15.5750033998276
11
-46.650575216528
21
15.5749966001724
72
1
10
-46.650575216528
20
15.5749966001724
11
-45.725
21
19.75
97
0
75
0
76
1
52
0
41
0.0062
77
0
78
1
53
45
43
0
44
0
45
-0.0139193969876572
46
0.0139193969876572
79
0
47
0
98
1
10
0
20
0
0
HATCH
5
34A
100
AcDbEntity
8
SK2
62
256
6
ByLayer
370
13
48
1
60
0
100
AcDbHatch
10
0
20
0
30
0
210
0
220
0
230
1
2
ANSI31
70
0
71
0
91
1
92
5
93
3
72
1
10
-45.725
20
-19.75
11
-46.650575216528
21
-15.5750033998276
72
1
10
-46.650575216528
20
-15.5750033998276
11
-44.799424783472
21
-15.5749966001724
72
1
10
-44.799424783472
20
-15.5749966001724
11
-45.725
21
-19.75
97
0
75
0
76
1
52
0
41
0.0062
77
0
78
1
53
45
43
0
44
0
45
-0.0139193969876572
46
0.0139193969876572
79
0
47
0
98
1
10
0
20
0
0
HATCH
5
350
100
AcDbEntity
8
2
62
256
6
ByLayer
370
13
48
1
60
0
100
AcDbHatch
10
0
20
0
30
0
210
0
220
0
230
1
2
ANSI31
70
0
71
0
91
1
92
5
93
3
72
1
10
185.975
20
-9.00000000000017
11
185.049424783472
21
-4.82500339982778
72
1
10
185.049424783472
20
-4.82500339982778
11
186.900575216528
21
-4.82499660017254
72
1
10
186.900575216528
20
-4.82499660017254
11
185.975
21
-9.00000000000017
97
0
75
0
76
1
52
0
41
0.0062
77
0
78
1
53
45
43
0
44
0
45
-0.0139193969876572
46
0.0139193969876572
79
0
47
0
98
1
10
0
20
0
0
HATCH
5
354
100
AcDbEntity
8
2
62
256
6
ByLayer
370
13
48
1
60
0
100
AcDbHatch
10
0
20
0
30
0
210
0
220
0
230
1
2
ANSI31
70
0
71
0
91
1
92
5
93
3
72
1
10
185.975
20
8.99999999999983
11
186.900575216528
21
4.82500339982744
72
1
10
186.900575216528
20
4.82500339982744
11
185.049424783472
21
4.8249966001722
72
1
10
185.049424783472
20
4.8249966001722
11
185.975
21
8.99999999999983
97
0
75
0
76
1
52
0
41
0.0062
77
0
78
1
53
45
43
0
44
0
45
-0.0139193969876572
46
0.0139193969876572
79
0
47
0
98
1
10
0
20
0
0
DIMENSION
5
358
100
AcDbEntity
8
2
62
256
6
ByLayer
370
18
48
1
60
0
100
AcDbDimension
2
_U0
10
159
20
-68.6
30
0
11
79.5
21
-68.6
31
0
70
32
71
1
72
1
41
1
210
0
220
0
230
1
3
Standard
100
AcDbAlignedDimension
13
0
23
-19.75
33
0
14
159
24
-9
34
0
50
0
100
AcDbRotatedDimension
1001
ACAD
1000
DSTYLE
1002
{
1070
   371
1070
    13
1070
   372
1070
    13
1070
   170
1070
     0
1070
   144
1040
1.0
1070
   277
1070
     2
1070
   284
1070
     8
1070
   278
1070
    46
1070
   146
1040
0.777778
1070
   345
1005
16
1070
   347
1005
16
1070
   346
1005
16
1070
   344
1005
0
1070
   343
1005
0
1070
   172
1070
     1
1070
    76
1070
     0
1070
    75
1070
     0
1070
   282
1070
     0
1070
   281
1070
     0
1070
    71
1070
     0
1070
    74
1070
     0
1070
   279
1070
     0
1070
   173
1070
     1
1070
   340
1005
336
1070
   271
1070
     1
1070
   272
1070
     2
1070
    77
1070
     1
1070
    73
1070
     1
1070
   171
1070
     3
1070
   274
1070
     4
1070
   177
1070
   150
1070
   176
1070
     9
1070
   178
1070
    43
1070
    78
1070
     8
1070
    48
1040
-0.1
1070
    41
1040
4.175
1070
   147
1040
2.25
1070
    42
1040
1.5875
1070
    44
1040
3.175
1070
   140
1040
4.5
1002
}
1001
ACAD_DSTYLE_DIM_LINETYPE
1070
   380
1005
16
1001
ACAD_DSTYLE_DIM_EXT1_LINETYPE
1070
   381
1005
16
1001
ACAD_DSTYLE_DIM_EXT2_LINETYPE
1070
   382
1005
16
0
DIMENSION
5
371
100
AcDbEntity
8
SK2
62
256
6
ByLayer
370
18
48
1
60
0
100
AcDbDimension
2
_U1
10
0
20
-68.6
30
0
11
-7.5
21
-68.6
31
0
70
32
71
1
72
1
41
1
210
0
220
0
230
1
3
Standard
100
AcDbAlignedDimension
13
-15
23
-12.5
33
0
14
0
24
-19.75
34
0
50
0
100
AcDbRotatedDimension
1001
ACAD
1000
DSTYLE
1002
{
1070
   371
1070
    13
1070
   372
1070
    13
1070
   170
1070
     0
1070
   144
1040
1.0
1070
   277
1070
     2
1070
   284
1070
     8
1070
   278
1070
    46
1070
   146
1040
0.777778
1070
   345
1005
16
1070
   347
1005
16
1070
   346
1005
16
1070
   344
1005
0
1070
   343
1005
0
1070
   172
1070
     1
1070
    76
1070
     0
1070
    75
1070
     0
1070
   282
1070
     0
1070
   281
1070
     0
1070
    71
1070
     0
1070
    74
1070
     0
1070
   279
1070
     0
1070
   173
1070
     1
1070
   340
1005
336
1070
   271
1070
     1
1070
   272
1070
     2
1070
    77
1070
     1
1070
    73
1070
     1
1070
   171
1070
     3
1070
   274
1070
     4
1070
   177
1070
   150
1070
   176
1070
     9
1070
   178
1070
    43
1070
    78
1070
     8
1070
    48
1040
-0.1
1070
    41
1040
4.175
1070
   147
1040
2.25
1070
    42
1040
1.5875
1070
    44
1040
3.175
1070
   140
1040
4.5
1002
}
1001
ACAD_DSTYLE_DIM_LINETYPE
1070
   380
1005
16
1001
ACAD_DSTYLE_DIM_EXT1_LINETYPE
1070
   381
1005
16
1001
ACAD_DSTYLE_DIM_EXT2_LINETYPE
1070
   382
1005
16
0
DIMENSION
5
38A
100
AcDbEntity
8
SK2
62
256
6
ByLayer
370
18
48
1
60
0
100
AcDbDimension
2
_U2
10
13.9436
20
-58.6
30
0
11
86.4718
21
-58.6
31
0
70
32
71
1
72
1
41
1
210
0
220
0
230
1
3
Standard
100
AcDbAlignedDimension
13
159
23
-9
33
0
14
13.9436
24
-19.75
34
0
50
0
100
AcDbRotatedDimension
1001
ACAD
1000
DSTYLE
1002
{
1070
   371
1070
    13
1070
   372
1070
    13
1070
   170
1070
     0
1070
   144
1040
1.0
1070
   277
1070
     2
1070
   284
1070
     8
1070
   278
1070
    46
1070
   146
1040
0.777778
1070
   345
1005
16
1070
   347
1005
16
1070
   346
1005
16
1070
   344
1005
0
1070
   343
1005
0
1070
   172
1070
     1
1070
    76
1070
     0
1070
    75
1070
     0
1070
   282
1070
     0
1070
   281
1070
     0
1070
    71
1070
     0
1070
    74
1070
     0
1070
   279
1070
     0
1070
   173
1070
     1
1070
   340
1005
336
1070
   271
1070
     1
1070
   272
1070
     2
1070
    77
1070
     1
1070
    73
1070
     1
1070
   171
1070
     3
1070
   274
1070
     4
1070
   177
1070
   150
1070
   176
1070
     9
1070
   178
1070
    43
1070
    78
1070
     8
1070
    48
1040
-0.1
1070
    41
1040
4.175
1070
   147
1040
2.25
1070
    42
1040
1.5875
1070
    44
1040
3.175
1070
   140
1040
4.5
1002
}
1001
ACAD_DSTYLE_DIM_LINETYPE
1070
   380
1005
16
1001
ACAD_DSTYLE_DIM_EXT1_LINETYPE
1070
   381
1005
16
1001
ACAD_DSTYLE_DIM_EXT2_LINETYPE
1070
   382
1005
16
0
DIMENSION
5
3A2
100
AcDbEntity
8
SK2
62
256
6
ByLayer
370
18
48
1
60
0
100
AcDbDimension
2
_U3
10
159
20
-48.6
30
0
11
94.5
21
-48.6
31
0
70
32
71
1
72
1
41
1
210
0
220
0
230
1
3
Standard
100
AcDbAlignedDimension
13
30
23
-9
33
0
14
159
24
-9
34
0
50
0
100
AcDbRotatedDimension
1001
ACAD
1000
DSTYLE
1002
{
1070
   371
1070
    13
1070
   372
1070
    13
1070
   170
1070
     0
1070
   144
1040
1.0
1070
   277
1070
     2
1070
   284
1070
     8
1070
   278
1070
    46
1070
   146
1040
0.777778
1070
   345
1005
16
1070
   347
1005
16
1070
   346
1005
16
1070
   344
1005
0
1070
   343
1005
0
1070
   172
1070
     1
1070
    76
1070
     0
1070
    75
1070
     0
1070
   282
1070
     0
1070
   281
1070
     0
1070
    71
1070
     0
1070
    74
1070
     0
1070
   279
1070
     0
1070
   173
1070
     1
1070
   340
1005
336
1070
   271
1070
     1
1070
   272
1070
     2
1070
    77
1070
     1
1070
    73
1070
     1
1070
   171
1070
     3
1070
   274
1070
     4
1070
   177
1070
   150
1070
   176
1070
     9
1070
   178
1070
    43
1070
    78
1070
     8
1070
    48
1040
-0.1
1070
    41
1040
4.175
1070
   147
1040
2.25
1070
    42
1040
1.5875
1070
    44
1040
3.175
1070
   140
1040
4.5
1002
}
1001
ACAD_DSTYLE_DIM_LINETYPE
1070
   380
1005
16
1001
ACAD_DSTYLE_DIM_EXT1_LINETYPE
1070
   381
1005
16
1001
ACAD_DSTYLE_DIM_EXT2_LINETYPE
1070
   382
1005
16
0
DIMENSION
5
3BA
100
AcDbEntity
8
2
62
256
6
ByLayer
370
18
48
1
60
0
100
AcDbDimension
2
_U4
10
159
20
-38.6
30
0
11
181.350893
21
-38.6
31
0
70
32
71
1
72
1
41
1
210
0
220
0
230
1
3
Standard
100
AcDbAlignedDimension
13
158.5369
23
-4.5
33
0
14
159
24
0
34
0
50
0
100
AcDbRotatedDimension
1001
ACAD
1000
DSTYLE
1002
{
1070
   371
1070
    13
1070
   372
1070
    13
1070
   170
1070
     0
1070
   144
1040
1.0
1070
   277
1070
     2
1070
   284
1070
     8
1070
   278
1070
    46
1070
   146
1040
0.777778
1070
   345
1005
16
1070
   347
1005
16
1070
   346
1005
16
1070
   344
1005
0
1070
   343
1005
0
1070
   172
1070
     1
1070
    76
1070
     0
1070
    75
1070
     0
1070
   282
1070
     0
1070
   281
1070
     0
1070
    71
1070
     0
1070
    74
1070
     0
1070
   279
1070
     0
1070
   173
1070
     1
1070
   340
1005
336
1070
   271
1070
     2
1070
   272
1070
     2
1070
    77
1070
     1
1070
    73
1070
     1
1070
   171
1070
     3
1070
   274
1070
     4
1070
   177
1070
   150
1070
   176
1070
     9
1070
   178
1070
    43
1070
    78
1070
     8
1070
    48
1040
-0.1
1070
    41
1040
4.175
1070
   147
1040
2.25
1070
    42
1040
1.5875
1070
    44
1040
3.175
1070
   140
1040
4.5
1002
}
1001
ACAD_DSTYLE_DIM_LINETYPE
1070
   380
1005
16
1001
ACAD_DSTYLE_DIM_EXT1_LINETYPE
1070
   381
1005
16
1001
ACAD_DSTYLE_DIM_EXT2_LINETYPE
1070
   382
1005
16
0
ENDSEC
0
SECTION
2
OBJECTS
0
DICTIONARY
5
444
330
0
100
AcDbDictionary
280
0
281
1
3
ACAD_GROUP
350
445
3
ACAD_MLINESTYLE
350
446
0
DICTIONARY
5
445
330
0
100
AcDbDictionary
280
0
281
1
0
DICTIONARY
5
446
330
0
100
AcDbDictionary
280
0
281
1
3
Standard
350
18
0
MLINESTYLE
5
18
330
446
100
AcDbMlineStyle
2
Standard
70
0
3

62
256
51
90
52
90
71
2
49
-0.5
62
256
6
ByLayer
49
0.5
62
256
6
ByLayer
0
RASTERVARIABLES
5
432
330

100
AcDbRasterVariables
90
0
70
1
71
1
72
1
0
ENDSEC
0
EOF
