0
SECTION
2
HEADER
9
$ACADVER
1
AC1015
9
$DWGCODEPAGE
3
ANSI_1252
9
$HANDSEED
5
452
9
$ANGBASE
50
0
9
$ANGDIR
70
0
9
$ATTMODE
70
1
9
$AUNITS
70
0
9
$AUPREC
70
0
9
$CECOLOR
62
256
9
$CELTSCALE
40
1
9
$CELTYPE
6
ByLayer
9
$CELWEIGHT
370
18
9
$CLAYER
8
0
9
$CMLJUST
70
0
9
$CMLSCALE
40
1
9
$CMLSTYLE
2
Standard
9
$DIMSTYLE
2
Standard
9
$TEXTSIZE
40
0.2
9
$TEXTSTYLE
7
Standard
9
$LUNITS
70
2
9
$LUPREC
70
4
9
$EXTNAMES
290
1
9
$INSUNITS
70
4
9
$LTSCALE
40
1
9
$LWDISPLAY
290
1
9
$PDMODE
70
0
9
$PDSIZE
40
0
9
$PLINEGEN
70
0
0
ENDSEC
0
SECTION
2
CLASSES
0
CLASS
1
RASTERVARIABLES
2
AcDbRasterVariables
3
ISM
90
0
280
0
281
0
0
ENDSEC
0
SECTION
2
TABLES
0
TABLE
2
VPORT
5
448
100
AcDbSymbolTable
0
VPORT
5
1
100
AcDbSymbolTableRecord
100
AcDbViewportTableRecord
2
*Active
70
0
10
0
20
0
11
1
21
1
12
-1
22
1
13
0
23
0
14
0.5
24
0.5
15
10
25
10
16
0
26
0
36
1
17
0
27
0
37
0
0
ENDTAB
0
TABLE
2
LTYPE
5
449
100
AcDbSymbolTable
0
LTYPE
5
14
100
AcDbSymbolTableRecord
100
AcDbLinetypeTableRecord
70
0
2
ByBlock
3

72
65
73
0
40
0
0
LTYPE
5
15
100
AcDbSymbolTableRecord
100
AcDbLinetypeTableRecord
70
0
2
ByLayer
3

72
65
73
0
40
0
0
LTYPE
5
16
100
AcDbSymbolTableRecord
100
AcDbLinetypeTableRecord
70
0
2
Continuous
3
Solid line
72
65
73
0
40
0
0
LTYPE
5
6E
100
AcDbSymbolTableRecord
100
AcDbLinetypeTableRecord
70
0
2
CENTER
3
____ _ ____ _ ____ _ ____
72
65
73
4
40
47.5
49
22
74
0
49
-8.5
74
0
49
8.5
74
0
49
-8.5
74
0
0
LTYPE
5
6F
100
AcDbSymbolTableRecord
100
AcDbLinetypeTableRecord
70
0
2
DASHED
3
__ __ __ __ __ __ __ __ __
72
65
73
2
40
25.72
49
12.86
74
0
49
-12.86
74
0
0
ENDTAB
0
TABLE
2
LAYER
5
44a
100
AcDbSymbolTable
0
LAYER
5
10
100
AcDbSymbolTableRecord
100
AcDbLayerTableRecord
2
0
70
0
62
7
6
Continuous
290
1
370
-3
390
0
0
LAYER
5
71
100
AcDbSymbolTableRecord
100
AcDbLayerTableRecord
2
1
70
0
62
4
6
Continuous
290
1
370
-3
390
0
0
LAYER
5
73
100
AcDbSymbolTableRecord
100
AcDbLayerTableRecord
2
80
70
0
62
-6
6
Continuous
290
1
370
-3
390
0
0
LAYER
5
75
100
AcDbSymbolTableRecord
100
AcDbLayerTableRecord
2
81
70
0
62
-3
6
Continuous
290
1
370
-3
390
0
0
LAYER
5
142
100
AcDbSymbolTableRecord
100
AcDbLayerTableRecord
2
4
70
0
62
-2
6
CENTER
290
1
370
-3
390
0
0
LAYER
5
180
100
AcDbSymbolTableRecord
100
AcDbLayerTableRecord
2
2
70
0
62
7
6
Continuous
290
1
370
-3
390
0
0
LAYER
5
35C
100
AcDbSymbolTableRecord
100
AcDbLayerTableRecord
2
Defpoints
70
0
62
7
6
Continuous
290
0
370
-3
390
0
0
LAYER
5
434
100
AcDbSymbolTableRecord
100
AcDbLayerTableRecord
2
SK1
70
0
62
4
6
Continuous
290
1
370
-3
390
0
0
LAYER
5
435
100
AcDbSymbolTableRecord
100
AcDbLayerTableRecord
2
SK4
70
0
62
2
6
CENTER
290
1
370
-3
390
0
0
LAYER
5
436
100
AcDbSymbolTableRecord
100
AcDbLayerTableRecord
2
SK2
70
0
62
7
6
Continuous
290
1
370
-3
390
0
0
LAYER
5
437
100
AcDbSymbolTableRecord
100
AcDbLayerTableRecord
2
SK6
70
0
62
5
6
Continuous
290
1
370
-3
390
0
0
ENDTAB
0
TABLE
2
STYLE
5
44b
100
AcDbSymbolTable
0
STYLE
5
11
100
AcDbSymbolTableRecord
100
AcDbTextStyleTableRecord
2
Standard
3
txt
70
0
71
0
40
0
41
1
42
0
50
0
0
STYLE
5
337
100
AcDbSymbolTableRecord
100
AcDbTextStyleTableRecord
2
iso_b_vert
3
simplex.shx
70
0
71
0
40
0
41
1
42
0
50
0
0
STYLE
5
338
100
AcDbSymbolTableRecord
100
AcDbTextStyleTableRecord
2
DWGDirectTextStyle
3
simplex
70
0
71
0
40
0
41
1
42
0
50
0
0
ENDTAB
0
TABLE
2
DIMSTYLE
5
44c
100
AcDbSymbolTable
100
AcDbDimStyleTable
0
DIMSTYLE
105
27
100
AcDbSymbolTableRecord
100
AcDbDimStyleTableRecord
2
Standard
70
0
3
<>
41
0.18
42
0.0625
44
0.18
140
0.18
147
0.09
73
0
74
0
77
1
271
2
275
0
278
52
280
0
340
11
0
ENDTAB
0
TABLE
2
VIEW
5
44d
100
AcDbSymbolTable
0
ENDTAB
0
TABLE
2
UCS
5
44e
100
AcDbSymbolTable
0
ENDTAB
0
TABLE
2
APPID
5
44f
100
AcDbSymbolTable
0
APPID
5
12
100
AcDbSymbolTableRecord
100
AcDbRegAppTableRecord
2
ACAD
70
0
0
APPID
5
358
100
AcDbSymbolTableRecord
100
AcDbRegAppTableRecord
2
ACAD_DSTYLE_DIMBREAK
70
0
0
APPID
5
3F3
100
AcDbSymbolTableRecord
100
AcDbRegAppTableRecord
2
ACAD_DSTYLE_DIM_LINETYPE
70
0
0
APPID
5
3F4
100
AcDbSymbolTableRecord
100
AcDbRegAppTableRecord
2
ACAD_DSTYLE_DIM_EXT1_LINETYPE
70
0
0
APPID
5
3F5
100
AcDbSymbolTableRecord
100
AcDbRegAppTableRecord
2
ACAD_DSTYLE_DIM_EXT2_LINETYPE
70
0
0
APPID
5
430
100
AcDbSymbolTableRecord
100
AcDbRegAppTableRecord
2
ACAD_MLEADERVER
70
0
0
ENDTAB
0
TABLE
2
BLOCK_RECORD
5
450
100
AcDbSymbolTable
0
BLOCK_RECORD
5
1F
100
AcDbSymbolTableRecord
100
AcDbBlockTableRecord
2
*Model_Space
340
0
70
0
0
BLOCK_RECORD
5
1B
100
AcDbSymbolTableRecord
100
AcDbBlockTableRecord
2
*Paper_Space
340
0
70
0
0
BLOCK_RECORD
5
23
100
AcDbSymbolTableRecord
100
AcDbBlockTableRecord
2
*Paper_Space0
340
0
70
0
0
BLOCK_RECORD
5
35D
100
AcDbSymbolTableRecord
100
AcDbBlockTableRecord
2
*D1
340
0
70
0
0
BLOCK_RECORD
5
369
100
AcDbSymbolTableRecord
100
AcDbBlockTableRecord
2
_U0
340
0
70
0
0
BLOCK_RECORD
5
375
100
AcDbSymbolTableRecord
100
AcDbBlockTableRecord
2
*D3
340
0
70
0
0
BLOCK_RECORD
5
382
100
AcDbSymbolTableRecord
100
AcDbBlockTableRecord
2
_U1
340
0
70
0
0
BLOCK_RECORD
5
38E
100
AcDbSymbolTableRecord
100
AcDbBlockTableRecord
2
*D5
340
0
70
0
0
BLOCK_RECORD
5
39A
100
AcDbSymbolTableRecord
100
AcDbBlockTableRecord
2
_U2
340
0
70
0
0
BLOCK_RECORD
5
3A6
100
AcDbSymbolTableRecord
100
AcDbBlockTableRecord
2
*D7
340
0
70
0
0
BLOCK_RECORD
5
3B2
100
AcDbSymbolTableRecord
100
AcDbBlockTableRecord
2
_U3
340
0
70
0
0
BLOCK_RECORD
5
3BE
100
AcDbSymbolTableRecord
100
AcDbBlockTableRecord
2
*D9
340
0
70
0
0
BLOCK_RECORD
5
3CC
100
AcDbSymbolTableRecord
100
AcDbBlockTableRecord
2
_U4
340
0
70
0
0
ENDTAB
0
ENDSEC
0
SECTION
2
BLOCKS
0
BLOCK
5
20
100
AcDbEntity
8
0
100
AcDbBlockBegin
2
*Model_Space
70
0
10
0
20
0
30
0
3
*Model_Space
0
ENDBLK
5
21
100
AcDbEntity
8
0
100
AcDbBlockEnd
0
BLOCK
5
1C
100
AcDbEntity
8
0
100
AcDbBlockBegin
2
*Paper_Space
70
0
10
0
20
0
30
0
3
*Paper_Space
0
ENDBLK
5
1D
100
AcDbEntity
8
0
100
AcDbBlockEnd
0
BLOCK
5
24
100
AcDbEntity
8
0
100
AcDbBlockBegin
2
*Paper_Space0
70
0
10
0
20
0
30
0
3
*Paper_Space0
0
ENDBLK
5
25
100
AcDbEntity
8
0
100
AcDbBlockEnd
0
BLOCK
5
35E
100
AcDbEntity
8
0
100
AcDbBlockBegin
2
*D1
70
1
10
0
20
0
30
0
3
*D1
0
LINE
5
360
100
AcDbEntity
8
0
62
256
6
ByLayer
370
-2
48
1
60
0
100
AcDbLine
10
0
20
-17.5875
30
0
11
0
21
-68.025
31
0
39
0
210
0
220
0
230
1
0
LINE
5
361
100
AcDbEntity
8
0
62
256
6
ByLayer
370
-2
48
1
60
0
100
AcDbLine
10
141
20
-9.5875
30
0
11
141
21
-68.025
31
0
39
0
210
0
220
0
230
1
0
LINE
5
362
100
AcDbEntity
8
0
62
256
6
ByLayer
370
-2
48
1
60
0
100
AcDbLine
10
4.175
20
-64.85
30
0
11
136.825
21
-64.85
31
0
39
0
210
0
220
0
230
1
0
SOLID
5
363
100
AcDbEntity
8
0
62
256
6
ByLayer
370
-1
48
1
60
0
100
AcDbTrace
10
4.175
20
-64.154167
30
0
11
4.175
21
-65.545833
31
0
12
0
22
-64.85
32
0
13
0
23
-64.85
33
0
39
0
210
0
220
0
230
1
0
SOLID
5
364
100
AcDbEntity
8
0
62
256
6
ByLayer
370
-1
48
1
60
0
100
AcDbTrace
10
136.825
20
-65.545833
30
0
11
136.825
21
-64.154167
31
0
12
141
22
-64.85
32
0
13
141
23
-64.85
33
0
39
0
210
0
220
0
230
1
0
MTEXT
5
365
100
AcDbEntity
8
0
62
256
6
ByLayer
370
18
48
1
60
0
100
AcDbMText
10
70.5
20
-55.45625
30
0
210
0
220
0
230
1
1
\A1;141
40
4.5
41
0
44
1
50
0
71
5
72
5
7
iso_b_vert
0
POINT
5
366
100
AcDbEntity
8
Defpoints
62
0
6
ByLayer
370
-1
48
1
60
0
100
AcDbPoint
10
0
20
-16
30
0
39
0
210
0
220
0
230
1
50
360
0
POINT
5
367
100
AcDbEntity
8
Defpoints
62
0
6
ByLayer
370
-1
48
1
60
0
100
AcDbPoint
10
141
20
-8
30
0
39
0
210
0
220
0
230
1
50
360
0
POINT
5
368
100
AcDbEntity
8
Defpoints
62
0
6
ByLayer
370
-1
48
1
60
0
100
AcDbPoint
10
141
20
-64.85
30
0
39
0
210
0
220
0
230
1
50
360
0
ENDBLK
5
35F
100
AcDbEntity
8
0
100
AcDbBlockEnd
0
BLOCK
5
370
100
AcDbEntity
8
0
100
AcDbBlockBegin
2
_U0
70
0
10
0
20
0
30
0
3
_U0
0
MTEXT
5
36A
100
AcDbEntity
8
2
62
256
6
ByLayer
370
18
48
1
60
0
100
AcDbMText
10
67.257301
20
-63.522328
30
0
210
0
220
0
230
1
1
\W0.6369;141
40
4.5
41
0
44
1.084337
50
0
71
7
72
5
7
iso_b_vert
0
LINE
5
36B
100
AcDbEntity
8
2
62
256
6
ByLayer
370
13
48
1
60
0
100
AcDbLine
10
0
20
-17.5875
30
0
11
0
21
-68.025
31
0
39
0
210
0
220
0
230
1
0
LINE
5
36C
100
AcDbEntity
8
2
62
256
6
ByLayer
370
13
48
1
60
0
100
AcDbLine
10
141
20
-9.5875
30
0
11
141
21
-68.025
31
0
39
0
210
0
220
0
230
1
0
LINE
5
36D
100
AcDbEntity
8
2
62
256
6
ByLayer
370
13
48
1
60
0
100
AcDbLine
10
0
20
-64.85
30
0
11
141
21
-64.85
31
0
39
0
210
0
220
0
230
1
0
SOLID
5
36E
100
AcDbEntity
8
2
62
256
6
ByLayer
370
18
48
1
60
0
100
AcDbTrace
10
0
20
-64.85
30
0
11
4.174997
21
-63.924425
31
0
12
4.175003
22
-65.775575
32
0
13
4.175003
23
-65.775575
33
0
39
0
210
0
220
0
230
1
0
SOLID
5
36F
100
AcDbEntity
8
2
62
256
6
ByLayer
370
18
48
1
60
0
100
AcDbTrace
10
141
20
-64.85
30
0
11
136.825003
21
-65.775575
31
0
12
136.824997
22
-63.924425
32
0
13
136.824997
23
-63.924425
33
0
39
0
210
0
220
0
230
1
0
ENDBLK
5
371
100
AcDbEntity
8
0
100
AcDbBlockEnd
0
BLOCK
5
376
100
AcDbEntity
8
0
100
AcDbBlockBegin
2
*D3
70
1
10
0
20
0
30
0
3
*D3
0
LINE
5
378
100
AcDbEntity
8
0
62
256
6
ByLayer
370
-2
48
1
60
0
100
AcDbLine
10
-15
20
-11.5875
30
0
11
-15
21
-68.025
31
0
39
0
210
0
220
0
230
1
0
LINE
5
379
100
AcDbEntity
8
0
62
256
6
ByLayer
370
-2
48
1
60
0
100
AcDbLine
10
0
20
-17.5875
30
0
11
0
21
-68.025
31
0
39
0
210
0
220
0
230
1
0
LINE
5
37A
100
AcDbEntity
8
0
62
256
6
ByLayer
370
-2
48
1
60
0
100
AcDbLine
10
-19.175
20
-64.85
30
0
11
-23.35
21
-64.85
31
0
39
0
210
0
220
0
230
1
0
LINE
5
37B
100
AcDbEntity
8
0
62
256
6
ByLayer
370
-2
48
1
60
0
100
AcDbLine
10
4.175
20
-64.85
30
0
11
8.35
21
-64.85
31
0
39
0
210
0
220
0
230
1
0
SOLID
5
37C
100
AcDbEntity
8
0
62
256
6
ByLayer
370
-1
48
1
60
0
100
AcDbTrace
10
-19.175
20
-65.545833
30
0
11
-19.175
21
-64.154167
31
0
12
-15
22
-64.85
32
0
13
-15
23
-64.85
33
0
39
0
210
0
220
0
230
1
0
SOLID
5
37D
100
AcDbEntity
8
0
62
256
6
ByLayer
370
-1
48
1
60
0
100
AcDbTrace
10
4.175
20
-64.154167
30
0
11
4.175
21
-65.545833
31
0
12
0
22
-64.85
32
0
13
0
23
-64.85
33
0
39
0
210
0
220
0
230
1
0
MTEXT
5
37E
100
AcDbEntity
8
0
62
256
6
ByLayer
370
18
48
1
60
0
100
AcDbMText
10
-7.5
20
-55.45625
30
0
210
0
220
0
230
1
1
\A1;15
40
4.5
41
0
44
1
50
0
71
5
72
5
7
iso_b_vert
0
POINT
5
37F
100
AcDbEntity
8
Defpoints
62
0
6
ByLayer
370
-1
48
1
60
0
100
AcDbPoint
10
-15
20
-10
30
0
39
0
210
0
220
0
230
1
50
360
0
POINT
5
380
100
AcDbEntity
8
Defpoints
62
0
6
ByLayer
370
-1
48
1
60
0
100
AcDbPoint
10
0
20
-16
30
0
39
0
210
0
220
0
230
1
50
360
0
POINT
5
381
100
AcDbEntity
8
Defpoints
62
0
6
ByLayer
370
-1
48
1
60
0
100
AcDbPoint
10
0
20
-64.85
30
0
39
0
210
0
220
0
230
1
50
360
0
ENDBLK
5
377
100
AcDbEntity
8
0
100
AcDbBlockEnd
0
BLOCK
5
389
100
AcDbEntity
8
0
100
AcDbBlockBegin
2
_U1
70
0
10
0
20
0
30
0
3
_U1
0
MTEXT
5
383
100
AcDbEntity
8
SK2
62
256
6
ByLayer
370
18
48
1
60
0
100
AcDbMText
10
-9.386828
20
-63.522328
30
0
210
0
220
0
230
1
1
\W0.5321;15
40
4.5
41
0
44
1.084337
50
0
71
7
72
5
7
iso_b_vert
0
LINE
5
384
100
AcDbEntity
8
SK2
62
256
6
ByLayer
370
13
48
1
60
0
100
AcDbLine
10
-15
20
-11.5875
30
0
11
-15
21
-68.025
31
0
39
0
210
0
220
0
230
1
0
LINE
5
385
100
AcDbEntity
8
SK2
62
256
6
ByLayer
370
13
48
1
60
0
100
AcDbLine
10
0
20
-17.5875
30
0
11
0
21
-68.025
31
0
39
0
210
0
220
0
230
1
0
LINE
5
386
100
AcDbEntity
8
SK2
62
256
6
ByLayer
370
13
48
1
60
0
100
AcDbLine
10
-26.25
20
-64.85
30
0
11
11.25
21
-64.85
31
0
39
0
210
0
220
0
230
1
0
SOLID
5
387
100
AcDbEntity
8
SK2
62
256
6
ByLayer
370
18
48
1
60
0
100
AcDbTrace
10
-15
20
-64.85
30
0
11
-19.174997
21
-65.775575
31
0
12
-19.175003
22
-63.924425
32
0
13
-19.175003
23
-63.924425
33
0
39
0
210
0
220
0
230
1
0
SOLID
5
388
100
AcDbEntity
8
SK2
62
256
6
ByLayer
370
18
48
1
60
0
100
AcDbTrace
10
0
20
-64.85
30
0
11
4.174997
21
-63.924425
31
0
12
4.175003
22
-65.775575
32
0
13
4.175003
23
-65.775575
33
0
39
0
210
0
220
0
230
1
0
ENDBLK
5
38A
100
AcDbEntity
8
0
100
AcDbBlockEnd
0
BLOCK
5
38F
100
AcDbEntity
8
0
100
AcDbBlockBegin
2
*D5
70
1
10
0
20
0
30
0
3
*D5
0
LINE
5
391
100
AcDbEntity
8
0
62
256
6
ByLayer
370
-2
48
1
60
0
100
AcDbLine
10
141
20
-9.5875
30
0
11
141
21
-58.025
31
0
39
0
210
0
220
0
230
1
0
LINE
5
392
100
AcDbEntity
8
0
62
256
6
ByLayer
370
-2
48
1
60
0
100
AcDbLine
10
13.6071
20
-17.5875
30
0
11
13.6071
21
-58.025
31
0
39
0
210
0
220
0
230
1
0
LINE
5
393
100
AcDbEntity
8
0
62
256
6
ByLayer
370
-2
48
1
60
0
100
AcDbLine
10
136.825
20
-54.85
30
0
11
17.7821
21
-54.85
31
0
39
0
210
0
220
0
230
1
0
SOLID
5
394
100
AcDbEntity
8
0
62
256
6
ByLayer
370
-1
48
1
60
0
100
AcDbTrace
10
136.825
20
-55.545833
30
0
11
136.825
21
-54.154167
31
0
12
141
22
-54.85
32
0
13
141
23
-54.85
33
0
39
0
210
0
220
0
230
1
0
SOLID
5
395
100
AcDbEntity
8
0
62
256
6
ByLayer
370
-1
48
1
60
0
100
AcDbTrace
10
17.7821
20
-54.154167
30
0
11
17.7821
21
-55.545833
31
0
12
13.6071
22
-54.85
32
0
13
13.6071
23
-54.85
33
0
39
0
210
0
220
0
230
1
0
MTEXT
5
396
100
AcDbEntity
8
0
62
256
6
ByLayer
370
18
48
1
60
0
100
AcDbMText
10
77.30355
20
-45.45625
30
0
210
0
220
0
230
1
1
\A1;127.4
40
4.5
41
0
44
1
50
0
71
5
72
5
7
iso_b_vert
0
POINT
5
397
100
AcDbEntity
8
Defpoints
62
0
6
ByLayer
370
-1
48
1
60
0
100
AcDbPoint
10
141
20
-8
30
0
39
0
210
0
220
0
230
1
50
360
0
POINT
5
398
100
AcDbEntity
8
Defpoints
62
0
6
ByLayer
370
-1
48
1
60
0
100
AcDbPoint
10
13.6071
20
-16
30
0
39
0
210
0
220
0
230
1
50
360
0
POINT
5
399
100
AcDbEntity
8
Defpoints
62
0
6
ByLayer
370
-1
48
1
60
0
100
AcDbPoint
10
13.6071
20
-54.85
30
0
39
0
210
0
220
0
230
1
50
360
0
ENDBLK
5
390
100
AcDbEntity
8
0
100
AcDbBlockEnd
0
BLOCK
5
3A1
100
AcDbEntity
8
0
100
AcDbBlockBegin
2
_U2
70
0
10
0
20
0
30
0
3
_U2
0
MTEXT
5
39B
100
AcDbEntity
8
SK2
62
256
6
ByLayer
370
18
48
1
60
0
100
AcDbMText
10
70.905494
20
-53.522328
30
0
210
0
220
0
230
1
1
\W0.7010;127.4
40
4.5
41
0
44
1.084337
50
0
71
7
72
5
7
iso_b_vert
0
LINE
5
39C
100
AcDbEntity
8
SK2
62
256
6
ByLayer
370
13
48
1
60
0
100
AcDbLine
10
141
20
-9.5875
30
0
11
141
21
-58.025
31
0
39
0
210
0
220
0
230
1
0
LINE
5
39D
100
AcDbEntity
8
SK2
62
256
6
ByLayer
370
13
48
1
60
0
100
AcDbLine
10
13.6071
20
-17.5875
30
0
11
13.6071
21
-58.025
31
0
39
0
210
0
220
0
230
1
0
LINE
5
39E
100
AcDbEntity
8
SK2
62
256
6
ByLayer
370
13
48
1
60
0
100
AcDbLine
10
141
20
-54.85
30
0
11
13.6071
21
-54.85
31
0
39
0
210
0
220
0
230
1
0
SOLID
5
39F
100
AcDbEntity
8
SK2
62
256
6
ByLayer
370
18
48
1
60
0
100
AcDbTrace
10
141
20
-54.85
30
0
11
136.825003
21
-55.775575
31
0
12
136.824997
22
-53.924425
32
0
13
136.824997
23
-53.924425
33
0
39
0
210
0
220
0
230
1
0
SOLID
5
3A0
100
AcDbEntity
8
SK2
62
256
6
ByLayer
370
18
48
1
60
0
100
AcDbTrace
10
13.6071
20
-54.85
30
0
11
17.782097
21
-53.924425
31
0
12
17.782103
22
-55.775575
32
0
13
17.782103
23
-55.775575
33
0
39
0
210
0
220
0
230
1
0
ENDBLK
5
3A2
100
AcDbEntity
8
0
100
AcDbBlockEnd
0
BLOCK
5
3A7
100
AcDbEntity
8
0
100
AcDbBlockBegin
2
*D7
70
1
10
0
20
0
30
0
3
*D7
0
LINE
5
3A9
100
AcDbEntity
8
0
62
256
6
ByLayer
370
-2
48
1
60
0
100
AcDbLine
10
26
20
-9.5875
30
0
11
26
21
-48.025
31
0
39
0
210
0
220
0
230
1
0
LINE
5
3AA
100
AcDbEntity
8
0
62
256
6
ByLayer
370
-2
48
1
60
0
100
AcDbLine
10
141
20
-9.5875
30
0
11
141
21
-48.025
31
0
39
0
210
0
220
0
230
1
0
LINE
5
3AB
100
AcDbEntity
8
0
62
256
6
ByLayer
370
-2
48
1
60
0
100
AcDbLine
10
30.175
20
-44.85
30
0
11
136.825
21
-44.85
31
0
39
0
210
0
220
0
230
1
0
SOLID
5
3AC
100
AcDbEntity
8
0
62
256
6
ByLayer
370
-1
48
1
60
0
100
AcDbTrace
10
30.175
20
-44.154167
30
0
11
30.175
21
-45.545833
31
0
12
26
22
-44.85
32
0
13
26
23
-44.85
33
0
39
0
210
0
220
0
230
1
0
SOLID
5
3AD
100
AcDbEntity
8
0
62
256
6
ByLayer
370
-1
48
1
60
0
100
AcDbTrace
10
136.825
20
-45.545833
30
0
11
136.825
21
-44.154167
31
0
12
141
22
-44.85
32
0
13
141
23
-44.85
33
0
39
0
210
0
220
0
230
1
0
MTEXT
5
3AE
100
AcDbEntity
8
0
62
256
6
ByLayer
370
18
48
1
60
0
100
AcDbMText
10
83.5
20
-35.45625
30
0
210
0
220
0
230
1
1
\A1;115
40
4.5
41
0
44
1
50
0
71
5
72
5
7
iso_b_vert
0
POINT
5
3AF
100
AcDbEntity
8
Defpoints
62
0
6
ByLayer
370
-1
48
1
60
0
100
AcDbPoint
10
26
20
-8
30
0
39
0
210
0
220
0
230
1
50
360
0
POINT
5
3B0
100
AcDbEntity
8
Defpoints
62
0
6
ByLayer
370
-1
48
1
60
0
100
AcDbPoint
10
141
20
-8
30
0
39
0
210
0
220
0
230
1
50
360
0
POINT
5
3B1
100
AcDbEntity
8
Defpoints
62
0
6
ByLayer
370
-1
48
1
60
0
100
AcDbPoint
10
141
20
-44.85
30
0
39
0
210
0
220
0
230
1
50
360
0
ENDBLK
5
3A8
100
AcDbEntity
8
0
100
AcDbBlockEnd
0
BLOCK
5
3B9
100
AcDbEntity
8
0
100
AcDbBlockBegin
2
_U3
70
0
10
0
20
0
30
0
3
_U3
0
MTEXT
5
3B3
100
AcDbEntity
8
SK2
62
256
6
ByLayer
370
18
48
1
60
0
100
AcDbMText
10
80.494215
20
-43.522328
30
0
210
0
220
0
230
1
1
\W0.5296;115
40
4.5
41
0
44
1.084337
50
0
71
7
72
5
7
iso_b_vert
0
LINE
5
3B4
100
AcDbEntity
8
SK2
62
256
6
ByLayer
370
13
48
1
60
0
100
AcDbLine
10
26
20
-9.5875
30
0
11
26
21
-48.025
31
0
39
0
210
0
220
0
230
1
0
LINE
5
3B5
100
AcDbEntity
8
SK2
62
256
6
ByLayer
370
13
48
1
60
0
100
AcDbLine
10
141
20
-9.5875
30
0
11
141
21
-48.025
31
0
39
0
210
0
220
0
230
1
0
LINE
5
3B6
100
AcDbEntity
8
SK2
62
256
6
ByLayer
370
13
48
1
60
0
100
AcDbLine
10
26
20
-44.85
30
0
11
141
21
-44.85
31
0
39
0
210
0
220
0
230
1
0
SOLID
5
3B7
100
AcDbEntity
8
SK2
62
256
6
ByLayer
370
18
48
1
60
0
100
AcDbTrace
10
26
20
-44.85
30
0
11
30.174997
21
-43.924425
31
0
12
30.175003
22
-45.775575
32
0
13
30.175003
23
-45.775575
33
0
39
0
210
0
220
0
230
1
0
SOLID
5
3B8
100
AcDbEntity
8
SK2
62
256
6
ByLayer
370
18
48
1
60
0
100
AcDbTrace
10
141
20
-44.85
30
0
11
136.825003
21
-45.775575
31
0
12
136.824997
22
-43.924425
32
0
13
136.824997
23
-43.924425
33
0
39
0
210
0
220
0
230
1
0
ENDBLK
5
3BA
100
AcDbEntity
8
0
100
AcDbBlockEnd
0
BLOCK
5
3BF
100
AcDbEntity
8
0
100
AcDbBlockBegin
2
*D9
70
1
10
0
20
0
30
0
3
*D9
0
LINE
5
3C1
100
AcDbEntity
8
0
62
256
6
ByLayer
370
-2
48
1
60
0
100
AcDbLine
10
140.5369
20
-5.5875
30
0
11
140.5369
21
-38.025
31
0
39
0
210
0
220
0
230
1
0
LINE
5
3C2
100
AcDbEntity
8
0
62
256
6
ByLayer
370
-2
48
1
60
0
100
AcDbLine
10
141
20
-1.5875
30
0
11
141
21
-38.025
31
0
39
0
210
0
220
0
230
1
0
LINE
5
3C3
100
AcDbEntity
8
0
62
256
6
ByLayer
370
-2
48
1
60
0
100
AcDbLine
10
141
20
-34.85
30
0
11
177.351786
21
-34.85
31
0
39
0
210
0
220
0
230
1
0
LINE
5
3C4
100
AcDbEntity
8
0
62
256
6
ByLayer
370
-2
48
1
60
0
100
AcDbLine
10
136.3619
20
-34.85
30
0
11
132.1869
21
-34.85
31
0
39
0
210
0
220
0
230
1
0
LINE
5
3C5
100
AcDbEntity
8
0
62
256
6
ByLayer
370
-2
48
1
60
0
100
AcDbLine
10
145.175
20
-34.85
30
0
11
149.35
21
-34.85
31
0
39
0
210
0
220
0
230
1
0
SOLID
5
3C6
100
AcDbEntity
8
0
62
256
6
ByLayer
370
-1
48
1
60
0
100
AcDbTrace
10
136.3619
20
-35.545833
30
0
11
136.3619
21
-34.154167
31
0
12
140.5369
22
-34.85
32
0
13
140.5369
23
-34.85
33
0
39
0
210
0
220
0
230
1
0
SOLID
5
3C7
100
AcDbEntity
8
0
62
256
6
ByLayer
370
-1
48
1
60
0
100
AcDbTrace
10
145.175
20
-34.154167
30
0
11
145.175
21
-35.545833
31
0
12
141
22
-34.85
32
0
13
141
23
-34.85
33
0
39
0
210
0
220
0
230
1
0
MTEXT
5
3C8
100
AcDbEntity
8
0
62
256
6
ByLayer
370
18
48
1
60
0
100
AcDbMText
10
163.350893
20
-25.45625
30
0
210
0
220
0
230
1
1
\A1;0.46
40
4.5
41
0
44
1
50
0
71
5
72
5
7
iso_b_vert
0
POINT
5
3C9
100
AcDbEntity
8
Defpoints
62
0
6
ByLayer
370
-1
48
1
60
0
100
AcDbPoint
10
140.5369
20
-4
30
0
39
0
210
0
220
0
230
1
50
360
0
POINT
5
3CA
100
AcDbEntity
8
Defpoints
62
0
6
ByLayer
370
-1
48
1
60
0
100
AcDbPoint
10
141
20
0
30
0
39
0
210
0
220
0
230
1
50
360
0
POINT
5
3CB
100
AcDbEntity
8
Defpoints
62
0
6
ByLayer
370
-1
48
1
60
0
100
AcDbPoint
10
141
20
-34.85
30
0
39
0
210
0
220
0
230
1
50
360
0
ENDBLK
5
3C0
100
AcDbEntity
8
0
100
AcDbBlockEnd
0
BLOCK
5
3D3
100
AcDbEntity
8
0
100
AcDbBlockBegin
2
_U4
70
0
10
0
20
0
30
0
3
_U4
0
MTEXT
5
3CD
100
AcDbEntity
8
2
62
256
6
ByLayer
370
18
48
1
60
0
100
AcDbMText
10
153.351
20
-33.522328
30
0
210
0
220
0
230
1
1
\W0.7640;0.46
40
4.5
41
0
44
1.084337
50
0
71
7
72
5
7
iso_b_vert
0
LINE
5
3CE
100
AcDbEntity
8
2
62
256
6
ByLayer
370
13
48
1
60
0
100
AcDbLine
10
140.5369
20
-5.5875
30
0
11
140.5369
21
-38.025
31
0
39
0
210
0
220
0
230
1
0
LINE
5
3CF
100
AcDbEntity
8
2
62
256
6
ByLayer
370
13
48
1
60
0
100
AcDbLine
10
141
20
-1.5875
30
0
11
141
21
-38.025
31
0
39
0
210
0
220
0
230
1
0
LINE
5
3D0
100
AcDbEntity
8
2
62
256
6
ByLayer
370
13
48
1
60
0
100
AcDbLine
10
164.147698
20
-34.85
30
0
11
129.2869
21
-34.85
31
0
39
0
210
0
220
0
230
1
0
SOLID
5
3D1
100
AcDbEntity
8
2
62
256
6
ByLayer
370
18
48
1
60
0
100
AcDbTrace
10
140.5369
20
-34.85
30
0
11
136.361903
21
-35.775575
31
0
12
136.361897
22
-33.924425
32
0
13
136.361897
23
-33.924425
33
0
39
0
210
0
220
0
230
1
0
SOLID
5
3D2
100
AcDbEntity
8
2
62
256
6
ByLayer
370
18
48
1
60
0
100
AcDbTrace
10
141
20
-34.85
30
0
11
145.174997
21
-33.924425
31
0
12
145.175003
22
-35.775575
32
0
13
145.175003
23
-35.775575
33
0
39
0
210
0
220
0
230
1
0
ENDBLK
5
3D4
100
AcDbEntity
8
0
100
AcDbBlockEnd
0
ENDSEC
0
SECTION
2
ENTITIES
0
ARC
5
189
100
AcDbEntity
8
SK1
62
256
6
ByLayer
370
13
48
1
60
0
100
AcDbCircle
39
0
10
-0.3
20
10.4
30
0
40
0.599999999999998
210
0
220
0
230
1
100
AcDbArc
50
270
51
300
0
ARC
5
18A
100
AcDbEntity
8
SK1
62
256
6
ByLayer
370
13
48
1
60
0
100
AcDbCircle
39
0
10
-0.3
20
-10.4
30
0
40
0.599999999999998
210
0
220
0
230
1
100
AcDbArc
50
60
51
90
0
ARC
5
18B
100
AcDbEntity
8
1
62
256
6
ByLayer
370
13
48
1
60
0
100
AcDbCircle
39
0
10
5.5
20
-13
30
0
40
0.5
210
0
220
0
230
1
100
AcDbArc
50
90
51
180
0
ARC
5
18C
100
AcDbEntity
8
1
62
256
6
ByLayer
370
13
48
1
60
0
100
AcDbCircle
39
0
10
5.5
20
13
30
0
40
0.5
210
0
220
0
230
1
100
AcDbArc
50
180
51
270
0
ARC
5
18D
100
AcDbEntity
8
1
62
256
6
ByLayer
370
13
48
1
60
0
100
AcDbCircle
39
0
10
139.351672
20
7.395214
30
0
40
0.075
210
0
220
0
230
1
100
AcDbArc
50
8.974534
51
93
0
ARC
5
18E
100
AcDbEntity
8
1
62
256
6
ByLayer
370
13
48
1
60
0
100
AcDbCircle
39
0
10
139.379489
20
3.140176
30
0
40
0.075
210
0
220
0
230
1
100
AcDbArc
50
273
51
352.543899
0
ARC
5
18F
100
AcDbEntity
8
1
62
256
6
ByLayer
370
13
48
1
60
0
100
AcDbCircle
39
0
10
134.077816
20
7.022958
30
0
40
0.075
210
0
220
0
230
1
100
AcDbArc
50
71.092405
51
93
0
ARC
5
190
100
AcDbEntity
8
1
62
256
6
ByLayer
370
13
48
1
60
0
100
AcDbCircle
39
0
10
134.105633
20
2.76792
30
0
40
0.075
210
0
220
0
230
1
100
AcDbArc
50
273
51
303.323645
0
ELLIPSE
5
191
100
AcDbEntity
8
1
62
256
6
ByLayer
370
13
48
1
60
0
100
AcDbEllipse
10
134.077816
20
7.022958
30
0
11
0.0743658432123938
21
-0.00973249008782796
31
0
210
0
220
0
230
1
40
0.016833
41
1.47983423648391
42
3.05063056328133
0
ELLIPSE
5
192
100
AcDbEntity
8
1
62
256
6
ByLayer
370
13
48
1
60
0
100
AcDbEllipse
10
139.645963
20
7.648211
30
0
11
-0.458505441904959
21
-0.353314653455264
31
0
210
0
220
0
230
1
40
0.479615
41
-2.09905942791234
42
-1.63253590621994
0
ELLIPSE
5
193
100
AcDbEntity
8
1
62
256
6
ByLayer
370
13
48
1
60
0
100
AcDbEllipse
10
139.024167
20
5.361594
30
0
11
0.0444855628065016
21
-0.848835104541388
31
0
210
0
220
0
230
1
40
0.995725
41
1.38753675533548
42
1.67551608191454
0
ELLIPSE
5
194
100
AcDbEntity
8
1
62
256
6
ByLayer
370
13
48
1
60
0
100
AcDbEllipse
10
133.539695
20
2.500687
30
0
11
0.0209560818654769
21
-0.399865862514393
31
0
210
0
220
0
230
1
40
0.995725
41
0.435307362026855
42
0.901830883779977
0
ELLIPSE
5
195
100
AcDbEntity
8
1
62
256
6
ByLayer
370
13
48
1
60
0
100
AcDbEllipse
10
133.02919
20
6.876563
30
0
11
0.00785039343644119
21
-0.149794430213181
31
0
210
0
220
0
230
1
40
0.995725
41
-3.04559954473121
42
-1.75405589825471
0
ELLIPSE
5
196
100
AcDbEntity
8
1
62
256
6
ByLayer
370
13
48
1
60
0
100
AcDbEllipse
10
134.421607
20
4.800936
30
0
11
-0.0327099726518394
21
0.624143459221609
31
0
210
0
220
0
230
1
40
0.995725
41
1.38753675533548
42
1.67551608191456
0
ELLIPSE
5
197
100
AcDbEntity
8
1
62
256
6
ByLayer
370
13
48
1
60
0
100
AcDbEllipse
10
139.829229
20
7.770242
30
0
11
-0.00653729335064164
21
0.149857478277354
31
0
210
0
220
0
230
1
40
0.092367
41
0.000809536047771508
42
1.57160586284002
0
ELLIPSE
5
198
100
AcDbEntity
8
1
62
256
6
ByLayer
370
13
48
1
60
0
100
AcDbEllipse
10
140.429187
20
3.295048
30
0
11
-0.0436502644825332
21
-0.255492761890585
31
0
210
0
220
0
230
1
40
0.960623
41
0.306237786864425
42
1.61147660138674
0
ELLIPSE
5
199
100
AcDbEntity
8
1
62
256
6
ByLayer
370
13
48
1
60
0
100
AcDbEllipse
10
140.423503
20
3.286329
30
0
11
-0.0222321776352508
21
0.148343285246062
31
0
210
0
220
0
230
1
40
0.091945
41
1.56190521945469
42
3.13270154625043
0
ELLIPSE
5
19A
100
AcDbEntity
8
1
62
256
6
ByLayer
370
13
48
1
60
0
100
AcDbEllipse
10
138.413805
20
8.639637
30
0
11
0.0680367431158257
21
-1.29821839518094
31
0
210
0
220
0
230
1
40
0.995725
41
0.855518971143653
42
0.883668716629754
0
ELLIPSE
5
19B
100
AcDbEntity
8
1
62
256
6
ByLayer
370
13
48
1
60
0
100
AcDbEllipse
10
140.179022
20
7.624098
30
0
11
-0.00785039343644154
21
0.149794430213188
31
0
210
0
220
0
230
1
40
0.995725
41
-1.46607657167513
42
-0.0662492130181525
0
ELLIPSE
5
19C
100
AcDbEntity
8
1
62
256
6
ByLayer
370
13
48
1
60
0
100
AcDbEllipse
10
133.621282
20
2.442603
30
0
11
0.0104671912485887
21
-0.199725906950916
31
0
210
0
220
0
230
1
40
0.995725
41
-0.00872664625969657
42
0.901830883780361
0
ELLIPSE
5
19D
100
AcDbEntity
8
1
62
256
6
ByLayer
370
13
48
1
60
0
100
AcDbEllipse
10
138.65427
20
1.712729
30
0
11
0.0680367431158262
21
-1.29821839518095
31
0
210
0
220
0
230
1
40
0.995725
41
2.23976176980952
42
-3.14159265358938
0
ELLIPSE
5
19E
100
AcDbEntity
8
1
62
256
6
ByLayer
370
13
48
1
60
0
100
AcDbEllipse
10
133.844139
20
6.999149
30
0
11
-0.0435852065176203
21
-0.15811134586834
31
0
210
0
220
0
230
1
40
0.080185
41
-3.11490714532741
42
-1.54411081856669
0
ELLIPSE
5
19F
100
AcDbEntity
8
1
62
256
6
ByLayer
370
13
48
1
60
0
100
AcDbEllipse
10
138.291582
20
8.633232
30
0
11
0.0680367431158257
21
-1.29821839518094
31
0
210
0
220
0
230
1
40
0.995725
41
0
42
0.51182785927419
0
ELLIPSE
5
1A0
100
AcDbEntity
8
1
62
256
6
ByLayer
370
13
48
1
60
0
100
AcDbEllipse
10
133.456771
20
4.136881
30
0
11
-0.0915879234251505
21
1.74760168582051
31
0
210
0
220
0
230
1
40
0.995725
41
3.10312211148817
42
3.13286600732979
0
ELLIPSE
5
1A1
100
AcDbEntity
8
1
62
256
6
ByLayer
370
13
48
1
60
0
100
AcDbEllipse
10
138.536029
20
8.646043
30
0
11
-0.0732703387401197
21
1.3980813486564
31
0
210
0
220
0
230
1
40
0.995725
41
-2.48366640481241
42
-2.23976176980866
0
ELLIPSE
5
1A2
100
AcDbEntity
8
1
62
256
6
ByLayer
370
13
48
1
60
0
100
AcDbEllipse
10
138.536029
20
8.646043
30
0
11
-0.0680367431158257
21
1.29821839518095
31
0
210
0
220
0
230
1
40
0.995725
41
-3.1415926535894
42
-2.23976176980871
0
ELLIPSE
5
1A3
100
AcDbEntity
8
1
62
256
6
ByLayer
370
13
48
1
60
0
100
AcDbEllipse
10
133.844139
20
6.999149
30
0
11
-0.157303252991627
21
-0.0460731444195031
31
0
210
0
220
0
230
1
40
0.019548
41
-3.05924451049118
42
-1.48844818372664
0
ELLIPSE
5
1A4
100
AcDbEntity
8
1
62
256
6
ByLayer
370
13
48
1
60
0
100
AcDbEllipse
10
140.075845
20
-0.974219
30
0
11
0.465790010562193
21
-8.88780285931571
31
0
210
0
220
0
230
1
40
0.995725
41
3.07534344057168
42
3.10312211148826
0
ELLIPSE
5
1A5
100
AcDbEntity
8
1
62
256
6
ByLayer
370
13
48
1
60
0
100
AcDbEllipse
10
139.379489
20
3.140176
30
0
11
0.0243032116523644
21
0.0709531810659704
31
0
210
0
220
0
230
1
40
0.085751
41
-3.10712136639351
42
-1.53632503960588
0
ELLIPSE
5
1A6
100
AcDbEntity
8
1
62
256
6
ByLayer
370
13
48
1
60
0
100
AcDbEllipse
10
138.776494
20
1.719135
30
0
11
-0.0680367431158261
21
1.29821839518094
31
0
210
0
220
0
230
1
40
0.995725
41
-0.883668716629756
42
-0.85551897114368
0
ELLIPSE
5
1A7
100
AcDbEntity
8
1
62
256
6
ByLayer
370
13
48
1
60
0
100
AcDbEllipse
10
134.921277
20
1.517091
30
0
11
-0.0680367431158257
21
1.29821839518095
31
0
210
0
220
0
230
1
40
0.995725
41
0
42
0.901830883780217
0
ELLIPSE
5
1A8
100
AcDbEntity
8
1
62
256
6
ByLayer
370
13
48
1
60
0
100
AcDbEllipse
10
140.194899
20
7.774807
30
0
11
0.00212587133334383
21
0.149984934813714
31
0
210
0
220
0
230
1
40
0.092168
41
0.00614118188105827
42
1.57693750867728
0
ELLIPSE
5
1A9
100
AcDbEntity
8
1
62
256
6
ByLayer
370
13
48
1
60
0
100
AcDbEllipse
10
139.901074
20
7.773376
30
0
11
-0.00653729335064164
21
0.149857478277354
31
0
210
0
220
0
230
1
40
0.092367
41
0.000809536045656042
42
1.57160586284002
0
ELLIPSE
5
1AA
100
AcDbEntity
8
1
62
256
6
ByLayer
370
13
48
1
60
0
100
AcDbEllipse
10
134.410077
20
4.800331
30
0
11
-0.0366351693700601
21
0.699040674328202
31
0
210
0
220
0
230
1
40
0.995725
41
1.38753675533548
42
1.67551608191455
0
ELLIPSE
5
1AB
100
AcDbEntity
8
1
62
256
6
ByLayer
370
13
48
1
60
0
100
AcDbEllipse
10
139.510189
20
7.508575
30
0
11
0.00523359562429433
21
-0.0998629534754579
31
0
210
0
220
0
230
1
40
0.995725
41
-2.48366640481124
42
-1.46607657167475
0
ELLIPSE
5
1AC
100
AcDbEntity
8
1
62
256
6
ByLayer
370
13
48
1
60
0
100
AcDbEllipse
10
140.69518
20
5.362208
30
0
11
0.148731686424788
21
-0.019464980175656
31
0
210
0
220
0
230
1
40
0.016833
41
-1.66175841710548
42
-0.0909620903081085
0
ELLIPSE
5
1AD
100
AcDbEntity
8
1
62
256
6
ByLayer
370
13
48
1
60
0
100
AcDbEllipse
10
132.975841
20
7.218645
30
0
11
-0.0436502645055018
21
-0.255492761884346
31
0
210
0
220
0
230
1
40
0.960623
41
-2.83535486663895
42
-1.53011605210711
0
ELLIPSE
5
1AE
100
AcDbEntity
8
1
62
256
6
ByLayer
370
13
48
1
60
0
100
AcDbEllipse
10
133.942504
20
2.654318
30
0
11
0.00523359562429433
21
-0.0998629534754579
31
0
210
0
220
0
230
1
40
0.995725
41
0.657926248778951
42
1.67551608191562
0
ELLIPSE
5
1AF
100
AcDbEntity
8
1
62
256
6
ByLayer
370
13
48
1
60
0
100
AcDbEllipse
10
139.351672
20
7.395214
30
0
11
-0.0412025770551184
21
0.0626685538688825
31
0
210
0
220
0
230
1
40
0.07982
41
-1.61744967012507
42
-0.0466533433293477
0
ELLIPSE
5
1B0
100
AcDbEntity
8
1
62
256
6
ByLayer
370
13
48
1
60
0
100
AcDbEllipse
10
134.916664
20
1.51685
30
0
11
-0.0732703387401197
21
1.3980813486564
31
0
210
0
220
0
230
1
40
0.995725
41
0.657926248776951
42
0.901830883780702
0
ELLIPSE
5
1B1
100
AcDbEntity
8
1
62
256
6
ByLayer
370
13
48
1
60
0
100
AcDbEllipse
10
139.977473
20
6.025045
30
0
11
0.0994383168615918
21
-1.89739611603369
31
0
210
0
220
0
230
1
40
0.995725
41
3.10312211148819
42
3.13286600732985
0
ELLIPSE
5
1B2
100
AcDbEntity
8
1
62
256
6
ByLayer
370
13
48
1
60
0
100
AcDbEllipse
10
134.414689
20
4.800573
30
0
11
0.0366351693700602
21
-0.699040674328202
31
0
210
0
220
0
230
1
40
0.995725
41
-1.75405589825431
42
-1.46607657167524
0
ELLIPSE
5
1B3
100
AcDbEntity
8
1
62
256
6
ByLayer
370
13
48
1
60
0
100
AcDbEllipse
10
138.672219
20
8.65318
30
0
11
-1.19272915812064
21
-1.02318492672288
31
0
210
0
220
0
230
1
40
0.704848
41
1.25256800994255
42
1.62440886732684
0
ELLIPSE
5
1B4
100
AcDbEntity
8
1
62
256
6
ByLayer
370
13
48
1
60
0
100
AcDbEllipse
10
134.077816
20
7.022958
30
0
11
-0.0243032116523418
21
-0.0709531810659781
31
0
210
0
220
0
230
1
40
0.085751
41
1.60526761398354
42
-3.10712136640001
0
ELLIPSE
5
1B5
100
AcDbEntity
8
1
62
256
6
ByLayer
370
13
48
1
60
0
100
AcDbEllipse
10
133.259835
20
2.538069
30
0
11
0.015700786872883
21
-0.299588860426374
31
0
210
0
220
0
230
1
40
0.995725
41
-1.46607657167551
42
-0.0662492130184373
0
ELLIPSE
5
1B6
100
AcDbEntity
8
1
62
256
6
ByLayer
370
13
48
1
60
0
100
AcDbEllipse
10
132.887151
20
4.780105
30
0
11
-0.0078503934364412
21
0.149794430213182
31
0
210
0
220
0
230
1
40
0.995725
41
1.38753675533528
42
1.67551608191448
0
ELLIPSE
5
1B7
100
AcDbEntity
8
1
62
256
6
ByLayer
370
13
48
1
60
0
100
AcDbEllipse
10
134.558588
20
8.437594
30
0
11
-0.0680367431158261
21
1.29821839518094
31
0
210
0
220
0
230
1
40
0.995725
41
2.62976479431557
42
3.14159265358938
0
ELLIPSE
5
1B8
100
AcDbEntity
8
1
62
256
6
ByLayer
370
13
48
1
60
0
100
AcDbEllipse
10
140.423503
20
3.286329
30
0
11
0.148731686424788
21
-0.019464980175656
31
0
210
0
220
0
230
1
40
0.016833
41
-1.6617584171051
42
-0.0909620903112785
0
ELLIPSE
5
1B9
100
AcDbEntity
8
1
62
256
6
ByLayer
370
13
48
1
60
0
100
AcDbEllipse
10
132.9056
20
4.781072
30
0
11
0.0157007868728827
21
-0.299588860426368
31
0
210
0
220
0
230
1
40
0.995725
41
-1.7540558982549
42
-1.4660765716757
0
ELLIPSE
5
1BA
100
AcDbEntity
8
1
62
256
6
ByLayer
370
13
48
1
60
0
100
AcDbEllipse
10
134.105633
20
2.76792
30
0
11
0.0740818329315803
21
0.0116996593752733
31
0
210
0
220
0
230
1
40
0.009655
41
-3.04959407912422
42
-1.47879775232072
0
ELLIPSE
5
1BB
100
AcDbEntity
8
1
62
256
6
ByLayer
370
13
48
1
60
0
100
AcDbEllipse
10
140.340375
20
7.648255
30
0
11
0.148163665863161
21
0.0233993187505466
31
0
210
0
220
0
230
1
40
0.009655
41
0.0919985744735827
42
1.66279490126851
0
ELLIPSE
5
1BC
100
AcDbEntity
8
1
62
256
6
ByLayer
370
13
48
1
60
0
100
AcDbEllipse
10
133.574151
20
4.667551
30
0
11
-0.148163665863162
21
-0.0233993187505382
31
0
210
0
220
0
230
1
40
0.009655
41
-3.04959407911989
42
-1.4787977523211
0
ELLIPSE
5
1BD
100
AcDbEntity
8
1
62
256
6
ByLayer
370
13
48
1
60
0
100
AcDbEllipse
10
133.028118
20
6.868086
30
0
11
-0.0436502644806027
21
-0.255492761891121
31
0
210
0
220
0
230
1
40
0.960623
41
-2.83535486673265
42
-1.53011605221121
0
ELLIPSE
5
1BE
100
AcDbEntity
8
1
62
256
6
ByLayer
370
13
48
1
60
0
100
AcDbEllipse
10
138.142442
20
1.685906
30
0
11
-1.4735403408562
21
-1.15353041085604
31
0
210
0
220
0
230
1
40
0.477356
41
2.8371753755899
42
2.88348730835505
0
ELLIPSE
5
1BF
100
AcDbEntity
8
1
62
256
6
ByLayer
370
13
48
1
60
0
100
AcDbEllipse
10
140.428116
20
3.286571
30
0
11
0.00785039343644119
21
-0.149794430213181
31
0
210
0
220
0
230
1
40
0.995725
41
0.0959931088589692
42
1.38753675533586
0
ELLIPSE
5
1C0
100
AcDbEntity
8
1
62
256
6
ByLayer
370
13
48
1
60
0
100
AcDbEllipse
10
140.69461
20
5.405252
30
0
11
0.148163665863161
21
0.0233993187505466
31
0
210
0
220
0
230
1
40
0.009655
41
0.0919985744754321
42
1.66279490126889
0
ELLIPSE
5
1C1
100
AcDbEntity
8
1
62
256
6
ByLayer
370
13
48
1
60
0
100
AcDbEllipse
10
133.906722
20
7.058635
30
0
11
0.00523359562429368
21
-0.0998629534754455
31
0
210
0
220
0
230
1
40
0.995725
41
1.38753675533517
42
-3.04559954473018
0
ELLIPSE
5
1C2
100
AcDbEntity
8
1
62
256
6
ByLayer
370
13
48
1
60
0
100
AcDbEllipse
10
140.192858
20
7.624824
30
0
11
0.015700786872883
21
-0.299588860426374
31
0
210
0
220
0
230
1
40
0.995725
41
1.67551608191466
42
3.07534344057173
0
ELLIPSE
5
1C3
100
AcDbEntity
8
1
62
256
6
ByLayer
370
13
48
1
60
0
100
AcDbEllipse
10
140.533257
20
5.381095
30
0
11
-0.0078503934364412
21
0.149794430213182
31
0
210
0
220
0
230
1
40
0.995725
41
-1.75405589825432
42
-1.46607657167532
0
ELLIPSE
5
1C4
100
AcDbEntity
8
1
62
256
6
ByLayer
370
13
48
1
60
0
100
AcDbEllipse
10
133.570917
20
4.911466
30
0
11
-0.148731686424787
21
0.0194649801756595
31
0
210
0
220
0
230
1
40
0.016833
41
1.47983423648394
42
3.05063056327851
0
ELLIPSE
5
1C5
100
AcDbEntity
8
1
62
256
6
ByLayer
370
13
48
1
60
0
100
AcDbEllipse
10
133.3584
20
11.136145
30
0
11
-0.457939617125751
21
8.73800842910252
31
0
210
0
220
0
230
1
40
0.995725
41
3.07534344057168
42
3.10312211148826
0
ELLIPSE
5
1C6
100
AcDbEntity
8
1
62
256
6
ByLayer
370
13
48
1
60
0
100
AcDbEllipse
10
133.47522
20
4.137847
30
0
11
0.0994383168615918
21
-1.89739611603369
31
0
210
0
220
0
230
1
40
0.995725
41
-0.0384705421020217
42
-0.00872664626039532
0
ELLIPSE
5
1C7
100
AcDbEntity
8
1
62
256
6
ByLayer
370
13
48
1
60
0
100
AcDbEllipse
10
136.831755
20
3.114267
30
0
11
0.00392519671822073
21
-0.074897215106593
31
0
210
0
220
0
230
1
40
0.092371
41
0
42
1.5707963267949
0
ELLIPSE
5
1C8
100
AcDbEntity
8
1
62
256
6
ByLayer
370
13
48
1
60
0
100
AcDbEllipse
10
134.177952
20
8.417646
30
0
11
-1.2931472111802
21
0.892905666852719
31
0
210
0
220
0
230
1
40
0.704848
41
1.51718378634628
42
1.88902464367223
0
ELLIPSE
5
1C9
100
AcDbEntity
8
1
62
256
6
ByLayer
370
13
48
1
60
0
100
AcDbEllipse
10
140.080457
20
-0.973978
30
0
11
0.465790010562193
21
-8.88780285931571
31
0
210
0
220
0
230
1
40
0.995725
41
3.0753434405721
42
3.10312211148868
0
ELLIPSE
5
1CA
100
AcDbEntity
8
1
62
256
6
ByLayer
370
13
48
1
60
0
100
AcDbEllipse
10
139.982085
20
6.025287
30
0
11
0.0994383168615918
21
-1.89739611603369
31
0
210
0
220
0
230
1
40
0.995725
41
3.10312211148862
42
3.13286600733024
0
ELLIPSE
5
1CB
100
AcDbEntity
8
1
62
256
6
ByLayer
370
13
48
1
60
0
100
AcDbEllipse
10
134.902828
20
1.516125
30
0
11
0.0811207321765612
21
-1.54787577886958
31
0
210
0
220
0
230
1
40
0.995725
41
-2.46557149586855
42
-2.23976176980909
0
ELLIPSE
5
1CC
100
AcDbEntity
8
1
62
256
6
ByLayer
370
13
48
1
60
0
100
AcDbEllipse
10
139.042616
20
5.362561
30
0
11
0.0366351693700602
21
-0.699040674328202
31
0
210
0
220
0
230
1
40
0.995725
41
1.38753675533548
42
1.67551608191455
0
ELLIPSE
5
1CD
100
AcDbEntity
8
1
62
256
6
ByLayer
370
13
48
1
60
0
100
AcDbEllipse
10
133.314589
20
7.316397
30
0
11
-0.492925138814176
21
0.303452289478133
31
0
210
0
220
0
230
1
40
0.479615
41
-1.50905674749904
42
-1.04253322571613
0
ELLIPSE
5
1CE
100
AcDbEntity
8
1
62
256
6
ByLayer
370
13
48
1
60
0
100
AcDbEllipse
10
139.95288
20
7.774861
30
0
11
-0.00205858338350419
21
0.149985873449646
31
0
210
0
220
0
230
1
40
0.092302
41
0.00356790892011397
42
1.57436423571418
0
ELLIPSE
5
1CF
100
AcDbEntity
8
1
62
256
6
ByLayer
370
13
48
1
60
0
100
AcDbEllipse
10
133.947116
20
2.65456
30
0
11
0.00523359562429433
21
-0.0998629534754579
31
0
210
0
220
0
230
1
40
0.995725
41
0.65792624877761
42
1.67551608191447
0
ELLIPSE
5
1D0
100
AcDbEntity
8
1
62
256
6
ByLayer
370
13
48
1
60
0
100
AcDbEllipse
10
133.657294
20
2.413439
30
0
11
-0.12255735463635
21
0.0864852289384716
31
0
210
0
220
0
230
1
40
0.057286
41
1.49815188746189
42
3.06894821425673
0
ELLIPSE
5
1D1
100
AcDbEntity
8
1
62
256
6
ByLayer
370
13
48
1
60
0
100
AcDbEllipse
10
140.423503
20
3.286329
30
0
11
0.00785039343644119
21
-0.149794430213181
31
0
210
0
220
0
230
1
40
0.995725
41
0.0959931088589662
42
1.38753675533547
0
ELLIPSE
5
1D2
100
AcDbEntity
8
1
62
256
6
ByLayer
370
13
48
1
60
0
100
AcDbEllipse
10
133.800038
20
4.702941
30
0
11
-0.074081832931581
21
-0.0116996593752692
31
0
210
0
220
0
230
1
40
0.009655
41
0.0919985744649635
42
1.66279490126838
0
ELLIPSE
5
1D3
100
AcDbEntity
8
1
62
256
6
ByLayer
370
13
48
1
60
0
100
AcDbEllipse
10
139.047859
20
8.672865
30
0
11
-1.48859860273722
21
-1.14708259411945
31
0
210
0
220
0
230
1
40
0.479614
41
1.46274491813489
42
1.50905686722786
0
ELLIPSE
5
1D4
100
AcDbEntity
8
1
62
256
6
ByLayer
370
13
48
1
60
0
100
AcDbEllipse
10
133.241386
20
2.537102
30
0
11
-0.00785039343644154
21
0.149794430213188
31
0
210
0
220
0
230
1
40
0.995725
41
1.67551608191466
42
3.07534344057202
0
ELLIPSE
5
1D5
100
AcDbEntity
8
1
62
256
6
ByLayer
370
13
48
1
60
0
100
AcDbEllipse
10
133.79766
20
4.882289
30
0
11
-0.0743658432123935
21
0.00973249008782973
31
0
210
0
220
0
230
1
40
0.016833
41
-1.66175841710513
42
-0.0909620903140981
0
ELLIPSE
5
1D6
100
AcDbEntity
8
1
62
256
6
ByLayer
370
13
48
1
60
0
100
AcDbEllipse
10
134.921277
20
1.517091
30
0
11
-0.0732703387401197
21
1.3980813486564
31
0
210
0
220
0
230
1
40
0.995725
41
0.657926248776526
42
0.901830883780286
0
ELLIPSE
5
1D7
100
AcDbEntity
8
1
62
256
6
ByLayer
370
13
48
1
60
0
100
AcDbEllipse
10
140.551705
20
5.382062
30
0
11
0.0157007868728827
21
-0.299588860426368
31
0
210
0
220
0
230
1
40
0.995725
41
1.38753675533577
42
1.67551608191495
0
ELLIPSE
5
1D8
100
AcDbEntity
8
1
62
256
6
ByLayer
370
13
48
1
60
0
100
AcDbEllipse
10
133.376849
20
11.137112
30
0
11
0.465790010562193
21
-8.88780285931571
31
0
210
0
220
0
230
1
40
0.995725
41
-0.066249213018549
42
-0.0384705421019657
0
ELLIPSE
5
1D9
100
AcDbEntity
8
1
62
256
6
ByLayer
370
13
48
1
60
0
100
AcDbEllipse
10
139.963636
20
6.02432
30
0
11
-0.0915879234251505
21
1.74760168582051
31
0
210
0
220
0
230
1
40
0.995725
41
-0.0384705421015884
42
-0.0087266462599718
0
ELLIPSE
5
1DA
100
AcDbEntity
8
1
62
256
6
ByLayer
370
13
48
1
60
0
100
AcDbEllipse
10
140.19747
20
7.625065
30
0
11
0.015700786872883
21
-0.299588860426374
31
0
210
0
220
0
230
1
40
0.995725
41
1.67551608191504
42
3.07534344057211
0
ELLIPSE
5
1DB
100
AcDbEntity
8
1
62
256
6
ByLayer
370
13
48
1
60
0
100
AcDbEllipse
10
134.39624
20
4.799606
30
0
11
0.0444855628065016
21
-0.848835104541388
31
0
210
0
220
0
230
1
40
0.995725
41
-1.75405589825431
42
-1.46607657167525
0
ELLIPSE
5
1DC
100
AcDbEntity
8
1
62
256
6
ByLayer
370
13
48
1
60
0
100
AcDbEllipse
10
138.51808
20
1.705592
30
0
11
-1.0624466391537
21
-1.09843634090797
31
0
210
0
220
0
230
1
40
0.695792
41
2.89972207078893
42
-3.01162237894778
0
ELLIPSE
5
1DD
100
AcDbEntity
8
1
62
256
6
ByLayer
370
13
48
1
60
0
100
AcDbEllipse
10
139.049534
20
5.362924
30
0
11
-0.0327099726518394
21
0.624143459221609
31
0
210
0
220
0
230
1
40
0.995725
41
-1.75405589825431
42
-1.46607657167523
0
ELLIPSE
5
1DE
100
AcDbEntity
8
1
62
256
6
ByLayer
370
13
48
1
60
0
100
AcDbEllipse
10
139.550583
20
3.104499
30
0
11
0.00523359562429368
21
-0.0998629534754455
31
0
210
0
220
0
230
1
40
0.995725
41
-1.75405589825376
42
0.0959931088599524
0
ELLIPSE
5
1DF
100
AcDbEntity
8
1
62
256
6
ByLayer
370
13
48
1
60
0
100
AcDbEllipse
10
139.836024
20
7.720531
30
0
11
0.0104671912485887
21
-0.199725906950916
31
0
210
0
220
0
230
1
40
0.995725
41
3.13286600733081
42
-2.23976176980869
0
ELLIPSE
5
1E0
100
AcDbEntity
8
1
62
256
6
ByLayer
370
13
48
1
60
0
100
AcDbEllipse
10
139.817575
20
7.719565
30
0
11
-0.0026167978121472
21
0.0499314767377296
31
0
210
0
220
0
230
1
40
0.995725
41
-0.00872664625984027
42
0.901830883780532
0
ELLIPSE
5
1E1
100
AcDbEntity
8
1
62
256
6
ByLayer
370
13
48
1
60
0
100
AcDbEllipse
10
140.062008
20
-0.974945
30
0
11
-0.457939617125751
21
8.73800842910252
31
0
210
0
220
0
230
1
40
0.995725
41
-0.0662492130181145
42
-0.0384705421015286
0
ELLIPSE
5
1E2
100
AcDbEntity
8
1
62
256
6
ByLayer
370
13
48
1
60
0
100
AcDbEllipse
10
138.51758
20
8.645076
30
0
11
0.0811207321765612
21
-1.54787577886958
31
0
210
0
220
0
230
1
40
0.995725
41
0.676021157721268
42
0.901830883780729
0
ELLIPSE
5
1E3
100
AcDbEntity
8
1
62
256
6
ByLayer
370
13
48
1
60
0
100
AcDbEllipse
10
133.602833
20
2.441636
30
0
11
-0.0026167978121472
21
0.0499314767377296
31
0
210
0
220
0
230
1
40
0.995725
41
3.13286600733109
42
-2.23976176980852
0
ELLIPSE
5
1E4
100
AcDbEntity
8
1
62
256
6
ByLayer
370
13
48
1
60
0
100
AcDbEllipse
10
140.547093
20
5.38182
30
0
11
0.0157007868728827
21
-0.299588860426368
31
0
210
0
220
0
230
1
40
0.995725
41
1.38753675533538
42
1.67551608191457
0
ELLIPSE
5
1E5
100
AcDbEntity
8
1
62
256
6
ByLayer
370
13
48
1
60
0
100
AcDbEllipse
10
133.547007
20
2.389275
30
0
11
0.00653729335064122
21
-0.149857478277354
31
0
210
0
220
0
230
1
40
0.092367
41
-1.56998679074977
42
0.000809536045688095
0
ELLIPSE
5
1E6
100
AcDbEntity
8
1
62
256
6
ByLayer
370
13
48
1
60
0
100
AcDbEllipse
10
139.603942
20
3.163502
30
0
11
-0.043585206513681
21
-0.15811134585509
31
0
210
0
220
0
230
1
40
0.080185
41
-1.54411081859252
42
0.0266855082660527
0
ELLIPSE
5
1E7
100
AcDbEntity
8
1
62
256
6
ByLayer
370
13
48
1
60
0
100
AcDbEllipse
10
136.625551
20
7.048867
30
0
11
0.00392519671822073
21
-0.074897215106593
31
0
210
0
220
0
230
1
40
0.092371
41
1.5707963267949
42
-3.14159265358569
0
ELLIPSE
5
1E8
100
AcDbEntity
8
1
62
256
6
ByLayer
370
13
48
1
60
0
100
AcDbEllipse
10
139.91761
20
7.662447
30
0
11
0.0209560818654769
21
-0.399865862514393
31
0
210
0
220
0
230
1
40
0.995725
41
-2.70628529156204
42
-2.23976176980883
0
ELLIPSE
5
1E9
100
AcDbEntity
8
1
62
256
6
ByLayer
370
13
48
1
60
0
100
AcDbEllipse
10
136.735571
20
5.08193
30
0
11
0.0757589256077777
21
-1.44556641483746
31
0
210
0
220
0
230
1
40
0.995725
41
0
42
6.28318530717959
0
ELLIPSE
5
1EA
100
AcDbEntity
8
1
62
256
6
ByLayer
370
13
48
1
60
0
100
AcDbEllipse
10
138.898717
20
1.72554
30
0
11
-0.0680367431158261
21
1.29821839518094
31
0
210
0
220
0
230
1
40
0.995725
41
-0.511827859273368
42
4.38448220132132E-13
0
ELLIPSE
5
1EB
100
AcDbEntity
8
1
62
256
6
ByLayer
370
13
48
1
60
0
100
AcDbEllipse
10
140.388621
20
-0.320054
30
0
11
-0.0320944798879005
21
-1.00411066733771
31
0
210
0
220
0
230
1
40
0.198753
41
-3.12902824434739
42
-3.03709497709015
0
ELLIPSE
5
1EC
100
AcDbEntity
8
1
62
256
6
ByLayer
370
13
48
1
60
0
100
AcDbEllipse
10
140.402433
20
2.43955
30
0
11
-0.0105698016094754
21
0.500129561927916
31
0
210
0
220
0
230
1
40
0.104567
41
1.92312873095903
42
-3.08987439240416
0
ELLIPSE
5
1ED
100
AcDbEntity
8
1
62
256
6
ByLayer
370
13
48
1
60
0
100
AcDbEllipse
10
133.196056
20
2.928735
30
0
11
-1.01442627224779
21
0.817341028475951
31
0
210
0
220
0
230
1
40
0.775936
41
-3.07617439859426
42
-2.84372364280515
0
ELLIPSE
5
1EE
100
AcDbEntity
8
1
62
256
6
ByLayer
370
13
48
1
60
0
100
AcDbEllipse
10
143.643949
20
0.990524
30
0
11
-3.94004670817733
21
-1.1807934905072
31
0
210
0
220
0
230
1
40
0.813848
41
-0.346247798649486
42
-0.198695729333742
0
ELLIPSE
5
1EF
100
AcDbEntity
8
1
62
256
6
ByLayer
370
13
48
1
60
0
100
AcDbEllipse
10
133.419993
20
4.258904
30
0
11
0.0601863496793845
21
-1.14842396496776
31
0
210
0
220
0
230
1
40
0.995725
41
-1.85185662295877
42
-1.46607657167522
0
ELLIPSE
5
1F0
100
AcDbEntity
8
1
62
256
6
ByLayer
370
13
48
1
60
0
100
AcDbEllipse
10
137.210002
20
0
30
0
11
-16.1721179366788
21
6.89296761399566
31
0
210
0
220
0
230
1
40
0.214963
41
0.891004917140782
42
0.948801201254863
0
ELLIPSE
5
1F1
100
AcDbEntity
8
1
62
256
6
ByLayer
370
13
48
1
60
0
100
AcDbEllipse
10
138.061488
20
2.482761
30
0
11
-0.318392675401212
21
-0.395166626806682
31
0
210
0
220
0
230
1
40
0.966608
41
-2.26095468382748
42
-1.93037964018428
0
ELLIPSE
5
1F2
100
AcDbEntity
8
1
62
256
6
ByLayer
370
13
48
1
60
0
100
AcDbEllipse
10
131.938773
20
3.105437
30
0
11
-0.0261679781214715
21
0.499314767377287
31
0
210
0
220
0
230
1
40
0.995725
41
-1.71815362421737
42
-1.46607657167532
0
ELLIPSE
5
1F3
100
AcDbEntity
8
1
62
256
6
ByLayer
370
13
48
1
60
0
100
AcDbEllipse
10
132.847885
20
7.709356
30
0
11
-4.824549818136
21
4.19942214639675
31
0
210
0
220
0
230
1
40
0.876188
41
2.47529319591378
42
2.63234373829728
0
ELLIPSE
5
1F4
100
AcDbEntity
8
1
62
256
6
ByLayer
370
13
48
1
60
0
100
AcDbEllipse
10
136.251453
20
3.188999
30
0
11
0.0523359562429431
21
-0.998629534754574
31
0
210
0
220
0
230
1
40
0.092371
41
-1.04719755119673
42
-4.80766918026288E-15
0
ELLIPSE
5
1F5
100
AcDbEntity
8
1
62
256
6
ByLayer
370
13
48
1
60
0
100
AcDbEllipse
10
147.416788
20
3E-06
30
0
11
-84.1978098064978
21
0.038196212820398
31
0
210
0
220
0
230
1
40
0.092638
41
-1.39529417176266
42
-1.37759412711043
0
ELLIPSE
5
1F6
100
AcDbEntity
8
1
62
256
6
ByLayer
370
13
48
1
60
0
100
AcDbEllipse
10
140.36692
20
-0.604449
30
0
11
-0.961124746673296
21
1.6660785980646
31
0
210
0
220
0
230
1
40
0.321121
41
-1.00186175683523
42
-0.831958024943874
0
ELLIPSE
5
1F7
100
AcDbEntity
8
1
62
256
6
ByLayer
370
13
48
1
60
0
100
AcDbEllipse
10
140.302372
20
0
30
0
11
-1.33734308877377
21
7.79922422969685
31
0
210
0
220
0
230
1
40
0.082262
41
1.52730648755363
42
1.64960185926773
0
ELLIPSE
5
1F8
100
AcDbEntity
8
1
62
256
6
ByLayer
370
13
48
1
60
0
100
AcDbEllipse
10
140.081812
20
3.389739
30
0
11
-0.0211396032033317
21
1.00025912349585
31
0
210
0
220
0
230
1
40
0.104567
41
-3.13832609983895
42
-2.58351506676138
0
ELLIPSE
5
1F9
100
AcDbEntity
8
1
62
256
6
ByLayer
370
13
48
1
60
0
100
AcDbEllipse
10
140.436641
20
-0.326326
30
0
11
-0.0233814337474146
21
1.01142512625691
31
0
210
0
220
0
230
1
40
0.101813
41
-0.0477885605165912
42
0.617876871136022
0
ELLIPSE
5
1FA
100
AcDbEntity
8
1
62
256
6
ByLayer
370
13
48
1
60
0
100
AcDbEllipse
10
175.303606
20
-0.01254
30
0
11
-96.8777308783377
21
0.0439166760075562
31
0
210
0
220
0
230
1
40
0.088717
41
-1.0987296759146
42
-1.07457835963413
0
ELLIPSE
5
1FB
100
AcDbEntity
8
1
62
256
6
ByLayer
370
13
48
1
60
0
100
AcDbEllipse
10
136.617805
20
-3.801408
30
0
11
-0.314015737457658
21
5.99177720852745
31
0
210
0
220
0
230
1
40
0.995725
41
0
42
0.22694827470336
0
ELLIPSE
5
1FC
100
AcDbEntity
8
1
62
256
6
ByLayer
370
13
48
1
60
0
100
AcDbEllipse
10
128.5
20
1.915801
30
0
11
-1.5
21
1.51595858262354E-15
31
0
210
0
220
0
230
1
40
0.746983
41
-3.09040425927548
42
-1.68643672107424
0
ELLIPSE
5
1FD
100
AcDbEntity
8
1
62
256
6
ByLayer
370
13
48
1
60
0
100
AcDbEllipse
10
128.5
20
1.444963
30
0
11
-0.196246522047836
21
5.891293885078
31
0
210
0
220
0
230
1
40
0.337846
41
-0.540677968639249
42
-0.479606688066622
0
ELLIPSE
5
1FE
100
AcDbEntity
8
1
62
256
6
ByLayer
370
13
48
1
60
0
100
AcDbEllipse
10
131.866487
20
2.953012
30
0
11
-0.29369042064903
21
-0.95590058940195
31
0
210
0
220
0
230
1
40
0.0868
41
-1.53907871771949
42
-0.153239591266718
0
ELLIPSE
5
1FF
100
AcDbEntity
8
1
62
256
6
ByLayer
370
13
48
1
60
0
100
AcDbEllipse
10
134.694695
20
2.927669
30
0
11
0.276595201761486
21
-0.960986521426041
31
0
210
0
220
0
230
1
40
0.090002
41
-1.25648776912587
42
-0.0208700618445917
0
ELLIPSE
5
200
100
AcDbEntity
8
1
62
256
6
ByLayer
370
13
48
1
60
0
100
AcDbEllipse
10
140.143734
20
-4.29947
30
0
11
-0.06293045647166
21
-0.515752370939168
31
0
210
0
220
0
230
1
40
0.115468
41
-1.6615013148369
42
-0.0907049880378057
0
ELLIPSE
5
201
100
AcDbEntity
8
1
62
256
6
ByLayer
370
13
48
1
60
0
100
AcDbEllipse
10
139.855689
20
-4.306743
30
0
11
-0.0935363702389293
21
-0.794745560552814
31
0
210
0
220
0
230
1
40
0.119066
41
0
42
6.28318530717959
0
ELLIPSE
5
202
100
AcDbEntity
8
1
62
256
6
ByLayer
370
13
48
1
60
0
100
AcDbEllipse
10
144.087807
20
0.4675
30
0
11
-4.02200609869389
21
-0.0144563193740053
31
0
210
0
220
0
230
1
40
0.986753
41
0.0477697342998169
42
0.15268423776705
0
ELLIPSE
5
203
100
AcDbEntity
8
1
62
256
6
ByLayer
370
13
48
1
60
0
100
AcDbEllipse
10
133.574365
20
2.948561
30
0
11
0.0601863496793845
21
-1.14842396496776
31
0
210
0
220
0
230
1
40
0.995725
41
-1.71815362421726
42
-1.48716126005388
0
ELLIPSE
5
204
100
AcDbEntity
8
1
62
256
6
ByLayer
370
13
48
1
60
0
100
AcDbEllipse
10
601.945766
20
1E-06
30
0
11
-777.016105044606
21
6.40278459513863
31
0
210
0
220
0
230
1
40
0.005733
41
0.920112467603629
42
0.933549214593439
0
ELLIPSE
5
205
100
AcDbEntity
8
1
62
256
6
ByLayer
370
13
48
1
60
0
100
AcDbEllipse
10
140.318894
20
0.052944
30
0
11
-0.0116907168673882
21
0.50571256286572
31
0
210
0
220
0
230
1
40
0.101813
41
-0.139721826877673
42
0.145436519578073
0
ELLIPSE
5
206
100
AcDbEntity
8
1
62
256
6
ByLayer
370
13
48
1
60
0
100
AcDbEllipse
10
131.579264
20
-0.000162
30
0
11
-1.04160504842679
21
-7.79959389512496
31
0
210
0
220
0
230
1
40
0.090397
41
2.9830608997173
42
2.99726435672398
0
ELLIPSE
5
207
100
AcDbEntity
8
1
62
256
6
ByLayer
370
13
48
1
60
0
100
AcDbEllipse
10
134.169408
20
2.278785
30
0
11
-3.96879668050237
21
-0.704906653779501
31
0
210
0
220
0
230
1
40
0.015321
41
-3.01817314116289
42
-2.85180693877514
0
ELLIPSE
5
208
100
AcDbEntity
8
1
62
256
6
ByLayer
370
13
48
1
60
0
100
AcDbEllipse
10
132.87413
20
5.110708
30
0
11
-0.143594274899701
21
2.73994198660429
31
0
210
0
220
0
230
1
40
0.016833
41
0.300749397628693
42
0.89638568634273
0
ELLIPSE
5
209
100
AcDbEntity
8
1
62
256
6
ByLayer
370
13
48
1
60
0
100
AcDbEllipse
10
133.480106
20
2.943623
30
0
11
-0.732318078983813
21
-0.90887440781821
31
0
210
0
220
0
230
1
40
0.96661
41
1.81549266805875
42
1.8464187992724
0
ELLIPSE
5
20A
100
AcDbEntity
8
1
62
256
6
ByLayer
370
13
48
1
60
0
100
AcDbEllipse
10
131.086892
20
2.117238
30
0
11
-3.96879666581385
21
-0.704906651122599
31
0
210
0
220
0
230
1
40
0.015321
41
-3.01817314088716
42
-2.85180693823665
0
ELLIPSE
5
20B
100
AcDbEntity
8
1
62
256
6
ByLayer
370
13
48
1
60
0
100
AcDbEllipse
10
3.5
20
-13.590868
30
0
11
-0.5
21
5.05319527541181E-16
31
0
210
0
220
0
230
1
40
0.5
41
1.5707963267949
42
3.14159265358979
0
ELLIPSE
5
20C
100
AcDbEntity
8
1
62
256
6
ByLayer
370
13
48
1
60
0
100
AcDbEllipse
10
133.2288
20
7.729319
30
0
11
-0.261679781214715
21
4.99314767377287
31
0
210
0
220
0
230
1
40
0.995725
41
2.79252680319533
42
2.92987709869104
0
ELLIPSE
5
20D
100
AcDbEntity
8
1
62
256
6
ByLayer
370
13
48
1
60
0
100
AcDbEllipse
10
131.668959
20
3.091296
30
0
11
0.0523359562429431
21
-0.998629534754574
31
0
210
0
220
0
230
1
40
0.995725
41
1.42343902937245
42
1.6755160819145
0
ELLIPSE
5
20E
100
AcDbEntity
8
1
62
256
6
ByLayer
370
13
48
1
60
0
100
AcDbEllipse
10
128.5
20
2.333826
30
0
11
-1.99996743746549
21
0.0150001632807631
31
0
210
0
220
0
230
1
40
0.770783
41
1.88065225102974
42
1.91829709432827
0
ELLIPSE
5
20F
100
AcDbEntity
8
1
62
256
6
ByLayer
370
13
48
1
60
0
100
AcDbEllipse
10
136.334751
20
-1.977554
30
0
11
-4.02200614837228
21
-0.0144565019955308
31
0
210
0
220
0
230
1
40
0.986753
41
3.00785350126715
42
-2.98890846153906
0
ELLIPSE
5
210
100
AcDbEntity
8
1
62
256
6
ByLayer
370
13
48
1
60
0
100
AcDbEllipse
10
140.954863
20
0
30
0
11
-0.929954578659578
21
-7.79921600938282
31
0
210
0
220
0
230
1
40
0.118917
41
-1.31064509022851
42
-0.108339439451205
0
ELLIPSE
5
211
100
AcDbEntity
8
1
62
256
6
ByLayer
370
13
48
1
60
0
100
AcDbEllipse
10
137.251323
20
3.892292
30
0
11
-0.732303155914484
21
-0.908883239217845
31
0
210
0
220
0
230
1
40
0.966608
41
0.713732916508798
42
1.21121301641798
0
ELLIPSE
5
212
100
AcDbEntity
8
1
62
256
6
ByLayer
370
13
48
1
60
0
100
AcDbEllipse
10
137.684965
20
-3.745481
30
0
11
-4.82454981969561
21
4.19942214082322
31
0
210
0
220
0
230
1
40
0.876188
41
-0.736197190803701
42
-0.509248916095103
0
ELLIPSE
5
213
100
AcDbEntity
8
1
62
256
6
ByLayer
370
18
48
1
60
0
100
AcDbEllipse
10
136.726974
20
5.081479
30
0
11
0.045861998455691
21
-0.875099061305433
31
0
210
0
220
0
230
1
40
0.995725
41
-2.6179938779915
42
-1.5707963267949
0
ELLIPSE
5
214
100
AcDbEntity
8
1
62
256
6
ByLayer
370
18
48
1
60
0
100
AcDbEllipse
10
136.726974
20
5.081479
30
0
11
0.045861998455691
21
-0.875099061305433
31
0
210
0
220
0
230
1
40
0.995725
41
-1.5707963267949
42
-0.523598775598338
0
ELLIPSE
5
215
100
AcDbEntity
8
1
62
256
6
ByLayer
370
18
48
1
60
0
100
AcDbEllipse
10
136.658252
20
5.077878
30
0
11
0.035494245523964
21
-0.677270550470552
31
0
210
0
220
0
230
1
40
0.995725
41
1.04719755119659
42
2.0943951023932
0
ELLIPSE
5
216
100
AcDbEntity
8
1
62
256
6
ByLayer
370
18
48
1
60
0
100
AcDbEllipse
10
136.712762
20
5.080734
30
0
11
-0.0693451420218994
21
1.32318413354981
31
0
210
0
220
0
230
1
40
0.995725
41
0
42
6.28318530717959
0
ELLIPSE
5
217
100
AcDbEntity
8
1
62
256
6
ByLayer
370
18
48
1
60
0
100
AcDbEllipse
10
137.309865
20
5.502763
30
0
11
-0.111493507176838
21
0.172840289282411
31
0
210
0
220
0
230
1
40
0.49529
41
1.5732314571311
42
2.735590400103
0
ELLIPSE
5
218
100
AcDbEntity
8
1
62
256
6
ByLayer
370
18
48
1
60
0
100
AcDbEllipse
10
136.726974
20
5.081479
30
0
11
0.045861998455691
21
-0.875099061305433
31
0
210
0
220
0
230
1
40
0.995725
41
0.523598775598288
42
1.5707963267949
0
ELLIPSE
5
219
100
AcDbEntity
8
1
62
256
6
ByLayer
370
18
48
1
60
0
100
AcDbEllipse
10
136.726974
20
5.081479
30
0
11
0.045861998455691
21
-0.875099061305433
31
0
210
0
220
0
230
1
40
0.995725
41
-0.523598775598338
42
0.523598775598288
0
ELLIPSE
5
21A
100
AcDbEntity
8
1
62
256
6
ByLayer
370
18
48
1
60
0
100
AcDbEllipse
10
137.350708
20
4.723432
30
0
11
-0.0928160042509341
21
-0.183547697064288
31
0
210
0
220
0
230
1
40
0.49529
41
-1.57323145712306
42
-0.410872514161448
0
ELLIPSE
5
21B
100
AcDbEntity
8
1
62
256
6
ByLayer
370
18
48
1
60
0
100
AcDbEllipse
10
137.309865
20
5.502763
30
0
11
-0.111493507177049
21
0.172840289282999
31
0
210
0
220
0
230
1
40
0.49529
41
0.410872514163939
42
1.5732314571322
0
ELLIPSE
5
21C
100
AcDbEntity
8
1
62
256
6
ByLayer
370
18
48
1
60
0
100
AcDbEllipse
10
136.726974
20
5.081479
30
0
11
-0.0497191584307958
21
0.948698058016845
31
0
210
0
220
0
230
1
40
0.995725
41
0
42
6.28318530717959
0
ELLIPSE
5
21D
100
AcDbEntity
8
1
62
256
6
ByLayer
370
18
48
1
60
0
100
AcDbEllipse
10
136.726974
20
5.081479
30
0
11
0.045861998455691
21
-0.875099061305433
31
0
210
0
220
0
230
1
40
0.995725
41
1.5707963267949
42
2.61799387799146
0
ELLIPSE
5
21E
100
AcDbEntity
8
1
62
256
6
ByLayer
370
18
48
1
60
0
100
AcDbEllipse
10
136.699095
20
4.298547
30
0
11
-0.20473874296317
21
-0.0107299028511515
31
0
210
0
220
0
230
1
40
0.498489
41
-1.5707963267949
42
-0.408437383825286
0
ELLIPSE
5
21F
100
AcDbEntity
8
1
62
256
6
ByLayer
370
18
48
1
60
0
100
AcDbEllipse
10
136.658252
20
5.077878
30
0
11
0.035494245523964
21
-0.677270550470552
31
0
210
0
220
0
230
1
40
0.995725
41
2.0943951023932
42
3.14159265358979
0
ELLIPSE
5
220
100
AcDbEntity
8
1
62
256
6
ByLayer
370
18
48
1
60
0
100
AcDbEllipse
10
136.617409
20
5.857208
30
0
11
-0.204738742960497
21
-0.0107299028510796
31
0
210
0
220
0
230
1
40
0.498489
41
0.408437383826827
42
1.5707963267949
0
ELLIPSE
5
221
100
AcDbEntity
8
1
62
256
6
ByLayer
370
18
48
1
60
0
100
AcDbEllipse
10
136.726974
20
5.081479
30
0
11
0.045861998455691
21
-0.875099061305433
31
0
210
0
220
0
230
1
40
0.995725
41
2.61799387799146
42
-2.6179938779915
0
ELLIPSE
5
222
100
AcDbEntity
8
1
62
256
6
ByLayer
370
18
48
1
60
0
100
AcDbEllipse
10
137.350708
20
4.723432
30
0
11
-0.0928160042493281
21
-0.183547697061868
31
0
210
0
220
0
230
1
40
0.49529
41
-2.73559040010153
42
-1.57323145712683
0
ELLIPSE
5
223
100
AcDbEntity
8
1
62
256
6
ByLayer
370
13
48
1
60
0
100
AcDbEllipse
10
132.557064
20
4.145643
30
0
11
0.493878886210536
21
0.0779977291684886
31
0
210
0
220
0
230
1
40
0.009655
41
1.80630216916215
42
2.1526145675258
0
ELLIPSE
5
224
100
AcDbEntity
8
1
62
256
6
ByLayer
370
13
48
1
60
0
100
AcDbEllipse
10
140.437766
20
2.441402
30
0
11
-0.0190690708179674
21
-0.501607027412674
31
0
210
0
220
0
230
1
40
0.195483
41
-0.148994019821922
42
-0.0307420107221047
0
ELLIPSE
5
225
100
AcDbEntity
8
1
62
256
6
ByLayer
370
13
48
1
60
0
100
AcDbEllipse
10
133.304551
20
2.934421
30
0
11
-0.0340183715579132
21
0.649109197590473
31
0
210
0
220
0
230
1
40
0.995725
41
1.42343902937261
42
2.2747005802784
0
ELLIPSE
5
226
100
AcDbEntity
8
1
62
256
6
ByLayer
370
13
48
1
60
0
100
AcDbEllipse
10
115.707413
20
0
30
0
11
-84.1978281478644
21
0.0381968112621723
31
0
210
0
220
0
230
1
40
0.092638
41
-1.84986393878602
42
-1.78592171895885
0
ELLIPSE
5
227
100
AcDbEntity
8
1
62
256
6
ByLayer
370
13
48
1
60
0
100
AcDbEllipse
10
133.029337
20
0
30
0
11
-0.412324051682208
21
7.79990648254796
31
0
210
0
220
0
230
1
40
0.092638
41
-0.141863774825948
42
-0.00489930947564541
0
ELLIPSE
5
228
100
AcDbEntity
8
1
62
256
6
ByLayer
370
13
48
1
60
0
100
AcDbEllipse
10
132.706349
20
2.998637
30
0
11
0.497774923884427
21
-0.0471182040389196
31
0
210
0
220
0
230
1
40
0.013562
41
-2.15474624399713
42
-1.6623019030855
0
ELLIPSE
5
229
100
AcDbEntity
8
1
62
256
6
ByLayer
370
13
48
1
60
0
100
AcDbEllipse
10
133.350673
20
2.936838
30
0
11
0.0601863496793845
21
-1.14842396496776
31
0
210
0
220
0
230
1
40
0.995725
41
0.065314925652253
42
1.01160192723482
0
ELLIPSE
5
22A
100
AcDbEntity
8
1
62
256
6
ByLayer
370
13
48
1
60
0
100
AcDbEllipse
10
132.698524
20
3.249925
30
0
11
0.493878886210536
21
0.0779977291684886
31
0
210
0
220
0
230
1
40
0.009655
41
1.66279490126874
42
2.15342361859083
0
ELLIPSE
5
22B
100
AcDbEntity
8
1
62
256
6
ByLayer
370
13
48
1
60
0
100
AcDbEllipse
10
137.823429
20
-1.786559
30
0
11
1
21
0
31
0
210
0
220
0
230
1
40
0.992187
41
2.26764061375859
42
3.00591492915781
0
ELLIPSE
5
22C
100
AcDbEntity
8
1
62
256
6
ByLayer
370
13
48
1
60
0
100
AcDbEllipse
10
137.823429
20
-1.518333
30
0
11
1
21
0
31
0
210
0
220
0
230
1
40
0.992187
41
0
42
-3.14159241078103
0
ELLIPSE
5
22D
100
AcDbEntity
8
1
62
256
6
ByLayer
370
13
48
1
60
0
100
AcDbEllipse
10
133.321044
20
7.734153
30
0
11
0.314015737457658
21
-5.99177720852744
31
0
210
0
220
0
230
1
40
0.995725
41
-4.66258572641998E-06
42
0.226948274703335
0
ELLIPSE
5
22E
100
AcDbEntity
8
1
62
256
6
ByLayer
370
13
48
1
60
0
100
AcDbEllipse
10
137.823429
20
-1.518333
30
0
11
-1.1
21
1.1117029605906E-15
31
0
210
0
220
0
230
1
40
0.992187
41
-2.98519983715644
42
-0.143236848312408
0
ELLIPSE
5
22F
100
AcDbEntity
8
1
62
256
6
ByLayer
370
13
48
1
60
0
100
AcDbEllipse
10
134.978972
20
2.321213
30
0
11
-0.318392676569044
21
-0.395166625665481
31
0
210
0
220
0
230
1
40
0.966608
41
-2.26095468065869
42
-1.67136891260585
0
ELLIPSE
5
230
100
AcDbEntity
8
1
62
256
6
ByLayer
370
18
48
1
60
0
100
AcDbEllipse
10
137.960611
20
-1.652932
30
0
11
1
21
0
31
0
210
0
220
0
230
1
40
0.992187
41
0.317792073856228
42
-3.14159188852449
0
ELLIPSE
5
231
100
AcDbEntity
8
1
62
256
6
ByLayer
370
18
48
1
60
0
100
AcDbEllipse
10
137.960611
20
-1.615506
30
0
11
-0.7
21
7.07447338557654E-16
31
0
210
0
220
0
230
1
40
0.992187
41
3.14159255476304
42
-3.19704429169436E-16
0
ELLIPSE
5
232
100
AcDbEntity
8
1
62
256
6
ByLayer
370
18
48
1
60
0
100
AcDbEllipse
10
137.960611
20
-1.615506
30
0
11
-0.7
21
7.07447338557654E-16
31
0
210
0
220
0
230
1
40
0.992187
41
0
42
1.55616851056055
0
ELLIPSE
5
233
100
AcDbEntity
8
1
62
256
6
ByLayer
370
18
48
1
60
0
100
AcDbEllipse
10
137.960611
20
-1.615506
30
0
11
-0.7
21
7.07447338557654E-16
31
0
210
0
220
0
230
1
40
0.992187
41
2.46988080999822
42
3.14159255476305
0
ELLIPSE
5
234
100
AcDbEntity
8
1
62
256
6
ByLayer
370
18
48
1
60
0
100
AcDbEllipse
10
137.960611
20
-2.069914
30
0
11
-1.1
21
1.1117029605906E-15
31
0
210
0
220
0
230
1
40
0.992187
41
-0.431379880476955
42
-0.266053658048291
0
ELLIPSE
5
235
100
AcDbEntity
8
1
62
256
6
ByLayer
370
18
48
1
60
0
100
AcDbEllipse
10
137.960611
20
-1.963978
30
0
11
-1.1
21
1.1117029605906E-15
31
0
210
0
220
0
230
1
40
0.992187
41
-0.46338478103093
42
-0.188986217319806
0
ELLIPSE
5
236
100
AcDbEntity
8
1
62
256
6
ByLayer
370
13
48
1
60
0
100
AcDbEllipse
10
134.172386
20
2.973077
30
0
11
0.0261679781214715
21
-0.499314767377287
31
0
210
0
220
0
230
1
40
0.092371
41
-0.64579070757923
42
-0.395138986075862
0
ELLIPSE
5
237
100
AcDbEntity
8
1
62
256
6
ByLayer
370
13
48
1
60
0
100
AcDbEllipse
10
132.990686
20
2.905213
30
0
11
-0.0701174095760616
21
0.249530450727823
31
0
210
0
220
0
230
1
40
0.960623
41
1.53011605205897
42
1.90015045632679
0
ELLIPSE
5
238
100
AcDbEntity
8
1
62
256
6
ByLayer
370
13
48
1
60
0
100
AcDbEllipse
10
136.665933
20
5.07828
30
0
11
0.0699521520797117
21
-1.33476657543375
31
0
210
0
220
0
230
1
40
0.995725
41
2.87563155024229
42
-1.62293252536888
0
ELLIPSE
5
239
100
AcDbEntity
8
1
62
256
6
ByLayer
370
13
48
1
60
0
100
AcDbEllipse
10
136.665933
20
5.07828
30
0
11
0.0699521520797117
21
-1.33476657543375
31
0
210
0
220
0
230
1
40
0.995725
41
-1.62293252536886
42
-0.016989452914328
0
ELLIPSE
5
23A
100
AcDbEntity
8
1
62
256
6
ByLayer
370
13
48
1
60
0
100
AcDbEllipse
10
140.237018
20
2.931678
30
0
11
-0.0436502644885577
21
-0.255492761888984
31
0
210
0
220
0
230
1
40
0.960623
41
0.306237786886039
42
1.24144276490722
0
ELLIPSE
5
23B
100
AcDbEntity
8
1
62
256
6
ByLayer
370
13
48
1
60
0
100
AcDbEllipse
10
139.790787
20
7.749212
30
0
11
0.122557354636351
21
-0.0864852289384714
31
0
210
0
220
0
230
1
40
0.057286
41
-2.9097242064025
42
-1.6434407661279
0
ELLIPSE
5
23C
100
AcDbEntity
8
1
62
256
6
ByLayer
370
13
48
1
60
0
100
AcDbEllipse
10
139.87393
20
5.4951
30
0
11
0.148163665863161
21
0.0233993187505466
31
0
210
0
220
0
230
1
40
0.009655
41
1.66279490126889
42
2.86882079213794
0
ELLIPSE
5
23D
100
AcDbEntity
8
1
62
256
6
ByLayer
370
13
48
1
60
0
100
AcDbEllipse
10
139.877164
20
5.251185
30
0
11
0.148731686424788
21
-0.019464980175656
31
0
210
0
220
0
230
1
40
0.016833
41
-2.87064472766225
42
-1.66175841710548
0
ELLIPSE
5
23E
100
AcDbEntity
8
1
62
256
6
ByLayer
370
13
48
1
60
0
100
AcDbEllipse
10
139.603942
20
3.163502
30
0
11
-0.157303253000595
21
-0.0460731444218395
31
0
210
0
220
0
230
1
40
0.019548
41
-1.48844818361995
42
0.0823481430878327
0
ELLIPSE
5
23F
100
AcDbEntity
8
1
62
256
6
ByLayer
370
13
48
1
60
0
100
AcDbEllipse
10
139.657268
20
5.460194
30
0
11
0.0740818329315803
21
0.0116996593752733
31
0
210
0
220
0
230
1
40
0.009655
41
-1.47879775232104
42
-0.000215754766515247
0
ELLIPSE
5
240
100
AcDbEntity
8
1
62
256
6
ByLayer
370
13
48
1
60
0
100
AcDbEllipse
10
139.351672
20
7.395214
30
0
11
-0.074081832931581
21
-0.0116996593752692
31
0
210
0
220
0
230
1
40
0.009655
41
1.662794901268
42
3.14137689875704
0
ELLIPSE
5
241
100
AcDbEntity
8
1
62
256
6
ByLayer
370
13
48
1
60
0
100
AcDbEllipse
10
139.659646
20
5.280845
30
0
11
0.0743658432123938
21
-0.00973249008782796
31
0
210
0
220
0
230
1
40
0.016833
41
5.34639832786873E-05
42
1.47983423648391
0
ELLIPSE
5
242
100
AcDbEntity
8
1
62
256
6
ByLayer
370
13
48
1
60
0
100
AcDbEllipse
10
139.379489
20
3.140176
30
0
11
-0.0743658432123935
21
0.00973249008782973
31
0
210
0
220
0
230
1
40
0.016833
41
-3.14153918957169
42
-1.66175841710548
0
ELLIPSE
5
243
100
AcDbEntity
8
1
62
256
6
ByLayer
370
13
48
1
60
0
100
AcDbEllipse
10
136.681877
20
5.079116
30
0
11
0.0736286858157504
21
-1.40491901818815
31
0
210
0
220
0
230
1
40
0.995725
41
-0.853733629912533
42
0
0
ELLIPSE
5
244
100
AcDbEntity
8
1
62
256
6
ByLayer
370
13
48
1
60
0
100
AcDbEllipse
10
136.681877
20
5.079116
30
0
11
0.0736286858157504
21
-1.40491901818815
31
0
210
0
220
0
230
1
40
0.995725
41
0
42
-2.28787081989087
0
ELLIPSE
5
245
100
AcDbEntity
8
1
62
256
6
ByLayer
370
13
48
1
60
0
100
AcDbEllipse
10
133.802312
20
8.397958
30
0
11
-1.60034701164245
21
0.98519808149176
31
0
210
0
220
0
230
1
40
0.479614
41
1.6325358192754
42
1.65246866604162
0
ELLIPSE
5
246
100
AcDbEntity
8
1
62
256
6
ByLayer
370
13
48
1
60
0
100
AcDbEllipse
10
133.90211
20
7.058393
30
0
11
0.00523359562429368
21
-0.0998629534754455
31
0
210
0
220
0
230
1
40
0.995725
41
1.38753675533517
42
3.14158141713624
0
ELLIPSE
5
247
100
AcDbEntity
8
1
62
256
6
ByLayer
370
13
48
1
60
0
100
AcDbEllipse
10
133.618852
20
2.392409
30
0
11
0.00653729335064122
21
-0.149857478277354
31
0
210
0
220
0
230
1
40
0.092367
41
-1.56998679074977
42
-0.0232440763781242
0
ELLIPSE
5
248
100
AcDbEntity
8
1
62
256
6
ByLayer
370
13
48
1
60
0
100
AcDbEllipse
10
133.495201
20
2.38779
30
0
11
0.00205858338350387
21
-0.149985873449646
31
0
210
0
220
0
230
1
40
0.092302
41
-1.56722841787561
42
-0.0491492667751672
0
ELLIPSE
5
249
100
AcDbEntity
8
1
62
256
6
ByLayer
370
13
48
1
60
0
100
AcDbEllipse
10
133.024577
20
6.876321
30
0
11
0.0222321776352624
21
-0.148343285246061
31
0
210
0
220
0
230
1
40
0.091945
41
-3.05448529856414
42
-1.57968743413492
0
ELLIPSE
5
24A
100
AcDbEntity
8
1
62
256
6
ByLayer
370
13
48
1
60
0
100
AcDbEllipse
10
133.616669
20
2.442361
30
0
11
0.0104671912485887
21
-0.199725906950916
31
0
210
0
220
0
230
1
40
0.995725
41
0.0114030181922814
42
0.901830883780914
0
ELLIPSE
5
24B
100
AcDbEntity
8
1
62
256
6
ByLayer
370
13
48
1
60
0
100
AcDbEllipse
10
133.253182
20
2.387844
30
0
11
-0.00212587133334401
21
-0.149984934813714
31
0
210
0
220
0
230
1
40
0.092168
41
-1.56465514491251
42
-0.069634654992938
0
ELLIPSE
5
24C
100
AcDbEntity
8
1
62
256
6
ByLayer
370
13
48
1
60
0
100
AcDbEllipse
10
133.024577
20
6.876321
30
0
11
-0.148731686424787
21
0.0194649801756595
31
0
210
0
220
0
230
1
40
0.016833
41
-0.0909620903109282
42
1.47983423648375
0
ELLIPSE
5
24D
100
AcDbEntity
8
1
62
256
6
ByLayer
370
13
48
1
60
0
100
AcDbEllipse
10
133.107706
20
2.514395
30
0
11
-0.148163665863162
21
-0.0233993187505382
31
0
210
0
220
0
230
1
40
0.009655
41
-1.47879775232107
42
-0.264793552089779
0
ELLIPSE
5
24E
100
AcDbEntity
8
1
62
256
6
ByLayer
370
13
48
1
60
0
100
AcDbEllipse
10
132.752901
20
4.800442
30
0
11
-0.148731686424787
21
0.0194649801756595
31
0
210
0
220
0
230
1
40
0.016833
41
0.263258629491525
42
1.47983423648432
0
ELLIPSE
5
24F
100
AcDbEntity
8
1
62
256
6
ByLayer
370
13
48
1
60
0
100
AcDbEllipse
10
132.753471
20
4.757399
30
0
11
-0.148163665863162
21
-0.0233993187505382
31
0
210
0
220
0
230
1
40
0.009655
41
-1.47879775232091
42
-0.000215754738304547
0
ELLIPSE
5
250
100
AcDbEntity
8
1
62
256
6
ByLayer
370
13
48
1
60
0
100
AcDbEllipse
10
139.351672
20
7.395214
30
0
11
0.00392519671822073
21
-0.074897215106593
31
0
210
0
220
0
230
1
40
0.995725
41
3.14158483764968
42
-2.61421045510402
0
ELLIPSE
5
251
100
AcDbEntity
8
1
62
256
6
ByLayer
370
13
48
1
60
0
100
AcDbEllipse
10
139.379489
20
3.140176
30
0
11
0.00392519671822073
21
-0.074897215106593
31
0
210
0
220
0
230
1
40
0.995725
41
-0.38087880969089
42
1.96739039020149E-05
0
ELLIPSE
5
252
100
AcDbEntity
8
1
62
256
6
ByLayer
370
13
48
1
60
0
100
AcDbEllipse
10
134.105633
20
2.76792
30
0
11
0.00392519671822073
21
-0.074897215106593
31
0
210
0
220
0
230
1
40
0.995725
41
-1.4660765716757
42
-1.55852545319265E-05
0
ELLIPSE
5
253
100
AcDbEntity
8
1
62
256
6
ByLayer
370
13
48
1
60
0
100
AcDbEllipse
10
134.077816
20
7.022958
30
0
11
0.00392519671822073
21
-0.074897215106593
31
0
210
0
220
0
230
1
40
0.995725
41
-3.14157648440084
42
-1.7540558982547
0
ELLIPSE
5
254
100
AcDbEntity
8
1
62
256
6
ByLayer
370
13
48
1
60
0
100
AcDbEllipse
10
134.105633
20
2.76792
30
0
11
0.0412025770551257
21
-0.0626685538688778
31
0
210
0
220
0
230
1
40
0.07982
41
-6.26840210669312E-05
42
1.52414298346549
0
ELLIPSE
5
255
100
AcDbEntity
8
1
62
256
6
ByLayer
370
18
48
1
60
0
100
AcDbEllipse
10
136.658252
20
5.077878
30
0
11
0.035494245523964
21
-0.677270550470552
31
0
210
0
220
0
230
1
40
0.995725
41
3.14159265358975
42
-2.32785514401911
0
ELLIPSE
5
256
100
AcDbEntity
8
1
62
256
6
ByLayer
370
18
48
1
60
0
100
AcDbEllipse
10
136.658252
20
5.077878
30
0
11
0.035494245523964
21
-0.677270550470552
31
0
210
0
220
0
230
1
40
0.995725
41
-0.7893580268452
42
-4.34027212871504E-14
0
ELLIPSE
5
257
100
AcDbEntity
8
1
62
256
6
ByLayer
370
18
48
1
60
0
100
AcDbEllipse
10
136.658252
20
5.077878
30
0
11
-0.0354942455239639
21
0.677270550470552
31
0
210
0
220
0
230
1
40
0.995725
41
-3.04305800877155
42
-2.09439510239325
0
ELLIPSE
5
258
100
AcDbEntity
8
1
62
256
6
ByLayer
370
18
48
1
60
0
100
AcDbEllipse
10
136.658252
20
5.077878
30
0
11
0.035494245523964
21
-0.677270550470552
31
0
210
0
220
0
230
1
40
0.995725
41
-1.90344470103225
42
-1.21869270683778
0
ELLIPSE
5
259
100
AcDbEntity
8
1
62
256
6
ByLayer
370
18
48
1
60
0
100
AcDbEllipse
10
137.427987
20
5.118218
30
0
11
-0.0107759733904207
21
0.205617821205956
31
0
210
0
220
0
230
1
40
0.494235
41
-2.91943718638259
42
-0.51370886421192
0
ELLIPSE
5
25A
100
AcDbEntity
8
1
62
256
6
ByLayer
370
18
48
1
60
0
100
AcDbEllipse
10
137.078205
20
4.428576
30
0
11
-0.171784475702878
21
-0.112311174146132
31
0
210
0
220
0
230
1
40
0.497416
41
0.586207480381218
42
-2.95779077331534
0
ELLIPSE
5
25B
100
AcDbEntity
8
1
62
256
6
ByLayer
370
18
48
1
60
0
100
AcDbEllipse
10
136.667016
20
5.078337
30
0
11
-0.0693451420218994
21
1.32318413354981
31
0
210
0
220
0
230
1
40
0.995725
41
9.22038546270795E-05
42
3.14158645645111
0
ELLIPSE
5
25C
100
AcDbEntity
8
1
62
256
6
ByLayer
370
18
48
1
60
0
100
AcDbEllipse
10
137.008034
20
5.767519
30
0
11
-0.182583136812158
21
0.0937395545243849
31
0
210
0
220
0
230
1
40
0.497416
41
2.95779077331535
42
-0.697449354238069
0
ELLIPSE
5
25D
100
AcDbEntity
8
1
62
256
6
ByLayer
370
18
48
1
60
0
100
AcDbEllipse
10
136.308471
20
4.388236
30
0
11
-0.182583136812152
21
0.0937395545243931
31
0
210
0
220
0
230
1
40
0.497416
41
2.44414183573152
42
-2.95288588122167
0
ELLIPSE
5
25E
100
AcDbEntity
8
1
62
256
6
ByLayer
370
18
48
1
60
0
100
AcDbEllipse
10
136.2383
20
5.727179
30
0
11
-0.17178447570287
21
-0.112311174146142
31
0
210
0
220
0
230
1
40
0.497416
41
2.95288588122189
42
-2.55538359160661
0
POINT
5
70
100
AcDbEntity
8
1
62
256
6
ByLayer
370
18
48
1
60
0
100
AcDbPoint
10
0
20
0
30
0
39
0
210
0
220
0
230
1
50
360
0
POINT
5
72
100
AcDbEntity
8
80
62
256
6
ByLayer
370
18
48
1
60
0
100
AcDbPoint
10
0
20
0
30
0
39
0
210
0
220
0
230
1
50
360
0
POINT
5
74
100
AcDbEntity
8
81
62
256
6
ByLayer
370
18
48
1
60
0
100
AcDbPoint
10
141
20
0
30
0
39
0
210
0
220
0
230
1
50
360
0
POINT
5
76
100
AcDbEntity
8
1
62
256
6
ByLayer
370
18
48
1
60
1
100
AcDbPoint
10
0
20
-16
30
0
39
0
210
0
220
0
230
1
50
360
0
POINT
5
77
100
AcDbEntity
8
1
62
256
6
ByLayer
370
18
48
1
60
1
100
AcDbPoint
10
141
20
-8
30
0
39
0
210
0
220
0
230
1
50
360
0
POINT
5
78
100
AcDbEntity
8
1
62
256
6
ByLayer
370
18
48
1
60
1
100
AcDbPoint
10
-15
20
-10
30
0
39
0
210
0
220
0
230
1
50
360
0
POINT
5
79
100
AcDbEntity
8
1
62
256
6
ByLayer
370
18
48
1
60
1
100
AcDbPoint
10
0
20
-16
30
0
39
0
210
0
220
0
230
1
50
360
0
POINT
5
7A
100
AcDbEntity
8
1
62
256
6
ByLayer
370
18
48
1
60
1
100
AcDbPoint
10
141
20
-8
30
0
39
0
210
0
220
0
230
1
50
360
0
POINT
5
7B
100
AcDbEntity
8
1
62
256
6
ByLayer
370
18
48
1
60
1
100
AcDbPoint
10
13.6071
20
-16
30
0
39
0
210
0
220
0
230
1
50
360
0
POINT
5
7C
100
AcDbEntity
8
1
62
256
6
ByLayer
370
18
48
1
60
1
100
AcDbPoint
10
26
20
-8
30
0
39
0
210
0
220
0
230
1
50
360
0
POINT
5
7D
100
AcDbEntity
8
1
62
256
6
ByLayer
370
18
48
1
60
1
100
AcDbPoint
10
141
20
-8
30
0
39
0
210
0
220
0
230
1
50
360
0
POINT
5
7E
100
AcDbEntity
8
1
62
256
6
ByLayer
370
18
48
1
60
1
100
AcDbPoint
10
140.5369
20
-4
30
0
39
0
210
0
220
0
230
1
50
360
0
SPLINE
5
25F
100
AcDbEntity
8
1
62
256
6
ByLayer
370
13
48
1
60
0
100
AcDbSpline
70
4
71
2
72
6
73
3
40
0
40
0
40
0
40
1
40
1
40
1
41
1
10
140.949964697186
20
5.38720846554111
30
0
41
0.997409491337351
10
140.949582255864
20
5.41605353238617
30
0
41
1
10
140.945082341142
20
5.44454683462223
30
0
0
SPLINE
5
260
100
AcDbEntity
8
1
62
256
6
ByLayer
370
13
48
1
60
0
100
AcDbSpline
70
4
71
3
72
18
73
14
40
0
40
0
40
0
40
0
40
0.124999999999978
40
0.124999999999978
40
0.249999999999956
40
0.249999999999956
40
0.312499999999959
40
0.312499999999959
40
0.374999999999963
40
0.374999999999963
40
0.499999999999971
40
0.499999999999971
40
1
40
1
40
1
40
1
41
1
10
139.358590354789
20
7.39557660153889
30
0
41
1
10
139.26050857899
20
7.33109095960884
30
0
41
1
10
139.15688448989
20
7.27936724289108
30
0
41
1
10
138.938937863665
20
7.20055443152791
30
0
41
1
10
138.823678135624
20
7.17357609108498
30
0
41
1
10
138.65135656537
20
7.15421188066151
30
0
41
1
10
138.593620996014
20
7.15197022085908
30
0
41
1
10
138.478255633303
20
7.14597648412061
30
0
41
1
10
138.420574746813
20
7.14295398615889
30
0
41
1
10
138.247533401105
20
7.13386773254271
30
0
41
1
10
138.132171990356
20
7.12781756418789
30
0
41
1
10
137.555362638545
20
7.09759953737498
30
0
41
1
10
137.093915985955
20
7.07341328031913
30
0
41
1
10
136.632469133618
20
7.04922987553098
30
0
0
SPLINE
5
261
100
AcDbEntity
8
1
62
256
6
ByLayer
370
13
48
1
60
0
100
AcDbSpline
70
4
71
2
72
6
73
3
40
0
40
0
40
0
40
1
40
1
40
1
41
1
10
132.507340638131
20
4.77592577313433
30
0
41
0.997409491337352
10
132.507723079454
20
4.74708070628924
30
0
41
1
10
132.512222994175
20
4.71858740405321
30
0
0
SPLINE
5
262
100
AcDbEntity
8
1
62
256
6
ByLayer
370
13
48
1
60
0
100
AcDbSpline
70
4
71
3
72
10
73
6
40
0
40
0
40
0
40
0
40
0.5
40
0.5
40
1
40
1
40
1
40
1
41
1
10
134.007448281826
20
2.57848667817089
30
0
41
1
10
134.003766567131
20
2.57829372767975
30
0
41
1
10
133.98726595078
20
2.58882872404393
30
0
41
1
10
133.938444938627
20
2.62413105877792
30
0
41
1
10
133.906156629197
20
2.64876624756809
30
0
41
1
10
133.87519174585
20
2.67303376162249
30
0
0
SPLINE
5
263
100
AcDbEntity
8
1
62
256
6
ByLayer
370
13
48
1
60
0
100
AcDbSpline
70
4
71
3
72
9
73
5
40
0
40
0
40
0
40
0
40
0.5
40
1
40
1
40
1
40
1
41
1
10
139.953978870911
20
8.02507671478631
30
0
41
1
10
139.932122982268
20
8.02477673874085
30
0
41
1
10
139.888432307052
20
8.02321883716164
30
0
41
1
10
139.844763740513
20
8.02119785416286
30
0
41
1
10
139.822926693408
20
8.02024524782996
30
0
0
SPLINE
5
264
100
AcDbEntity
8
1
62
256
6
ByLayer
370
13
48
1
60
0
100
AcDbSpline
70
4
71
3
72
10
73
6
40
0
40
0
40
0
40
0
40
0.5
40
0.5
40
1
40
1
40
1
40
1
41
1
10
139.440632653815
20
7.58416413020225
30
0
41
1
10
139.43695093912
20
7.58397117971111
30
0
41
1
10
139.446251834195
20
7.57305886194348
30
0
41
1
10
139.484894830674
20
7.53722312001048
30
0
41
1
10
139.514251107415
20
7.51243426989839
30
0
41
1
10
139.545215990761
20
7.48816675584382
30
0
0
SPLINE
5
265
100
AcDbEntity
8
1
62
256
6
ByLayer
370
13
48
1
60
0
100
AcDbSpline
70
4
71
2
72
6
73
3
40
0
40
0
40
0
40
1
40
1
40
1
41
1
10
132.411310856728
20
4.8239413140858
30
0
41
0.997969722830442
10
132.408548536136
20
4.8028344546765
30
0
41
0.999121851838222
10
132.408170929951
20
4.78154838781967
30
0
0
SPLINE
5
266
100
AcDbEntity
8
1
62
256
6
ByLayer
370
13
48
1
60
0
100
AcDbSpline
70
4
71
2
72
6
73
3
40
0
40
0
40
0
40
1
40
1
40
1
41
1
10
140.949964697186
20
5.38720846554111
30
0
41
0.997409491337352
10
140.950347138509
20
5.35836339869739
30
0
41
1
10
140.946604190957
20
5.32976358012257
30
0
0
SPLINE
5
267
100
AcDbEntity
8
1
62
256
6
ByLayer
370
13
48
1
60
0
100
AcDbSpline
70
4
71
3
72
8
73
4
40
0
40
0
40
0
40
0
40
1
40
1
40
1
40
1
41
1
10
140.104581324188
20
2.64308746440054
30
0
41
1
10
140.085654253565
20
2.64236065443262
30
0
41
1
10
140.068206145648
20
2.64245616004237
30
0
41
1
10
140.051037468023
20
2.64270702868947
30
0
0
SPLINE
5
268
100
AcDbEntity
8
1
62
256
6
ByLayer
370
13
48
1
60
0
100
AcDbSpline
70
4
71
3
72
8
73
4
40
0
40
0
40
0
40
0
40
1
40
1
40
1
40
1
41
1
10
133.102692364456
20
7.50694317092226
30
0
41
1
10
133.123160908974
20
7.50775076611376
30
0
41
1
10
133.142589353959
20
7.50775904557202
30
0
41
1
10
133.161821284152
20
7.5076163074101
30
0
0
SPLINE
5
269
100
AcDbEntity
8
1
62
256
6
ByLayer
370
13
48
1
60
0
100
AcDbSpline
70
4
71
3
72
18
73
14
40
0
40
0
40
0
40
0
40
0.124999999999976
40
0.124999999999976
40
0.249999999999952
40
0.249999999999952
40
0.499999999999967
40
0.499999999999967
40
0.624999999999976
40
0.624999999999976
40
0.749999999999984
40
0.749999999999984
40
1
40
1
40
1
40
1
41
1
10
132.866457947149
20
2.4755841025937
30
0
41
1
10
132.870964971868
20
2.44175944027478
30
0
41
1
10
132.880225831298
20
2.40889317379276
30
0
41
1
10
132.90702319957
20
2.34741972534934
30
0
41
1
10
132.924731645084
20
2.31796150669669
30
0
41
1
10
132.987404304411
20
2.23898350998957
30
0
41
1
10
133.042491211295
20
2.19688780206107
30
0
41
1
10
133.135273217396
20
2.15749280902511
30
0
41
1
10
133.168221412423
20
2.14842123991502
30
0
41
1
10
133.234103554488
20
2.13759487619794
30
0
41
1
10
133.267832667211
20
2.13798478239414
30
0
41
1
10
133.368761059713
20
2.13681254232731
30
0
41
1
10
133.436044313766
20
2.13716725613574
30
0
41
1
10
133.503326464407
20
2.13805752388913
30
0
0
SPLINE
5
26A
100
AcDbEntity
8
1
62
256
6
ByLayer
370
13
48
1
60
0
100
AcDbSpline
70
4
71
3
72
16
73
12
40
0
40
0
40
0
40
0
40
0.5
40
0.5
40
0.750000000000016
40
0.750000000000016
40
0.812500000000012
40
0.812500000000012
40
0.875000000000008
40
0.875000000000008
40
1
40
1
40
1
40
1
41
1
10
136.838672801215
20
3.11462950859797
30
0
41
1
10
137.265355488707
20
3.13699100070798
30
0
41
1
10
137.692038116283
20
3.15935365147715
30
0
41
1
10
138.332062180544
20
3.19289525036189
30
0
41
1
10
138.545403670174
20
3.20407317399301
30
0
41
1
10
138.81208018691
20
3.21805225875758
30
0
41
1
10
138.865547782658
20
3.22135249459686
30
0
41
1
10
138.972136737948
20
3.22025938155227
30
0
41
1
10
139.024973583218
20
3.21685949370101
30
0
41
1
10
139.182163131579
20
3.19842349222597
30
0
41
1
10
139.285203236966
20
3.17520335063401
30
0
41
1
10
139.38640774939
20
3.14053831308885
30
0
0
SPLINE
5
26B
100
AcDbEntity
8
1
62
256
6
ByLayer
370
13
48
1
60
0
100
AcDbSpline
70
4
71
3
72
22
73
18
40
0
40
0
40
0
40
0
40
0.25000000000005
40
0.25000000000005
40
0.375000000000074
40
0.375000000000074
40
0.500000000000098
40
0.500000000000098
40
0.625000000000122
40
0.625000000000122
40
0.750000000000146
40
0.750000000000146
40
0.812500000000158
40
0.812500000000158
40
0.87500000000017
40
0.87500000000017
40
1
40
1
40
1
40
1
41
1
10
140.525423845433
20
2.68599976750733
30
0
41
1
10
140.507117701504
20
2.67753436788507
30
0
41
1
10
140.486300855641
20
2.66892105729986
30
0
41
1
10
140.450175837901
20
2.656951184218
30
0
41
1
10
140.437046374963
20
2.65307787980203
30
0
41
1
10
140.40944750586
20
2.64629125322398
30
0
41
1
10
140.394622072977
20
2.64332331743793
30
0
41
1
10
140.365618149217
20
2.63891509466288
30
0
41
1
10
140.351034165279
20
2.63736501339847
30
0
41
1
10
140.324074402551
20
2.63571747036824
30
0
41
1
10
140.311836888138
20
2.63581946895417
30
0
41
1
10
140.293969790233
20
2.63611533832736
30
0
41
1
10
140.287764462974
20
2.63607929048126
30
0
41
1
10
140.275133285639
20
2.6359017699877
30
0
41
1
10
140.268399941298
20
2.63561291780889
30
0
41
1
10
140.249660056851
20
2.635445726878
30
0
41
1
10
140.237854280092
20
2.63566354750461
30
0
41
1
10
140.226280156744
20
2.63599232288553
30
0
0
SPLINE
5
26C
100
AcDbEntity
8
1
62
256
6
ByLayer
370
13
48
1
60
0
100
AcDbSpline
70
4
71
3
72
16
73
12
40
0
40
0
40
0
40
0
40
0.5
40
0.5
40
0.75
40
0.75
40
0.8125
40
0.8125
40
0.875
40
0.875
40
1
40
1
40
1
40
1
41
1
10
136.632469133618
20
7.04922987553084
30
0
41
1
10
136.205786446125
20
7.02686838342086
30
0
41
1
10
135.77910381855
20
7.00450573265169
30
0
41
1
10
135.139079754289
20
6.97096413376693
30
0
41
1
10
134.925738264659
20
6.9597862101358
30
0
41
1
10
134.659061747922
20
6.94580712537123
30
0
41
1
10
134.605594152174
20
6.94250688953195
30
0
41
1
10
134.499005196885
20
6.94360000257655
30
0
41
1
10
134.446168351614
20
6.9469998904278
30
0
41
1
10
134.288978803254
20
6.96543589190287
30
0
41
1
10
134.185938697867
20
6.98865603349489
30
0
41
1
10
134.084734185443
20
7.02332107103999
30
0
0
SPLINE
5
26D
100
AcDbEntity
8
1
62
256
6
ByLayer
370
13
48
1
60
0
100
AcDbSpline
70
4
71
1
72
4
73
2
40
0
40
0
40
1
40
1
41
1
10
132.409288495737
20
4.76988831714181
30
0
41
1
10
132.507340638131
20
4.77592577313433
30
0
0
SPLINE
5
26E
100
AcDbEntity
8
1
62
256
6
ByLayer
370
13
48
1
60
0
100
AcDbSpline
70
4
71
3
72
24
73
20
40
0
40
0
40
0
40
0
40
0.124999999999854
40
0.124999999999854
40
0.249999999999708
40
0.249999999999708
40
0.374999999999562
40
0.374999999999562
40
0.499999999999416
40
0.499999999999416
40
0.562499999999414
40
0.562499999999414
40
0.593749999999487
40
0.593749999999487
40
0.624999999999559
40
0.624999999999559
40
0.749999999999706
40
0.749999999999706
40
1
40
1
40
1
40
1
41
1
10
132.667120861633
20
7.46325895459984
30
0
41
1
10
132.67745953141
20
7.46929451850329
30
0
41
1
10
132.689276040187
20
7.4753822744961
30
0
41
1
10
132.716771220926
20
7.4872467233987
30
0
41
1
10
132.732644776121
20
7.49305527834059
30
0
41
1
10
132.769726949669
20
7.50302023415827
30
0
41
1
10
132.791103331706
20
7.50705718680172
30
0
41
1
10
132.834334460082
20
7.51202918707151
30
0
41
1
10
132.855524281371
20
7.51291565676581
30
0
41
1
10
132.884751803985
20
7.51257281495154
30
0
41
1
10
132.89467347129
20
7.51259651242336
30
0
41
1
10
132.910041918804
20
7.51294028864834
30
0
41
1
10
132.915346529314
20
7.51316650348684
30
0
41
1
10
132.925497490516
20
7.51333755953044
30
0
41
1
10
132.930453087775
20
7.51334947862949
30
0
41
1
10
132.955079952717
20
7.51331628491769
30
0
41
1
10
132.974150403623
20
7.51290226784445
30
0
41
1
10
133.03004010995
20
7.51084871966441
30
0
41
1
10
133.065809799613
20
7.50858255785417
30
0
41
1
10
133.102692364456
20
7.50694317092226
30
0
0
SPLINE
5
26F
100
AcDbEntity
8
1
62
256
6
ByLayer
370
13
48
1
60
0
100
AcDbSpline
70
4
71
3
72
8
73
4
40
0
40
0
40
0
40
0
40
1
40
1
40
1
40
1
41
1
10
140.078445883758
20
8.02591371661106
30
0
41
1
10
140.036956266233
20
8.02593236040929
30
0
41
1
10
139.995467318972
20
8.02562568397195
30
0
41
1
10
139.953978870911
20
8.02507671478628
30
0
0
SPLINE
5
270
100
AcDbEntity
8
1
62
256
6
ByLayer
370
13
48
1
60
0
100
AcDbSpline
70
4
71
1
72
4
73
2
40
0
40
0
40
1
40
1
41
1
10
132.510701144361
20
4.83337065855287
30
0
41
1
10
132.411310856728
20
4.82394131408583
30
0
0
SPLINE
5
271
100
AcDbEntity
8
1
62
256
6
ByLayer
370
13
48
1
60
0
100
AcDbSpline
70
4
71
1
72
4
73
2
40
0
40
0
40
1
40
1
41
1
10
132.866457947149
20
2.4755841025937
30
0
41
1
10
132.836426768027
20
2.47474105719812
30
0
0
SPLINE
5
272
100
AcDbEntity
8
1
62
256
6
ByLayer
370
13
48
1
60
0
100
AcDbSpline
70
4
71
3
72
22
73
18
40
0
40
0
40
0
40
0
40
0.0624999999999983
40
0.0624999999999983
40
0.124999999999997
40
0.124999999999997
40
0.249999999999993
40
0.249999999999993
40
0.281249999999992
40
0.281249999999992
40
0.312499999999991
40
0.312499999999991
40
0.374999999999989
40
0.374999999999989
40
0.499999999999985
40
0.499999999999985
40
1
40
1
40
1
40
1
41
1
10
134.146557741271
20
2.70516646644376
30
0
41
1
10
134.194478339191
20
2.73667273244877
30
0
41
1
10
134.244269450805
20
2.76524728300137
30
0
41
1
10
134.347670900437
20
2.81641038940362
30
0
41
1
10
134.401583586348
20
2.83904829533054
30
0
41
1
10
134.564036190058
20
2.89585171959342
30
0
41
1
10
134.674694279477
20
2.92002620598038
30
0
41
1
10
134.815904526814
20
2.93346218986778
30
0
41
1
10
134.844343659378
20
2.9350039952277
30
0
41
1
10
134.901232934403
20
2.93802361953774
30
0
41
1
10
134.929684421993
20
2.93949362096896
30
0
41
1
10
135.015034083398
20
2.94393152945284
30
0
41
1
10
135.071927930227
20
2.94692412843295
30
0
41
1
10
135.242612678081
20
2.95588778244655
30
0
41
1
10
135.356403096064
20
2.96185237018548
30
0
41
1
10
135.925356119966
20
2.99165748976154
30
0
41
1
10
136.380517799462
20
3.01551569643871
30
0
41
1
10
136.835679698176
20
3.03936972076454
30
0
0
SPLINE
5
273
100
AcDbEntity
8
1
62
256
6
ByLayer
370
13
48
1
60
0
100
AcDbSpline
70
4
71
3
72
22
73
18
40
0
40
0
40
0
40
0
40
0.062499999999998
40
0.062499999999998
40
0.124999999999996
40
0.124999999999996
40
0.249999999999992
40
0.249999999999992
40
0.281249999999991
40
0.281249999999991
40
0.31249999999999
40
0.31249999999999
40
0.374999999999989
40
0.374999999999989
40
0.499999999999985
40
0.499999999999985
40
1
40
1
40
1
40
1
41
1
10
139.310747594047
20
7.45796777223165
30
0
41
1
10
139.262826996127
20
7.42646150622664
30
0
41
1
10
139.213035884512
20
7.39788695567404
30
0
41
1
10
139.10963443488
20
7.3467238492718
30
0
41
1
10
139.05572174897
20
7.32408594334487
30
0
41
1
10
138.893269145259
20
7.26728251908199
30
0
41
1
10
138.782611055841
20
7.24310803269501
30
0
41
1
10
138.641400808504
20
7.22967204880763
30
0
41
1
10
138.612961675939
20
7.22813024344771
30
0
41
1
10
138.556072400915
20
7.22511061913767
30
0
41
1
10
138.527620913324
20
7.22364061770645
30
0
41
1
10
138.44227125192
20
7.21920270922257
30
0
41
1
10
138.385377405091
20
7.21621011024246
30
0
41
1
10
138.214692657237
20
7.20724645622886
30
0
41
1
10
138.100902239253
20
7.20128186848993
30
0
41
1
10
137.531949215352
20
7.17147674891388
30
0
41
1
10
137.076787535855
20
7.14761854223667
30
0
41
1
10
136.621625637142
20
7.12376451791087
30
0
0
SPLINE
5
274
100
AcDbEntity
8
1
62
256
6
ByLayer
370
13
48
1
60
0
100
AcDbSpline
70
4
71
1
72
4
73
2
40
0
40
0
40
1
40
1
41
1
10
132.512222994175
20
4.71858740405318
30
0
41
1
10
132.417154051337
20
4.71591859660663
30
0
0
SPLINE
5
275
100
AcDbEntity
8
1
62
256
6
ByLayer
370
13
48
1
60
0
100
AcDbSpline
70
4
71
3
72
10
73
6
40
0
40
0
40
0
40
0
40
0.5
40
0.5
40
1
40
1
40
1
40
1
41
1
10
134.040848504022
20
2.669939087789
30
0
41
1
10
134.037165039881
20
2.66974604561332
30
0
41
1
10
134.01677289101
20
2.67001880716961
30
0
41
1
10
133.955368597747
20
2.67121278849751
30
0
41
1
10
133.914467454892
20
2.67211856393311
30
0
41
1
10
133.87519174585
20
2.67303376162249
30
0
0
SPLINE
5
276
100
AcDbEntity
8
1
62
256
6
ByLayer
370
13
48
1
60
0
100
AcDbSpline
70
4
71
3
72
9
73
5
40
0
40
0
40
0
40
0
40
0.5
40
1
40
1
40
1
40
1
41
1
10
132.968868012762
20
7.65900256666492
30
0
41
1
10
132.990635528595
20
7.66098879637278
30
0
41
1
10
133.034249706779
20
7.66400634828094
30
0
41
1
10
133.077890302588
20
7.6665610445919
30
0
41
1
10
133.099707298541
20
7.66789624971238
30
0
0
SPLINE
5
277
100
AcDbEntity
8
1
62
256
6
ByLayer
370
13
48
1
60
0
100
AcDbSpline
70
4
71
3
72
18
73
14
40
0
40
0
40
0
40
0
40
0.0312500000000009
40
0.0312500000000009
40
0.0625000000000018
40
0.0625000000000018
40
0.125000000000002
40
0.125000000000002
40
0.250000000000003
40
0.250000000000003
40
0.500000000000006
40
0.500000000000006
40
1
40
1
40
1
40
1
41
1
10
140.627597477412
20
2.88305901209202
30
0
41
1
10
140.627016586388
20
2.87440522648723
30
0
41
1
10
140.626146021382
20
2.86488822195142
30
0
41
1
10
140.623849589471
20
2.8456155124303
30
0
41
1
10
140.622463886435
20
2.83633311346338
30
0
41
1
10
140.618260221203
20
2.81241705798527
30
0
41
1
10
140.61536645098
20
2.80036129138435
30
0
41
1
10
140.607285222535
20
2.77058515066321
30
0
41
1
10
140.602350257781
20
2.75784123908798
30
0
41
1
10
140.588134420451
20
2.7255044779323
30
0
41
1
10
140.579555777048
20
2.71380735204522
30
0
41
1
10
140.554843195702
20
2.68798408147953
30
0
41
1
10
140.539836050102
20
2.68454787527617
30
0
41
1
10
140.525423845425
20
2.68599976750247
30
0
0
SPLINE
5
278
100
AcDbEntity
8
1
62
256
6
ByLayer
370
13
48
1
60
0
100
AcDbSpline
70
4
71
3
72
16
73
12
40
0
40
0
40
0
40
0
40
0.5
40
0.5
40
0.749999999999984
40
0.749999999999984
40
0.81249999999998
40
0.81249999999998
40
0.874999999999976
40
0.874999999999976
40
1
40
1
40
1
40
1
41
1
10
136.621625637142
20
7.12376451791073
30
0
41
1
10
136.201566396863
20
7.10175014596038
30
0
41
1
10
135.781507212723
20
7.07973470281573
30
0
41
1
10
135.15141832705
20
7.0467136267585
30
0
41
1
10
134.941388600118
20
7.03570963229501
30
0
41
1
10
134.678851621631
20
7.02194760147634
30
0
41
1
10
134.626368333731
20
7.01819507425878
30
0
41
1
10
134.521245733799
20
7.01716273979139
30
0
41
1
10
134.46861274497
20
7.01962061207999
30
0
41
1
10
134.310500364136
20
7.03584780370628
30
0
41
1
10
134.205564494139
20
7.05843198681967
30
0
41
1
10
134.101894966672
20
7.09394135271501
30
0
0
SPLINE
5
279
100
AcDbEntity
8
1
62
256
6
ByLayer
370
13
48
1
60
0
100
AcDbSpline
70
4
71
3
72
18
73
14
40
0
40
0
40
0
40
0
40
0.125000000000011
40
0.125000000000011
40
0.250000000000022
40
0.250000000000022
40
0.312500000000028
40
0.312500000000028
40
0.375000000000033
40
0.375000000000033
40
0.500000000000045
40
0.500000000000045
40
1
40
1
40
1
40
1
41
1
10
134.112551580044
20
2.76828278258995
30
0
41
1
10
134.210633355843
20
2.83276842451997
30
0
41
1
10
134.314257444943
20
2.88449214123773
30
0
41
1
10
134.532204071168
20
2.96330495260094
30
0
41
1
10
134.647463799209
20
2.99028329304386
30
0
41
1
10
134.819785369462
20
3.00964750346731
30
0
41
1
10
134.877520938818
20
3.01188916326976
30
0
41
1
10
134.99288630153
20
3.01788290000823
30
0
41
1
10
135.05056718802
20
3.02090539796993
30
0
41
1
10
135.223608533727
20
3.0299916515861
30
0
41
1
10
135.338969944477
20
3.03604181994095
30
0
41
1
10
135.915779296288
20
3.06625984675384
30
0
41
1
10
136.377225948878
20
3.09044610380968
30
0
41
1
10
136.838672801215
20
3.11462950859783
30
0
0
SPLINE
5
27A
100
AcDbEntity
8
1
62
256
6
ByLayer
370
13
48
1
60
0
100
AcDbSpline
70
4
71
1
72
4
73
2
40
0
40
0
40
1
40
1
41
1
10
132.968868012762
20
7.65900256666492
30
0
41
1
10
133.102692364456
20
7.50694317092226
30
0
0
SPLINE
5
27B
100
AcDbEntity
8
1
62
256
6
ByLayer
370
13
48
1
60
0
100
AcDbSpline
70
4
71
3
72
8
73
4
40
0
40
0
40
0
40
0
40
1
40
1
40
1
40
1
41
1
10
132.409288495737
20
4.76988831714181
30
0
41
1
10
132.408862440208
20
4.7739571832731
30
0
41
1
10
132.408494428616
20
4.77782852473646
30
0
41
1
10
132.408170929951
20
4.7815483878218
30
0
0
SPLINE
5
27C
100
AcDbEntity
8
1
62
256
6
ByLayer
370
13
48
1
60
0
100
AcDbSpline
70
4
71
1
72
4
73
2
40
0
40
0
40
1
40
1
41
1
10
133.23185649187
20
7.5119152891495
30
0
41
1
10
133.099707298541
20
7.66789624971238
30
0
0
SPLINE
5
27D
100
AcDbEntity
8
1
62
256
6
ByLayer
370
13
48
1
60
0
100
AcDbSpline
70
4
71
3
72
8
73
4
40
0
40
0
40
0
40
0
40
1
40
1
40
1
40
1
41
1
10
132.409288495737
20
4.76988831714178
30
0
41
1
10
132.410845244397
20
4.75502123651424
30
0
41
1
10
132.413079033081
20
4.73770117158776
30
0
41
1
10
132.417154051337
20
4.71591859660663
30
0
0
SPLINE
5
27E
100
AcDbEntity
8
1
62
256
6
ByLayer
370
13
48
1
60
0
100
AcDbSpline
70
4
71
3
72
16
73
12
40
0
40
0
40
0
40
0
40
0.5
40
0.5
40
0.749999999999984
40
0.749999999999984
40
0.81249999999998
40
0.81249999999998
40
0.874999999999976
40
0.874999999999976
40
1
40
1
40
1
40
1
41
1
10
136.835679698176
20
3.03936972076468
30
0
41
1
10
137.255738938455
20
3.06138409271503
30
0
41
1
10
137.675798122595
20
3.08339953585968
30
0
41
1
10
138.305887008267
20
3.11642061191691
30
0
41
1
10
138.5159167352
20
3.1274246063804
30
0
41
1
10
138.778453713687
20
3.1411866371991
30
0
41
1
10
138.830937001587
20
3.14493916441663
30
0
41
1
10
138.936059601519
20
3.14597149888402
30
0
41
1
10
138.988692590348
20
3.14351362659545
30
0
41
1
10
139.146804971181
20
3.12728643496914
30
0
41
1
10
139.251740841179
20
3.10470225185568
30
0
41
1
10
139.355410368645
20
3.06919288596041
30
0
0
SPLINE
5
27F
100
AcDbEntity
8
1
62
256
6
ByLayer
370
13
48
1
60
0
100
AcDbSpline
70
4
71
3
72
9
73
5
40
0
40
0
40
0
40
0
40
0.5
40
1
40
1
40
1
40
1
41
1
10
133.503326464407
20
2.13805752388913
30
0
41
1
10
133.525182353049
20
2.13835749993456
30
0
41
1
10
133.568873028266
20
2.13991540151377
30
0
41
1
10
133.612541594805
20
2.14193638451258
30
0
41
1
10
133.63437864191
20
2.14288899084545
30
0
0
SPLINE
5
280
100
AcDbEntity
8
1
62
256
6
ByLayer
370
13
48
1
60
0
100
AcDbSpline
70
4
71
3
72
8
73
4
40
0
40
0
40
0
40
0
40
1
40
1
40
1
40
1
41
1
10
140.226280156744
20
2.63599232288553
30
0
41
1
10
140.183333442191
20
2.63721227035037
30
0
41
1
10
140.14513174316
20
2.640684961896
30
0
41
1
10
140.104581324188
20
2.64308746440051
30
0
0
SPLINE
5
281
100
AcDbEntity
8
1
62
256
6
ByLayer
370
13
48
1
60
0
100
AcDbSpline
70
4
71
2
72
6
73
3
40
0
40
0
40
0
40
1
40
1
40
1
41
1
10
132.507340638131
20
4.77592577313433
30
0
41
0.997409491337352
10
132.506958196809
20
4.80477083997804
30
0
41
1
10
132.510701144361
20
4.83337065855287
30
0
0
SPLINE
5
282
100
AcDbEntity
8
1
62
256
6
ByLayer
370
13
48
1
60
0
100
AcDbSpline
70
4
71
3
72
20
73
16
40
0
40
0
40
0
40
0
40
0.249999999999954
40
0.249999999999954
40
0.374999999999962
40
0.374999999999962
40
0.49999999999997
40
0.49999999999997
40
0.624999999999977
40
0.624999999999977
40
0.749999999999985
40
0.749999999999985
40
0.874999999999992
40
0.874999999999992
40
1
40
1
40
1
40
1
41
1
10
140.590847388169
20
7.68755013608171
30
0
41
1
10
140.583222930615
20
7.74477074573028
30
0
41
1
10
140.562004347843
20
7.79858695391002
30
0
41
1
10
140.514114628273
20
7.87013856971495
30
0
41
1
10
140.495769934651
20
7.89178094803674
30
0
41
1
10
140.454891654275
20
7.93118162867441
30
0
41
1
10
140.431989322934
20
7.94893136422809
30
0
41
1
10
140.383770058356
20
7.97886842713694
30
0
41
1
10
140.358329613043
20
7.99133033182889
30
0
41
1
10
140.304402671869
20
8.0105168124644
30
0
41
1
10
140.276655324797
20
8.01724782982234
30
0
41
1
10
140.220777098548
20
8.02529609325549
30
0
41
1
10
140.192270620668
20
8.02515814690298
30
0
41
1
10
140.135357823826
20
8.02574385467969
30
0
41
1
10
140.106901705152
20
8.02590092968691
30
0
41
1
10
140.078445883758
20
8.02591371661106
30
0
0
SPLINE
5
283
100
AcDbEntity
8
1
62
256
6
ByLayer
370
13
48
1
60
0
100
AcDbSpline
70
4
71
3
72
8
73
4
40
0
40
0
40
0
40
0
40
1
40
1
40
1
40
1
41
1
10
128.900298141322
20
3.56662477346205
30
0
41
1
10
129.023690348735
20
4.61483855096995
30
0
41
1
10
129.139634255757
20
5.65942527384661
30
0
41
1
10
129.244563411081
20
6.7019637836236
30
0
0
SPLINE
5
284
100
AcDbEntity
8
1
62
256
6
ByLayer
370
13
48
1
60
0
100
AcDbSpline
70
4
71
3
72
10
73
6
40
0
40
0
40
0
40
0
40
0.5
40
0.5
40
1
40
1
40
1
40
1
41
1
10
130.253177966088
20
-7.71504974716831
30
0
41
1
10
129.92086804371
20
-7.70125414277294
30
0
41
1
10
129.587770059943
20
-7.68806719826219
30
0
41
1
10
128.921036004076
20
-7.66206286234313
30
0
41
1
10
128.587379418923
20
-7.64926912208367
30
0
41
1
10
128.254070615451
20
-7.63584135473374
30
0
0
SPLINE
5
285
100
AcDbEntity
8
1
62
256
6
ByLayer
370
13
48
1
60
0
100
AcDbSpline
70
4
71
3
72
34
73
30
40
0
40
0
40
0
40
0
40
0.124999999999999
40
0.124999999999999
40
0.1875
40
0.1875
40
0.25
40
0.25
40
0.375
40
0.375
40
0.4375
40
0.4375
40
0.5
40
0.5
40
0.624999999999999
40
0.624999999999999
40
0.687499999999999
40
0.687499999999999
40
0.749999999999999
40
0.749999999999999
40
0.812499999999998
40
0.812499999999998
40
0.843749999999999
40
0.843749999999999
40
0.874999999999999
40
0.874999999999999
40
0.9375
40
0.9375
40
1
40
1
40
1
40
1
41
1
10
16.8012222433861
20
-5.94059125930926
30
0
41
1
10
16.5721737953489
20
-6.00064313185473
30
0
41
1
10
16.3474247916504
20
-6.07666491172816
30
0
41
1
10
16.0163521960406
20
-6.21341542144569
30
0
41
1
10
15.9070119499382
20
-6.26281870512017
30
0
41
1
10
15.6904106226965
20
-6.36948094728632
30
0
41
1
10
15.5826308149507
20
-6.42707244138381
30
0
41
1
10
15.269252367141
20
-6.60840011459712
30
0
41
1
10
15.0718547533806
20
-6.74119314976386
30
0
41
1
10
14.7939202734558
20
-6.95902502696396
30
0
41
1
10
14.7043299826226
20
-7.03477129970008
30
0
41
1
10
14.5318141962758
20
-7.19308508124914
30
0
41
1
10
14.4503031858906
20
-7.27445724875318
30
0
41
1
10
14.2221100665756
20
-7.52285896334834
30
0
41
1
10
14.090343140004
20
-7.69494418437566
30
0
41
1
10
13.9249697261465
20
-7.96287903468203
30
0
41
1
10
13.8754439794171
20
-8.0538301170568
30
0
41
1
10
13.7907204094992
20
-8.23347982814499
30
0
41
1
10
13.7550556517829
20
-8.32287632790769
30
0
41
1
10
13.6973899620885
20
-8.50078204056868
30
0
41
1
10
13.6753846569745
20
-8.58929157608659
30
0
41
1
10
13.6534176981933
20
-8.72136024545796
30
0
41
1
10
13.6479599930624
20
-8.76529295759826
30
0
41
1
10
13.6410005318827
20
-8.85145855258082
30
0
41
1
10
13.6394568212816
20
-8.89387825120642
30
0
41
1
10
13.6406546729333
20
-9.0191633002554
30
0
41
1
10
13.6492392291245
20
-9.10005533069045
30
0
41
1
10
13.6814032049411
20
-9.25670079589949
30
0
41
1
10
13.7051016220922
20
-9.33271827094322
30
0
41
1
10
13.7361246085751
20
-9.40547854256266
30
0
0
SPLINE
5
286
100
AcDbEntity
8
1
62
256
6
ByLayer
370
13
48
1
60
0
100
AcDbSpline
70
2053
71
3
72
70
73
66
40
0
40
0
40
0
40
0
40
0.03125
40
0.03125
40
0.0625
40
0.0625
40
0.09375
40
0.09375
40
0.125
40
0.125
40
0.15625
40
0.15625
40
0.1875
40
0.1875
40
0.21875
40
0.21875
40
0.25
40
0.25
40
0.28125
40
0.28125
40
0.3125
40
0.3125
40
0.34375
40
0.34375
40
0.375
40
0.375
40
0.40625
40
0.40625
40
0.4375
40
0.4375
40
0.46875
40
0.46875
40
0.5
40
0.5
40
0.53125
40
0.53125
40
0.5625
40
0.5625
40
0.59375
40
0.59375
40
0.625
40
0.625
40
0.65625
40
0.65625
40
0.6875
40
0.6875
40
0.71875
40
0.71875
40
0.75
40
0.75
40
0.78125
40
0.78125
40
0.8125
40
0.8125
40
0.84375
40
0.84375
40
0.875
40
0.875
40
0.90625
40
0.90625
40
0.9375
40
0.9375
40
0.96875
40
0.96875
40
1
40
1
40
1
40
1
41
1
10
137.823428988407
20
-0.0523651840528316
30
0
41
1
10
137.897673653395
20
-0.0523651840528316
30
0
41
1
10
137.970640273901
20
-0.0598686058654891
30
0
41
1
10
138.114120497802
20
-0.0892758362152222
30
0
41
1
10
138.185411577228
20
-0.11157079728244
30
0
41
1
10
138.320647336869
20
-0.169525936976612
30
0
41
1
10
138.384674783299
20
-0.204978347602719
30
0
41
1
10
138.505567309399
20
-0.288785722571561
30
0
41
1
10
138.562311408594
20
-0.337330476790441
30
0
41
1
10
138.663501154383
20
-0.443111775922176
30
0
41
1
10
138.708684991446
20
-0.500799559886843
30
0
41
1
10
138.787934746391
20
-0.625997231534143
30
0
41
1
10
138.820691764459
20
-0.691443738764804
30
0
41
1
10
138.873211115026
20
-0.827557908711157
30
0
41
1
10
138.893075530527
20
-0.899031288448043
30
0
41
1
10
138.918532351387
20
-1.04289919595357
30
0
41
1
10
138.924304283177
20
-1.11519621500329
30
0
41
1
10
138.922341660568
20
-1.2604752420587
30
0
41
1
10
138.91440930856
20
-1.33369332538413
30
0
41
1
10
138.885689317075
20
-1.47509509668652
30
0
41
1
10
138.864950292887
20
-1.5440191147666
30
0
41
1
10
138.81051735754
20
-1.67831375099726
30
0
41
1
10
138.777046390494
20
-1.74283149049785
30
0
41
1
10
138.699506050669
20
-1.86349320749551
30
0
41
1
10
138.655235838657
20
-1.92017376198612
30
0
41
1
10
138.554850705106
20
-2.02581735797619
30
0
41
1
10
138.500288073178
20
-2.07312122022196
30
0
41
1
10
138.382728280499
20
-2.15655864269564
30
0
41
1
10
138.319086210305
20
-2.19300856688489
30
0
41
1
10
138.18493559961
20
-2.25242921171983
30
0
41
1
10
138.115712969894
20
-2.27497365150575
30
0
41
1
10
137.972916103976
20
-2.30565986364192
30
0
41
1
10
137.898395763338
20
-2.31370351473149
30
0
41
1
10
137.751510964607
20
-2.31391700857841
30
0
41
1
10
137.6786921673
20
-2.30638380339994
30
0
41
1
10
137.534306695424
20
-2.27593411105082
30
0
41
1
10
137.463997060864
20
-2.25314329145101
30
0
41
1
10
137.330672127065
20
-2.19449062338796
30
0
41
1
10
137.266415648173
20
-2.15801210399653
30
0
41
1
10
137.147653176721
20
-2.07405431824896
30
0
41
1
10
137.093090430452
20
-2.02677892030235
30
0
41
1
10
136.993156049408
20
-1.92196174560991
30
0
41
1
10
136.948027747579
20
-1.86443040827177
30
0
41
1
10
136.870205343078
20
-1.74355711349088
30
0
41
1
10
136.836990761619
20
-1.67970919769326
30
0
41
1
10
136.782196710308
20
-1.54493719655315
30
0
41
1
10
136.761344309447
20
-1.47571750170795
30
0
41
1
10
136.732584118647
20
-1.33459999753836
30
0
41
1
10
136.724611596736
20
-1.26207364642244
30
0
41
1
10
136.722490983739
20
-1.11592269738731
30
0
41
1
10
136.728272576311
20
-1.04363147806481
30
0
41
1
10
136.753425083397
20
-0.900625408008466
30
0
41
1
10
136.773128535593
20
-0.829129411786624
30
0
41
1
10
136.825782810886
20
-0.69221310798477
30
0
41
1
10
136.858447915936
20
-0.626992424907883
30
0
41
1
10
136.93655357449
20
-0.503120041195047
30
0
41
1
10
136.982533628092
20
-0.444084207105192
30
0
41
1
10
137.083776625501
20
-0.338025218237846
30
0
41
1
10
137.139317501878
20
-0.290339132637882
30
0
41
1
10
137.260499149813
20
-0.205965768773467
30
0
41
1
10
137.325503528965
20
-0.169913279146073
30
0
41
1
10
137.46004731974
20
-0.112087370213004
30
0
41
1
10
137.530623004275
20
-0.0898022557251181
30
0
41
1
10
137.675726916052
20
-0.0598778076046642
30
0
41
1
10
137.749184323418
20
-0.0523651840528316
30
0
41
1
10
137.823428988407
20
-0.0523651840528316
30
0
0
SPLINE
5
287
100
AcDbEntity
8
1
62
256
6
ByLayer
370
13
48
1
60
0
100
AcDbSpline
70
4
71
3
72
47
73
43
40
0
40
0
40
0
40
0
40
0.0624999999999994
40
0.0624999999999994
40
0.0937499999999991
40
0.0937499999999991
40
0.124999999999999
40
0.124999999999999
40
0.156249999999999
40
0.156249999999999
40
0.187499999999998
40
0.187499999999998
40
0.249999999999998
40
0.249999999999998
40
0.281249999999997
40
0.281249999999997
40
0.312499999999997
40
0.312499999999997
40
0.343749999999997
40
0.343749999999997
40
0.374999999999997
40
0.374999999999997
40
0.437499999999996
40
0.437499999999996
40
0.468749999999996
40
0.468749999999996
40
0.499999999999995
40
0.499999999999995
40
0.562499999999995
40
0.562499999999995
40
0.593749999999995
40
0.593749999999995
40
0.624999999999995
40
0.624999999999995
40
0.656249999999996
40
0.656249999999996
40
0.687499999999996
40
0.687499999999996
40
0.749999999999996
40
0.874999999999998
40
0.874999999999998
40
1
40
1
40
1
40
1
41
1
10
125.891361484707
20
1.62951778080594
30
0
41
1
10
124.828588252181
20
2.09683907065531
30
0
41
1
10
123.764272324673
20
2.55456459131483
30
0
41
1
10
122.169828750908
20
3.21491558227865
30
0
41
1
10
121.638437932301
20
3.43075414808368
30
0
41
1
10
120.575111704793
20
3.85238407505332
30
0
41
1
10
120.043111127655
20
4.05819000424216
30
0
41
1
10
118.980271847718
20
4.45733384199943
30
0
41
1
10
118.44912833728
20
4.65079375732782
30
0
41
1
10
117.386650342897
20
5.02411114124646
30
0
41
1
10
116.855030552331
20
5.20405899207915
30
0
41
1
10
115.260980642818
20
5.72081478064726
30
0
41
1
10
114.200701974396
20
6.03477216101328
30
0
41
1
10
112.60458028
20
6.44728870364753
30
0
41
1
10
112.072087890101
20
6.57518579382955
30
0
41
1
10
111.002394809304
20
6.80696571310858
30
0
41
1
10
110.464806677616
20
6.91077068113182
30
0
41
1
10
109.383053877792
20
7.09104622566861
30
0
41
1
10
108.838244434963
20
7.16763116742459
30
0
41
1
10
107.742084409222
20
7.30054483998444
30
0
41
1
10
107.190760809511
20
7.35689033683124
30
0
41
1
10
105.529401713646
20
7.50318947922463
30
0
41
1
10
104.411732873513
20
7.56988606029063
30
0
41
1
10
102.717226286856
20
7.63870262555787
30
0
41
1
10
102.150060365183
20
7.65638343103109
30
0
41
1
10
101.014153516313
20
7.68371418599693
30
0
41
1
10
100.44489515892
20
7.693386812565
30
0
41
1
10
98.732752586793
20
7.71434294772251
30
0
41
1
10
97.5854673254559
20
7.7178936001304
30
0
41
1
10
95.8551192530379
20
7.71994227173559
30
0
41
1
10
95.2768223700724
20
7.720016283859
30
0
41
1
10
94.1174477127798
20
7.71997991760639
30
0
41
1
10
93.5362779974952
20
7.71986980918575
30
0
41
1
10
92.3721558164183
20
7.7197787206313
30
0
41
1
10
91.7900942261988
20
7.71977691380778
30
0
41
1
10
90.6259709200133
20
7.71979199014928
30
0
41
1
10
90.0439092574534
20
7.71980024339288
30
0
41
1
10
88.2977243505312
20
7.71981659157908
30
0
41
1
10
84.8053547023741
20
7.71983118276563
30
0
41
1
10
81.3129854251
20
7.71981542300264
30
0
41
1
10
76.6564929839905
20
7.71980057611137
30
0
41
1
10
74.32824655158
20
7.71979893993546
30
0
41
1
10
72.0000000000001
20
7.71980074921674
30
0
0
SPLINE
5
288
100
AcDbEntity
8
1
62
256
6
ByLayer
370
13
48
1
60
0
100
AcDbSpline
70
4
71
3
72
8
73
4
40
0
40
0
40
0
40
0
40
1
40
1
40
1
40
1
41
1
10
31
20
7.7999761567109
30
0
41
1
10
29.3333333340162
20
7.7999760158059
30
0
41
1
10
27.6666666669581
20
7.7999759249663
30
0
41
1
10
26
20
7.7999759249663
30
0
0
SPLINE
5
289
100
AcDbEntity
8
1
62
256
6
ByLayer
370
13
48
1
60
0
100
AcDbSpline
70
4
71
3
72
12
73
8
40
0
40
0
40
0
40
0
40
0.5
40
0.5
40
0.75
40
0.75
40
1
40
1
40
1
40
1
41
1
10
130.833333488076
20
3.85756987996447
30
0
41
1
10
130.839241032195
20
3.92794197578618
30
0
41
1
10
130.837343432927
20
3.99822015579602
30
0
41
1
10
130.817338956498
20
4.10343097031071
30
0
41
1
10
130.80778403014
20
4.13804589534632
30
0
41
1
10
130.78293171093
20
4.20441085468974
30
0
41
1
10
130.767589335821
20
4.23643616816793
30
0
41
1
10
130.749136729061
20
4.26722732905472
30
0
0
SPLINE
5
28A
100
AcDbEntity
8
1
62
256
6
ByLayer
370
13
48
1
60
0
100
AcDbSpline
70
4
71
3
72
40
73
36
40
0
40
0
40
0
40
0
40
0.124999999999965
40
0.124999999999965
40
0.187499999999954
40
0.187499999999954
40
0.249999999999942
40
0.249999999999942
40
0.312499999999931
40
0.312499999999931
40
0.37499999999992
40
0.37499999999992
40
0.406249999999914
40
0.406249999999914
40
0.437499999999909
40
0.437499999999909
40
0.468749999999903
40
0.468749999999903
40
0.499999999999898
40
0.499999999999898
40
0.56249999999991
40
0.56249999999991
40
0.624999999999923
40
0.624999999999923
40
0.687499999999936
40
0.687499999999936
40
0.749999999999949
40
0.749999999999949
40
0.812499999999962
40
0.812499999999962
40
0.874999999999974
40
0.874999999999974
40
0.937499999999987
40
0.937499999999987
40
1
40
1
40
1
40
1
41
1
10
134.643152940947
20
2.51602572369862
30
0
41
1
10
134.598541451203
20
2.39550813987032
30
0
41
1
10
134.537264233703
20
2.28906512076981
30
0
41
1
10
134.427489869844
20
2.15161615393433
30
0
41
1
10
134.388235630864
20
2.10988187192646
30
0
41
1
10
134.304323225488
20
2.03363697731962
30
0
41
1
10
134.25942130822
20
1.99897193215833
30
0
41
1
10
134.164480336555
20
1.93741582474388
30
0
41
1
10
134.114700020119
20
1.91058270071255
30
0
41
1
10
134.008098692506
20
1.8645047728487
30
0
41
1
10
133.950672715415
20
1.84508878594082
30
0
41
1
10
133.858087417758
20
1.82332273056906
30
0
41
1
10
133.825859372461
20
1.81723378993797
30
0
41
1
10
133.759096789108
20
1.80790285831648
30
0
41
1
10
133.725367461044
20
1.80476348710181
30
0
41
1
10
133.657202269575
20
1.80147795677294
30
0
41
1
10
133.622392163931
20
1.80135267176661
30
0
41
1
10
133.554090531561
20
1.80401326508417
30
0
41
1
10
133.520781807827
20
1.80674418875296
30
0
41
1
10
133.42257558883
20
1.81863153453008
30
0
41
1
10
133.359058702683
20
1.83158167263522
30
0
41
1
10
133.238069134573
20
1.8654759872235
30
0
41
1
10
133.180033622933
20
1.88649374319846
30
0
41
1
10
133.067435152074
20
1.93675622903635
30
0
41
1
10
133.012531475996
20
1.96626793714822
30
0
41
1
10
132.908172338537
20
2.0330146464033
30
0
41
1
10
132.858699551424
20
2.07016391471049
30
0
41
1
10
132.765136826234
20
2.15264494388356
30
0
41
1
10
132.721043796357
20
2.19795966971063
30
0
41
1
10
132.638883199525
20
2.29831574635136
30
0
41
1
10
132.601888510815
20
2.35209594611771
30
0
41
1
10
132.53712584947
20
2.46705748386765
30
0
41
1
10
132.509019009792
20
2.52917046577261
30
0
41
1
10
132.465160070172
20
2.65781556008886
30
0
41
1
10
132.449252243916
20
2.7242016543602
30
0
41
1
10
132.439875800416
20
2.79290511059114
30
0
0
SPLINE
5
28B
100
AcDbEntity
8
1
62
256
6
ByLayer
370
13
48
1
60
0
100
AcDbSpline
70
4
71
3
72
10
73
6
40
0
40
0
40
0
40
0
40
0.317501230816742
40
0.317501230816742
40
1
40
1
40
1
40
1
41
1
10
26.45
20
-7.27132440719674
30
0
41
1
10
26.45
20
-6.99502042565922
30
0
41
1
10
26.45
20
-6.71871644426327
30
0
41
1
10
26.45
20
-5.84847105799
30
0
41
1
10
26.45
20
-5.25452965362533
30
0
41
1
10
26.45
20
-4.66058824991509
30
0
0
SPLINE
5
28C
100
AcDbEntity
8
1
62
256
6
ByLayer
370
13
48
1
60
0
100
AcDbSpline
70
4
71
3
72
8
73
4
40
0
40
0
40
0
40
0
40
1
40
1
40
1
40
1
41
1
10
129.184441501477
20
0.399831973841714
30
0
41
1
10
129.874312571851
20
0.37778461580146
30
0
41
1
10
130.564189039419
20
0.355811296680855
30
0
41
1
10
131.254070615451
20
0.333909001220121
30
0
0
SPLINE
5
28D
100
AcDbEntity
8
1
62
256
6
ByLayer
370
13
48
1
60
0
100
AcDbSpline
70
4
71
3
72
8
73
4
40
0
40
0
40
0
40
0
40
1
40
1
40
1
40
1
41
1
10
129.183246493427
20
7.56644501029245
30
0
41
1
10
128.873623203369
20
7.58741848232486
30
0
41
1
10
128.563920400952
20
7.60478819398324
30
0
41
1
10
128.25407061545
20
7.61855715360105
30
0
0
SPLINE
5
28E
100
AcDbEntity
8
1
62
256
6
ByLayer
370
13
48
1
60
0
100
AcDbSpline
70
4
71
3
72
10
73
6
40
0
40
0
40
0
40
0
40
0.5
40
0.5
40
1
40
1
40
1
40
1
41
1
10
126.582961651226
20
1.1909052640041
30
0
41
1
10
126.841395189315
20
1.0303823165732
30
0
41
1
10
127.109847323151
20
0.893799825074893
30
0
41
1
10
127.666677766254
20
0.669124867489757
30
0
41
1
10
127.955029285661
20
0.580963991193244
30
0
41
1
10
128.25407061545
20
0.519125604017006
30
0
0
SPLINE
5
28F
100
AcDbEntity
8
1
62
256
6
ByLayer
370
13
48
1
60
0
100
AcDbSpline
70
4
71
3
72
18
73
14
40
0
40
0
40
0
40
0
40
0.25
40
0.25
40
0.374999999999998
40
0.374999999999998
40
0.499999999999996
40
0.499999999999996
40
0.624999999999993
40
0.624999999999993
40
0.749999999999991
40
0.749999999999991
40
1
40
1
40
1
40
1
41
1
10
140.068483477036
20
0.429663346940515
30
0
41
1
10
140.069644027941
20
0.479538163512672
30
0
41
1
10
140.071563005622
20
0.525333252748283
30
0
41
1
10
140.075657453054
20
0.587484885259784
30
0
41
1
10
140.077233324582
20
0.607068411360956
30
0
41
1
10
140.08068914565
20
0.642420309737162
30
0
41
1
10
140.08258140175
20
0.65840435469471
30
0
41
1
10
140.086701110669
20
0.686921662448526
30
0
41
1
10
140.088952511291
20
0.69954332994601
30
0
41
1
10
140.093668782563
20
0.720404837945949
30
0
41
1
10
140.096134787366
20
0.72871930203786
30
0
41
1
10
140.103855109747
20
0.747339320101588
30
0
41
1
10
140.109468224688
20
0.751159047642204
30
0
41
1
10
140.11517958667
20
0.745698376773078
30
0
0
SPLINE
5
290
100
AcDbEntity
8
1
62
256
6
ByLayer
370
13
48
1
60
0
100
AcDbSpline
70
4
71
3
72
10
73
6
40
0
40
0
40
0
40
0
40
0.5
40
0.5
40
1
40
1
40
1
40
1
41
1
10
128.900307409847
20
3.5665298528634
30
0
41
1
10
128.962737516274
20
3.56662855004814
30
0
41
1
10
129.024633946278
20
3.56452595290261
30
0
41
1
10
129.14734155512
20
3.55575649287283
30
0
41
1
10
129.208474140057
20
3.54903142851669
30
0
41
1
10
129.268008573666
20
3.54003820021006
30
0
0
SPLINE
5
291
100
AcDbEntity
8
1
62
256
6
ByLayer
370
13
48
1
60
0
100
AcDbSpline
70
4
71
3
72
8
73
4
40
0
40
0
40
0
40
0
40
1
40
1
40
1
40
1
41
1
10
131.254070615451
20
-7.74153178451709
30
0
41
1
10
130.920439732327
20
-7.73270443883362
30
0
41
1
10
130.586808849206
20
-7.72387709305093
30
0
41
1
10
130.253177966088
20
-7.71504974716797
30
0
0
SPLINE
5
292
100
AcDbEntity
8
1
62
256
6
ByLayer
370
13
48
1
60
0
100
AcDbSpline
70
4
71
3
72
14
73
10
40
0
40
0
40
0
40
0
40
0.25
40
0.25
40
0.5
40
0.5
40
0.75
40
0.75
40
1
40
1
40
1
40
1
41
1
10
130.814765647334
20
2.78109284888771
30
0
41
1
10
130.859437303177
20
2.69076047069913
30
0
41
1
10
130.909967335271
20
2.60616966284479
30
0
41
1
10
131.021198883298
20
2.44860103213529
30
0
41
1
10
131.080538138671
20
2.37752888523167
30
0
41
1
10
131.206512068787
20
2.24897058392523
30
0
41
1
10
131.273319198955
20
2.19139522516176
30
0
41
1
10
131.414362306378
20
2.09026267689489
30
0
41
1
10
131.487489264387
20
2.04745963487502
30
0
41
1
10
131.563573203039
20
2.01220386601824
30
0
0
SPLINE
5
293
100
AcDbEntity
8
1
62
256
6
ByLayer
370
13
48
1
60
0
100
AcDbSpline
70
4
71
3
72
14
73
10
40
0
40
0
40
0
40
0
40
0.249999999999999
40
0.249999999999999
40
0.499999999999999
40
0.499999999999999
40
0.75
40
0.75
40
1
40
1
40
1
40
1
41
1
10
13.7361246085751
20
-9.40547854256266
30
0
41
1
10
13.6994172760865
20
-9.49425911422446
30
0
41
1
10
13.6712080675612
20
-9.58176662344354
30
0
41
1
10
13.632897182096
20
-9.75412503979513
30
0
41
1
10
13.6229698658524
20
-9.83927069726468
30
0
41
1
10
13.6230863754379
20
-10.0009045936436
30
0
41
1
10
13.6327275259351
20
-10.0781705844717
30
0
41
1
10
13.6703979260714
20
-10.2257998550882
30
0
41
1
10
13.6986780459545
20
-10.2965593683418
30
0
41
1
10
13.735683705952
20
-10.3627014032404
30
0
0
SPLINE
5
294
100
AcDbEntity
8
1
62
256
6
ByLayer
370
13
48
1
60
0
100
AcDbSpline
70
4
71
3
72
10
73
6
40
0
40
0
40
0
40
0
40
0.5
40
0.5
40
1
40
1
40
1
40
1
41
1
10
130.814765647333
20
2.78109284888742
30
0
41
1
10
130.812135281076
20
2.85156225390048
30
0
41
1
10
130.812494216601
20
2.92693286217801
30
0
41
1
10
130.820540324963
20
3.0792442279697
30
0
41
1
10
130.828080028986
20
3.15654859161603
30
0
41
1
10
130.84085548038
20
3.23495104849877
30
0
0
SPLINE
5
295
100
AcDbEntity
8
1
62
256
6
ByLayer
370
13
48
1
60
0
100
AcDbSpline
70
4
71
3
72
18
73
14
40
0
40
0
40
0
40
0
40
0.125000000000005
40
0.125000000000005
40
0.25000000000001
40
0.25000000000001
40
0.375000000000015
40
0.375000000000015
40
0.50000000000002
40
0.50000000000002
40
0.75000000000001
40
0.75000000000001
40
1
40
1
40
1
40
1
41
1
10
129.268008573667
20
3.54003820021262
30
0
41
1
10
129.350678250689
20
3.50165869673501
30
0
41
1
10
129.430546726879
20
3.45788466800519
30
0
41
1
10
129.583768027331
20
3.35993179586583
30
0
41
1
10
129.655148719391
20
3.30708169126476
30
0
41
1
10
129.788650819488
20
3.19533224018224
30
0
41
1
10
129.850788670444
20
3.13646518140496
30
0
41
1
10
129.9665545975
20
3.01384976425885
30
0
41
1
10
130.020426608717
20
2.94969904593907
30
0
41
1
10
130.164770318321
20
2.75553168973394
30
0
41
1
10
130.239794898513
20
2.62209920195113
30
0
41
1
10
130.344878444514
20
2.34304453495037
30
0
41
1
10
130.372910067735
20
2.20402132873522
30
0
41
1
10
130.376509061605
20
2.06468791523446
30
0
0
SPLINE
5
296
100
AcDbEntity
8
1
62
256
6
ByLayer
370
13
48
1
60
0
100
AcDbSpline
70
4
71
3
72
8
73
4
40
0
40
0
40
0
40
0
40
1
40
1
40
1
40
1
41
1
10
26.01
20
-7.28505578512812
30
0
41
1
10
26.0066666666665
20
-7.28505516191669
30
0
41
1
10
26.0033333333332
20
-7.28505453798303
30
0
41
1
10
26.0000000000001
20
-7.28505391332681
30
0
0
SPLINE
5
297
100
AcDbEntity
8
1
62
256
6
ByLayer
370
13
48
1
60
0
100
AcDbSpline
70
4
71
3
72
8
73
4
40
0
40
0
40
0
40
0
40
1
40
1
40
1
40
1
41
1
10
0.5
20
-2.56700000000001
30
0
41
1
10
0.333297337465325
20
-2.56700000000001
30
0
41
1
10
0.166629459497471
20
-2.56700000000001
30
0
41
1
10
0
20
-2.56700000000001
30
0
0
SPLINE
5
298
100
AcDbEntity
8
1
62
256
6
ByLayer
370
13
48
1
60
0
100
AcDbSpline
70
4
71
3
72
8
73
4
40
0
40
0
40
0
40
0
40
1
40
1
40
1
40
1
41
1
10
129.170215696062
20
0.879320350034078
30
0
41
1
10
129.512904965987
20
0.808988303209674
30
0
41
1
10
129.85893140634
20
0.7445550493496
30
0
41
1
10
130.211015630152
20
0.690829552622404
30
0
0
SPLINE
5
299
100
AcDbEntity
8
1
62
256
6
ByLayer
370
13
48
1
60
0
100
AcDbSpline
70
4
71
3
72
8
73
4
40
0
40
0
40
0
40
0
40
1
40
1
40
1
40
1
41
1
10
126.538030511682
20
1.43297826228863
30
0
41
1
10
126.627584756945
20
1.40804927737284
30
0
41
1
10
126.718438897838
20
1.38122465635553
30
0
41
1
10
126.810593515075
20
1.35203995306503
30
0
0
SPLINE
5
29A
100
AcDbEntity
8
1
62
256
6
ByLayer
370
13
48
1
60
0
100
AcDbSpline
70
4
71
1
72
4
73
2
40
0
40
0
40
1
40
1
41
1
10
26.4499999999716
20
-4.66058824995164
30
0
41
1
10
26.01
20
-4.66058824995164
30
0
0
SPLINE
5
29B
100
AcDbEntity
8
1
62
256
6
ByLayer
370
13
48
1
60
0
100
AcDbSpline
70
4
71
3
72
8
73
4
40
0
40
0
40
0
40
0
40
1
40
1
40
1
40
1
41
1
10
127.718169180932
20
0.966181883858525
30
0
41
1
10
127.41401624558
20
1.08760790524374
30
0
41
1
10
127.110809627709
20
1.21467182201033
30
0
41
1
10
126.810593515074
20
1.35203995306509
30
0
0
SPLINE
5
29C
100
AcDbEntity
8
1
62
256
6
ByLayer
370
13
48
1
60
0
100
AcDbSpline
70
4
71
2
72
12
73
9
40
0
40
0
40
0
40
0.28878337986437
40
0.28878337986437
40
0.577566759728741
40
0.577566759728741
40
0.866350139593111
40
0.866350139593111
40
1
40
1
40
1
41
1
10
25.9999999999991
20
-4.66573228417221
30
0
41
1
10
24.1247453301154
20
-4.75118490449077
30
0
41
1
10
22.4322835245464
20
-5.38646245687525
30
0
41
1
10
20.6403557963364
20
-6.05907524936569
30
0
41
1
10
19.2978769635809
20
-7.24110088971437
30
0
41
1
10
17.968249089314
20
-8.41181151930394
30
0
41
1
10
17.2650391793497
20
-9.91738942912849
30
0
41
1
10
16.9632664243656
20
-10.5634872546184
30
0
41
1
10
16.7988530741508
20
-11.2300128210732
30
0
0
SPLINE
5
29D
100
AcDbEntity
8
1
62
256
6
ByLayer
370
13
48
1
60
0
100
AcDbSpline
70
4
71
3
72
8
73
4
40
0
40
0
40
0
40
0
40
1
40
1
40
1
40
1
41
1
10
128.604686221679
20
2.82501437230269
30
0
41
1
10
128.628708846568
20
2.89268008738085
30
0
41
1
10
128.651336935013
20
2.96064147658134
30
0
41
1
10
128.673074243737
20
3.02879173177652
30
0
0
SPLINE
5
29E
100
AcDbEntity
8
1
62
256
6
ByLayer
370
13
48
1
60
0
100
AcDbSpline
70
4
71
3
72
8
73
4
40
0
40
0
40
0
40
0
40
1
40
1
40
1
40
1
41
1
10
128.673074243737
20
3.02879173177652
30
0
41
1
10
128.673260918957
20
3.02937699115756
30
0
41
1
10
128.673463763772
20
3.02995968424946
30
0
41
1
10
128.673682338823
20
3.0305398852399
30
0
0
SPLINE
5
29F
100
AcDbEntity
8
1
62
256
6
ByLayer
370
13
48
1
60
0
100
AcDbSpline
70
4
71
3
72
10
73
6
40
0
40
0
40
0
40
0
40
0.5
40
0.5
40
1
40
1
40
1
40
1
41
1
10
135.521618694175
20
2.85033802018279
30
0
41
1
10
135.564542188211
20
2.85258754518426
30
0
41
1
10
135.607090509904
20
2.84928964466874
30
0
41
1
10
135.691141215661
20
2.83233219901064
30
0
41
1
10
135.73044018849
20
2.81908699384249
30
0
41
1
10
135.766999383691
20
2.8025086441084
30
0
0
SPLINE
5
2A0
100
AcDbEntity
8
1
62
256
6
ByLayer
370
13
48
1
60
0
100
AcDbSpline
70
4
71
3
72
18
73
14
40
0
40
0
40
0
40
0
40
0.250000000000006
40
0.250000000000006
40
0.37500000000001
40
0.37500000000001
40
0.500000000000013
40
0.500000000000013
40
0.749999999999954
40
0.749999999999954
40
0.874999999999977
40
0.874999999999977
40
1
40
1
40
1
40
1
41
1
10
134.674059401237
20
2.60564485062957
30
0
41
1
10
134.668738851411
20
2.60536601244271
30
0
41
1
10
134.670002795644
20
2.61562446459592
30
0
41
1
10
134.685267891323
20
2.64404279547762
30
0
41
1
10
134.692626545802
20
2.65554730425518
30
0
41
1
10
134.712568805004
20
2.68104566383795
30
0
41
1
10
134.725419885778
20
2.69529044873417
30
0
41
1
10
134.771503147394
20
2.73775745747614
30
0
41
1
10
134.813690841465
20
2.7664501965933
30
0
41
1
10
134.886979806861
20
2.79763546545834
30
0
41
1
10
134.913491920646
20
2.80631344773013
30
0
41
1
10
134.967636643416
20
2.81879498577476
30
0
41
1
10
134.99550196678
20
2.82274980812466
30
0
41
1
10
135.02417031111
20
2.82426781873414
30
0
0
SPLINE
5
2A1
100
AcDbEntity
8
1
62
256
6
ByLayer
370
13
48
1
60
0
100
AcDbSpline
70
4
71
3
72
8
73
4
40
0
40
0
40
0
40
0
40
1
40
1
40
1
40
1
41
1
10
131.563573203039
20
2.01220386601821
30
0
41
1
10
131.626812045926
20
1.98290025651673
30
0
41
1
10
131.691906772212
20
1.96006141008203
30
0
41
1
10
131.759083613577
20
1.94360773902977
30
0
0
SPLINE
5
2A2
100
AcDbEntity
8
1
62
256
6
ByLayer
370
13
48
1
60
0
100
AcDbSpline
70
4
71
3
72
8
73
4
40
0
40
0
40
0
40
0
40
1
40
1
40
1
40
1
41
1
10
0
20
2.56700000000001
30
0
41
1
10
0.166629459497471
20
2.56700000000001
30
0
41
1
10
0.333297337465325
20
2.56700000000001
30
0
41
1
10
0.5
20
2.56700000000001
30
0
0
SPLINE
5
2A3
100
AcDbEntity
8
1
62
256
6
ByLayer
370
13
48
1
60
0
100
AcDbSpline
70
4
71
3
72
18
73
14
40
0
40
0
40
0
40
0
40
0.125
40
0.125
40
0.25
40
0.25
40
0.375
40
0.375
40
0.5
40
0.5
40
0.75
40
0.75
40
1
40
1
40
1
40
1
41
1
10
3.5
20
2.56700000000001
30
0
41
1
10
3.53318725434176
20
2.56699999999998
30
0
41
1
10
3.56580829140157
20
2.56372864022964
30
0
41
1
10
3.62996621656711
20
2.55092029900885
30
0
41
1
10
3.66184300636689
20
2.54122110161589
30
0
41
1
10
3.7224882072679
20
2.51597417470759
30
0
41
1
10
3.75123256039328
20
2.5005358367311
30
0
41
1
10
3.80560183293426
20
2.46408769917883
30
0
41
1
10
3.83126179641692
20
2.44293372559446
30
0
41
1
10
3.90020942390294
20
2.37371581673929
30
0
41
1
10
3.93725026661849
20
2.31803869448134
30
0
41
1
10
3.98683556630692
20
2.19814630442173
30
0
41
1
10
4
20
2.13279936563703
30
0
41
1
10
4
20
2.06699999999998
30
0
0
SPLINE
5
2A4
100
AcDbEntity
8
1
62
256
6
ByLayer
370
13
48
1
60
0
100
AcDbSpline
70
4
71
3
72
8
73
4
40
0
40
0
40
0
40
0
40
1
40
1
40
1
40
1
41
1
10
31
20
-7.78611819580598
30
0
41
1
10
29.3333333264943
20
-7.78612021460935
30
0
41
1
10
27.6666666488336
20
-7.78612866133048
30
0
41
1
10
26.0000000000001
20
-7.78614586465585
30
0
0
SPLINE
5
2A5
100
AcDbEntity
8
1
62
256
6
ByLayer
370
13
48
1
60
0
100
AcDbSpline
70
4
71
1
72
4
73
2
40
0
40
0
40
1
40
1
41
1
10
26.0000000000029
20
-7.28505391334915
30
0
41
1
10
26.0000000000029
20
-7.78614586465585
30
0
0
SPLINE
5
2A6
100
AcDbEntity
8
1
62
256
6
ByLayer
370
13
48
1
60
0
100
AcDbSpline
70
4
71
1
72
4
73
2
40
0
40
0
40
1
40
1
41
1
10
26.0100000005723
20
-7.27124646421302
30
0
41
1
10
26.0099999994277
20
-7.28505578512821
30
0
0
SPLINE
5
2A7
100
AcDbEntity
8
1
62
256
6
ByLayer
370
13
48
1
60
0
100
AcDbSpline
70
4
71
3
72
8
73
4
40
0
40
0
40
0
40
0
40
1
40
1
40
1
40
1
41
1
10
130.376509061607
20
2.06468791523196
30
0
41
1
10
130.521219168188
20
2.30862950685571
30
0
41
1
10
130.660634045046
20
2.55173426735811
30
0
41
1
10
130.814765647332
20
2.78109284888723
30
0
0
SPLINE
5
2A8
100
AcDbEntity
8
1
62
256
6
ByLayer
370
13
48
1
60
0
100
AcDbSpline
70
4
71
3
72
8
73
4
40
0
40
0
40
0
40
0
40
1
40
1
40
1
40
1
41
1
10
125.891361484709
20
1.6295177808081
30
0
41
1
10
126.10699232555
20
1.55893233077003
30
0
41
1
10
126.322555418908
20
1.49295950965157
30
0
41
1
10
126.538030511682
20
1.43297826228846
30
0
0
SPLINE
5
2A9
100
AcDbEntity
8
1
62
256
6
ByLayer
370
13
48
1
60
0
100
AcDbSpline
70
4
71
3
72
22
73
18
40
0
40
0
40
0
40
0
40
0.250000000000001
40
0.250000000000001
40
0.500000000000002
40
0.500000000000002
40
0.625000000000003
40
0.625000000000003
40
0.656250000000003
40
0.656250000000003
40
0.687500000000003
40
0.687500000000003
40
0.750000000000002
40
0.750000000000002
40
0.875000000000001
40
0.875000000000001
40
1
40
1
40
1
40
1
41
1
10
16.7987047905935
20
-11.2306140732486
30
0
41
1
10
17.4622888155539
20
-11.0267997535647
30
0
41
1
10
18.1088030269604
20
-10.7926745733134
30
0
41
1
10
19.3679890105596
20
-10.2643302080924
30
0
41
1
10
19.9806689694795
20
-9.97012556029048
30
0
41
1
10
20.8734133825144
20
-9.48216114956247
30
0
41
1
10
21.166454302371
20
-9.31178844493735
30
0
41
1
10
21.5268249585979
20
-9.08888590712664
30
0
41
1
10
21.5983938278654
20
-9.04345495886997
30
0
41
1
10
21.7418743588992
20
-8.95317003965476
30
0
41
1
10
21.8143053036269
20
-8.90919010905867
30
0
41
1
10
22.0336550586379
20
-8.78071246018592
30
0
41
1
10
22.1826280991587
20
-8.69967235611031
30
0
41
1
10
22.6377452139319
20
-8.47035064212491
30
0
41
1
10
22.9520431236152
20
-8.3357933055033
30
0
41
1
10
23.6033395609528
20
-8.10488758159264
30
0
41
1
10
23.9403258142037
20
-8.00851853442282
30
0
41
1
10
24.289899694497
20
-7.93333657583784
30
0
0
SPLINE
5
2AA
100
AcDbEntity
8
1
62
256
6
ByLayer
370
13
48
1
60
0
100
AcDbSpline
70
4
71
3
72
8
73
4
40
0
40
0
40
0
40
0
40
1
40
1
40
1
40
1
41
1
10
31
20
-2.59269413268908
30
0
41
1
10
29.3333333493943
20
-2.59247077415571
30
0
41
1
10
27.6666666208075
20
-2.59246518233417
30
0
41
1
10
26
20
-2.59283698898079
30
0
0
SPLINE
5
2AB
100
AcDbEntity
8
1
62
256
6
ByLayer
370
13
48
1
60
0
100
AcDbSpline
70
4
71
3
72
12
73
8
40
0
40
0
40
0
40
0
40
0.249999999999831
40
0.249999999999831
40
0.499999999999663
40
0.499999999999663
40
1
40
1
40
1
40
1
41
1
10
128.804788199929
20
3.52860898829732
30
0
41
1
10
128.807872304404
20
3.53686768539473
30
0
41
1
10
128.814650448329
20
3.54345261479375
30
0
41
1
10
128.829413017457
20
3.5531355438053
30
0
41
1
10
128.837813399523
20
3.55664298701817
30
0
41
1
10
128.863715049339
20
3.56455467837293
30
0
41
1
10
128.881771917499
20
3.56650040669797
30
0
41
1
10
128.900286963754
20
3.56652982044687
30
0
0
SPLINE
5
2AC
100
AcDbEntity
8
1
62
256
6
ByLayer
370
13
48
1
60
0
100
AcDbSpline
70
4
71
3
72
14
73
10
40
0
40
0
40
0
40
0
40
0.25
40
0.25
40
0.5
40
0.5
40
0.75
40
0.75
40
1
40
1
40
1
40
1
41
1
10
134.204664881553
20
2.50427731310265
30
0
41
1
10
134.231889216852
20
2.49696515533864
30
0
41
1
10
134.255669749394
20
2.48859648897457
30
0
41
1
10
134.296470435815
20
2.46978517039324
30
0
41
1
10
134.313355618968
20
2.45929933199852
30
0
41
1
10
134.338371114242
20
2.43749540720688
30
0
41
1
10
134.346898323462
20
2.4258986041761
30
0
41
1
10
134.35552277917
20
2.40219053888148
30
0
41
1
10
134.35564318853
20
2.39030680291751
30
0
41
1
10
134.351939642528
20
2.37839597032291
30
0
0
SPLINE
5
2AD
100
AcDbEntity
8
1
62
256
6
ByLayer
370
13
48
1
60
0
100
AcDbSpline
70
4
71
3
72
14
73
10
40
0
40
0
40
0
40
0
40
0.5
40
0.5
40
0.625000000000001
40
0.625000000000001
40
0.750000000000003
40
0.750000000000003
40
1
40
1
40
1
40
1
41
1
10
26
20
-7.78614586465585
30
0
41
1
10
25.6936216255462
20
-7.78614902709199
30
0
41
1
10
25.3951055504871
20
-7.80227352183917
30
0
41
1
10
25.0315597015131
20
-7.83700827105744
30
0
41
1
10
24.9591773770239
20
-7.84468649092685
30
0
41
1
10
24.8178111080544
20
-7.86091930760674
30
0
41
1
10
24.7485388032148
20
-7.86949794932073
30
0
41
1
10
24.5448702721778
20
-7.89608269714682
30
0
41
1
10
24.4145990050574
20
-7.9149636252572
30
0
41
1
10
24.289899694497
20
-7.93333657583784
30
0
0
SPLINE
5
2AE
100
AcDbEntity
8
1
62
256
6
ByLayer
370
13
48
1
60
0
100
AcDbSpline
70
4
71
3
72
8
73
4
40
0
40
0
40
0
40
0
40
1
40
1
40
1
40
1
41
1
10
128.971213426681
20
7.11366480138901
30
0
41
1
10
129.059124623864
20
6.97438526536001
30
0
41
1
10
129.150178593436
20
6.83706737588406
30
0
41
1
10
129.244548885032
20
6.70181945866844
30
0
0
SPLINE
5
2AF
100
AcDbEntity
8
1
62
256
6
ByLayer
370
13
48
1
60
0
100
AcDbSpline
70
4
71
3
72
20
73
16
40
0
40
0
40
0
40
0
40
0.125000000000001
40
0.125000000000001
40
0.250000000000001
40
0.250000000000001
40
0.375000000000002
40
0.375000000000002
40
0.500000000000002
40
0.500000000000002
40
0.625000000000001
40
0.625000000000001
40
0.750000000000001
40
0.750000000000001
40
1
40
1
40
1
40
1
41
1
10
4
20
-2.06700000000001
30
0
41
1
10
4
20
-2.09990618764871
30
0
41
1
10
3.99678333054672
20
-2.13225565776904
30
0
41
1
10
3.98418941760985
20
-2.19588982215285
30
0
41
1
10
3.97466699217188
20
-2.22749262402053
30
0
41
1
10
3.94975653371867
20
-2.28787484284061
30
0
41
1
10
3.93450971153683
20
-2.31652223529338
30
0
41
1
10
3.89848174695652
20
-2.37076361314041
30
0
41
1
10
3.87747401644799
20
-2.39650818132446
30
0
41
1
10
3.83150344696435
20
-2.44272295551895
30
0
41
1
10
3.80641060638416
20
-2.46347400658138
30
0
41
1
10
3.75190461651775
20
-2.50015489351551
30
0
41
1
10
3.72270136626577
20
-2.51585429972602
30
0
41
1
10
3.63230486744203
20
-2.55357963965602
30
0
41
1
10
3.56638693676757
20
-2.56700000000001
30
0
41
1
10
3.5
20
-2.56700000000001
30
0
0
SPLINE
5
2B0
100
AcDbEntity
8
1
62
256
6
ByLayer
370
13
48
1
60
0
100
AcDbSpline
70
4
71
3
72
16
73
12
40
0
40
0
40
0
40
0
40
0.250000000000004
40
0.250000000000004
40
0.375000000000004
40
0.375000000000004
40
0.500000000000003
40
0.500000000000003
40
0.750000000000002
40
0.750000000000002
40
1
40
1
40
1
40
1
41
1
10
24.2914794770159
20
-3.12765281977454
30
0
41
1
10
24.4155544940803
20
-3.04178219508097
30
0
41
1
10
24.5457872220218
20
-2.96532101743745
30
0
41
1
10
24.7505253540099
20
-2.86512717661023
30
0
41
1
10
24.8205007769807
20
-2.83411631184387
30
0
41
1
10
24.9614284956766
20
-2.77794828205856
30
0
41
1
10
25.0326278658192
20
-2.75265577280257
30
0
41
1
10
25.2483977174707
20
-2.68500776241365
30
0
41
1
10
25.3951280127301
20
-2.65083578219665
30
0
41
1
10
25.6944622738421
20
-2.60470004085673
30
0
41
1
10
25.847347985466
20
-2.59287104320191
30
0
41
1
10
26
20
-2.59283698898079
30
0
0
SPLINE
5
2B1
100
AcDbEntity
8
1
62
256
6
ByLayer
370
13
48
1
60
0
100
AcDbSpline
70
4
71
3
72
8
73
4
40
0
40
0
40
0
40
0
40
1
40
1
40
1
40
1
41
1
10
128.971213426677
20
7.11366480138182
30
0
41
1
10
129.043858743916
20
7.2636428309238
30
0
41
1
10
129.114453971038
20
7.41460932680016
30
0
41
1
10
129.183246493427
20
7.56644501029217
30
0
0
SPLINE
5
2B2
100
AcDbEntity
8
1
62
256
6
ByLayer
370
13
48
1
60
0
100
AcDbSpline
70
4
71
3
72
34
73
30
40
0
40
0
40
0
40
0
40
0.124999999999998
40
0.124999999999998
40
0.156249999999998
40
0.156249999999998
40
0.187499999999998
40
0.187499999999998
40
0.249999999999998
40
0.249999999999998
40
0.312499999999998
40
0.312499999999998
40
0.374999999999998
40
0.374999999999998
40
0.437499999999998
40
0.437499999999998
40
0.499999999999997
40
0.499999999999997
40
0.624999999999998
40
0.624999999999998
40
0.687499999999999
40
0.687499999999999
40
0.749999999999999
40
0.749999999999999
40
0.8125
40
0.8125
40
0.875
40
0.875
40
1
40
1
40
1
40
1
41
1
10
13.735683705952
20
-10.3627014032404
30
0
41
1
10
13.6742265696812
20
-10.5002029733326
30
0
41
1
10
13.6415457544759
20
-10.6297882129843
30
0
41
1
10
13.6394397377665
20
-10.7814284002613
30
0
41
1
10
13.6409990832728
20
-10.8113388229751
30
0
41
1
10
13.6479504665192
20
-10.8693221736966
30
0
41
1
10
13.6533313277867
20
-10.8974487001592
30
0
41
1
10
13.6749703342898
20
-10.9793189441193
30
0
41
1
10
13.6967014396949
20
-11.0305624741255
30
0
41
1
10
13.7542147014581
20
-11.1265937946745
30
0
41
1
10
13.7902545760875
20
-11.1716134683938
30
0
41
1
10
13.8753355881363
20
-11.2539815073325
30
0
41
1
10
13.9240284967082
20
-11.2911250622111
30
0
41
1
10
14.0331180478808
20
-11.3578069598543
30
0
41
1
10
14.0935100827857
20
-11.3873461732145
30
0
41
1
10
14.2259788612999
20
-11.4389504809639
30
0
41
1
10
14.2981962874945
20
-11.4609679548062
30
0
41
1
10
14.5269869857827
20
-11.5145072190015
30
0
41
1
10
14.6973566721043
20
-11.5342568528624
30
0
41
1
10
14.9778752175829
20
-11.5420382908536
30
0
41
1
10
15.0747500799938
20
-11.5409111805301
30
0
41
1
10
15.2728041296995
20
-11.5317699343181
30
0
41
1
10
15.3743021537159
20
-11.5237638267839
30
0
41
1
10
15.5820824396862
20
-11.5011919944516
30
0
41
1
10
15.6883651365245
20
-11.4866254081334
30
0
41
1
10
15.9057504124119
20
-11.4509830600011
30
0
41
1
10
16.015817109794
20
-11.4300656231206
30
0
41
1
10
16.347943143874
20
-11.3588454068678
30
0
41
1
10
16.5727993808813
20
-11.3000308566708
30
0
41
1
10
16.8012759602444
20
-11.2298241813061
30
0
0
SPLINE
5
2B3
100
AcDbEntity
8
1
62
256
6
ByLayer
370
13
48
1
60
0
100
AcDbSpline
70
4
71
3
72
14
73
10
40
0
40
0
40
0
40
0
40
0.25
40
0.25
40
0.5
40
0.5
40
0.75
40
0.75
40
1
40
1
40
1
40
1
41
1
10
138.60413497966
20
3.01188585330883
30
0
41
1
10
138.645962220832
20
3.01407792613219
30
0
41
1
10
138.687288632856
20
3.01100486178063
30
0
41
1
10
138.768984040027
20
2.99509857141845
30
0
41
1
10
138.807974916476
20
2.98239673094713
30
0
41
1
10
138.879809066649
20
2.95074425301667
30
0
41
1
10
138.911280152861
20
2.93246131252701
30
0
41
1
10
138.965409283825
20
2.89631907357122
30
0
41
1
10
138.986773640943
20
2.87945109929953
30
0
41
1
10
139.003773060244
20
2.86593460662945
30
0
0
SPLINE
5
2B4
100
AcDbEntity
8
1
62
256
6
ByLayer
370
13
48
1
60
0
100
AcDbSpline
70
4
71
3
72
10
73
6
40
0
40
0
40
0
40
0
40
0.5
40
0.5
40
1
40
1
40
1
40
1
41
1
10
139.003773060244
20
2.86593460662945
30
0
41
1
10
139.016447828142
20
2.85585670900505
30
0
41
1
10
139.027440049976
20
2.84800960021639
30
0
41
1
10
139.04418875395
20
2.83761234967108
30
0
41
1
10
139.050025128234
20
2.83497949660014
30
0
41
1
10
139.052924735405
20
2.83513145857279
30
0
0
SPLINE
5
2B5
100
AcDbEntity
8
1
62
256
6
ByLayer
370
13
48
1
60
0
100
AcDbSpline
70
4
71
3
72
12
73
8
40
0
40
0
40
0
40
0
40
0.250000000000024
40
0.250000000000024
40
0.500000000000048
40
0.500000000000048
40
1
40
1
40
1
40
1
41
1
10
137.371359804096
20
2.74700437480266
30
0
41
1
10
137.414562322705
20
2.74926852286239
30
0
41
1
10
137.458435392166
20
2.75441185524158
30
0
41
1
10
137.544912600706
20
2.77039863400833
30
0
41
1
10
137.587887982746
20
2.781273190132
30
0
41
1
10
137.714679113845
20
2.82233946309046
30
0
41
1
10
137.796971319602
20
2.86078650480107
30
0
41
1
10
137.877814459812
20
2.91313177472512
30
0
0
SPLINE
5
2B6
100
AcDbEntity
8
1
62
256
6
ByLayer
370
13
48
1
60
0
100
AcDbSpline
70
4
71
3
72
10
73
6
40
0
40
0
40
0
40
0
40
0.5
40
0.5
40
1
40
1
40
1
40
1
41
1
10
72
20
-7.70479749851319
30
0
41
1
10
65.1666677975325
20
-7.71846452618669
30
0
41
1
10
58.3333346695144
20
-7.73205376862947
30
0
41
1
10
44.6666673534583
20
-7.7590907344952
30
0
41
1
10
37.8333331876954
20
-7.77255097591822
30
0
41
1
10
31
20
-7.78611819580598
30
0
0
SPLINE
5
2B7
100
AcDbEntity
8
1
62
256
6
ByLayer
370
13
48
1
60
0
100
AcDbSpline
70
4
71
3
72
12
73
8
40
0
40
0
40
0
40
0
40
0.25
40
0.25
40
0.5
40
0.5
40
1
40
1
40
1
40
1
41
1
10
129.577020075412
20
3.59810833430558
30
0
41
1
10
129.688622632075
20
3.60990448443991
30
0
41
1
10
129.797365421009
20
3.62560124208264
30
0
41
1
10
130.011437454063
20
3.66207831095892
30
0
41
1
10
130.116738331286
20
3.68287075322368
30
0
41
1
10
130.429200381013
20
3.75045483843357
30
0
41
1
10
130.633084934344
20
3.80234831302701
30
0
41
1
10
130.833333488092
20
3.85756987996257
30
0
0
SPLINE
5
2B8
100
AcDbEntity
8
1
62
256
6
ByLayer
370
13
48
1
60
0
100
AcDbSpline
70
4
71
3
72
14
73
10
40
0
40
0
40
0
40
0
40
0.25
40
0.25
40
0.5
40
0.5
40
0.75
40
0.75
40
1
40
1
40
1
40
1
41
1
10
129.998035240285
20
1.97313132963239
30
0
41
1
10
129.90261353657
20
2.06246969590089
30
0
41
1
10
129.799964672253
20
2.14541212338366
30
0
41
1
10
129.584185206705
20
2.3020207838162
30
0
41
1
10
129.471008402025
20
2.37564612734195
30
0
41
1
10
129.236302826638
20
2.51550543811254
30
0
41
1
10
129.114757160423
20
2.58172445306332
30
0
41
1
10
128.864632598987
20
2.70793817100184
30
0
41
1
10
128.735760063706
20
2.76804428319832
30
0
41
1
10
128.604686221674
20
2.82501437229499
30
0
0
SPLINE
5
2B9
100
AcDbEntity
8
1
62
256
6
ByLayer
370
13
48
1
60
0
100
AcDbSpline
70
4
71
3
72
52
73
48
40
0
40
0
40
0
40
0
40
0.0156249999999995
40
0.0156249999999995
40
0.031249999999999
40
0.031249999999999
40
0.0468749999999985
40
0.0468749999999985
40
0.062499999999998
40
0.062499999999998
40
0.0703124999999984
40
0.0703124999999984
40
0.0781249999999988
40
0.0781249999999988
40
0.0937499999999989
40
0.0937499999999989
40
0.124999999999999
40
0.124999999999999
40
0.15625
40
0.15625
40
0.1875
40
0.1875
40
0.21875
40
0.21875
40
0.250000000000001
40
0.250000000000001
40
0.3125
40
0.3125
40
0.375
40
0.375
40
0.4375
40
0.4375
40
0.46875
40
0.46875
40
0.5
40
0.5
40
0.53125
40
0.53125
40
0.5625
40
0.5625
40
0.625
40
0.625
40
0.75
40
0.75
40
0.875
40
0.875
40
1
40
1
40
1
40
1
41
1
10
128.254070615451
20
-7.63584135473374
30
0
41
1
10
127.95286882442
20
-7.63127373953799
30
0
41
1
10
127.652446331519
20
-7.62613935076331
30
0
41
1
10
127.055957015698
20
-7.61277266059474
30
0
41
1
10
126.75979657447
20
-7.60464440425619
30
0
41
1
10
126.176697631222
20
-7.5810081779376
30
0
41
1
10
125.889840031589
20
-7.56550296765863
30
0
41
1
10
125.329647242512
20
-7.52029590606136
30
0
41
1
10
125.055672736776
20
-7.49051743810102
30
0
41
1
10
124.641943005015
20
-7.44356435595952
30
0
41
1
10
124.503911152615
20
-7.42733343548235
30
0
41
1
10
124.228136844144
20
-7.3931893634529
30
0
41
1
10
124.090280199344
20
-7.37535752279933
30
0
41
1
10
123.676822157381
20
-7.31988357359128
30
0
41
1
10
123.40136468133
20
-7.28018896113133
30
0
41
1
10
122.575341026698
20
-7.15317868406447
30
0
41
1
10
122.025116236133
20
-7.05793974095917
30
0
41
1
10
120.924700329487
20
-6.8474568556905
30
0
41
1
10
120.374672334338
20
-6.73199894321954
30
0
41
1
10
119.272592259718
20
-6.48382999090299
30
0
41
1
10
118.720467694755
20
-6.35119124652883
30
0
41
1
10
117.611212867194
20
-6.0740911680891
30
0
41
1
10
117.053607565062
20
-5.92952806660077
30
0
41
1
10
115.932873901563
20
-5.63564677080393
30
0
41
1
10
115.371187811323
20
-5.48674624916166
30
0
41
1
10
113.679804721194
20
-5.04499900358692
30
0
41
1
10
112.543607412001
20
-4.7580601470919
30
0
41
1
10
110.25423938341
20
-4.21723621961402
30
0
41
1
10
109.101084246215
20
-3.96309446656662
30
0
41
1
10
106.775521588486
20
-3.51005830736597
30
0
41
1
10
105.603105285929
20
-3.31129782525883
30
0
41
1
10
103.830238310094
20
-3.06266990247346
30
0
41
1
10
103.236906797104
20
-2.98802216105611
30
0
41
1
10
102.045394036666
20
-2.85666264058844
30
0
41
1
10
101.446545913037
20
-2.79986724034214
30
0
41
1
10
100.247159285176
20
-2.7063230190243
30
0
41
1
10
99.6471425728721
20
-2.67010732994021
30
0
41
1
10
98.4464603631054
20
-2.61921289806776
30
0
41
1
10
97.8458342620909
20
-2.60322180227337
30
0
41
1
10
96.0435593220774
20
-2.56849207476665
30
0
41
1
10
94.8414668765389
20
-2.56455891080904
30
0
41
1
10
91.2350333808322
20
-2.55802234807413
30
0
41
1
10
88.8305752362152
20
-2.56941213086185
30
0
41
1
10
84.0218535649605
20
-2.58978457745721
30
0
41
1
10
81.6174810264788
20
-2.59904681561406
30
0
41
1
10
76.8087388447977
20
-2.60063826978848
30
0
41
1
10
74.4043696466963
20
-2.59554189221208
30
0
41
1
10
71.9999999999999
20
-2.5918406299441
30
0
0
SPLINE
5
2BA
100
AcDbEntity
8
1
62
256
6
ByLayer
370
13
48
1
60
0
100
AcDbSpline
70
4
71
3
72
18
73
14
40
0
40
0
40
0
40
0
40
0.25
40
0.25
40
0.375
40
0.375
40
0.5
40
0.5
40
0.625
40
0.625
40
0.75
40
0.75
40
1
40
1
40
1
40
1
41
1
10
130.376509061607
20
2.06468791523383
30
0
41
1
10
130.35781765401
20
2.02583051768809
30
0
41
1
10
130.334676841538
20
1.98858264518057
30
0
41
1
10
130.289898130088
20
1.94077338956461
30
0
41
1
10
130.273639302778
20
1.92661431674671
30
0
41
1
10
130.237299734666
20
1.90345607104598
30
0
41
1
10
130.217826282622
20
1.89503932466462
30
0
41
1
10
130.177946359884
20
1.88650519304912
30
0
41
1
10
130.158032874151
20
1.88653301368487
30
0
41
1
10
130.12051384247
20
1.89325352292448
30
0
41
1
10
130.102943207374
20
1.89977022367918
30
0
41
1
10
130.053199968676
20
1.92489523214482
30
0
41
1
10
130.024925648792
20
1.94795524210909
30
0
41
1
10
129.998035240285
20
1.97313132963185
30
0
0
SPLINE
5
2BB
100
AcDbEntity
8
1
62
256
6
ByLayer
370
13
48
1
60
0
100
AcDbSpline
70
4
71
3
72
8
73
4
40
0
40
0
40
0
40
0
40
1
40
1
40
1
40
1
41
1
10
134.178783723468
20
2.5113072063279
30
0
41
1
10
134.187590920123
20
2.50890220336262
30
0
41
1
10
134.196214772655
20
2.5065469196409
30
0
41
1
10
134.204664881553
20
2.50427731310265
30
0
0
SPLINE
5
2BC
100
AcDbEntity
8
1
62
256
6
ByLayer
370
13
48
1
60
0
100
AcDbSpline
70
4
71
3
72
10
73
6
40
0
40
0
40
0
40
0
40
0.5
40
0.5
40
1
40
1
40
1
40
1
41
1
10
140.071070459636
20
0.263546924893802
30
0
41
1
10
140.069591253887
20
0.291965164303519
30
0
41
1
10
140.068632157617
20
0.320080188147472
30
0
41
1
10
140.067765926701
20
0.375671072588346
30
0
41
1
10
140.067870056103
20
0.403301507591209
30
0
41
1
10
140.068483477036
20
0.429663346940515
30
0
0
SPLINE
5
2BD
100
AcDbEntity
8
1
62
256
6
ByLayer
370
13
48
1
60
0
100
AcDbSpline
70
4
71
3
72
20
73
16
40
0
40
0
40
0
40
0
40
0.125000000000001
40
0.125000000000001
40
0.250000000000001
40
0.250000000000001
40
0.375000000000002
40
0.375000000000002
40
0.500000000000001
40
0.500000000000001
40
0.625000000000001
40
0.625000000000001
40
0.750000000000001
40
0.750000000000001
40
1
40
1
40
1
40
1
41
1
10
3.99999999999997
20
-14.7737923276763
30
0
41
1
10
3.99999999999997
20
-14.7865327772435
30
0
41
1
10
3.99678333054672
20
-14.7989675844038
30
0
41
1
10
3.98418941760985
20
-14.823261822174
30
0
41
1
10
3.97466699217188
20
-14.8352405809584
30
0
41
1
10
3.94975653371867
20
-14.8579783664863
30
0
41
1
10
3.93450971153683
20
-14.8686898962957
30
0
41
1
10
3.89848174695652
20
-14.8888548576737
30
0
41
1
10
3.87747401644796
20
-14.8983625296054
30
0
41
1
10
3.83150344696435
20
-14.9153469552639
30
0
41
1
10
3.80641060638416
20
-14.9229287104646
30
0
41
1
10
3.75190461651775
20
-14.936281362736
30
0
41
1
10
3.72270136626574
20
-14.9419682011977
30
0
41
1
10
3.63230486744203
20
-14.9556022616578
30
0
41
1
10
3.56638693676757
20
-14.9604105886527
30
0
41
1
10
3.49999999999997
20
-14.9604105886527
30
0
0
SPLINE
5
2BE
100
AcDbEntity
8
1
62
256
6
ByLayer
370
13
48
1
60
0
100
AcDbSpline
70
4
71
3
72
18
73
14
40
0
40
0
40
0
40
0
40
0.249999999999997
40
0.249999999999997
40
0.374999999999995
40
0.374999999999995
40
0.499999999999993
40
0.499999999999993
40
0.749999999999994
40
0.749999999999994
40
0.874999999999998
40
0.874999999999998
40
1
40
1
40
1
40
1
41
1
10
26.0000000000001
20
-7.28505391332681
30
0
41
1
10
25.8384022925183
20
-7.28502363042207
30
0
41
1
10
25.68025235455
20
-7.30070583135409
30
0
41
1
10
25.4477665198804
20
-7.3458264571135
30
0
41
1
10
25.3710657157148
20
-7.36448731398536
30
0
41
1
10
25.2192299991874
20
-7.40894525001386
30
0
41
1
10
25.1440735805231
20
-7.43480677683672
30
0
41
1
10
24.9259375622599
20
-7.52083721929833
30
0
41
1
10
24.7884036115424
20
-7.58986428125115
30
0
41
1
10
24.5924166025777
20
-7.70866442921269
30
0
41
1
10
24.5285554717781
20
-7.75102403502581
30
0
41
1
10
24.4057078731403
20
-7.83950035357327
30
0
41
1
10
24.3467066631763
20
-7.88558310312555
30
0
41
1
10
24.289899694497
20
-7.93333657583784
30
0
0
SPLINE
5
2BF
100
AcDbEntity
8
1
62
256
6
ByLayer
370
13
48
1
60
0
100
AcDbSpline
70
4
71
3
72
10
73
6
40
0
40
0
40
0
40
0
40
0.5
40
0.5
40
1
40
1
40
1
40
1
41
1
10
134.32278499282
20
2.20575038737971
30
0
41
1
10
134.353640406749
20
2.23748043166026
30
0
41
1
10
134.387130996578
20
2.27673023244631
30
0
41
1
10
134.452117324345
20
2.36850636276242
30
0
41
1
10
134.4827374818
20
2.41959438661124
30
0
41
1
10
134.50987507685
20
2.47702953379798
30
0
0
SPLINE
5
2C0
100
AcDbEntity
8
1
62
256
6
ByLayer
370
13
48
1
60
0
100
AcDbSpline
70
4
71
3
72
14
73
10
40
0
40
0
40
0
40
0
40
0.25
40
0.25
40
0.5
40
0.5
40
0.75
40
0.75
40
1
40
1
40
1
40
1
41
1
10
128.673682338821
20
3.03053988524002
30
0
41
1
10
128.686044458678
20
3.06335476574887
30
0
41
1
10
128.697598794892
20
3.1009903436165
30
0
41
1
10
128.719233065449
20
3.18065636541357
30
0
41
1
10
128.729574702491
20
3.22373986291012
30
0
41
1
10
128.749561844147
20
3.31157160288052
30
0
41
1
10
128.759212797219
20
3.35658755928452
30
0
41
1
10
128.779682864898
20
3.44532601277723
30
0
41
1
10
128.789853096434
20
3.48861537036694
30
0
41
1
10
128.80478819994
20
3.52860898829275
30
0
0
SPLINE
5
2C1
100
AcDbEntity
8
1
62
256
6
ByLayer
370
13
48
1
60
0
100
AcDbSpline
70
4
71
3
72
14
73
10
40
0
40
0
40
0
40
0
40
0.25
40
0.25
40
0.5
40
0.5
40
0.75
40
0.75
40
1
40
1
40
1
40
1
41
1
10
131.759083613577
20
1.94360773902963
30
0
41
1
10
132.022468369017
20
1.87909672543998
30
0
41
1
10
132.277394665195
20
1.83338905936708
30
0
41
1
10
132.768162444831
20
1.77048911081502
30
0
41
1
10
133.004035827657
20
1.75337727354673
30
0
41
1
10
133.45190693418
20
1.74009205778631
30
0
41
1
10
133.664566118228
20
1.74409026659404
30
0
41
1
10
134.048514690839
20
1.7638818771573
30
0
41
1
10
134.221239432667
20
1.77965598874798
30
0
41
1
10
134.366313783531
20
1.79537036660272
30
0
0
SPLINE
5
2C2
100
AcDbEntity
8
1
62
256
6
ByLayer
370
13
48
1
60
0
100
AcDbSpline
70
4
71
3
72
10
73
6
40
0
40
0
40
0
40
0
40
0.5
40
0.5
40
1
40
1
40
1
40
1
41
1
10
137.877814459812
20
2.91313177472512
30
0
41
1
10
137.908858038741
20
2.93323223735203
30
0
41
1
10
137.944193291753
20
2.95040746498188
30
0
41
1
10
138.022703539331
20
2.97586658551575
30
0
41
1
10
138.063812800319
20
2.98354545178165
30
0
41
1
10
138.10668659662
20
2.98581565186157
30
0
0
SPLINE
5
2C3
100
AcDbEntity
8
1
62
256
6
ByLayer
370
13
48
1
60
0
100
AcDbSpline
70
4
71
3
72
14
73
10
40
0
40
0
40
0
40
0
40
0.25
40
0.25
40
0.5
40
0.5
40
0.75
40
0.75
40
1
40
1
40
1
40
1
41
1
10
139.945594428224
20
2.53143397370744
30
0
41
1
10
139.862481872505
20
2.52707822923162
30
0
41
1
10
139.780512852997
20
2.53179622634616
30
0
41
1
10
139.619683802073
20
2.55686023194696
30
0
41
1
10
139.544045194701
20
2.57657465886226
30
0
41
1
10
139.398231942066
20
2.62886183128379
30
0
41
1
10
139.328019592382
20
2.66170064926462
30
0
41
1
10
139.195924475243
20
2.73924067916661
30
0
41
1
10
139.13334543508
20
2.78420440079421
30
0
41
1
10
139.074507486924
20
2.83626256182066
30
0
0
SPLINE
5
2C4
100
AcDbEntity
8
1
62
256
6
ByLayer
370
13
48
1
60
0
100
AcDbSpline
70
4
71
3
72
18
73
14
40
0
40
0
40
0
40
0
40
0.125
40
0.125
40
0.250000000000001
40
0.250000000000001
40
0.375000000000001
40
0.375000000000001
40
0.500000000000001
40
0.500000000000001
40
0.750000000000001
40
0.750000000000001
40
1
40
1
40
1
40
1
41
1
10
3.49999999999997
20
-12.3934105886527
30
0
41
1
10
3.53318725434173
20
-12.3934105886527
30
0
41
1
10
3.56580829140154
20
-12.395507619001
30
0
41
1
10
3.62996621656708
20
-12.4037077998828
30
0
41
1
10
3.66184300636689
20
-12.4099146240461
30
0
41
1
10
3.72248820726787
20
-12.4260374682893
30
0
41
1
10
3.75123256039328
20
-12.4358836819854
30
0
41
1
10
3.80560183293426
20
-12.4590649108046
30
0
41
1
10
3.8312617964169
20
-12.4724903708007
30
0
41
1
10
3.90020942390291
20
-12.5162709073935
30
0
41
1
10
3.93725026661849
20
-12.551296928862
30
0
41
1
10
3.98683556630689
20
-12.6260448637068
30
0
41
1
10
4
20
-12.6664688241598
30
0
41
1
10
3.99999999999997
20
-12.7067923276763
30
0
0
SPLINE
5
2C5
100
AcDbEntity
8
1
62
256
6
ByLayer
370
13
48
1
60
0
100
AcDbSpline
70
4
71
3
72
8
73
4
40
0
40
0
40
0
40
0
40
1
40
1
40
1
40
1
41
1
10
132.51856103955
20
5.06324176570794
30
0
41
1
10
132.50231655302
20
5.01670589189527
30
0
41
1
10
132.480747131726
20
4.97544163908248
30
0
41
1
10
132.456283441959
20
4.93935321730794
30
0
0
SPLINE
5
2C6
100
AcDbEntity
8
1
62
256
6
ByLayer
370
13
48
1
60
0
100
AcDbSpline
70
4
71
3
72
8
73
4
40
0
40
0
40
0
40
0
40
1
40
1
40
1
40
1
41
1
10
140.043109203047
20
0.526694362651597
30
0
41
1
10
140.129318512598
20
0.546790192052612
30
0
41
1
10
140.214620843461
20
0.554911390506334
30
0
41
1
10
140.299864355689
20
0.553145039834305
30
0
0
SPLINE
5
2C7
100
AcDbEntity
8
1
62
256
6
ByLayer
370
13
48
1
60
0
100
AcDbSpline
70
4
71
3
72
12
73
8
40
0
40
0
40
0
40
0
40
0.5
40
0.5
40
0.75
40
0.75
40
1
40
1
40
1
40
1
41
1
10
130.84085548038
20
3.2349510484988
30
0
41
1
10
130.857464513606
20
3.33688005054776
30
0
41
1
10
130.867174031111
20
3.44005957106862
30
0
41
1
10
130.867011208201
20
3.59749809854668
30
0
41
1
10
130.864423728151
20
3.65045127095701
30
0
41
1
10
130.853447318817
20
3.75478099484042
30
0
41
1
10
130.845071550952
20
3.80645892845698
30
0
41
1
10
130.833333488074
20
3.85756987996189
30
0
0
SPLINE
5
2C8
100
AcDbEntity
8
1
62
256
6
ByLayer
370
13
48
1
60
0
100
AcDbSpline
70
4
71
3
72
8
73
4
40
0
40
0
40
0
40
0
40
1
40
1
40
1
40
1
41
1
10
134.688348221183
20
2.60639369759568
30
0
41
1
10
134.669952230539
20
2.57783991974153
30
0
41
1
10
134.654703069819
20
2.54722830475006
30
0
41
1
10
134.643152940947
20
2.51602572369862
30
0
0
SPLINE
5
2C9
100
AcDbEntity
8
1
62
256
6
ByLayer
370
13
48
1
60
0
100
AcDbSpline
70
4
71
3
72
10
73
6
40
0
40
0
40
0
40
0
40
0.5
40
0.5
40
1
40
1
40
1
40
1
41
1
10
129.356213053523
20
3.55512702343893
30
0
41
1
10
129.392163056579
20
3.56495426836645
30
0
41
1
10
129.42840413217
20
3.57395798545178
30
0
41
1
10
129.501916493833
20
3.58905065812831
30
0
41
1
10
129.539178705677
20
3.59526808315405
30
0
41
1
10
129.577020075411
20
3.59810833430552
30
0
0
SPLINE
5
2CA
100
AcDbEntity
8
1
62
256
6
ByLayer
370
13
48
1
60
0
100
AcDbSpline
70
4
71
3
72
8
73
4
40
0
40
0
40
0
40
0
40
1
40
1
40
1
40
1
41
1
10
132.711447156816
20
7.70479468462042
30
0
41
1
10
132.707844886242
20
7.71278248251048
30
0
41
1
10
132.711867986113
20
7.72015254129224
30
0
41
1
10
132.723317931203
20
7.72695075748876
30
0
0
SPLINE
5
2CB
100
AcDbEntity
8
1
62
256
6
ByLayer
370
13
48
1
60
0
100
AcDbSpline
70
4
71
3
72
30
73
26
40
0
40
0
40
0
40
0
40
0.125000000000007
40
0.125000000000007
40
0.18750000000001
40
0.18750000000001
40
0.250000000000013
40
0.250000000000013
40
0.37500000000002
40
0.37500000000002
40
0.500000000000027
40
0.500000000000027
40
0.562500000000023
40
0.562500000000023
40
0.625000000000018
40
0.625000000000018
40
0.687500000000014
40
0.687500000000014
40
0.75000000000001
40
0.75000000000001
40
0.875000000000002
40
0.875000000000002
40
0.937500000000001
40
0.937500000000001
40
1
40
1
40
1
40
1
41
1
10
130.219664215463
20
0.689512181765906
30
0
41
1
10
130.429972924297
20
0.661128659919029
30
0
41
1
10
130.642626988009
20
0.637856953690573
30
0
41
1
10
130.966334468768
20
0.613250781937296
30
0
41
1
10
131.075091957834
20
0.606785018224116
30
0
41
1
10
131.291787330161
20
0.59792569588376
30
0
41
1
10
131.400025927605
20
0.595504354200472
30
0
41
1
10
131.724378416608
20
0.594928730616857
30
0
41
1
10
131.940133392353
20
0.603382076192446
30
0
41
1
10
132.370418086039
20
0.642845720364278
30
0
41
1
10
132.579645384882
20
0.673423520071168
30
0
41
1
10
132.881636997175
20
0.738031451830153
30
0
41
1
10
132.980393618886
20
0.762712947967628
30
0
41
1
10
133.173643443783
20
0.81910735727223
30
0
41
1
10
133.267459824666
20
0.850680473024767
30
0
41
1
10
133.445581519946
20
0.919668520501261
30
0
41
1
10
133.530433164216
20
0.95723384889132
30
0
41
1
10
133.691258362814
20
1.03884252931365
30
0
41
1
10
133.767731566502
20
1.08322890547507
30
0
41
1
10
133.97888081016
20
1.22444674034355
30
0
41
1
10
134.093997329669
20
1.32779611776769
30
0
41
1
10
134.227980372141
20
1.49670438150514
30
0
41
1
10
134.266071103706
20
1.55550860799821
30
0
41
1
10
134.326926387361
20
1.67407463550183
30
0
41
1
10
134.350097304047
20
1.73428036271292
30
0
41
1
10
134.366313783531
20
1.79537036660272
30
0
0
SPLINE
5
2CC
100
AcDbEntity
8
1
62
256
6
ByLayer
370
13
48
1
60
0
100
AcDbSpline
70
4
71
3
72
8
73
4
40
0
40
0
40
0
40
0
40
1
40
1
40
1
40
1
41
1
10
-2.84E-14
20
-11.9545279214844
30
0
41
1
10
0.166629472434494
20
-12.1008539172097
30
0
41
1
10
0.333297324521368
20
-12.2471471402828
30
0
41
1
10
0.499999999999972
20
-12.3934105886527
30
0
0
SPLINE
5
2CD
100
AcDbEntity
8
1
62
256
6
ByLayer
370
13
48
1
60
0
100
AcDbSpline
70
4
71
3
72
10
73
6
40
0
40
0
40
0
40
0
40
0.5
40
0.5
40
1
40
1
40
1
40
1
41
1
10
136.197735375983
20
2.68549732481293
30
0
41
1
10
135.948341867425
20
2.6724271648618
30
0
41
1
10
135.698562246096
20
2.65933676959779
30
0
41
1
10
135.198487303366
20
2.63312895237425
30
0
41
1
10
134.948201747381
20
2.62001204219843
30
0
41
1
10
134.697952855921
20
2.60689705352897
30
0
0
SPLINE
5
2CE
100
AcDbEntity
8
1
62
256
6
ByLayer
370
13
48
1
60
0
100
AcDbSpline
70
4
71
3
72
12
73
8
40
0
40
0
40
0
40
0
40
0.5
40
0.5
40
0.75
40
0.75
40
1
40
1
40
1
40
1
41
1
10
135.766999383691
20
2.8025086441084
30
0
41
1
10
135.862099126687
20
2.75938414997387
30
0
41
1
10
135.958221411303
20
2.73028741549567
30
0
41
1
10
136.104825069756
20
2.70354915632521
30
0
41
1
10
136.15427160341
20
2.69751822756012
30
0
41
1
10
136.253204274152
20
2.69124836882361
30
0
41
1
10
136.303111249472
20
2.6910198403325
30
0
41
1
10
136.351943403604
20
2.69357902508815
30
0
0
SPLINE
5
2CF
100
AcDbEntity
8
1
62
256
6
ByLayer
370
13
48
1
60
0
100
AcDbSpline
70
4
71
3
72
8
73
4
40
0
40
0
40
0
40
0
40
1
40
1
40
1
40
1
41
1
10
134.697952855921
20
2.60689705352897
30
0
41
1
10
134.694751315682
20
2.60672926791477
30
0
41
1
10
134.69154977082
20
2.60656148205828
30
0
41
1
10
134.688348221388
20
2.60639369596225
30
0
0
SPLINE
5
2D0
100
AcDbEntity
8
1
62
256
6
ByLayer
370
13
48
1
60
0
100
AcDbSpline
70
4
71
3
72
8
73
4
40
0
40
0
40
0
40
0
40
1
40
1
40
1
40
1
41
1
10
128.254070615451
20
0.519125604017518
30
0
41
1
10
128.56227714512
20
0.449595209914577
30
0
41
1
10
128.872413356883
20
0.409803976608316
30
0
41
1
10
129.184441501477
20
0.399831973841486
30
0
0
SPLINE
5
2D1
100
AcDbEntity
8
1
62
256
6
ByLayer
370
13
48
1
60
0
100
AcDbSpline
70
4
71
3
72
8
73
4
40
0
40
0
40
0
40
0
40
1
40
1
40
1
40
1
41
1
10
26.45
20
-7.2713244035869
30
0
41
1
10
26.3033333330103
20
-7.27129980031086
30
0
41
1
10
26.156666666323
20
-7.27127383243746
30
0
41
1
10
26.01
20
-7.27124646421299
30
0
0
SPLINE
5
2D2
100
AcDbEntity
8
1
62
256
6
ByLayer
370
13
48
1
60
0
100
AcDbSpline
70
4
71
3
72
8
73
4
40
0
40
0
40
0
40
0
40
1
40
1
40
1
40
1
41
1
10
129.356213053524
20
3.55512702343538
30
0
41
1
10
129.328290635013
20
3.54618464069768
30
0
41
1
10
129.298601161038
20
3.54143422941811
30
0
41
1
10
129.268008573667
20
3.54003820021001
30
0
0
SPLINE
5
2D3
100
AcDbEntity
8
1
62
256
6
ByLayer
370
13
48
1
60
0
100
AcDbSpline
70
4
71
3
72
24
73
20
40
0
40
0
40
0
40
0
40
0.0624999999999997
40
0.0624999999999997
40
0.124999999999999
40
0.124999999999999
40
0.25
40
0.25
40
0.3125
40
0.3125
40
0.34375
40
0.34375
40
0.374999999999999
40
0.374999999999999
40
0.499999999999999
40
0.499999999999999
40
0.75
40
0.75
40
1
40
1
40
1
40
1
41
1
10
24.2914794770159
20
-3.12765281977454
30
0
41
1
10
24.1205681573843
20
-3.15898486742916
30
0
41
1
10
23.9507863711117
20
-3.19500694316113
30
0
41
1
10
23.6134962767462
20
-3.27649098979191
30
0
41
1
10
23.445899753658
20
-3.32202919319718
30
0
41
1
10
22.954445974724
20
-3.47042237791433
30
0
41
1
10
22.6391041514771
20
-3.58559747733315
30
0
41
1
10
22.1835190481971
20
-3.78139038691498
30
0
41
1
10
22.034574429483
20
-3.85050955510377
30
0
41
1
10
21.8155135712306
20
-3.95994476499581
30
0
41
1
10
21.7432200155627
20
-3.99738352774762
30
0
41
1
10
21.6000918081672
20
-4.07418896511615
30
0
41
1
10
21.5287317515288
20
-4.11286464910012
30
0
41
1
10
21.1692349206234
20
-4.30264457462951
30
0
41
1
10
20.8768779575084
20
-4.44773746502318
30
0
41
1
10
19.9859774344811
20
-4.86345778182189
30
0
41
1
10
19.3736549213751
20
-5.1145985279741
30
0
41
1
10
18.1131715795161
20
-5.56619621375123
30
0
41
1
10
17.4650044823341
20
-5.76664428834351
30
0
41
1
10
16.7985869823569
20
-5.94128200138229
30
0
0
SPLINE
5
2D4
100
AcDbEntity
8
1
62
256
6
ByLayer
370
13
48
1
60
0
100
AcDbSpline
70
4
71
3
72
14
73
10
40
0
40
0
40
0
40
0
40
0.125
40
0.125
40
0.25
40
0.25
40
0.5
40
0.5
40
1
40
1
40
1
40
1
41
1
10
72.0000000000001
20
-2.59184062994407
30
0
41
1
10
70.2916705152698
20
-2.58934059542065
30
0
41
1
10
68.5833405588338
20
-2.58714236620239
30
0
41
1
10
65.1666766943499
20
-2.58531913958231
30
0
41
1
10
63.4583425345191
20
-2.58565121697268
30
0
41
1
10
58.3333404279269
20
-2.58843201092603
30
0
41
1
10
54.9166721532362
20
-2.59249798220304
30
0
41
1
10
44.6666680286402
20
-2.59710107940515
30
0
41
1
10
37.8333349231169
20
-2.59312206366391
30
0
41
1
10
31
20
-2.59269413268922
30
0
0
SPLINE
5
2D5
100
AcDbEntity
8
1
62
256
6
ByLayer
370
13
48
1
60
0
100
AcDbSpline
70
4
71
3
72
14
73
10
40
0
40
0
40
0
40
0
40
0.25
40
0.25
40
0.5
40
0.5
40
0.75
40
0.75
40
1
40
1
40
1
40
1
41
1
10
127.718403909916
20
0.966088188598064
30
0
41
1
10
127.827838176612
20
0.92241294070331
30
0
41
1
10
127.940406258246
20
0.887103063264732
30
0
41
1
10
128.171768455555
20
0.833518636373867
30
0
41
1
10
128.291163468723
20
0.81540237920504
30
0
41
1
10
128.526065567196
20
0.797974777424031
30
0
41
1
10
128.64282237886
20
0.79828020121829
30
0
41
1
10
128.874991090263
20
0.816737485594871
30
0
41
1
10
128.988727009534
20
0.834829204717209
30
0
41
1
10
129.098821164548
20
0.861123894881217
30
0
0
SPLINE
5
2D6
100
AcDbEntity
8
1
62
256
6
ByLayer
370
13
48
1
60
0
100
AcDbSpline
70
4
71
3
72
8
73
4
40
0
40
0
40
0
40
0
40
1
40
1
40
1
40
1
41
1
10
139.768064844098
20
-0.723657132730182
30
0
41
1
10
139.838393110385
20
-1.11839182860331
30
0
41
1
10
139.853331102449
20
-1.51042305442536
30
0
41
1
10
139.819400110927
20
-1.89930007465301
30
0
0
SPLINE
5
2D7
100
AcDbEntity
8
1
62
256
6
ByLayer
370
13
48
1
60
0
100
AcDbSpline
70
4
71
3
72
8
73
4
40
0
40
0
40
0
40
0
40
1
40
1
40
1
40
1
41
1
10
0.499999999999972
20
-14.9604105886527
30
0
41
1
10
0.333297324521339
20
-14.8141471402828
30
0
41
1
10
0.166629472434494
20
-14.6678539172097
30
0
41
1
10
-2.84E-14
20
-14.5215279214844
30
0
0
SPLINE
5
2D8
100
AcDbEntity
8
1
62
256
6
ByLayer
370
18
48
1
60
0
100
AcDbSpline
70
4
71
3
72
8
73
4
40
0
40
0
40
0
40
0
40
1
40
1
40
1
40
1
41
1
10
136.962679939424
20
4.33762570837808
30
0
41
1
10
136.957650747341
20
4.34248647069268
30
0
41
1
10
136.95261947502
20
4.34735017082264
30
0
41
1
10
136.947585983547
20
4.35221701483121
30
0
0
SPLINE
5
2D9
100
AcDbEntity
8
1
62
256
6
ByLayer
370
18
48
1
60
0
100
AcDbSpline
70
4
71
3
72
16
73
12
40
0
40
0
40
0
40
0
40
0.249999999999982
40
0.249999999999982
40
0.499999999999965
40
0.499999999999965
40
0.749999999999947
40
0.749999999999947
40
0.874999999999973
40
0.874999999999973
40
1
40
1
40
1
40
1
41
1
10
136.331012914551
20
4.30078817086908
30
0
41
1
10
136.310471996088
20
4.31130239007487
30
0
41
1
10
136.290722558373
20
4.32351116618764
30
0
41
1
10
136.253674074535
20
4.35139148677331
30
0
41
1
10
136.236368354466
20
4.36701130792613
30
0
41
1
10
136.206645727442
20
4.4023443534974
30
0
41
1
10
136.193855739072
20
4.42248682328298
30
0
41
1
10
136.1857233433
20
4.45428576271863
30
0
41
1
10
136.185038469064
20
4.46520534029474
30
0
41
1
10
136.189314778406
20
4.48491278152469
30
0
41
1
10
136.194257264365
20
4.49357231923682
30
0
41
1
10
136.201174780438
20
4.50033350078292
30
0
0
SPLINE
5
2DA
100
AcDbEntity
8
1
62
256
6
ByLayer
370
18
48
1
60
0
100
AcDbSpline
70
4
71
3
72
18
73
14
40
0
40
0
40
0
40
0
40
0.12500000000005
40
0.12500000000005
40
0.2500000000001
40
0.2500000000001
40
0.500000000000009
40
0.500000000000009
40
0.749999999999918
40
0.749999999999918
40
0.874999999999959
40
0.874999999999959
40
1
40
1
40
1
40
1
41
1
10
136.947585983547
20
4.35221701483121
30
0
41
1
10
136.935883457559
20
4.36353209677932
30
0
41
1
10
136.921535899728
20
4.37214863472587
30
0
41
1
10
136.890525645368
20
4.38612270216078
30
0
41
1
10
136.873919287476
20
4.39135143844857
30
0
41
1
10
136.822840955812
20
4.40300388318298
30
0
41
1
10
136.787082246537
20
4.40550072086796
30
0
41
1
10
136.716703699046
20
4.40180801171223
30
0
41
1
10
136.682248196072
20
4.39564169547123
30
0
41
1
10
136.634923029025
20
4.37882153421637
30
0
41
1
10
136.619908482286
20
4.37193544816728
30
0
41
1
10
136.592805085108
20
4.35491857136998
30
0
41
1
10
136.5807440921
20
4.34492065820555
30
0
41
1
10
136.571791060701
20
4.33252243745898
30
0
0
SPLINE
5
2DB
100
AcDbEntity
8
1
62
256
6
ByLayer
370
18
48
1
60
0
100
AcDbSpline
70
4
71
3
72
16
73
12
40
0
40
0
40
0
40
0
40
0.125
40
0.125
40
0.25
40
0.25
40
0.5
40
0.5
40
0.75
40
0.75
40
1
40
1
40
1
40
1
41
1
10
137.483447129472
20
4.91850763419663
30
0
41
1
10
137.493571082151
20
4.91544427591322
30
0
41
1
10
137.504423251106
20
4.9150509513332
30
0
41
1
10
137.525070317653
20
4.92044393830435
30
0
41
1
10
137.534787357634
20
4.92617098404074
30
0
41
1
10
137.559648862547
20
4.94821704619272
30
0
41
1
10
137.571318582296
20
4.96908126672952
30
0
41
1
10
137.587849648684
20
5.01208291102168
30
0
41
1
10
137.592948475093
20
5.03483360763363
30
0
41
1
10
137.598812851634
20
5.08074571851608
30
0
41
1
10
137.599544123076
20
5.1040141355015
30
0
41
1
10
137.59833188187
20
5.12714507564314
30
0
0
SPLINE
5
2DC
100
AcDbEntity
8
1
62
256
6
ByLayer
370
18
48
1
60
0
100
AcDbSpline
70
4
71
3
72
8
73
4
40
0
40
0
40
0
40
0
40
1
40
1
40
1
40
1
41
1
10
137.462267929032
20
5.32263085273428
30
0
41
1
10
137.455249825611
20
5.32357020792856
30
0
41
1
10
137.448228459381
20
5.32451016933936
30
0
41
1
10
137.441203608623
20
5.3254507797684
30
0
0
SPLINE
5
2DD
100
AcDbEntity
8
1
62
256
6
ByLayer
370
18
48
1
60
0
100
AcDbSpline
70
4
71
3
72
16
73
12
40
0
40
0
40
0
40
0
40
0.25000000000007
40
0.25000000000007
40
0.500000000000139
40
0.500000000000139
40
0.750000000000209
40
0.750000000000209
40
0.875000000000105
40
0.875000000000105
40
1
40
1
40
1
40
1
41
1
10
137.202370663251
20
4.3464540954395
30
0
41
1
10
137.183041305264
20
4.33385036358553
30
0
41
1
10
137.162617768854
20
4.32282672660492
30
0
41
1
10
137.11993677777
20
4.30475477090701
30
0
41
1
10
137.097722366056
20
4.29767202300326
30
0
41
1
10
137.052072296356
20
4.29001366339128
30
0
41
1
10
137.028079181601
20
4.28932976077047
30
0
41
1
10
136.996020712267
20
4.2990558380074
30
0
41
1
10
136.986028128025
20
4.30428598852077
30
0
41
1
10
136.970639010575
20
4.31868760940625
30
0
41
1
10
136.965346515363
20
4.32777440204558
30
0
41
1
10
136.962679939424
20
4.33762570837808
30
0
0
SPLINE
5
2DE
100
AcDbEntity
8
1
62
256
6
ByLayer
370
18
48
1
60
0
100
AcDbSpline
70
4
71
3
72
16
73
12
40
0
40
0
40
0
40
0
40
0.250000000000001
40
0.250000000000001
40
0.500000000000001
40
0.500000000000001
40
0.750000000000002
40
0.750000000000002
40
0.875000000000001
40
0.875000000000001
40
1
40
1
40
1
40
1
41
1
10
136.251577603089
20
5.81650420670593
30
0
41
1
10
136.270906961077
20
5.8291079385599
30
0
41
1
10
136.291226673632
20
5.84012613436286
30
0
41
1
10
136.333435825813
20
5.85817336203166
30
0
41
1
10
136.355288725969
20
5.86523716391747
30
0
41
1
10
136.399725146558
20
5.87283191887471
30
0
41
1
10
136.422862810116
20
5.87347098919801
30
0
41
1
10
136.45281773947
20
5.8636346701021
30
0
41
1
10
136.461952562812
20
5.85835956624479
30
0
41
1
10
136.475395002905
20
5.84385592432204
30
0
41
1
10
136.47960854736
20
5.83471258626966
30
0
41
1
10
136.481204001549
20
5.82480514482484
30
0
0
SPLINE
5
2DF
100
AcDbEntity
8
1
62
256
6
ByLayer
370
18
48
1
60
0
100
AcDbSpline
70
4
71
3
72
16
73
12
40
0
40
0
40
0
40
0
40
0.125
40
0.125
40
0.25
40
0.25
40
0.5
40
0.5
40
0.75
40
0.75
40
1
40
1
40
1
40
1
41
1
10
135.981616011941
20
4.83980000046861
30
0
41
1
10
135.972928189191
20
4.83574615486771
30
0
41
1
10
135.963275487958
20
4.83427142222502
30
0
41
1
10
135.944014958216
20
4.83761992613501
30
0
41
1
10
135.934601734255
20
4.84238652919396
30
0
41
1
10
135.909738561383
20
4.86181948390487
30
0
41
1
10
135.896829134783
20
4.8813633028237
30
0
41
1
10
135.877108582876
20
4.92248548469934
30
0
41
1
10
135.870027690734
20
4.94459531020311
30
0
41
1
10
135.859874600256
20
4.98966968390539
30
0
41
1
10
135.856827398726
20
5.0127056979639
30
0
41
1
10
135.85561638447
20
5.03581322650228
30
0
0
SPLINE
5
2E0
100
AcDbEntity
8
1
62
256
6
ByLayer
370
18
48
1
60
0
100
AcDbSpline
70
4
71
3
72
16
73
12
40
0
40
0
40
0
40
0
40
0.125000000000001
40
0.125000000000001
40
0.250000000000002
40
0.250000000000002
40
0.500000000000002
40
0.500000000000002
40
0.750000000000001
40
0.750000000000001
40
1
40
1
40
1
40
1
41
1
10
136.883634861093
20
5.84589565248851
30
0
41
1
10
136.885259855622
20
5.85598891995215
30
0
41
1
10
136.889600062561
20
5.86563672016484
30
0
41
1
10
136.90353373555
20
5.88164058145406
30
0
41
1
10
136.912968944027
20
5.8878477784593
30
0
41
1
10
136.943665704484
20
5.90073697267098
30
0
41
1
10
136.967592791645
20
5.9025919303399
30
0
41
1
10
137.013789029387
20
5.89974154150514
30
0
41
1
10
137.036656090626
20
5.89500802874849
30
0
41
1
10
137.080940800415
20
5.88150708324926
30
0
41
1
10
137.102403694015
20
5.87267961024048
30
0
41
1
10
137.122935351789
20
5.86217013127637
30
0
0
SPLINE
5
2E1
100
AcDbEntity
8
1
62
256
6
ByLayer
370
18
48
1
60
0
100
AcDbSpline
70
4
71
3
72
8
73
4
40
0
40
0
40
0
40
0
40
1
40
1
40
1
40
1
41
1
10
137.462792964254
20
4.91350133397569
30
0
41
1
10
137.469681011581
20
4.91517108849678
30
0
41
1
10
137.476565661311
20
4.91683983332271
30
0
41
1
10
137.483447129472
20
4.91850763419663
30
0
0
SPLINE
5
2E2
100
AcDbEntity
8
1
62
256
6
ByLayer
370
18
48
1
60
0
100
AcDbSpline
70
4
71
3
72
18
73
14
40
0
40
0
40
0
40
0
40
0.124999999999998
40
0.124999999999998
40
0.249999999999996
40
0.249999999999996
40
0.499999999999997
40
0.499999999999997
40
0.749999999999999
40
0.749999999999999
40
0.874999999999999
40
0.874999999999999
40
1
40
1
40
1
40
1
41
1
10
136.205762948808
20
4.51988016494826
30
0
41
1
10
136.209323110627
20
4.535037925501
30
0
41
1
10
136.209277752551
20
4.55123681395284
30
0
41
1
10
136.205295548712
20
4.58417241353698
30
0
41
1
10
136.201279169782
20
4.60080236347147
30
0
41
1
10
136.18524876086
20
4.65002315886497
30
0
41
1
10
136.169331787344
20
4.68202205433818
30
0
41
1
10
136.130931003129
20
4.74138734045809
30
0
41
1
10
136.10854890504
20
4.76862132381686
30
0
41
1
10
136.070883435518
20
4.80240326226726
30
0
41
1
10
136.057647889549
20
4.81244671582513
30
0
41
1
10
136.029926681099
20
4.82853350034611
30
0
41
1
10
136.015566221607
20
4.83461243932729
30
0
41
1
10
136.000736250406
20
4.83687818841705
30
0
0
SPLINE
5
2E3
100
AcDbEntity
8
1
62
256
6
ByLayer
370
18
48
1
60
0
100
AcDbSpline
70
4
71
3
72
8
73
4
40
0
40
0
40
0
40
0
40
1
40
1
40
1
40
1
41
1
10
136.481204001549
20
5.82480514482481
30
0
41
1
10
136.485583694472
20
5.81991034370159
30
0
41
1
10
136.489966901512
20
5.8150126799095
30
0
41
1
10
136.494353875481
20
5.81011195335427
30
0
0
SPLINE
5
2E4
100
AcDbEntity
8
1
62
256
6
ByLayer
370
18
48
1
60
0
100
AcDbSpline
70
4
71
3
72
8
73
4
40
0
40
0
40
0
40
0
40
1
40
1
40
1
40
1
41
1
10
137.242709160535
20
5.66209735241998
30
0
41
1
10
137.240532134877
20
5.65555176982716
30
0
41
1
10
137.238354724828
20
5.64900234304022
30
0
41
1
10
137.23617691022
20
5.64244880323722
30
0
0
SPLINE
5
2E5
100
AcDbEntity
8
1
62
256
6
ByLayer
370
18
48
1
60
0
100
AcDbSpline
70
4
71
3
72
16
73
12
40
0
40
0
40
0
40
0
40
0.25
40
0.25
40
0.5
40
0.5
40
0.75
40
0.75
40
0.875
40
0.875
40
1
40
1
40
1
40
1
41
1
10
137.59833188187
20
5.12714507564314
30
0
41
1
10
137.597119538843
20
5.15027795865132
30
0
41
1
10
137.593958973816
20
5.17334701322417
30
0
41
1
10
137.583327643853
20
5.2183915432997
30
0
41
1
10
137.575861656698
20
5.24051733479189
30
0
41
1
10
137.554960347256
20
5.28148752603116
30
0
41
1
10
137.541369133282
20
5.30085989809024
30
0
41
1
10
137.514175104566
20
5.32036130367618
30
0
41
1
10
137.503875899603
20
5.32505597309242
30
0
41
1
10
137.482740627901
20
5.32826374182636
30
0
41
1
10
137.472036610828
20
5.32674425976313
30
0
41
1
10
137.462267929032
20
5.32263085273428
30
0
0
SPLINE
5
2E6
100
AcDbEntity
8
1
62
256
6
ByLayer
370
18
48
1
60
0
100
AcDbSpline
70
4
71
3
72
16
73
12
40
0
40
0
40
0
40
0
40
0.125000000000016
40
0.125000000000016
40
0.250000000000031
40
0.250000000000031
40
0.500000000000021
40
0.500000000000021
40
0.75000000000001
40
0.75000000000001
40
1
40
1
40
1
40
1
41
1
10
136.143308902548
20
5.60448022635569
30
0
41
1
10
136.135709599532
20
5.61049153276576
30
0
41
1
10
136.129854396441
20
5.61863615817296
30
0
41
1
10
136.123548922776
20
5.63793723623303
30
0
41
1
10
136.12314338278
20
5.64888863068688
30
0
41
1
10
136.127933982751
20
5.68115611894487
30
0
41
1
10
136.138522673821
20
5.7025324141942
30
0
41
1
10
136.164391810733
20
5.74077241935302
30
0
41
1
10
136.179997080343
20
5.75813925155978
30
0
41
1
10
136.213893195038
20
5.78970033748885
30
0
41
1
10
136.23225695957
20
5.80390615713168
30
0
41
1
10
136.251577603089
20
5.81650420670593
30
0
0
SPLINE
5
2E7
100
AcDbEntity
8
1
62
256
6
ByLayer
370
18
48
1
60
0
100
AcDbSpline
70
4
71
3
72
8
73
4
40
0
40
0
40
0
40
0
40
1
40
1
40
1
40
1
41
1
10
136.870148798328
20
5.8298065307265
30
0
41
1
10
136.874645992082
20
5.83517285678286
30
0
41
1
10
136.879141307466
20
5.84053582421853
30
0
41
1
10
136.883634861093
20
5.84589565248851
30
0
0
SPLINE
5
2E8
100
AcDbEntity
8
1
62
256
6
ByLayer
370
18
48
1
60
0
100
AcDbSpline
70
4
71
3
72
8
73
4
40
0
40
0
40
0
40
0
40
1
40
1
40
1
40
1
41
1
10
136.149915119219
20
5.58552023505081
30
0
41
1
10
136.147710720967
20
5.59184411280953
30
0
41
1
10
136.145508702761
20
5.5981640234871
30
0
41
1
10
136.143308902548
20
5.60448022635569
30
0
0
SPLINE
5
2E9
100
AcDbEntity
8
1
62
256
6
ByLayer
370
18
48
1
60
0
100
AcDbSpline
70
4
71
3
72
16
73
12
40
0
40
0
40
0
40
0
40
0.25000000000005
40
0.25000000000005
40
0.5000000000001
40
0.5000000000001
40
0.750000000000149
40
0.750000000000149
40
0.875000000000075
40
0.875000000000075
40
1
40
1
40
1
40
1
41
1
10
135.85561638447
20
5.03581322650228
30
0
41
1
10
135.854404823994
20
5.05893117756204
30
0
41
1
10
135.855027010762
20
5.08216087006662
30
0
41
1
10
135.860423598557
20
5.12810078233562
30
0
41
1
10
135.865151534422
20
5.15079387838324
30
0
41
1
10
135.880472152543
20
5.1937534812391
30
0
41
1
10
135.891247553329
20
5.21455743749675
30
0
41
1
10
135.914121856902
20
5.23657517876597
30
0
41
1
10
135.923000686457
20
5.24224212915675
30
0
41
1
10
135.941692774571
20
5.24749693898258
30
0
41
1
10
135.951388280364
20
5.24704141134887
30
0
41
1
10
135.9604368115
20
5.24392321900629
30
0
0
SPLINE
5
2EA
100
AcDbEntity
8
1
62
256
6
ByLayer
370
18
48
1
60
0
100
AcDbSpline
70
4
71
3
72
16
73
12
40
0
40
0
40
0
40
0
40
0.125000000000093
40
0.125000000000093
40
0.250000000000187
40
0.250000000000187
40
0.500000000000124
40
0.500000000000124
40
0.750000000000062
40
0.750000000000062
40
1
40
1
40
1
40
1
41
1
10
136.560249079879
20
4.31653520071438
30
0
41
1
10
136.55969703494
20
4.30649816415604
30
0
41
1
10
136.556442245595
20
4.29690724826898
30
0
41
1
10
136.54446580643
20
4.28100596125799
30
0
41
1
10
136.535885646979
20
4.27484357547348
30
0
41
1
10
136.507274861748
20
4.26206370259098
30
0
41
1
10
136.48420571357
20
4.26025370759893
30
0
41
1
10
136.439222573673
20
4.26316767219782
30
0
41
1
10
136.416717311407
20
4.26792014603521
30
0
41
1
10
136.372903610852
20
4.28144577608239
30
0
41
1
10
136.351544572326
20
4.29027869190494
30
0
41
1
10
136.331012914551
20
4.30078817086908
30
0
0
SPLINE
5
2EB
100
AcDbEntity
8
1
62
256
6
ByLayer
370
18
48
1
60
0
100
AcDbSpline
70
4
71
3
72
8
73
4
40
0
40
0
40
0
40
0
40
1
40
1
40
1
40
1
41
1
10
136.201174780438
20
4.50033350078292
30
0
41
1
10
136.202702306936
20
4.50684504456711
30
0
41
1
10
136.204231651704
20
4.51336050769188
30
0
41
1
10
136.205762948808
20
4.51988016494826
30
0
0
SPLINE
5
2EC
100
AcDbEntity
8
1
62
256
6
ByLayer
370
18
48
1
60
0
100
AcDbSpline
70
4
71
3
72
18
73
14
40
0
40
0
40
0
40
0
40
0.125000000000023
40
0.125000000000023
40
0.250000000000046
40
0.250000000000046
40
0.500000000000092
40
0.500000000000092
40
0.750000000000138
40
0.750000000000138
40
0.875000000000069
40
0.875000000000069
40
1
40
1
40
1
40
1
41
1
10
136.494353875481
20
5.81011195335427
30
0
41
1
10
136.50455329216
20
5.79871809678522
30
0
41
1
10
136.51759620524
20
5.79003318530445
30
0
41
1
10
136.546337664042
20
5.77594021533275
30
0
41
1
10
136.5619945695
20
5.7706617203514
30
0
41
1
10
136.610784971437
20
5.75888937030081
30
0
41
1
10
136.645765187576
20
5.75635173351941
30
0
41
1
10
136.716144476628
20
5.76004448153873
30
0
41
1
10
136.751376787022
20
5.7662515085315
30
0
41
1
10
136.800991564719
20
5.78319166319594
30
0
41
1
10
136.816955545781
20
5.79012750698948
30
0
41
1
10
136.846327293232
20
5.80726326298722
30
0
41
1
10
136.859692578622
20
5.81732953121895
30
0
41
1
10
136.870148798328
20
5.8298065307265
30
0
0
SPLINE
5
2ED
100
AcDbEntity
8
1
62
256
6
ByLayer
370
18
48
1
60
0
100
AcDbSpline
70
4
71
3
72
18
73
14
40
0
40
0
40
0
40
0
40
0.124999999999988
40
0.124999999999988
40
0.249999999999976
40
0.249999999999976
40
0.499999999999984
40
0.499999999999984
40
0.749999999999992
40
0.749999999999992
40
0.874999999999996
40
0.874999999999996
40
1
40
1
40
1
40
1
41
1
10
137.292024739809
20
4.57680873313464
30
0
41
1
10
137.285363178268
20
4.59150618258207
30
0
41
1
10
137.282424999179
20
4.60757616238158
30
0
41
1
10
137.280695619267
20
4.64073535426297
30
0
41
1
10
137.281998477567
20
4.65743432990888
30
0
41
1
10
137.290508660207
20
4.70794836383985
30
0
41
1
10
137.302024309262
20
4.74092290561168
30
0
41
1
10
137.333974537024
20
4.80409414405688
30
0
41
1
10
137.354265606287
20
4.83375799240636
30
0
41
1
10
137.390518075693
20
4.87148560896418
30
0
41
1
10
137.403594868198
20
4.88292984265271
30
0
41
1
10
137.431784490084
20
4.90198261711464
30
0
41
1
10
137.446755333192
20
4.90961359835208
30
0
41
1
10
137.462792964254
20
4.91350133397569
30
0
0
SPLINE
5
2EE
100
AcDbEntity
8
1
62
256
6
ByLayer
370
18
48
1
60
0
100
AcDbSpline
70
4
71
3
72
16
73
12
40
0
40
0
40
0
40
0
40
0.249999999999998
40
0.249999999999998
40
0.499999999999996
40
0.499999999999996
40
0.749999999999994
40
0.749999999999994
40
0.874999999999997
40
0.874999999999997
40
1
40
1
40
1
40
1
41
1
10
137.122935351789
20
5.86217013127637
30
0
41
1
10
137.143476270253
20
5.85165591207058
30
0
41
1
10
137.163121884114
20
5.83944169478013
30
0
41
1
10
137.199698529048
20
5.81153664616539
30
0
41
1
10
137.216642737559
20
5.7958978789946
30
0
41
1
10
137.245151715471
20
5.76050122876859
30
0
41
1
10
137.257086252645
20
5.7403139266855
30
0
41
1
10
137.263115108437
20
5.70840474539088
30
0
41
1
10
137.262942221773
20
5.69744021447082
30
0
41
1
10
137.256719235074
20
5.67763075220361
30
0
41
1
10
137.250697798358
20
5.66891466907839
30
0
41
1
10
137.242709160535
20
5.66209735242001
30
0
0
SPLINE
5
2EF
100
AcDbEntity
8
1
62
256
6
ByLayer
370
18
48
1
60
0
100
AcDbSpline
70
4
71
3
72
16
73
12
40
0
40
0
40
0
40
0
40
0.124999999999991
40
0.124999999999991
40
0.249999999999982
40
0.249999999999982
40
0.499999999999988
40
0.499999999999988
40
0.749999999999994
40
0.749999999999994
40
1
40
1
40
1
40
1
41
1
10
137.300575038425
20
4.55795062684723
30
0
41
1
10
137.309247291031
20
4.55199555134243
30
0
41
1
10
137.316187911715
20
4.54390781026089
30
0
41
1
10
137.324450619204
20
4.52470930647905
30
0
41
1
10
137.325711208227
20
4.51380272324587
30
0
41
1
10
137.323006583481
20
4.48164455631709
30
0
41
1
10
137.313275831394
20
4.46031322374463
30
0
41
1
10
137.288619792327
20
4.42213679434991
30
0
41
1
10
137.27337632169
20
4.40478892322395
30
0
41
1
10
137.239951216229
20
4.37325252184283
30
0
41
1
10
137.22169130677
20
4.35905214501375
30
0
41
1
10
137.202370663251
20
4.3464540954395
30
0
0
SPLINE
5
2F0
100
AcDbEntity
8
1
62
256
6
ByLayer
370
18
48
1
60
0
100
AcDbSpline
70
4
71
3
72
8
73
4
40
0
40
0
40
0
40
0
40
1
40
1
40
1
40
1
41
1
10
137.292024739809
20
4.57680873313464
30
0
41
1
10
137.294875655565
20
4.57051873792258
30
0
41
1
10
137.297725739051
20
4.56423279090717
30
0
41
1
10
137.300575038425
20
4.55795062684723
30
0
0
SPLINE
5
2F1
100
AcDbEntity
8
1
62
256
6
ByLayer
370
18
48
1
60
0
100
AcDbSpline
70
4
71
3
72
18
73
14
40
0
40
0
40
0
40
0
40
0.124999999999998
40
0.124999999999998
40
0.249999999999997
40
0.249999999999997
40
0.499999999999998
40
0.499999999999998
40
0.749999999999999
40
0.749999999999999
40
0.874999999999999
40
0.874999999999999
40
1
40
1
40
1
40
1
41
1
10
135.979146894775
20
5.24882763420979
30
0
41
1
10
135.993658027927
20
5.25263092550395
30
0
41
1
10
136.007307905307
20
5.26017908924214
30
0
41
1
10
136.033201558049
20
5.27908117012299
30
0
41
1
10
136.045316810794
20
5.29045750442288
30
0
41
1
10
136.079220768673
20
5.3279659024239
30
0
41
1
10
136.098673257863
20
5.3574475606639
30
0
41
1
10
136.130651391921
20
5.42050557537135
30
0
41
1
10
136.143113200516
20
5.45392623034701
30
0
41
1
10
136.153917703365
20
5.50458832675704
30
0
41
1
10
136.156171421297
20
5.52154274523622
30
0
41
1
10
136.15668778516
20
5.55470584615472
30
0
41
1
10
136.155040464868
20
5.570816875834
30
0
41
1
10
136.149915119219
20
5.58552023505081
30
0
0
SPLINE
5
2F2
100
AcDbEntity
8
1
62
256
6
ByLayer
370
18
48
1
60
0
100
AcDbSpline
70
4
71
3
72
8
73
4
40
0
40
0
40
0
40
0
40
1
40
1
40
1
40
1
41
1
10
136.571791060701
20
4.33252243745898
30
0
41
1
10
136.56794038445
20
4.32718999394925
30
0
41
1
10
136.564093134347
20
4.32186099017574
30
0
41
1
10
136.560249079879
20
4.31653520071438
30
0
0
SPLINE
5
2F3
100
AcDbEntity
8
1
62
256
6
ByLayer
370
18
48
1
60
0
100
AcDbSpline
70
4
71
3
72
8
73
4
40
0
40
0
40
0
40
0
40
1
40
1
40
1
40
1
41
1
10
135.9604368115
20
5.24392321900629
30
0
41
1
10
135.966668780501
20
5.24555698107156
30
0
41
1
10
135.972905364951
20
5.2471917622353
30
0
41
1
10
135.979146894775
20
5.24882763420979
30
0
0
SPLINE
5
2F4
100
AcDbEntity
8
1
62
256
6
ByLayer
370
18
48
1
60
0
100
AcDbSpline
70
4
71
3
72
8
73
4
40
0
40
0
40
0
40
0
40
1
40
1
40
1
40
1
41
1
10
136.000736250406
20
4.83687818841705
30
0
41
1
10
135.994357917151
20
4.83785268139272
30
0
41
1
10
135.987984616202
20
4.83882660646572
30
0
41
1
10
135.981616011941
20
4.83980000046864
30
0
0
SPLINE
5
2F5
100
AcDbEntity
8
1
62
256
6
ByLayer
370
18
48
1
60
0
100
AcDbSpline
70
4
71
3
72
18
73
14
40
0
40
0
40
0
40
0
40
0.125000000000008
40
0.125000000000008
40
0.250000000000015
40
0.250000000000015
40
0.500000000000027
40
0.500000000000027
40
0.750000000000039
40
0.750000000000039
40
0.87500000000002
40
0.87500000000002
40
1
40
1
40
1
40
1
41
1
10
137.441203608623
20
5.3254507797684
30
0
41
1
10
137.424842995981
20
5.32764142600513
30
0
41
1
10
137.409147537088
20
5.3336699281638
30
0
41
1
10
137.379105205466
20
5.34968473156536
30
0
41
1
10
137.364897690697
20
5.35970826815174
30
0
41
1
10
137.324918591965
20
5.39343301266834
30
0
41
1
10
137.301686692206
20
5.42075131245406
30
0
41
1
10
137.263292204699
20
5.48024679639468
30
0
41
1
10
137.248384212317
20
5.51185289041317
30
0
41
1
10
137.234638362842
20
5.5611935548711
30
0
41
1
10
137.231600970527
20
5.57764850020274
30
0
41
1
10
137.229844862477
20
5.61073482724106
30
0
41
1
10
137.231087844113
20
5.62713464510031
30
0
41
1
10
137.23617691022
20
5.64244880323722
30
0
0
SPLINE
5
2F6
100
AcDbEntity
8
1
62
256
6
ByLayer
370
18
48
1
60
0
100
AcDbSpline
70
4
71
1
72
4
73
2
40
0
40
0
40
1
40
1
41
1
10
140.996601393078
20
-2.25582869852556
30
0
41
1
10
140.773297229694
20
-2.034168230224
30
0
0
SPLINE
5
2F7
100
AcDbEntity
8
1
62
256
6
ByLayer
370
18
48
1
60
0
100
AcDbSpline
70
4
71
2
72
6
73
3
40
0
40
0
40
0
40
1
40
1
40
1
41
1
10
140.773297229694
20
-2.03416823022391
30
0
41
1
10
140.780867388565
20
-1.97711639480411
30
0
41
1
10
140.771794621391
20
-1.92028072518934
30
0
0
SPLINE
5
2F8
100
AcDbEntity
8
1
62
256
6
ByLayer
370
18
48
1
60
0
100
AcDbSpline
70
4
71
1
72
4
73
2
40
0
40
0
40
1
40
1
41
1
10
140.962234739906
20
-1.93606684888064
30
0
41
1
10
140.919935961864
20
-1.67108932578182
30
0
0
SPLINE
5
2F9
100
AcDbEntity
8
1
62
256
6
ByLayer
370
18
48
1
60
0
100
AcDbSpline
70
4
71
1
72
4
73
2
40
0
40
0
40
1
40
1
41
1
10
140.67589676778
20
-0.142324094679338
30
0
41
1
10
140.459720217171
20
0.0346859779224076
30
0
0
SPLINE
5
2FA
100
AcDbEntity
8
1
62
256
6
ByLayer
370
18
48
1
60
0
100
AcDbSpline
70
4
71
3
72
12
73
8
40
0
40
0
40
0
40
0
40
0.500000000000078
40
0.500000000000078
40
0.750000000000039
40
0.750000000000039
40
1
40
1
40
1
40
1
41
1
10
140.692294924851
20
-4.54928675637777
30
0
41
1
10
140.684589211584
20
-4.60625573353519
30
0
41
1
10
140.659643104723
20
-4.66081627970487
30
0
41
1
10
140.602958221327
20
-4.72618022772178
30
0
41
1
10
140.580786774323
20
-4.74516815938227
30
0
41
1
10
140.531928488754
20
-4.77615657224237
30
0
41
1
10
140.505226313808
20
-4.78788109729118
30
0
41
1
10
140.477552673186
20
-4.79655736438718
30
0
0
SPLINE
5
2FB
100
AcDbEntity
8
1
62
256
6
ByLayer
370
18
48
1
60
0
100
AcDbSpline
70
4
71
1
72
4
73
2
40
0
40
0
40
1
40
1
41
1
10
140.771794621391
20
-1.92028072518929
30
0
41
1
10
140.99509878477
20
-2.14194119349193
30
0
0
SPLINE
5
2FC
100
AcDbEntity
8
1
62
256
6
ByLayer
370
18
48
1
60
0
100
AcDbSpline
70
4
71
1
72
4
73
2
40
0
40
0
40
1
40
1
41
1
10
140.692294924851
20
-4.54920758657931
30
0
41
1
10
140.925013445274
20
-2.79534496017692
30
0
0
SPLINE
5
2FD
100
AcDbEntity
8
1
62
256
6
ByLayer
370
18
48
1
60
0
100
AcDbSpline
70
4
71
2
72
11
73
8
40
0
40
0
40
0
40
0.25
40
0.5
40
0.75
40
0.75
40
0.875
40
1
40
1
40
1
41
1
10
140.277344753969
20
-4.40075791107887
30
0
41
1
10
140.318902571241
20
-4.38893449709036
30
0
41
1
10
140.39238541006
20
-4.34266002740793
30
0
41
1
10
140.449844723741
20
-4.27704883462209
30
0
41
1
10
140.468330461589
20
-4.23655823026203
30
0
41
1
10
140.476915556614
20
-4.21775369625107
30
0
41
1
10
140.48915811246
20
-4.17555765428244
30
0
41
1
10
140.492087005632
20
-4.15348430892738
30
0
0
SPLINE
5
2FE
100
AcDbEntity
8
1
62
256
6
ByLayer
370
18
48
1
60
0
100
AcDbSpline
70
4
71
1
72
4
73
2
40
0
40
0
40
1
40
1
41
1
10
140.964140219956
20
-2.50046946989494
30
0
41
1
10
140.985164448309
20
-2.34202222517055
30
0
0
SPLINE
5
2FF
100
AcDbEntity
8
1
62
256
6
ByLayer
370
18
48
1
60
0
100
AcDbSpline
70
4
71
3
72
8
73
4
40
0
40
0
40
0
40
0
40
1
40
1
40
1
40
1
41
1
10
141.000010820439
20
-2.19883090456645
30
0
41
1
10
141.000262431238
20
-2.21790129346687
30
0
41
1
10
140.999107949102
20
-2.23691162198622
30
0
41
1
10
140.997172589599
20
-2.25588605549544
30
0
0
SPLINE
5
300
100
AcDbEntity
8
1
62
256
6
ByLayer
370
18
48
1
60
0
100
AcDbSpline
70
4
71
3
72
8
73
4
40
0
40
0
40
0
40
0
40
1
40
1
40
1
40
1
41
1
10
140.995438223035
20
-2.14189621662462
30
0
41
1
10
140.997982855601
20
-2.16080359181706
30
0
41
1
10
140.999759285501
20
-2.17976626574949
30
0
41
1
10
141.000010820439
20
-2.19883090456645
30
0
0
SPLINE
5
301
100
AcDbEntity
8
1
62
256
6
ByLayer
370
18
48
1
60
0
100
AcDbSpline
70
4
71
1
72
4
73
2
40
0
40
0
40
1
40
1
41
1
10
140.919935961864
20
-1.67108932578182
30
0
41
1
10
140.67589676778
20
-0.142324094679367
30
0
0
SPLINE
5
302
100
AcDbEntity
8
1
62
256
6
ByLayer
370
18
48
1
60
0
100
AcDbSpline
70
4
71
1
72
4
73
2
40
0
40
0
40
1
40
1
41
1
10
140.477552673186
20
-4.79648118873107
30
0
41
1
10
140.277344753969
20
-4.40075791107881
30
0
0
SPLINE
5
303
100
AcDbEntity
8
1
62
256
6
ByLayer
370
18
48
1
60
0
100
AcDbSpline
70
4
71
1
72
4
73
2
40
0
40
0
40
1
40
1
41
1
10
140.985164448309
20
-2.34202222517055
30
0
41
1
10
140.996601393078
20
-2.25582869852556
30
0
0
SPLINE
5
304
100
AcDbEntity
8
1
62
256
6
ByLayer
370
18
48
1
60
0
100
AcDbSpline
70
4
71
2
72
6
73
3
40
0
40
0
40
0
40
1
40
1
40
1
41
1
10
140.459720217171
20
0.0346859779224644
30
0
41
1
10
140.455893040467
20
0.0586610394043703
30
0
41
1
10
140.449149559315
20
0.0819946227852029
30
0
0
SPLINE
5
305
100
AcDbEntity
8
1
62
256
6
ByLayer
370
18
48
1
60
0
100
AcDbSpline
70
4
71
1
72
4
73
2
40
0
40
0
40
1
40
1
41
1
10
140.99509878477
20
-2.14194119349193
30
0
41
1
10
140.984092223521
20
-2.07299141592065
30
0
0
SPLINE
5
306
100
AcDbEntity
8
1
62
256
6
ByLayer
370
18
48
1
60
0
100
AcDbSpline
70
4
71
1
72
4
73
2
40
0
40
0
40
1
40
1
41
1
10
140.135922552051
20
0.516531988969774
30
0
41
1
10
140.308432732008
20
0.490614931466069
30
0
0
SPLINE
5
307
100
AcDbEntity
8
1
62
256
6
ByLayer
370
18
48
1
60
0
100
AcDbSpline
70
4
71
2
72
6
73
3
40
0
40
0
40
0
40
1
40
1
40
1
41
1
10
140.006446906766
20
-4.47475228837891
30
0
41
1
10
140.030610749487
20
-4.4709550116857
30
0
41
1
10
140.054128063077
20
-4.4642642143163
30
0
0
SPLINE
5
308
100
AcDbEntity
8
1
62
256
6
ByLayer
370
18
48
1
60
0
100
AcDbSpline
70
4
71
1
72
4
73
2
40
0
40
0
40
1
40
1
41
1
10
140.449149559315
20
0.0819946227852313
30
0
41
1
10
140.665326109913
20
-0.0950154498207496
30
0
0
SPLINE
5
309
100
AcDbEntity
8
1
62
256
6
ByLayer
370
18
48
1
60
0
100
AcDbSpline
70
4
71
3
72
12
73
8
40
0
40
0
40
0
40
0
40
0.5
40
0.5
40
0.75
40
0.75
40
1
40
1
40
1
40
1
41
1
10
140.308432732008
20
0.490535761667616
30
0
41
1
10
140.36585065108
20
0.482890611187855
30
0
41
1
10
140.420829977243
20
0.458128648272123
30
0
41
1
10
140.486718343369
20
0.40189628030933
30
0
41
1
10
140.505857018572
20
0.379899270530814
30
0
41
1
10
140.537090210454
20
0.331423460921059
30
0
41
1
10
140.548907667723
20
0.304930505806368
30
0
41
1
10
140.557653383125
20
0.277474188865313
30
0
0
SPLINE
5
30A
100
AcDbEntity
8
1
62
256
6
ByLayer
370
18
48
1
60
0
100
AcDbSpline
70
4
71
1
72
4
73
2
40
0
40
0
40
1
40
1
41
1
10
140.984092223521
20
-2.07299141592065
30
0
41
1
10
140.962234739906
20
-1.93606684888064
30
0
0
SPLINE
5
30B
100
AcDbEntity
8
1
62
256
6
ByLayer
370
18
48
1
60
0
100
AcDbSpline
70
4
71
1
72
4
73
2
40
0
40
0
40
1
40
1
41
1
10
140.492087005632
20
-4.15348430892706
30
0
41
1
10
140.692294924851
20
-4.54920758657931
30
0
0
SPLINE
5
30C
100
AcDbEntity
8
1
62
256
6
ByLayer
370
18
48
1
60
0
100
AcDbSpline
70
4
71
1
72
4
73
2
40
0
40
0
40
1
40
1
41
1
10
140.557653383125
20
0.277550364521119
30
0
41
1
10
140.385143203162
20
0.303467422023232
30
0
0
SPLINE
5
30D
100
AcDbEntity
8
1
62
256
6
ByLayer
370
18
48
1
60
0
100
AcDbSpline
70
4
71
3
72
8
73
4
40
0
40
0
40
0
40
0
40
1
40
1
40
1
40
1
41
1
10
140.665326109913
20
-0.0950154498207212
30
0
41
1
10
140.669821764008
20
-0.110571172033104
30
0
41
1
10
140.673345316631
20
-0.12634072031932
30
0
41
1
10
140.67589676778
20
-0.142324094679367
30
0
0
SPLINE
5
30E
100
AcDbEntity
8
1
62
256
6
ByLayer
370
18
48
1
60
0
100
AcDbSpline
70
4
71
2
72
11
73
8
40
0
40
0
40
0
40
0.25
40
0.5
40
0.75
40
0.75
40
0.875
40
1
40
1
40
1
41
1
10
140.385143203162
20
0.303467422023232
30
0
41
1
10
140.373226690819
20
0.344700566738538
30
0
41
1
10
140.326587852856
20
0.417609317157059
30
0
41
1
10
140.260460033126
20
0.474619727043319
30
0
41
1
10
140.219650603026
20
0.492961044128492
30
0
41
1
10
140.200698000849
20
0.501479067665088
30
0
41
1
10
140.15816970441
20
0.513625977923709
30
0
41
1
10
140.135922552051
20
0.516531988969717
30
0
0
SPLINE
5
30F
100
AcDbEntity
8
1
62
256
6
ByLayer
370
18
48
1
60
0
100
AcDbSpline
70
4
71
1
72
4
73
2
40
0
40
0
40
1
40
1
41
1
10
140.925013445274
20
-2.79534496017692
30
0
41
1
10
140.964140219956
20
-2.50046946989494
30
0
0
SPLINE
5
310
100
AcDbEntity
8
1
62
256
6
ByLayer
370
18
48
1
60
0
100
AcDbSpline
70
4
71
1
72
4
73
2
40
0
40
0
40
1
40
1
41
1
10
140.054128063077
20
-4.46426421431627
30
0
41
1
10
140.094165764061
20
-4.83105448880687
30
0
0
SPLINE
5
311
100
AcDbEntity
8
1
62
256
6
ByLayer
370
18
48
1
60
0
100
AcDbSpline
70
4
71
1
72
4
73
2
40
0
40
0
40
1
40
1
41
1
10
140.046357322739
20
-4.84037648931869
30
0
41
1
10
140.006446906766
20
-4.47475228837891
30
0
0
SPLINE
5
312
100
AcDbEntity
8
1
62
256
6
ByLayer
370
13
48
1
60
0
100
AcDbSpline
70
4
71
3
72
34
73
30
40
0
40
0
40
0
40
0
40
0.0092470299911535
40
0.0092470299911535
40
0.0286735588148563
40
0.0286735588148563
40
0.0675266164622618
40
0.0675266164622618
40
0.106379674109667
40
0.106379674109667
40
0.12580620293337
40
0.12580620293337
40
0.145232731757073
40
0.145232731757073
40
0.164659260580777
40
0.164659260580777
40
0.18408578940448
40
0.18408578940448
40
0.222938847051885
40
0.222938847051885
40
0.300644962346697
40
0.300644962346697
40
0.378351077641508
40
0.378351077641508
40
0.533763308231132
40
0.533763308231132
40
0.689175538820754
40
0.689175538820754
40
1
40
1
40
1
40
1
41
1
10
110.196011930217
20
-4.24169362324855
30
0
41
1
10
109.942683095205
20
-4.26200338298074
30
0
41
1
10
109.689220676709
20
-4.2813254220176
30
0
41
1
10
108.902867667172
20
-4.33877908291021
30
0
41
1
10
108.369516864292
20
-4.37402621214005
30
0
41
1
10
106.767607194309
20
-4.46939773286726
30
0
41
1
10
105.697178648715
20
-4.5191829078864
30
0
41
1
10
103.550669770618
20
-4.59357084034059
30
0
41
1
10
102.474593641086
20
-4.61811367256607
30
0
41
1
10
100.856556254969
20
-4.64204002948929
30
0
41
1
10
100.316578079895
20
-4.64789885963771
30
0
41
1
10
99.2353316665373
20
-4.65621357283121
30
0
41
1
10
98.6939611021363
20
-4.65851945572376
30
0
41
1
10
97.6090705825063
20
-4.65993147299204
30
0
41
1
10
97.0657791972534
20
-4.65949923482631
30
0
41
1
10
95.9793849103523
20
-4.65892585413877
30
0
41
1
10
95.4361675923874
20
-4.6585005075604
30
0
41
1
10
93.8065149345224
20
-4.65731432854091
30
0
41
1
10
92.720117895266
20
-4.65688424037643
30
0
41
1
10
89.4609320627813
20
-4.65733331325168
30
0
41
1
10
87.2881418334878
20
-4.65917400684839
30
0
41
1
10
82.9425608807066
20
-4.66120368474529
30
0
41
1
10
80.769770253398
20
-4.66177195253832
30
0
41
1
10
74.2513980047407
20
-4.66215300179513
30
0
41
1
10
69.9058162543877
20
-4.66127111350704
30
0
41
1
10
61.2146530080483
20
-4.66094252703047
30
0
41
1
10
56.8690713769287
20
-4.66115832488208
30
0
41
1
10
43.8323264945746
20
-4.6611950349577
30
0
41
1
10
35.141163248486
20
-4.6607133262296
30
0
41
1
10
26.45
20
-4.66058824991509
30
0
0
SPLINE
5
313
100
AcDbEntity
8
1
62
256
6
ByLayer
370
13
48
1
60
0
100
AcDbSpline
70
4
71
3
72
20
73
16
40
0
40
0
40
0
40
0
40
0.168176802788226
40
0.168176802788226
40
0.336353605576453
40
0.336353605576453
40
0.50453040836468
40
0.50453040836468
40
0.672707211152906
40
0.672707211152906
40
0.756795612547019
40
0.756795612547019
40
0.840884013941132
40
0.840884013941132
40
1
40
1
40
1
40
1
41
1
10
26.01
20
-4.66058824991509
30
0
41
1
10
26.01
20
-4.55491907543768
30
0
41
1
10
26.01
20
-4.44322003741425
30
0
41
1
10
26.01
20
-4.21431742676785
30
0
41
1
10
26.01
20
-4.09700989507121
30
0
41
1
10
26.01
20
-3.85684252566801
30
0
41
1
10
26.01
20
-3.73307340550002
30
0
41
1
10
26.01
20
-3.48942610497892
30
0
41
1
10
26.01
20
-3.36849966177843
30
0
41
1
10
26.01
20
-3.1884715040236
30
0
41
1
10
26.01
20
-3.12838449153088
30
0
41
1
10
26.01
20
-3.01069425958209
30
0
41
1
10
26.01
20
-2.9530089310833
30
0
41
1
10
26.01
20
-2.78940955516663
30
0
41
1
10
26.01
20
-2.68637830222019
30
0
41
1
10
26.01
20
-2.58745724991516
30
0
0
SPLINE
5
314
100
AcDbEntity
8
1
62
256
6
ByLayer
370
13
48
1
60
0
100
AcDbSpline
70
4
71
3
72
10
73
6
40
0
40
0
40
0
40
0
40
0.252223861559464
40
0.252223861559464
40
1
40
1
40
1
40
1
41
1
10
132.296936985837
20
4.33343385564493
30
0
41
1
10
132.304625638738
20
4.33268682334275
30
0
41
1
10
132.312445021878
20
4.33190839937953
30
0
41
1
10
132.343936713383
20
4.32869539981013
30
0
41
1
10
132.368192986455
20
4.32605380063774
30
0
41
1
10
132.393141810049
20
4.32316214345272
30
0
0
SPLINE
5
315
100
AcDbEntity
8
1
62
256
6
ByLayer
370
13
48
1
60
0
100
AcDbSpline
70
4
71
1
72
4
73
2
40
0
40
0
40
1
40
1
41
1
10
139.981002252015
20
2.63840804651565
30
0
41
1
10
139.935656735449
20
2.57025015171757
30
0
0
SPLINE
5
316
100
AcDbEntity
8
1
62
256
6
ByLayer
370
13
48
1
60
0
100
AcDbSpline
70
4
71
3
72
8
73
4
40
0
40
0
40
0
40
0
40
1
40
1
40
1
40
1
41
1
10
134.249771340831
20
2.1645981077817
30
0
41
1
10
134.2457247003
20
2.1586061642879
30
0
41
1
10
134.242333468561
20
2.15339765063914
30
0
41
1
10
134.239751446148
20
2.1490812404156
30
0
0
SPLINE
5
317
100
AcDbEntity
8
1
62
256
6
ByLayer
370
13
48
1
60
0
100
AcDbSpline
70
4
71
3
72
12
73
8
40
0
40
0
40
0
40
0
40
0.186307396143886
40
0.186307396143886
40
0.593153698071943
40
0.593153698071943
40
1
40
1
40
1
40
1
41
1
10
134.236068122758
20
2.13442054651927
30
0
41
1
10
134.237594863453
20
2.13443032607637
30
0
41
1
10
134.23999152073
20
2.13533685203501
30
0
41
1
10
134.250280693852
20
2.14103780618805
30
0
41
1
10
134.261253340525
20
2.14906233766354
30
0
41
1
10
134.288851699809
20
2.17248197325131
30
0
41
1
10
134.305051634728
20
2.18751435791771
30
0
41
1
10
134.32278499282
20
2.20575038738062
30
0
0
SPLINE
5
318
100
AcDbEntity
8
1
62
256
6
ByLayer
370
13
48
1
60
0
100
AcDbSpline
70
4
71
3
72
12
73
8
40
0
40
0
40
0
40
0
40
0.325989583519574
40
0.325989583519574
40
0.662994791759787
40
0.662994791759787
40
1
40
1
40
1
40
1
41
1
10
26.4499998685102
20
-2.59107125159375
30
0
41
1
10
26.4500132284657
20
-2.79301380269013
30
0
41
1
10
26.4500243319353
20
-3.01688096939145
30
0
41
1
10
26.4500409211497
20
-3.48875484271821
30
0
41
1
10
26.4500461993454
20
-3.73717827002977
30
0
41
1
10
26.450049752237
20
-4.21844484080762
30
0
41
1
10
26.450048025871
20
-4.45114415735296
30
0
41
1
10
26.4500429103597
20
-4.66058825053261
30
0
0
SPLINE
5
319
100
AcDbEntity
8
1
62
256
6
ByLayer
370
13
48
1
60
0
100
AcDbSpline
70
4
71
3
72
52
73
48
40
0
40
0
40
0
40
0
40
0.0007580503249264
40
0.0007580503249264
40
0.0179863598020828
40
0.0179863598020828
40
0.0352146692792392
40
0.0352146692792392
40
0.0524429787563956
40
0.0524429787563956
40
0.069671288233552
40
0.069671288233552
40
0.0868995977107084
40
0.0868995977107084
40
0.104127907187865
40
0.104127907187865
40
0.138584526142178
40
0.138584526142178
40
0.17304114509649
40
0.17304114509649
40
0.190269454573647
40
0.190269454573647
40
0.207497764050803
40
0.207497764050803
40
0.216111918789381
40
0.216111918789381
40
0.22472607352796
40
0.22472607352796
40
0.233340228266538
40
0.233340228266538
40
0.241954383005116
40
0.241954383005116
40
0.259182692482272
40
0.259182692482272
40
0.276411001959429
40
0.276411001959429
40
0.310867620913741
40
0.310867620913741
40
0.345324239868054
40
0.345324239868054
40
0.379780858822367
40
0.379780858822367
40
0.448694096730993
40
0.448694096730993
40
0.724347048365496
40
0.724347048365496
40
1
40
1
40
1
40
1
41
1
10
117.893188793969
20
-6.14331009670033
30
0
41
1
10
117.871714259669
20
-6.14814596547293
30
0
41
1
10
117.850239185491
20
-6.15296713606392
30
0
41
1
10
117.340683386236
20
-6.26700700106943
30
0
41
1
10
116.852282458137
20
-6.36832448455499
30
0
41
1
10
115.872783756962
20
-6.54864993303494
30
0
41
1
10
115.381511658205
20
-6.62762699824992
30
0
41
1
10
114.39273969046
20
-6.77427034434382
30
0
41
1
10
113.895783792848
20
-6.842555240992
30
0
41
1
10
112.898026551791
20
-6.96266369845875
30
0
41
1
10
112.396908823133
20
-7.0137819712711
30
0
41
1
10
111.389855417033
20
-7.09732760192492
30
0
41
1
10
110.883987645527
20
-7.13049298481954
30
0
41
1
10
109.867946234795
20
-7.18505211996978
30
0
41
1
10
109.357817103362
20
-7.20668300957624
30
0
41
1
10
107.821461307249
20
-7.25968476245677
30
0
41
1
10
106.787482796897
20
-7.2779170705499
30
0
41
1
10
104.71171496806
20
-7.29838054983628
30
0
41
1
10
103.669049735296
20
-7.30160071203775
30
0
41
1
10
102.097739012135
20
-7.2979815639884
30
0
41
1
10
101.572745531036
20
-7.29534008229467
30
0
41
1
10
100.520251172516
20
-7.28725659405052
30
0
41
1
10
99.9927448217005
20
-7.28117302638114
30
0
41
1
10
99.1995513624404
20
-7.2723189037865
30
0
41
1
10
98.9351298890701
20
-7.26973778424241
30
0
41
1
10
98.4062348389187
20
-7.26771998006805
30
0
41
1
10
98.141759628716
20
-7.26878205914872
30
0
41
1
10
97.6127647013138
20
-7.27270144238318
30
0
41
1
10
97.3482461771822
20
-7.27533424753182
30
0
41
1
10
96.8191885115125
20
-7.27939028310317
30
0
41
1
10
96.5546501112964
20
-7.28057211859252
30
0
41
1
10
95.7610264317815
20
-7.28143719708154
30
0
41
1
10
95.2319297869855
20
-7.27930775846059
30
0
41
1
10
94.1737366357509
20
-7.27532157254475
30
0
41
1
10
93.6446407379083
20
-7.27358577397831
30
0
41
1
10
92.0573578385254
20
-7.26966736744521
30
0
41
1
10
90.9991761582565
20
-7.26883328536707
30
0
41
1
10
88.8828099584744
20
-7.26876907240711
30
0
41
1
10
87.8246271264871
20
-7.26953890514264
30
0
41
1
10
85.7082611915081
20
-7.27074203703944
30
0
41
1
10
84.6500780020867
20
-7.27104325637362
30
0
41
1
10
81.4755282315131
20
-7.27134487943275
30
0
41
1
10
79.3591618284997
20
-7.27099827179367
30
0
41
1
10
68.7773296254471
20
-7.27105270736203
30
0
41
1
10
60.3118638422843
20
-7.26934757625096
30
0
41
1
10
43.3809318540317
20
-7.26926230074238
30
0
41
1
10
34.9154660958689
20
-7.2711532761102
30
0
41
1
10
26.45
20
-7.27132440719674
30
0
0
SPLINE
5
31A
100
AcDbEntity
8
1
62
256
6
ByLayer
370
13
48
1
60
0
100
AcDbSpline
70
4
71
3
72
42
73
38
40
0
40
0
40
0
40
0
40
0.004681600138766
40
0.004681600138766
40
0.0415452445780717
40
0.0415452445780717
40
0.0784088890173774
40
0.0784088890173774
40
0.115272533456683
40
0.115272533456683
40
0.152136177895989
40
0.152136177895989
40
0.188999822335294
40
0.188999822335294
40
0.2258634667746
40
0.2258634667746
40
0.262727111213906
40
0.262727111213906
40
0.299590755653212
40
0.299590755653212
40
0.336454400092517
40
0.336454400092517
40
0.410181688971128
40
0.410181688971128
40
0.447045333410433
40
0.447045333410433
40
0.483908977849738
40
0.483908977849738
40
0.520772622289042
40
0.520772622289042
40
0.557636266728347
40
0.557636266728347
40
0.705090844485565
40
0.705090844485565
40
0.852545422242782
40
0.852545422242782
40
1
40
1
40
1
40
1
41
1
10
118.437522867302
20
-6.28706526088553
30
0
41
1
10
118.370160282532
20
-6.30436749426056
30
0
41
1
10
118.302803122947
20
-6.32152866474988
30
0
41
1
10
117.705104124622
20
-6.47255415471241
30
0
41
1
10
117.174895307226
20
-6.59747708155882
30
0
41
1
10
116.111679773551
20
-6.82609135612916
30
0
41
1
10
115.578633368083
20
-6.92973200257526
30
0
41
1
10
114.506415923805
20
-7.11429420855112
30
0
41
1
10
113.967287512771
20
-7.19526351205315
30
0
41
1
10
112.879906193253
20
-7.33512703838224
30
0
41
1
10
112.332995367562
20
-7.3936411442152
30
0
41
1
10
111.233082571061
20
-7.4916745301461
30
0
41
1
10
110.680087832141
20
-7.53148759075967
30
0
41
1
10
109.568956499227
20
-7.59736257825361
30
0
41
1
10
109.010936534071
20
-7.62345970776849
30
0
41
1
10
107.889943854297
20
-7.66491853795935
30
0
41
1
10
107.326886403555
20
-7.68021803301389
30
0
41
1
10
106.19490788604
20
-7.70258309376231
30
0
41
1
10
105.62584599772
20
-7.7096440930676
30
0
41
1
10
104.485943693537
20
-7.71827803916662
30
0
41
1
10
103.914570125467
20
-7.71987341272131
30
0
41
1
10
102.196003211158
20
-7.72023150564945
30
0
41
1
10
101.04438076698
20
-7.71482451278004
30
0
41
1
10
99.3071663185011
20
-7.70891122544512
30
0
41
1
10
98.7260372310637
20
-7.70726801798133
30
0
41
1
10
97.5642767576526
20
-7.70519925097426
30
0
41
1
10
96.9833173743375
20
-7.70478117920817
30
0
41
1
10
95.8213432780112
20
-7.70445541957468
30
0
41
1
10
95.2403304256036
20
-7.70451726298165
30
0
41
1
10
94.078300726553
20
-7.70467598301443
30
0
41
1
10
93.4972840406781
20
-7.70477091377825
30
0
41
1
10
90.592221080376
20
-7.70506704932254
30
0
41
1
10
88.2682072052499
20
-7.70475872783362
30
0
41
1
10
83.6201486733518
20
-7.70455892735859
30
0
41
1
10
81.2961185269604
20
-7.70462901430477
30
0
41
1
10
76.6480593076061
20
-7.7047254031234
30
0
41
1
10
74.324029668644
20
-7.70476550412576
30
0
41
1
10
72
20
-7.70479749851319
30
0
0
SPLINE
5
31B
100
AcDbEntity
8
1
62
256
6
ByLayer
370
13
48
1
60
0
100
AcDbSpline
70
4
71
3
72
22
73
18
40
0
40
0
40
0
40
0
40
0.23383660303158
40
0.23383660303158
40
0.35075490454737
40
0.35075490454737
40
0.46767320606316
40
0.46767320606316
40
0.584591507578951
40
0.584591507578951
40
0.70150980909474
40
0.70150980909474
40
0.818428110610531
40
0.818428110610531
40
0.935346412126321
40
0.935346412126321
40
1
40
1
40
1
40
1
41
1
10
128.254070615451
20
7.61855715360218
30
0
41
1
10
127.142903472719
20
7.69947991528124
30
0
41
1
10
126.031665043033
20
7.73209480966545
30
0
41
1
10
124.366360294392
20
7.70795582191499
30
0
41
1
10
123.811392313054
20
7.6877684217649
30
0
41
1
10
122.700967169008
20
7.62315195152746
30
0
41
1
10
122.145405228244
20
7.57869095659174
30
0
41
1
10
121.035467055933
20
7.4660157405317
30
0
41
1
10
120.480763777229
20
7.39779068490617
30
0
41
1
10
119.370945992272
20
7.23810773587945
30
0
41
1
10
118.815497410083
20
7.14658594112109
30
0
41
1
10
117.705393670806
20
6.94131443719624
30
0
41
1
10
117.150867065877
20
6.8273800774605
30
0
41
1
10
116.040726067027
20
6.57925035643345
30
0
41
1
10
115.484686404454
20
6.44517363442438
30
0
41
1
10
114.618243063251
20
6.22581240513571
30
0
41
1
10
114.309377775576
20
6.1456595551808
30
0
41
1
10
114.000056591401
20
6.06383041932421
30
0
0
SPLINE
5
31C
100
AcDbEntity
8
1
62
256
6
ByLayer
370
13
48
1
60
0
100
AcDbSpline
70
4
71
3
72
24
73
20
40
0
40
0
40
0
40
0
40
0.20599419315534
40
0.20599419315534
40
0.411988386310679
40
0.411988386310679
40
0.514985482888349
40
0.514985482888349
40
0.617982579466019
40
0.617982579466019
40
0.823976772621358
40
0.823976772621358
40
0.875475320910191
40
0.875475320910191
40
0.926973869199024
40
0.926973869199024
40
0.978472417487858
40
0.978472417487858
40
1
40
1
40
1
40
1
41
1
10
128.971213426656
20
7.11366480139139
30
0
41
1
10
127.968158903629
20
7.21158651460905
30
0
41
1
10
126.967643132331
20
7.27218689411001
30
0
41
1
10
124.967461842393
20
7.31979196121964
30
0
41
1
10
123.967834545906
20
7.30673898146159
30
0
41
1
10
122.465540951499
20
7.22973182435254
30
0
41
1
10
121.963977567001
20
7.19450137156716
30
0
41
1
10
120.960654145268
20
7.10538865923405
30
0
41
1
10
120.459656153193
20
7.0515891287979
30
0
41
1
10
118.957718943352
20
6.86338552090893
30
0
41
1
10
117.957817434883
20
6.70179600754057
30
0
41
1
10
116.706882576696
20
6.45896060564661
30
0
41
1
10
116.456641481858
20
6.40854396335385
30
0
41
1
10
115.956038718006
20
6.30502765538759
30
0
41
1
10
115.705737994645
20
6.25209010942555
30
0
41
1
10
115.204755264859
20
6.14359013848832
30
0
41
1
10
114.953974945909
20
6.087720693352
30
0
41
1
10
114.597013810376
20
6.00485473329533
30
0
41
1
10
114.491618744431
20
5.9800193558097
30
0
41
1
10
114.386117614279
20
5.95486293283147
30
0
0
SPLINE
5
31D
100
AcDbEntity
8
1
62
256
6
ByLayer
370
13
48
1
60
0
100
AcDbSpline
70
4
71
3
72
10
73
6
40
0
40
0
40
0
40
0
40
0.110515007032624
40
0.110515007032624
40
1
40
1
40
1
40
1
41
1
10
121.702877706033
20
3.38381468956285
30
0
41
1
10
121.964451591547
20
3.40017591724185
30
0
41
1
10
122.226007766501
20
3.41536075538522
30
0
41
1
10
124.592575311367
20
3.54195193093213
30
0
41
1
10
126.698601166155
20
3.57667433370935
30
0
41
1
10
128.80478819994
20
3.52860898829275
30
0
0
SPLINE
5
31E
100
AcDbEntity
8
1
62
256
6
ByLayer
370
13
48
1
60
0
100
AcDbSpline
70
4
71
3
72
8
73
4
40
0
40
0
40
0
40
0
40
1
40
1
40
1
40
1
41
1
10
128.673682338823
20
3.0305398852399
30
0
41
1
10
126.691826696356
20
3.0854426134436
30
0
41
1
10
124.712571487125
20
3.07688961961239
30
0
41
1
10
122.732436229004
20
3.00836133112358
30
0
0
SPLINE
5
31F
100
AcDbEntity
8
1
62
256
6
ByLayer
370
13
48
1
60
0
100
AcDbSpline
70
4
71
3
72
30
73
26
40
0
40
0
40
0
40
0
40
0.0119547132565615
40
0.156223374992689
40
0.320738263397044
40
0.505528809774286
40
0.522851452872053
40
0.541131693012675
40
0.560372266089908
40
0.580575740155789
40
0.601744490043783
40
0.623880666938571
40
0.646986163459362
40
0.67106257470744
40
0.696111155664438
40
0.722132775301113
40
0.749127867757349
40
0.77709638097651
40
0.806037723216769
40
0.83595070791563
40
0.866833497449415
40
0.898683546405181
40
0.931497545067044
40
0.965271363910941
40
1
40
1
40
1
40
1
41
1
10
25.073127197842
20
-2.78660646782015
30
0
41
1
10
25.0755764426484
20
-2.79393500533752
30
0
41
1
10
25.1078252349624
20
-2.88990865580141
30
0
41
1
10
25.180465483117
20
-3.0923330499636
30
0
41
1
10
25.3126971684612
20
-3.41415316434205
30
0
41
1
10
25.4258542451537
20
-3.65583843189057
30
0
41
1
10
25.4970551083962
20
-3.79930059825293
30
0
41
1
10
25.5148743676814
20
-3.83494947709812
30
0
41
1
10
25.5337753652711
20
-3.872375843947
30
0
41
1
10
25.5537894927091
20
-3.91155071763751
30
0
41
1
10
25.5749518382766
20
-3.95243484206972
30
0
41
1
10
25.5972933198984
20
-3.99498472588738
30
0
41
1
10
25.6208421619829
20
-4.03915028004977
30
0
41
1
10
25.6456226303802
20
-4.08487487231869
30
0
41
1
10
25.6716545073247
20
-4.13209468631004
30
0
41
1
10
25.6989523087808
20
-4.18073828857575
30
0
41
1
10
25.7275245311004
20
-4.23072613281786
30
0
41
1
10
25.757372853782
20
-4.2819701559572
30
0
41
1
10
25.7884913035324
20
-4.33437314862957
30
0
41
1
10
25.8208654634584
20
-4.38782909831346
30
0
41
1
10
25.8544713983652
20
-4.44221985426617
30
0
41
1
10
25.8892756202874
20
-4.49742635316
30
0
41
1
10
25.9252309486388
20
-4.55328312193276
30
0
41
1
10
25.9622883937048
20
-4.60975438732592
30
0
41
1
10
25.9873131956817
20
-4.64690039942354
30
0
41
1
10
26
20
-4.66573228417221
30
0
0
SPLINE
5
320
100
AcDbEntity
8
1
62
256
6
ByLayer
370
13
48
1
60
0
100
AcDbSpline
70
4
71
3
72
24
73
20
40
0
40
0
40
0
40
0
40
0.223127141517852
40
0.223127141517852
40
0.334690712276778
40
0.334690712276778
40
0.446254283035704
40
0.446254283035704
40
0.669381424553555
40
0.669381424553555
40
0.725163209933031
40
0.725163209933031
40
0.780944995312507
40
0.780944995312507
40
0.892508566071441
40
0.892508566071441
40
0.948290351450916
40
0.948290351450916
40
1
40
1
40
1
40
1
41
1
10
128.604686221676
20
2.82501437229428
30
0
41
1
10
128.278030503795
20
2.90676997247726
30
0
41
1
10
127.943626684382
20
2.96043250182547
30
0
41
1
10
127.431019475708
20
3.00782310926218
30
0
41
1
10
127.258263084622
20
3.01794569847468
30
0
41
1
10
126.908524090146
20
3.02696745346708
30
0
41
1
10
126.73079273359
20
3.02579798273845
30
0
41
1
10
126.200100815685
20
3.00525857678352
30
0
41
1
10
125.847398030655
20
2.96943278583234
30
0
41
1
10
125.407430854424
20
2.89503577214523
30
0
41
1
10
125.319214731689
20
2.8785845347476
30
0
41
1
10
125.145168267273
20
2.84295759729133
30
0
41
1
10
125.059144727172
20
2.82375931751096
30
0
41
1
10
124.804261465591
20
2.76191771675079
30
0
41
1
10
124.638536291819
20
2.71510957240173
30
0
41
1
10
124.397674246138
20
2.63509193157432
30
0
41
1
10
124.318768631918
20
2.60676463548046
30
0
41
1
10
124.172707951278
20
2.54976673021639
30
0
41
1
10
124.104765479394
20
2.52116482155915
30
0
41
1
10
124.039399442682
20
2.49121879931906
30
0
0
SPLINE
5
321
100
AcDbEntity
8
1
62
256
6
ByLayer
370
13
48
1
60
0
100
AcDbSpline
70
4
71
3
72
12
73
8
40
0
40
0
40
0
40
0
40
0.0836897232294611
40
0.0836897232294611
40
0.389126482152971
40
0.389126482152971
40
1
40
1
40
1
40
1
41
1
10
122.004001004443
20
3.28320286610207
30
0
41
1
10
122.138111234207
20
3.23222825095712
30
0
41
1
10
122.272227956847
20
3.1809583591496
30
0
41
1
10
122.89587436652
20
2.94125149239702
30
0
41
1
10
123.385780175824
20
2.74921914360803
30
0
41
1
10
124.854469263098
20
2.16414345223035
30
0
41
1
10
125.832271360936
20
1.76212255735541
30
0
41
1
10
126.810593515075
20
1.352039953065
30
0
0
SPLINE
5
322
100
AcDbEntity
8
1
62
256
6
ByLayer
370
13
48
1
60
0
100
AcDbSpline
70
4
71
3
72
16
73
12
40
0
40
0
40
0
40
0
40
0.0738074167787258
40
0.0738074167787258
40
0.189581489681385
40
0.189581489681385
40
0.305355562584045
40
0.305355562584045
40
0.536903708389363
40
0.536903708389363
40
1
40
1
40
1
40
1
41
1
10
14.9821236520908
20
-6.80857603249288
30
0
41
1
10
14.9312117254778
20
-6.88949818975166
30
0
41
1
10
14.8816299026217
20
-6.97121222521861
30
0
41
1
10
14.7577267530673
20
-7.18315077469589
30
0
41
1
10
14.685290511024
20
-7.31485274837672
30
0
41
1
10
14.548833551236
20
-7.57968320604624
30
0
41
1
10
14.4846420575643
20
-7.71310868195877
30
0
41
1
10
14.3036705337501
20
-8.11626671177308
30
0
41
1
10
14.1984581864652
20
-8.38887218509234
30
0
41
1
10
13.9263752587156
20
-9.21725802796328
30
0
41
1
10
13.8023874100294
20
-9.78346646164891
30
0
41
1
10
13.735683705952
20
-10.3627014032403
30
0
0
SPLINE
5
323
100
AcDbEntity
8
1
62
256
6
ByLayer
370
13
48
1
60
0
100
AcDbSpline
70
4
71
3
72
12
73
8
40
0
40
0
40
0
40
0
40
0.430112179792154
40
0.430112179792154
40
0.860224359584307
40
0.860224359584307
40
1
40
1
40
1
40
1
41
1
10
13.7361246085751
20
-9.40547854256266
30
0
41
1
10
13.7695040755123
20
-9.12849357106171
30
0
41
1
10
13.8175406702687
20
-8.85275659822
30
0
41
1
10
13.9429368717783
20
-8.30351420766561
30
0
41
1
10
14.0206463172707
20
-8.02921431518809
30
0
41
1
10
14.1422721196153
20
-7.67173484612664
30
0
41
1
10
14.1735996332587
20
-7.58445706793177
30
0
41
1
10
14.2064343908872
20
-7.49758532734717
30
0
0
SPLINE
5
324
100
AcDbEntity
8
1
62
256
6
ByLayer
370
18
48
1
60
0
100
AcDbSpline
70
4
71
3
72
10
73
6
40
0
40
0
40
0
40
0
40
0.344490261939528
40
0.344490261939528
40
1
40
1
40
1
40
1
41
1
10
140.151926815136
20
-4.88918880216011
30
0
41
1
10
140.189586396305
20
-4.87847668777042
30
0
41
1
10
140.227245982065
20
-4.8677634663749
30
0
41
1
10
140.336565719371
20
-4.83666343281075
30
0
41
1
10
140.408225876875
20
-4.81627650283971
30
0
41
1
10
140.479886020808
20
-4.79589366704386
30
0
0
SPLINE
5
325
100
AcDbEntity
8
1
62
256
6
ByLayer
370
13
48
1
60
0
100
AcDbSpline
70
4
71
3
72
10
73
6
40
0
40
0
40
0
40
0
40
0.470411496940854
40
0.470411496940854
40
1
40
1
40
1
40
1
41
1
10
139.406623566219
20
7.49263022732336
30
0
41
1
10
139.406652300379
20
7.49237072681305
30
0
41
1
10
139.419603375801
20
7.49177208132858
30
0
41
1
10
139.467971407492
20
7.49014140265589
30
0
41
1
10
139.505940281719
20
7.4890819535332
30
0
41
1
10
139.545215990761
20
7.48816675584382
30
0
0
SPLINE
5
326
100
AcDbEntity
8
1
62
256
6
ByLayer
370
13
48
1
60
0
100
AcDbSpline
70
4
71
3
72
10
73
6
40
0
40
0
40
0
40
0
40
0.182019138985209
40
0.182019138985209
40
1
40
1
40
1
40
1
41
1
10
132.72349506684
20
7.63303717470339
30
0
41
1
10
132.738296442687
20
7.63504031557241
30
0
41
1
10
132.753201966756
20
7.63662633529069
30
0
41
1
10
132.834909635425
20
7.64617481312578
30
0
41
1
10
132.901861382462
20
7.65285505762651
30
0
41
1
10
132.968868012762
20
7.65900256666492
30
0
0
SPLINE
5
327
100
AcDbEntity
8
1
62
256
6
ByLayer
370
18
48
1
60
0
100
AcDbSpline
70
4
71
3
72
25
73
21
40
0
40
0
40
0
40
0
40
0.0105061610359317
40
0.0403533446556773
40
0.0702005282754229
40
0.129894895514914
40
0.249283629993897
40
0.368672364472879
40
0.473137507141989
40
0.488061098951862
40
0.517908282571607
40
0.547755466191353
40
0.607449833430844
40
0.726838567909826
40
0.846227302388809
40
0.9059216696283
40
0.935768853248046
40
0.965616036867791
40
0.995463220487537
40
1
40
1
40
1
40
1
41
1
10
140.100456773688
20
-4.25744157861243
30
0
41
1
10
140.118906245775
20
-4.24903051022477
30
0
41
1
10
140.187603450535
20
-4.21112303641013
30
0
41
1
10
140.279024711431
20
-4.09919804180106
30
0
41
1
10
140.356039545378
20
-3.88821292490405
30
0
41
1
10
140.375520439238
20
-3.56067172857163
30
0
41
1
10
140.44458825488
20
-3.11715154729998
30
0
41
1
10
140.514296882127
20
-2.59971577440405
30
0
41
1
10
140.560041123601
20
-2.24083092342207
30
0
41
1
10
140.59273354234
20
-2.00637900684177
30
0
41
1
10
140.585938764565
20
-1.87313488902998
30
0
41
1
10
140.542401658714
20
-1.68952499291962
30
0
41
1
10
140.501792335293
20
-1.38040437419272
30
0
41
1
10
140.424915946518
20
-0.932809814296178
30
0
41
1
10
140.357985653119
20
-0.483243751491472
30
0
41
1
10
140.301827278702
20
-0.176772380207353
30
0
41
1
10
140.28154067544
20
0.0211556159518125
30
0
41
1
10
140.225094513612
20
0.189436435689231
30
0
41
1
10
140.121880506382
20
0.272430342064496
30
0
41
1
10
140.063178111059
20
0.303943827189983
30
0
41
1
10
140.055388733293
20
0.307892073843249
30
0
0
SPLINE
5
328
100
AcDbEntity
8
1
62
256
6
ByLayer
370
13
48
1
60
0
100
AcDbSpline
70
4
71
3
72
10
73
6
40
0
40
0
40
0
40
0
40
0.721280976047145
40
0.721280976047145
40
1
40
1
40
1
40
1
41
1
10
132.456283441959
20
4.93935321730794
30
0
41
1
10
132.40830175882
20
4.86857144909936
30
0
41
1
10
132.37101206895
20
4.79470531891428
30
0
41
1
10
132.332373537206
20
4.69093069324705
30
0
41
1
10
132.322979095118
20
4.6617359378802
30
0
41
1
10
132.315089323114
20
4.63280591781933
30
0
0
SPLINE
5
329
100
AcDbEntity
8
1
62
256
6
ByLayer
370
13
48
1
60
0
100
AcDbSpline
70
4
71
3
72
10
73
6
40
0
40
0
40
0
40
0
40
0.269032468944975
40
0.269032468944975
40
1
40
1
40
1
40
1
41
1
10
139.155253571798
20
2.89469609947938
30
0
41
1
10
139.147497915016
20
2.88439126198367
30
0
41
1
10
139.139757838201
20
2.87442861662504
30
0
41
1
10
139.110983970509
20
2.83875399141124
30
0
41
1
10
139.090409907943
20
2.81595332242762
30
0
41
1
10
139.069712706981
20
2.79659194799726
30
0
0
SPLINE
5
32A
100
AcDbEntity
8
1
62
256
6
ByLayer
370
18
48
1
60
0
100
AcDbSpline
70
4
71
3
72
23
73
19
40
0
40
0
40
0
40
0
40
0.0108807008411268
40
0.0426954081562376
40
0.106324822786459
40
0.233583652046903
40
0.360842481307346
40
0.472193956910234
40
0.488101310567789
40
0.5199160178829
40
0.551730725198011
40
0.615360139828232
40
0.742618969088676
40
0.869877798349119
40
0.93350721297934
40
0.965321920294451
40
0.997136627609562
40
1
40
1
40
1
40
1
41
1
10
140.123973304438
20
-4.04282955352727
30
0
41
1
10
140.132040244682
20
-4.03190851653994
30
0
41
1
10
140.161225153272
20
-3.98588522782859
30
0
41
1
10
140.212642267096
20
-3.84502605544958
30
0
41
1
10
140.231286154629
20
-3.53155783009362
30
0
41
1
10
140.301172626705
20
-3.08278063227061
30
0
41
1
10
140.370617309485
20
-2.56730407611101
30
0
41
1
10
140.416403367659
20
-2.20809115366328
30
0
41
1
10
140.447339392702
20
-1.98623511968549
30
0
41
1
10
140.441897595526
20
-1.87952265783781
30
0
41
1
10
140.399678861175
20
-1.70147275588721
30
0
41
1
10
140.358485687049
20
-1.3879078303907
30
0
41
1
10
140.281816731477
20
-0.941521001165029
30
0
41
1
10
140.215003487154
20
-0.492741148753453
30
0
41
1
10
140.158257493629
20
-0.183062981767762
30
0
41
1
10
140.139013729393
20
0.00469046540249
30
0
41
1
10
140.112520525865
20
0.0836736568688821
30
0
41
1
10
140.08800620675
20
0.117072795181571
30
0
41
1
10
140.085911388863
20
0.119778786161589
30
0
0
SPLINE
5
32B
100
AcDbEntity
8
1
62
256
6
ByLayer
370
13
48
1
60
0
100
AcDbSpline
70
4
71
1
72
4
73
2
40
0
40
0
40
1
40
1
41
1
10
140.036358208222
20
2.53619201936709
30
0
41
1
10
140.104581324188
20
2.64308746440051
30
0
0
SPLINE
5
32C
100
AcDbEntity
8
1
62
256
6
ByLayer
370
13
48
1
60
0
100
AcDbSpline
70
4
71
3
72
10
73
6
40
0
40
0
40
0
40
0
40
0.678126290873813
40
0.678126290873813
40
1
40
1
40
1
40
1
41
1
10
140.495979876821
20
2.63434996648348
30
0
41
1
10
140.466346939191
20
2.60175753520295
30
0
41
1
10
140.431440780808
20
2.57395262642862
30
0
41
1
10
140.374658010673
20
2.54246971645767
30
0
41
1
10
140.35543946135
20
2.53381652845215
30
0
41
1
10
140.335774630348
20
2.52659855264707
30
0
0
SPLINE
5
32D
100
AcDbEntity
8
1
62
256
6
ByLayer
370
13
48
1
60
0
100
AcDbSpline
70
4
71
3
72
10
73
6
40
0
40
0
40
0
40
0
40
0.81961752700373
40
0.81961752700373
40
1
40
1
40
1
40
1
41
1
10
133.684574969182
20
7.61196190717615
30
0
41
1
10
133.630051611036
20
7.60129407920272
30
0
41
1
10
133.571456955187
20
7.59159201452579
30
0
41
1
10
133.495140194761
20
7.58125212262857
30
0
41
1
10
133.481140477317
20
7.57944381157296
30
0
41
1
10
133.466942281564
20
7.57769914704679
30
0
0
SPLINE
5
32E
100
AcDbEntity
8
1
62
256
6
ByLayer
370
13
48
1
60
0
100
AcDbSpline
70
4
71
3
72
18
73
14
40
0
40
0
40
0
40
0
40
0.0553337967177038
40
0.0553337967177038
40
0.110667593435407
40
0.110667593435407
40
0.221335186870815
40
0.221335186870815
40
0.442670373741596
40
0.442670373741596
40
0.885340747483133
40
0.885340747483133
40
1
40
1
40
1
40
1
41
1
10
132.836426768027
20
2.47474105719812
30
0
41
1
10
132.83790904378
20
2.46619539758223
30
0
41
1
10
132.839769637598
20
2.45682152701528
30
0
41
1
10
132.844068036124
20
2.43789443791209
30
0
41
1
10
132.846416423033
20
2.42880773430684
30
0
41
1
10
132.853096968674
20
2.40546209615008
30
0
41
1
10
132.857235057277
20
2.39377485365435
30
0
41
1
10
132.868384470139
20
2.3650065481387
30
0
41
1
10
132.874624502133
20
2.35284829332619
30
0
41
1
10
132.892142575569
20
2.32217463596163
30
0
41
1
10
132.901896906859
20
2.31143830056592
30
0
41
1
10
132.913344088742
20
2.30174443874418
30
0
41
1
10
132.915650470448
20
2.29997739710473
30
0
41
1
10
132.917912113299
20
2.29841861973421
30
0
0
SPLINE
5
32F
100
AcDbEntity
8
1
62
256
6
ByLayer
370
13
48
1
60
0
100
AcDbSpline
70
4
71
3
72
8
73
4
40
0
40
0
40
0
40
0
40
1
40
1
40
1
40
1
41
1
10
139.56139700067
20
2.63128298634823
30
0
41
1
10
139.547009650785
20
2.61920434841602
30
0
41
1
10
139.533180909155
20
2.60712691420847
30
0
41
1
10
139.519946068189
20
2.59508681875897
30
0
0
SPLINE
5
330
100
AcDbEntity
8
1
62
256
6
ByLayer
370
13
48
1
60
0
100
AcDbSpline
70
4
71
1
72
4
73
2
40
0
40
0
40
1
40
1
41
1
10
140.495037457822
20
2.63332865712911
30
0
41
1
10
140.567782605399
20
2.6970943517681
30
0
0
SPLINE
5
331
100
AcDbEntity
8
1
62
256
6
ByLayer
370
13
48
1
60
0
100
AcDbSpline
70
4
71
2
72
6
73
3
40
0
40
0
40
0
40
1
40
1
40
1
41
1
10
122.006143924115
20
3.28238887824142
30
0
41
1
10
121.933539321143
20
3.30977883468324
30
0
41
1
10
121.860959892901
20
3.33936391057227
30
0
0
SPLINE
5
332
100
AcDbEntity
8
1
62
256
6
ByLayer
370
13
48
1
60
0
100
AcDbSpline
70
4
71
3
72
15
73
11
40
0
40
0
40
0
40
0
40
0.186140225446463
40
0.373533700381
40
0.560580318767376
40
0.648232254360635
40
0.735586045307712
40
0.823983161520647
40
0.912496919500527
40
1
40
1
40
1
40
1
41
1
10
13.1071
20
-12.5
30
0
41
1
10
13.9648986108785
20
-12.3789627513989
30
0
41
1
10
15.6544223113138
20
-12.028750269191
30
0
41
1
10
18.110598467229
20
-11.1702625132831
30
0
41
1
10
20.0287472835231
20
-10.2114912184408
30
0
41
1
10
21.4372855168497
20
-9.30705876927669
30
0
41
1
10
22.451502238008
20
-8.62661393967181
30
0
41
1
10
23.5878008537697
20
-8.15760598452042
30
0
41
1
10
24.7812729643991
20
-7.86413420740647
30
0
41
1
10
25.5915160283801
20
-7.80040629554262
30
0
41
1
10
26
20
-7.80000000000004
30
0
0
SPLINE
5
333
100
AcDbEntity
8
1
62
256
6
ByLayer
370
13
48
1
60
0
100
AcDbSpline
70
4
71
3
72
15
73
11
40
0
40
0
40
0
40
0
40
0.111523840349767
40
0.224186652156563
40
0.335682404816891
40
0.44720063580509
40
0.559392317086198
40
0.706730591335186
40
0.85385749751554
40
1
40
1
40
1
40
1
41
1
10
26
20
7.79999999999996
30
0
41
1
10
25.4764066364812
20
7.80107107425656
30
0
41
1
10
24.4498884273243
20
7.90748305384705
30
0
41
1
10
22.9470768388105
20
8.36611338116182
30
0
41
1
10
21.6102824529561
20
9.16739418287824
30
0
41
1
10
20.3251798595893
20
10.0338119907709
30
0
41
1
10
18.8002792109415
20
10.8278987312387
30
0
41
1
10
17.0652523420092
20
11.5587848660001
30
0
41
1
10
15.1092802436881
20
12.1483179751954
30
0
41
1
10
13.7789310585682
20
12.4053973889514
30
0
41
1
10
13.1071
20
12.5
30
0
0
SPLINE
5
334
100
AcDbEntity
8
1
62
256
6
ByLayer
370
18
48
1
60
0
100
AcDbSpline
70
4
71
3
72
8
73
4
40
0
40
0
40
0
40
0
40
1
40
1
40
1
40
1
41
1
10
136.930592483843
20
-1.68684282901478
30
0
41
1
10
136.94065758572
20
-1.66109301124212
30
0
41
1
10
136.951806189903
20
-1.63569150069836
30
0
41
1
10
136.963901958051
20
-1.61072755032348
30
0
0
SPLINE
5
335
100
AcDbEntity
8
1
62
256
6
ByLayer
370
13
48
1
60
0
100
AcDbSpline
70
4
71
1
72
4
73
2
40
0
40
0
40
1
40
1
41
1
10
132.915352568078
20
2.29604748739337
30
0
41
1
10
132.994364540195
20
2.24023504638791
30
0
0
LINE
5
7F
100
AcDbEntity
8
1
62
256
6
ByLayer
370
13
48
1
60
0
100
AcDbLine
10
132.510701
20
4.833371
30
0
11
132.781114
21
6.899592
31
0
39
0
210
0
220
0
230
1
0
LINE
5
80
100
AcDbEntity
8
1
62
256
6
ByLayer
370
13
48
1
60
0
100
AcDbLine
10
132.739635
20
4.756674
30
0
11
133.09387
21
2.51367
31
0
39
0
210
0
220
0
230
1
0
LINE
5
81
100
AcDbEntity
8
1
62
256
6
ByLayer
370
13
48
1
60
0
100
AcDbLine
10
140.340758
20
3.020697
30
0
11
140.461559
21
3.038801
31
0
39
0
210
0
220
0
230
1
0
LINE
5
82
100
AcDbEntity
8
1
62
256
6
ByLayer
370
13
48
1
60
0
100
AcDbLine
10
139.863327
20
5.25046
30
0
11
139.590106
21
3.162777
31
0
39
0
210
0
220
0
230
1
0
LINE
5
83
100
AcDbEntity
8
1
62
256
6
ByLayer
370
13
48
1
60
0
100
AcDbLine
10
140.946604
20
5.329764
30
0
11
140.676191
21
3.263542
31
0
39
0
210
0
220
0
230
1
0
LINE
5
84
100
AcDbEntity
8
1
62
256
6
ByLayer
370
13
48
1
60
0
100
AcDbLine
10
133.010741
20
6.875596
30
0
11
132.739064
21
4.799717
31
0
39
0
210
0
220
0
230
1
0
LINE
5
85
100
AcDbEntity
8
1
62
256
6
ByLayer
370
13
48
1
60
0
100
AcDbLine
10
134.045461
20
2.670181
30
0
11
134.031875
21
2.756204
31
0
39
0
210
0
220
0
230
1
0
LINE
5
86
100
AcDbEntity
8
1
62
256
6
ByLayer
370
13
48
1
60
0
100
AcDbLine
10
134.005447
20
7.045561
30
0
11
134.000835
21
7.045319
31
0
39
0
210
0
220
0
230
1
0
LINE
5
87
100
AcDbEntity
8
1
62
256
6
ByLayer
370
13
48
1
60
0
100
AcDbLine
10
140.26939
20
2.675431
30
0
11
140.517873
21
2.712672
31
0
39
0
210
0
220
0
230
1
0
LINE
5
88
100
AcDbEntity
8
1
62
256
6
ByLayer
370
13
48
1
60
0
100
AcDbLine
10
132.609426
20
4.820296
30
0
11
132.881103
21
6.896175
31
0
39
0
210
0
220
0
230
1
0
LINE
5
89
100
AcDbEntity
8
1
62
256
6
ByLayer
370
13
48
1
60
0
100
AcDbLine
10
132.943469
20
7.474892
30
0
11
132.995747
21
7.124333
31
0
39
0
210
0
220
0
230
1
0
LINE
5
8A
100
AcDbEntity
8
1
62
256
6
ByLayer
370
13
48
1
60
0
100
AcDbLine
10
133.806956
20
4.703303
30
0
11
134.112552
21
2.768283
31
0
39
0
210
0
220
0
230
1
0
LINE
5
8B
100
AcDbEntity
8
1
62
256
6
ByLayer
370
13
48
1
60
0
100
AcDbLine
10
139.955384
20
7.925087
30
0
11
139.950772
21
7.924846
31
0
39
0
210
0
220
0
230
1
0
LINE
5
8C
100
AcDbEntity
8
1
62
256
6
ByLayer
370
13
48
1
60
0
100
AcDbLine
10
134.626625
20
7.139376
30
0
11
138.604066
21
7.347824
31
0
39
0
210
0
220
0
230
1
0
LINE
5
8D
100
AcDbEntity
8
1
62
256
6
ByLayer
370
13
48
1
60
0
100
AcDbLine
10
133.721667
20
4.690983
30
0
11
134.040849
21
2.669939
31
0
39
0
210
0
220
0
230
1
0
LINE
5
8E
100
AcDbEntity
8
1
62
256
6
ByLayer
370
13
48
1
60
0
100
AcDbLine
10
140.846738
20
5.428926
30
0
11
140.842126
21
5.428684
31
0
39
0
210
0
220
0
230
1
0
LINE
5
8F
100
AcDbEntity
8
1
62
256
6
ByLayer
370
13
48
1
60
0
100
AcDbLine
10
133.875192
20
2.673034
30
0
11
133.560314
21
4.666826
31
0
39
0
210
0
220
0
230
1
0
LINE
5
90
100
AcDbEntity
8
1
62
256
6
ByLayer
370
13
48
1
60
0
100
AcDbLine
10
140.487891
20
7.671687
30
0
11
140.842126
21
5.428684
31
0
39
0
210
0
220
0
230
1
0
LINE
5
91
100
AcDbEntity
8
1
62
256
6
ByLayer
370
13
48
1
60
0
100
AcDbLine
10
134.045461
20
2.670181
30
0
11
134.040849
21
2.669939
31
0
39
0
210
0
220
0
230
1
0
LINE
5
92
100
AcDbEntity
8
1
62
256
6
ByLayer
370
13
48
1
60
0
100
AcDbLine
10
139.827292
20
7.920341
30
0
11
139.899137
21
7.923475
31
0
39
0
210
0
220
0
230
1
0
LINE
5
93
100
AcDbEntity
8
1
62
256
6
ByLayer
370
13
48
1
60
0
100
AcDbLine
10
140.525424
20
2.686
30
0
11
140.517873
21
2.712672
31
0
39
0
210
0
220
0
230
1
0
LINE
5
94
100
AcDbEntity
8
1
62
256
6
ByLayer
370
13
48
1
60
0
100
AcDbLine
10
134.003772
20
7.032764
30
0
11
134.005447
21
7.045561
31
0
39
0
210
0
220
0
230
1
0
LINE
5
95
100
AcDbEntity
8
1
62
256
6
ByLayer
370
13
48
1
60
0
100
AcDbLine
10
140.492503
20
7.671929
30
0
11
140.846738
21
5.428926
31
0
39
0
210
0
220
0
230
1
0
LINE
5
96
100
AcDbEntity
8
1
62
256
6
ByLayer
370
13
48
1
60
0
100
AcDbLine
10
133.783781
20
2.326914
30
0
11
133.779169
21
2.326672
31
0
39
0
210
0
220
0
230
1
0
LINE
5
97
100
AcDbEntity
8
1
62
256
6
ByLayer
370
13
48
1
60
0
100
AcDbLine
10
132.512223
20
4.718587
30
0
11
132.866458
21
2.475584
31
0
39
0
210
0
220
0
230
1
0
LINE
5
98
100
AcDbEntity
8
1
62
256
6
ByLayer
370
13
48
1
60
0
100
AcDbLine
10
140.680773
20
5.404527
30
0
11
140.326538
21
7.64753
31
0
39
0
210
0
220
0
230
1
0
LINE
5
99
100
AcDbEntity
8
1
62
256
6
ByLayer
370
13
48
1
60
0
100
AcDbLine
10
139.899137
20
7.923475
30
0
11
139.894525
21
7.923233
31
0
39
0
210
0
220
0
230
1
0
LINE
5
9A
100
AcDbEntity
8
1
62
256
6
ByLayer
370
13
48
1
60
0
100
AcDbLine
10
140.492503
20
7.671929
30
0
11
140.487891
21
7.671687
31
0
39
0
210
0
220
0
230
1
0
LINE
5
9B
100
AcDbEntity
8
1
62
256
6
ByLayer
370
13
48
1
60
0
100
AcDbLine
10
140.847879
20
5.342838
30
0
11
140.576203
21
3.266959
31
0
39
0
210
0
220
0
230
1
0
LINE
5
9C
100
AcDbEntity
8
1
62
256
6
ByLayer
370
13
48
1
60
0
100
AcDbLine
10
133.830302
20
6.998424
30
0
11
133.010741
21
6.875596
31
0
39
0
210
0
220
0
230
1
0
LINE
5
9D
100
AcDbEntity
8
1
62
256
6
ByLayer
370
13
48
1
60
0
100
AcDbLine
10
139.71328
20
2.575563
30
0
11
139.626127
21
2.570996
31
0
39
0
210
0
220
0
230
1
0
LINE
5
9E
100
AcDbEntity
8
1
62
256
6
ByLayer
370
13
48
1
60
0
100
AcDbLine
10
140.576203
20
3.266959
30
0
11
140.571591
21
3.266717
31
0
39
0
210
0
220
0
230
1
0
LINE
5
9F
100
AcDbEntity
8
1
62
256
6
ByLayer
370
13
48
1
60
0
100
AcDbLine
10
140.409667
20
3.285604
30
0
11
140.681344
21
5.361483
31
0
39
0
210
0
220
0
230
1
0
LINE
5
A0
100
AcDbEntity
8
1
62
256
6
ByLayer
370
13
48
1
60
0
100
AcDbLine
10
139.386408
20
3.140538
30
0
11
139.666564
21
5.281207
31
0
39
0
210
0
220
0
230
1
0
LINE
5
A1
100
AcDbEntity
8
1
62
256
6
ByLayer
370
13
48
1
60
0
100
AcDbLine
10
139.472511
20
2.890573
30
0
11
140.340758
21
3.020697
31
0
39
0
210
0
220
0
230
1
0
LINE
5
A2
100
AcDbEntity
8
1
62
256
6
ByLayer
370
13
48
1
60
0
100
AcDbLine
10
140.450226
20
3.138216
30
0
11
139.565323
21
3.005595
31
0
39
0
210
0
220
0
230
1
0
LINE
5
A3
100
AcDbEntity
8
1
62
256
6
ByLayer
370
13
48
1
60
0
100
AcDbLine
10
133.191839
20
7.673535
30
0
11
133.099707
21
7.667896
31
0
39
0
210
0
220
0
230
1
0
LINE
5
A4
100
AcDbEntity
8
1
62
256
6
ByLayer
370
13
48
1
60
0
100
AcDbLine
10
140.26939
20
2.675431
30
0
11
140.461559
21
3.038801
31
0
39
0
210
0
220
0
230
1
0
LINE
5
A5
100
AcDbEntity
8
1
62
256
6
ByLayer
370
13
48
1
60
0
100
AcDbLine
10
140.843267
20
5.342596
30
0
11
140.571591
21
3.266717
31
0
39
0
210
0
220
0
230
1
0
LINE
5
A6
100
AcDbEntity
8
1
62
256
6
ByLayer
370
13
48
1
60
0
100
AcDbLine
10
133.723616
20
4.892095
30
0
11
134.003772
21
7.032764
31
0
39
0
210
0
220
0
230
1
0
LINE
5
A7
100
AcDbEntity
8
1
62
256
6
ByLayer
370
13
48
1
60
0
100
AcDbLine
10
133.55708
20
4.91074
30
0
11
133.830302
21
6.998424
31
0
39
0
210
0
220
0
230
1
0
LINE
5
A8
100
AcDbEntity
8
1
62
256
6
ByLayer
370
13
48
1
60
0
100
AcDbLine
10
139.664186
20
5.460556
30
0
11
139.35859
21
7.395577
31
0
39
0
210
0
220
0
230
1
0
LINE
5
A9
100
AcDbEntity
8
1
62
256
6
ByLayer
370
13
48
1
60
0
100
AcDbLine
10
140.847879
20
5.342838
30
0
11
140.843267
21
5.342596
31
0
39
0
210
0
220
0
230
1
0
LINE
5
AA
100
AcDbEntity
8
1
62
256
6
ByLayer
370
13
48
1
60
0
100
AcDbLine
10
138.83068
20
3.023759
30
0
11
134.85324
21
2.81531
31
0
39
0
210
0
220
0
230
1
0
LINE
5
AB
100
AcDbEntity
8
1
62
256
6
ByLayer
370
13
48
1
60
0
100
AcDbLine
10
134.01206
20
2.578728
30
0
11
134.007448
21
2.578487
31
0
39
0
210
0
220
0
230
1
0
LINE
5
AC
100
AcDbEntity
8
1
62
256
6
ByLayer
370
13
48
1
60
0
100
AcDbLine
10
133.533171
20
2.38855
30
0
11
133.605016
21
2.391684
31
0
39
0
210
0
220
0
230
1
0
LINE
5
AD
100
AcDbEntity
8
1
62
256
6
ByLayer
370
13
48
1
60
0
100
AcDbLine
10
139.545216
20
7.488167
30
0
11
139.860093
21
5.494375
31
0
39
0
210
0
220
0
230
1
0
LINE
5
AE
100
AcDbEntity
8
1
62
256
6
ByLayer
370
13
48
1
60
0
100
AcDbLine
10
139.827292
20
7.920341
30
0
11
139.82268
21
7.920099
31
0
39
0
210
0
220
0
230
1
0
LINE
5
AF
100
AcDbEntity
8
1
62
256
6
ByLayer
370
13
48
1
60
0
100
AcDbLine
10
140.22628
20
2.635992
30
0
11
140.340758
21
3.020697
31
0
39
0
210
0
220
0
230
1
0
LINE
5
B0
100
AcDbEntity
8
1
62
256
6
ByLayer
370
13
48
1
60
0
100
AcDbLine
10
133.726595
20
2.146912
30
0
11
133.634379
21
2.142889
31
0
39
0
210
0
220
0
230
1
0
LINE
5
B1
100
AcDbEntity
8
1
62
256
6
ByLayer
370
13
48
1
60
0
100
AcDbLine
10
133.630013
20
2.242794
30
0
11
133.558168
21
2.239659
31
0
39
0
210
0
220
0
230
1
0
LINE
5
B2
100
AcDbEntity
8
1
62
256
6
ByLayer
370
13
48
1
60
0
100
AcDbLine
10
133.984794
20
7.272561
30
0
11
132.995747
21
7.124333
31
0
39
0
210
0
220
0
230
1
0
LINE
5
B3
100
AcDbEntity
8
1
62
256
6
ByLayer
370
13
48
1
60
0
100
AcDbLine
10
139.505121
20
7.889497
30
0
11
139.592275
21
7.894065
31
0
39
0
210
0
220
0
230
1
0
LINE
5
B4
100
AcDbEntity
8
1
62
256
6
ByLayer
370
13
48
1
60
0
100
AcDbLine
10
140.945082
20
5.444547
30
0
11
140.590847
21
7.68755
31
0
39
0
210
0
220
0
230
1
0
LINE
5
B5
100
AcDbEntity
8
1
62
256
6
ByLayer
370
13
48
1
60
0
100
AcDbLine
10
139.590106
20
3.162777
30
0
11
140.409667
21
3.285604
31
0
39
0
210
0
220
0
230
1
0
LINE
5
B6
100
AcDbEntity
8
1
62
256
6
ByLayer
370
13
48
1
60
0
100
AcDbLine
10
140.445614
20
3.137974
30
0
11
139.560711
21
3.005354
31
0
39
0
210
0
220
0
230
1
0
LINE
5
B7
100
AcDbEntity
8
1
62
256
6
ByLayer
370
13
48
1
60
0
100
AcDbLine
10
140.201552
20
7.925032
30
0
11
140.19694
21
7.92479
31
0
39
0
210
0
220
0
230
1
0
LINE
5
B8
100
AcDbEntity
8
1
62
256
6
ByLayer
370
13
48
1
60
0
100
AcDbLine
10
134.000835
20
7.045319
30
0
11
133.719004
21
4.891854
31
0
39
0
210
0
220
0
230
1
0
LINE
5
B9
100
AcDbEntity
8
1
62
256
6
ByLayer
370
13
48
1
60
0
100
AcDbLine
10
133.72628
20
4.691225
30
0
11
133.721667
21
4.690983
31
0
39
0
210
0
220
0
230
1
0
LINE
5
BA
100
AcDbEntity
8
1
62
256
6
ByLayer
370
13
48
1
60
0
100
AcDbLine
10
139.565323
20
3.005595
30
0
11
139.560711
21
3.005354
31
0
39
0
210
0
220
0
230
1
0
LINE
5
BB
100
AcDbEntity
8
1
62
256
6
ByLayer
370
13
48
1
60
0
100
AcDbLine
10
140.051037
20
2.642707
30
0
11
139.732661
21
2.594992
31
0
39
0
210
0
220
0
230
1
0
LINE
5
BC
100
AcDbEntity
8
1
62
256
6
ByLayer
370
13
48
1
60
0
100
AcDbLine
10
132.415444
20
4.855521
30
0
11
132.411311
21
4.823941
31
0
39
0
210
0
220
0
230
1
0
LINE
5
BD
100
AcDbEntity
8
1
62
256
6
ByLayer
370
13
48
1
60
0
100
AcDbLine
10
134.031875
20
2.756204
30
0
11
133.72628
21
4.691225
31
0
39
0
210
0
220
0
230
1
0
LINE
5
BE
100
AcDbEntity
8
1
62
256
6
ByLayer
370
13
48
1
60
0
100
AcDbLine
10
132.417154
20
4.715919
30
0
11
132.836427
21
2.474741
31
0
39
0
210
0
220
0
230
1
0
LINE
5
BF
100
AcDbEntity
8
1
62
256
6
ByLayer
370
13
48
1
60
0
100
AcDbLine
10
139.887237
20
7.772651
30
0
11
139.815392
21
7.769517
31
0
39
0
210
0
220
0
230
1
0
LINE
5
C0
100
AcDbEntity
8
1
62
256
6
ByLayer
370
13
48
1
60
0
100
AcDbLine
10
133.161821
20
7.507616
30
0
11
133.480198
21
7.555331
31
0
39
0
210
0
220
0
230
1
0
LINE
5
C1
100
AcDbEntity
8
1
62
256
6
ByLayer
370
13
48
1
60
0
100
AcDbLine
10
133.723616
20
4.892095
30
0
11
133.719004
21
4.891854
31
0
39
0
210
0
220
0
230
1
0
LINE
5
C2
100
AcDbEntity
8
1
62
256
6
ByLayer
370
13
48
1
60
0
100
AcDbLine
10
134.084734
20
7.023321
30
0
11
133.804578
21
4.882652
31
0
39
0
210
0
220
0
230
1
0
LINE
5
C3
100
AcDbEntity
8
1
62
256
6
ByLayer
370
13
48
1
60
0
100
AcDbLine
10
140.450226
20
3.138216
30
0
11
140.445614
21
3.137974
31
0
39
0
210
0
220
0
230
1
0
LINE
5
C4
100
AcDbEntity
8
1
62
256
6
ByLayer
370
13
48
1
60
0
100
AcDbLine
10
132.964802
20
2.491205
30
0
11
132.610567
21
4.734209
31
0
39
0
210
0
220
0
230
1
0
LINE
5
C5
100
AcDbEntity
8
1
62
256
6
ByLayer
370
13
48
1
60
0
100
AcDbLine
10
133.00708
20
7.024919
30
0
11
133.891982
21
7.157539
31
0
39
0
210
0
220
0
230
1
0
LINE
5
C6
100
AcDbEntity
8
1
62
256
6
ByLayer
370
13
48
1
60
0
100
AcDbLine
10
139.73071
20
8.016222
30
0
11
139.822927
21
8.020245
31
0
39
0
210
0
220
0
230
1
0
LINE
5
C7
100
AcDbEntity
8
1
62
256
6
ByLayer
370
13
48
1
60
0
100
AcDbLine
10
135.024171
20
2.824268
30
0
11
135.521619
21
2.850338
31
0
39
0
210
0
220
0
230
1
0
LINE
5
C8
100
AcDbEntity
8
1
62
256
6
ByLayer
370
13
48
1
60
0
100
AcDbLine
10
137.877814
20
2.913132
30
0
11
137.815984
21
2.909891
31
0
39
0
210
0
220
0
230
1
0
LINE
5
C9
100
AcDbEntity
8
1
62
256
6
ByLayer
370
13
48
1
60
0
100
AcDbLine
10
132.304654
20
4.51987
30
0
11
132.719115
21
7.686761
31
0
39
0
210
0
220
0
230
1
0
LINE
5
CA
100
AcDbEntity
8
1
62
256
6
ByLayer
370
13
48
1
60
0
100
AcDbLine
10
140.415692
20
1.940146
30
0
11
140.418206
21
0.684058
31
0
39
0
210
0
220
0
230
1
0
LINE
5
CB
100
AcDbEntity
8
1
62
256
6
ByLayer
370
13
48
1
60
0
100
AcDbLine
10
0.5
20
-12.393411
30
0
11
0.5
21
-2.567
31
0
39
0
210
0
220
0
230
1
0
LINE
5
CC
100
AcDbEntity
8
1
62
256
6
ByLayer
370
13
48
1
60
0
100
AcDbLine
10
0
20
-11.954528
30
0
11
0
21
-2.567
31
0
39
0
210
0
220
0
230
1
0
LINE
5
CD
100
AcDbEntity
8
1
62
256
6
ByLayer
370
13
48
1
60
0
100
AcDbLine
10
31
20
7.8
30
0
11
31
21
-2.592694
31
0
39
0
210
0
220
0
230
1
0
LINE
5
CE
100
AcDbEntity
8
1
62
256
6
ByLayer
370
13
48
1
60
0
100
AcDbLine
10
139.789721
20
2.373059
30
0
11
140.103294
21
2.389493
31
0
39
0
210
0
220
0
230
1
0
LINE
5
CF
100
AcDbEntity
8
1
62
256
6
ByLayer
370
13
48
1
60
0
100
AcDbLine
10
3.5
20
-2.567
30
0
11
3.5
21
2.567
31
0
39
0
210
0
220
0
230
1
0
LINE
5
D0
100
AcDbEntity
8
1
62
256
6
ByLayer
370
13
48
1
60
0
100
AcDbLine
10
132.430494
20
3.183543
30
0
11
132.289034
21
4.07926
31
0
39
0
210
0
220
0
230
1
0
LINE
5
D1
100
AcDbEntity
8
1
62
256
6
ByLayer
370
13
48
1
60
0
100
AcDbLine
10
130.840855
20
3.234951
30
0
11
131.774243
21
2.948178
31
0
39
0
210
0
220
0
230
1
0
LINE
5
D2
100
AcDbEntity
8
1
62
256
6
ByLayer
370
13
48
1
60
0
100
AcDbLine
10
140.114761
20
-0.150399
30
0
11
139.591734
21
0.465916
31
0
39
0
210
0
220
0
230
1
0
LINE
5
D3
100
AcDbEntity
8
1
62
256
6
ByLayer
370
13
48
1
60
0
100
AcDbLine
10
138.106687
20
2.985816
30
0
11
138.604135
21
3.011886
31
0
39
0
210
0
220
0
230
1
0
LINE
5
D4
100
AcDbEntity
8
1
62
256
6
ByLayer
370
13
48
1
60
0
100
AcDbLine
10
4
20
-14.773792
30
0
11
4
21
-12.706792
31
0
39
0
210
0
220
0
230
1
0
LINE
5
D5
100
AcDbEntity
8
1
62
256
6
ByLayer
370
13
48
1
60
0
100
AcDbLine
10
3.5
20
-14.960411
30
0
11
3.5
21
-13.840868
31
0
39
0
210
0
220
0
230
1
0
LINE
5
D6
100
AcDbEntity
8
1
62
256
6
ByLayer
370
13
48
1
60
0
100
AcDbLine
10
26
20
7.8
30
0
11
26
21
-2.592837
31
0
39
0
210
0
220
0
230
1
0
LINE
5
D7
100
AcDbEntity
8
1
62
256
6
ByLayer
370
13
48
1
60
0
100
AcDbLine
10
140.339931
20
2.5521
30
0
11
140.155133
21
2.542415
31
0
39
0
210
0
220
0
230
1
0
LINE
5
D8
100
AcDbEntity
8
1
62
256
6
ByLayer
370
13
48
1
60
0
100
AcDbLine
10
139.789721
20
2.373059
30
0
11
139.611603
21
0.968033
31
0
39
0
210
0
220
0
230
1
0
LINE
5
D9
100
AcDbEntity
8
1
62
256
6
ByLayer
370
13
48
1
60
0
100
AcDbLine
10
0
20
-13.840868
30
0
11
3.5
21
-13.840868
31
0
39
0
210
0
220
0
230
1
0
LINE
5
DA
100
AcDbEntity
8
1
62
256
6
ByLayer
370
13
48
1
60
0
100
AcDbLine
10
4
20
-2.067
30
0
11
4
21
2.067
31
0
39
0
210
0
220
0
230
1
0
LINE
5
DB
100
AcDbEntity
8
1
62
256
6
ByLayer
370
13
48
1
60
0
100
AcDbLine
10
140.356996
20
2.265924
30
0
11
140.339931
21
2.5521
31
0
39
0
210
0
220
0
230
1
0
LINE
5
DC
100
AcDbEntity
8
1
62
256
6
ByLayer
370
13
48
1
60
0
100
AcDbLine
10
131.254071
20
-7.741532
30
0
11
131.254071
21
0.333909
31
0
39
0
210
0
220
0
230
1
0
LINE
5
DD
100
AcDbEntity
8
1
62
256
6
ByLayer
370
13
48
1
60
0
100
AcDbLine
10
134.969425
20
1.966372
30
0
11
135.266425
21
1.981938
31
0
39
0
210
0
220
0
230
1
0
LINE
5
DE
100
AcDbEntity
8
1
62
256
6
ByLayer
370
13
48
1
60
0
100
AcDbLine
10
0.5
20
-12.393411
30
0
11
3.5
21
-12.393411
31
0
39
0
210
0
220
0
230
1
0
LINE
5
DF
100
AcDbEntity
8
1
62
256
6
ByLayer
370
13
48
1
60
0
100
AcDbLine
10
139.611603
20
0.968033
30
0
11
140.068483
21
0.429663
31
0
39
0
210
0
220
0
230
1
0
LINE
5
E0
100
AcDbEntity
8
1
62
256
6
ByLayer
370
13
48
1
60
0
100
AcDbLine
10
140.155133
20
2.542415
30
0
11
139.945594
21
2.531434
31
0
39
0
210
0
220
0
230
1
0
LINE
5
E1
100
AcDbEntity
8
1
62
256
6
ByLayer
370
13
48
1
60
0
100
AcDbLine
10
139.074507
20
2.836263
30
0
11
136.197735
21
2.685497
31
0
39
0
210
0
220
0
230
1
0
LINE
5
E2
100
AcDbEntity
8
1
62
256
6
ByLayer
370
13
48
1
60
0
100
AcDbLine
10
0
20
-14.521528
30
0
11
0
21
-13.840868
31
0
39
0
210
0
220
0
230
1
0
LINE
5
E3
100
AcDbEntity
8
1
62
256
6
ByLayer
370
13
48
1
60
0
100
AcDbLine
10
140.114761
20
-0.150399
30
0
11
140.307797
21
-1.359656
31
0
39
0
210
0
220
0
230
1
0
LINE
5
E4
100
AcDbEntity
8
1
62
256
6
ByLayer
370
13
48
1
60
0
100
AcDbLine
10
3.5
20
-2.567
30
0
11
0.5
21
-2.567
31
0
39
0
210
0
220
0
230
1
0
LINE
5
E5
100
AcDbEntity
8
1
62
256
6
ByLayer
370
13
48
1
60
0
100
AcDbLine
10
134.643153
20
2.516026
30
0
11
134.524771
21
2.509822
31
0
39
0
210
0
220
0
230
1
0
LINE
5
E6
100
AcDbEntity
8
1
62
256
6
ByLayer
370
13
48
1
60
0
100
AcDbLine
10
129.57702
20
3.598108
30
0
11
130.749137
21
4.267227
31
0
39
0
210
0
220
0
230
1
0
LINE
5
E7
100
AcDbEntity
8
1
62
256
6
ByLayer
370
13
48
1
60
0
100
AcDbLine
10
3.5
20
-14.960411
30
0
11
0.5
21
-14.960411
31
0
39
0
210
0
220
0
230
1
0
LINE
5
E8
100
AcDbEntity
8
1
62
256
6
ByLayer
370
13
48
1
60
0
100
AcDbLine
10
139.591734
20
0.465916
30
0
11
139.603257
21
0.229172
31
0
39
0
210
0
220
0
230
1
0
LINE
5
E9
100
AcDbEntity
8
1
62
256
6
ByLayer
370
13
48
1
60
0
100
AcDbLine
10
140.322743
20
-2.49242
30
0
11
140.090127
21
-4.245516
31
0
39
0
210
0
220
0
230
1
0
LINE
5
EA
100
AcDbEntity
8
1
62
256
6
ByLayer
370
13
48
1
60
0
100
AcDbLine
10
130.749137
20
4.267227
30
0
11
129.356213
21
6.530048
31
0
39
0
210
0
220
0
230
1
0
LINE
5
EB
100
AcDbEntity
8
1
62
256
6
ByLayer
370
13
48
1
60
0
100
AcDbLine
10
26.01
20
-4.660588
30
0
11
26.01
21
-7.271246
31
0
39
0
210
0
220
0
230
1
0
LINE
5
EC
100
AcDbEntity
8
1
62
256
6
ByLayer
370
13
48
1
60
0
100
AcDbLine
10
140.314487
20
0.553894
30
0
11
140.357928
21
0.496718
31
0
39
0
210
0
220
0
230
1
0
LINE
5
ED
100
AcDbEntity
8
1
62
256
6
ByLayer
370
13
48
1
60
0
100
AcDbLine
10
136.303789
20
2.190369
30
0
11
136.580521
21
2.204872
31
0
39
0
210
0
220
0
230
1
0
LINE
5
EE
100
AcDbEntity
8
1
62
256
6
ByLayer
370
13
48
1
60
0
100
AcDbLine
10
139.930076
20
-7.741532
30
0
11
140.290098
21
-5.028258
31
0
39
0
210
0
220
0
230
1
0
LINE
5
EF
100
AcDbEntity
8
1
62
256
6
ByLayer
370
13
48
1
60
0
100
AcDbLine
10
126.538031
20
1.432978
30
0
11
126.582962
21
1.190905
31
0
39
0
210
0
220
0
230
1
0
LINE
5
F0
100
AcDbEntity
8
1
62
256
6
ByLayer
370
13
48
1
60
0
100
AcDbLine
10
134.674059
20
2.605645
30
0
11
134.688348
21
2.606394
31
0
39
0
210
0
220
0
230
1
0
LINE
5
F1
100
AcDbEntity
8
1
62
256
6
ByLayer
370
13
48
1
60
0
100
AcDbLine
10
136.580521
20
2.204872
30
0
11
139.789721
21
2.373059
31
0
39
0
210
0
220
0
230
1
0
LINE
5
F2
100
AcDbEntity
8
1
62
256
6
ByLayer
370
13
48
1
60
0
100
AcDbLine
10
139.768065
20
-0.723657
30
0
11
140.307797
21
-1.359656
31
0
39
0
210
0
220
0
230
1
0
LINE
5
F3
100
AcDbEntity
8
1
62
256
6
ByLayer
370
13
48
1
60
0
100
AcDbLine
10
128.254071
20
-7.635841
30
0
11
128.254071
21
0.519126
31
0
39
0
210
0
220
0
230
1
0
LINE
5
F4
100
AcDbEntity
8
1
62
256
6
ByLayer
370
13
48
1
60
0
100
AcDbLine
10
140.290098
20
-5.028258
30
0
11
140.075668
21
-4.812443
31
0
39
0
210
0
220
0
230
1
0
LINE
5
F5
100
AcDbEntity
8
1
62
256
6
ByLayer
370
13
48
1
60
0
100
AcDbLine
10
140.322743
20
-2.49242
30
0
11
139.8194
21
-1.8993
31
0
39
0
210
0
220
0
230
1
0
LINE
5
F6
100
AcDbEntity
8
1
62
256
6
ByLayer
370
13
48
1
60
0
100
AcDbLine
10
0.5
20
2.567
30
0
11
3.5
21
2.567
31
0
39
0
210
0
220
0
230
1
0
LINE
5
F7
100
AcDbEntity
8
1
62
256
6
ByLayer
370
13
48
1
60
0
100
AcDbLine
10
132.74844
20
6.819741
30
0
11
132.518561
21
5.063242
31
0
39
0
210
0
220
0
230
1
0
LINE
5
F8
100
AcDbEntity
8
1
62
256
6
ByLayer
370
13
48
1
60
0
100
AcDbLine
10
139.930076
20
-7.741532
30
0
11
131.254071
21
-7.741532
31
0
39
0
210
0
220
0
230
1
0
LINE
5
F9
100
AcDbEntity
8
1
62
256
6
ByLayer
370
13
48
1
60
0
100
AcDbLine
10
129.098821
20
0.861124
30
0
11
129.184442
21
0.399832
31
0
39
0
210
0
220
0
230
1
0
LINE
5
FA
100
AcDbEntity
8
1
62
256
6
ByLayer
370
13
48
1
60
0
100
AcDbLine
10
129.356213
20
3.555127
30
0
11
129.356213
21
6.530048
31
0
39
0
210
0
220
0
230
1
0
LINE
5
FB
100
AcDbEntity
8
1
62
256
6
ByLayer
370
13
48
1
60
0
100
AcDbLine
10
0
20
-2.567
30
0
11
0
21
2.567
31
0
39
0
210
0
220
0
230
1
0
LINE
5
FC
100
AcDbEntity
8
1
62
256
6
ByLayer
370
18
48
1
60
0
100
AcDbLine
10
137.398578
20
5.319293
30
0
11
137.378486
21
5.322164
31
0
39
0
210
0
220
0
230
1
0
LINE
5
FD
100
AcDbEntity
8
1
62
256
6
ByLayer
370
18
48
1
60
0
100
AcDbLine
10
137.236177
20
5.642449
30
0
11
137.173459
21
5.639162
31
0
39
0
210
0
220
0
230
1
0
LINE
5
FE
100
AcDbEntity
8
1
62
256
6
ByLayer
370
18
48
1
60
0
100
AcDbLine
10
137.173459
20
5.639162
30
0
11
137.17902
21
5.65876
31
0
39
0
210
0
220
0
230
1
0
LINE
5
FF
100
AcDbEntity
8
1
62
256
6
ByLayer
370
18
48
1
60
0
100
AcDbLine
10
136.571791
20
4.332522
30
0
11
136.509073
21
4.329236
31
0
39
0
210
0
220
0
230
1
0
LINE
5
100
100
AcDbEntity
8
1
62
256
6
ByLayer
370
18
48
1
60
0
100
AcDbLine
10
136.496559
20
4.313197
30
0
11
136.509073
21
4.329236
31
0
39
0
210
0
220
0
230
1
0
LINE
5
101
100
AcDbEntity
8
1
62
256
6
ByLayer
370
18
48
1
60
0
100
AcDbLine
10
136.481204
20
5.824805
30
0
11
136.417514
21
5.821467
31
0
39
0
210
0
220
0
230
1
0
LINE
5
102
100
AcDbEntity
8
1
62
256
6
ByLayer
370
18
48
1
60
0
100
AcDbLine
10
137.441204
20
5.325451
30
0
11
137.378486
21
5.322164
31
0
39
0
210
0
220
0
230
1
0
LINE
5
103
100
AcDbEntity
8
1
62
256
6
ByLayer
370
18
48
1
60
0
100
AcDbLine
10
136.494354
20
5.810112
30
0
11
136.431636
21
5.806825
31
0
39
0
210
0
220
0
230
1
0
LINE
5
104
100
AcDbEntity
8
1
62
256
6
ByLayer
370
18
48
1
60
0
100
AcDbLine
10
137.400075
20
4.910214
30
0
11
137.419758
21
4.91517
31
0
39
0
210
0
220
0
230
1
0
LINE
5
105
100
AcDbEntity
8
1
62
256
6
ByLayer
370
18
48
1
60
0
100
AcDbLine
10
137.236885
20
4.554613
30
0
11
137.229307
21
4.573522
31
0
39
0
210
0
220
0
230
1
0
LINE
5
106
100
AcDbEntity
8
1
62
256
6
ByLayer
370
18
48
1
60
0
100
AcDbLine
10
137.462268
20
5.322631
30
0
11
137.398578
21
5.319293
31
0
39
0
210
0
220
0
230
1
0
LINE
5
107
100
AcDbEntity
8
1
62
256
6
ByLayer
370
18
48
1
60
0
100
AcDbLine
10
137.300575
20
4.557951
30
0
11
137.236885
21
4.554613
31
0
39
0
210
0
220
0
230
1
0
LINE
5
108
100
AcDbEntity
8
1
62
256
6
ByLayer
370
18
48
1
60
0
100
AcDbLine
10
136.560249
20
4.316535
30
0
11
136.496559
21
4.313197
31
0
39
0
210
0
220
0
230
1
0
LINE
5
109
100
AcDbEntity
8
1
62
256
6
ByLayer
370
18
48
1
60
0
100
AcDbLine
10
137.483447
20
4.918508
30
0
11
137.419758
21
4.91517
31
0
39
0
210
0
220
0
230
1
0
LINE
5
10A
100
AcDbEntity
8
1
62
256
6
ByLayer
370
18
48
1
60
0
100
AcDbLine
10
137.242709
20
5.662097
30
0
11
137.17902
21
5.65876
31
0
39
0
210
0
220
0
230
1
0
LINE
5
10B
100
AcDbEntity
8
1
62
256
6
ByLayer
370
18
48
1
60
0
100
AcDbLine
10
136.431636
20
5.806825
30
0
11
136.417514
21
5.821467
31
0
39
0
210
0
220
0
230
1
0
LINE
5
10C
100
AcDbEntity
8
1
62
256
6
ByLayer
370
18
48
1
60
0
100
AcDbLine
10
137.462793
20
4.913501
30
0
11
137.400075
21
4.910214
31
0
39
0
210
0
220
0
230
1
0
LINE
5
10D
100
AcDbEntity
8
1
62
256
6
ByLayer
370
18
48
1
60
0
100
AcDbLine
10
137.292025
20
4.576809
30
0
11
137.229307
21
4.573522
31
0
39
0
210
0
220
0
230
1
0
LINE
5
10E
100
AcDbEntity
8
1
62
256
6
ByLayer
370
18
48
1
60
0
100
AcDbLine
10
140.665326
20
-0.095015
30
0
11
140.557653
21
0.27755
31
0
39
0
210
0
220
0
230
1
0
LINE
5
10F
100
AcDbEntity
8
1
62
256
6
ByLayer
370
18
48
1
60
0
100
AcDbLine
10
140.773297
20
-2.034168
30
0
11
140.492087
21
-4.153484
31
0
39
0
210
0
220
0
230
1
0
LINE
5
110
100
AcDbEntity
8
1
62
256
6
ByLayer
370
18
48
1
60
0
100
AcDbLine
10
140.45972
20
0.034686
30
0
11
140.771795
21
-1.920281
31
0
39
0
210
0
220
0
230
1
0
LINE
5
111
100
AcDbEntity
8
1
62
256
6
ByLayer
370
18
48
1
60
0
100
AcDbLine
10
140.385143
20
0.303467
30
0
11
140.44915
21
0.081995
31
0
39
0
210
0
220
0
230
1
0
LINE
5
112
100
AcDbEntity
8
1
62
256
6
ByLayer
370
13
48
1
60
0
100
AcDbLine
10
134.53002
20
2.521328
30
0
11
134.204665
21
2.504277
31
0
39
0
210
0
220
0
230
1
0
LINE
5
113
100
AcDbEntity
8
1
62
256
6
ByLayer
370
13
48
1
60
0
100
AcDbLine
10
132.651719
20
3.251833
30
0
11
132.652402
21
3.247508
31
0
39
0
210
0
220
0
230
1
0
LINE
5
114
100
AcDbEntity
8
1
62
256
6
ByLayer
370
13
48
1
60
0
100
AcDbLine
10
140.357928
20
0.496718
30
0
11
140.090789
21
0.531612
31
0
39
0
210
0
220
0
230
1
0
LINE
5
115
100
AcDbEntity
8
1
62
256
6
ByLayer
370
13
48
1
60
0
100
AcDbLine
10
133.661192
20
7.433291
30
0
11
133.684575
21
7.611962
31
0
39
0
210
0
220
0
230
1
0
LINE
5
116
100
AcDbEntity
8
1
62
256
6
ByLayer
370
13
48
1
60
0
100
AcDbLine
10
31
20
-7.786118
30
0
11
31
21
-7.8
31
0
39
0
210
0
220
0
230
1
0
LINE
5
117
100
AcDbEntity
8
1
62
256
6
ByLayer
370
13
48
1
60
0
100
AcDbLine
10
131.254071
20
7.8
30
0
11
131.254071
21
7.662119
31
0
39
0
210
0
220
0
230
1
0
LINE
5
118
100
AcDbEntity
8
1
62
256
6
ByLayer
370
13
48
1
60
0
100
AcDbLine
10
140.314487
20
0.553894
30
0
11
140.301684
21
0.555566
31
0
39
0
210
0
220
0
230
1
0
LINE
5
119
100
AcDbEntity
8
1
62
256
6
ByLayer
370
13
48
1
60
0
100
AcDbLine
10
72
20
-7.704797
30
0
11
72
21
-7.72
31
0
39
0
210
0
220
0
230
1
0
LINE
5
11A
100
AcDbEntity
8
1
62
256
6
ByLayer
370
13
48
1
60
0
100
AcDbLine
10
128.254071
20
7.72
30
0
11
128.254071
21
7.618557
31
0
39
0
210
0
220
0
230
1
0
LINE
5
11B
100
AcDbEntity
8
1
62
256
6
ByLayer
370
13
48
1
60
0
100
AcDbLine
10
0
20
-14.521528
30
0
11
0
21
-15.5
31
0
39
0
210
0
220
0
230
1
0
LINE
5
11C
100
AcDbEntity
8
1
62
256
6
ByLayer
370
13
48
1
60
0
100
AcDbLine
10
72
20
7.72
30
0
11
72
21
-2.591841
31
0
39
0
210
0
220
0
230
1
0
LINE
5
11D
100
AcDbEntity
8
1
62
256
6
ByLayer
370
13
48
1
60
0
100
AcDbLine
10
0
20
-13.840868
30
0
11
0
21
-11.953296
31
0
39
0
210
0
220
0
230
1
0
LINE
5
11E
100
AcDbEntity
8
1
62
256
6
ByLayer
370
13
48
1
60
0
100
AcDbLine
10
3.5
20
-12.393377
30
0
11
3.5
21
-13.840868
31
0
39
0
210
0
220
0
230
1
0
LINE
5
11F
100
AcDbEntity
8
SK1
62
256
6
ByLayer
370
13
48
1
60
0
100
AcDbLine
10
-15
20
9.445576
30
0
11
-15
21
-9.445576
31
0
39
0
210
0
220
0
230
1
0
LINE
5
121
100
AcDbEntity
8
SK1
62
256
6
ByLayer
370
13
48
1
60
0
100
AcDbLine
10
-13.5
20
9.8475
30
0
11
-13.5
21
-9.8475
31
0
39
0
210
0
220
0
230
1
0
LINE
5
122
100
AcDbEntity
8
SK1
62
256
6
ByLayer
370
13
48
1
60
0
100
AcDbLine
10
-8.57646
20
9.65
30
0
11
-8.57646
21
-9.65
31
0
39
0
210
0
220
0
230
1
0
LINE
5
123
100
AcDbEntity
8
SK1
62
256
6
ByLayer
370
13
48
1
60
0
100
AcDbLine
10
-9
20
9.8475
30
0
11
-9
21
-9.8475
31
0
39
0
210
0
220
0
230
1
0
LINE
5
124
100
AcDbEntity
8
SK1
62
256
6
ByLayer
370
13
48
1
60
0
100
AcDbLine
10
-1.57646
20
9.8
30
0
11
-1.57646
21
-9.8
31
0
39
0
210
0
220
0
230
1
0
LINE
5
125
100
AcDbEntity
8
SK1
62
256
6
ByLayer
370
13
48
1
60
0
100
AcDbLine
10
-2
20
9.9975
30
0
11
-2
21
-9.9975
31
0
39
0
210
0
220
0
230
1
0
LINE
5
126
100
AcDbEntity
8
SK1
62
256
6
ByLayer
370
13
48
1
60
0
100
AcDbLine
10
-6.5
20
9.9975
30
0
11
-6.5
21
-9.9975
31
0
39
0
210
0
220
0
230
1
0
LINE
5
127
100
AcDbEntity
8
SK1
62
256
6
ByLayer
370
13
48
1
60
0
100
AcDbLine
10
-7.796888
20
9.65
30
0
11
-7.796888
21
-9.65
31
0
39
0
210
0
220
0
230
1
0
LINE
5
128
100
AcDbEntity
8
SK1
62
256
6
ByLayer
370
13
48
1
60
0
100
AcDbLine
10
-0.3
20
9.8
30
0
11
-0.3
21
-9.8
31
0
39
0
210
0
220
0
230
1
0
LINE
5
129
100
AcDbEntity
8
1
62
256
6
ByLayer
370
13
48
1
60
0
100
AcDbLine
10
13.1071
20
12.5
30
0
11
13.1071
21
-12.5
31
0
39
0
210
0
220
0
230
1
0
LINE
5
12A
100
AcDbEntity
8
1
62
256
6
ByLayer
370
13
48
1
60
0
100
AcDbLine
10
26
20
-7.786146
30
0
11
26
21
-7.8
31
0
39
0
210
0
220
0
230
1
0
LINE
5
12B
100
AcDbEntity
8
1
62
256
6
ByLayer
370
13
48
1
60
0
100
AcDbLine
10
5.5
20
12.5
30
0
11
5.5
21
-12.5
31
0
39
0
210
0
220
0
230
1
0
LINE
5
12C
100
AcDbEntity
8
1
62
256
6
ByLayer
370
13
48
1
60
0
100
AcDbLine
10
0
20
2.567
30
0
11
0
21
15.5
31
0
39
0
210
0
220
0
230
1
0
LINE
5
12D
100
AcDbEntity
8
1
62
256
6
ByLayer
370
13
48
1
60
0
100
AcDbLine
10
5
20
16
30
0
11
5
21
-16
31
0
39
0
210
0
220
0
230
1
0
LINE
5
12E
100
AcDbEntity
8
1
62
256
6
ByLayer
370
13
48
1
60
0
100
AcDbLine
10
0.5
20
2.567
30
0
11
0.5
21
16
31
0
39
0
210
0
220
0
230
1
0
LINE
5
12F
100
AcDbEntity
8
1
62
256
6
ByLayer
370
13
48
1
60
0
100
AcDbLine
10
0.5
20
-14.960411
30
0
11
0.5
21
-16
31
0
39
0
210
0
220
0
230
1
0
LINE
5
130
100
AcDbEntity
8
1
62
256
6
ByLayer
370
18
48
1
60
0
100
AcDbLine
10
140.151877
20
-4.889138
30
0
11
140.477553
21
-4.796481
31
0
39
0
210
0
220
0
230
1
0
LINE
5
131
100
AcDbEntity
8
1
62
256
6
ByLayer
370
18
48
1
60
0
100
AcDbLine
10
140.277345
20
-4.400758
30
0
11
140.066932
21
-4.460622
31
0
39
0
210
0
220
0
230
1
0
LINE
5
132
100
AcDbEntity
8
1
62
256
6
ByLayer
370
18
48
1
60
0
100
AcDbLine
10
140.072844
20
0.524772
30
0
11
140.135923
21
0.516532
31
0
39
0
210
0
220
0
230
1
0
LINE
5
133
100
AcDbEntity
8
1
62
256
6
ByLayer
370
13
48
1
60
0
100
AcDbLine
10
140.651561
20
3.181141
30
0
11
140.627597
21
2.883059
31
0
39
0
210
0
220
0
230
1
0
LINE
5
134
100
AcDbEntity
8
1
62
256
6
ByLayer
370
13
48
1
60
0
100
AcDbLine
10
140.095601
20
0.530984
30
0
11
140.080748
21
0.523743
31
0
39
0
210
0
220
0
230
1
0
LINE
5
135
100
AcDbEntity
8
1
62
256
6
ByLayer
370
13
48
1
60
0
100
AcDbLine
10
140.550352
20
2.989403
30
0
11
140.517873
21
2.712672
31
0
39
0
210
0
220
0
230
1
0
LINE
5
136
100
AcDbEntity
8
1
62
256
6
ByLayer
370
13
48
1
60
0
100
AcDbLine
10
139.474745
20
7.867711
30
0
11
139.456287
21
7.868525
31
0
39
0
210
0
220
0
230
1
0
LINE
5
137
100
AcDbEntity
8
1
62
256
6
ByLayer
370
13
48
1
60
0
100
AcDbLine
10
132.320099
20
4.637802
30
0
11
132.748328
21
2.84806
31
0
39
0
210
0
220
0
230
1
0
LINE
5
138
100
AcDbEntity
8
1
62
256
6
ByLayer
370
13
48
1
60
0
100
AcDbLine
10
132.748328
20
2.84806
30
0
11
132.773643
21
2.810348
31
0
39
0
210
0
220
0
230
1
0
LINE
5
139
100
AcDbEntity
8
1
62
256
6
ByLayer
370
13
48
1
60
0
100
AcDbLine
10
139.823292
20
7.920126
30
0
11
139.894525
21
7.923233
31
0
39
0
210
0
220
0
230
1
0
LINE
5
13A
100
AcDbEntity
8
1
62
256
6
ByLayer
370
13
48
1
60
0
100
AcDbLine
10
139.553639
20
3.004552
30
0
11
139.560711
21
3.005354
31
0
39
0
210
0
220
0
230
1
0
LINE
5
13B
100
AcDbEntity
8
1
62
256
6
ByLayer
370
13
48
1
60
0
100
AcDbLine
10
132.943469
20
7.474892
30
0
11
132.727677
21
7.442551
31
0
39
0
210
0
220
0
230
1
0
LINE
5
13C
100
AcDbEntity
8
1
62
256
6
ByLayer
370
13
48
1
60
0
100
AcDbLine
10
132.781114
20
6.899592
30
0
11
132.734311
21
7.213441
31
0
39
0
210
0
220
0
230
1
0
LINE
5
13D
100
AcDbEntity
8
1
62
256
6
ByLayer
370
13
48
1
60
0
100
AcDbLine
10
139.411845
20
7.492953
30
0
11
139.424366
21
7.413671
31
0
39
0
210
0
220
0
230
1
0
LINE
5
13E
100
AcDbEntity
8
1
62
256
6
ByLayer
370
13
48
1
60
0
100
AcDbLine
10
139.452664
20
3.123728
30
0
11
139.451858
21
3.117574
31
0
39
0
210
0
220
0
230
1
0
LINE
5
13F
100
AcDbEntity
8
1
62
256
6
ByLayer
370
18
48
1
60
0
100
AcDbLine
10
135.981616
20
4.8398
30
0
11
135.948525
21
4.838066
31
0
39
0
210
0
220
0
230
1
0
LINE
5
140
100
AcDbEntity
8
1
62
256
6
ByLayer
370
18
48
1
60
0
100
AcDbLine
10
135.960437
20
5.243923
30
0
11
135.927358
21
5.24219
31
0
39
0
210
0
220
0
230
1
0
LINE
5
141
100
AcDbEntity
8
4
62
256
6
ByLayer
370
18
48
0.05
60
0
100
AcDbLine
10
141
20
0
30
0
11
0
21
0
31
0
39
0
210
0
220
0
230
1
0
LINE
5
143
100
AcDbEntity
8
SK4
62
256
6
ByLayer
370
13
48
0.05
60
0
100
AcDbLine
10
141
20
0
30
0
11
-15
21
0
31
0
39
0
210
0
220
0
230
1
0
LINE
5
145
100
AcDbEntity
8
SK1
62
256
6
ByLayer
370
13
48
1
60
0
100
AcDbLine
10
-7.796888
20
9.65
30
0
11
-8.57646
21
9.65
31
0
39
0
210
0
220
0
230
1
0
LINE
5
146
100
AcDbEntity
8
SK1
62
256
6
ByLayer
370
13
48
1
60
0
100
AcDbLine
10
-8.57646
20
-9.65
30
0
11
-7.796888
21
-9.65
31
0
39
0
210
0
220
0
230
1
0
LINE
5
147
100
AcDbEntity
8
SK1
62
256
6
ByLayer
370
13
48
1
60
0
100
AcDbLine
10
-0.3
20
9.8
30
0
11
-1.57646
21
9.8
31
0
39
0
210
0
220
0
230
1
0
LINE
5
148
100
AcDbEntity
8
SK1
62
256
6
ByLayer
370
13
48
1
60
0
100
AcDbLine
10
-1.57646
20
-9.8
30
0
11
-0.3
21
-9.8
31
0
39
0
210
0
220
0
230
1
0
LINE
5
149
100
AcDbEntity
8
SK1
62
256
6
ByLayer
370
13
48
1
60
0
100
AcDbLine
10
-9
20
9.8475
30
0
11
-13.5
21
9.8475
31
0
39
0
210
0
220
0
230
1
0
LINE
5
14A
100
AcDbEntity
8
SK1
62
256
6
ByLayer
370
13
48
1
60
0
100
AcDbLine
10
-13.5
20
-9.8475
30
0
11
-9
21
-9.8475
31
0
39
0
210
0
220
0
230
1
0
LINE
5
14B
100
AcDbEntity
8
SK1
62
256
6
ByLayer
370
13
48
1
60
0
100
AcDbLine
10
-15
20
-9.445576
30
0
11
-13.5
21
-9.8475
31
0
39
0
210
0
220
0
230
1
0
LINE
5
14C
100
AcDbEntity
8
SK1
62
256
6
ByLayer
370
13
48
1
60
0
100
AcDbLine
10
-13.5
20
9.8475
30
0
11
-15
21
9.445576
31
0
39
0
210
0
220
0
230
1
0
LINE
5
14D
100
AcDbEntity
8
SK1
62
256
6
ByLayer
370
13
48
1
60
0
100
AcDbLine
10
-8.57646
20
9.65
30
0
11
-9
21
9.8475
31
0
39
0
210
0
220
0
230
1
0
LINE
5
14E
100
AcDbEntity
8
SK1
62
256
6
ByLayer
370
13
48
1
60
0
100
AcDbLine
10
-9
20
-9.8475
30
0
11
-8.57646
21
-9.65
31
0
39
0
210
0
220
0
230
1
0
LINE
5
14F
100
AcDbEntity
8
SK1
62
256
6
ByLayer
370
13
48
1
60
0
100
AcDbLine
10
-1.57646
20
9.8
30
0
11
-2
21
9.9975
31
0
39
0
210
0
220
0
230
1
0
LINE
5
150
100
AcDbEntity
8
SK1
62
256
6
ByLayer
370
13
48
1
60
0
100
AcDbLine
10
-2
20
-9.9975
30
0
11
-1.57646
21
-9.8
31
0
39
0
210
0
220
0
230
1
0
LINE
5
151
100
AcDbEntity
8
SK1
62
256
6
ByLayer
370
13
48
1
60
0
100
AcDbLine
10
-2
20
9.9975
30
0
11
-6.5
21
9.9975
31
0
39
0
210
0
220
0
230
1
0
LINE
5
152
100
AcDbEntity
8
SK1
62
256
6
ByLayer
370
13
48
1
60
0
100
AcDbLine
10
-6.5
20
-9.9975
30
0
11
-2
21
-9.9975
31
0
39
0
210
0
220
0
230
1
0
LINE
5
153
100
AcDbEntity
8
SK1
62
256
6
ByLayer
370
13
48
1
60
0
100
AcDbLine
10
-7.796888
20
-9.65
30
0
11
-6.5
21
-9.9975
31
0
39
0
210
0
220
0
230
1
0
LINE
5
154
100
AcDbEntity
8
SK1
62
256
6
ByLayer
370
13
48
1
60
0
100
AcDbLine
10
-6.5
20
9.9975
30
0
11
-7.796888
21
9.65
31
0
39
0
210
0
220
0
230
1
0
LINE
5
155
100
AcDbEntity
8
1
62
256
6
ByLayer
370
13
48
1
60
0
100
AcDbLine
10
26
20
-7.8
30
0
11
31
21
-7.8
31
0
39
0
210
0
220
0
230
1
0
LINE
5
156
100
AcDbEntity
8
1
62
256
6
ByLayer
370
13
48
1
60
0
100
AcDbLine
10
31
20
-7.8
30
0
11
72
21
-7.72
31
0
39
0
210
0
220
0
230
1
0
LINE
5
157
100
AcDbEntity
8
1
62
256
6
ByLayer
370
13
48
1
60
0
100
AcDbLine
10
132.620557
20
7.8
30
0
11
131.254071
21
7.8
31
0
39
0
210
0
220
0
230
1
0
LINE
5
158
100
AcDbEntity
8
1
62
256
6
ByLayer
370
13
48
1
60
0
100
AcDbLine
10
131.254071
20
7.8
30
0
11
128.254071
21
7.72
31
0
39
0
210
0
220
0
230
1
0
LINE
5
159
100
AcDbEntity
8
1
62
256
6
ByLayer
370
13
48
1
60
0
100
AcDbLine
10
72
20
-7.72
30
0
11
103.141625
21
-7.72
31
0
39
0
210
0
220
0
230
1
0
LINE
5
15A
100
AcDbEntity
8
1
62
256
6
ByLayer
370
13
48
1
60
0
100
AcDbLine
10
128.254071
20
7.72
30
0
11
125.474943
21
7.72
31
0
39
0
210
0
220
0
230
1
0
LINE
5
15B
100
AcDbEntity
8
1
62
256
6
ByLayer
370
13
48
1
60
0
100
AcDbLine
10
0
20
-15.5
30
0
11
0.5
21
-16
31
0
39
0
210
0
220
0
230
1
0
LINE
5
15C
100
AcDbEntity
8
1
62
256
6
ByLayer
370
13
48
1
60
0
100
AcDbLine
10
72
20
7.72
30
0
11
31
21
7.8
31
0
39
0
210
0
220
0
230
1
0
LINE
5
15D
100
AcDbEntity
8
1
62
256
6
ByLayer
370
13
48
1
60
0
100
AcDbLine
10
5.5
20
-12.5
30
0
11
13.1071
21
-12.5
31
0
39
0
210
0
220
0
230
1
0
LINE
5
15E
100
AcDbEntity
8
1
62
256
6
ByLayer
370
13
48
1
60
0
100
AcDbLine
10
13.1071
20
12.5
30
0
11
5.5
21
12.5
31
0
39
0
210
0
220
0
230
1
0
LINE
5
15F
100
AcDbEntity
8
1
62
256
6
ByLayer
370
13
48
1
60
0
100
AcDbLine
10
0.5
20
16
30
0
11
0
21
15.5
31
0
39
0
210
0
220
0
230
1
0
LINE
5
160
100
AcDbEntity
8
1
62
256
6
ByLayer
370
13
48
1
60
0
100
AcDbLine
10
5
20
16
30
0
11
0.5
21
16
31
0
39
0
210
0
220
0
230
1
0
LINE
5
161
100
AcDbEntity
8
1
62
256
6
ByLayer
370
13
48
1
60
0
100
AcDbLine
10
0.5
20
-16
30
0
11
5
21
-16
31
0
39
0
210
0
220
0
230
1
0
LINE
5
162
100
AcDbEntity
8
1
62
256
6
ByLayer
370
18
48
1
60
0
100
AcDbLine
10
136.960611
20
-1.652932
30
0
11
136.960611
21
-1.861018
31
0
39
0
210
0
220
0
230
1
0
LINE
5
163
100
AcDbEntity
8
1
62
256
6
ByLayer
370
13
48
1
60
0
100
AcDbLine
10
140.455141
20
2.809367
30
0
11
140.64731
21
3.172737
31
0
39
0
210
0
220
0
230
1
0
LINE
5
164
100
AcDbEntity
8
1
62
256
6
ByLayer
370
13
48
1
60
0
100
AcDbLine
10
139.731349
20
5.471893
30
0
11
139.425754
21
7.406914
31
0
39
0
210
0
220
0
230
1
0
LINE
5
165
100
AcDbEntity
8
1
62
256
6
ByLayer
370
13
48
1
60
0
100
AcDbLine
10
139.453855
20
3.130443
30
0
11
139.734011
21
5.271112
31
0
39
0
210
0
220
0
230
1
0
LINE
5
166
100
AcDbEntity
8
1
62
256
6
ByLayer
370
18
48
1
60
0
100
AcDbLine
10
136.751918
20
4.403656
30
0
11
136.693747
21
4.400607
31
0
39
0
210
0
220
0
230
1
0
LINE
5
167
100
AcDbEntity
8
1
62
256
6
ByLayer
370
18
48
1
60
0
100
AcDbLine
10
136.622758
20
5.755148
30
0
11
136.68093
21
5.758197
31
0
39
0
210
0
220
0
230
1
0
LINE
5
168
100
AcDbEntity
8
1
62
256
6
ByLayer
370
18
48
1
60
0
100
AcDbLine
10
136.736361
20
3.755153
30
0
11
136.782107
21
3.75755
31
0
39
0
210
0
220
0
230
1
0
LINE
5
169
100
AcDbEntity
8
1
62
256
6
ByLayer
370
18
48
1
60
0
100
AcDbLine
10
136.643417
20
6.403918
30
0
11
136.59767
21
6.401521
31
0
39
0
210
0
220
0
230
1
0
LINE
5
16A
100
AcDbEntity
8
81
62
256
6
ByLayer
370
18
48
1
60
0
100
AcDbLine
10
141
20
0
30
0
11
148
21
0
31
0
39
0
210
0
220
0
230
1
0
LINE
5
16B
100
AcDbEntity
8
80
62
256
6
ByLayer
370
18
48
1
60
0
100
AcDbLine
10
0
20
0
30
0
11
-7
21
0
31
0
39
0
210
0
220
0
230
1
0
LINE
5
16C
100
AcDbEntity
8
SK2
62
256
6
ByLayer
370
13
48
1
60
0
100
AcDbLine
10
-35.725
20
-10
30
0
11
-35.725
21
40.986611
31
0
39
0
210
0
220
0
230
1
0
LINE
5
16E
100
AcDbEntity
8
SK2
62
256
6
ByLayer
370
13
48
1
60
0
100
AcDbLine
10
-16.5875
20
-10
30
0
11
-38.9
21
-10
31
0
39
0
210
0
220
0
230
1
0
LINE
5
16F
100
AcDbEntity
8
SK2
62
256
6
ByLayer
370
13
48
1
60
0
100
AcDbLine
10
-16.5875
20
10
30
0
11
-38.9
21
10
31
0
39
0
210
0
220
0
230
1
0
LINE
5
170
100
AcDbEntity
8
1
62
256
6
ByLayer
370
18
48
1
60
1
100
AcDbLine
10
-35.725
20
-10
30
0
11
-36.650575
21
-5.825003
31
0
39
0
210
0
220
0
230
1
0
LINE
5
171
100
AcDbEntity
8
1
62
256
6
ByLayer
370
18
48
1
60
1
100
AcDbLine
10
-36.650575
20
-5.825003
30
0
11
-34.799425
21
-5.824997
31
0
39
0
210
0
220
0
230
1
0
LINE
5
172
100
AcDbEntity
8
1
62
256
6
ByLayer
370
18
48
1
60
1
100
AcDbLine
10
-34.799425
20
-5.824997
30
0
11
-35.725
21
-10
31
0
39
0
210
0
220
0
230
1
0
LINE
5
173
100
AcDbEntity
8
1
62
256
6
ByLayer
370
18
48
1
60
1
100
AcDbLine
10
-35.725
20
10
30
0
11
-34.799425
21
5.825003
31
0
39
0
210
0
220
0
230
1
0
LINE
5
174
100
AcDbEntity
8
1
62
256
6
ByLayer
370
18
48
1
60
1
100
AcDbLine
10
-34.799425
20
5.825003
30
0
11
-36.650575
21
5.824997
31
0
39
0
210
0
220
0
230
1
0
LINE
5
175
100
AcDbEntity
8
1
62
256
6
ByLayer
370
18
48
1
60
1
100
AcDbLine
10
-36.650575
20
5.824997
30
0
11
-35.725
21
10
31
0
39
0
210
0
220
0
230
1
0
LINE
5
176
100
AcDbEntity
8
SK2
62
256
6
ByLayer
370
13
48
1
60
0
100
AcDbLine
10
-45.725
20
-16
30
0
11
-45.725
21
16
31
0
39
0
210
0
220
0
230
1
0
LINE
5
177
100
AcDbEntity
8
SK2
62
256
6
ByLayer
370
13
48
1
60
0
100
AcDbLine
10
-1.5875
20
16
30
0
11
-48.9
21
16
31
0
39
0
210
0
220
0
230
1
0
LINE
5
178
100
AcDbEntity
8
SK2
62
256
6
ByLayer
370
13
48
1
60
0
100
AcDbLine
10
-1.5875
20
-16
30
0
11
-48.9
21
-16
31
0
39
0
210
0
220
0
230
1
0
LINE
5
179
100
AcDbEntity
8
1
62
256
6
ByLayer
370
18
48
1
60
1
100
AcDbLine
10
-45.725
20
16
30
0
11
-44.799425
21
11.825003
31
0
39
0
210
0
220
0
230
1
0
LINE
5
17A
100
AcDbEntity
8
1
62
256
6
ByLayer
370
18
48
1
60
1
100
AcDbLine
10
-44.799425
20
11.825003
30
0
11
-46.650575
21
11.824997
31
0
39
0
210
0
220
0
230
1
0
LINE
5
17B
100
AcDbEntity
8
1
62
256
6
ByLayer
370
18
48
1
60
1
100
AcDbLine
10
-46.650575
20
11.824997
30
0
11
-45.725
21
16
31
0
39
0
210
0
220
0
230
1
0
LINE
5
17C
100
AcDbEntity
8
1
62
256
6
ByLayer
370
18
48
1
60
1
100
AcDbLine
10
-45.725
20
-16
30
0
11
-46.650575
21
-11.825003
31
0
39
0
210
0
220
0
230
1
0
LINE
5
17D
100
AcDbEntity
8
1
62
256
6
ByLayer
370
18
48
1
60
1
100
AcDbLine
10
-46.650575
20
-11.825003
30
0
11
-44.799425
21
-11.824997
31
0
39
0
210
0
220
0
230
1
0
LINE
5
17E
100
AcDbEntity
8
1
62
256
6
ByLayer
370
18
48
1
60
1
100
AcDbLine
10
-44.799425
20
-11.824997
30
0
11
-45.725
21
-16
31
0
39
0
210
0
220
0
230
1
0
LINE
5
17F
100
AcDbEntity
8
2
62
256
6
ByLayer
370
13
48
1
60
0
100
AcDbLine
10
167.975
20
-8
30
0
11
167.975
21
37.861783
31
0
39
0
210
0
220
0
230
1
0
LINE
5
181
100
AcDbEntity
8
2
62
256
6
ByLayer
370
13
48
1
60
0
100
AcDbLine
10
142.5875
20
-8
30
0
11
171.15
21
-8
31
0
39
0
210
0
220
0
230
1
0
LINE
5
182
100
AcDbEntity
8
2
62
256
6
ByLayer
370
13
48
1
60
0
100
AcDbLine
10
142.5875
20
8
30
0
11
171.15
21
8
31
0
39
0
210
0
220
0
230
1
0
LINE
5
183
100
AcDbEntity
8
1
62
256
6
ByLayer
370
18
48
1
60
1
100
AcDbLine
10
167.975
20
-8
30
0
11
167.049425
21
-3.825003
31
0
39
0
210
0
220
0
230
1
0
LINE
5
184
100
AcDbEntity
8
1
62
256
6
ByLayer
370
18
48
1
60
1
100
AcDbLine
10
167.049425
20
-3.825003
30
0
11
168.900575
21
-3.824997
31
0
39
0
210
0
220
0
230
1
0
LINE
5
185
100
AcDbEntity
8
1
62
256
6
ByLayer
370
18
48
1
60
1
100
AcDbLine
10
168.900575
20
-3.824997
30
0
11
167.975
21
-8
31
0
39
0
210
0
220
0
230
1
0
LINE
5
186
100
AcDbEntity
8
1
62
256
6
ByLayer
370
18
48
1
60
1
100
AcDbLine
10
167.975
20
8
30
0
11
168.900575
21
3.825003
31
0
39
0
210
0
220
0
230
1
0
LINE
5
187
100
AcDbEntity
8
1
62
256
6
ByLayer
370
18
48
1
60
1
100
AcDbLine
10
168.900575
20
3.825003
30
0
11
167.049425
21
3.824997
31
0
39
0
210
0
220
0
230
1
0
LINE
5
188
100
AcDbEntity
8
1
62
256
6
ByLayer
370
18
48
1
60
1
100
AcDbLine
10
167.049425
20
3.824997
30
0
11
167.975
21
8
31
0
39
0
210
0
220
0
230
1
0
LINE
5
33A
100
AcDbEntity
8
1
62
256
6
ByLayer
370
18
48
1
60
1
100
AcDbLine
10
-35.725
20
-10
30
0
11
-36.650575
21
-5.825003
31
0
39
0
210
0
220
0
230
1
0
LINE
5
33B
100
AcDbEntity
8
1
62
256
6
ByLayer
370
18
48
1
60
1
100
AcDbLine
10
-36.650575
20
-5.825003
30
0
11
-34.799425
21
-5.824997
31
0
39
0
210
0
220
0
230
1
0
LINE
5
33C
100
AcDbEntity
8
1
62
256
6
ByLayer
370
18
48
1
60
1
100
AcDbLine
10
-34.799425
20
-5.824997
30
0
11
-35.725
21
-10
31
0
39
0
210
0
220
0
230
1
0
LINE
5
33E
100
AcDbEntity
8
1
62
256
6
ByLayer
370
18
48
1
60
1
100
AcDbLine
10
-35.725
20
10
30
0
11
-34.799425
21
5.825003
31
0
39
0
210
0
220
0
230
1
0
LINE
5
33F
100
AcDbEntity
8
1
62
256
6
ByLayer
370
18
48
1
60
1
100
AcDbLine
10
-34.799425
20
5.825003
30
0
11
-36.650575
21
5.824997
31
0
39
0
210
0
220
0
230
1
0
LINE
5
340
100
AcDbEntity
8
1
62
256
6
ByLayer
370
18
48
1
60
1
100
AcDbLine
10
-36.650575
20
5.824997
30
0
11
-35.725
21
10
31
0
39
0
210
0
220
0
230
1
0
LINE
5
344
100
AcDbEntity
8
1
62
256
6
ByLayer
370
18
48
1
60
1
100
AcDbLine
10
-45.725
20
16
30
0
11
-44.799425
21
11.825003
31
0
39
0
210
0
220
0
230
1
0
LINE
5
345
100
AcDbEntity
8
1
62
256
6
ByLayer
370
18
48
1
60
1
100
AcDbLine
10
-44.799425
20
11.825003
30
0
11
-46.650575
21
11.824997
31
0
39
0
210
0
220
0
230
1
0
LINE
5
346
100
AcDbEntity
8
1
62
256
6
ByLayer
370
18
48
1
60
1
100
AcDbLine
10
-46.650575
20
11.824997
30
0
11
-45.725
21
16
31
0
39
0
210
0
220
0
230
1
0
LINE
5
348
100
AcDbEntity
8
1
62
256
6
ByLayer
370
18
48
1
60
1
100
AcDbLine
10
-45.725
20
-16
30
0
11
-46.650575
21
-11.825003
31
0
39
0
210
0
220
0
230
1
0
LINE
5
349
100
AcDbEntity
8
1
62
256
6
ByLayer
370
18
48
1
60
1
100
AcDbLine
10
-46.650575
20
-11.825003
30
0
11
-44.799425
21
-11.824997
31
0
39
0
210
0
220
0
230
1
0
LINE
5
34A
100
AcDbEntity
8
1
62
256
6
ByLayer
370
18
48
1
60
1
100
AcDbLine
10
-44.799425
20
-11.824997
30
0
11
-45.725
21
-16
31
0
39
0
210
0
220
0
230
1
0
LINE
5
34E
100
AcDbEntity
8
1
62
256
6
ByLayer
370
18
48
1
60
1
100
AcDbLine
10
167.975
20
-8
30
0
11
167.049425
21
-3.825003
31
0
39
0
210
0
220
0
230
1
0
LINE
5
34F
100
AcDbEntity
8
1
62
256
6
ByLayer
370
18
48
1
60
1
100
AcDbLine
10
167.049425
20
-3.825003
30
0
11
168.900575
21
-3.824997
31
0
39
0
210
0
220
0
230
1
0
LINE
5
350
100
AcDbEntity
8
1
62
256
6
ByLayer
370
18
48
1
60
1
100
AcDbLine
10
168.900575
20
-3.824997
30
0
11
167.975
21
-8
31
0
39
0
210
0
220
0
230
1
0
LINE
5
352
100
AcDbEntity
8
1
62
256
6
ByLayer
370
18
48
1
60
1
100
AcDbLine
10
167.975
20
8
30
0
11
168.900575
21
3.825003
31
0
39
0
210
0
220
0
230
1
0
LINE
5
353
100
AcDbEntity
8
1
62
256
6
ByLayer
370
18
48
1
60
1
100
AcDbLine
10
168.900575
20
3.825003
30
0
11
167.049425
21
3.824997
31
0
39
0
210
0
220
0
230
1
0
LINE
5
354
100
AcDbEntity
8
1
62
256
6
ByLayer
370
18
48
1
60
1
100
AcDbLine
10
167.049425
20
3.824997
30
0
11
167.975
21
8
31
0
39
0
210
0
220
0
230
1
0
MTEXT
5
336
100
AcDbEntity
8
SK2
62
256
6
ByLayer
370
18
48
1
60
0
100
AcDbMText
10
-37.736672
20
24.600156
30
0
210
0
220
0
230
1
1
%%c
40
4.5
41
0
44
1.084337
50
90
71
7
72
5
7
iso_b_vert
0
MTEXT
5
339
100
AcDbEntity
8
SK2
62
256
6
ByLayer
370
18
48
1
60
0
100
AcDbMText
10
-37.736672
20
35.815
30
0
210
0
220
0
230
1
1
\W0.6740;20
40
4.5
41
0
44
1.084337
50
90
71
7
72
5
7
iso_b_vert
0
MTEXT
5
342
100
AcDbEntity
8
SK2
62
256
6
ByLayer
370
18
48
1
60
0
100
AcDbMText
10
-47.736672
20
-6.949399
30
0
210
0
220
0
230
1
1
%%c
40
4.5
41
0
44
1.084337
50
90
71
7
72
5
7
iso_b_vert
0
MTEXT
5
343
100
AcDbEntity
8
SK2
62
256
6
ByLayer
370
18
48
1
60
0
100
AcDbMText
10
-47.736672
20
4.265444
30
0
210
0
220
0
230
1
1
\W0.6740;32
40
4.5
41
0
44
1.084337
50
90
71
7
72
5
7
iso_b_vert
0
MTEXT
5
34C
100
AcDbEntity
8
2
62
256
6
ByLayer
370
18
48
1
60
0
100
AcDbMText
10
165.963328
20
22.600156
30
0
210
0
220
0
230
1
1
%%c
40
4.5
41
0
44
1.084337
50
90
71
7
72
5
7
iso_b_vert
0
MTEXT
5
34D
100
AcDbEntity
8
2
62
256
6
ByLayer
370
18
48
1
60
0
100
AcDbMText
10
165.963328
20
33.815
30
0
210
0
220
0
230
1
1
\W0.5321;16
40
4.5
41
0
44
1.084337
50
90
71
7
72
5
7
iso_b_vert
0
MTEXT
5
356
100
AcDbEntity
8
SK6
62
256
6
ByLayer
370
18
48
1
60
0
100
AcDbMText
10
9.308916
20
-94.592562
30
0
210
0
220
0
230
1
1
\W0.7549;DS20-D1600DM20-07
40
3.5
41
0
44
1.084337
50
0
71
7
72
5
7
iso_b_vert
0
HATCH
5
33D
100
AcDbEntity
8
SK2
62
256
6
ByLayer
370
13
48
1
60
0
100
AcDbHatch
10
0
20
0
30
0
210
0
220
0
230
1
2
ANSI31
70
0
71
0
91
1
92
5
93
3
72
1
10
-35.725
20
-9.99999999999997
11
-36.650575216528
21
-5.82500339982758
72
1
10
-36.650575216528
20
-5.82500339982758
11
-34.799424783472
21
-5.82499660017234
72
1
10
-34.799424783472
20
-5.82499660017234
11
-35.725
21
-9.99999999999997
97
0
75
0
76
1
52
0
41
0.0062
77
0
78
1
53
45
43
0
44
0
45
-0.0139193969876572
46
0.0139193969876572
79
0
47
0
98
1
10
0
20
0
0
HATCH
5
341
100
AcDbEntity
8
SK2
62
256
6
ByLayer
370
13
48
1
60
0
100
AcDbHatch
10
0
20
0
30
0
210
0
220
0
230
1
2
ANSI31
70
0
71
0
91
1
92
5
93
3
72
1
10
-35.725
20
10
11
-34.799424783472
21
5.82500339982764
72
1
10
-34.799424783472
20
5.82500339982764
11
-36.650575216528
21
5.8249966001724
72
1
10
-36.650575216528
20
5.8249966001724
11
-35.725
21
10
97
0
75
0
76
1
52
0
41
0.0062
77
0
78
1
53
45
43
0
44
0
45
-0.0139193969876572
46
0.0139193969876572
79
0
47
0
98
1
10
0
20
0
0
HATCH
5
347
100
AcDbEntity
8
SK2
62
256
6
ByLayer
370
13
48
1
60
0
100
AcDbHatch
10
0
20
0
30
0
210
0
220
0
230
1
2
ANSI31
70
0
71
0
91
1
92
5
93
3
72
1
10
-45.725
20
16
11
-44.799424783472
21
11.8250033998276
72
1
10
-44.799424783472
20
11.8250033998276
11
-46.650575216528
21
11.8249966001724
72
1
10
-46.650575216528
20
11.8249966001724
11
-45.725
21
16
97
0
75
0
76
1
52
0
41
0.0062
77
0
78
1
53
45
43
0
44
0
45
-0.0139193969876572
46
0.0139193969876572
79
0
47
0
98
1
10
0
20
0
0
HATCH
5
34B
100
AcDbEntity
8
SK2
62
256
6
ByLayer
370
13
48
1
60
0
100
AcDbHatch
10
0
20
0
30
0
210
0
220
0
230
1
2
ANSI31
70
0
71
0
91
1
92
5
93
3
72
1
10
-45.725
20
-16
11
-46.650575216528
21
-11.8250033998276
72
1
10
-46.650575216528
20
-11.8250033998276
11
-44.799424783472
21
-11.8249966001724
72
1
10
-44.799424783472
20
-11.8249966001724
11
-45.725
21
-16
97
0
75
0
76
1
52
0
41
0.0062
77
0
78
1
53
45
43
0
44
0
45
-0.0139193969876572
46
0.0139193969876572
79
0
47
0
98
1
10
0
20
0
0
HATCH
5
351
100
AcDbEntity
8
2
62
256
6
ByLayer
370
13
48
1
60
0
100
AcDbHatch
10
0
20
0
30
0
210
0
220
0
230
1
2
ANSI31
70
0
71
0
91
1
92
5
93
3
72
1
10
167.975
20
-8.00000000000014
11
167.049424783472
21
-3.82500339982775
72
1
10
167.049424783472
20
-3.82500339982775
11
168.900575216528
21
-3.82499660017251
72
1
10
168.900575216528
20
-3.82499660017251
11
167.975
21
-8.00000000000014
97
0
75
0
76
1
52
0
41
0.0062
77
0
78
1
53
45
43
0
44
0
45
-0.0139193969876572
46
0.0139193969876572
79
0
47
0
98
1
10
0
20
0
0
HATCH
5
355
100
AcDbEntity
8
2
62
256
6
ByLayer
370
13
48
1
60
0
100
AcDbHatch
10
0
20
0
30
0
210
0
220
0
230
1
2
ANSI31
70
0
71
0
91
1
92
5
93
3
72
1
10
167.975
20
7.99999999999986
11
168.900575216528
21
3.82500339982747
72
1
10
168.900575216528
20
3.82500339982747
11
167.049424783472
21
3.82499660017223
72
1
10
167.049424783472
20
3.82499660017223
11
167.975
21
7.99999999999986
97
0
75
0
76
1
52
0
41
0.0062
77
0
78
1
53
45
43
0
44
0
45
-0.0139193969876572
46
0.0139193969876572
79
0
47
0
98
1
10
0
20
0
0
DIMENSION
5
359
100
AcDbEntity
8
2
62
256
6
ByLayer
370
18
48
1
60
0
100
AcDbDimension
2
_U0
10
141
20
-64.85
30
0
11
70.5
21
-64.85
31
0
70
32
71
1
72
1
41
1
210
0
220
0
230
1
3
Standard
100
AcDbAlignedDimension
13
0
23
-16
33
0
14
141
24
-8
34
0
50
0
100
AcDbRotatedDimension
1001
ACAD
1000
DSTYLE
1002
{
1070
   371
1070
    13
1070
   372
1070
    13
1070
   170
1070
     0
1070
   144
1040
1.0
1070
   277
1070
     2
1070
   284
1070
     8
1070
   278
1070
    46
1070
   146
1040
0.777778
1070
   345
1005
16
1070
   347
1005
16
1070
   346
1005
16
1070
   344
1005
0
1070
   343
1005
0
1070
   172
1070
     1
1070
    76
1070
     0
1070
    75
1070
     0
1070
   282
1070
     0
1070
   281
1070
     0
1070
    71
1070
     0
1070
    74
1070
     0
1070
   279
1070
     0
1070
   173
1070
     1
1070
   340
1005
337
1070
   271
1070
     1
1070
   272
1070
     2
1070
    77
1070
     1
1070
    73
1070
     1
1070
   171
1070
     3
1070
   274
1070
     4
1070
   177
1070
   150
1070
   176
1070
     9
1070
   178
1070
    43
1070
    78
1070
     8
1070
    48
1040
-0.1
1070
    41
1040
4.175
1070
   147
1040
2.25
1070
    42
1040
1.5875
1070
    44
1040
3.175
1070
   140
1040
4.5
1002
}
1001
ACAD_DSTYLE_DIM_LINETYPE
1070
   380
1005
16
1001
ACAD_DSTYLE_DIM_EXT1_LINETYPE
1070
   381
1005
16
1001
ACAD_DSTYLE_DIM_EXT2_LINETYPE
1070
   382
1005
16
0
DIMENSION
5
372
100
AcDbEntity
8
SK2
62
256
6
ByLayer
370
18
48
1
60
0
100
AcDbDimension
2
_U1
10
0
20
-64.85
30
0
11
-7.5
21
-64.85
31
0
70
32
71
1
72
1
41
1
210
0
220
0
230
1
3
Standard
100
AcDbAlignedDimension
13
-15
23
-10
33
0
14
0
24
-16
34
0
50
0
100
AcDbRotatedDimension
1001
ACAD
1000
DSTYLE
1002
{
1070
   371
1070
    13
1070
   372
1070
    13
1070
   170
1070
     0
1070
   144
1040
1.0
1070
   277
1070
     2
1070
   284
1070
     8
1070
   278
1070
    46
1070
   146
1040
0.777778
1070
   345
1005
16
1070
   347
1005
16
1070
   346
1005
16
1070
   344
1005
0
1070
   343
1005
0
1070
   172
1070
     1
1070
    76
1070
     0
1070
    75
1070
     0
1070
   282
1070
     0
1070
   281
1070
     0
1070
    71
1070
     0
1070
    74
1070
     0
1070
   279
1070
     0
1070
   173
1070
     1
1070
   340
1005
337
1070
   271
1070
     1
1070
   272
1070
     2
1070
    77
1070
     1
1070
    73
1070
     1
1070
   171
1070
     3
1070
   274
1070
     4
1070
   177
1070
   150
1070
   176
1070
     9
1070
   178
1070
    43
1070
    78
1070
     8
1070
    48
1040
-0.1
1070
    41
1040
4.175
1070
   147
1040
2.25
1070
    42
1040
1.5875
1070
    44
1040
3.175
1070
   140
1040
4.5
1002
}
1001
ACAD_DSTYLE_DIM_LINETYPE
1070
   380
1005
16
1001
ACAD_DSTYLE_DIM_EXT1_LINETYPE
1070
   381
1005
16
1001
ACAD_DSTYLE_DIM_EXT2_LINETYPE
1070
   382
1005
16
0
DIMENSION
5
38B
100
AcDbEntity
8
SK2
62
256
6
ByLayer
370
18
48
1
60
0
100
AcDbDimension
2
_U2
10
13.6071
20
-54.85
30
0
11
77.30355
21
-54.85
31
0
70
32
71
1
72
1
41
1
210
0
220
0
230
1
3
Standard
100
AcDbAlignedDimension
13
141
23
-8
33
0
14
13.6071
24
-16
34
0
50
0
100
AcDbRotatedDimension
1001
ACAD
1000
DSTYLE
1002
{
1070
   371
1070
    13
1070
   372
1070
    13
1070
   170
1070
     0
1070
   144
1040
1.0
1070
   277
1070
     2
1070
   284
1070
     8
1070
   278
1070
    46
1070
   146
1040
0.777778
1070
   345
1005
16
1070
   347
1005
16
1070
   346
1005
16
1070
   344
1005
0
1070
   343
1005
0
1070
   172
1070
     1
1070
    76
1070
     0
1070
    75
1070
     0
1070
   282
1070
     0
1070
   281
1070
     0
1070
    71
1070
     0
1070
    74
1070
     0
1070
   279
1070
     0
1070
   173
1070
     1
1070
   340
1005
337
1070
   271
1070
     1
1070
   272
1070
     2
1070
    77
1070
     1
1070
    73
1070
     1
1070
   171
1070
     3
1070
   274
1070
     4
1070
   177
1070
   150
1070
   176
1070
     9
1070
   178
1070
    43
1070
    78
1070
     8
1070
    48
1040
-0.1
1070
    41
1040
4.175
1070
   147
1040
2.25
1070
    42
1040
1.5875
1070
    44
1040
3.175
1070
   140
1040
4.5
1002
}
1001
ACAD_DSTYLE_DIM_LINETYPE
1070
   380
1005
16
1001
ACAD_DSTYLE_DIM_EXT1_LINETYPE
1070
   381
1005
16
1001
ACAD_DSTYLE_DIM_EXT2_LINETYPE
1070
   382
1005
16
0
DIMENSION
5
3A3
100
AcDbEntity
8
SK2
62
256
6
ByLayer
370
18
48
1
60
0
100
AcDbDimension
2
_U3
10
141
20
-44.85
30
0
11
83.5
21
-44.85
31
0
70
32
71
1
72
1
41
1
210
0
220
0
230
1
3
Standard
100
AcDbAlignedDimension
13
26
23
-8
33
0
14
141
24
-8
34
0
50
0
100
AcDbRotatedDimension
1001
ACAD
1000
DSTYLE
1002
{
1070
   371
1070
    13
1070
   372
1070
    13
1070
   170
1070
     0
1070
   144
1040
1.0
1070
   277
1070
     2
1070
   284
1070
     8
1070
   278
1070
    46
1070
   146
1040
0.777778
1070
   345
1005
16
1070
   347
1005
16
1070
   346
1005
16
1070
   344
1005
0
1070
   343
1005
0
1070
   172
1070
     1
1070
    76
1070
     0
1070
    75
1070
     0
1070
   282
1070
     0
1070
   281
1070
     0
1070
    71
1070
     0
1070
    74
1070
     0
1070
   279
1070
     0
1070
   173
1070
     1
1070
   340
1005
337
1070
   271
1070
     1
1070
   272
1070
     2
1070
    77
1070
     1
1070
    73
1070
     1
1070
   171
1070
     3
1070
   274
1070
     4
1070
   177
1070
   150
1070
   176
1070
     9
1070
   178
1070
    43
1070
    78
1070
     8
1070
    48
1040
-0.1
1070
    41
1040
4.175
1070
   147
1040
2.25
1070
    42
1040
1.5875
1070
    44
1040
3.175
1070
   140
1040
4.5
1002
}
1001
ACAD_DSTYLE_DIM_LINETYPE
1070
   380
1005
16
1001
ACAD_DSTYLE_DIM_EXT1_LINETYPE
1070
   381
1005
16
1001
ACAD_DSTYLE_DIM_EXT2_LINETYPE
1070
   382
1005
16
0
DIMENSION
5
3BB
100
AcDbEntity
8
2
62
256
6
ByLayer
370
18
48
1
60
0
100
AcDbDimension
2
_U4
10
141
20
-34.85
30
0
11
163.350893
21
-34.85
31
0
70
32
71
1
72
1
41
1
210
0
220
0
230
1
3
Standard
100
AcDbAlignedDimension
13
140.5369
23
-4
33
0
14
141
24
0
34
0
50
0
100
AcDbRotatedDimension
1001
ACAD
1000
DSTYLE
1002
{
1070
   371
1070
    13
1070
   372
1070
    13
1070
   170
1070
     0
1070
   144
1040
1.0
1070
   277
1070
     2
1070
   284
1070
     8
1070
   278
1070
    46
1070
   146
1040
0.777778
1070
   345
1005
16
1070
   347
1005
16
1070
   346
1005
16
1070
   344
1005
0
1070
   343
1005
0
1070
   172
1070
     1
1070
    76
1070
     0
1070
    75
1070
     0
1070
   282
1070
     0
1070
   281
1070
     0
1070
    71
1070
     0
1070
    74
1070
     0
1070
   279
1070
     0
1070
   173
1070
     1
1070
   340
1005
337
1070
   271
1070
     2
1070
   272
1070
     2
1070
    77
1070
     1
1070
    73
1070
     1
1070
   171
1070
     3
1070
   274
1070
     4
1070
   177
1070
   150
1070
   176
1070
     9
1070
   178
1070
    43
1070
    78
1070
     8
1070
    48
1040
-0.1
1070
    41
1040
4.175
1070
   147
1040
2.25
1070
    42
1040
1.5875
1070
    44
1040
3.175
1070
   140
1040
4.5
1002
}
1001
ACAD_DSTYLE_DIM_LINETYPE
1070
   380
1005
16
1001
ACAD_DSTYLE_DIM_EXT1_LINETYPE
1070
   381
1005
16
1001
ACAD_DSTYLE_DIM_EXT2_LINETYPE
1070
   382
1005
16
0
ENDSEC
0
SECTION
2
OBJECTS
0
DICTIONARY
5
445
330
0
100
AcDbDictionary
280
0
281
1
3
ACAD_GROUP
350
446
3
ACAD_MLINESTYLE
350
447
0
DICTIONARY
5
446
330
0
100
AcDbDictionary
280
0
281
1
0
DICTIONARY
5
447
330
0
100
AcDbDictionary
280
0
281
1
3
Standard
350
18
0
MLINESTYLE
5
18
330
447
100
AcDbMlineStyle
2
Standard
70
0
3

62
256
51
90
52
90
71
2
49
-0.5
62
256
6
ByLayer
49
0.5
62
256
6
ByLayer
0
RASTERVARIABLES
5
433
330

100
AcDbRasterVariables
90
0
70
1
71
1
72
1
0
ENDSEC
0
EOF
