0
SECTION
2
HEADER
9
$ACADVER
1
AC1015
9
$DWGCODEPAGE
3
ANSI_1252
9
$HANDSEED
5
454
9
$ANGBASE
50
0
9
$ANGDIR
70
0
9
$ATTMODE
70
1
9
$AUNITS
70
0
9
$AUPREC
70
0
9
$CECOLOR
62
256
9
$CELTSCALE
40
1
9
$CELTYPE
6
ByLayer
9
$CELWEIGHT
370
18
9
$CLAYER
8
0
9
$CMLJUST
70
0
9
$CMLSCALE
40
1
9
$CMLSTYLE
2
Standard
9
$DIMSTYLE
2
Standard
9
$TEXTSIZE
40
0.2
9
$TEXTSTYLE
7
Standard
9
$LUNITS
70
2
9
$LUPREC
70
4
9
$EXTNAMES
290
1
9
$INSUNITS
70
4
9
$LTSCALE
40
1
9
$LWDISPLAY
290
1
9
$PDMODE
70
0
9
$PDSIZE
40
0
9
$PLINEGEN
70
0
0
ENDSEC
0
SECTION
2
CLASSES
0
CLASS
1
RASTERVARIABLES
2
AcDbRasterVariables
3
ISM
90
0
280
0
281
0
0
ENDSEC
0
SECTION
2
TABLES
0
TABLE
2
VPORT
5
44a
100
AcDbSymbolTable
0
VPORT
5
1
100
AcDbSymbolTableRecord
100
AcDbViewportTableRecord
2
*Active
70
0
10
0
20
0
11
1
21
1
12
-1
22
1
13
0
23
0
14
0.5
24
0.5
15
10
25
10
16
0
26
0
36
1
17
0
27
0
37
0
0
ENDTAB
0
TABLE
2
LTYPE
5
44b
100
AcDbSymbolTable
0
LTYPE
5
14
100
AcDbSymbolTableRecord
100
AcDbLinetypeTableRecord
70
0
2
ByBlock
3

72
65
73
0
40
0
0
LTYPE
5
15
100
AcDbSymbolTableRecord
100
AcDbLinetypeTableRecord
70
0
2
ByLayer
3

72
65
73
0
40
0
0
LTYPE
5
16
100
AcDbSymbolTableRecord
100
AcDbLinetypeTableRecord
70
0
2
Continuous
3
Solid line
72
65
73
0
40
0
0
LTYPE
5
6E
100
AcDbSymbolTableRecord
100
AcDbLinetypeTableRecord
70
0
2
CENTER
3
____ _ ____ _ ____ _ ____
72
65
73
4
40
47.5
49
22
74
0
49
-8.5
74
0
49
8.5
74
0
49
-8.5
74
0
0
LTYPE
5
6F
100
AcDbSymbolTableRecord
100
AcDbLinetypeTableRecord
70
0
2
DASHED
3
__ __ __ __ __ __ __ __ __
72
65
73
2
40
25.72
49
12.86
74
0
49
-12.86
74
0
0
ENDTAB
0
TABLE
2
LAYER
5
44c
100
AcDbSymbolTable
0
LAYER
5
10
100
AcDbSymbolTableRecord
100
AcDbLayerTableRecord
2
0
70
0
62
7
6
Continuous
290
1
370
-3
390
0
0
LAYER
5
71
100
AcDbSymbolTableRecord
100
AcDbLayerTableRecord
2
1
70
0
62
4
6
Continuous
290
1
370
-3
390
0
0
LAYER
5
73
100
AcDbSymbolTableRecord
100
AcDbLayerTableRecord
2
80
70
0
62
-6
6
Continuous
290
1
370
-3
390
0
0
LAYER
5
75
100
AcDbSymbolTableRecord
100
AcDbLayerTableRecord
2
81
70
0
62
-3
6
Continuous
290
1
370
-3
390
0
0
LAYER
5
148
100
AcDbSymbolTableRecord
100
AcDbLayerTableRecord
2
4
70
0
62
-2
6
CENTER
290
1
370
-3
390
0
0
LAYER
5
183
100
AcDbSymbolTableRecord
100
AcDbLayerTableRecord
2
2
70
0
62
7
6
Continuous
290
1
370
-3
390
0
0
LAYER
5
35F
100
AcDbSymbolTableRecord
100
AcDbLayerTableRecord
2
Defpoints
70
0
62
7
6
Continuous
290
0
370
-3
390
0
0
LAYER
5
436
100
AcDbSymbolTableRecord
100
AcDbLayerTableRecord
2
SK1
70
0
62
4
6
Continuous
290
1
370
-3
390
0
0
LAYER
5
437
100
AcDbSymbolTableRecord
100
AcDbLayerTableRecord
2
SK4
70
0
62
2
6
CENTER
290
1
370
-3
390
0
0
LAYER
5
438
100
AcDbSymbolTableRecord
100
AcDbLayerTableRecord
2
SK2
70
0
62
7
6
Continuous
290
1
370
-3
390
0
0
LAYER
5
439
100
AcDbSymbolTableRecord
100
AcDbLayerTableRecord
2
SK6
70
0
62
5
6
Continuous
290
1
370
-3
390
0
0
ENDTAB
0
TABLE
2
STYLE
5
44d
100
AcDbSymbolTable
0
STYLE
5
11
100
AcDbSymbolTableRecord
100
AcDbTextStyleTableRecord
2
Standard
3
txt
70
0
71
0
40
0
41
1
42
0
50
0
0
STYLE
5
33A
100
AcDbSymbolTableRecord
100
AcDbTextStyleTableRecord
2
iso_b_vert
3
simplex.shx
70
0
71
0
40
0
41
1
42
0
50
0
0
STYLE
5
33B
100
AcDbSymbolTableRecord
100
AcDbTextStyleTableRecord
2
DWGDirectTextStyle
3
simplex
70
0
71
0
40
0
41
1
42
0
50
0
0
ENDTAB
0
TABLE
2
DIMSTYLE
5
44e
100
AcDbSymbolTable
100
AcDbDimStyleTable
0
DIMSTYLE
105
27
100
AcDbSymbolTableRecord
100
AcDbDimStyleTableRecord
2
Standard
70
0
3
<>
41
0.18
42
0.0625
44
0.18
140
0.18
147
0.09
73
0
74
0
77
1
271
2
275
0
278
52
280
0
340
11
0
ENDTAB
0
TABLE
2
VIEW
5
44f
100
AcDbSymbolTable
0
ENDTAB
0
TABLE
2
UCS
5
450
100
AcDbSymbolTable
0
ENDTAB
0
TABLE
2
APPID
5
451
100
AcDbSymbolTable
0
APPID
5
12
100
AcDbSymbolTableRecord
100
AcDbRegAppTableRecord
2
ACAD
70
0
0
APPID
5
35B
100
AcDbSymbolTableRecord
100
AcDbRegAppTableRecord
2
ACAD_DSTYLE_DIMBREAK
70
0
0
APPID
5
3F5
100
AcDbSymbolTableRecord
100
AcDbRegAppTableRecord
2
ACAD_DSTYLE_DIM_LINETYPE
70
0
0
APPID
5
3F6
100
AcDbSymbolTableRecord
100
AcDbRegAppTableRecord
2
ACAD_DSTYLE_DIM_EXT1_LINETYPE
70
0
0
APPID
5
3F7
100
AcDbSymbolTableRecord
100
AcDbRegAppTableRecord
2
ACAD_DSTYLE_DIM_EXT2_LINETYPE
70
0
0
APPID
5
432
100
AcDbSymbolTableRecord
100
AcDbRegAppTableRecord
2
ACAD_MLEADERVER
70
0
0
ENDTAB
0
TABLE
2
BLOCK_RECORD
5
452
100
AcDbSymbolTable
0
BLOCK_RECORD
5
1F
100
AcDbSymbolTableRecord
100
AcDbBlockTableRecord
2
*Model_Space
340
0
70
0
0
BLOCK_RECORD
5
1B
100
AcDbSymbolTableRecord
100
AcDbBlockTableRecord
2
*Paper_Space
340
0
70
0
0
BLOCK_RECORD
5
23
100
AcDbSymbolTableRecord
100
AcDbBlockTableRecord
2
*Paper_Space0
340
0
70
0
0
BLOCK_RECORD
5
360
100
AcDbSymbolTableRecord
100
AcDbBlockTableRecord
2
*D1
340
0
70
0
0
BLOCK_RECORD
5
36C
100
AcDbSymbolTableRecord
100
AcDbBlockTableRecord
2
_U0
340
0
70
0
0
BLOCK_RECORD
5
378
100
AcDbSymbolTableRecord
100
AcDbBlockTableRecord
2
*D3
340
0
70
0
0
BLOCK_RECORD
5
384
100
AcDbSymbolTableRecord
100
AcDbBlockTableRecord
2
_U1
340
0
70
0
0
BLOCK_RECORD
5
390
100
AcDbSymbolTableRecord
100
AcDbBlockTableRecord
2
*D5
340
0
70
0
0
BLOCK_RECORD
5
39C
100
AcDbSymbolTableRecord
100
AcDbBlockTableRecord
2
_U2
340
0
70
0
0
BLOCK_RECORD
5
3A8
100
AcDbSymbolTableRecord
100
AcDbBlockTableRecord
2
*D7
340
0
70
0
0
BLOCK_RECORD
5
3B4
100
AcDbSymbolTableRecord
100
AcDbBlockTableRecord
2
_U3
340
0
70
0
0
BLOCK_RECORD
5
3C0
100
AcDbSymbolTableRecord
100
AcDbBlockTableRecord
2
*D9
340
0
70
0
0
BLOCK_RECORD
5
3CE
100
AcDbSymbolTableRecord
100
AcDbBlockTableRecord
2
_U4
340
0
70
0
0
ENDTAB
0
ENDSEC
0
SECTION
2
BLOCKS
0
BLOCK
5
20
100
AcDbEntity
8
0
100
AcDbBlockBegin
2
*Model_Space
70
0
10
0
20
0
30
0
3
*Model_Space
0
ENDBLK
5
21
100
AcDbEntity
8
0
100
AcDbBlockEnd
0
BLOCK
5
1C
100
AcDbEntity
8
0
100
AcDbBlockBegin
2
*Paper_Space
70
0
10
0
20
0
30
0
3
*Paper_Space
0
ENDBLK
5
1D
100
AcDbEntity
8
0
100
AcDbBlockEnd
0
BLOCK
5
24
100
AcDbEntity
8
0
100
AcDbBlockBegin
2
*Paper_Space0
70
0
10
0
20
0
30
0
3
*Paper_Space0
0
ENDBLK
5
25
100
AcDbEntity
8
0
100
AcDbBlockEnd
0
BLOCK
5
361
100
AcDbEntity
8
0
100
AcDbBlockBegin
2
*D1
70
1
10
0
20
0
30
0
3
*D1
0
LINE
5
363
100
AcDbEntity
8
0
62
256
6
ByLayer
370
-2
48
1
60
0
100
AcDbLine
10
0
20
-26.3375
30
0
11
0
21
-76.786386
31
0
39
0
210
0
220
0
230
1
0
LINE
5
364
100
AcDbEntity
8
0
62
256
6
ByLayer
370
-2
48
1
60
0
100
AcDbLine
10
224
20
-20.5875
30
0
11
224
21
-76.786386
31
0
39
0
210
0
220
0
230
1
0
LINE
5
365
100
AcDbEntity
8
0
62
256
6
ByLayer
370
-2
48
1
60
0
100
AcDbLine
10
4.175
20
-73.611386
30
0
11
219.825
21
-73.611386
31
0
39
0
210
0
220
0
230
1
0
SOLID
5
366
100
AcDbEntity
8
0
62
256
6
ByLayer
370
-1
48
1
60
0
100
AcDbTrace
10
4.175
20
-72.915552
30
0
11
4.175
21
-74.307219
31
0
12
0
22
-73.611386
32
0
13
0
23
-73.611386
33
0
39
0
210
0
220
0
230
1
0
SOLID
5
367
100
AcDbEntity
8
0
62
256
6
ByLayer
370
-1
48
1
60
0
100
AcDbTrace
10
219.825
20
-74.307219
30
0
11
219.825
21
-72.915552
31
0
12
224
22
-73.611386
32
0
13
224
23
-73.611386
33
0
39
0
210
0
220
0
230
1
0
MTEXT
5
368
100
AcDbEntity
8
0
62
256
6
ByLayer
370
18
48
1
60
0
100
AcDbMText
10
112
20
-64.217636
30
0
210
0
220
0
230
1
1
\A1;224
40
4.5
41
0
44
1
50
0
71
5
72
5
7
iso_b_vert
0
POINT
5
369
100
AcDbEntity
8
Defpoints
62
0
6
ByLayer
370
-1
48
1
60
0
100
AcDbPoint
10
0
20
-24.75
30
0
39
0
210
0
220
0
230
1
50
360
0
POINT
5
36A
100
AcDbEntity
8
Defpoints
62
0
6
ByLayer
370
-1
48
1
60
0
100
AcDbPoint
10
224
20
-19
30
0
39
0
210
0
220
0
230
1
50
360
0
POINT
5
36B
100
AcDbEntity
8
Defpoints
62
0
6
ByLayer
370
-1
48
1
60
0
100
AcDbPoint
10
224
20
-73.611386
30
0
39
0
210
0
220
0
230
1
50
360
0
ENDBLK
5
362
100
AcDbEntity
8
0
100
AcDbBlockEnd
0
BLOCK
5
373
100
AcDbEntity
8
0
100
AcDbBlockBegin
2
_U0
70
0
10
0
20
0
30
0
3
_U0
0
MTEXT
5
36D
100
AcDbEntity
8
2
62
256
6
ByLayer
370
18
48
1
60
0
100
AcDbMText
10
107.632472
20
-72.283714
30
0
210
0
220
0
230
1
1
\W0.7411;224
40
4.5
41
0
44
1.084337
50
0
71
7
72
5
7
iso_b_vert
0
LINE
5
36E
100
AcDbEntity
8
2
62
256
6
ByLayer
370
13
48
1
60
0
100
AcDbLine
10
0
20
-26.3375
30
0
11
0
21
-76.786386
31
0
39
0
210
0
220
0
230
1
0
LINE
5
36F
100
AcDbEntity
8
2
62
256
6
ByLayer
370
13
48
1
60
0
100
AcDbLine
10
224
20
-20.5875
30
0
11
224
21
-76.786386
31
0
39
0
210
0
220
0
230
1
0
LINE
5
370
100
AcDbEntity
8
2
62
256
6
ByLayer
370
13
48
1
60
0
100
AcDbLine
10
0
20
-73.611386
30
0
11
224
21
-73.611386
31
0
39
0
210
0
220
0
230
1
0
SOLID
5
371
100
AcDbEntity
8
2
62
256
6
ByLayer
370
18
48
1
60
0
100
AcDbTrace
10
0
20
-73.611386
30
0
11
4.174997
21
-72.68581
31
0
12
4.175003
22
-74.536961
32
0
13
4.175003
23
-74.536961
33
0
39
0
210
0
220
0
230
1
0
SOLID
5
372
100
AcDbEntity
8
2
62
256
6
ByLayer
370
18
48
1
60
0
100
AcDbTrace
10
224
20
-73.611386
30
0
11
219.825003
21
-74.536961
31
0
12
219.824997
22
-72.68581
32
0
13
219.824997
23
-72.68581
33
0
39
0
210
0
220
0
230
1
0
ENDBLK
5
374
100
AcDbEntity
8
0
100
AcDbBlockEnd
0
BLOCK
5
379
100
AcDbEntity
8
0
100
AcDbBlockBegin
2
*D3
70
1
10
0
20
0
30
0
3
*D3
0
LINE
5
37B
100
AcDbEntity
8
0
62
256
6
ByLayer
370
-2
48
1
60
0
100
AcDbLine
10
-70
20
-21.5875
30
0
11
-70
21
-76.786386
31
0
39
0
210
0
220
0
230
1
0
LINE
5
37C
100
AcDbEntity
8
0
62
256
6
ByLayer
370
-2
48
1
60
0
100
AcDbLine
10
0
20
-26.3375
30
0
11
0
21
-76.786386
31
0
39
0
210
0
220
0
230
1
0
LINE
5
37D
100
AcDbEntity
8
0
62
256
6
ByLayer
370
-2
48
1
60
0
100
AcDbLine
10
-65.825
20
-73.611386
30
0
11
-4.175
21
-73.611386
31
0
39
0
210
0
220
0
230
1
0
SOLID
5
37E
100
AcDbEntity
8
0
62
256
6
ByLayer
370
-1
48
1
60
0
100
AcDbTrace
10
-65.825
20
-72.915552
30
0
11
-65.825
21
-74.307219
31
0
12
-70
22
-73.611386
32
0
13
-70
23
-73.611386
33
0
39
0
210
0
220
0
230
1
0
SOLID
5
37F
100
AcDbEntity
8
0
62
256
6
ByLayer
370
-1
48
1
60
0
100
AcDbTrace
10
-4.175
20
-74.307219
30
0
11
-4.175
21
-72.915552
31
0
12
0
22
-73.611386
32
0
13
0
23
-73.611386
33
0
39
0
210
0
220
0
230
1
0
MTEXT
5
380
100
AcDbEntity
8
0
62
256
6
ByLayer
370
18
48
1
60
0
100
AcDbMText
10
-35
20
-64.217636
30
0
210
0
220
0
230
1
1
\A1;70
40
4.5
41
0
44
1
50
0
71
5
72
5
7
iso_b_vert
0
POINT
5
381
100
AcDbEntity
8
Defpoints
62
0
6
ByLayer
370
-1
48
1
60
0
100
AcDbPoint
10
-70
20
-20
30
0
39
0
210
0
220
0
230
1
50
360
0
POINT
5
382
100
AcDbEntity
8
Defpoints
62
0
6
ByLayer
370
-1
48
1
60
0
100
AcDbPoint
10
0
20
-24.75
30
0
39
0
210
0
220
0
230
1
50
360
0
POINT
5
383
100
AcDbEntity
8
Defpoints
62
0
6
ByLayer
370
-1
48
1
60
0
100
AcDbPoint
10
0
20
-73.611386
30
0
39
0
210
0
220
0
230
1
50
360
0
ENDBLK
5
37A
100
AcDbEntity
8
0
100
AcDbBlockEnd
0
BLOCK
5
38B
100
AcDbEntity
8
0
100
AcDbBlockBegin
2
_U1
70
0
10
0
20
0
30
0
3
_U1
0
MTEXT
5
385
100
AcDbEntity
8
SK2
62
256
6
ByLayer
370
18
48
1
60
0
100
AcDbMText
10
-37.449242
20
-72.283714
30
0
210
0
220
0
230
1
1
\W0.6740;70
40
4.5
41
0
44
1.084337
50
0
71
7
72
5
7
iso_b_vert
0
LINE
5
386
100
AcDbEntity
8
SK2
62
256
6
ByLayer
370
13
48
1
60
0
100
AcDbLine
10
-70
20
-21.5875
30
0
11
-70
21
-76.786386
31
0
39
0
210
0
220
0
230
1
0
LINE
5
387
100
AcDbEntity
8
SK2
62
256
6
ByLayer
370
13
48
1
60
0
100
AcDbLine
10
0
20
-26.3375
30
0
11
0
21
-76.786386
31
0
39
0
210
0
220
0
230
1
0
LINE
5
388
100
AcDbEntity
8
SK2
62
256
6
ByLayer
370
13
48
1
60
0
100
AcDbLine
10
-70
20
-73.611386
30
0
11
0
21
-73.611386
31
0
39
0
210
0
220
0
230
1
0
SOLID
5
389
100
AcDbEntity
8
SK2
62
256
6
ByLayer
370
18
48
1
60
0
100
AcDbTrace
10
-70
20
-73.611386
30
0
11
-65.825003
21
-72.68581
31
0
12
-65.824997
22
-74.536961
32
0
13
-65.824997
23
-74.536961
33
0
39
0
210
0
220
0
230
1
0
SOLID
5
38A
100
AcDbEntity
8
SK2
62
256
6
ByLayer
370
18
48
1
60
0
100
AcDbTrace
10
0
20
-73.611386
30
0
11
-4.174997
21
-74.536961
31
0
12
-4.175003
22
-72.68581
32
0
13
-4.175003
23
-72.68581
33
0
39
0
210
0
220
0
230
1
0
ENDBLK
5
38C
100
AcDbEntity
8
0
100
AcDbBlockEnd
0
BLOCK
5
391
100
AcDbEntity
8
0
100
AcDbBlockBegin
2
*D5
70
1
10
0
20
0
30
0
3
*D5
0
LINE
5
393
100
AcDbEntity
8
0
62
256
6
ByLayer
370
-2
48
1
60
0
100
AcDbLine
10
224
20
-20.5875
30
0
11
224
21
-66.786386
31
0
39
0
210
0
220
0
230
1
0
LINE
5
394
100
AcDbEntity
8
0
62
256
6
ByLayer
370
-2
48
1
60
0
100
AcDbLine
10
5.9552
20
-26.3375
30
0
11
5.9552
21
-66.786386
31
0
39
0
210
0
220
0
230
1
0
LINE
5
395
100
AcDbEntity
8
0
62
256
6
ByLayer
370
-2
48
1
60
0
100
AcDbLine
10
219.825
20
-63.611386
30
0
11
10.1302
21
-63.611386
31
0
39
0
210
0
220
0
230
1
0
SOLID
5
396
100
AcDbEntity
8
0
62
256
6
ByLayer
370
-1
48
1
60
0
100
AcDbTrace
10
219.825
20
-64.307219
30
0
11
219.825
21
-62.915552
31
0
12
224
22
-63.611386
32
0
13
224
23
-63.611386
33
0
39
0
210
0
220
0
230
1
0
SOLID
5
397
100
AcDbEntity
8
0
62
256
6
ByLayer
370
-1
48
1
60
0
100
AcDbTrace
10
10.1302
20
-62.915552
30
0
11
10.1302
21
-64.307219
31
0
12
5.9552
22
-63.611386
32
0
13
5.9552
23
-63.611386
33
0
39
0
210
0
220
0
230
1
0
MTEXT
5
398
100
AcDbEntity
8
0
62
256
6
ByLayer
370
18
48
1
60
0
100
AcDbMText
10
114.9776
20
-54.217636
30
0
210
0
220
0
230
1
1
\A1;218
40
4.5
41
0
44
1
50
0
71
5
72
5
7
iso_b_vert
0
POINT
5
399
100
AcDbEntity
8
Defpoints
62
0
6
ByLayer
370
-1
48
1
60
0
100
AcDbPoint
10
224
20
-19
30
0
39
0
210
0
220
0
230
1
50
360
0
POINT
5
39A
100
AcDbEntity
8
Defpoints
62
0
6
ByLayer
370
-1
48
1
60
0
100
AcDbPoint
10
5.9552
20
-24.75
30
0
39
0
210
0
220
0
230
1
50
360
0
POINT
5
39B
100
AcDbEntity
8
Defpoints
62
0
6
ByLayer
370
-1
48
1
60
0
100
AcDbPoint
10
5.9552
20
-63.611386
30
0
39
0
210
0
220
0
230
1
50
360
0
ENDBLK
5
392
100
AcDbEntity
8
0
100
AcDbBlockEnd
0
BLOCK
5
3A3
100
AcDbEntity
8
0
100
AcDbBlockBegin
2
_U2
70
0
10
0
20
0
30
0
3
_U2
0
MTEXT
5
39D
100
AcDbEntity
8
SK2
62
256
6
ByLayer
370
18
48
1
60
0
100
AcDbMText
10
111.409401
20
-62.283714
30
0
210
0
220
0
230
1
1
\W0.6217;218
40
4.5
41
0
44
1.084337
50
0
71
7
72
5
7
iso_b_vert
0
LINE
5
39E
100
AcDbEntity
8
SK2
62
256
6
ByLayer
370
13
48
1
60
0
100
AcDbLine
10
224
20
-20.5875
30
0
11
224
21
-66.786386
31
0
39
0
210
0
220
0
230
1
0
LINE
5
39F
100
AcDbEntity
8
SK2
62
256
6
ByLayer
370
13
48
1
60
0
100
AcDbLine
10
5.9552
20
-26.3375
30
0
11
5.9552
21
-66.786386
31
0
39
0
210
0
220
0
230
1
0
LINE
5
3A0
100
AcDbEntity
8
SK2
62
256
6
ByLayer
370
13
48
1
60
0
100
AcDbLine
10
224
20
-63.611386
30
0
11
5.9552
21
-63.611386
31
0
39
0
210
0
220
0
230
1
0
SOLID
5
3A1
100
AcDbEntity
8
SK2
62
256
6
ByLayer
370
18
48
1
60
0
100
AcDbTrace
10
224
20
-63.611386
30
0
11
219.825003
21
-64.536961
31
0
12
219.824997
22
-62.68581
32
0
13
219.824997
23
-62.68581
33
0
39
0
210
0
220
0
230
1
0
SOLID
5
3A2
100
AcDbEntity
8
SK2
62
256
6
ByLayer
370
18
48
1
60
0
100
AcDbTrace
10
5.9552
20
-63.611386
30
0
11
10.130197
21
-62.68581
31
0
12
10.130203
22
-64.536961
32
0
13
10.130203
23
-64.536961
33
0
39
0
210
0
220
0
230
1
0
ENDBLK
5
3A4
100
AcDbEntity
8
0
100
AcDbBlockEnd
0
BLOCK
5
3A9
100
AcDbEntity
8
0
100
AcDbBlockBegin
2
*D7
70
1
10
0
20
0
30
0
3
*D7
0
LINE
5
3AB
100
AcDbEntity
8
0
62
256
6
ByLayer
370
-2
48
1
60
0
100
AcDbLine
10
30
20
-20.5875
30
0
11
30
21
-56.786386
31
0
39
0
210
0
220
0
230
1
0
LINE
5
3AC
100
AcDbEntity
8
0
62
256
6
ByLayer
370
-2
48
1
60
0
100
AcDbLine
10
224
20
-20.5875
30
0
11
224
21
-56.786386
31
0
39
0
210
0
220
0
230
1
0
LINE
5
3AD
100
AcDbEntity
8
0
62
256
6
ByLayer
370
-2
48
1
60
0
100
AcDbLine
10
34.175
20
-53.611386
30
0
11
219.825
21
-53.611386
31
0
39
0
210
0
220
0
230
1
0
SOLID
5
3AE
100
AcDbEntity
8
0
62
256
6
ByLayer
370
-1
48
1
60
0
100
AcDbTrace
10
34.175
20
-52.915552
30
0
11
34.175
21
-54.307219
31
0
12
30
22
-53.611386
32
0
13
30
23
-53.611386
33
0
39
0
210
0
220
0
230
1
0
SOLID
5
3AF
100
AcDbEntity
8
0
62
256
6
ByLayer
370
-1
48
1
60
0
100
AcDbTrace
10
219.825
20
-54.307219
30
0
11
219.825
21
-52.915552
31
0
12
224
22
-53.611386
32
0
13
224
23
-53.611386
33
0
39
0
210
0
220
0
230
1
0
MTEXT
5
3B0
100
AcDbEntity
8
0
62
256
6
ByLayer
370
18
48
1
60
0
100
AcDbMText
10
127
20
-44.217636
30
0
210
0
220
0
230
1
1
\A1;194
40
4.5
41
0
44
1
50
0
71
5
72
5
7
iso_b_vert
0
POINT
5
3B1
100
AcDbEntity
8
Defpoints
62
0
6
ByLayer
370
-1
48
1
60
0
100
AcDbPoint
10
30
20
-19
30
0
39
0
210
0
220
0
230
1
50
360
0
POINT
5
3B2
100
AcDbEntity
8
Defpoints
62
0
6
ByLayer
370
-1
48
1
60
0
100
AcDbPoint
10
224
20
-19
30
0
39
0
210
0
220
0
230
1
50
360
0
POINT
5
3B3
100
AcDbEntity
8
Defpoints
62
0
6
ByLayer
370
-1
48
1
60
0
100
AcDbPoint
10
224
20
-53.611386
30
0
39
0
210
0
220
0
230
1
50
360
0
ENDBLK
5
3AA
100
AcDbEntity
8
0
100
AcDbBlockEnd
0
BLOCK
5
3BB
100
AcDbEntity
8
0
100
AcDbBlockBegin
2
_U3
70
0
10
0
20
0
30
0
3
_U3
0
MTEXT
5
3B5
100
AcDbEntity
8
SK2
62
256
6
ByLayer
370
18
48
1
60
0
100
AcDbMText
10
123.194886
20
-52.283714
30
0
210
0
220
0
230
1
1
\W0.6506;194
40
4.5
41
0
44
1.084337
50
0
71
7
72
5
7
iso_b_vert
0
LINE
5
3B6
100
AcDbEntity
8
SK2
62
256
6
ByLayer
370
13
48
1
60
0
100
AcDbLine
10
30
20
-20.5875
30
0
11
30
21
-56.786386
31
0
39
0
210
0
220
0
230
1
0
LINE
5
3B7
100
AcDbEntity
8
SK2
62
256
6
ByLayer
370
13
48
1
60
0
100
AcDbLine
10
224
20
-20.5875
30
0
11
224
21
-56.786386
31
0
39
0
210
0
220
0
230
1
0
LINE
5
3B8
100
AcDbEntity
8
SK2
62
256
6
ByLayer
370
13
48
1
60
0
100
AcDbLine
10
30
20
-53.611386
30
0
11
224
21
-53.611386
31
0
39
0
210
0
220
0
230
1
0
SOLID
5
3B9
100
AcDbEntity
8
SK2
62
256
6
ByLayer
370
18
48
1
60
0
100
AcDbTrace
10
30
20
-53.611386
30
0
11
34.174997
21
-52.68581
31
0
12
34.175003
22
-54.536961
32
0
13
34.175003
23
-54.536961
33
0
39
0
210
0
220
0
230
1
0
SOLID
5
3BA
100
AcDbEntity
8
SK2
62
256
6
ByLayer
370
18
48
1
60
0
100
AcDbTrace
10
224
20
-53.611386
30
0
11
219.825003
21
-54.536961
31
0
12
219.824997
22
-52.68581
32
0
13
219.824997
23
-52.68581
33
0
39
0
210
0
220
0
230
1
0
ENDBLK
5
3BC
100
AcDbEntity
8
0
100
AcDbBlockEnd
0
BLOCK
5
3C1
100
AcDbEntity
8
0
100
AcDbBlockBegin
2
*D9
70
1
10
0
20
0
30
0
3
*D9
0
LINE
5
3C3
100
AcDbEntity
8
0
62
256
6
ByLayer
370
-2
48
1
60
0
100
AcDbLine
10
222.9982
20
-11.0875
30
0
11
222.9982
21
-46.786386
31
0
39
0
210
0
220
0
230
1
0
LINE
5
3C4
100
AcDbEntity
8
0
62
256
6
ByLayer
370
-2
48
1
60
0
100
AcDbLine
10
224
20
-1.5875
30
0
11
224
21
-46.786386
31
0
39
0
210
0
220
0
230
1
0
LINE
5
3C5
100
AcDbEntity
8
0
62
256
6
ByLayer
370
-2
48
1
60
0
100
AcDbLine
10
224
20
-43.611386
30
0
11
247.708929
21
-43.611386
31
0
39
0
210
0
220
0
230
1
0
LINE
5
3C6
100
AcDbEntity
8
0
62
256
6
ByLayer
370
-2
48
1
60
0
100
AcDbLine
10
218.8232
20
-43.611386
30
0
11
214.6482
21
-43.611386
31
0
39
0
210
0
220
0
230
1
0
LINE
5
3C7
100
AcDbEntity
8
0
62
256
6
ByLayer
370
-2
48
1
60
0
100
AcDbLine
10
228.175
20
-43.611386
30
0
11
232.35
21
-43.611386
31
0
39
0
210
0
220
0
230
1
0
SOLID
5
3C8
100
AcDbEntity
8
0
62
256
6
ByLayer
370
-1
48
1
60
0
100
AcDbTrace
10
218.8232
20
-44.307219
30
0
11
218.8232
21
-42.915552
31
0
12
222.9982
22
-43.611386
32
0
13
222.9982
23
-43.611386
33
0
39
0
210
0
220
0
230
1
0
SOLID
5
3C9
100
AcDbEntity
8
0
62
256
6
ByLayer
370
-1
48
1
60
0
100
AcDbTrace
10
228.175
20
-42.915552
30
0
11
228.175
21
-44.307219
31
0
12
224
22
-43.611386
32
0
13
224
23
-43.611386
33
0
39
0
210
0
220
0
230
1
0
MTEXT
5
3CA
100
AcDbEntity
8
0
62
256
6
ByLayer
370
18
48
1
60
0
100
AcDbMText
10
240.029464
20
-34.217636
30
0
210
0
220
0
230
1
1
\A1;1
40
4.5
41
0
44
1
50
0
71
5
72
5
7
iso_b_vert
0
POINT
5
3CB
100
AcDbEntity
8
Defpoints
62
0
6
ByLayer
370
-1
48
1
60
0
100
AcDbPoint
10
222.9982
20
-9.5
30
0
39
0
210
0
220
0
230
1
50
360
0
POINT
5
3CC
100
AcDbEntity
8
Defpoints
62
0
6
ByLayer
370
-1
48
1
60
0
100
AcDbPoint
10
224
20
0
30
0
39
0
210
0
220
0
230
1
50
360
0
POINT
5
3CD
100
AcDbEntity
8
Defpoints
62
0
6
ByLayer
370
-1
48
1
60
0
100
AcDbPoint
10
224
20
-43.611386
30
0
39
0
210
0
220
0
230
1
50
360
0
ENDBLK
5
3C2
100
AcDbEntity
8
0
100
AcDbBlockEnd
0
BLOCK
5
3D5
100
AcDbEntity
8
0
100
AcDbBlockBegin
2
_U4
70
0
10
0
20
0
30
0
3
_U4
0
MTEXT
5
3CF
100
AcDbEntity
8
2
62
256
6
ByLayer
370
18
48
1
60
0
100
AcDbMText
10
236.351
20
-42.283714
30
0
210
0
220
0
230
1
1
\W0.3580;1
40
4.5
41
0
44
1.084337
50
0
71
7
72
5
7
iso_b_vert
0
LINE
5
3D0
100
AcDbEntity
8
2
62
256
6
ByLayer
370
13
48
1
60
0
100
AcDbLine
10
222.9982
20
-11.0875
30
0
11
222.9982
21
-46.786386
31
0
39
0
210
0
220
0
230
1
0
LINE
5
3D1
100
AcDbEntity
8
2
62
256
6
ByLayer
370
13
48
1
60
0
100
AcDbLine
10
224
20
-1.5875
30
0
11
224
21
-46.786386
31
0
39
0
210
0
220
0
230
1
0
LINE
5
3D2
100
AcDbEntity
8
2
62
256
6
ByLayer
370
13
48
1
60
0
100
AcDbLine
10
237.000414
20
-43.611386
30
0
11
211.7482
21
-43.611386
31
0
39
0
210
0
220
0
230
1
0
SOLID
5
3D3
100
AcDbEntity
8
2
62
256
6
ByLayer
370
18
48
1
60
0
100
AcDbTrace
10
222.9982
20
-43.611386
30
0
11
218.823203
21
-44.536961
31
0
12
218.823197
22
-42.68581
32
0
13
218.823197
23
-42.68581
33
0
39
0
210
0
220
0
230
1
0
SOLID
5
3D4
100
AcDbEntity
8
2
62
256
6
ByLayer
370
18
48
1
60
0
100
AcDbTrace
10
224
20
-43.611386
30
0
11
228.174997
21
-42.68581
31
0
12
228.175003
22
-44.536961
32
0
13
228.175003
23
-44.536961
33
0
39
0
210
0
220
0
230
1
0
ENDBLK
5
3D6
100
AcDbEntity
8
0
100
AcDbBlockEnd
0
ENDSEC
0
SECTION
2
ENTITIES
0
ARC
5
18C
100
AcDbEntity
8
SK1
62
256
6
ByLayer
370
13
48
1
60
0
100
AcDbCircle
39
0
10
-67.894505
20
-20.396
30
0
40
0.799999999999993
210
0
220
0
230
1
100
AcDbArc
50
70.982
51
141
0
ARC
5
18D
100
AcDbEntity
8
SK1
62
256
6
ByLayer
370
13
48
1
60
0
100
AcDbCircle
39
0
10
-67.894505
20
20.396
30
0
40
0.799999999999993
210
0
220
0
230
1
100
AcDbArc
50
219
51
289.018
0
ARC
5
18E
100
AcDbEntity
8
SK1
62
256
6
ByLayer
370
13
48
1
60
0
100
AcDbCircle
39
0
10
-0.15
20
20.146
30
0
40
0.399999999999999
210
0
220
0
230
1
100
AcDbArc
50
270
51
292.024313
0
ARC
5
18F
100
AcDbEntity
8
SK1
62
256
6
ByLayer
370
13
48
1
60
0
100
AcDbCircle
39
0
10
-0.15
20
-20.146
30
0
40
0.399999999999999
210
0
220
0
230
1
100
AcDbArc
50
67.975687
51
90
0
ARC
5
190
100
AcDbEntity
8
SK1
62
256
6
ByLayer
370
13
48
1
60
0
100
AcDbCircle
39
0
10
-1.375195
20
20.146
30
0
40
0.400000000000004
210
0
220
0
230
1
100
AcDbArc
50
245
51
270
0
ARC
5
191
100
AcDbEntity
8
SK1
62
256
6
ByLayer
370
13
48
1
60
0
100
AcDbCircle
39
0
10
-1.375195
20
-20.146
30
0
40
0.400000000000004
210
0
220
0
230
1
100
AcDbArc
50
90
51
115
0
ARC
5
192
100
AcDbEntity
8
1
62
256
6
ByLayer
370
13
48
1
60
0
100
AcDbCircle
39
0
10
221.031442
20
17.765545
30
0
40
0.15
210
0
220
0
230
1
100
AcDbArc
50
8.974534
51
93
0
ARC
5
193
100
AcDbEntity
8
1
62
256
6
ByLayer
370
13
48
1
60
0
100
AcDbCircle
39
0
10
221.134212
20
7.878427
30
0
40
0.15
210
0
220
0
230
1
100
AcDbArc
50
273
51
352.543899
0
ARC
5
194
100
AcDbEntity
8
1
62
256
6
ByLayer
370
13
48
1
60
0
100
AcDbCircle
39
0
10
211.65978
20
17.106749
30
0
40
0.15
210
0
220
0
230
1
100
AcDbArc
50
78.801932
51
93
0
ARC
5
195
100
AcDbEntity
8
1
62
256
6
ByLayer
370
13
48
1
60
0
100
AcDbCircle
39
0
10
211.76255
20
7.21963
30
0
40
0.15
210
0
220
0
230
1
100
AcDbArc
50
273
51
302.717373
0
ELLIPSE
5
196
100
AcDbEntity
8
1
62
256
6
ByLayer
370
13
48
1
60
0
100
AcDbEllipse
10
212.640546
20
5.811835
30
0
11
0.0863543278008547
21
-1.64773873234505
31
0
210
0
220
0
230
1
40
0.995725
41
-2.40930741574166
42
-1.89382714558052
0
ELLIPSE
5
197
100
AcDbEntity
8
1
62
256
6
ByLayer
370
13
48
1
60
0
100
AcDbEllipse
10
221.419128
20
7.788181
30
0
11
-0.0427993177798495
21
-0.158580925160805
31
0
210
0
220
0
230
1
40
0.080206
41
-1.54458133964446
42
0.026214987104351
0
ELLIPSE
5
198
100
AcDbEntity
8
1
62
256
6
ByLayer
370
13
48
1
60
0
100
AcDbEllipse
10
209.724551
20
16.935838
30
0
11
0.023531292646854
21
-0.148142763125197
31
0
210
0
220
0
230
1
40
0.091865
41
-3.05123893776037
42
-1.58049283526843
0
ELLIPSE
5
199
100
AcDbEntity
8
1
62
256
6
ByLayer
370
13
48
1
60
0
100
AcDbEllipse
10
210.457493
20
6.21012
30
0
11
-0.00338117794798638
21
-0.149961887277015
31
0
210
0
220
0
230
1
40
0.092114
41
-1.56388390792972
42
-0.0704860709500566
0
ELLIPSE
5
19A
100
AcDbEntity
8
1
62
256
6
ByLayer
370
13
48
1
60
0
100
AcDbEllipse
10
220.116548
20
19.171407
30
0
11
0.0863543278008547
21
-1.64773873234505
31
0
210
0
220
0
230
1
40
0.995725
41
0.73228523784816
42
1.24776550800928
0
ELLIPSE
5
19B
100
AcDbEntity
8
1
62
256
6
ByLayer
370
13
48
1
60
0
100
AcDbEllipse
10
223.060216
20
8.048854
30
0
11
0.00785039343644132
21
-0.149794430213186
31
0
210
0
220
0
230
1
40
0.995725
41
0.10471975511915
42
1.38753675533548
0
ELLIPSE
5
19C
100
AcDbEntity
8
1
62
256
6
ByLayer
370
13
48
1
60
0
100
AcDbEllipse
10
220.388425
20
6.217884
30
0
11
0.0732703387401194
21
-1.39808134865641
31
0
210
0
220
0
230
1
40
0.995725
41
2.11659239098883
42
2.76708731380225
0
ELLIPSE
5
19D
100
AcDbEntity
8
1
62
256
6
ByLayer
370
13
48
1
60
0
100
AcDbEllipse
10
211.56593
20
12.063788
30
0
11
-0.0287847759336182
21
0.549246244115016
31
0
210
0
220
0
230
1
40
0.995725
41
1.38753675533558
42
1.67551608191458
0
ELLIPSE
5
19E
100
AcDbEntity
8
1
62
256
6
ByLayer
370
13
48
1
60
0
100
AcDbEllipse
10
211.428302
20
17.256598
30
0
11
0.00523359562429506
21
-0.0998629534754734
31
0
210
0
220
0
230
1
40
0.995725
41
1.3875367553358
42
-3.0368728984701
0
ELLIPSE
5
19F
100
AcDbEntity
8
1
62
256
6
ByLayer
370
13
48
1
60
0
100
AcDbEllipse
10
221.534135
20
18.708238
30
0
11
-0.332966327732103
21
-0.256576851502925
31
0
210
0
220
0
230
1
40
0.479615
41
-2.35983386470199
42
-1.33282421215418
0
ELLIPSE
5
1A0
100
AcDbEntity
8
1
62
256
6
ByLayer
370
13
48
1
60
0
100
AcDbEllipse
10
212.658995
20
5.812801
30
0
11
-0.0785039343644136
21
1.49794430213187
31
0
210
0
220
0
230
1
40
0.995725
41
0.71643816226591
42
1.24776550800939
0
ELLIPSE
5
1A1
100
AcDbEntity
8
1
62
256
6
ByLayer
370
13
48
1
60
0
100
AcDbEllipse
10
222.121777
20
10.026154
30
0
11
-0.457939617125743
21
8.73800842910252
31
0
210
0
220
0
230
1
40
0.995725
41
-0.0745839291780786
42
-0.0301358259415594
0
ELLIPSE
5
1A2
100
AcDbEntity
8
1
62
256
6
ByLayer
370
13
48
1
60
0
100
AcDbEllipse
10
216.64847
20
7.694173
30
0
11
0.00785039343644132
21
-0.149794430213186
31
0
210
0
220
0
230
1
40
0.092371
41
0
42
1.5707963267949
0
ELLIPSE
5
1A3
100
AcDbEntity
8
1
62
256
6
ByLayer
370
13
48
1
60
0
100
AcDbEllipse
10
209.640581
20
12.038362
30
0
11
0.0366351693700595
21
-0.699040674328201
31
0
210
0
220
0
230
1
40
0.995725
41
-1.75405589825431
42
-1.46607657167516
0
ELLIPSE
5
1A4
100
AcDbEntity
8
1
62
256
6
ByLayer
370
13
48
1
60
0
100
AcDbEllipse
10
221.031442
20
17.765545
30
0
11
-0.0810743178596156
21
0.126202040330567
31
0
210
0
220
0
230
1
40
0.080306
41
-1.61660247828216
42
-0.0458061514879867
0
ELLIPSE
5
1A5
100
AcDbEntity
8
1
62
256
6
ByLayer
370
13
48
1
60
0
100
AcDbEllipse
10
223.691784
20
12.874662
30
0
11
0.148731686424787
21
-0.0194649801756591
31
0
210
0
220
0
230
1
40
0.016833
41
-1.66175841710532
42
-0.0909620903091595
0
ELLIPSE
5
1A6
100
AcDbEntity
8
1
62
256
6
ByLayer
370
13
48
1
60
0
100
AcDbEllipse
10
211.423689
20
17.256357
30
0
11
0.00523359562429506
21
-0.0998629534754734
31
0
210
0
220
0
230
1
40
0.995725
41
1.38753675533551
42
3.14158141713619
0
ELLIPSE
5
1A7
100
AcDbEntity
8
1
62
256
6
ByLayer
370
13
48
1
60
0
100
AcDbEllipse
10
223.689692
20
13.032489
30
0
11
0.148163665863163
21
0.0233993187505335
31
0
210
0
220
0
230
1
40
0.009655
41
0.0919985744760602
42
1.66279490126894
0
ELLIPSE
5
1A8
100
AcDbEntity
8
1
62
256
6
ByLayer
370
13
48
1
60
0
100
AcDbEllipse
10
223.153411
20
12.946814
30
0
11
0.0366351693700595
21
-0.699040674328201
31
0
210
0
220
0
230
1
40
0.995725
41
1.38753675533523
42
1.67551608191439
0
ELLIPSE
5
1A9
100
AcDbEntity
8
1
62
256
6
ByLayer
370
13
48
1
60
0
100
AcDbEllipse
10
216.410832
20
12.493313
30
0
11
0.141252064642856
21
-2.69524995287424
31
0
210
0
220
0
230
1
40
0.995725
41
0
42
6.28318530717959
0
ELLIPSE
5
1AA
100
AcDbEntity
8
1
62
256
6
ByLayer
370
13
48
1
60
0
100
AcDbEllipse
10
216.362431
20
12.490776
30
0
11
0.139331774436744
21
-2.65860863297132
31
0
210
0
220
0
230
1
40
0.995725
41
-0.853733347690236
42
0
0
ELLIPSE
5
1AB
100
AcDbEntity
8
1
62
256
6
ByLayer
370
13
48
1
60
0
100
AcDbEllipse
10
216.362431
20
12.490776
30
0
11
0.139331774436744
21
-2.65860863297132
31
0
210
0
220
0
230
1
40
0.995725
41
0
42
-2.28787036705996
0
ELLIPSE
5
1AC
100
AcDbEntity
8
1
62
256
6
ByLayer
370
13
48
1
60
0
100
AcDbEllipse
10
221.587522
20
18.711036
30
0
11
-0.259143969482094
21
-0.225625565341928
31
0
210
0
220
0
230
1
40
0.736454
41
-1.18498371810828
42
-1.13876069377341
0
ELLIPSE
5
1AD
100
AcDbEntity
8
1
62
256
6
ByLayer
370
13
48
1
60
0
100
AcDbEllipse
10
211.981244
20
18.745054
30
0
11
-0.0732703387401192
21
1.39808134865641
31
0
210
0
220
0
230
1
40
0.995725
41
2.68254628766458
42
-3.14159265358969
0
ELLIPSE
5
1AE
100
AcDbEntity
8
1
62
256
6
ByLayer
370
13
48
1
60
0
100
AcDbEllipse
10
221.361078
20
7.728335
30
0
11
0.00523359562429506
21
-0.0998629534754734
31
0
210
0
220
0
230
1
40
0.995725
41
-6.3441061220796E-06
42
0.104719755121098
0
ELLIPSE
5
1AF
100
AcDbEntity
8
1
62
256
6
ByLayer
370
13
48
1
60
0
100
AcDbEllipse
10
221.223449
20
12.921146
30
0
11
0.0444855628065009
21
-0.848835104541388
31
0
210
0
220
0
230
1
40
0.995725
41
1.38753675533551
42
1.67551608191457
0
ELLIPSE
5
1B0
100
AcDbEntity
8
1
62
256
6
ByLayer
370
13
48
1
60
0
100
AcDbEllipse
10
210.635317
20
14.957088
30
0
11
-0.457939617125743
21
8.73800842910252
31
0
210
0
220
0
230
1
40
0.995725
41
3.06700872441171
42
3.11145682764823
0
ELLIPSE
5
1B1
100
AcDbEntity
8
1
62
256
6
ByLayer
370
13
48
1
60
0
100
AcDbEllipse
10
223.134962
20
12.945847
30
0
11
-0.0287847759336181
21
0.549246244115015
31
0
210
0
220
0
230
1
40
0.995725
41
-1.75405589825442
42
-1.46607657167532
0
ELLIPSE
5
1B2
100
AcDbEntity
8
1
62
256
6
ByLayer
370
13
48
1
60
0
100
AcDbEllipse
10
211.76255
20
7.21963
30
0
11
0.148163665863163
21
0.0233993187505335
31
0
210
0
220
0
230
1
40
0.009655
41
-3.04959407911497
42
-1.47879775232128
0
ELLIPSE
5
1B3
100
AcDbEntity
8
1
62
256
6
ByLayer
370
13
48
1
60
0
100
AcDbEllipse
10
222.85612
20
18.310634
30
0
11
0.148163665863163
21
0.0233993187505335
31
0
210
0
220
0
230
1
40
0.009655
41
0.0919985744735827
42
1.66279490126864
0
ELLIPSE
5
1B4
100
AcDbEntity
8
1
62
256
6
ByLayer
370
13
48
1
60
0
100
AcDbEllipse
10
211.025342
20
6.217511
30
0
11
0.00653729335064122
21
-0.149857478277354
31
0
210
0
220
0
230
1
40
0.092367
41
-1.56998679074977
42
-0.0232440763755243
0
ELLIPSE
5
1B5
100
AcDbEntity
8
1
62
256
6
ByLayer
370
13
48
1
60
0
100
AcDbEllipse
10
209.729163
20
16.93608
30
0
11
0.00785039343644132
21
-0.149794430213186
31
0
210
0
220
0
230
1
40
0.995725
41
-3.03687289847047
42
-1.75405589825432
0
ELLIPSE
5
1B6
100
AcDbEntity
8
1
62
256
6
ByLayer
370
13
48
1
60
0
100
AcDbEllipse
10
221.784884
20
12.850202
30
0
11
0.148731686424787
21
-0.0194649801756591
31
0
210
0
220
0
230
1
40
0.016833
41
5.34639917209464E-05
42
1.4798342364841
0
ELLIPSE
5
1B7
100
AcDbEntity
8
1
62
256
6
ByLayer
370
13
48
1
60
0
100
AcDbEllipse
10
221.98377
20
17.025345
30
0
11
0.0994383168615901
21
-1.89739611603369
31
0
210
0
220
0
230
1
40
0.995725
41
3.11145682764807
42
3.13286600732971
0
ELLIPSE
5
1B8
100
AcDbEntity
8
1
62
256
6
ByLayer
370
13
48
1
60
0
100
AcDbEllipse
10
219.710674
20
19.150136
30
0
11
0.0732703387401194
21
-1.39808134865641
31
0
210
0
220
0
230
1
40
0.995725
41
0
42
0.459046365925163
0
ELLIPSE
5
1B9
100
AcDbEntity
8
1
62
256
6
ByLayer
370
13
48
1
60
0
100
AcDbEllipse
10
221.419128
20
7.788181
30
0
11
-0.157381426374747
21
-0.0466723701537007
31
0
210
0
220
0
230
1
40
0.019797
41
-1.48863729020741
42
-0.271936942522869
0
ELLIPSE
5
1BA
100
AcDbEntity
8
1
62
256
6
ByLayer
370
13
48
1
60
0
100
AcDbEllipse
10
212.654383
20
5.81256
30
0
11
-0.0785039343644136
21
1.49794430213187
31
0
210
0
220
0
230
1
40
0.995725
41
0.716438162265793
42
1.24776550800927
0
ELLIPSE
5
1BB
100
AcDbEntity
8
1
62
256
6
ByLayer
370
13
48
1
60
0
100
AcDbEllipse
10
222.327274
20
18.774572
30
0
11
0.00338117794798593
21
0.149961887277015
31
0
210
0
220
0
230
1
40
0.092114
41
0.00691241886450697
42
1.57770874566007
0
ELLIPSE
5
1BC
100
AcDbEntity
8
1
62
256
6
ByLayer
370
13
48
1
60
0
100
AcDbEllipse
10
210.653766
20
14.958055
30
0
11
0.465790010562185
21
-8.88780285931571
31
0
210
0
220
0
230
1
40
0.995725
41
-0.0745839291779715
42
-0.0301358259414434
0
ELLIPSE
5
1BD
100
AcDbEntity
8
1
62
256
6
ByLayer
370
13
48
1
60
0
100
AcDbEllipse
10
211.65978
20
17.106749
30
0
11
0.00785039343644132
21
-0.149794430213186
31
0
210
0
220
0
230
1
40
0.995725
41
-3.14156978910915
42
-1.75405589825412
0
ELLIPSE
5
1BE
100
AcDbEntity
8
1
62
256
6
ByLayer
370
13
48
1
60
0
100
AcDbEllipse
10
211.023159
20
6.267463
30
0
11
0.0104671912485885
21
-0.199725906950916
31
0
210
0
220
0
230
1
40
0.995725
41
0.0113951578215092
42
1.24776550800922
0
ELLIPSE
5
1BF
100
AcDbEntity
8
1
62
256
6
ByLayer
370
13
48
1
60
0
100
AcDbEllipse
10
220.812748
20
6.240122
30
0
11
-0.0732703387401192
21
1.39808134865641
31
0
210
0
220
0
230
1
40
0.995725
41
-0.459046365925436
42
-1.64381324650475E-13
0
ELLIPSE
5
1C0
100
AcDbEntity
8
1
62
256
6
ByLayer
370
13
48
1
60
0
100
AcDbEllipse
10
223.148799
20
12.946572
30
0
11
0.0366351693700595
21
-0.699040674328201
31
0
210
0
220
0
230
1
40
0.995725
41
1.38753675533535
42
1.67551608191447
0
ELLIPSE
5
1C1
100
AcDbEntity
8
1
62
256
6
ByLayer
370
13
48
1
60
0
100
AcDbEllipse
10
211.612737
20
18.725741
30
0
11
-1.35440056057876
21
0.949932038382709
31
0
210
0
220
0
230
1
40
0.736455
41
1.13875822778358
42
1.92747736987138
0
ELLIPSE
5
1C2
100
AcDbEntity
8
1
62
256
6
ByLayer
370
13
48
1
60
0
100
AcDbEllipse
10
210.708322
20
12.173955
30
0
11
-0.148731686424787
21
0.0194649801756622
31
0
210
0
220
0
230
1
40
0.016833
41
1.47983423648428
42
3.05063056327569
0
ELLIPSE
5
1C3
100
AcDbEntity
8
1
62
256
6
ByLayer
370
13
48
1
60
0
100
AcDbEllipse
10
211.65978
20
17.106749
30
0
11
-0.029130190337919
21
-0.147144255786207
31
0
210
0
220
0
230
1
40
0.089572
41
1.59345443284413
42
-3.11893454751175
0
ELLIPSE
5
1C4
100
AcDbEntity
8
1
62
256
6
ByLayer
370
13
48
1
60
0
100
AcDbEllipse
10
210.844724
20
6.210033
30
0
11
0.00331394097836056
21
-0.149963388182556
31
0
210
0
220
0
230
1
40
0.092329
41
-1.56800114115575
42
-0.0435131345148173
0
ELLIPSE
5
1C5
100
AcDbEntity
8
1
62
256
6
ByLayer
370
13
48
1
60
0
100
AcDbEllipse
10
210.810222
20
7.959831
30
0
11
0.0994383168615901
21
-1.89739611603369
31
0
210
0
220
0
230
1
40
0.995725
41
-0.0301358259414827
42
-0.00872664625985592
0
ELLIPSE
5
1C6
100
AcDbEntity
8
1
62
256
6
ByLayer
370
13
48
1
60
0
100
AcDbEllipse
10
210.455703
20
6.75925
30
0
11
-0.0287847759336178
21
0.54924624411501
31
0
210
0
220
0
230
1
40
0.995725
41
1.67551608191453
42
3.06700872441173
0
ELLIPSE
5
1C7
100
AcDbEntity
8
1
62
256
6
ByLayer
370
13
48
1
60
0
100
AcDbEllipse
10
221.747771
20
18.716504
30
0
11
-0.00261679781214715
21
0.0499314767377296
31
0
210
0
220
0
230
1
40
0.995725
41
-0.00872664625980459
42
1.24776550800937
0
ELLIPSE
5
1C8
100
AcDbEntity
8
1
62
256
6
ByLayer
370
13
48
1
60
0
100
AcDbEllipse
10
209.724551
20
16.935838
30
0
11
-0.148731686424787
21
0.0194649801756622
31
0
210
0
220
0
230
1
40
0.016833
41
-0.0909620903112785
42
1.47983423647724
0
ELLIPSE
5
1C9
100
AcDbEntity
8
1
62
256
6
ByLayer
370
13
48
1
60
0
100
AcDbEllipse
10
211.65978
20
17.106749
30
0
11
0.148731686424787
21
-0.0194649801756591
31
0
210
0
220
0
230
1
40
0.016833
41
1.47983423648548
42
3.05063056327286
0
ELLIPSE
5
1CA
100
AcDbEntity
8
1
62
256
6
ByLayer
370
13
48
1
60
0
100
AcDbEllipse
10
211.546434
20
6.96279
30
0
11
0.00523359562429436
21
-0.0998629534754602
31
0
210
0
220
0
230
1
40
0.995725
41
0.716438162267072
42
1.67551608191476
0
ELLIPSE
5
1CB
100
AcDbEntity
8
1
62
256
6
ByLayer
370
13
48
1
60
0
100
AcDbEllipse
10
222.140226
20
10.027121
30
0
11
0.465790010562185
21
-8.88780285931571
31
0
210
0
220
0
230
1
40
0.995725
41
3.0670087244116
42
3.11145682764812
0
ELLIPSE
5
1CC
100
AcDbEntity
8
1
62
256
6
ByLayer
370
13
48
1
60
0
100
AcDbEllipse
10
222.135614
20
10.026879
30
0
11
0.465790010562185
21
-8.88780285931571
31
0
210
0
220
0
230
1
40
0.995725
41
3.06700872441171
42
3.11145682764823
0
ELLIPSE
5
1CD
100
AcDbEntity
8
1
62
256
6
ByLayer
370
13
48
1
60
0
100
AcDbEllipse
10
211.027771
20
6.267705
30
0
11
0.0104671912485885
21
-0.199725906950916
31
0
210
0
220
0
230
1
40
0.995725
41
-0.00872664626012694
42
1.24776550800937
0
ELLIPSE
5
1CE
100
AcDbEntity
8
1
62
256
6
ByLayer
370
13
48
1
60
0
100
AcDbEllipse
10
210.213964
20
18.114973
30
0
11
-0.357961887352165
21
0.220366838112675
31
0
210
0
220
0
230
1
40
0.479615
41
-1.80876844141783
42
-0.781758788886978
0
ELLIPSE
5
1CF
100
AcDbEntity
8
1
62
256
6
ByLayer
370
13
48
1
60
0
100
AcDbEllipse
10
221.902759
20
18.773434
30
0
11
-0.00653729335064158
21
0.149857478277354
31
0
210
0
220
0
230
1
40
0.092367
41
0.000809536045784252
42
1.57160586284021
0
ELLIPSE
5
1D0
100
AcDbEntity
8
1
62
256
6
ByLayer
370
13
48
1
60
0
100
AcDbEllipse
10
221.134212
20
7.878427
30
0
11
-0.148731686424787
21
0.0194649801756622
31
0
210
0
220
0
230
1
40
0.016833
41
-3.1415391896533
42
-1.66175841710661
0
ELLIPSE
5
1D1
100
AcDbEntity
8
1
62
256
6
ByLayer
370
13
48
1
60
0
100
AcDbEllipse
10
211.76255
20
7.21963
30
0
11
0.0810743178596151
21
-0.126202040330567
31
0
210
0
220
0
230
1
40
0.080306
41
2.25336957641572E-05
42
1.52499017530744
0
ELLIPSE
5
1D2
100
AcDbEntity
8
1
62
256
6
ByLayer
370
13
48
1
60
0
100
AcDbEllipse
10
221.031442
20
17.765545
30
0
11
-0.14816366586316
21
-0.0233993187505488
31
0
210
0
220
0
230
1
40
0.009655
41
1.66279490126977
42
3.14137689894593
0
ELLIPSE
5
1D3
100
AcDbEntity
8
1
62
256
6
ByLayer
370
13
48
1
60
0
100
AcDbEllipse
10
223.064828
20
8.049096
30
0
11
0.00785039343644132
21
-0.149794430213186
31
0
210
0
220
0
230
1
40
0.995725
41
0.104719755119327
42
1.38753675533529
0
ELLIPSE
5
1D4
100
AcDbEntity
8
1
62
256
6
ByLayer
370
13
48
1
60
0
100
AcDbEllipse
10
216.145522
20
17.291003
30
0
11
0.00785039343644132
21
-0.149794430213186
31
0
210
0
220
0
230
1
40
0.092371
41
1.5707963267949
42
3.14159265358774
0
ELLIPSE
5
1D5
100
AcDbEntity
8
1
62
256
6
ByLayer
370
13
48
1
60
0
100
AcDbEllipse
10
221.757374
20
18.719938
30
0
11
0.0152182918358179
21
-0.290382306672989
31
0
210
0
220
0
230
1
40
0.995725
41
-2.96705972839049
42
-1.8938271455802
0
ELLIPSE
5
1D6
100
AcDbEntity
8
1
62
256
6
ByLayer
370
13
48
1
60
0
100
AcDbEllipse
10
211.365639
20
17.196512
30
0
11
-0.0427993177794068
21
-0.158580925162655
31
0
210
0
220
0
230
1
40
0.080206
41
-3.11537766647404
42
-1.5445813397363
0
ELLIPSE
5
1D7
100
AcDbEntity
8
1
62
256
6
ByLayer
370
13
48
1
60
0
100
AcDbEllipse
10
211.009108
20
12.134973
30
0
11
-0.148731686424787
21
0.0194649801756622
31
0
210
0
220
0
230
1
40
0.016833
41
-1.66175841710607
42
-0.0909620903112785
0
ELLIPSE
5
1D8
100
AcDbEntity
8
1
62
256
6
ByLayer
370
13
48
1
60
0
100
AcDbEllipse
10
209.648959
20
17.624849
30
0
11
-0.0435800209621455
21
-0.258371691315524
31
0
210
0
220
0
230
1
40
0.950251
41
-2.83208175228288
42
-1.94230770010973
0
ELLIPSE
5
1D9
100
AcDbEntity
8
1
62
256
6
ByLayer
370
13
48
1
60
0
100
AcDbEllipse
10
220.134997
20
19.172374
30
0
11
-0.0732703387401192
21
1.39808134865641
31
0
210
0
220
0
230
1
40
0.995725
41
3.14159265358965
42
-1.8938271455806
0
ELLIPSE
5
1DA
100
AcDbEntity
8
1
62
256
6
ByLayer
370
13
48
1
60
0
100
AcDbEllipse
10
221.242946
20
18.022144
30
0
11
0.00523359562429436
21
-0.0998629534754602
31
0
210
0
220
0
230
1
40
0.995725
41
-2.42515449132397
42
-1.46607657167532
0
ELLIPSE
5
1DB
100
AcDbEntity
8
1
62
256
6
ByLayer
370
13
48
1
60
0
100
AcDbEllipse
10
221.134212
20
7.878427
30
0
11
0.0291301903379283
21
0.147144255786205
31
0
210
0
220
0
230
1
40
0.089572
41
-3.11893454757106
42
-1.54813822074548
0
ELLIPSE
5
1DC
100
AcDbEntity
8
1
62
256
6
ByLayer
370
13
48
1
60
0
100
AcDbEllipse
10
222.315227
20
18.224717
30
0
11
0.0366351693700593
21
-0.699040674328197
31
0
210
0
220
0
230
1
40
0.995725
41
1.67551608191456
42
3.0670087244118
0
ELLIPSE
5
1DD
100
AcDbEntity
8
1
62
256
6
ByLayer
370
13
48
1
60
0
100
AcDbEllipse
10
222.073212
20
13.054651
30
0
11
0.148163665863163
21
0.0233993187505335
31
0
210
0
220
0
230
1
40
0.009655
41
1.66279490126875
42
2.86108759533226
0
ELLIPSE
5
1DE
100
AcDbEntity
8
1
62
256
6
ByLayer
370
13
48
1
60
0
100
AcDbEllipse
10
211.036618
20
6.265238
30
0
11
0.0152182918358179
21
-0.290382306672989
31
0
210
0
220
0
230
1
40
0.995725
41
0.1745329251997
42
1.2477655080099
0
ELLIPSE
5
1DF
100
AcDbEntity
8
1
62
256
6
ByLayer
370
13
48
1
60
0
100
AcDbEllipse
10
222.301391
20
18.223992
30
0
11
-0.0287847759336178
21
0.54924624411501
31
0
210
0
220
0
230
1
40
0.995725
41
-1.46607657167527
42
-0.0745839291780655
0
ELLIPSE
5
1E0
100
AcDbEntity
8
1
62
256
6
ByLayer
370
13
48
1
60
0
100
AcDbEllipse
10
210.791773
20
7.958864
30
0
11
-0.0915879234251488
21
1.7476016858205
31
0
210
0
220
0
230
1
40
0.995725
41
3.11145682764819
42
3.13286600732982
0
ELLIPSE
5
1E1
100
AcDbEntity
8
1
62
256
6
ByLayer
370
13
48
1
60
0
100
AcDbEllipse
10
221.241898
20
12.922113
30
0
11
0.0366351693700595
21
-0.699040674328202
31
0
210
0
220
0
230
1
40
0.995725
41
1.38753675533552
42
1.6755160819146
0
ELLIPSE
5
1E2
100
AcDbEntity
8
1
62
256
6
ByLayer
370
13
48
1
60
0
100
AcDbEllipse
10
210.711556
20
11.930041
30
0
11
-0.14816366586316
21
-0.0233993187505488
31
0
210
0
220
0
230
1
40
0.009655
41
-3.04959407911497
42
-1.47879775232179
0
ELLIPSE
5
1E3
100
AcDbEntity
8
1
62
256
6
ByLayer
370
13
48
1
60
0
100
AcDbEllipse
10
221.782791
20
13.008029
30
0
11
0.148163665863163
21
0.0233993187505335
31
0
210
0
220
0
230
1
40
0.009655
41
-1.47879775232066
42
-0.000215754722359345
0
ELLIPSE
5
1E4
100
AcDbEntity
8
1
62
256
6
ByLayer
370
13
48
1
60
0
100
AcDbEllipse
10
221.76622
20
18.717471
30
0
11
0.0104671912485885
21
-0.199725906950916
31
0
210
0
220
0
230
1
40
0.995725
41
3.13286600732938
42
-1.89382714558058
0
ELLIPSE
5
1E5
100
AcDbEntity
8
1
62
256
6
ByLayer
370
13
48
1
60
0
100
AcDbEllipse
10
220.134997
20
19.172374
30
0
11
-0.0785039343644136
21
1.49794430213187
31
0
210
0
220
0
230
1
40
0.995725
41
-2.42515449132411
42
-1.89382714558063
0
ELLIPSE
5
1E6
100
AcDbEntity
8
1
62
256
6
ByLayer
370
13
48
1
60
0
100
AcDbEllipse
10
211.365639
20
17.196512
30
0
11
-0.157381426408072
21
-0.0466723701632522
31
0
210
0
220
0
230
1
40
0.019797
41
-3.05943361682808
42
-1.48863729007504
0
ELLIPSE
5
1E7
100
AcDbEntity
8
1
62
256
6
ByLayer
370
13
48
1
60
0
100
AcDbEllipse
10
216.334355
20
12.489305
30
0
11
0.132450797150177
21
-2.52731176482117
31
0
210
0
220
0
230
1
40
0.995725
41
0
42
6.28318530717959
0
ELLIPSE
5
1E8
100
AcDbEntity
8
1
62
256
6
ByLayer
370
13
48
1
60
0
100
AcDbEllipse
10
221.759425
20
18.767181
30
0
11
-0.00653729335064158
21
0.149857478277354
31
0
210
0
220
0
230
1
40
0.092367
41
0.000809536047835613
42
1.57160586284002
0
ELLIPSE
5
1E9
100
AcDbEntity
8
1
62
256
6
ByLayer
370
13
48
1
60
0
100
AcDbEllipse
10
222.076445
20
12.810737
30
0
11
0.148731686424787
21
-0.0194649801756591
31
0
210
0
220
0
230
1
40
0.016833
41
-2.86301658541922
42
-1.6617584171057
0
ELLIPSE
5
1EA
100
AcDbEntity
8
1
62
256
6
ByLayer
370
13
48
1
60
0
100
AcDbEllipse
10
211.011201
20
11.977146
30
0
11
-0.14816366586316
21
-0.0233993187505488
31
0
210
0
220
0
230
1
40
0.009655
41
0.0919985744748214
42
1.66279490126838
0
ELLIPSE
5
1EB
100
AcDbEntity
8
1
62
256
6
ByLayer
370
13
48
1
60
0
100
AcDbEllipse
10
221.940044
20
18.774659
30
0
11
-0.00331394097836111
21
0.149963388182556
31
0
210
0
220
0
230
1
40
0.092329
41
0.00279518563861637
42
1.57359151243404
0
ELLIPSE
5
1EC
100
AcDbEntity
8
1
62
256
6
ByLayer
370
13
48
1
60
0
100
AcDbEllipse
10
220.079182
20
19.169449
30
0
11
-1.24768607641213
21
-1.08630162053003
31
0
210
0
220
0
230
1
40
0.736455
41
1.214115283717
42
2.0028344258053
0
ELLIPSE
5
1ED
100
AcDbEntity
8
1
62
256
6
ByLayer
370
13
48
1
60
0
100
AcDbEllipse
10
221.031442
20
17.765545
30
0
11
0.00785039343644132
21
-0.149794430213186
31
0
210
0
220
0
230
1
40
0.995725
41
-3.14159196048102
42
-2.62476921230574
0
ELLIPSE
5
1EE
100
AcDbEntity
8
1
62
256
6
ByLayer
370
13
48
1
60
0
100
AcDbEllipse
10
209.928647
20
6.674058
30
0
11
-0.14816366586316
21
-0.0233993187505488
31
0
210
0
220
0
230
1
40
0.009655
41
-1.47879775232091
42
-0.264793552088792
0
ELLIPSE
5
1EF
100
AcDbEntity
8
1
62
256
6
ByLayer
370
13
48
1
60
0
100
AcDbEllipse
10
223.066242
20
8.060192
30
0
11
-0.0435800209669899
21
-0.258371691314159
31
0
210
0
220
0
230
1
40
0.950251
41
0.309510901324389
42
1.60969514902737
0
ELLIPSE
5
1F0
100
AcDbEntity
8
1
62
256
6
ByLayer
370
13
48
1
60
0
100
AcDbEllipse
10
223.060216
20
8.048854
30
0
11
-0.0235312926468445
21
0.148142763125198
31
0
210
0
220
0
230
1
40
0.091865
41
1.56109981837044
42
3.13189614514058
0
ELLIPSE
5
1F1
100
AcDbEntity
8
1
62
256
6
ByLayer
370
13
48
1
60
0
100
AcDbEllipse
10
210.160577
20
18.112176
30
0
11
-0.281308970008505
21
0.197301576237217
31
0
210
0
220
0
230
1
40
0.736454
41
-2.00283270753038
42
-1.95660970887722
0
ELLIPSE
5
1F2
100
AcDbEntity
8
1
62
256
6
ByLayer
370
13
48
1
60
0
100
AcDbEllipse
10
221.713631
20
18.730608
30
0
11
0.144590276080073
21
-0.0399205719283712
31
0
210
0
220
0
230
1
40
0.029322
41
3.0538494642784
42
-1.65853951610911
0
ELLIPSE
5
1F3
100
AcDbEntity
8
1
62
256
6
ByLayer
370
13
48
1
60
0
100
AcDbEllipse
10
211.76255
20
7.21963
30
0
11
0.00785039343644132
21
-0.149794430213186
31
0
210
0
220
0
230
1
40
0.995725
41
-1.46607657167513
42
-2.19467187223266E-06
0
ELLIPSE
5
1F4
100
AcDbEntity
8
1
62
256
6
ByLayer
370
13
48
1
60
0
100
AcDbEllipse
10
209.622132
20
12.037395
30
0
11
-0.0287847759336181
21
0.549246244115015
31
0
210
0
220
0
230
1
40
0.995725
41
1.38753675533537
42
1.67551608191452
0
ELLIPSE
5
1F5
100
AcDbEntity
8
1
62
256
6
ByLayer
370
13
48
1
60
0
100
AcDbEllipse
10
221.36569
20
7.728577
30
0
11
0.00523359562429506
21
-0.0998629534754734
31
0
210
0
220
0
230
1
40
0.995725
41
-1.754055898254
42
0.104719755119081
0
ELLIPSE
5
1F6
100
AcDbEntity
8
1
62
256
6
ByLayer
370
13
48
1
60
0
100
AcDbEllipse
10
221.255734
20
12.922838
30
0
11
-0.0287847759336182
21
0.549246244115016
31
0
210
0
220
0
230
1
40
0.995725
41
-1.75405589825421
42
-1.46607657167522
0
ELLIPSE
5
1F7
100
AcDbEntity
8
1
62
256
6
ByLayer
370
13
48
1
60
0
100
AcDbEllipse
10
209.095075
20
11.952204
30
0
11
-0.14816366586316
21
-0.0233993187505488
31
0
210
0
220
0
230
1
40
0.009655
41
-1.47879775232123
42
0.0919985744699011
0
ELLIPSE
5
1F8
100
AcDbEntity
8
1
62
256
6
ByLayer
370
13
48
1
60
0
100
AcDbEllipse
10
210.474152
20
6.760217
30
0
11
0.0366351693700593
21
-0.699040674328197
31
0
210
0
220
0
230
1
40
0.995725
41
-1.46607657167516
42
-0.0745839291779086
0
ELLIPSE
5
1F9
100
AcDbEntity
8
1
62
256
6
ByLayer
370
13
48
1
60
0
100
AcDbEllipse
10
211.551046
20
6.963032
30
0
11
0.00523359562429436
21
-0.0998629534754602
31
0
210
0
220
0
230
1
40
0.995725
41
0.716438162266214
42
1.67551608191476
0
ELLIPSE
5
1FA
100
AcDbEntity
8
1
62
256
6
ByLayer
370
13
48
1
60
0
100
AcDbEllipse
10
211.533645
20
12.062096
30
0
11
0.0444855628065009
21
-0.848835104541388
31
0
210
0
220
0
230
1
40
0.995725
41
-1.75405589825428
42
-1.46607657167522
0
ELLIPSE
5
1FB
100
AcDbEntity
8
1
62
256
6
ByLayer
370
13
48
1
60
0
100
AcDbEllipse
10
211.071136
20
6.254084
30
0
11
-0.144590276080072
21
0.0399205719283735
31
0
210
0
220
0
230
1
40
0.029322
41
1.48305313748068
42
3.05384946427699
0
ELLIPSE
5
1FC
100
AcDbEntity
8
1
62
256
6
ByLayer
370
13
48
1
60
0
100
AcDbEllipse
10
221.979158
20
17.025103
30
0
11
0.0994383168615901
21
-1.89739611603369
31
0
210
0
220
0
230
1
40
0.995725
41
3.11145682764821
42
3.13286600732985
0
ELLIPSE
5
1FD
100
AcDbEntity
8
1
62
256
6
ByLayer
370
13
48
1
60
0
100
AcDbEllipse
10
222.319839
20
18.224959
30
0
11
0.0366351693700593
21
-0.699040674328197
31
0
210
0
220
0
230
1
40
0.995725
41
1.67551608191443
42
3.06700872441168
0
ELLIPSE
5
1FE
100
AcDbEntity
8
1
62
256
6
ByLayer
370
13
48
1
60
0
100
AcDbEllipse
10
223.060216
20
8.048854
30
0
11
0.148731686424787
21
-0.0194649801756591
31
0
210
0
220
0
230
1
40
0.016833
41
-1.66175841709827
42
-0.0909620903112785
0
ELLIPSE
5
1FF
100
AcDbEntity
8
1
62
256
6
ByLayer
370
13
48
1
60
0
100
AcDbEllipse
10
221.134212
20
7.878427
30
0
11
0.00785039343644132
21
-0.149794430213186
31
0
210
0
220
0
230
1
40
0.995725
41
-0.246786176441121
42
2.11287843757622E-05
0
ELLIPSE
5
200
100
AcDbEntity
8
1
62
256
6
ByLayer
370
13
48
1
60
0
100
AcDbEllipse
10
212.658995
20
5.812801
30
0
11
-0.0732703387401192
21
1.39808134865641
31
0
210
0
220
0
230
1
40
0.995725
41
0
42
1.24776550800941
0
ELLIPSE
5
201
100
AcDbEntity
8
1
62
256
6
ByLayer
370
13
48
1
60
0
100
AcDbEllipse
10
222.720711
20
7.338088
30
0
11
-0.0435800209921276
21
-0.258371691306625
31
0
210
0
220
0
230
1
40
0.950251
41
0.309510901417983
42
1.27776263798972
0
ELLIPSE
5
202
100
AcDbEntity
8
1
62
256
6
ByLayer
370
13
48
1
60
0
100
AcDbEllipse
10
211.547482
20
12.062821
30
0
11
-0.0366351693700595
21
0.699040674328202
31
0
210
0
220
0
230
1
40
0.995725
41
1.38753675533552
42
1.6755160819146
0
ELLIPSE
5
203
100
AcDbEntity
8
1
62
256
6
ByLayer
370
13
48
1
60
0
100
AcDbEllipse
10
210.882009
20
6.211258
30
0
11
0.00653729335064122
21
-0.149857478277354
31
0
210
0
220
0
230
1
40
0.092367
41
-1.56998679074977
42
0.000809536043604682
0
ELLIPSE
5
204
100
AcDbEntity
8
1
62
256
6
ByLayer
370
13
48
1
60
0
100
AcDbEllipse
10
209.092983
20
12.11003
30
0
11
-0.148731686424787
21
0.0194649801756622
31
0
210
0
220
0
230
1
40
0.016833
41
-0.0909620903105779
42
1.47983423648428
0
ELLIPSE
5
205
100
AcDbEntity
8
1
62
256
6
ByLayer
370
13
48
1
60
0
100
AcDbEllipse
10
221.965321
20
17.024378
30
0
11
-0.0915879234251488
21
1.7476016858205
31
0
210
0
220
0
230
1
40
0.995725
41
-0.0301358259416047
42
-0.00872664625995498
0
ELLIPSE
5
206
100
AcDbEntity
8
1
62
256
6
ByLayer
370
13
48
1
60
0
100
AcDbEllipse
10
220.44424
20
6.220809
30
0
11
-1.09994055601266
21
-1.17548008837765
31
0
210
0
220
0
230
1
40
0.728398
41
2.6426359321896
42
-2.95274918124987
0
ELLIPSE
5
207
100
AcDbEntity
8
1
62
256
6
ByLayer
370
13
48
1
60
0
100
AcDbEllipse
10
211.009323
20
6.266738
30
0
11
-0.00261679781214715
21
0.0499314767377296
31
0
210
0
220
0
230
1
40
0.995725
41
3.13286600732938
42
-1.89382714558042
0
ELLIPSE
5
208
100
AcDbEntity
8
1
62
256
6
ByLayer
370
13
48
1
60
0
100
AcDbEllipse
10
211.552094
20
12.063063
30
0
11
0.0366351693700595
21
-0.699040674328202
31
0
210
0
220
0
230
1
40
0.995725
41
-1.75405589825423
42
-1.4660765716752
0
ELLIPSE
5
209
100
AcDbEntity
8
1
62
256
6
ByLayer
370
13
48
1
60
0
100
AcDbEllipse
10
209.72775
20
16.924984
30
0
11
-0.0435800209984537
21
-0.258371691304755
31
0
210
0
220
0
230
1
40
0.950251
41
-2.8320817521477
42
-1.53189750442906
0
ELLIPSE
5
20A
100
AcDbEntity
8
1
62
256
6
ByLayer
370
13
48
1
60
0
100
AcDbEllipse
10
218.887204
20
7.040443
30
0
11
-0.318392619989989
21
-0.395166681149305
31
0
210
0
220
0
230
1
40
0.966608
41
-2.15731460789994
42
-2.04054329218053
0
ELLIPSE
5
20B
100
AcDbEntity
8
1
62
256
6
ByLayer
370
13
48
1
60
0
100
AcDbEllipse
10
210.371057
20
15.546062
30
0
11
-0.471023606186479
21
8.98766581279117
31
0
210
0
220
0
230
1
40
0.995725
41
2.79252680319577
42
2.9229054585814
0
ELLIPSE
5
20C
100
AcDbEntity
8
1
62
256
6
ByLayer
370
13
48
1
60
0
100
AcDbEllipse
10
208.896804
20
8.669377
30
0
11
0.429288093870887
21
-0.256342997682209
31
0
210
0
220
0
230
1
40
0.051595
41
-1.85925558562609
42
-1.64759180831579
0
ELLIPSE
5
20D
100
AcDbEntity
8
1
62
256
6
ByLayer
370
13
48
1
60
0
100
AcDbEllipse
10
209.21712
20
6.533656
30
0
11
-3.96879667368668
21
-0.704906652544818
31
0
210
0
220
0
230
1
40
0.015321
41
-3.01817314093249
42
-2.74816671095445
0
ELLIPSE
5
20E
100
AcDbEntity
8
1
62
256
6
ByLayer
370
13
48
1
60
0
100
AcDbEllipse
10
208.453274
20
9.205464
30
0
11
-0.026167978121471
21
0.499314767377286
31
0
210
0
220
0
230
1
40
0.995725
41
-2.1634499345269
42
-1.46607657167538
0
ELLIPSE
5
20F
100
AcDbEntity
8
1
62
256
6
ByLayer
370
13
48
1
60
0
100
AcDbEllipse
10
210.741842
20
11.949332
30
0
11
0.115139103734473
21
-2.19698497646006
31
0
210
0
220
0
230
1
40
0.995725
41
-2.11476638941933
42
-1.46607657167527
0
ELLIPSE
5
210
100
AcDbEntity
8
1
62
256
6
ByLayer
370
13
48
1
60
0
100
AcDbEllipse
10
212.180982
20
6.486168
30
0
11
0.999824179053865
21
0.0187512926976457
31
0
210
0
220
0
230
1
40
0.340558
41
1.66919827215432
42
1.68893406295547
0
ELLIPSE
5
211
100
AcDbEntity
8
1
62
256
6
ByLayer
370
13
48
1
60
0
100
AcDbEllipse
10
217.051683
20
-3.770436
30
0
11
-7.87428590561744
21
6.99140606259065
31
0
210
0
220
0
230
1
40
0.897987
41
-0.738627549747967
42
-0.701020135552001
0
ELLIPSE
5
212
100
AcDbEntity
8
1
62
256
6
ByLayer
370
13
48
1
60
0
100
AcDbEllipse
10
201.5
20
4.766548
30
0
11
-3.86667971978033
21
1.33630196423592
31
0
210
0
220
0
230
1
40
0.766371
41
1.42034373606511
42
1.50544848186306
0
ELLIPSE
5
213
100
AcDbEntity
8
1
62
256
6
ByLayer
370
13
48
1
60
0
100
AcDbEllipse
10
222.596445
20
8.837032
30
0
11
-0.0677638336546378
21
2.19932404525657
31
0
210
0
220
0
230
1
40
0.529866
41
3.00669474194222
42
-3.13016831832004
0
ELLIPSE
5
214
100
AcDbEntity
8
1
62
256
6
ByLayer
370
13
48
1
60
0
100
AcDbEllipse
10
214.67352
20
7.120025
30
0
11
0.0523359562429422
21
-0.998629534754574
31
0
210
0
220
0
230
1
40
0.092371
41
-1.5707963267949
42
0
0
ELLIPSE
5
215
100
AcDbEntity
8
1
62
256
6
ByLayer
370
13
48
1
60
0
100
AcDbEllipse
10
201.5
20
5.310141
30
0
11
-2
21
2.02127811016473E-15
31
0
210
0
220
0
230
1
40
0.758099
41
-2.85971504872798
42
-1.69485783020757
0
ELLIPSE
5
216
100
AcDbEntity
8
1
62
256
6
ByLayer
370
13
48
1
60
0
100
AcDbEllipse
10
207.845097
20
6.944842
30
0
11
-0.29369042064903
21
-0.95590058940195
31
0
210
0
220
0
230
1
40
0.0868
41
-1.53907871771949
42
-1.39194541202419E-05
0
ELLIPSE
5
217
100
AcDbEntity
8
1
62
256
6
ByLayer
370
13
48
1
60
0
100
AcDbEllipse
10
221.984864
20
-11.256028
30
0
11
-0.296300123640981
21
-2.48460480049521
31
0
210
0
220
0
230
1
40
0.117923
41
0
42
6.28318530717959
0
ELLIPSE
5
218
100
AcDbEntity
8
1
62
256
6
ByLayer
370
13
48
1
60
0
100
AcDbEllipse
10
210.043137
20
7.778592
30
0
11
-1.94064156589455
21
1.56360892426421
31
0
210
0
220
0
230
1
40
0.775936
41
3.09899461944792
42
-2.86439260895096
0
ELLIPSE
5
219
100
AcDbEntity
8
1
62
256
6
ByLayer
370
13
48
1
60
0
100
AcDbEllipse
10
215.249216
20
-3.8649
30
0
11
-0.523359562429421
21
9.98629534754574
31
0
210
0
220
0
230
1
40
0.995725
41
0
42
0.190111626873128
0
ELLIPSE
5
21A
100
AcDbEntity
8
1
62
256
6
ByLayer
370
13
48
1
60
0
100
AcDbEllipse
10
215.083845
20
6.841118
30
0
11
-3.96879667386772
21
-0.704906652578538
31
0
210
0
220
0
230
1
40
0.015321
41
-3.01817314104599
42
-2.74816671096376
0
ELLIPSE
5
21B
100
AcDbEntity
8
1
62
256
6
ByLayer
370
13
48
1
60
0
100
AcDbEllipse
10
222.899378
20
6.234914
30
0
11
-0.00942817097617854
21
0.500188960174469
31
0
210
0
220
0
230
1
40
0.10502
41
1.92338301122479
42
-2.78900596915452
0
ELLIPSE
5
21C
100
AcDbEntity
8
1
62
256
6
ByLayer
370
13
48
1
60
0
100
AcDbEllipse
10
201.5
20
2.173218
30
0
11
-0.394930737242171
21
11.2590965315935
31
0
210
0
220
0
230
1
40
0.353532
41
-0.537254114162806
42
-0.402572937435024
0
ELLIPSE
5
21D
100
AcDbEntity
8
1
62
256
6
ByLayer
370
13
48
1
60
0
100
AcDbEllipse
10
210.759118
20
7.816115
30
0
11
0.115139103734473
21
-2.19698497646006
31
0
210
0
220
0
230
1
40
0.995725
41
-2.1634499345269
42
-1.07532345372506
0
ELLIPSE
5
21E
100
AcDbEntity
8
1
62
256
6
ByLayer
370
13
48
1
60
0
100
AcDbEllipse
10
222.905426
20
0.024487
30
0
11
-0.0211583418219863
21
1.01118552178195
31
0
210
0
220
0
230
1
40
0.102312
41
-0.118184454943209
42
1.06605414355848
0
ELLIPSE
5
21F
100
AcDbEntity
8
1
62
256
6
ByLayer
370
13
48
1
60
0
100
AcDbEllipse
10
217.162889
20
-5.338348
30
0
11
-6.03298962897878
21
-0.0266367656642915
31
0
210
0
220
0
230
1
40
0.989202
41
3.00703273989033
42
-2.98972922293303
0
ELLIPSE
5
220
100
AcDbEntity
8
1
62
256
6
ByLayer
370
13
48
1
60
0
100
AcDbEllipse
10
210.30251
20
7.792185
30
0
11
-0.0889711256130014
21
1.69767020908278
31
0
210
0
220
0
230
1
40
0.995725
41
0.978142719062891
42
2.78013392635898
0
ELLIPSE
5
221
100
AcDbEntity
8
1
62
256
6
ByLayer
370
13
48
1
60
0
100
AcDbEllipse
10
210.30251
20
7.792185
30
0
11
-0.0889711256130014
21
1.69767020908278
31
0
210
0
220
0
230
1
40
0.995725
41
-2.41025799285348
42
-2.22913047554107
0
ELLIPSE
5
222
100
AcDbEntity
8
1
62
256
6
ByLayer
370
13
48
1
60
0
100
AcDbEllipse
10
222.741797
20
0
30
0
11
-3.14328242418747
21
18.523033677077
31
0
210
0
220
0
230
1
40
0.085868
41
1.59696266816714
42
1.71606933765332
0
ELLIPSE
5
223
100
AcDbEntity
8
1
62
256
6
ByLayer
370
13
48
1
60
0
100
AcDbEllipse
10
222.801281
20
0.018028
30
0
11
-0.0105791709261569
21
0.50559276144921
31
0
210
0
220
0
230
1
40
0.102312
41
-0.118184454878338
42
0.265511398132565
0
ELLIPSE
5
224
100
AcDbEntity
8
1
62
256
6
ByLayer
370
13
48
1
60
0
100
AcDbEllipse
10
213.02048
20
6.732981
30
0
11
-0.318392676554998
21
-0.395166625681985
31
0
210
0
220
0
230
1
40
0.966608
41
-2.15731445313713
42
-1.31761740178881
0
ELLIPSE
5
225
100
AcDbEntity
8
1
62
256
6
ByLayer
370
13
48
1
60
0
100
AcDbEllipse
10
233.507287
20
3.6E-05
30
0
11
-199.969643007408
21
0.0907128047579769
31
0
210
0
220
0
230
1
40
0.092638
41
-1.45004955357114
42
-1.43988764572073
0
ELLIPSE
5
226
100
AcDbEntity
8
1
62
256
6
ByLayer
370
13
48
1
60
0
100
AcDbEllipse
10
224.383462
20
0
30
0
11
-2.25566598635497
21
-18.523141921569
31
0
210
0
220
0
230
1
40
0.116316
41
-1.29964975005434
42
-0.0850017593581732
0
ELLIPSE
5
227
100
AcDbEntity
8
1
62
256
6
ByLayer
370
13
48
1
60
0
100
AcDbEllipse
10
209.586792
20
15.168122
30
0
11
-0.143594274777359
21
2.73994198461375
31
0
210
0
220
0
230
1
40
0.016833
41
0.320049800270907
42
0.8600953633541
0
ELLIPSE
5
228
100
AcDbEntity
8
1
62
256
6
ByLayer
370
13
48
1
60
0
100
AcDbEllipse
10
228.444582
20
0.52309
30
0
11
-6.03298966215423
21
-0.0266368918714663
31
0
210
0
220
0
230
1
40
0.989202
41
0.0317825318147564
42
0.151863409562299
0
ELLIPSE
5
229
100
AcDbEntity
8
1
62
256
6
ByLayer
370
13
48
1
60
0
100
AcDbEllipse
10
210.193999
20
0
30
0
11
-0.979269621189157
21
18.5247778624059
31
0
210
0
220
0
230
1
40
0.092638
41
-0.120746901937199
42
-0.0048986457440891
0
ELLIPSE
5
22A
100
AcDbEntity
8
1
62
256
6
ByLayer
370
13
48
1
60
0
100
AcDbEllipse
10
222.43947
20
7.527021
30
0
11
-0.0188563419531954
21
1.00037792035265
31
0
210
0
220
0
230
1
40
0.10502
41
-3.13807181955395
42
-2.63579925211526
0
ELLIPSE
5
22B
100
AcDbEntity
8
1
62
256
6
ByLayer
370
13
48
1
60
0
100
AcDbEllipse
10
212.067586
20
7.293205
30
0
11
0.0261679781214711
21
-0.499314767377287
31
0
210
0
220
0
230
1
40
0.092371
41
-1.10449593319151
42
-0.349065850397824
0
ELLIPSE
5
22C
100
AcDbEntity
8
1
62
256
6
ByLayer
370
13
48
1
60
0
100
AcDbEllipse
10
213.226957
20
6.743802
30
0
11
-0.0261679781214711
21
0.499314767377288
31
0
210
0
220
0
230
1
40
0.995725
41
0.927295218001582
42
1.11024233511356
0
ELLIPSE
5
22D
100
AcDbEntity
8
1
62
256
6
ByLayer
370
13
48
1
60
0
100
AcDbEllipse
10
217.826247
20
9.488272
30
0
11
-1.40092777706217
21
-1.73873315276949
31
0
210
0
220
0
230
1
40
0.966608
41
0.713732916834763
42
1.10104951772497
0
ELLIPSE
5
22E
100
AcDbEntity
8
1
62
256
6
ByLayer
370
13
48
1
60
0
100
AcDbEllipse
10
210.348632
20
7.794602
30
0
11
0.115139103734473
21
-2.19698497646006
31
0
210
0
220
0
230
1
40
0.995725
41
0.0487088772621735
42
0.990932961428744
0
ELLIPSE
5
22F
100
AcDbEntity
8
1
62
256
6
ByLayer
370
13
48
1
60
0
100
AcDbEllipse
10
210.759118
20
7.816115
30
0
11
0.115139103734473
21
-2.19698497646006
31
0
210
0
220
0
230
1
40
0.995725
41
1.06813311206815
42
1.11024233511357
0
ELLIPSE
5
230
100
AcDbEntity
8
1
62
256
6
ByLayer
370
13
48
1
60
0
100
AcDbEllipse
10
513.08835
20
-0.125859
30
0
11
-408.948095034292
21
0.184859705547643
31
0
210
0
220
0
230
1
40
0.067607
41
-0.72652280287227
42
-0.715410008352876
0
ELLIPSE
5
231
100
AcDbEntity
8
1
62
256
6
ByLayer
370
13
48
1
60
0
100
AcDbEllipse
10
217.064043
20
-5.04792
30
0
11
1.75
21
0
31
0
210
0
220
0
230
1
40
0.99465
41
2.50070782696643
42
2.79886451166381
0
ELLIPSE
5
232
100
AcDbEntity
8
1
62
256
6
ByLayer
370
13
48
1
60
0
100
AcDbEllipse
10
210.4633
20
15.550896
30
0
11
0.523359562429422
21
-9.98629534754574
31
0
210
0
220
0
230
1
40
0.995725
41
0.019461979484479
42
0.190111626873128
0
ELLIPSE
5
233
100
AcDbEntity
8
1
62
256
6
ByLayer
370
13
48
1
60
0
100
AcDbEllipse
10
222.569942
20
-10.904491
30
0
11
-0.0641622186371002
21
-0.516008250087735
31
0
210
0
220
0
230
1
40
0.112834
41
-1.64058506207524
42
-0.0697887352828115
0
ELLIPSE
5
234
100
AcDbEntity
8
1
62
256
6
ByLayer
370
13
48
1
60
0
100
AcDbEllipse
10
179.845307
20
0
30
0
11
-199.969841663601
21
0.0907174363256445
31
0
210
0
220
0
230
1
40
0.092638
41
-1.77654667329307
42
-1.72357480547076
0
ELLIPSE
5
235
100
AcDbEntity
8
1
62
256
6
ByLayer
370
13
48
1
60
0
100
AcDbEllipse
10
217.064043
20
-4.459115
30
0
11
-1.85
21
1.86968225190237E-15
31
0
210
0
220
0
230
1
40
0.99465
41
-2.91274699641955
42
-0.226292787773219
0
ELLIPSE
5
236
100
AcDbEntity
8
1
62
256
6
ByLayer
370
13
48
1
60
0
100
AcDbEllipse
10
210.592929
20
7.807405
30
0
11
-1.40092778927783
21
-1.73873314695851
31
0
210
0
220
0
230
1
40
0.966608
41
1.61034582365242
42
1.82397525770171
0
ELLIPSE
5
237
100
AcDbEntity
8
1
62
256
6
ByLayer
370
13
48
1
60
0
100
AcDbEllipse
10
779.688057
20
0
30
0
11
-903.449986369275
21
14.0860571256818
31
0
210
0
220
0
230
1
40
0.013317
41
0.885021560193758
42
0.904636127014443
0
ELLIPSE
5
238
100
AcDbEntity
8
1
62
256
6
ByLayer
370
13
48
1
60
0
100
AcDbEllipse
10
207.996666
20
9.181534
30
0
11
0.0523359562429421
21
-0.998629534754573
31
0
210
0
220
0
230
1
40
0.995725
41
0.978142719062891
42
1.6755160819145
0
ELLIPSE
5
239
100
AcDbEntity
8
1
62
256
6
ByLayer
370
13
48
1
60
0
100
AcDbEllipse
10
215.156972
20
-3.869734
30
0
11
0.575695518672363
21
-10.9849248823003
31
0
210
0
220
0
230
1
40
0.995725
41
-3.14159265358978
42
-2.97089193967393
0
ELLIPSE
5
23A
100
AcDbEntity
8
1
62
256
6
ByLayer
370
13
48
1
60
0
100
AcDbEllipse
10
209.02623
20
9.340163
30
0
11
0.493878886210542
21
0.077997729168445
31
0
210
0
220
0
230
1
40
0.009655
41
1.66279490126863
42
1.74990113868087
0
ELLIPSE
5
23B
100
AcDbEntity
8
1
62
256
6
ByLayer
370
13
48
1
60
0
100
AcDbEllipse
10
233.507325
20
6E-06
30
0
11
-197.918833762119
21
0.0897859888811286
31
0
210
0
220
0
230
1
40
0.092638
41
-1.42321611102523
42
-1.39910867657765
0
ELLIPSE
5
23C
100
AcDbEntity
8
1
62
256
6
ByLayer
370
13
48
1
60
0
100
AcDbEllipse
10
225.232742
20
0
30
0
11
-37.3298273787125
21
15.6219604191877
31
0
210
0
220
0
230
1
40
0.25712
41
0.883970621646753
42
0.952920596267299
0
ELLIPSE
5
23D
100
AcDbEntity
8
1
62
256
6
ByLayer
370
13
48
1
60
0
100
AcDbEllipse
10
217.064043
20
-4.459115
30
0
11
1.75
21
0
31
0
210
0
220
0
230
1
40
0.99465
41
0.102690660836953
42
3.01956153980786
0
ELLIPSE
5
23E
100
AcDbEntity
8
1
62
256
6
ByLayer
370
13
48
1
60
0
100
AcDbEllipse
10
222.889983
20
-1.771452
30
0
11
-1.8772102116342
21
2.9761307816602
31
0
210
0
220
0
230
1
40
0.385469
41
-0.971086947787413
42
-0.826067280172329
0
ELLIPSE
5
23F
100
AcDbEntity
8
1
62
256
6
ByLayer
370
13
48
1
60
0
100
AcDbEllipse
10
227.195969
20
1.739468
30
0
11
-5.83244395207753
21
-2.01046207796576
31
0
210
0
220
0
230
1
40
0.855886
41
-0.377355513900573
42
-0.229803444365922
0
ELLIPSE
5
240
100
AcDbEntity
8
1
62
256
6
ByLayer
370
13
48
1
60
0
100
AcDbEllipse
10
212.616962
20
6.813788
30
0
11
0.240875810252365
21
-0.970555945855399
31
0
210
0
220
0
230
1
40
0.090706
41
-1.3610278257141
42
-0.0175282834727179
0
ELLIPSE
5
241
100
AcDbEntity
8
1
62
256
6
ByLayer
370
18
48
1
60
0
100
AcDbEllipse
10
216.281014
20
12.486509
30
0
11
0.0562297513874169
21
-1.07292757214031
31
0
210
0
220
0
230
1
40
0.995725
41
-0.771932135407404
42
2.6567138768425E-14
0
ELLIPSE
5
242
100
AcDbEntity
8
1
62
256
6
ByLayer
370
18
48
1
60
0
100
AcDbEllipse
10
216.405543
20
12.493036
30
0
11
0.0737779975156754
21
-1.40776805514352
31
0
210
0
220
0
230
1
40
0.995725
41
1.5707963267949
42
2.6179938779915
0
ELLIPSE
5
243
100
AcDbEntity
8
1
62
256
6
ByLayer
370
18
48
1
60
0
100
AcDbEllipse
10
216.281014
20
12.486509
30
0
11
0.0562297513874169
21
-1.07292757214031
31
0
210
0
220
0
230
1
40
0.995725
41
2.09439510239318
42
3.14159265358979
0
ELLIPSE
5
244
100
AcDbEntity
8
1
62
256
6
ByLayer
370
18
48
1
60
0
100
AcDbEllipse
10
216.322523
20
12.488685
30
0
11
-0.125606294983061
21
2.39671088341098
31
0
210
0
220
0
230
1
40
0.995725
41
9.24722979011893E-05
42
3.14158700123306
0
ELLIPSE
5
245
100
AcDbEntity
8
1
62
256
6
ByLayer
370
18
48
1
60
0
100
AcDbEllipse
10
215.607169
20
13.528361
30
0
11
-0.275141261392257
21
-0.1799161306717
31
0
210
0
220
0
230
1
40
0.509271
41
2.92822425255371
42
-2.46671532346118
0
ELLIPSE
5
246
100
AcDbEntity
8
1
62
256
6
ByLayer
370
18
48
1
60
0
100
AcDbEllipse
10
215.719764
20
11.379929
30
0
11
-0.292440365430043
21
0.150170438048096
31
0
210
0
220
0
230
1
40
0.509271
41
2.51949454501546
42
-2.92822425255342
0
ELLIPSE
5
247
100
AcDbEntity
8
1
62
256
6
ByLayer
370
18
48
1
60
0
100
AcDbEllipse
10
217.383051
20
11.922412
30
0
11
-0.148644886650474
21
-0.294008917974626
31
0
210
0
220
0
230
1
40
0.507093
41
-2.82704796387177
42
-1.57332920181304
0
ELLIPSE
5
248
100
AcDbEntity
8
1
62
256
6
ByLayer
370
18
48
1
60
0
100
AcDbEllipse
10
216.281014
20
12.486509
30
0
11
-0.056229751387417
21
1.07292757214031
31
0
210
0
220
0
230
1
40
0.995725
41
-3.03423855710068
42
-2.09439510239318
0
ELLIPSE
5
249
100
AcDbEntity
8
1
62
256
6
ByLayer
370
18
48
1
60
0
100
AcDbEllipse
10
216.281014
20
12.486509
30
0
11
0.0562297513874169
21
-1.07292757214031
31
0
210
0
220
0
230
1
40
0.995725
41
3.14159265358977
42
-2.3522019983218
0
ELLIPSE
5
24A
100
AcDbEntity
8
1
62
256
6
ByLayer
370
18
48
1
60
0
100
AcDbEllipse
10
216.405543
20
12.493036
30
0
11
0.0737779975156754
21
-1.40776805514352
31
0
210
0
220
0
230
1
40
0.995725
41
-1.5707963267949
42
-0.523598775598286
0
ELLIPSE
5
24B
100
AcDbEntity
8
1
62
256
6
ByLayer
370
18
48
1
60
0
100
AcDbEllipse
10
216.399281
20
12.492707
30
0
11
-0.125606294983061
21
2.39671088341098
31
0
210
0
220
0
230
1
40
0.995725
41
0
42
6.28318530717959
0
ELLIPSE
5
24C
100
AcDbEntity
8
1
62
256
6
ByLayer
370
18
48
1
60
0
100
AcDbEllipse
10
216.281014
20
12.486509
30
0
11
0.0562297513874169
21
-1.07292757214031
31
0
210
0
220
0
230
1
40
0.995725
41
1.04719755119661
42
2.09439510239318
0
ELLIPSE
5
24D
100
AcDbEntity
8
1
62
256
6
ByLayer
370
18
48
1
60
0
100
AcDbEllipse
10
217.516108
20
12.551238
30
0
11
-0.0172603983689144
21
0.329348020562051
31
0
210
0
220
0
230
1
40
0.506014
41
-2.93072041300198
42
-0.438969405993965
0
ELLIPSE
5
24E
100
AcDbEntity
8
1
62
256
6
ByLayer
370
18
48
1
60
0
100
AcDbEllipse
10
217.31805
20
13.16271
30
0
11
-0.178562894785495
21
0.276860684788899
31
0
210
0
220
0
230
1
40
0.507093
41
0.319610439799465
42
1.57332920185764
0
ELLIPSE
5
24F
100
AcDbEntity
8
1
62
256
6
ByLayer
370
18
48
1
60
0
100
AcDbEllipse
10
217.31805
20
13.16271
30
0
11
-0.178562894792115
21
0.276860684800299
31
0
210
0
220
0
230
1
40
0.507093
41
1.57332920186151
42
2.82704796388006
0
ELLIPSE
5
250
100
AcDbEntity
8
1
62
256
6
ByLayer
370
18
48
1
60
0
100
AcDbEllipse
10
216.405543
20
12.493036
30
0
11
0.0737779975156754
21
-1.40776805514352
31
0
210
0
220
0
230
1
40
0.995725
41
-0.523598775598286
42
0.523598775598311
0
ELLIPSE
5
251
100
AcDbEntity
8
1
62
256
6
ByLayer
370
18
48
1
60
0
100
AcDbEllipse
10
216.954858
20
11.444658
30
0
11
-0.275141261392252
21
-0.179916130671716
31
0
210
0
220
0
230
1
40
0.509271
41
0.674876380105859
42
-2.93332695348091
0
ELLIPSE
5
252
100
AcDbEntity
8
1
62
256
6
ByLayer
370
18
48
1
60
0
100
AcDbEllipse
10
216.842264
20
13.59309
30
0
11
-0.292440365430023
21
0.150170438048108
31
0
210
0
220
0
230
1
40
0.509271
41
2.93332695348104
42
-0.622097124196433
0
ELLIPSE
5
253
100
AcDbEntity
8
1
62
256
6
ByLayer
370
18
48
1
60
0
100
AcDbEllipse
10
216.405543
20
12.493036
30
0
11
0.0737779975156754
21
-1.40776805514352
31
0
210
0
220
0
230
1
40
0.995725
41
-2.61799387799147
42
-1.5707963267949
0
ELLIPSE
5
254
100
AcDbEntity
8
1
62
256
6
ByLayer
370
18
48
1
60
0
100
AcDbEllipse
10
216.405543
20
12.493036
30
0
11
0.0737779975156754
21
-1.40776805514352
31
0
210
0
220
0
230
1
40
0.995725
41
2.6179938779915
42
-2.61799387799147
0
ELLIPSE
5
255
100
AcDbEntity
8
1
62
256
6
ByLayer
370
18
48
1
60
0
100
AcDbEllipse
10
216.405543
20
12.493036
30
0
11
0.0737779975156754
21
-1.40776805514352
31
0
210
0
220
0
230
1
40
0.995725
41
0.523598775598312
42
1.5707963267949
0
ELLIPSE
5
256
100
AcDbEntity
8
1
62
256
6
ByLayer
370
18
48
1
60
0
100
AcDbEllipse
10
217.383051
20
11.922412
30
0
11
-0.148644886651909
21
-0.294008917982793
31
0
210
0
220
0
230
1
40
0.507093
41
-1.57332920182782
42
-0.319610439792513
0
ELLIPSE
5
257
100
AcDbEntity
8
1
62
256
6
ByLayer
370
18
48
1
60
0
100
AcDbEllipse
10
216.405543
20
12.493036
30
0
11
-0.0785039343644131
21
1.49794430213186
31
0
210
0
220
0
230
1
40
0.995725
41
0
42
6.28318530717959
0
ELLIPSE
5
258
100
AcDbEntity
8
1
62
256
6
ByLayer
370
18
48
1
60
0
100
AcDbEllipse
10
216.216012
20
13.726807
30
0
11
-0.327939958373261
21
-0.0171866049573857
31
0
210
0
220
0
230
1
40
0.510369
41
0.317077564754253
42
1.5707963267949
0
ELLIPSE
5
259
100
AcDbEntity
8
1
62
256
6
ByLayer
370
18
48
1
60
0
100
AcDbEllipse
10
216.281014
20
12.486509
30
0
11
0.0562297513874169
21
-1.07292757214031
31
0
210
0
220
0
230
1
40
0.995725
41
-1.89465892456941
42
-1.23067011332411
0
ELLIPSE
5
25A
100
AcDbEntity
8
1
62
256
6
ByLayer
370
18
48
1
60
0
100
AcDbEllipse
10
216.346015
20
11.246211
30
0
11
-0.327939958375114
21
-0.0171866049547777
31
0
210
0
220
0
230
1
40
0.510369
41
-1.5707963267949
42
-0.317077564753748
0
ELLIPSE
5
25B
100
AcDbEntity
8
1
62
256
6
ByLayer
370
18
48
1
60
0
100
AcDbEllipse
10
217.265781
20
-4.660704
30
0
11
-1.35
21
1.36436272436119E-15
31
0
210
0
220
0
230
1
40
0.99465
41
-3.10762410681184
42
0
0
ELLIPSE
5
25C
100
AcDbEntity
8
1
62
256
6
ByLayer
370
18
48
1
60
0
100
AcDbEllipse
10
217.265781
20
-4.660704
30
0
11
-1.35
21
1.36436272436119E-15
31
0
210
0
220
0
230
1
40
0.99465
41
0
42
0.389656012783344
0
ELLIPSE
5
25D
100
AcDbEntity
8
1
62
256
6
ByLayer
370
18
48
1
60
0
100
AcDbEllipse
10
217.265781
20
-4.702024
30
0
11
1.75
21
0
31
0
210
0
220
0
230
1
40
0.99465
41
0.423525947856216
42
-3.14159246528339
0
ELLIPSE
5
25E
100
AcDbEntity
8
1
62
256
6
ByLayer
370
18
48
1
60
0
100
AcDbEllipse
10
217.265781
20
-5.281261
30
0
11
-2
21
2.02127811016473E-15
31
0
210
0
220
0
230
1
40
0.99465
41
-0.580016401531691
42
-0.414984611981695
0
ELLIPSE
5
25F
100
AcDbEntity
8
1
62
256
6
ByLayer
370
18
48
1
60
0
100
AcDbEllipse
10
217.265781
20
-5.411825
30
0
11
-2
21
2.02127811016473E-15
31
0
210
0
220
0
230
1
40
0.99465
41
-0.531419943653278
42
-0.452683559082972
0
POINT
5
70
100
AcDbEntity
8
1
62
256
6
ByLayer
370
18
48
1
60
0
100
AcDbPoint
10
0
20
0
30
0
39
0
210
0
220
0
230
1
50
360
0
POINT
5
72
100
AcDbEntity
8
80
62
256
6
ByLayer
370
18
48
1
60
0
100
AcDbPoint
10
0
20
0
30
0
39
0
210
0
220
0
230
1
50
360
0
POINT
5
74
100
AcDbEntity
8
81
62
256
6
ByLayer
370
18
48
1
60
0
100
AcDbPoint
10
224
20
0
30
0
39
0
210
0
220
0
230
1
50
360
0
POINT
5
76
100
AcDbEntity
8
1
62
256
6
ByLayer
370
18
48
1
60
1
100
AcDbPoint
10
0
20
-24.75
30
0
39
0
210
0
220
0
230
1
50
360
0
POINT
5
77
100
AcDbEntity
8
1
62
256
6
ByLayer
370
18
48
1
60
1
100
AcDbPoint
10
224
20
-19
30
0
39
0
210
0
220
0
230
1
50
360
0
POINT
5
78
100
AcDbEntity
8
1
62
256
6
ByLayer
370
18
48
1
60
1
100
AcDbPoint
10
-70
20
-20
30
0
39
0
210
0
220
0
230
1
50
360
0
POINT
5
79
100
AcDbEntity
8
1
62
256
6
ByLayer
370
18
48
1
60
1
100
AcDbPoint
10
0
20
-24.75
30
0
39
0
210
0
220
0
230
1
50
360
0
POINT
5
7A
100
AcDbEntity
8
1
62
256
6
ByLayer
370
18
48
1
60
1
100
AcDbPoint
10
224
20
-19
30
0
39
0
210
0
220
0
230
1
50
360
0
POINT
5
7B
100
AcDbEntity
8
1
62
256
6
ByLayer
370
18
48
1
60
1
100
AcDbPoint
10
5.9552
20
-24.75
30
0
39
0
210
0
220
0
230
1
50
360
0
POINT
5
7C
100
AcDbEntity
8
1
62
256
6
ByLayer
370
18
48
1
60
1
100
AcDbPoint
10
30
20
-19
30
0
39
0
210
0
220
0
230
1
50
360
0
POINT
5
7D
100
AcDbEntity
8
1
62
256
6
ByLayer
370
18
48
1
60
1
100
AcDbPoint
10
224
20
-19
30
0
39
0
210
0
220
0
230
1
50
360
0
POINT
5
7E
100
AcDbEntity
8
1
62
256
6
ByLayer
370
18
48
1
60
1
100
AcDbPoint
10
222.9982
20
-9.5
30
0
39
0
210
0
220
0
230
1
50
360
0
SPLINE
5
260
100
AcDbEntity
8
SK1
62
256
6
ByLayer
370
13
48
1
60
0
100
AcDbSpline
70
4
71
3
72
8
73
4
40
0
40
0
40
0
40
0
40
1
40
1
40
1
40
1
41
1
10
-68.5162221138915
20
-8.8730422260673
30
0
41
1
10
-68.5438911763826
20
-8.94964473727831
30
0
41
1
10
-68.5718187810779
20
-9.02616843489534
30
0
41
1
10
-68.5999993841625
20
-9.10261500888609
30
0
0
SPLINE
5
261
100
AcDbEntity
8
SK1
62
256
6
ByLayer
370
13
48
1
60
0
100
AcDbSpline
70
4
71
3
72
8
73
4
40
0
40
0
40
0
40
0
40
1
40
1
40
1
40
1
41
1
10
-66.6000022063888
20
-9.10261500888609
30
0
41
1
10
-66.9491342178767
20
-8.83826366601562
30
0
41
1
10
-67.2940480150733
20
-8.56802589686919
30
0
41
1
10
-67.6338131992802
20
-8.29060335030417
30
0
0
SPLINE
5
262
100
AcDbEntity
8
SK1
62
256
6
ByLayer
370
13
48
1
60
0
100
AcDbSpline
70
4
71
3
72
24
73
20
40
0
40
0
40
0
40
0
40
0.125000000000002
40
0.125000000000002
40
0.187500000000003
40
0.187500000000003
40
0.250000000000003
40
0.250000000000003
40
0.312500000000004
40
0.312500000000004
40
0.375000000000005
40
0.375000000000005
40
0.500000000000005
40
0.500000000000005
40
0.625000000000004
40
0.625000000000004
40
0.750000000000004
40
0.750000000000004
40
1
40
1
40
1
40
1
41
1
10
-67.6338131992802
20
-8.29060335030417
30
0
41
1
10
-67.6747713759278
20
-8.25716048388816
30
0
41
1
10
-67.7199880974509
20
-8.22886033900863
30
0
41
1
10
-67.793880519716
20
-8.2008880294116
30
0
41
1
10
-67.8199292648204
20
-8.1939328764407
30
0
41
1
10
-67.8721249133958
20
-8.18635061520672
30
0
41
1
10
-67.8986618314253
20
-8.18559388534683
30
0
41
1
10
-67.9517518593081
20
-8.19047370174488
30
0
41
1
10
-67.9775498144819
20
-8.19599853062289
30
0
41
1
10
-68.0278488578996
20
-8.21240349880759
30
0
41
1
10
-68.0523670478266
20
-8.22336101159533
30
0
41
1
10
-68.1215174396824
20
-8.26159722859708
30
0
41
1
10
-68.1634030389204
20
-8.29487671382614
30
0
41
1
10
-68.2387215873517
20
-8.36859765624112
30
0
41
1
10
-68.2722140942872
20
-8.40893158874499
30
0
41
1
10
-68.3337486824602
20
-8.49414298628952
30
0
41
1
10
-68.3617871625299
20
-8.53918182565536
30
0
41
1
10
-68.4385883635459
20
-8.67748763500578
30
0
41
1
10
-68.4807188690209
20
-8.77475057942746
30
0
41
1
10
-68.5162221138916
20
-8.8730422260673
30
0
0
SPLINE
5
263
100
AcDbEntity
8
SK1
62
256
6
ByLayer
370
13
48
1
60
0
100
AcDbSpline
70
4
71
3
72
70
73
66
40
0
40
0
40
0
40
0
40
0.015625
40
0.015625
40
0.0312500000000001
40
0.0312500000000001
40
0.0468750000000001
40
0.0468750000000001
40
0.0625000000000002
40
0.0625000000000002
40
0.0781250000000002
40
0.0781250000000002
40
0.0937500000000002
40
0.0937500000000002
40
0.125
40
0.125
40
0.140625
40
0.140625
40
0.15625
40
0.15625
40
0.1875
40
0.1875
40
0.25
40
0.25
40
0.28125
40
0.28125
40
0.3125
40
0.3125
40
0.375
40
0.375
40
0.4375
40
0.4375
40
0.5
40
0.5
40
0.5625
40
0.5625
40
0.59375
40
0.59375
40
0.625
40
0.625
40
0.6875
40
0.6875
40
0.75
40
0.75
40
0.78125
40
0.78125
40
0.8125
40
0.8125
40
0.84375
40
0.84375
40
0.875
40
0.875
40
0.90625
40
0.90625
40
0.921875
40
0.921875
40
0.9375
40
0.9375
40
0.953125
40
0.953125
40
0.96875
40
0.96875
40
0.984375
40
0.984375
40
1
40
1
40
1
40
1
41
1
10
-6.50000000009538
20
9.10261500888618
30
0
41
1
10
-6.38737485512922
20
9.1026150088932
30
0
41
1
10
-6.27721440025223
20
9.09029369099659
30
0
41
1
10
-6.0613636277516
20
9.04323422380682
30
0
41
1
10
-5.95503984638167
20
9.0079756276379
30
0
41
1
10
-5.7551214099729
20
8.92022913512542
30
0
41
1
10
-5.66004837762688
20
8.86741358852154
30
0
41
1
10
-5.47992014745202
20
8.74769988825136
30
0
41
1
10
-5.39641097128508
20
8.68193245792781
30
0
41
1
10
-5.23955455947049
20
8.54101721258675
30
0
41
1
10
-5.16623380692405
20
8.4658464043282
30
0
41
1
10
-5.02798749993248
20
8.30754690558993
30
0
41
1
10
-4.96306756616258
20
8.22430232171715
30
0
41
1
10
-4.78227303428737
20
7.96913620185182
30
0
41
1
10
-4.67861785228318
20
7.79021273110939
30
0
41
1
10
-4.54045696768523
20
7.51196302988765
30
0
41
1
10
-4.49735015796675
20
7.4175428463376
30
0
41
1
10
-4.41619750727808
20
7.22570350524146
30
0
41
1
10
-4.37807582127729
20
7.12805793071107
30
0
41
1
10
-4.27101040197245
20
6.8329347652097
30
0
41
1
10
-4.20926968038492
20
6.63342457544303
30
0
41
1
10
-4.0452314228167
20
6.02794589486371
30
0
41
1
10
-3.96376841865315
20
5.61509125673697
30
0
41
1
10
-3.86635044633076
20
4.98491154714242
30
0
41
1
10
-3.83813392781771
20
4.77301296087188
30
0
41
1
10
-3.78843459914702
20
4.34583232970297
30
0
41
1
10
-3.76694967433093
20
4.13034331603052
30
0
41
1
10
-3.71092724378032
20
3.48419995481069
30
0
41
1
10
-3.68445814337734
20
3.05221472734811
30
0
41
1
10
-3.64489223558412
20
2.18603867811205
30
0
41
1
10
-3.63184735027673
20
1.75184658678651
30
0
41
1
10
-3.61484709816499
20
0.88137274435141
30
0
41
1
10
-3.61090691638442
20
0.445090670727808
30
0
41
1
10
-3.61081183099837
20
-0.429544754978423
30
0
41
1
10
-3.61465206561212
20
-0.867897875286985
30
0
41
1
10
-3.62742391003748
20
-1.52704012585428
30
0
41
1
10
-3.6328856781081
20
-1.74736793829624
30
0
41
1
10
-3.64660759107323
20
-2.18617039208055
30
0
41
1
10
-3.65486548614162
20
-2.40477290161152
30
0
41
1
10
-3.68476512689929
20
-3.05812562975754
30
0
41
1
10
-3.71139513941525
20
-3.49043386677977
30
0
41
1
10
-3.78588921301478
20
-4.3479397579712
30
0
41
1
10
-3.83363504443875
20
-4.77314633439445
30
0
41
1
10
-3.93125050047647
20
-5.40480591630586
30
0
41
1
10
-3.96825658176709
20
-5.6147159399498
30
0
41
1
10
-4.05334160699206
20
-6.03027097921884
30
0
41
1
10
-4.10133221047873
20
-6.2356468686169
30
0
41
1
10
-4.21147783132868
20
-6.64092561009161
30
0
41
1
10
-4.27380622007676
20
-6.84139160095842
30
0
41
1
10
-4.41651374865074
20
-7.23323112675126
30
0
41
1
10
-4.49649452537749
20
-7.42374327337623
30
0
41
1
10
-4.67945843004416
20
-7.79158187670348
30
0
41
1
10
-4.7823032521182
20
-7.9689701957796
30
0
41
1
10
-4.96134406177452
20
-8.2219726784019
30
0
41
1
10
-5.02519408327927
20
-8.30410886087677
30
0
41
1
10
-5.16353530738408
20
-8.46298659207028
30
0
41
1
10
-5.2378095715431
20
-8.53934452778824
30
0
41
1
10
-5.3955540056559
20
-8.68126590509502
30
0
41
1
10
-5.47938183829518
20
-8.74730497974389
30
0
41
1
10
-5.65962274296652
20
-8.86716765928176
30
0
41
1
10
-5.75457229472995
20
-8.91989407179133
30
0
41
1
10
-5.95304597128592
20
-9.00719334610281
30
0
41
1
10
-6.05703345759315
20
-9.04208374011839
30
0
41
1
10
-6.27602107391631
20
-9.09023480877454
30
0
41
1
10
-6.38714501013285
20
-9.1026150088932
30
0
41
1
10
-6.5000000000954
20
-9.10261500888618
30
0
0
SPLINE
5
264
100
AcDbEntity
8
SK1
62
256
6
ByLayer
370
13
48
1
60
0
100
AcDbSpline
70
4
71
3
72
8
73
4
40
0
40
0
40
0
40
0
40
1
40
1
40
1
40
1
41
1
10
-69
20
-9.10261500888609
30
0
41
1
10
-69.3690731351762
20
-8.29186047254925
30
0
41
1
10
-69.7058190647956
20
-7.46686272672801
30
0
41
1
10
-70
20
-6.62311105146205
30
0
0
SPLINE
5
265
100
AcDbEntity
8
1
62
256
6
ByLayer
370
13
48
1
60
0
100
AcDbSpline
70
4
71
3
72
24
73
20
40
0
40
0
40
0
40
0
40
0.125000000000016
40
0.125000000000016
40
0.250000000000032
40
0.250000000000032
40
0.375000000000048
40
0.375000000000048
40
0.500000000000063
40
0.500000000000063
40
0.625000000000079
40
0.625000000000079
40
0.750000000000095
40
0.750000000000095
40
0.812500000000071
40
0.812500000000071
40
0.875000000000048
40
0.875000000000048
40
1
40
1
40
1
40
1
41
1
10
223.106593233234
20
18.3499284155721
30
0
41
1
10
223.098378217692
20
18.4044626813644
30
0
41
1
10
223.084924318314
20
18.4574745633051
30
0
41
1
10
223.046492789504
20
18.5601496099608
30
0
41
1
10
223.021508530664
20
18.6094984538051
30
0
41
1
10
222.963129941369
20
18.7011456815369
30
0
41
1
10
222.929265073893
20
18.7441453992817
30
0
41
1
10
222.852360713473
20
18.822633405314
30
0
41
1
10
222.810534441195
20
18.8573247798717
30
0
41
1
10
222.720536207716
20
18.9181453548045
30
0
41
1
10
222.671603773937
20
18.9442256162871
30
0
41
1
10
222.57078167885
20
18.9852799233298
30
0
41
1
10
222.518814685858
20
19.0007784189725
30
0
41
1
10
222.438392420834
20
19.0160376345864
30
0
41
1
10
222.411055906968
20
19.0197278583069
30
0
41
1
10
222.35653437745
20
19.0244788477141
30
0
41
1
10
222.329248349238
20
19.0250702772665
30
0
41
1
10
222.247383387402
20
19.0263589095239
30
0
41
1
10
222.19280365494
20
19.0269996993056
30
0
41
1
10
222.138215030586
20
19.0270125578078
30
0
0
SPLINE
5
266
100
AcDbEntity
8
1
62
256
6
ByLayer
370
13
48
1
60
0
100
AcDbSpline
70
4
71
3
72
10
73
6
40
0
40
0
40
0
40
0
40
0.5
40
0.5
40
1
40
1
40
1
40
1
41
1
10
209.914411382891
20
18.2310350062542
30
0
41
1
10
209.947527227349
20
18.2320506017805
30
0
41
1
10
209.978980038625
20
18.2315160390041
30
0
41
1
10
210.042685886784
20
18.231214151349
30
0
41
1
10
210.074610570375
20
18.2311230636285
30
0
41
1
10
210.106497853551
20
18.2310007571132
30
0
0
SPLINE
5
267
100
AcDbEntity
8
1
62
256
6
ByLayer
370
13
48
1
60
0
100
AcDbSpline
70
4
71
3
72
10
73
6
40
0
40
0
40
0
40
0
40
0.5
40
0.5
40
1
40
1
40
1
40
1
41
1
10
221.169086805869
20
18.0937915703976
30
0
41
1
10
221.165408838195
20
18.0935988162795
30
0
41
1
10
221.175161273637
20
18.0833589889513
30
0
41
1
10
221.215268419896
20
18.0497230165663
30
0
41
1
10
221.245713379714
20
18.0263829107344
30
0
41
1
10
221.277685540842
20
18.0035558601801
30
0
0
SPLINE
5
268
100
AcDbEntity
8
1
62
256
6
ByLayer
370
13
48
1
60
0
100
AcDbSpline
70
4
71
3
72
17
73
13
40
0
40
0
40
0
40
0
40
0.499999999999963
40
0.749999999999944
40
0.749999999999944
40
0.874999999999944
40
0.874999999999944
40
0.906249999999954
40
0.906249999999954
40
0.937499999999963
40
0.937499999999963
40
1
40
1
40
1
40
1
41
1
10
216.137671159392
20
17.4407970796638
30
0
41
1
10
215.395891664477
20
17.4019220636176
30
0
41
1
10
214.283222422105
20
17.3436095395483
30
0
41
1
10
213.170553179732
20
17.285297015479
30
0
41
1
10
212.614218558545
20
17.2561407534444
30
0
41
1
10
212.428773660093
20
17.2464212872694
30
0
41
1
10
212.196967601267
20
17.2342738049634
30
0
41
1
10
212.150607027805
20
17.2318626943167
30
0
41
1
10
212.057883550098
20
17.2269733366471
30
0
41
1
10
212.011525740885
20
17.2246418480287
30
0
41
1
10
211.872749705725
20
17.2262135387258
30
0
41
1
10
211.780525893103
20
17.2357166410141
30
0
41
1
10
211.6886039361
20
17.2539144570918
30
0
0
SPLINE
5
269
100
AcDbEntity
8
1
62
256
6
ByLayer
370
13
48
1
60
0
100
AcDbSpline
70
4
71
3
72
11
73
7
40
0
40
0
40
0
40
0
40
0.25
40
0.5
40
0.75
40
1
40
1
40
1
40
1
41
1
10
221.939068109188
20
19.0248373491775
30
0
41
1
10
221.923563087534
20
19.0244947140366
30
0
41
1
10
221.892566430253
20
19.023330071122
30
0
41
1
10
221.846087976157
20
19.0212243823999
30
0
41
1
10
221.799605209771
20
19.0192122739587
30
0
41
1
10
221.768617178062
20
19.0178604705254
30
0
41
1
10
221.753123162101
20
19.0171845688041
30
0
0
SPLINE
5
26A
100
AcDbEntity
8
1
62
256
6
ByLayer
370
13
48
1
60
0
100
AcDbSpline
70
4
71
3
72
10
73
6
40
0
40
0
40
0
40
0
40
0.5
40
0.5
40
1
40
1
40
1
40
1
41
1
10
211.615680439606
20
6.89090046920984
30
0
41
1
10
211.612002471932
20
6.89070771509176
30
0
41
1
10
211.595055055253
20
6.90057046943141
30
0
41
1
10
211.544770273907
20
6.93367305456306
30
0
41
1
10
211.511380666731
20
6.95685883796608
30
0
41
1
10
211.479408505603
20
6.97968588852052
30
0
0
SPLINE
5
26B
100
AcDbEntity
8
1
62
256
6
ByLayer
370
13
48
1
60
0
100
AcDbSpline
70
4
71
1
72
4
73
2
40
0
40
0
40
1
40
1
41
1
10
208.671872996418
20
12.0174666103168
30
0
41
1
10
208.844062250779
20
12.0280689798337
30
0
0
SPLINE
5
26C
100
AcDbEntity
8
1
62
256
6
ByLayer
370
13
48
1
60
0
100
AcDbSpline
70
4
71
3
72
10
73
6
40
0
40
0
40
0
40
0
40
0.5
40
0.5
40
1
40
1
40
1
40
1
41
1
10
211.644777860096
20
6.97841104470683
30
0
41
1
10
211.641098456484
20
6.97821821533444
30
0
41
1
10
211.620775971729
20
6.97828345172621
30
0
41
1
10
211.55955053743
20
6.9787949676836
30
0
41
1
10
211.518639913175
20
6.97923035865696
30
0
41
1
10
211.479408505603
20
6.97968588852049
30
0
0
SPLINE
5
26D
100
AcDbEntity
8
1
62
256
6
ByLayer
370
13
48
1
60
0
100
AcDbSpline
70
4
71
2
72
6
73
3
40
0
40
0
40
0
40
1
40
1
40
1
41
1
10
208.678256726214
20
12.1265908319741
30
0
41
0.99907741483576
10
208.675728713196
20
12.1072743139954
30
0
41
0.998811969635998
10
208.674189840505
20
12.087852623622
30
0
0
SPLINE
5
26E
100
AcDbEntity
8
1
62
256
6
ByLayer
370
13
48
1
60
0
100
AcDbSpline
70
4
71
1
72
4
73
2
40
0
40
0
40
1
40
1
41
1
10
208.850783263238
20
12.1429587506714
30
0
41
1
10
208.678256726214
20
12.1265908319741
30
0
0
SPLINE
5
26F
100
AcDbEntity
8
1
62
256
6
ByLayer
370
13
48
1
60
0
100
AcDbSpline
70
4
71
2
72
6
73
3
40
0
40
0
40
0
40
1
40
1
40
1
41
1
10
223.949929394373
20
12.9571064900761
30
0
41
0.997409491337352
10
223.950694277018
20
12.899416356388
30
0
41
1
10
223.943208381914
20
12.8422167192383
30
0
0
SPLINE
5
270
100
AcDbEntity
8
1
62
256
6
ByLayer
370
13
48
1
60
0
100
AcDbSpline
70
4
71
3
72
8
73
4
40
0
40
0
40
0
40
0
40
1
40
1
40
1
40
1
41
1
10
222.47255903405
20
6.72915887760823
30
0
41
1
10
222.405320771609
20
6.72530397939371
30
0
41
1
10
222.340077938369
20
6.72337236905102
30
0
41
1
10
222.276549905512
20
6.72253698181808
30
0
0
SPLINE
5
271
100
AcDbEntity
8
1
62
256
6
ByLayer
370
13
48
1
60
0
100
AcDbSpline
70
4
71
3
72
22
73
18
40
0
40
0
40
0
40
0
40
0.0312500000000039
40
0.0312500000000039
40
0.0625000000000078
40
0.0625000000000078
40
0.125
40
0.125
40
0.156249999999995
40
0.156249999999995
40
0.187499999999991
40
0.187499999999991
40
0.249999999999983
40
0.249999999999983
40
0.499999999999983
40
0.499999999999983
40
1
40
1
40
1
40
1
41
1
10
211.843074857693
20
7.09326247787234
30
0
41
1
10
211.88556858567
20
7.12056116496228
30
0
41
1
10
211.929874706294
20
7.14597820078791
30
0
41
1
10
212.020412702676
20
7.19198670288122
30
0
41
1
10
212.066507918111
20
7.21254186689663
30
0
41
1
10
212.207191792472
20
7.26709849106655
30
0
41
1
10
212.304149312575
20
7.29407813313733
30
0
41
1
10
212.454567754078
20
7.31977938990889
30
0
41
1
10
212.505122804707
20
7.32589577903596
30
0
41
1
10
212.60629003707
20
7.33266479926777
30
0
41
1
10
212.656946077607
20
7.33476936737765
30
0
41
1
10
212.808819298553
20
7.34276023323909
30
0
41
1
10
212.91007057124
20
7.34804402459906
30
0
41
1
10
213.416321352502
20
7.37456163412182
30
0
41
1
10
213.821319929106
20
7.39581192281048
30
0
41
1
10
215.036320107015
20
7.45948417850494
30
0
41
1
10
215.846320468476
20
7.50192808812076
30
0
41
1
10
216.65632048576
20
7.54437839024584
30
0
0
SPLINE
5
272
100
AcDbEntity
8
1
62
256
6
ByLayer
370
13
48
1
60
0
100
AcDbSpline
70
4
71
3
72
26
73
22
40
0
40
0
40
0
40
0
40
0.250000000000053
40
0.250000000000053
40
0.500000000000106
40
0.500000000000106
40
0.625000000000099
40
0.625000000000099
40
0.687500000000054
40
0.687500000000054
40
0.75000000000001
40
0.75000000000001
40
0.812499999999965
40
0.812499999999965
40
0.843749999999943
40
0.843749999999943
40
0.874999999999921
40
0.874999999999921
40
0.93749999999996
40
0.93749999999996
40
1
40
1
40
1
40
1
41
1
10
223.154968516383
20
6.95038741980281
30
0
41
1
10
223.121374482194
20
6.92567201053265
30
0
41
1
10
223.084657810023
20
6.90083552196833
30
0
41
1
10
223.000898372689
20
6.8514495444652
30
0
41
1
10
222.953312106089
20
6.82648893959885
30
0
41
1
10
222.866797853666
20
6.79105396678926
30
0
41
1
10
222.835651142835
20
6.77958647554223
30
0
41
1
10
222.783192853607
20
6.76449506754929
30
0
41
1
10
222.764821442187
20
6.7598834334633
30
0
41
1
10
222.72746617781
20
6.75220428200353
30
0
41
1
10
222.708189937783
20
6.7490999773691
30
0
41
1
10
222.670994268832
20
6.74445224950924
30
0
41
1
10
222.65270875126
20
6.74287030383746
30
0
41
1
10
222.626203457562
20
6.74129210456036
30
0
41
1
10
222.617166631725
20
6.74057938593853
30
0
41
1
10
222.598594506848
20
6.73869272790438
30
0
41
1
10
222.589188875965
20
6.73763876615448
30
0
41
1
10
222.561725652657
20
6.73517422625295
30
0
41
1
10
222.543837441418
20
6.73392037091716
30
0
41
1
10
222.50797224554
20
6.73133052114977
30
0
41
1
10
222.490184218736
20
6.73016936316381
30
0
41
1
10
222.47255903405
20
6.72915887760823
30
0
0
SPLINE
5
273
100
AcDbEntity
8
1
62
256
6
ByLayer
370
13
48
1
60
0
100
AcDbSpline
70
4
71
3
72
22
73
18
40
0
40
0
40
0
40
0
40
0.031250000000016
40
0.031250000000016
40
0.0625000000000319
40
0.0625000000000319
40
0.125000000000048
40
0.125000000000048
40
0.156250000000056
40
0.156250000000056
40
0.187500000000064
40
0.187500000000064
40
0.250000000000063
40
0.250000000000063
40
0.500000000000042
40
0.500000000000042
40
1
40
1
40
1
40
1
41
1
10
220.950916787461
20
17.8919129920382
30
0
41
1
10
220.908423059483
20
17.8646143049483
30
0
41
1
10
220.864116938859
20
17.8391972691227
30
0
41
1
10
220.773578942478
20
17.7931887670293
30
0
41
1
10
220.727483727043
20
17.7726336030138
30
0
41
1
10
220.586799852682
20
17.7180769788437
30
0
41
1
10
220.489842332579
20
17.6910973367729
30
0
41
1
10
220.339423891077
20
17.6653960800011
30
0
41
1
10
220.288868840447
20
17.659279690874
30
0
41
1
10
220.187701608084
20
17.652510670642
30
0
41
1
10
220.137045567548
20
17.6504061025322
30
0
41
1
10
219.985172346601
20
17.6424152366708
30
0
41
1
10
219.883921073914
20
17.6371314453108
30
0
41
1
10
219.377670292653
20
17.610613835788
30
0
41
1
10
218.972671716049
20
17.5893635470994
30
0
41
1
10
217.757671538141
20
17.525691291405
30
0
41
1
10
216.947671176675
20
17.4832473817889
30
0
41
1
10
216.137671159392
20
17.4407970796639
30
0
0
SPLINE
5
274
100
AcDbEntity
8
1
62
256
6
ByLayer
370
13
48
1
60
0
100
AcDbSpline
70
4
71
3
72
14
73
10
40
0
40
0
40
0
40
0
40
0.0108648623996725
40
0.0108648623996725
40
0.499267634968735
40
0.499267634968735
40
0.987670407537798
40
0.987670407537798
40
1
40
1
40
1
40
1
41
1
10
223.042275495422
20
6.83955424986408
30
0
41
1
10
223.041316959924
20
6.83854153707907
30
0
41
1
10
223.040356072917
20
6.837531698053
30
0
41
1
10
222.996094163716
20
6.79126053080867
30
0
41
1
10
222.947995681805
20
6.75111977296578
30
0
41
1
10
222.841463373394
20
6.68253139198853
30
0
41
1
10
222.78524630915
20
6.65512455215153
30
0
41
1
10
222.724762858093
20
6.63367113437437
30
0
41
1
10
222.723271443916
20
6.63314709689669
30
0
41
1
10
222.721777949786
20
6.63262729388182
30
0
0
SPLINE
5
275
100
AcDbEntity
8
1
62
256
6
ByLayer
370
13
48
1
60
0
100
AcDbSpline
70
4
71
2
72
6
73
3
40
0
40
0
40
0
40
1
40
1
40
1
41
0.998811969635998
10
208.674189840505
20
12.087852623622
30
0
41
0.998332076501593
10
208.67140566589
20
12.0527143190424
30
0
41
1
10
208.671872996418
20
12.0174666103168
30
0
0
SPLINE
5
276
100
AcDbEntity
8
1
62
256
6
ByLayer
370
13
48
1
60
0
100
AcDbSpline
70
4
71
2
72
6
73
3
40
0
40
0
40
0
40
1
40
1
40
1
41
1
10
208.662366788626
20
12.2669055417275
30
0
41
0.997409491337352
10
208.659523222444
20
12.2121816972396
30
0
41
1
10
208.664528346529
20
12.1576108787874
30
0
0
SPLINE
5
277
100
AcDbEntity
8
1
62
256
6
ByLayer
370
13
48
1
60
0
100
AcDbSpline
70
4
71
2
72
6
73
3
40
0
40
0
40
0
40
1
40
1
40
1
41
1
10
208.844062250779
20
12.0280689798337
30
0
41
0.997409491337352
10
208.844827133424
20
11.970378846144
30
0
41
1
10
208.853826962868
20
11.9133922416721
30
0
0
SPLINE
5
278
100
AcDbEntity
8
1
62
256
6
ByLayer
370
13
48
1
60
0
100
AcDbSpline
70
4
71
2
72
6
73
3
40
0
40
0
40
0
40
1
40
1
40
1
41
1
10
208.681147682917
20
11.9085447306502
30
0
41
0.997409491337352
10
208.672599494719
20
11.9626715585888
30
0
41
1
10
208.671872996418
20
12.0174666103168
30
0
0
SPLINE
5
279
100
AcDbEntity
8
1
62
256
6
ByLayer
370
13
48
1
60
0
100
AcDbSpline
70
4
71
3
72
10
73
6
40
0
40
0
40
0
40
0
40
0.381095285606988
40
0.381095285606988
40
1
40
1
40
1
40
1
41
1
10
221.142942063928
20
18.0059578210249
30
0
41
1
10
221.148228585998
20
18.0057364296341
30
0
41
1
10
221.159245229474
20
18.005445128003
30
0
41
1
10
221.200488326412
20
18.0046011123572
30
0
41
1
10
221.238454133271
20
18.0040113900437
30
0
41
1
10
221.277685540842
20
18.0035558601801
30
0
0
SPLINE
5
27A
100
AcDbEntity
8
1
62
256
6
ByLayer
370
13
48
1
60
0
100
AcDbSpline
70
4
71
3
72
24
73
20
40
0
40
0
40
0
40
0
40
0.0312500000000026
40
0.0312500000000026
40
0.0625000000000051
40
0.0625000000000051
40
0.125000000000003
40
0.125000000000003
40
0.187500000000001
40
0.187500000000001
40
0.249999999999999
40
0.249999999999999
40
0.375000000000001
40
0.375000000000001
40
0.500000000000003
40
0.500000000000003
40
0.750000000000002
40
0.750000000000002
40
1
40
1
40
1
40
1
41
1
10
223.287728579055
20
7.34874097792479
30
0
41
1
10
223.286704709097
20
7.33489901616022
30
0
41
1
10
223.285452527494
20
7.32018309509991
30
0
41
1
10
223.282452283238
20
7.29065536215924
30
0
41
1
10
223.280672487964
20
7.27568746042232
30
0
41
1
10
223.275149626316
20
7.2348197607005
30
0
41
1
10
223.271296464763
20
7.21228918173674
30
0
41
1
10
223.264042672075
20
7.17446565288211
30
0
41
1
10
223.260561470385
20
7.15879609785944
30
0
41
1
10
223.253889247387
20
7.13124004835581
30
0
41
1
10
223.250684437942
20
7.11934049489071
30
0
41
1
10
223.241304203897
20
7.08699233233543
30
0
41
1
10
223.23539038119
20
7.06993883118693
30
0
41
1
10
223.223976024929
20
7.04048604496583
30
0
41
1
10
223.218507745318
20
7.02831174188896
30
0
41
1
10
223.202578285021
20
6.99686717649737
30
0
41
1
10
223.192583330788
20
6.9825774887332
30
0
41
1
10
223.173285781663
20
6.96139440585333
30
0
41
1
10
223.163991577698
20
6.95463249627537
30
0
41
1
10
223.154968516381
20
6.95038741980173
30
0
0
SPLINE
5
27B
100
AcDbEntity
8
1
62
256
6
ByLayer
370
13
48
1
60
0
100
AcDbSpline
70
4
71
1
72
4
73
2
40
0
40
0
40
1
40
1
41
1
10
210.106497853551
20
18.2310007571132
30
0
41
1
10
209.963881443428
20
18.3993365908976
30
0
0
SPLINE
5
27C
100
AcDbEntity
8
1
62
256
6
ByLayer
370
13
48
1
60
0
100
AcDbSpline
70
4
71
2
72
6
73
3
40
0
40
0
40
0
40
1
40
1
40
1
41
0.9988119696357
10
208.674189840503
20
12.0878526236012
30
0
41
0.99833207650211
10
208.667747964911
20
12.1225074113672
30
0
41
1
10
208.664528346529
20
12.1576108787874
30
0
0
SPLINE
5
27D
100
AcDbEntity
8
1
62
256
6
ByLayer
370
13
48
1
60
0
100
AcDbSpline
70
4
71
3
72
8
73
4
40
0
40
0
40
0
40
0
40
1
40
1
40
1
40
1
41
1
10
209.429165584907
20
18.3517274060901
30
0
41
1
10
209.545229252909
20
18.3658839254164
30
0
41
1
10
209.661557443314
20
18.3778258047301
30
0
41
1
10
209.778155188844
20
18.3875109089679
30
0
0
SPLINE
5
27E
100
AcDbEntity
8
1
62
256
6
ByLayer
370
13
48
1
60
0
100
AcDbSpline
70
4
71
1
72
4
73
2
40
0
40
0
40
1
40
1
41
1
10
208.597008074596
20
12.0427939006354
30
0
41
1
10
208.672513161509
20
12.0489545326053
30
0
0
SPLINE
5
27F
100
AcDbEntity
8
1
62
256
6
ByLayer
370
13
48
1
60
0
100
AcDbSpline
70
4
71
3
72
24
73
20
40
0
40
0
40
0
40
0
40
0.0312499999999938
40
0.0312499999999938
40
0.0624999999999878
40
0.0624999999999878
40
0.124999999999989
40
0.124999999999989
40
0.18749999999999
40
0.18749999999999
40
0.24999999999999
40
0.24999999999999
40
0.374999999999992
40
0.374999999999992
40
0.499999999999994
40
0.499999999999994
40
0.749999999999997
40
0.749999999999997
40
1
40
1
40
1
40
1
41
1
10
209.657367232796
20
6.634404008942
30
0
41
1
10
209.659832372879
20
6.62074489844554
30
0
41
1
10
209.662615927514
20
6.60624048135958
30
0
41
1
10
209.668686224666
20
6.57718811535079
30
0
41
1
10
209.672020841802
20
6.56248824861043
30
0
41
1
10
209.681785286486
20
6.52242172266472
30
0
41
1
10
209.687972426812
20
6.50041733362602
30
0
41
1
10
209.699140117812
20
6.46355923382248
30
0
41
1
10
209.70424016362
20
6.44833940292466
30
0
41
1
10
209.713756226991
20
6.42163174556023
30
0
41
1
10
209.718187322192
20
6.41013237290028
30
0
41
1
10
209.730897474054
20
6.37894191841397
30
0
41
1
10
209.738561476491
20
6.36260000092838
30
0
41
1
10
209.752991958197
20
6.33450168527116
30
0
41
1
10
209.759702843192
20
6.32296566516487
30
0
41
1
10
209.778831892337
20
6.29335843839812
30
0
41
1
10
209.790265772267
20
6.28019178824513
30
0
41
1
10
209.8116718425
20
6.26114189166458
30
0
41
1
10
209.82162194386
20
6.25538853339251
30
0
41
1
10
209.831039307223
20
6.25210987862545
30
0
0
SPLINE
5
280
100
AcDbEntity
8
1
62
256
6
ByLayer
370
13
48
1
60
0
100
AcDbSpline
70
4
71
3
72
17
73
13
40
0
40
0
40
0
40
0
40
0.500000000000037
40
0.750000000000055
40
0.750000000000055
40
0.875000000000055
40
0.875000000000055
40
0.906250000000046
40
0.906250000000046
40
0.937500000000037
40
0.937500000000037
40
1
40
1
40
1
40
1
41
1
10
216.159358152344
20
17.291727794904
30
0
41
1
10
215.41203537461
20
17.2525622677153
30
0
41
1
10
214.291051208008
20
17.1938139769323
30
0
41
1
10
213.170067041407
20
17.1350656861493
30
0
41
1
10
212.609574958107
20
17.1056915407578
30
0
41
1
10
212.422744334548
20
17.0958981666816
30
0
41
1
10
212.189205865341
20
17.0836617831754
30
0
41
1
10
212.142498759844
20
17.0811979683132
30
0
41
1
10
212.049084747333
20
17.0762647593824
30
0
41
1
10
212.002330170638
20
17.0751353407783
30
0
41
1
10
211.861821554069
20
17.0786307453087
30
0
41
1
10
211.767869749854
20
17.0888146442673
30
0
41
1
10
211.673616430908
20
17.1074740007347
30
0
0
SPLINE
5
281
100
AcDbEntity
8
1
62
256
6
ByLayer
370
13
48
1
60
0
100
AcDbSpline
70
4
71
3
72
11
73
7
40
0
40
0
40
0
40
0
40
0.25
40
0.5
40
0.75
40
1
40
1
40
1
40
1
41
1
10
210.854923535964
20
5.96033812073225
30
0
41
1
10
210.870428557618
20
5.96068075587309
30
0
41
1
10
210.901425214899
20
5.96184539878777
30
0
41
1
10
210.947903668995
20
5.96395108750988
30
0
41
1
10
210.994386435381
20
5.96596319595102
30
0
41
1
10
211.02537446709
20
5.96731499938434
30
0
41
1
10
211.040868483051
20
5.96799090110562
30
0
0
SPLINE
5
282
100
AcDbEntity
8
1
62
256
6
ByLayer
370
13
48
1
60
0
100
AcDbSpline
70
4
71
3
72
17
73
13
40
0
40
0
40
0
40
0
40
0.499999999999982
40
0.749999999999972
40
0.749999999999972
40
0.874999999999958
40
0.874999999999958
40
0.906249999999964
40
0.906249999999964
40
0.93749999999997
40
0.93749999999997
40
1
40
1
40
1
40
1
41
1
10
216.65632048576
20
7.54437839024592
30
0
41
1
10
217.398099980675
20
7.58325340629213
30
0
41
1
10
218.510769223048
20
7.64156593036142
30
0
41
1
10
219.62343846542
20
7.69987845443072
30
0
41
1
10
220.179773086607
20
7.72903471646535
30
0
41
1
10
220.36521798506
20
7.73875418264032
30
0
41
1
10
220.597024043885
20
7.7509016649463
30
0
41
1
10
220.643384617346
20
7.753312775593
30
0
41
1
10
220.736108095054
20
7.75820213326264
30
0
41
1
10
220.782465904267
20
7.76053362188105
30
0
41
1
10
220.921241939427
20
7.75896193118388
30
0
41
1
10
221.013465752049
20
7.74945882889566
30
0
41
1
10
221.105387709052
20
7.73126101281792
30
0
0
SPLINE
5
283
100
AcDbEntity
8
1
62
256
6
ByLayer
370
13
48
1
60
0
100
AcDbSpline
70
4
71
3
72
16
73
12
40
0
40
0
40
0
40
0
40
0.12716496474808
40
0.12716496474808
40
0.199901217685741
40
0.199901217685741
40
0.272637470623401
40
0.272637470623401
40
0.418109976498721
40
0.418109976498721
40
1
40
1
40
1
40
1
41
1
10
209.435345339096
20
18.1994148380191
30
0
41
1
10
209.45550680545
20
18.203063338862
30
0
41
1
10
209.476379675568
20
18.205817047952
30
0
41
1
10
209.508770531394
20
18.2089933736986
30
0
41
1
10
209.5205370231
20
18.2098217786834
30
0
41
1
10
209.543803241922
20
18.2111988945712
30
0
41
1
10
209.555632623931
20
18.2122319619297
30
0
41
1
10
209.591488324982
20
18.2159763185393
30
0
41
1
10
209.614951231721
20
18.2176986728123
30
0
41
1
10
209.732195931416
20
18.2261878674242
30
0
41
1
10
209.824275637261
20
18.2295496723781
30
0
41
1
10
209.914411382891
20
18.2310350062542
30
0
0
SPLINE
5
284
100
AcDbEntity
8
1
62
256
6
ByLayer
370
13
48
1
60
0
100
AcDbSpline
70
4
71
2
72
6
73
3
40
0
40
0
40
0
40
1
40
1
40
1
41
1
10
223.949929394373
20
12.9571064900761
30
0
41
0.997409491337352
10
223.949164511728
20
13.0147966237657
30
0
41
1
10
223.940164682284
20
13.0717832282376
30
0
0
SPLINE
5
285
100
AcDbEntity
8
1
62
256
6
ByLayer
370
13
48
1
60
0
100
AcDbSpline
70
4
71
3
72
17
73
13
40
0
40
0
40
0
40
0
40
0.500000000000009
40
0.750000000000005
40
0.750000000000005
40
0.874999999999993
40
0.874999999999993
40
0.90625
40
0.90625
40
0.937500000000006
40
0.937500000000006
40
1
40
1
40
1
40
1
41
1
10
216.662306691838
20
7.69489796591253
30
0
41
1
10
217.409629469572
20
7.73406349310119
30
0
41
1
10
218.530613636174
20
7.79281178388422
30
0
41
1
10
219.651597802775
20
7.85156007466725
30
0
41
1
10
220.212089886075
20
7.88093422005875
30
0
41
1
10
220.398920509634
20
7.89072759413492
30
0
41
1
10
220.632458978842
20
7.90296397764115
30
0
41
1
10
220.679166084338
20
7.90542779250333
30
0
41
1
10
220.772580096849
20
7.91036100143415
30
0
41
1
10
220.819334673543
20
7.91149042003823
30
0
41
1
10
220.959843290113
20
7.90799501550785
30
0
41
1
10
221.053795094328
20
7.89781111654921
30
0
41
1
10
221.148048413274
20
7.87915176008187
30
0
0
SPLINE
5
286
100
AcDbEntity
8
1
62
256
6
ByLayer
370
13
48
1
60
0
100
AcDbSpline
70
4
71
3
72
22
73
18
40
0
40
0
40
0
40
0
40
0.124999999999993
40
0.124999999999993
40
0.249999999999987
40
0.249999999999987
40
0.37499999999998
40
0.37499999999998
40
0.499999999999973
40
0.499999999999973
40
0.624999999999967
40
0.624999999999967
40
0.687499999999963
40
0.687499999999963
40
0.749999999999959
40
0.749999999999959
40
1
40
1
40
1
40
1
41
1
10
209.687398411918
20
6.63524705433761
30
0
41
1
10
209.696861960295
20
6.57242457276774
30
0
41
1
10
209.713308019716
20
6.51163116120421
30
0
41
1
10
209.761568032344
20
6.39451014302077
30
0
41
1
10
209.792729708941
20
6.33955566207371
30
0
41
1
10
209.866352742652
20
6.23826009418676
30
0
41
1
10
209.910090808482
20
6.19144224317634
30
0
41
1
10
210.005676618732
20
6.11046159531656
30
0
41
1
10
210.057707463858
20
6.07556839314484
30
0
41
1
10
210.170825615199
20
6.01849140498175
30
0
41
1
10
210.229599511334
20
5.99711098601588
30
0
41
1
10
210.320886900295
20
5.97514503312436
30
0
41
1
10
210.351971541121
20
5.96955356725636
30
0
41
1
10
210.41475130598
20
5.9621000377339
30
0
41
1
10
210.44617186852
20
5.96053985369863
30
0
41
1
10
210.603341667878
20
5.95746942544372
30
0
41
1
10
210.729113987874
20
5.95758927859964
30
0
41
1
10
210.854923535964
20
5.96033812073227
30
0
0
SPLINE
5
287
100
AcDbEntity
8
1
62
256
6
ByLayer
370
13
48
1
60
0
100
AcDbSpline
70
4
71
1
72
4
73
2
40
0
40
0
40
1
40
1
41
1
10
209.778155188844
20
18.3875109089679
30
0
41
1
10
209.914411382891
20
18.2310350062542
30
0
0
SPLINE
5
288
100
AcDbEntity
8
1
62
256
6
ByLayer
370
13
48
1
60
0
100
AcDbSpline
70
4
71
3
72
20
73
16
40
0
40
0
40
0
40
0
40
0.0624999999999938
40
0.0624999999999938
40
0.124999999999988
40
0.124999999999988
40
0.156249999999985
40
0.156249999999985
40
0.187499999999981
40
0.187499999999981
40
0.249999999999975
40
0.249999999999975
40
0.499999999999983
40
0.499999999999983
40
1
40
1
40
1
40
1
41
1
10
211.776386254744
20
7.2203554176611
30
0
41
1
10
211.864642076864
20
7.27705244535437
30
0
41
1
10
211.956933449956
20
7.32461782634041
30
0
41
1
10
212.149303148356
20
7.40212826903951
30
0
41
1
10
212.250498330439
20
7.43226724877689
30
0
41
1
10
212.402937437964
20
7.46227301674566
30
0
41
1
10
212.453919716738
20
7.46986063511005
30
0
41
1
10
212.556218078166
20
7.48027405324927
30
0
41
1
10
212.607584277546
20
7.48238492198402
30
0
41
1
10
212.761560421856
20
7.49046437103661
30
0
41
1
10
212.864211184049
20
7.49585068010416
30
0
41
1
10
213.377469066886
20
7.52272413889648
30
0
41
1
10
213.788071711604
20
7.54427513914439
30
0
41
1
10
215.019886570231
20
7.60882936004572
30
0
41
1
10
215.841096831708
20
7.65186018081766
30
0
41
1
10
216.662306691838
20
7.69489796591245
30
0
0
SPLINE
5
289
100
AcDbEntity
8
1
62
256
6
ByLayer
370
13
48
1
60
0
100
AcDbSpline
70
4
71
1
72
4
73
2
40
0
40
0
40
1
40
1
41
1
10
209.687398411918
20
6.63524705433761
30
0
41
1
10
209.657367232796
20
6.634404008942
30
0
0
SPLINE
5
28A
100
AcDbEntity
8
1
62
256
6
ByLayer
370
13
48
1
60
0
100
AcDbSpline
70
4
71
3
72
11
73
7
40
0
40
0
40
0
40
0
40
0.25
40
0.5
40
0.75
40
1
40
1
40
1
40
1
41
1
10
209.778155188844
20
18.3875109089679
30
0
41
1
10
209.793611087492
20
18.3887908669047
30
0
41
1
10
209.824559680175
20
18.3908726369777
30
0
41
1
10
209.871003624843
20
18.3936368048205
30
0
41
1
10
209.917442076374
20
18.3964944910586
30
0
41
1
10
209.948401654339
20
18.3983892242802
30
0
41
1
10
209.963881443428
20
18.3993365908976
30
0
0
SPLINE
5
28B
100
AcDbEntity
8
1
62
256
6
ByLayer
370
13
48
1
60
0
100
AcDbSpline
70
4
71
3
72
8
73
4
40
0
40
0
40
0
40
0
40
1
40
1
40
1
40
1
41
1
10
222.138215030586
20
19.0270125578078
30
0
41
1
10
222.07184321227
20
19.0270281918742
30
0
41
1
10
222.005460690658
20
19.0262879761609
30
0
41
1
10
221.939068109188
20
19.0248373491775
30
0
0
SPLINE
5
28C
100
AcDbEntity
8
1
62
256
6
ByLayer
370
13
48
1
60
0
100
AcDbSpline
70
4
71
1
72
4
73
2
40
0
40
0
40
1
40
1
41
1
10
208.853826962868
20
11.9133922416721
30
0
41
1
10
208.681147682917
20
11.9085447306502
30
0
0
SPLINE
5
28D
100
AcDbEntity
8
1
62
256
6
ByLayer
370
13
48
1
60
0
100
AcDbSpline
70
4
71
3
72
20
73
16
40
0
40
0
40
0
40
0
40
0.0625000000000063
40
0.0625000000000063
40
0.125000000000013
40
0.125000000000013
40
0.156250000000016
40
0.156250000000016
40
0.187500000000019
40
0.187500000000019
40
0.250000000000025
40
0.250000000000025
40
0.500000000000017
40
0.500000000000017
40
1
40
1
40
1
40
1
41
1
10
221.045278589438
20
17.7662703431554
30
0
41
1
10
220.957022767318
20
17.7095733154622
30
0
41
1
10
220.864731394226
20
17.6620079344761
30
0
41
1
10
220.672361695826
20
17.584497491777
30
0
41
1
10
220.571166513743
20
17.5543585120396
30
0
41
1
10
220.418727406218
20
17.5243527440709
30
0
41
1
10
220.367745127444
20
17.5167651257065
30
0
41
1
10
220.265446766015
20
17.5063517075672
30
0
41
1
10
220.214080566636
20
17.5042408388325
30
0
41
1
10
220.060104422326
20
17.4961613897799
30
0
41
1
10
219.957453660133
20
17.4907750807124
30
0
41
1
10
219.444195777296
20
17.4639016219201
30
0
41
1
10
219.033593132578
20
17.4423506216722
30
0
41
1
10
217.801778273951
20
17.3777964007708
30
0
41
1
10
216.980568012474
20
17.3347655799988
30
0
41
1
10
216.159358152344
20
17.2917277949041
30
0
0
SPLINE
5
28E
100
AcDbEntity
8
1
62
256
6
ByLayer
370
13
48
1
60
0
100
AcDbSpline
70
4
71
2
72
6
73
3
40
0
40
0
40
0
40
1
40
1
40
1
41
1
10
208.844062250779
20
12.0280689798337
30
0
41
0.997409491337352
10
208.843297368134
20
12.0857591135217
30
0
41
1
10
208.850783263238
20
12.1429587506714
30
0
0
SPLINE
5
28F
100
AcDbEntity
8
1
62
256
6
ByLayer
370
13
48
1
60
0
100
AcDbSpline
70
4
71
1
72
4
73
2
40
0
40
0
40
1
40
1
41
1
10
208.606530433926
20
12.2649100774351
30
0
41
1
10
208.662366788626
20
12.2669055417275
30
0
0
SPLINE
5
290
100
AcDbEntity
8
SK1
62
256
6
ByLayer
370
13
48
1
60
0
100
AcDbSpline
70
4
71
3
72
22
73
18
40
0
40
0
40
0
40
0
40
0.249999999999984
40
0.249999999999984
40
0.499999999999968
40
0.499999999999968
40
0.624999999999959
40
0.624999999999959
40
0.749999999999951
40
0.749999999999951
40
0.812499999999963
40
0.812499999999963
40
0.874999999999976
40
0.874999999999976
40
0.937499999999988
40
0.937499999999988
40
1
40
1
40
1
40
1
41
1
10
-68.5162221139001
20
8.8730422260912
30
0
41
1
10
-68.4806148031928
20
8.77446247050247
30
0
41
1
10
-68.439030376807
20
8.67849216034347
30
0
41
1
10
-68.3371998535552
20
8.49469871558048
30
0
41
1
10
-68.2767685878681
20
8.40593562609388
30
0
41
1
10
-68.1637425351441
20
8.2951603566016
30
0
41
1
10
-68.1227917757747
20
8.26245866462776
30
0
41
1
10
-68.0301397358031
20
8.2109172856386
30
0
41
1
10
-67.979238160389
20
8.19317027456333
30
0
41
1
10
-67.8997825758302
20
8.18561435729944
30
0
41
1
10
-67.8728381623004
20
8.18629209054791
30
0
41
1
10
-67.8203470589832
20
8.19382805997071
30
0
41
1
10
-67.7948393210407
20
8.20058148467908
30
0
41
1
10
-67.7451106763606
20
8.21929528168133
30
0
41
1
10
-67.7210452240317
20
8.23125325856924
30
0
41
1
10
-67.6758001698851
20
8.25847389471045
30
0
41
1
10
-67.6543432159221
20
8.27384033348378
30
0
41
1
10
-67.6338131992796
20
8.29060335030459
30
0
0
SPLINE
5
291
100
AcDbEntity
8
SK1
62
256
6
ByLayer
370
13
48
1
60
0
100
AcDbSpline
70
4
71
3
72
10
73
6
40
0
40
0
40
0
40
0
40
0.5
40
0.5
40
1
40
1
40
1
40
1
41
1
10
-70
20
6.62311105146222
30
0
41
1
10
-69.8530506944621
20
7.04458201673972
30
0
41
1
10
-69.694319575278
20
7.46427372903668
30
0
41
1
10
-69.3597590551627
20
8.29110810010306
30
0
41
1
10
-69.18366079479
20
8.69916157830215
30
0
41
1
10
-69
20
9.10261500888626
30
0
0
SPLINE
5
292
100
AcDbEntity
8
SK1
62
256
6
ByLayer
370
13
48
1
60
0
100
AcDbSpline
70
4
71
3
72
8
73
4
40
0
40
0
40
0
40
0
40
1
40
1
40
1
40
1
41
1
10
-68.5999993841625
20
9.10261500888626
30
0
41
1
10
-68.5718317815599
20
9.02620370178852
30
0
41
1
10
-68.5439040453543
20
8.94968036535744
30
0
41
1
10
-68.5162221139001
20
8.8730422260912
30
0
0
SPLINE
5
293
100
AcDbEntity
8
SK1
62
256
6
ByLayer
370
13
48
1
60
0
100
AcDbSpline
70
4
71
3
72
8
73
4
40
0
40
0
40
0
40
0
40
1
40
1
40
1
40
1
41
1
10
-67.6338131992796
20
8.29060335030476
30
0
41
1
10
-67.2944948862475
20
8.56766102093468
30
0
41
1
10
-66.9495650728325
20
8.83793743673166
30
0
41
1
10
-66.6000022063887
20
9.10261500888626
30
0
0
SPLINE
5
294
100
AcDbEntity
8
1
62
256
6
ByLayer
370
13
48
1
60
0
100
AcDbSpline
70
4
71
3
72
62
73
58
40
0
40
0
40
0
40
0
40
0.0021435458409305
40
0.0021435458409305
40
0.0206223690660987
40
0.0206223690660987
40
0.0391011922912669
40
0.0391011922912669
40
0.0575800155164352
40
0.0575800155164352
40
0.0760588387416034
40
0.0760588387416034
40
0.113016485191939
40
0.113016485191939
40
0.131495308417107
40
0.131495308417107
40
0.149974131642275
40
0.149974131642275
40
0.186931778092611
40
0.186931778092611
40
0.205410601317778
40
0.205410601317778
40
0.223889424542946
40
0.223889424542946
40
0.260847070993282
40
0.260847070993282
40
0.279325894218449
40
0.279325894218449
40
0.297804717443617
40
0.297804717443617
40
0.334762363893953
40
0.334762363893953
40
0.344001775506537
40
0.344001775506537
40
0.353241187119121
40
0.353241187119121
40
0.371720010344289
40
0.371720010344289
40
0.408677656794624
40
0.408677656794624
40
0.44563530324496
40
0.44563530324496
40
0.482592949695296
40
0.482592949695296
40
0.556508242595968
40
0.556508242595968
40
0.593465889046304
40
0.593465889046304
40
0.63042353549664
40
0.63042353549664
40
0.704338828397312
40
0.704338828397312
40
0.778254121297984
40
0.778254121297984
40
0.852169414198656
40
0.852169414198656
40
1
40
1
40
1
40
1
41
1
10
170.504138200914
20
-15.1130310130678
30
0
41
1
10
170.410987120954
20
-15.1347390406681
30
0
41
1
10
170.317834858117
20
-15.1563346391005
30
0
41
1
10
169.421631472878
20
-15.3629936358977
30
0
41
1
10
168.618826611775
20
-15.5392879348101
30
0
41
1
10
167.012824056464
20
-15.8698644304704
30
0
41
1
10
166.209320494368
20
-16.0245619650906
30
0
41
1
10
164.598188699021
20
-16.3117258849985
30
0
41
1
10
163.790570935437
20
-16.4438781513979
30
0
41
1
10
162.167152329498
20
-16.6920945562385
30
0
41
1
10
161.351364200857
20
-16.8066478715775
30
0
41
1
10
158.895255366017
20
-17.1171878049705
30
0
41
1
10
157.245290366137
20
-17.2812814675673
30
0
41
1
10
154.751210224117
20
-17.4755641462794
30
0
41
1
10
153.916505857253
20
-17.5318847171463
30
0
41
1
10
152.242835762451
20
-17.6306509485614
30
0
41
1
10
151.403632303429
20
-17.6731774990462
30
0
41
1
10
148.879011393624
20
-17.7843267172337
30
0
41
1
10
147.186055160383
20
-17.8364759596908
30
0
41
1
10
144.63592116901
20
-17.8902593236073
30
0
41
1
10
143.784259034454
20
-17.9032843778808
30
0
41
1
10
142.077181279455
20
-17.9206291629358
30
0
41
1
10
141.221695289935
20
-17.9257454447156
30
0
41
1
10
138.648316546669
20
-17.9383268139819
30
0
41
1
10
136.923586742264
20
-17.9410547365089
30
0
41
1
10
134.329341610028
20
-17.9354642552424
30
0
41
1
10
133.463137096903
20
-17.9319844121488
30
0
41
1
10
131.727776661909
20
-17.9215267008559
30
0
41
1
10
130.858371222153
20
-17.9143939173407
30
0
41
1
10
128.247331483363
20
-17.8886484212914
30
0
41
1
10
126.505088321728
20
-17.8662224686244
30
0
41
1
10
124.325465809909
20
-17.8580640387168
30
0
41
1
10
123.889450137955
20
-17.857403088069
30
0
41
1
10
123.017243815986
20
-17.8589216380721
30
0
41
1
10
122.581052684316
20
-17.8611683724695
30
0
41
1
10
121.272294239536
20
-17.868075960528
30
0
41
1
10
120.399562458655
20
-17.871114435866
30
0
41
1
10
117.780938076285
20
-17.8730834057517
30
0
41
1
10
116.034594612281
20
-17.8682445548855
30
0
41
1
10
112.541416886308
20
-17.8602938108097
30
0
41
1
10
110.794780792143
20
-17.857884193157
30
0
41
1
10
107.301568324248
20
-17.8587417917404
30
0
41
1
10
105.55495980706
20
-17.8629212231242
30
0
41
1
10
100.315111327035
20
-17.8683917710732
30
0
41
1
10
96.8218516280548
20
-17.864478223506
30
0
41
1
10
91.5819719708059
20
-17.8595873037328
30
0
41
1
10
89.8353455024719
20
-17.8583698435594
30
0
41
1
10
86.3420915154926
20
-17.8583724951683
30
0
41
1
10
84.5954641254711
20
-17.8591497583546
30
0
41
1
10
79.3555812365149
20
-17.8616899026595
30
0
41
1
10
75.8623256129551
20
-17.8638464746389
30
0
41
1
10
68.8758142682043
20
-17.8645112528992
30
0
41
1
10
65.3825584158507
20
-17.8636726223239
30
0
41
1
10
58.3960467473298
20
-17.8630422842859
30
0
41
1
10
54.9027908997303
20
-17.8630229313385
30
0
41
1
10
44.4230233711711
20
-17.8626393270629
30
0
41
1
10
37.4365116987596
20
-17.8620788625424
30
0
41
1
10
30.4499999999999
20
-17.8621749652642
30
0
0
SPLINE
5
295
100
AcDbEntity
8
1
62
256
6
ByLayer
370
13
48
1
60
0
100
AcDbSpline
70
4
71
3
72
12
73
8
40
0
40
0
40
0
40
0
40
0.276149140151602
40
0.276149140151602
40
0.638074570075801
40
0.638074570075801
40
1
40
1
40
1
40
1
41
1
10
185.827309472614
20
7.91179314630443
30
0
41
1
10
187.094674123305
20
7.41712519137428
30
0
41
1
10
188.361552280116
20
6.91117558657245
30
0
41
1
10
191.289691651099
20
5.72029832453021
30
0
41
1
10
192.951917827149
20
5.0283088490223
30
0
41
1
10
196.273182116316
20
3.62311913762568
30
0
41
1
10
197.933091157618
20
2.90958229474126
30
0
41
1
10
199.593832472442
20
2.18857395135728
30
0
0
SPLINE
5
296
100
AcDbEntity
8
1
62
256
6
ByLayer
370
13
48
1
60
0
100
AcDbSpline
70
4
71
3
72
14
73
10
40
0
40
0
40
0
40
0
40
0.25
40
0.25
40
0.5
40
0.5
40
0.75
40
0.75
40
1
40
1
40
1
40
1
41
1
10
204.981740165846
20
8.66054924660867
30
0
41
1
10
204.979786181458
20
8.73862127211197
30
0
41
1
10
204.973571447306
20
8.8166936480965
30
0
41
1
10
204.951165049986
20
8.9728392207488
30
0
41
1
10
204.935033244063
20
9.05005671532197
30
0
41
1
10
204.892583501651
20
9.20037581345602
30
0
41
1
10
204.866218781269
20
9.27381571763263
30
0
41
1
10
204.802407693999
20
9.41698792754471
30
0
41
1
10
204.764746066459
20
9.48695284966496
30
0
41
1
10
204.722069522055
20
9.55356960540439
30
0
0
SPLINE
5
297
100
AcDbEntity
8
1
62
256
6
ByLayer
370
13
48
1
60
0
100
AcDbSpline
70
4
71
3
72
8
73
4
40
0
40
0
40
0
40
0
40
1
40
1
40
1
40
1
41
1
10
198.456444862811
20
2.48368780687082
30
0
41
1
10
198.837394803728
20
2.37698275852043
30
0
41
1
10
199.21661925089
20
2.27817552887438
30
0
41
1
10
199.593832472442
20
2.18857395135728
30
0
0
SPLINE
5
298
100
AcDbEntity
8
1
62
256
6
ByLayer
370
13
48
1
60
0
100
AcDbSpline
70
4
71
3
72
12
73
8
40
0
40
0
40
0
40
0
40
0.3832204823505
40
0.3832204823505
40
0.766440964701001
40
0.766440964701001
40
1
40
1
40
1
40
1
41
1
10
208.940780711297
20
13.260185566632
30
0
41
1
10
208.920747746211
20
13.2308652837175
30
0
41
1
10
208.902161264429
20
13.2017712716892
30
0
41
1
10
208.868032405932
20
13.1446748913529
30
0
41
1
10
208.852509959737
20
13.1166811300578
30
0
41
1
10
208.830988926878
20
13.0746671534488
30
0
41
1
10
208.823522171992
20
13.0592155212684
30
0
41
1
10
208.817204555408
20
13.0452002117951
30
0
0
SPLINE
5
299
100
AcDbEntity
8
1
62
256
6
ByLayer
370
13
48
1
60
0
100
AcDbSpline
70
4
71
3
72
20
73
16
40
0
40
0
40
0
40
0
40
0.250000000000004
40
0.250000000000004
40
0.312500000000004
40
0.312500000000004
40
0.375000000000003
40
0.375000000000003
40
0.500000000000002
40
0.500000000000002
40
0.625000000000002
40
0.625000000000002
40
0.750000000000001
40
0.750000000000001
40
1
40
1
40
1
40
1
41
1
10
6.56503924499751
20
-18.1848071328326
30
0
41
1
10
6.40519567798266
20
-18.4449192554337
30
0
41
1
10
6.28372351078521
20
-18.70190282459
30
0
41
1
10
6.17979264198624
20
-19.0184317802034
30
0
41
1
10
6.16143569565023
20
-19.0815028127486
30
0
41
1
10
6.12972008685043
20
-19.2071558182471
30
0
41
1
10
6.11633086399694
20
-19.2699323304502
30
0
41
1
10
6.08421433969804
20
-19.4559652890989
30
0
41
1
10
6.0735056947243
20
-19.5765205703661
30
0
41
1
10
6.07340101828089
20
-19.8108020861561
30
0
41
1
10
6.0839191308756
20
-19.9245407716988
30
0
41
1
10
6.12573469789992
20
-20.1452912389833
30
0
41
1
10
6.15714732185093
20
-20.252582655453
30
0
41
1
10
6.28245869193738
20
-20.5623964340255
30
0
41
1
10
6.40499610283469
20
-20.7486288518252
30
0
41
1
10
6.56503068259451
20
-20.9159834305481
30
0
0
SPLINE
5
29A
100
AcDbEntity
8
1
62
256
6
ByLayer
370
13
48
1
60
0
100
AcDbSpline
70
4
71
3
72
14
73
10
40
0
40
0
40
0
40
0
40
0.124999999999962
40
0.124999999999962
40
0.249999999999924
40
0.249999999999924
40
0.499999999999924
40
0.499999999999924
40
1
40
1
40
1
40
1
41
1
10
218.054704309832
20
7.29722543033157
30
0
41
1
10
218.08774252165
20
7.29895688964447
30
0
41
1
10
218.121413290871
20
7.30156249805805
30
0
41
1
10
218.188067960622
20
7.30843251675719
30
0
41
1
10
218.221334155679
20
7.31271178065489
30
0
41
1
10
218.320557694701
20
7.32801635798947
30
0
41
1
10
218.386107875865
20
7.34151445605144
30
0
41
1
10
218.581484355439
20
7.39204587352478
30
0
41
1
10
218.709976378917
20
7.43887974236776
30
0
41
1
10
218.838371678002
20
7.50148230132694
30
0
0
SPLINE
5
29B
100
AcDbEntity
8
1
62
256
6
ByLayer
370
13
48
1
60
0
100
AcDbSpline
70
4
71
3
72
44
73
40
40
0
40
0
40
0
40
0
40
0.0378429527379686
40
0.0378429527379686
40
0.0756859054759371
40
0.0756859054759371
40
0.151371810951873
40
0.151371810951873
40
0.227057716427809
40
0.227057716427809
40
0.264900669165777
40
0.264900669165777
40
0.302743621903745
40
0.302743621903745
40
0.454115432855616
40
0.454115432855616
40
0.491958385593584
40
0.491958385593584
40
0.529801338331551
40
0.529801338331551
40
0.605487243807486
40
0.605487243807486
40
0.681173149283422
40
0.681173149283422
40
0.71901610202139
40
0.71901610202139
40
0.756859054759358
40
0.756859054759358
40
0.832544960235293
40
0.832544960235293
40
0.87038791297326
40
0.87038791297326
40
0.908230865711227
40
0.908230865711227
40
0.946073818449194
40
0.946073818449194
40
0.983916771187161
40
0.983916771187161
40
1
40
1
40
1
40
1
41
1
10
198.456444862811
20
2.48368780687082
30
0
41
1
10
197.545745266558
20
2.89053788126202
30
0
41
1
10
196.635028541783
20
3.29512613392612
30
0
41
1
10
194.812997897128
20
4.09855979122972
30
0
41
1
10
193.901251366615
20
4.49759167321392
30
0
41
1
10
191.167508370358
20
5.68267875330235
30
0
41
1
10
189.348311182497
20
6.45619187844892
30
0
41
1
10
185.711352558383
20
7.95956738885386
30
0
41
1
10
183.893582336004
20
8.68940736547015
30
0
41
1
10
181.163984769851
20
9.74333057181832
30
0
41
1
10
180.25362734191
20
10.0878317345703
30
0
41
1
10
178.431271594843
20
10.7619152357648
30
0
41
1
10
177.519381959753
20
11.0914555166198
30
0
41
1
10
172.966916281452
20
12.6944980319994
30
0
41
1
10
169.337465274721
20
13.8378377040822
30
0
41
1
10
164.788465189539
20
15.0486942610343
30
0
41
1
10
163.877989598602
20
15.2804791281908
30
0
41
1
10
162.053978117212
20
15.7171146567229
30
0
41
1
10
161.14114719672
20
15.9215207173944
30
0
41
1
10
158.391620018265
20
16.4855658227341
30
0
41
1
10
156.5427330313
20
16.7948549667743
30
0
41
1
10
152.801013694748
20
17.2999036848491
30
0
41
1
10
150.908406584972
20
17.4966769954212
30
0
41
1
10
148.042491758019
20
17.7341841312467
30
0
41
1
10
147.083596975116
20
17.8036088754363
30
0
41
1
10
145.162519503045
20
17.9265507553597
30
0
41
1
10
144.200023238609
20
17.9801904405017
30
0
41
1
10
141.307035958383
20
18.1210172417854
30
0
41
1
10
139.37024532434
20
18.1870251865977
30
0
41
1
10
136.44443628367
20
18.2545587451814
30
0
41
1
10
135.465814959295
20
18.2719519132233
30
0
41
1
10
133.50095638754
20
18.2989563134531
30
0
41
1
10
132.514247506021
20
18.3085641102991
30
0
41
1
10
130.538839446575
20
18.3225917052382
30
0
41
1
10
129.549510104466
20
18.3270300022753
30
0
41
1
10
127.567863470556
20
18.3328213328982
30
0
41
1
10
126.575561942723
20
18.334159588748
30
0
41
1
10
125.159206732896
20
18.3349271714492
30
0
41
1
10
124.736488971338
20
18.3350126123298
30
0
41
1
10
124.313464524468
20
18.3350017909238
30
0
0
SPLINE
5
29C
100
AcDbEntity
8
1
62
256
6
ByLayer
370
13
48
1
60
0
100
AcDbSpline
70
4
71
3
72
10
73
6
40
0
40
0
40
0
40
0
40
0.5
40
0.5
40
1
40
1
40
1
40
1
41
1
10
218.838371678002
20
7.50148230132694
30
0
41
1
10
218.865504477451
20
7.51471162272222
30
0
41
1
10
218.89513801411
20
7.525688369969
30
0
41
1
10
218.956545785666
20
7.54148607131049
30
0
41
1
10
218.988306093813
20
7.54641004018274
30
0
41
1
10
219.021123485497
20
7.54814774600015
30
0
0
SPLINE
5
29D
100
AcDbEntity
8
1
62
256
6
ByLayer
370
13
48
1
60
0
100
AcDbSpline
70
4
71
3
72
14
73
10
40
0
40
0
40
0
40
0
40
0.25
40
0.25
40
0.5
40
0.5
40
0.75
40
0.75
40
1
40
1
40
1
40
1
41
1
10
212.056798085537
20
6.82208218803376
30
0
41
1
10
212.089923676342
20
6.81534920519377
30
0
41
1
10
212.120099066679
20
6.80697111239627
30
0
41
1
10
212.171329797849
20
6.78757775752203
30
0
41
1
10
212.192796409387
20
6.77635178790959
30
0
41
1
10
212.224484841139
20
6.75258269231776
30
0
41
1
10
212.235297216733
20
6.73964176514966
30
0
41
1
10
212.246082090679
20
6.71334364348556
30
0
41
1
10
212.246240584471
20
6.70009576108154
30
0
41
1
10
212.241720899004
20
6.68675955043014
30
0
0
SPLINE
5
29E
100
AcDbEntity
8
1
62
256
6
ByLayer
370
13
48
1
60
0
100
AcDbSpline
70
4
71
3
72
18
73
14
40
0
40
0
40
0
40
0
40
0.25
40
0.25
40
0.374999999999999
40
0.374999999999999
40
0.499999999999999
40
0.499999999999999
40
0.75
40
0.75
40
0.875
40
0.875
40
1
40
1
40
1
40
1
41
1
10
212.804288032277
20
7.02206277291336
30
0
41
1
10
212.79896748244
20
7.02178393471186
30
0
41
1
10
212.800231426661
20
7.03204238684492
30
0
41
1
10
212.815496522322
20
7.06046071771169
30
0
41
1
10
212.822855176795
20
7.07196522648715
30
0
41
1
10
212.842797435985
20
7.09746358606756
30
0
41
1
10
212.855648516755
20
7.11170837096458
30
0
41
1
10
212.901731778361
20
7.15417537971399
30
0
41
1
10
212.943919472431
20
7.18286811884153
30
0
41
1
10
213.017208437831
20
7.21405338772104
30
0
41
1
10
213.043720551619
20
7.2227313699976
30
0
41
1
10
213.097865274397
20
7.23521290805027
30
0
41
1
10
213.125730597766
20
7.23916773040344
30
0
41
1
10
213.154398942101
20
7.2406857410154
30
0
0
SPLINE
5
29F
100
AcDbEntity
8
1
62
256
6
ByLayer
370
13
48
1
60
0
100
AcDbSpline
70
4
71
3
72
14
73
10
40
0
40
0
40
0
40
0
40
0.499999999999958
40
0.499999999999958
40
0.749999999999979
40
0.749999999999979
40
0.874999999999989
40
0.874999999999989
40
1
40
1
40
1
40
1
41
1
10
214.838762199696
20
7.29187165056948
30
0
41
1
10
214.982391664728
20
7.24352530540764
30
0
41
1
10
215.125970066845
20
7.21095004337872
30
0
41
1
10
215.342911036845
20
7.1820272677972
30
0
41
1
10
215.41547670445
20
7.17576751465302
30
0
41
1
10
215.52487366335
20
7.17139627432746
30
0
41
1
10
215.561476706542
20
7.17077870204656
30
0
41
1
10
215.634650103107
20
7.17123676178448
30
0
41
1
10
215.671528869695
20
7.17232849787209
30
0
41
1
10
215.707624509874
20
7.17422019021566
30
0
0
SPLINE
5
2A0
100
AcDbEntity
8
1
62
256
6
ByLayer
370
13
48
1
60
0
100
AcDbSpline
70
4
71
3
72
18
73
14
40
0
40
0
40
0
40
0
40
0.125
40
0.125
40
0.25
40
0.25
40
0.375
40
0.375
40
0.5
40
0.5
40
0.75
40
0.75
40
1
40
1
40
1
40
1
41
1
10
107.6
20
-18.2656486392123
30
0
41
1
10
104.575032040137
20
-18.2748636714339
30
0
41
1
10
101.550037480883
20
-18.283345615612
30
0
41
1
10
95.5000350130151
20
-18.299763622594
30
0
41
1
10
92.475032283715
20
-18.3077275189225
30
0
41
1
10
86.4250266654471
20
-18.323629580875
30
0
41
1
10
83.4000238500625
20
-18.3315889509247
30
0
41
1
10
77.3500194825753
20
-18.3476616192341
30
0
41
1
10
74.325017832494
20
-18.3557555701277
30
0
41
1
10
65.2500137958739
20
-18.3801346438477
30
0
41
1
10
59.2000112377403
20
-18.3964041634759
30
0
41
1
10
47.1000050756737
20
-18.4288386507373
30
0
41
1
10
41.0500022372909
20
-18.4450763337877
30
0
41
1
10
35
20
-18.4613659176384
30
0
0
SPLINE
5
2A1
100
AcDbEntity
8
1
62
256
6
ByLayer
370
13
48
1
60
0
100
AcDbSpline
70
4
71
3
72
8
73
4
40
0
40
0
40
0
40
0
40
1
40
1
40
1
40
1
41
1
10
206.049874773368
20
6.45079785614573
30
0
41
1
10
206.593762549603
20
6.29463189210435
30
0
41
1
10
207.127741363934
20
6.14212899415341
30
0
41
1
10
207.650765790301
20
5.99367562706899
30
0
0
SPLINE
5
2A2
100
AcDbEntity
8
1
62
256
6
ByLayer
370
13
48
1
60
0
100
AcDbSpline
70
4
71
3
72
8
73
4
40
0
40
0
40
0
40
0
40
1
40
1
40
1
40
1
41
1
10
201.679243394674
20
6.58144422098076
30
0
41
1
10
201.152525744107
20
6.70885822352068
30
0
41
1
10
200.615383241388
20
6.80574338959832
30
0
41
1
10
200.068715535519
20
6.87739959511646
30
0
0
SPLINE
5
2A3
100
AcDbEntity
8
1
62
256
6
ByLayer
370
13
48
1
60
0
100
AcDbSpline
70
4
71
3
72
12
73
8
40
0
40
0
40
0
40
0
40
0.405469502468769
40
0.405469502468769
40
0.702734751234385
40
0.702734751234385
40
1
40
1
40
1
40
1
41
1
10
184.364130696566
20
8.49910919118472
30
0
41
1
10
186.770028974346
20
8.65489056054329
30
0
41
1
10
189.175073370396
20
8.76648698712
30
0
41
1
10
193.34494405679
20
8.87943273537488
30
0
41
1
10
195.109830041188
20
8.90228810507091
30
0
41
1
10
198.639307561184
20
8.89703855131171
30
0
41
1
10
200.403788576976
20
8.86895353826765
30
0
41
1
10
202.168674051505
20
8.81519513797434
30
0
0
SPLINE
5
2A4
100
AcDbEntity
8
1
62
256
6
ByLayer
370
13
48
1
60
0
100
AcDbSpline
70
4
71
3
72
20
73
16
40
0
40
0
40
0
40
0
40
0.302779545723486
40
0.302779545723486
40
0.605559091446973
40
0.605559091446973
40
0.681253977877845
40
0.681253977877845
40
0.756948864308716
40
0.756948864308716
40
0.90833863717046
40
0.90833863717046
40
0.984033523601338
40
0.984033523601338
40
1
40
1
40
1
40
1
41
1
10
196.023971931707
20
6.9676945440516
30
0
41
1
10
195.491125817473
20
6.92521269967494
30
0
41
1
10
194.962888093688
20
6.8621849389362
30
0
41
1
10
193.916385399807
20
6.69458895326963
30
0
41
1
10
193.398081563674
20
6.59017522705037
30
0
41
1
10
192.757708800629
20
6.43016104439693
30
0
41
1
10
192.629752430944
20
6.39658190810528
30
0
41
1
10
192.377343351497
20
6.32699148794342
30
0
41
1
10
192.252621839483
20
6.29091990030278
30
0
41
1
10
191.883109501112
20
6.17876741687164
30
0
41
1
10
191.642939572423
20
6.09878399510342
30
0
41
1
10
191.293201000732
20
5.97004325115248
30
0
41
1
10
191.178380957681
20
5.92566108594391
30
0
41
1
10
191.04166896089
20
5.86996598951259
30
0
41
1
10
191.017928105406
20
5.86018654579212
30
0
41
1
10
190.994278216047
20
5.85033483612565
30
0
0
SPLINE
5
2A5
100
AcDbEntity
8
1
62
256
6
ByLayer
370
13
48
1
60
0
100
AcDbSpline
70
4
71
3
72
8
73
4
40
0
40
0
40
0
40
0
40
1
40
1
40
1
40
1
41
1
10
207.412560194403
20
-18.4339894639522
30
0
41
1
10
206.412560194017
20
-18.3709943556793
30
0
41
1
10
205.412560194013
20
-18.3079992414063
30
0
41
1
10
204.412560194403
20
-18.2450041209447
30
0
0
SPLINE
5
2A6
100
AcDbEntity
8
1
62
256
6
ByLayer
370
13
48
1
60
0
100
AcDbSpline
70
4
71
3
72
10
73
6
40
0
40
0
40
0
40
0
40
0.5
40
0.5
40
1
40
1
40
1
40
1
41
1
10
203.421069715712
20
5.73188632782129
30
0
41
1
10
203.144673245663
20
5.89055904869261
30
0
41
1
10
202.86041844315
20
6.03958127575299
30
0
41
1
10
202.279057137757
20
6.32184308699937
30
0
41
1
10
201.981933029708
20
6.45506105100327
30
0
41
1
10
201.67924339467
20
6.58144422098297
30
0
0
SPLINE
5
2A7
100
AcDbEntity
8
1
62
256
6
ByLayer
370
13
48
1
60
0
100
AcDbSpline
70
4
71
3
72
8
73
4
40
0
40
0
40
0
40
0
40
1
40
1
40
1
40
1
41
1
10
199.363992416407
20
17.5051223306343
30
0
41
1
10
199.478349815253
20
17.6959137167335
30
0
41
1
10
199.59098400343
20
17.8877454059807
30
0
41
1
10
199.701991785702
20
18.0805589572921
30
0
0
SPLINE
5
2A8
100
AcDbEntity
8
1
62
256
6
ByLayer
370
13
48
1
60
0
100
AcDbSpline
70
4
71
3
72
19
73
15
40
0
40
0
40
0
40
0
40
0.125000000000001
40
0.125000000000001
40
0.250000000000001
40
0.250000000000001
40
0.281250000000001
40
0.281250000000001
40
0.312500000000001
40
0.312500000000001
40
0.375000000000001
40
0.500000000000001
40
0.500000000000001
40
1
40
1
40
1
40
1
41
1
10
26.3691698016752
20
-7.27435180940415
30
0
41
1
10
25.8030382219116
20
-7.3596765855641
30
0
41
1
10
25.2417548775032
20
-7.46474724709486
30
0
41
1
10
24.1288735434551
20
-7.71433506790814
30
0
41
1
10
23.5759587405202
20
-7.85930294570022
30
0
41
1
10
22.8970939911688
20
-8.06371534832778
30
0
41
1
10
22.7618928872193
20
-8.1057629535949
30
0
41
1
10
22.4926314776087
20
-8.19218251805611
30
0
41
1
10
22.3588148553204
20
-8.23705097729734
30
0
41
1
10
21.9570998200888
20
-8.37111607972383
30
0
41
1
10
21.151458324672
20
-8.6347405500172
30
0
41
1
10
20.3392550503195
20
-8.88499552564281
30
0
41
1
10
17.6175746271835
20
-9.68996910440231
30
0
41
1
10
15.3945792246488
20
-10.2409348282834
30
0
41
1
10
13.1270409241484
20
-10.7011452794458
30
0
0
SPLINE
5
2A9
100
AcDbEntity
8
1
62
256
6
ByLayer
370
13
48
1
60
0
100
AcDbSpline
70
4
71
3
72
8
73
4
40
0
40
0
40
0
40
0
40
1
40
1
40
1
40
1
41
1
10
213.407241531028
20
5.87187409995104
30
0
41
1
10
214.005634806078
20
6.00931993037872
30
0
41
1
10
214.56642557375
20
6.08874225563497
30
0
41
1
10
215.08369185734
20
6.13306846138707
30
0
0
SPLINE
5
2AA
100
AcDbEntity
8
1
62
256
6
ByLayer
370
13
48
1
60
0
100
AcDbSpline
70
4
71
3
72
8
73
4
40
0
40
0
40
0
40
0
40
1
40
1
40
1
40
1
41
1
10
35
20
-6.5617942951001
30
0
41
1
10
33.3333333249641
20
-6.56201296944789
30
0
41
1
10
31.6666666557017
20
-6.56227771461491
30
0
41
1
10
30
20
-6.56260047784068
30
0
0
SPLINE
5
2AB
100
AcDbEntity
8
1
62
256
6
ByLayer
370
13
48
1
60
0
100
AcDbSpline
70
4
71
3
72
38
73
34
40
0
40
0
40
0
40
0
40
0.125
40
0.125
40
0.187499999999999
40
0.187499999999999
40
0.218749999999999
40
0.218749999999999
40
0.249999999999999
40
0.249999999999999
40
0.374999999999999
40
0.374999999999999
40
0.437499999999999
40
0.437499999999999
40
0.468749999999999
40
0.468749999999999
40
0.499999999999998
40
0.499999999999998
40
0.562499999999998
40
0.562499999999998
40
0.624999999999998
40
0.624999999999998
40
0.749999999999997
40
0.749999999999997
40
0.781249999999997
40
0.781249999999997
40
0.812499999999997
40
0.812499999999997
40
0.874999999999998
40
0.874999999999998
40
0.937499999999999
40
0.937499999999999
40
1
40
1
40
1
40
1
41
1
10
13.1289481669544
20
-10.7007581694658
30
0
41
1
10
12.6174647961549
20
-10.8045806592376
30
0
41
1
10
12.1167169724512
20
-10.9466434021986
30
0
41
1
10
11.3806934450814
20
-11.2140855815861
30
0
41
1
10
11.1378867220224
20
-11.3123598056415
30
0
41
1
10
10.7775132890415
20
-11.473702342973
30
0
41
1
10
10.6580293637583
20
-11.5298093594631
30
0
41
1
10
10.420362704011
20
-11.6467715334953
30
0
41
1
10
10.3023623050725
20
-11.7075484174526
30
0
41
1
10
9.72222501538045
20
-12.0199342294831
30
0
41
1
10
9.28431334529728
20
-12.2992936228916
30
0
41
1
10
8.6682232486142
20
-12.7632929220177
30
0
41
1
10
8.46968260415113
20
-12.9254783614882
30
0
41
1
10
8.18286709752525
20
-13.1807457799246
30
0
41
1
10
8.08887977495937
20
-13.2680878467428
30
0
41
1
10
7.90711444676009
20
-13.4447432073392
30
0
41
1
10
7.8190832420299
20
-13.5342522052558
30
0
41
1
10
7.56359934895798
20
-13.8062940621525
30
0
41
1
10
7.40471758812727
20
-13.9923254990336
30
0
41
1
10
7.11099104493326
20
-14.3739424830805
30
0
41
1
10
6.97586327109791
20
-14.5699662521467
30
0
41
1
10
6.61204532430165
20
-15.1707926414696
30
0
41
1
10
6.43407209121841
20
-15.5723821813765
30
0
41
1
10
6.29638291714305
20
-16.0746916567906
30
0
41
1
10
6.27315328566588
20
-16.1751738328254
30
0
41
1
10
6.23577668500057
20
-16.3761789371033
30
0
41
1
10
6.22168392076968
20
-16.4767515521417
30
0
41
1
10
6.19424317030199
20
-16.7725929526667
30
0
41
1
10
6.19538626327665
20
-16.9639818591895
30
0
41
1
10
6.23587190582606
20
-17.3353411950649
30
0
41
1
10
6.2750579281694
20
-17.5153343403192
30
0
41
1
10
6.39251193795577
20
-17.8637451422785
30
0
41
1
10
6.46976940184724
20
-18.0289772744211
30
0
41
1
10
6.56503924499752
20
-18.1848071328326
30
0
0
SPLINE
5
2AC
100
AcDbEntity
8
1
62
256
6
ByLayer
370
13
48
1
60
0
100
AcDbSpline
70
4
71
3
72
8
73
4
40
0
40
0
40
0
40
0
40
1
40
1
40
1
40
1
41
1
10
196.023971931707
20
6.9676945440516
30
0
41
1
10
193.440352185206
20
7.0030443238276
30
0
41
1
10
190.857610408965
20
6.99555265309715
30
0
41
1
10
188.274377666364
20
6.94640360251293
30
0
0
SPLINE
5
2AD
100
AcDbEntity
8
1
62
256
6
ByLayer
370
13
48
1
60
0
100
AcDbSpline
70
4
71
3
72
38
73
34
40
0
40
0
40
0
40
0
40
0.125
40
0.125
40
0.1875
40
0.1875
40
0.25
40
0.25
40
0.3125
40
0.3125
40
0.34375
40
0.34375
40
0.375
40
0.375
40
0.4375
40
0.4375
40
0.46875
40
0.46875
40
0.5
40
0.5
40
0.5625
40
0.5625
40
0.59375
40
0.59375
40
0.625
40
0.625
40
0.75
40
0.75
40
0.875
40
0.875
40
0.9375
40
0.9375
40
1
40
1
40
1
40
1
41
1
10
5.45520000000113
20
-4.94974746834356
30
0
41
1
10
5.86911616371458
20
-4.65887201317139
30
0
41
1
10
6.25884054720001
20
-4.34134509058623
30
0
41
1
10
6.79821305446012
20
-3.815243520938
30
0
41
1
10
6.9704124252532
20
-3.63151300768266
30
0
41
1
10
7.29703903562377
20
-3.2444728773819
30
0
41
1
10
7.44967795912837
20
-3.04314827437705
30
0
41
1
10
7.72883691543409
20
-2.62626370787589
30
0
41
1
10
7.8557523347235
20
-2.41026898099065
30
0
41
1
10
8.02445452407669
20
-2.07335302861665
30
0
41
1
10
8.07706623615468
20
-1.95888745571858
30
0
41
1
10
8.17443747571458
20
-1.72527351570855
30
0
41
1
10
8.21923017176333
20
-1.60589577343635
30
0
41
1
10
8.33891536651012
20
-1.24622860098793
30
0
41
1
10
8.39998472023954
20
-1.00261958391187
30
0
41
1
10
8.46191794055787
20
-0.631134409927654
30
0
41
1
10
8.47760778670012
20
-0.506292148412115
30
0
41
1
10
8.4986839814232
20
-0.254499182315499
30
0
41
1
10
8.50404938550309
20
-0.126936877054106
30
0
41
1
10
8.50407135043457
20
0.253084799266787
30
0
41
1
10
8.48298466533798
20
0.503413487367567
30
0
41
1
10
8.4214341462523
20
0.874625611806692
30
0
41
1
10
8.39591966016081
20
0.997647942782919
30
0
41
1
10
8.33506455554478
20
1.24228671986899
30
0
41
1
10
8.2996124185818
20
1.36423050178007
30
0
41
1
10
8.0992944966561
20
1.96674395428022
30
0
41
1
10
7.87049172302238
20
2.41511685392283
30
0
41
1
10
7.30494280354954
20
3.25889303780028
30
0
41
1
10
6.97848517383356
20
3.63920917994676
30
0
41
1
10
6.44091420220647
20
4.16384940915145
30
0
41
1
10
6.25358402228282
20
4.33095640089314
30
0
41
1
10
5.86426968879755
20
4.65117669984198
30
0
41
1
10
5.66219926081808
20
4.80428080265392
30
0
41
1
10
5.45520000000114
20
4.94974746834353
30
0
0
SPLINE
5
2AE
100
AcDbEntity
8
1
62
256
6
ByLayer
370
13
48
1
60
0
100
AcDbSpline
70
4
71
3
72
8
73
4
40
0
40
0
40
0
40
0
40
1
40
1
40
1
40
1
41
1
10
35
20
-18.4613659176384
30
0
41
1
10
33.3333333260307
20
-18.4613840450038
30
0
41
1
10
31.666666657372
20
-18.4614060878267
30
0
41
1
10
30
20
-18.4614326827401
30
0
0
SPLINE
5
2AF
100
AcDbEntity
8
1
62
256
6
ByLayer
370
13
48
1
60
0
100
AcDbSpline
70
4
71
3
72
10
73
6
40
0
40
0
40
0
40
0
40
0.5
40
0.5
40
1
40
1
40
1
40
1
41
1
10
205.38728301504
20
6.72598313121259
30
0
41
1
10
205.493200317251
20
6.66793579274045
30
0
41
1
10
205.601298801448
20
6.61582985679297
30
0
41
1
10
205.822172286049
20
6.52375508212728
30
0
41
1
10
205.935590008068
20
6.48361232877795
30
0
41
1
10
206.049874773368
20
6.4507978561457
30
0
0
SPLINE
5
2B0
100
AcDbEntity
8
1
62
256
6
ByLayer
370
13
48
1
60
0
100
AcDbSpline
70
4
71
3
72
24
73
20
40
0
40
0
40
0
40
0
40
0.166133653092387
40
0.166133653092387
40
0.332267306184773
40
0.332267306184773
40
0.49840095927716
40
0.49840095927716
40
0.581467785823353
40
0.581467785823353
40
0.664534612369547
40
0.664534612369547
40
0.830668265461934
40
0.830668265461934
40
0.913735092008127
40
0.913735092008127
40
0.99680191855432
40
0.99680191855432
40
1
40
1
40
1
40
1
41
1
10
199.701991785695
20
18.0805589572811
30
0
41
1
10
197.858433156462
20
18.2185156770684
30
0
41
1
10
196.012897332311
20
18.3006728265014
30
0
41
1
10
192.329622981599
20
18.3518740996947
30
0
41
1
10
190.490384381874
20
18.3211138019085
30
0
41
1
10
186.811208652083
20
18.1474675161553
30
0
41
1
10
184.971257371483
20
18.0046007442864
30
0
41
1
10
182.206867376496
20
17.706840777538
30
0
41
1
10
181.284714313033
20
17.5936463833918
30
0
41
1
10
179.443184962585
20
17.3405001849038
30
0
41
1
10
178.523169612413
20
17.2004871521906
30
0
41
1
10
175.76411919943
20
16.7411994926168
30
0
41
1
10
173.926246947901
20
16.382457907213
30
0
41
1
10
171.166211466631
20
15.7711682801643
30
0
41
1
10
170.245329500342
20
15.5555241460859
30
0
41
1
10
168.397960349381
20
15.1059838511775
30
0
41
1
10
167.470668479244
20
14.8721674455737
30
0
41
1
10
166.50536714491
20
14.6232203246092
30
0
41
1
10
166.469577885792
20
14.613981956175
30
0
41
1
10
166.433785775204
20
14.6047344571226
30
0
0
SPLINE
5
2B1
100
AcDbEntity
8
1
62
256
6
ByLayer
370
13
48
1
60
0
100
AcDbSpline
70
4
71
3
72
26
73
22
40
0
40
0
40
0
40
0
40
0.0625000000000042
40
0.0625000000000042
40
0.125000000000008
40
0.125000000000008
40
0.250000000000018
40
0.250000000000018
40
0.375000000000027
40
0.375000000000027
40
0.437500000000026
40
0.437500000000026
40
0.500000000000024
40
0.500000000000024
40
0.750000000000019
40
0.750000000000019
40
0.812500000000014
40
0.812500000000014
40
0.87500000000001
40
0.87500000000001
40
1
40
1
40
1
40
1
41
1
10
203.219789309965
20
8.88519317106918
30
0
41
1
10
203.279714856591
20
8.83529736350005
30
0
41
1
10
203.338461833952
20
8.78368676543261
30
0
41
1
10
203.453851154447
20
8.6773867190621
30
0
41
1
10
203.510480557079
20
8.62269516156633
30
0
41
1
10
203.674821907079
20
8.45731616902793
30
0
41
1
10
203.778083396396
20
8.34450594895068
30
0
41
1
10
203.973216159495
20
8.11448213816419
30
0
41
1
10
204.065006964499
20
7.9971733975683
30
0
41
1
10
204.193701001169
20
7.81720930764132
30
0
41
1
10
204.235099284385
20
7.75655693992033
30
0
41
1
10
204.314878915711
20
7.63391005789597
30
0
41
1
10
204.353310991146
20
7.57181097232117
30
0
41
1
10
204.535509923964
20
7.26230895128168
30
0
41
1
10
204.652571166622
20
7.01519336112932
30
0
41
1
10
204.764247969154
20
6.70495937571249
30
0
41
1
10
204.7847839975
20
6.6428079972612
30
0
41
1
10
204.822049923588
20
6.51812816455282
30
0
41
1
10
204.83878320469
20
6.45551856887104
30
0
41
1
10
204.882456171339
20
6.26922467548155
30
0
41
1
10
204.903118691139
20
6.14631392486024
30
0
41
1
10
204.915377623142
20
6.02444005246906
30
0
0
SPLINE
5
2B2
100
AcDbEntity
8
1
62
256
6
ByLayer
370
13
48
1
60
0
100
AcDbSpline
70
4
71
3
72
16
73
12
40
0
40
0
40
0
40
0
40
0.250000000000013
40
0.250000000000013
40
0.500000000000026
40
0.500000000000026
40
0.625000000000019
40
0.625000000000019
40
0.750000000000013
40
0.750000000000013
40
1
40
1
40
1
40
1
41
1
10
200.225583267735
20
1.89682378410103
30
0
41
1
10
200.446108165658
20
1.80801257689265
30
0
41
1
10
200.667576244956
20
1.7385115873083
30
0
41
1
10
201.112868246676
20
1.63477075291996
30
0
41
1
10
201.336685203038
20
1.60057224275908
30
0
41
1
10
201.674182120421
20
1.57570241733819
30
0
41
1
10
201.786486637478
20
1.57191044633339
30
0
41
1
10
202.00796665786
20
1.57309848050124
30
0
41
1
10
202.11755110975
20
1.57804523332788
30
0
41
1
10
202.442812735518
20
1.60550925268663
30
0
41
1
10
202.655028696498
20
1.64059552880698
30
0
41
1
10
202.862163996045
20
1.69206914987649
30
0
0
SPLINE
5
2B3
100
AcDbEntity
8
1
62
256
6
ByLayer
370
13
48
1
60
0
100
AcDbSpline
70
4
71
3
72
16
73
12
40
0
40
0
40
0
40
0
40
0.249999999999998
40
0.249999999999998
40
0.499999999999995
40
0.499999999999995
40
0.624999999999998
40
0.624999999999998
40
0.750000000000002
40
0.750000000000002
40
1
40
1
40
1
40
1
41
1
10
207.650765790301
20
5.99367562706888
30
0
41
1
10
208.15874350798
20
5.84949306352027
30
0
41
1
10
208.659870421272
20
5.74656198347776
30
0
41
1
10
209.649836220742
20
5.60852822443562
30
0
41
1
10
210.138642948652
20
5.57357820893381
30
0
41
1
10
210.862467732052
20
5.56600961129266
30
0
41
1
10
211.102169160502
20
5.57099811438599
30
0
41
1
10
211.578308441562
20
5.59528730923205
30
0
41
1
10
211.814483104879
20
5.61460576768116
30
0
41
1
10
212.512590513326
20
5.69232794596178
30
0
41
1
10
212.965946289147
20
5.77051234754973
30
0
41
1
10
213.407241531028
20
5.87187409995099
30
0
0
SPLINE
5
2B4
100
AcDbEntity
8
1
62
256
6
ByLayer
370
13
48
1
60
0
100
AcDbSpline
70
4
71
3
72
38
73
34
40
0
40
0
40
0
40
0
40
0.006651068203201
40
0.006651068203201
40
0.049840152194366
40
0.049840152194366
40
0.0930292361855311
40
0.0930292361855311
40
0.136218320176696
40
0.136218320176696
40
0.179407404167861
40
0.179407404167861
40
0.222596488159026
40
0.222596488159026
40
0.308974656141357
40
0.308974656141357
40
0.352163740132523
40
0.352163740132523
40
0.395352824123688
40
0.395352824123688
40
0.481730992106019
40
0.481730992106019
40
0.568109160088349
40
0.568109160088349
40
0.654487328070679
40
0.654487328070679
40
0.740865496053009
40
0.740865496053009
40
0.82724366403534
40
0.82724366403534
40
0.91362183201767
40
0.91362183201767
40
1
40
1
40
1
40
1
41
1
10
171.074877743668
20
-15.2417535832328
30
0
41
1
10
170.942297034045
20
-15.2743265356715
30
0
41
1
10
170.809722557817
20
-15.3066718799931
30
0
41
1
10
169.81630206616
20
-15.5473286232458
30
0
41
1
10
168.95568174771
20
-15.7461830966554
30
0
41
1
10
167.232385044635
20
-16.1217136588111
30
0
41
1
10
166.369476103172
20
-16.2983758251867
30
0
41
1
10
164.640134261305
20
-16.6263134625668
30
0
41
1
10
163.773473303889
20
-16.7776018540437
30
0
41
1
10
162.032260089653
20
-17.0533453574602
30
0
41
1
10
161.157399535174
20
-17.1775744285731
30
0
41
1
10
159.39808781786
20
-17.4011635419379
30
0
41
1
10
158.513654835213
20
-17.5006697051365
30
0
41
1
10
155.850996680975
20
-17.7666243900294
30
0
41
1
10
154.061752397856
20
-17.9008300697574
30
0
41
1
10
151.357793212936
20
-18.0555783715764
30
0
41
1
10
150.453189379374
20
-18.0993482032078
30
0
41
1
10
148.639573815787
20
-18.1736809490491
30
0
41
1
10
147.730286957192
20
-18.2042585864106
30
0
41
1
10
144.995076503685
20
-18.2796298697454
30
0
41
1
10
143.161001279051
20
-18.3080325409304
30
0
41
1
10
139.475829139156
20
-18.3367386810776
30
0
41
1
10
137.624331003046
20
-18.3372359576649
30
0
41
1
10
133.901948991007
20
-18.3265514095662
30
0
41
1
10
132.035258627156
20
-18.3154308654984
30
0
41
1
10
128.293836946948
20
-18.2942263165862
30
0
41
1
10
126.418469367999
20
-18.2842946359557
30
0
41
1
10
122.660429587792
20
-18.2705971206619
30
0
41
1
10
120.777251559245
20
-18.2667456375528
30
0
41
1
10
117.012432791759
20
-18.2629974874147
30
0
41
1
10
115.129963253637
20
-18.2629861689954
30
0
41
1
10
111.364992676311
20
-18.2639780331204
30
0
41
1
10
109.482491465346
20
-18.2649688672184
30
0
41
1
10
107.6
20
-18.2656486392123
30
0
0
SPLINE
5
2B5
100
AcDbEntity
8
1
62
256
6
ByLayer
370
13
48
1
60
0
100
AcDbSpline
70
4
71
3
72
8
73
4
40
0
40
0
40
0
40
0
40
1
40
1
40
1
40
1
41
1
10
203.177767975924
20
1.59155528038912
30
0
41
1
10
203.588993513833
20
1.47553204569309
30
0
41
1
10
204.004401102197
20
1.38288691424552
30
0
41
1
10
204.42350104166
20
1.3129295139565
30
0
0
SPLINE
5
2B6
100
AcDbEntity
8
1
62
256
6
ByLayer
370
13
48
1
60
0
100
AcDbSpline
70
4
71
1
72
4
73
2
40
0
40
0
40
1
40
1
41
1
10
30.45
20
-10.5325217967021
30
0
41
1
10
30.01
20
-10.5325217967021
30
0
0
SPLINE
5
2B7
100
AcDbEntity
8
1
62
256
6
ByLayer
370
13
48
1
60
0
100
AcDbSpline
70
4
71
3
72
12
73
8
40
0
40
0
40
0
40
0
40
0.295639259900483
40
0.295639259900483
40
0.647819629950241
40
0.647819629950241
40
1
40
1
40
1
40
1
41
1
10
30.4500174361148
20
-6.55587579956403
30
0
41
1
10
30.4500403239969
20
-6.91601659629882
30
0
41
1
10
30.4500589723611
20
-7.30643867965358
30
0
41
1
10
30.4500885496564
20
-8.1888502109376
30
0
41
1
10
30.4500973105371
20
-8.68569737667778
30
0
41
1
10
30.4500990416256
20
-9.64823209526904
30
0
41
1
10
30.4500920113161
20
-10.1136319930564
30
0
41
1
10
30.4500775480391
20
-10.5325217977107
30
0
0
SPLINE
5
2B8
100
AcDbEntity
8
1
62
256
6
ByLayer
370
13
48
1
60
0
100
AcDbSpline
70
4
71
3
72
8
73
4
40
0
40
0
40
0
40
0
40
1
40
1
40
1
40
1
41
1
10
202.34558032513
20
8.92249444552959
30
0
41
1
10
202.466621583317
20
10.1455046093926
30
0
41
1
10
202.584047962435
20
11.3667096580406
30
0
41
1
10
202.696801189687
20
12.5864895055246
30
0
0
SPLINE
5
2B9
100
AcDbEntity
8
1
62
256
6
ByLayer
370
13
48
1
60
0
100
AcDbSpline
70
4
71
3
72
16
73
12
40
0
40
0
40
0
40
0
40
0.250000000000002
40
0.250000000000002
40
0.500000000000004
40
0.500000000000004
40
0.625000000000003
40
0.625000000000003
40
0.750000000000003
40
0.750000000000003
40
1
40
1
40
1
40
1
41
1
10
29.1961524490705
20
-17.8757317124542
30
0
41
1
10
28.9385181131401
20
-17.8756764870721
30
0
41
1
10
28.6852757938538
20
-17.8956406487098
30
0
41
1
10
28.1869319149475
20
-17.9726756206284
30
0
41
1
10
27.9418338446611
20
-18.0297623357456
30
0
41
1
10
27.5801373252884
20
-18.1425159589315
30
0
41
1
10
27.4611039685105
20
-18.1845086251996
30
0
41
1
10
27.2290712490637
20
-18.2756736043876
30
0
41
1
10
27.1155815072748
20
-18.3249945309709
30
0
41
1
10
26.7822178718879
20
-18.4834708909699
30
0
41
1
10
26.5694203844939
20
-18.603096723706
30
0
41
1
10
26.3652411693607
20
-18.7354743331806
30
0
0
SPLINE
5
2BA
100
AcDbEntity
8
1
62
256
6
ByLayer
370
13
48
1
60
0
100
AcDbSpline
70
4
71
3
72
12
73
8
40
0
40
0
40
0
40
0
40
0.25
40
0.25
40
0.5
40
0.5
40
1
40
1
40
1
40
1
41
1
10
222.41449223533
20
0.468064346338139
30
0
41
1
10
222.415770262013
20
0.516924885842627
30
0
41
1
10
222.417818551155
20
0.561540624118521
30
0
41
1
10
222.423478918215
20
0.642154294545094
30
0
41
1
10
222.426996060375
20
0.676581336452642
30
0
41
1
10
222.439392624706
20
0.759891326810191
30
0
41
1
10
222.450004508416
20
0.786519343687416
30
0
41
1
10
222.461169064885
20
0.777734742154422
30
0
0
SPLINE
5
2BB
100
AcDbEntity
8
1
62
256
6
ByLayer
370
13
48
1
60
0
100
AcDbSpline
70
4
71
2
72
12
73
9
40
0
40
0
40
0
40
0.304603688618678
40
0.304603688618678
40
0.609207377237356
40
0.609207377237356
40
0.913811065856035
40
0.913811065856035
40
1
40
1
40
1
41
1
10
29.999999999999
20
-10.5376658757751
30
0
41
1
10
26.5621927341138
20
-11.1901167592558
30
0
41
1
10
23.5136332034865
20
-12.6402451553695
30
0
41
1
10
20.3597416609979
20
-14.140477523502
30
0
41
1
10
17.8944856893467
20
-16.3555630729505
30
0
41
1
10
15.4457871625795
20
-18.5557714018101
30
0
41
1
10
13.8907288064489
20
-21.2674835064885
30
0
41
1
10
13.470984800655
20
-21.9994334663663
30
0
41
1
10
13.1273338692066
20
-22.7506022104739
30
0
0
SPLINE
5
2BC
100
AcDbEntity
8
1
62
256
6
ByLayer
370
13
48
1
60
0
100
AcDbSpline
70
4
71
3
72
10
73
6
40
0
40
0
40
0
40
0
40
0.5
40
0.5
40
1
40
1
40
1
40
1
41
1
10
214.646207417295
20
7.3188681467002
30
0
41
1
10
214.679079927406
20
7.32059092195459
30
0
41
1
10
214.712355978378
20
7.31899184112677
30
0
41
1
10
214.776976510677
20
7.30971402236034
30
0
41
1
10
214.808353512457
20
7.30210735595776
30
0
41
1
10
214.838762199696
20
7.29187165056948
30
0
0
SPLINE
5
2BD
100
AcDbEntity
8
1
62
256
6
ByLayer
370
13
48
1
60
0
100
AcDbSpline
70
4
71
3
72
38
73
34
40
0
40
0
40
0
40
0
40
0.0047500582556932
40
0.0047500582556932
40
0.0273693751135187
40
0.0273693751135187
40
0.0499886919713442
40
0.0499886919713442
40
0.0952273256869946
40
0.0952273256869946
40
0.140465959402645
40
0.140465959402645
40
0.185704593118296
40
0.185704593118296
40
0.208323909976121
40
0.208323909976121
40
0.230943226833946
40
0.230943226833946
40
0.276181860549596
40
0.276181860549596
40
0.321420494265246
40
0.321420494265246
40
0.366659127980897
40
0.366659127980897
40
0.457136395412197
40
0.457136395412197
40
0.547613662843498
40
0.547613662843498
40
0.638090930274798
40
0.638090930274798
40
0.819045465137399
40
0.819045465137399
40
1
40
1
40
1
40
1
41
1
10
148.076879297638
20
-9.71919592144872
30
0
41
1
10
147.892706740994
20
-9.73214068553995
30
0
41
1
10
147.708494196175
20
-9.74494369027389
30
0
41
1
10
146.646855678642
20
-9.81796461771674
30
0
41
1
10
145.768629568126
20
-9.87558113661564
30
0
41
1
10
144.010372304648
20
-9.98534737511147
30
0
41
1
10
143.130335855921
20
-10.0374761692142
30
0
41
1
10
140.486468331692
20
-10.1801551098569
30
0
41
1
10
138.718441175175
20
-10.255040632466
30
0
41
1
10
135.172414897895
20
-10.3727010964284
30
0
41
1
10
133.399076590424
20
-10.4157074871546
30
0
41
1
10
129.851776316789
20
-10.4788762975558
30
0
41
1
10
128.07781784479
20
-10.4993411229153
30
0
41
1
10
125.416355255794
20
-10.518257725814
30
0
41
1
10
124.52911191095
20
-10.5224161016013
30
0
41
1
10
122.754449042858
20
-10.5282218264499
30
0
41
1
10
121.867030011253
20
-10.5300306141203
30
0
41
1
10
119.204705360171
20
-10.5337177938243
30
0
41
1
10
117.429708233671
20
-10.5344216229081
30
0
41
1
10
113.879592124309
20
-10.5350651541406
30
0
41
1
10
112.104470342818
20
-10.5347273852313
30
0
41
1
10
108.554190342634
20
-10.5340202359936
30
0
41
1
10
106.779034278989
20
-10.5338588508599
30
0
41
1
10
101.453626236317
20
-10.5333235045802
30
0
41
1
10
97.9034419938129
20
-10.5321462944694
30
0
41
1
10
90.803111400528
20
-10.5307171379231
30
0
41
1
10
87.2529520878619
20
-10.5306521678223
30
0
41
1
10
80.1525962171681
20
-10.5316166446449
30
0
41
1
10
76.602409303511
20
-10.532434076871
30
0
41
1
10
65.9518527222755
20
-10.5335683853935
30
0
41
1
10
58.851482407231
20
-10.5330167890334
30
0
41
1
10
44.6507412063091
20
-10.5325632429363
30
0
41
1
10
37.5503706009118
20
-10.5326182077956
30
0
41
1
10
30.45
20
-10.5325217966578
30
0
0
SPLINE
5
2BE
100
AcDbEntity
8
1
62
256
6
ByLayer
370
13
48
1
60
0
100
AcDbSpline
70
4
71
3
72
22
73
18
40
0
40
0
40
0
40
0
40
0.124999999999995
40
0.124999999999995
40
0.24999999999999
40
0.24999999999999
40
0.374999999999986
40
0.374999999999986
40
0.499999999999981
40
0.499999999999981
40
0.562499999999978
40
0.562499999999978
40
0.624999999999976
40
0.624999999999976
40
0.749999999999971
40
0.749999999999971
40
1
40
1
40
1
40
1
41
1
10
204.915377623133
20
6.02444005246915
30
0
41
1
10
204.874671029139
20
5.9613747507328
30
0
41
1
10
204.829412792914
20
5.90154684123601
30
0
41
1
10
204.728025877698
20
5.78972975351797
30
0
41
1
10
204.672800565158
20
5.73886874063126
30
0
41
1
10
204.554145188886
20
5.65053481000496
30
0
41
1
10
204.489426704954
20
5.61240824254753
30
0
41
1
10
204.356070451609
20
5.55455501504636
30
0
41
1
10
204.287353969795
20
5.53445605250607
30
0
41
1
10
204.181228325994
20
5.51795399901201
30
0
41
1
10
204.145357827168
20
5.51478036253809
30
0
41
1
10
204.074653514535
20
5.51297560663261
30
0
41
1
10
204.039556592763
20
5.51429394204422
30
0
41
1
10
203.934950745549
20
5.52424884398445
30
0
41
1
10
203.865719965493
20
5.53910164617591
30
0
41
1
10
203.666562053229
20
5.60011068855138
30
0
41
1
10
203.542484428756
20
5.66218499310881
30
0
41
1
10
203.421069715712
20
5.73188632782126
30
0
0
SPLINE
5
2BF
100
AcDbEntity
8
1
62
256
6
ByLayer
370
13
48
1
60
0
100
AcDbSpline
70
4
71
3
72
16
73
12
40
0
40
0
40
0
40
0
40
0.125
40
0.125
40
0.25
40
0.25
40
0.5
40
0.5
40
0.75
40
0.75
40
1
40
1
40
1
40
1
41
1
10
107.6
20
-6.54608989699145
30
0
41
1
10
104.575005987295
20
-6.55625194267429
30
0
41
1
10
101.550005283475
20
-6.55925536044745
30
0
41
1
10
95.5000029685101
20
-6.56107308796245
30
0
41
1
10
92.4750032847051
20
-6.56069090068448
30
0
41
1
10
83.4000048943734
20
-6.55895498240659
30
0
41
1
10
77.3500059543039
20
-6.55779664409874
30
0
41
1
10
65.2500055592793
20
-6.55767313683316
30
0
41
1
10
59.2000045673388
20
-6.55833646835501
30
0
41
1
10
47.1000026211904
20
-6.55970784824106
30
0
41
1
10
41.0500016153191
20
-6.5604214208453
30
0
41
1
10
35
20
-6.56179429510016
30
0
0
SPLINE
5
2C0
100
AcDbEntity
8
1
62
256
6
ByLayer
370
13
48
1
60
0
100
AcDbSpline
70
4
71
3
72
38
73
34
40
0
40
0
40
0
40
0
40
0.0624999999999708
40
0.0624999999999708
40
0.124999999999942
40
0.124999999999942
40
0.249999999999883
40
0.249999999999883
40
0.312499999999861
40
0.312499999999861
40
0.374999999999839
40
0.374999999999839
40
0.406249999999836
40
0.406249999999836
40
0.437499999999833
40
0.437499999999833
40
0.499999999999827
40
0.499999999999827
40
0.531249999999832
40
0.531249999999832
40
0.562499999999838
40
0.562499999999838
40
0.62499999999985
40
0.62499999999985
40
0.74999999999989
40
0.74999999999989
40
0.812499999999917
40
0.812499999999917
40
0.874999999999945
40
0.874999999999945
40
0.937499999999972
40
0.937499999999972
40
1
40
1
40
1
40
1
41
1
10
212.581015090068
20
6.59031583366607
30
0
41
1
10
212.529695732165
20
6.51149748819759
30
0
41
1
10
212.474631543411
20
6.43732886344136
30
0
41
1
10
212.356983899921
20
6.29739930446078
30
0
41
1
10
212.294360679359
20
6.23175195574799
30
0
41
1
10
212.100449890964
20
6.05167337074474
30
0
41
1
10
211.961647932204
20
5.9516091262015
30
0
41
1
10
211.735871868006
20
5.82795191979031
30
0
41
1
10
211.658921740467
20
5.79192091408365
30
0
41
1
10
211.50046344218
20
5.7295793366865
30
0
41
1
10
211.419000595968
20
5.70325180392021
30
0
41
1
10
211.291082773036
20
5.67108556350854
30
0
41
1
10
211.247468972351
20
5.66159029068885
30
0
41
1
10
211.1575309696
20
5.64519786154497
30
0
41
1
10
211.110838638964
20
5.63827880498661
30
0
41
1
10
210.97032861786
20
5.62235787625147
30
0
41
1
10
210.874956575679
20
5.61789687716873
30
0
41
1
10
210.729360031544
20
5.62055712089975
30
0
41
1
10
210.680789298495
20
5.62302228350524
30
0
41
1
10
210.585689435328
20
5.63076929155486
30
0
41
1
10
210.538787125434
20
5.63605661353677
30
0
41
1
10
210.399502193323
20
5.65594195329408
30
0
41
1
10
210.308268256818
20
5.67459723715808
30
0
41
1
10
210.039440332511
20
5.7461364874259
30
0
41
1
10
209.870410507112
20
5.81310343400102
30
0
41
1
10
209.62797343011
20
5.94428753068675
30
0
41
1
10
209.548798369652
20
5.99343165758768
30
0
41
1
10
209.395690455103
20
6.10260310381352
30
0
41
1
10
209.322740873126
20
6.16187870236084
30
0
41
1
10
209.184146928087
20
6.29046287479511
30
0
41
1
10
209.11839434405
20
6.35988107150007
30
0
41
1
10
208.9952298044
20
6.5097855804448
30
0
41
1
10
208.939360004991
20
6.58838886857939
30
0
41
1
10
208.889339449605
20
6.67070370417485
30
0
0
SPLINE
5
2C1
100
AcDbEntity
8
1
62
256
6
ByLayer
370
13
48
1
60
0
100
AcDbSpline
70
4
71
3
72
8
73
4
40
0
40
0
40
0
40
0
40
1
40
1
40
1
40
1
41
1
10
201.747487008984
20
6.81468634423962
30
0
41
1
10
201.747927224394
20
6.81623570314079
30
0
41
1
10
201.748397597022
20
6.81777823700426
30
0
41
1
10
201.74889732202
20
6.81931413698752
30
0
0
SPLINE
5
2C2
100
AcDbEntity
8
1
62
256
6
ByLayer
370
13
48
1
60
0
100
AcDbSpline
70
4
71
3
72
8
73
4
40
0
40
0
40
0
40
0
40
1
40
1
40
1
40
1
41
1
10
30.45
20
-17.8621749535514
30
0
41
1
10
30.3033333331109
20
-17.8621451677878
30
0
41
1
10
30.156666666437
20
-17.8621145929266
30
0
41
1
10
30.01
20
-17.8620832142159
30
0
0
SPLINE
5
2C3
100
AcDbEntity
8
1
62
256
6
ByLayer
370
13
48
1
60
0
100
AcDbSpline
70
4
71
3
72
8
73
4
40
0
40
0
40
0
40
0
40
1
40
1
40
1
40
1
41
1
10
1.42E-14
20
4.42266887749923
30
0
41
1
10
0.0315947615411005
20
4.59876410270371
30
0
41
1
10
0.0649429983480019
20
4.77445351716128
30
0
41
1
10
0.0999999999999943
20
4.94974746830573
30
0
0
SPLINE
5
2C4
100
AcDbEntity
8
1
62
256
6
ByLayer
370
13
48
1
60
0
100
AcDbSpline
70
4
71
3
72
9
73
5
40
0
40
0
40
0
40
0
40
0.5
40
1
40
1
40
1
40
1
41
1
10
212.269209470219
20
6.44795993553689
30
0
41
1
10
212.279201906506
20
6.46023984046425
30
0
41
1
10
212.298941953304
20
6.48503812159001
30
0
41
1
10
212.318185121082
20
6.51031026493064
30
0
41
1
10
212.327680645791
20
6.52306408156667
30
0
0
SPLINE
5
2C5
100
AcDbEntity
8
1
62
256
6
ByLayer
370
13
48
1
60
0
100
AcDbSpline
70
4
71
3
72
14
73
10
40
0
40
0
40
0
40
0
40
0.499999999999982
40
0.499999999999982
40
0.624999999999986
40
0.624999999999986
40
0.749999999999991
40
0.749999999999991
40
1
40
1
40
1
40
1
41
1
10
200.333312307214
20
1.22623333794888
30
0
41
1
10
200.944836754151
20
0.828127184486931
30
0
41
1
10
201.59169390996
20
0.509209557002151
30
0
41
1
10
202.447478281978
20
0.216999203964036
30
0
41
1
10
202.621021816855
20
0.163936701640864
30
0
41
1
10
202.973084833338
20
0.0690387361184719
30
0
41
1
10
203.151130684264
20
0.0273678399671837
30
0
41
1
10
203.686805564191
20
-0.0790201110517899
30
0
41
1
10
204.04770807818
20
-0.125690491971198
30
0
41
1
10
204.412560194403
20
-0.147058286822613
30
0
0
SPLINE
5
2C6
100
AcDbEntity
8
1
62
256
6
ByLayer
370
13
48
1
60
0
100
AcDbSpline
70
4
71
3
72
16
73
12
40
0
40
0
40
0
40
0
40
0.469070336316958
40
0.469070336316958
40
0.703605504475436
40
0.703605504475436
40
0.820873088554676
40
0.820873088554676
40
0.938140672633915
40
0.938140672633915
40
1
40
1
40
1
40
1
41
1
10
6.56503924499752
20
-18.1848071328326
30
0
41
1
10
6.8492717458829
20
-17.2038946421025
30
0
41
1
10
7.21334850678619
20
-16.2417181756981
30
0
41
1
10
7.88164984173503
20
-14.8262783881199
30
0
41
1
10
8.12493955353143
20
-14.3591411219817
30
0
41
1
10
8.52232374723931
20
-13.6657364927188
30
0
41
1
10
8.66046635677776
20
-13.4354123650764
30
0
41
1
10
8.94641248219665
20
-12.9797276981253
30
0
41
1
10
9.09418526071937
20
-12.7544062614419
30
0
41
1
10
9.32702612324573
20
-12.4139626712967
30
0
41
1
10
9.40871838049785
20
-12.2970672465963
30
0
41
1
10
9.49168760653075
20
-12.1808398692384
30
0
0
SPLINE
5
2C7
100
AcDbEntity
8
1
62
256
6
ByLayer
370
13
48
1
60
0
100
AcDbSpline
70
4
71
3
72
8
73
4
40
0
40
0
40
0
40
0
40
1
40
1
40
1
40
1
41
1
10
29.1961524490705
20
-17.8757317124604
30
0
41
1
10
29.1961524493496
20
-18.0765812581878
30
0
41
1
10
29.1961524496333
20
-18.277430803913
30
0
41
1
10
29.1961524499217
20
-18.478280349636
30
0
0
SPLINE
5
2C8
100
AcDbEntity
8
1
62
256
6
ByLayer
370
13
48
1
60
0
100
AcDbSpline
70
4
71
3
72
8
73
4
40
0
40
0
40
0
40
0
40
1
40
1
40
1
40
1
41
1
10
204.915377623134
20
6.02444005247031
30
0
41
1
10
205.075273163386
20
6.26099604637648
30
0
41
1
10
205.231593199227
20
6.49556989127728
30
0
41
1
10
205.38728301504
20
6.72598313121259
30
0
0
SPLINE
5
2C9
100
AcDbEntity
8
1
62
256
6
ByLayer
370
13
48
1
60
0
100
AcDbSpline
70
4
71
3
72
40
73
36
40
0
40
0
40
0
40
0
40
0.0624999999999998
40
0.0624999999999998
40
0.125
40
0.125
40
0.249999999999999
40
0.249999999999999
40
0.281249999999999
40
0.281249999999999
40
0.312499999999998
40
0.312499999999998
40
0.374999999999998
40
0.374999999999998
40
0.406249999999998
40
0.406249999999998
40
0.437499999999997
40
0.437499999999997
40
0.499999999999997
40
0.499999999999997
40
0.531249999999997
40
0.531249999999997
40
0.562499999999997
40
0.562499999999997
40
0.624999999999998
40
0.624999999999998
40
0.687499999999998
40
0.687499999999998
40
0.749999999999998
40
0.749999999999998
40
0.874999999999999
40
0.874999999999999
40
0.9375
40
0.9375
40
1
40
1
40
1
40
1
41
1
10
6.56503068259457
20
-20.915983430548
30
0
41
1
10
6.47031898322628
20
-21.0582642641144
30
0
41
1
10
6.39406821473895
20
-21.1971594932522
30
0
41
1
10
6.27765039941907
20
-21.4678177911989
30
0
41
1
10
6.23745371032373
20
-21.5997247071168
30
0
41
1
10
6.17441994818816
20
-21.9829481760169
30
0
41
1
10
6.21117227971479
20
-22.2094201166815
30
0
41
1
10
6.34816264582201
20
-22.458424735638
30
0
41
1
10
6.38023510987635
20
-22.506482954666
30
0
41
1
10
6.45245994220751
20
-22.5977278864677
30
0
41
1
10
6.49271163053361
20
-22.6411205958437
30
0
41
1
10
6.62545778269276
20
-22.7648960009603
30
0
41
1
10
6.72997026587511
20
-22.8388756567972
30
0
41
1
10
6.90978612374309
20
-22.9378008108793
30
0
41
1
10
6.97378555883911
20
-22.9688557068914
30
0
41
1
10
7.10825960719265
20
-23.0265215672699
30
0
41
1
10
7.17862528477116
20
-23.0531154780544
30
0
41
1
10
7.39866895504325
20
-23.1265826305493
30
0
41
1
10
7.55725801247512
20
-23.1671650233409
30
0
41
1
10
7.81198492534696
20
-23.2165343543779
30
0
41
1
10
7.8997106248995
20
-23.2310670056725
30
0
41
1
10
8.08073200542248
20
-23.2563985859619
30
0
41
1
10
8.17426440300773
20
-23.267210946008
30
0
41
1
10
8.46030557313
20
-23.2939417864972
30
0
41
1
10
8.65879718331897
20
-23.3043072357707
30
0
41
1
10
9.07043211290625
20
-23.3116360892335
30
0
41
1
10
9.28357913103198
20
-23.3085940201954
30
0
41
1
10
9.72419823621931
20
-23.2899873494846
30
0
41
1
10
9.95268412991607
20
-23.2742947884523
30
0
41
1
10
10.6474528810563
20
-23.2103462248768
30
0
41
1
10
11.1253947652148
20
-23.1455777728893
30
0
41
1
10
11.8641254493469
20
-23.0189272769523
30
0
41
1
10
12.1148243740772
20
-22.9715626187124
30
0
41
1
10
12.6198928138379
20
-22.8677022002223
30
0
41
1
10
12.8737511335295
20
-22.8113368746344
30
0
41
1
10
13.1289617666231
20
-22.7506222736067
30
0
0
SPLINE
5
2CA
100
AcDbEntity
8
1
62
256
6
ByLayer
370
13
48
1
60
0
100
AcDbSpline
70
4
71
3
72
8
73
4
40
0
40
0
40
0
40
0
40
1
40
1
40
1
40
1
41
1
10
203.219789309966
20
8.88519317107009
30
0
41
1
10
203.212487528703
20
8.8865024611739
30
0
41
1
10
203.205165237507
20
8.88766002865216
30
0
41
1
10
203.197821530187
20
8.88865916993663
30
0
0
SPLINE
5
2CB
100
AcDbEntity
8
1
62
256
6
ByLayer
370
13
48
1
60
0
100
AcDbSpline
70
4
71
3
72
18
73
14
40
0
40
0
40
0
40
0
40
0.125
40
0.125
40
0.25
40
0.25
40
0.375
40
0.375
40
0.5
40
0.5
40
0.75
40
0.75
40
1
40
1
40
1
40
1
41
1
10
211.930351518027
20
6.15227634457162
30
0
41
1
10
211.918866828724
20
6.13952274749408
30
0
41
1
10
211.911743788146
20
6.13071793558893
30
0
41
1
10
211.907314343353
20
6.12136664426117
30
0
41
1
10
211.910014675918
20
6.12078064499116
30
0
41
1
10
211.923664884017
20
6.12677705134388
30
0
41
1
10
211.934737723546
20
6.13340376609173
30
0
41
1
10
211.962417330516
20
6.15217556575331
30
0
41
1
10
211.979233804281
20
6.16445223862368
30
0
41
1
10
212.03561350851
20
6.20852297758066
30
0
41
1
10
212.079799436776
20
6.24647133833159
30
0
41
1
10
212.173965510328
20
6.33813367600985
30
0
41
1
10
212.221819307427
20
6.38972121608188
30
0
41
1
10
212.269209470219
20
6.44795993553711
30
0
0
SPLINE
5
2CC
100
AcDbEntity
8
1
62
256
6
ByLayer
370
13
48
1
60
0
100
AcDbSpline
70
4
71
3
72
8
73
4
40
0
40
0
40
0
40
0
40
1
40
1
40
1
40
1
41
1
10
201.679243394682
20
6.58144422099764
30
0
41
1
10
201.702664355104
20
6.65906326697265
30
0
41
1
10
201.725363047346
20
6.73682001769373
30
0
41
1
10
201.747487008984
20
6.81468634423962
30
0
0
SPLINE
5
2CD
100
AcDbEntity
8
1
62
256
6
ByLayer
370
13
48
1
60
0
100
AcDbSpline
70
4
71
3
72
10
73
6
40
0
40
0
40
0
40
0
40
0.458337942078484
40
0.458337942078484
40
1
40
1
40
1
40
1
41
1
10
30.45
20
-17.8621749652643
30
0
41
1
10
30.45
20
-16.742355580662
30
0
41
1
10
30.45
20
-15.6225361967256
30
0
41
1
10
30.45
20
-13.1793184735926
30
0
41
1
10
30.45
20
-11.8559201346602
30
0
41
1
10
30.45
20
-10.5325217966578
30
0
0
SPLINE
5
2CE
100
AcDbEntity
8
1
62
256
6
ByLayer
370
13
48
1
60
0
100
AcDbSpline
70
4
71
3
72
8
73
4
40
0
40
0
40
0
40
0
40
1
40
1
40
1
40
1
41
1
10
204.412560194403
20
-0.147058286822613
30
0
41
1
10
204.495689630584
20
-0.156372284394934
30
0
41
1
10
204.57880319241
20
-0.16437168364638
30
0
41
1
10
204.66190056123
20
-0.171056985598256
30
0
0
SPLINE
5
2CF
100
AcDbEntity
8
1
62
256
6
ByLayer
370
13
48
1
60
0
100
AcDbSpline
70
4
71
3
72
14
73
10
40
0
40
0
40
0
40
0
40
0.25
40
0.25
40
0.5
40
0.5
40
0.75
40
0.75
40
1
40
1
40
1
40
1
41
1
10
200.068715535507
20
6.87739959511802
30
0
41
1
10
199.737698213454
20
6.92078874176846
30
0
41
1
10
199.405402735896
20
6.95695530456271
30
0
41
1
10
198.737942880305
20
7.01081542647771
30
0
41
1
10
198.40277660916
20
7.02844617276452
30
0
41
1
10
197.729172376143
20
7.04329618090696
30
0
41
1
10
197.390730204572
20
7.04047775631488
30
0
41
1
10
196.71017411569
20
7.01638015566161
30
0
41
1
10
196.368055906652
20
6.99512708317641
30
0
41
1
10
196.023971931684
20
6.96769454404975
30
0
0
SPLINE
5
2D0
100
AcDbEntity
8
1
62
256
6
ByLayer
370
13
48
1
60
0
100
AcDbSpline
70
4
71
3
72
8
73
4
40
0
40
0
40
0
40
0
40
1
40
1
40
1
40
1
41
1
10
220.970195310145
20
7.446311052711
30
0
41
1
10
220.969223846156
20
7.44750062213208
30
0
41
1
10
220.968247116968
20
7.44868572518394
30
0
41
1
10
220.967265187105
20
7.4498662779362
30
0
0
SPLINE
5
2D1
100
AcDbEntity
8
1
62
256
6
ByLayer
370
13
48
1
60
0
100
AcDbSpline
70
4
71
3
72
18
73
14
40
0
40
0
40
0
40
0
40
0.249999999999927
40
0.249999999999927
40
0.374999999999946
40
0.374999999999946
40
0.499999999999966
40
0.499999999999966
40
0.750000000000005
40
0.750000000000005
40
0.875000000000003
40
0.875000000000003
40
1
40
1
40
1
40
1
41
1
10
220.512931960637
20
7.626330151682
30
0
41
1
10
220.570308303245
20
7.62933711838147
30
0
41
1
10
220.628065127921
20
7.62216253880484
30
0
41
1
10
220.709363428525
20
7.59878638101389
30
0
41
1
10
220.735245900464
20
7.58901517385533
30
0
41
1
10
220.783393433411
20
7.56707075754656
30
0
41
1
10
220.806047914976
20
7.55467948678583
30
0
41
1
10
220.866036333461
20
7.51775529728405
30
0
41
1
10
220.896856556676
20
7.49288734011742
30
0
41
1
10
220.929067329257
20
7.46724764732352
30
0
41
1
10
220.937739973856
20
7.46042211450211
30
0
41
1
10
220.950822972479
20
7.45148565171004
30
0
41
1
10
220.955380098791
20
7.44924340685097
30
0
41
1
10
220.958040787423
20
7.44938284763353
30
0
0
SPLINE
5
2D2
100
AcDbEntity
8
1
62
256
6
ByLayer
370
13
48
1
60
0
100
AcDbSpline
70
4
71
3
72
10
73
6
40
0
40
0
40
0
40
0
40
0.5
40
0.5
40
1
40
1
40
1
40
1
41
1
10
211.727177139361
20
6.87345660967986
30
0
41
1
10
211.784991364585
20
6.86916912691237
30
0
41
1
10
211.842493719981
20
6.86179853145052
30
0
41
1
10
211.954957631595
20
6.84302635804872
30
0
41
1
10
212.007827418818
20
6.83203578133595
30
0
41
1
10
212.056798085538
20
6.82208218803606
30
0
0
SPLINE
5
2D3
100
AcDbEntity
8
1
62
256
6
ByLayer
370
13
48
1
60
0
100
AcDbSpline
70
4
71
3
72
20
73
16
40
0
40
0
40
0
40
0
40
0.124999999999994
40
0.124999999999994
40
0.249999999999988
40
0.249999999999988
40
0.500000000000019
40
0.500000000000019
40
0.625000000000014
40
0.625000000000014
40
0.750000000000009
40
0.750000000000009
40
0.875000000000005
40
0.875000000000005
40
1
40
1
40
1
40
1
41
1
10
222.506867057832
20
6.65285977456526
30
0
41
1
10
222.432439495998
20
6.65965611308374
30
0
41
1
10
222.35934295954
20
6.66990779713774
30
0
41
1
10
222.214826117761
20
6.69701173317085
30
0
41
1
10
222.143273234125
20
6.71394289031349
30
0
41
1
10
221.933977498746
20
6.77373733022762
30
0
41
1
10
221.800115518459
20
6.82564424509769
30
0
41
1
10
221.60539518708
20
6.92333819650275
30
0
41
1
10
221.541536473971
20
6.95924434775162
30
0
41
1
10
221.415798600354
20
7.0386039432274
30
0
41
1
10
221.354353587161
20
7.08184309783579
30
0
41
1
10
221.236550811847
20
7.17436015013266
30
0
41
1
10
221.179861915564
20
7.22383592418589
30
0
41
1
10
221.071112958443
20
7.32987365359071
30
0
41
1
10
221.018820231904
20
7.38676924704066
30
0
41
1
10
220.970195310145
20
7.44631105271097
30
0
0
SPLINE
5
2D4
100
AcDbEntity
8
1
62
256
6
ByLayer
370
13
48
1
60
0
100
AcDbSpline
70
4
71
3
72
14
73
10
40
0
40
0
40
0
40
0
40
0.25
40
0.25
40
0.5
40
0.5
40
0.75
40
0.75
40
1
40
1
40
1
40
1
41
1
10
26.3691698016752
20
-7.27435180940415
30
0
41
1
10
26.5854543935488
20
-7.15883487711821
30
0
41
1
10
26.8111510265943
20
-7.05548268782621
30
0
41
1
10
27.2680330478169
20
-6.87913759920147
30
0
41
1
10
27.5004913063687
20
-6.80533476044971
30
0
41
1
10
27.9733930284228
20
-6.68615232707617
30
0
41
1
10
28.2138358807842
20
-6.64077087048386
30
0
41
1
10
28.7030050972511
20
-6.57940803184306
30
0
41
1
10
28.9493661180325
20
-6.56378167865006
30
0
41
1
10
29.1961524558151
20
-6.56336181620836
30
0
0
SPLINE
5
2D5
100
AcDbEntity
8
1
62
256
6
ByLayer
370
13
48
1
60
0
100
AcDbSpline
70
4
71
3
72
64
73
60
40
0
40
0
40
0
40
0
40
0.031249999999999
40
0.031249999999999
40
0.0624999999999979
40
0.0624999999999979
40
0.0781249999999974
40
0.0781249999999974
40
0.0937499999999969
40
0.0937499999999969
40
0.109374999999996
40
0.109374999999996
40
0.124999999999996
40
0.124999999999996
40
0.132812499999996
40
0.132812499999996
40
0.140624999999995
40
0.140624999999995
40
0.156249999999996
40
0.156249999999996
40
0.171874999999996
40
0.171874999999996
40
0.187499999999996
40
0.187499999999996
40
0.218749999999997
40
0.218749999999997
40
0.249999999999997
40
0.249999999999997
40
0.312499999999998
40
0.312499999999998
40
0.343749999999999
40
0.343749999999999
40
0.374999999999999
40
0.374999999999999
40
0.437499999999999
40
0.437499999999999
40
0.499999999999999
40
0.499999999999999
40
0.53125
40
0.53125
40
0.5625
40
0.5625
40
0.625
40
0.625
40
0.6875
40
0.6875
40
0.750000000000001
40
0.750000000000001
40
0.781250000000001
40
0.781250000000001
40
0.8125
40
0.8125
40
0.875
40
0.875
40
0.9375
40
0.9375
40
0.96875
40
0.96875
40
1
40
1
40
1
40
1
41
1
10
199.138160919353
20
-18.2450041209447
30
0
41
1
10
198.149191462089
20
-18.2320402643513
30
0
41
1
10
197.157267847028
20
-18.2203210887039
30
0
41
1
10
195.171808936832
20
-18.1971585532116
30
0
41
1
10
194.178458392585
20
-18.1855644911644
30
0
41
1
10
192.692470549166
20
-18.1621625452166
30
0
41
1
10
192.197815625229
20
-18.1533320169098
30
0
41
1
10
191.210696723954
20
-18.1321297427466
30
0
41
1
10
190.717481049702
20
-18.1197647449559
30
0
41
1
10
189.741332790894
20
-18.089485828565
30
0
41
1
10
189.257875179862
20
-18.0715699624055
30
0
41
1
10
188.30322475638
20
-18.0271224770039
30
0
41
1
10
187.832092409351
20
-18.0005663240128
30
0
41
1
10
187.136318135689
20
-17.951364383607
30
0
41
1
10
186.906156207516
20
-17.9334310340284
30
0
41
1
10
186.450401459712
20
-17.8934014470783
30
0
41
1
10
186.224904854392
20
-17.8711982803715
30
0
41
1
10
185.547469910258
20
-17.8027078980451
30
0
41
1
10
185.09552046247
20
-17.7541049163783
30
0
41
1
10
184.19194348865
20
-17.6503674557858
30
0
41
1
10
183.740283529986
20
-17.5952332205161
30
0
41
1
10
182.836614067284
20
-17.4788933472805
30
0
41
1
10
182.384621239296
20
-17.4176731733334
30
0
41
1
10
181.029563476452
20
-17.2248839896455
30
0
41
1
10
180.127249522218
20
-17.0839689526855
30
0
41
1
10
178.324076805449
20
-16.7777778655735
30
0
41
1
10
177.423065418401
20
-16.6126160675276
30
0
41
1
10
174.719227381982
20
-16.0836302017713
30
0
41
1
10
172.916072163133
20
-15.6852167051662
30
0
41
1
10
170.195290417528
20
-15.0425038068677
30
0
41
1
10
169.285618126792
20
-14.8209903234272
30
0
41
1
10
167.459078736915
20
-14.3676967257084
30
0
41
1
10
166.54185360323
20
-14.1357981065395
30
0
41
1
10
163.784450804522
20
-13.4331193864336
30
0
41
1
10
161.936331737811
20
-12.9551051698409
30
0
41
1
10
158.214486654631
20
-12.008644972056
30
0
41
1
10
156.340762422315
20
-11.5401794248204
30
0
41
1
10
153.506444242842
20
-10.867492690364
30
0
41
1
10
152.557709990382
20
-10.6483053207737
30
0
41
1
10
150.652334195381
20
-10.2219994590264
30
0
41
1
10
149.696061326533
20
-10.0149723582462
30
0
41
1
10
146.822351009871
20
-9.41627597242331
30
0
41
1
10
144.897808510782
20
-9.04644898654817
30
0
41
1
10
141.030962345548
20
-8.37599451368308
30
0
41
1
10
139.088698493239
20
-8.07519859423678
30
0
41
1
10
135.187183857088
20
-7.54637802460744
30
0
41
1
10
133.226429551298
20
-7.31832702118999
30
0
41
1
10
130.282264627888
20
-7.03873071365277
30
0
41
1
10
129.300039858687
20
-6.95603038269078
30
0
41
1
10
127.333771150645
20
-6.81393247682288
30
0
41
1
10
126.349702081419
20
-6.75486441212158
30
0
41
1
10
123.394724572309
20
-6.61362791424838
30
0
41
1
10
121.420608013672
20
-6.56508836284047
30
0
41
1
10
117.471928634647
20
-6.51679708139645
30
0
41
1
10
115.497551639272
20
-6.51695897323745
30
0
41
1
10
112.535973391705
20
-6.52552696927953
30
0
41
1
10
111.548778164308
20
-6.529998382629
30
0
41
1
10
109.574387928926
20
-6.53879661370772
30
0
41
1
10
108.587193313233
20
-6.54286782635702
30
0
41
1
10
107.6
20
-6.54608989699145
30
0
0
SPLINE
5
2D6
100
AcDbEntity
8
1
62
256
6
ByLayer
370
13
48
1
60
0
100
AcDbSpline
70
4
71
3
72
38
73
34
40
0
40
0
40
0
40
0
40
0.0775880069873347
40
0.178309026386181
40
0.288636973907061
40
0.408684827781365
40
0.53842152493764
40
0.550212386976041
40
0.562474011798191
40
0.575207673987343
40
0.588414597971968
40
0.602095952239594
40
0.616252842667802
40
0.630886305050324
40
0.645997296881441
40
0.661586688451518
40
0.677655253299348
40
0.694203658062469
40
0.711232451764055
40
0.728742054574106
40
0.746732746083119
40
0.765204653127933
40
0.784157737212039
40
0.803591781565946
40
0.823506377897335
40
0.843900912885445
40
0.864774554479551
40
0.886126238067255
40
0.907954652584756
40
0.930258226648168
40
0.95303511479225
40
0.976283183910667
40
1
40
1
40
1
40
1
41
1
10
27.6163418107919
20
-6.70949077647148
30
0
41
1
10
27.6562909263988
20
-6.80712516743441
30
0
41
1
10
27.7530022161865
20
-7.03458863600667
30
0
41
1
10
27.9266140750309
20
-7.41277808876006
30
0
41
1
10
28.150131602087
20
-7.8549330675111
30
0
41
1
10
28.4200245180768
20
-8.33962353783645
30
0
41
1
10
28.6343320953477
20
-8.68995251336779
30
0
41
1
10
28.7645196909893
20
-8.89341026364889
30
0
41
1
10
28.7957849307333
20
-8.94201300879035
30
0
41
1
10
28.8284183464245
20
-8.99238152704481
30
0
41
1
10
28.862446913889
20
-9.04449421795283
30
0
41
1
10
28.8979024415171
20
-9.09832139811382
30
0
41
1
10
28.9348138873938
20
-9.1538321862507
30
0
41
1
10
28.9732092005628
20
-9.21099234489307
30
0
41
1
10
29.0131144509626
20
-9.26976468022215
30
0
41
1
10
29.0545537091051
20
-9.33010871929878
30
0
41
1
10
29.0975486983371
20
-9.39198059205935
30
0
41
1
10
29.142118495409
20
-9.45533285769872
30
0
41
1
10
29.1882792021286
20
-9.52011434983089
30
0
41
1
10
29.2360436103275
20
-9.58627002071563
30
0
41
1
10
29.2854208545671
20
-9.65374079122071
30
0
41
1
10
29.336416055003
20
-9.72246340631111
30
0
41
1
10
29.389029950632
20
-9.79237029604954
30
0
41
1
10
29.4432585244495
20
-9.86338944905887
30
0
41
1
10
29.4990926199122
20
-9.93544427651796
30
0
41
1
10
29.5565175565173
20
-10.0084535573988
30
0
41
1
10
29.6155127207242
20
-10.0823311198585
30
0
41
1
10
29.6760512313536
20
-10.1569865986293
30
0
41
1
10
29.7380993047733
20
-10.2323221004349
30
0
41
1
10
29.8016167746746
20
-10.3082447242707
30
0
41
1
10
29.8665531677791
20
-10.3846180421393
30
0
41
1
10
29.932860913493
20
-10.4614487572511
30
0
41
1
10
29.9774718868127
20
-10.5120916840151
30
0
41
1
10
30
20
-10.5376658757751
30
0
0
SPLINE
5
2D7
100
AcDbEntity
8
1
62
256
6
ByLayer
370
13
48
1
60
0
100
AcDbSpline
70
4
71
3
72
30
73
26
40
0
40
0
40
0
40
0
40
0.153491940815119
40
0.153491940815119
40
0.230237911222678
40
0.230237911222678
40
0.306983881630238
40
0.306983881630238
40
0.460475822445357
40
0.460475822445357
40
0.613967763260475
40
0.613967763260475
40
0.690713733668035
40
0.690713733668035
40
0.767459704075594
40
0.767459704075594
40
0.844205674483154
40
0.844205674483154
40
0.920951644890713
40
0.920951644890713
40
0.959324630094492
40
0.959324630094492
40
0.99769761529827
40
0.99769761529827
40
1
40
1
40
1
40
1
41
1
10
199.363992416398
20
17.5051223306402
30
0
41
1
10
197.707320284662
20
17.6299142932261
30
0
41
1
10
196.051579346758
20
17.7113315201949
30
0
41
1
10
193.56665931594
20
17.7678355421075
30
0
41
1
10
192.737847790759
20
17.7756910730069
30
0
41
1
10
191.082054856018
20
17.7692677435502
30
0
41
1
10
190.254804645534
20
17.7550161247842
30
0
41
1
10
187.774254687011
20
17.6791876284409
30
0
41
1
10
186.122161939887
20
17.584551889707
30
0
41
1
10
182.817130313559
20
17.3069905378892
30
0
41
1
10
181.164169427847
20
17.1236000276085
30
0
41
1
10
178.680979292211
20
16.7846882316355
30
0
41
1
10
177.852275339363
20
16.6610691974465
30
0
41
1
10
176.196717886304
20
16.3939283857836
30
0
41
1
10
175.369508491284
20
16.2503683149149
30
0
41
1
10
173.715809060702
20
15.9440314898553
30
0
41
1
10
172.889408956669
20
15.7812814757964
30
0
41
1
10
171.236287492028
20
15.4360308582622
30
0
41
1
10
170.409477574876
20
15.2541308969303
30
0
41
1
10
169.167608112096
20
14.9721320252204
30
0
41
1
10
168.753378511024
20
14.8766026561246
30
0
41
1
10
167.924190579025
20
14.6832184377333
30
0
41
1
10
167.509266334441
20
14.585485492621
30
0
41
1
10
167.068598326252
20
14.4799158270268
30
0
41
1
10
167.043651875556
20
14.4739332831184
30
0
41
1
10
167.018702510958
20
14.4679439185711
30
0
0
SPLINE
5
2D8
100
AcDbEntity
8
1
62
256
6
ByLayer
370
13
48
1
60
0
100
AcDbSpline
70
4
71
3
72
18
73
14
40
0
40
0
40
0
40
0
40
0.500000000000002
40
0.500000000000002
40
0.625000000000002
40
0.625000000000002
40
0.687500000000002
40
0.687500000000002
40
0.718750000000003
40
0.718750000000003
40
0.750000000000003
40
0.750000000000003
40
1
40
1
40
1
40
1
41
1
10
13.1271247764178
20
-22.7510592668382
30
0
41
1
10
15.3870603922693
20
-22.2134851166973
30
0
41
1
10
17.6052664874188
20
-21.5696601900901
30
0
41
1
10
20.3242079010692
20
-20.6278534081975
30
0
41
1
10
20.8652100467573
20
-20.4326387960467
30
0
41
1
10
21.6729842754526
20
-20.1291402866289
30
0
41
1
10
21.9416157851919
20
-20.0261950537598
30
0
41
1
10
22.3436111375578
20
-19.8690743597764
30
0
41
1
10
22.4774786594148
20
-19.8163290375624
30
0
41
1
10
22.7466259320059
20
-19.7148482536382
30
0
41
1
10
22.881689782655
20
-19.6654997686164
30
0
41
1
10
24.1016715315177
20
-19.2338768341606
30
0
41
1
10
25.2171918849078
20
-18.9384945155595
30
0
41
1
10
26.3652411693607
20
-18.7354743331806
30
0
0
SPLINE
5
2D9
100
AcDbEntity
8
1
62
256
6
ByLayer
370
13
48
1
60
0
100
AcDbSpline
70
4
71
3
72
16
73
12
40
0
40
0
40
0
40
0
40
0.125
40
0.125
40
0.25
40
0.25
40
0.5
40
0.5
40
0.75
40
0.75
40
1
40
1
40
1
40
1
41
1
10
205.38728301504
20
6.72598313121259
30
0
41
1
10
205.361153423364
20
6.7516800295177
30
0
41
1
10
205.336206634375
20
6.78025888326471
30
0
41
1
10
205.289359218944
20
6.84208794660663
30
0
41
1
10
205.267308152295
20
6.8754803769985
30
0
41
1
10
205.205026261054
20
6.98324388167623
30
0
41
1
10
205.16821478765
20
7.06651078402209
30
0
41
1
10
205.10882000799
20
7.24607957959265
30
0
41
1
10
205.085517213656
20
7.34328201044289
30
0
41
1
10
205.055638811343
20
7.55185792288509
30
0
41
1
10
205.049478371591
20
7.65867230617496
30
0
41
1
10
205.05612140158
20
7.76855056728567
30
0
0
SPLINE
5
2DA
100
AcDbEntity
8
1
62
256
6
ByLayer
370
13
48
1
60
0
100
AcDbSpline
70
4
71
3
72
12
73
8
40
0
40
0
40
0
40
0
40
0.250000000000002
40
0.250000000000002
40
0.500000000000004
40
0.500000000000004
40
1
40
1
40
1
40
1
41
1
10
205.05612140158
20
7.76855056728559
30
0
41
1
10
205.060608294243
20
7.84276549094537
30
0
41
1
10
205.062785910871
20
7.91736635485105
30
0
41
1
10
205.061931587641
20
8.06743873540418
30
0
41
1
10
205.058862846886
20
8.14311379023218
30
0
41
1
10
205.041126847293
20
8.36773207746853
30
0
41
1
10
205.018042970332
20
8.51537492052074
30
0
41
1
10
204.981740165845
20
8.66054924660943
30
0
0
SPLINE
5
2DB
100
AcDbEntity
8
1
62
256
6
ByLayer
370
13
48
1
60
0
100
AcDbSpline
70
4
71
3
72
14
73
10
40
0
40
0
40
0
40
0
40
0.25
40
0.25
40
0.5
40
0.5
40
0.75
40
0.75
40
1
40
1
40
1
40
1
41
1
10
202.168674051505
20
8.81519513797431
30
0
41
1
10
202.172701369705
20
8.833112692691
30
0
41
1
10
202.181890496544
20
8.84925129757653
30
0
41
1
10
202.206012151777
20
8.8761101384134
30
0
41
1
10
202.221073763226
20
8.88710047605815
30
0
41
1
10
202.253498524455
20
8.90423215696555
30
0
41
1
10
202.271304180741
20
8.91062074097007
30
0
41
1
10
202.307665774726
20
8.9193522355975
30
0
41
1
10
202.326380384575
20
8.92179425963795
30
0
41
1
10
202.34558031975
20
8.92249439116787
30
0
0
SPLINE
5
2DC
100
AcDbEntity
8
1
62
256
6
ByLayer
370
13
48
1
60
0
100
AcDbSpline
70
2053
71
3
72
95
73
91
40
0
40
0
40
0
40
0
40
0.0312500000000032
40
0.0312500000000032
40
0.0468750000000083
40
0.0468750000000083
40
0.0625000000000133
40
0.0625000000000133
40
0.0937500000000171
40
0.0937500000000171
40
0.109375000000016
40
0.109375000000016
40
0.125000000000015
40
0.125000000000015
40
0.156250000000013
40
0.156250000000013
40
0.187500000000011
40
0.187500000000011
40
0.20312500000001
40
0.20312500000001
40
0.218750000000009
40
0.218750000000009
40
0.250000000000006
40
0.250000000000006
40
0.265625000000005
40
0.265625000000005
40
0.281250000000004
40
0.281250000000004
40
0.312500000000002
40
0.312500000000002
40
0.328125000000002
40
0.328125000000002
40
0.343750000000001
40
0.343750000000001
40
0.375
40
0.375
40
0.406249999999999
40
0.406249999999999
40
0.421874999999998
40
0.421874999999998
40
0.437499999999997
40
0.437499999999997
40
0.468749999999996
40
0.468749999999996
40
0.484374999999999
40
0.484374999999999
40
0.500000000000002
40
0.500000000000002
40
0.531250000000007
40
0.531250000000007
40
0.54687500000001
40
0.54687500000001
40
0.562500000000013
40
0.578125000000016
40
0.578125000000016
40
0.593750000000019
40
0.593750000000019
40
0.625000000000019
40
0.625000000000019
40
0.640625000000019
40
0.640625000000019
40
0.656250000000019
40
0.656250000000019
40
0.68750000000002
40
0.68750000000002
40
0.71875000000002
40
0.71875000000002
40
0.73437500000002
40
0.73437500000002
40
0.75000000000002
40
0.75000000000002
40
0.78125000000002
40
0.78125000000002
40
0.796875000000019
40
0.796875000000019
40
0.812500000000019
40
0.812500000000019
40
0.843750000000016
40
0.843750000000016
40
0.875000000000013
40
0.875000000000013
40
0.90625000000001
40
0.90625000000001
40
0.921875000000008
40
0.921875000000008
40
0.937500000000007
40
0.937500000000007
40
0.968750000000003
40
0.968750000000003
40
1
40
1
40
1
40
1
41
1
10
217.064043108068
20
-1.71518798613047
30
0
41
1
10
217.189267348151
20
-1.71518798613047
30
0
41
1
10
217.312301885283
20
-1.72796113630244
30
0
41
1
10
217.493705365917
20
-1.76547503461799
30
0
41
1
10
217.553644307731
20
-1.78106277038785
30
0
41
1
10
217.672437495718
20
-1.81855688768158
30
0
41
1
10
217.731204312402
20
-1.84048445233478
30
0
41
1
10
217.901849463975
20
-1.91422516238657
30
0
41
1
10
218.009513419448
20
-1.97431836934803
30
0
41
1
10
218.161903730224
20
-2.08072776539402
30
0
41
1
10
218.211420603324
20
-2.11916551143733
30
0
41
1
10
218.305485967726
20
-2.20010713470649
30
0
41
1
10
218.350167198907
20
-2.24265754866542
30
0
41
1
10
218.47736431261
20
-2.37634604145293
30
0
41
1
10
218.553270273594
20
-2.47374253487541
30
0
41
1
10
218.685764472044
20
-2.68369733729176
30
0
41
1
10
218.740601995651
20
-2.79335482061958
30
0
41
1
10
218.806697289155
20
-2.9644002825107
30
0
41
1
10
218.82601575977
20
-3.02251699822222
30
0
41
1
10
218.859157184573
20
-3.14097229576879
30
0
41
1
10
218.872919455162
20
-3.20123320077582
30
0
41
1
10
218.905216979674
20
-3.38160976950857
30
0
41
1
10
218.915212810544
20
-3.50253731213047
30
0
41
1
10
218.913296836783
20
-3.6848975204507
30
0
41
1
10
218.9097872224
20
-3.74612470388701
30
0
41
1
10
218.89708485336
20
-3.86751645237038
30
0
41
1
10
218.887946007096
20
-3.92746151849602
30
0
41
1
10
218.852430300574
20
-4.10512235698306
30
0
41
1
10
218.818030051396
20
-4.22068223940485
30
0
41
1
10
218.750000446727
20
-4.38966861492744
30
0
41
1
10
218.72449105978
20
-4.44534199500791
30
0
41
1
10
218.668928248906
20
-4.55297211458625
30
0
41
1
10
218.638771870015
20
-4.60521920317862
30
0
41
1
10
218.541236788522
20
-4.75732457719116
30
0
41
1
10
218.466869003406
20
-4.85259552535871
30
0
41
1
10
218.298034923328
20
-5.03013562799663
30
0
41
1
10
218.205802795924
20
-5.10993469595263
30
0
41
1
10
218.057066275228
20
-5.21513487172248
30
0
41
1
10
218.00567574963
20
-5.24783936779696
30
0
41
1
10
217.899120919647
20
-5.30835323234865
30
0
41
1
10
217.843612132676
20
-5.33630797835357
30
0
41
1
10
217.673679496394
20
-5.41118784477277
30
0
41
1
10
217.556813728628
20
-5.44899677501817
30
0
41
1
10
217.376121902611
20
-5.48755879890209
30
0
41
1
10
217.314986173303
20
-5.49736582659204
30
0
41
1
10
217.190817945147
20
-5.51060457982894
30
0
41
1
10
217.128305003605
20
-5.51394487904406
30
0
41
1
10
216.942487293329
20
-5.51418727537049
30
0
41
1
10
216.819676623241
20
-5.50154741431933
30
0
41
1
10
216.637070180557
20
-5.46325268350304
30
0
41
1
10
216.576508303671
20
-5.44719676564353
30
0
41
1
10
216.458804736365
20
-5.4094121994506
30
0
41
1
10
216.343764398701
20
-5.36581943281357
30
0
41
1
10
216.233883251289
20
-5.31093618598086
30
0
41
1
10
216.12657548442
20
-5.25039768447377
30
0
41
1
10
216.074115056511
20
-5.21719298468128
30
0
41
1
10
215.923827150562
20
-5.11127877368466
30
0
41
1
10
215.831873193947
20
-5.0317567323323
30
0
41
1
10
215.705740083345
20
-4.89955602860906
30
0
41
1
10
215.665498997941
20
-4.85307317363669
30
0
41
1
10
215.590247243027
20
-4.75722538257568
30
0
41
1
10
215.555163554955
20
-4.70783414931338
30
0
41
1
10
215.457263072184
20
-4.55538598290812
30
0
41
1
10
215.401726967012
20
-4.44809441654621
30
0
41
1
10
215.310416865378
20
-4.22187313176417
30
0
41
1
10
215.275821485577
20
-4.10570895259991
30
0
41
1
10
215.240282828851
20
-3.92829462021004
30
0
41
1
10
215.231153592183
20
-3.86855387771109
30
0
41
1
10
215.218435668654
20
-3.74783882219432
30
0
41
1
10
215.214848521783
20
-3.68655821415763
30
0
41
1
10
215.212797922597
20
-3.50316300718282
30
0
41
1
10
215.222840864407
20
-3.38222263045372
30
0
41
1
10
215.25484642237
20
-3.20279857466076
30
0
41
1
10
215.268357294378
20
-3.14332418344159
30
0
41
1
10
215.301271938733
20
-3.02507527212768
30
0
41
1
10
215.320781613269
20
-2.96610691627146
30
0
41
1
10
215.38708480806
20
-2.79412332965626
30
0
41
1
10
215.441825059004
20
-2.68480338856506
30
0
41
1
10
215.572554811403
20
-2.47701326466802
30
0
41
1
10
215.649544087552
20
-2.37773611545845
30
0
41
1
10
215.819326822841
20
-2.19898631783045
30
0
41
1
10
215.912444031533
20
-2.11855431229546
30
0
41
1
10
216.064778554515
20
-2.01173643576271
30
0
41
1
10
216.117961360775
20
-1.9783240202751
30
0
41
1
10
216.226367907969
20
-1.91768501459225
30
0
41
1
10
216.281782577032
20
-1.8902876336445
30
0
41
1
10
216.451594510302
20
-1.81671344874454
30
0
41
1
10
216.569914163216
20
-1.77898400018012
30
0
41
1
10
216.814871551398
20
-1.72797604210831
30
0
41
1
10
216.938818867986
20
-1.71518798613047
30
0
41
1
10
217.064043108068
20
-1.71518798613047
30
0
0
SPLINE
5
2DD
100
AcDbEntity
8
1
62
256
6
ByLayer
370
13
48
1
60
0
100
AcDbSpline
70
4
71
3
72
8
73
4
40
0
40
0
40
0
40
0
40
1
40
1
40
1
40
1
41
1
10
30
20
-6.56260047784065
30
0
41
1
10
29.7317552698248
20
-6.56265242556165
30
0
41
1
10
29.4638065227561
20
-6.5629064510893
30
0
41
1
10
29.1961524558151
20
-6.56336181620836
30
0
0
SPLINE
5
2DE
100
AcDbEntity
8
1
62
256
6
ByLayer
370
13
48
1
60
0
100
AcDbSpline
70
4
71
3
72
10
73
6
40
0
40
0
40
0
40
0
40
0.5
40
0.5
40
1
40
1
40
1
40
1
41
1
10
199.36399241641
20
17.5051223306391
30
0
41
1
10
199.818755297939
20
16.6196433830637
30
0
41
1
10
200.318699553743
20
15.7636233023256
30
0
41
1
10
201.424629378286
20
14.1207235104624
30
0
41
1
10
202.030694882515
20
13.3338959183576
30
0
41
1
10
202.696774260544
20
12.5861981833019
30
0
0
SPLINE
5
2DF
100
AcDbEntity
8
1
62
256
6
ByLayer
370
13
48
1
60
0
100
AcDbSpline
70
4
71
3
72
8
73
4
40
0
40
0
40
0
40
0
40
1
40
1
40
1
40
1
41
1
10
30
20
-18.4614326827401
30
0
41
1
10
29.731758095335
20
-18.4614369630623
30
0
41
1
10
29.4638093360873
20
-18.467060993262
30
0
41
1
10
29.1961524499217
20
-18.4782803496361
30
0
0
SPLINE
5
2E0
100
AcDbEntity
8
1
62
256
6
ByLayer
370
13
48
1
60
0
100
AcDbSpline
70
4
71
3
72
8
73
4
40
0
40
0
40
0
40
0
40
1
40
1
40
1
40
1
41
1
10
201.74889732202
20
6.81931413698752
30
0
41
1
10
201.188754111899
20
6.84069256394352
30
0
41
1
10
200.628697906429
20
6.86005394828592
30
0
41
1
10
200.06871553552
20
6.87739959511762
30
0
0
SPLINE
5
2E1
100
AcDbEntity
8
1
62
256
6
ByLayer
370
13
48
1
60
0
100
AcDbSpline
70
4
71
3
72
8
73
4
40
0
40
0
40
0
40
0
40
1
40
1
40
1
40
1
41
1
10
199.907863283122
20
2.03702508143004
30
0
41
1
10
199.80315302914
20
2.08740140951087
30
0
41
1
10
199.698476159143
20
2.13791798051148
30
0
41
1
10
199.593832472442
20
2.18857395135734
30
0
0
SPLINE
5
2E2
100
AcDbEntity
8
1
62
256
6
ByLayer
370
13
48
1
60
0
100
AcDbSpline
70
4
71
3
72
20
73
16
40
0
40
0
40
0
40
0
40
0.249999999999993
40
0.249999999999993
40
0.374999999999994
40
0.374999999999994
40
0.499999999999996
40
0.499999999999996
40
0.624999999999997
40
0.624999999999997
40
0.749999999999998
40
0.749999999999998
40
0.874999999999999
40
0.874999999999999
40
1
40
1
40
1
40
1
41
1
10
201.74889732202
20
6.81931413698749
30
0
41
1
10
201.79256613828
20
6.95352982467446
30
0
41
1
10
201.83202713453
20
7.1012000962516
30
0
41
1
10
201.889053012072
20
7.34203751683756
30
0
41
1
10
201.90768102105
20
7.42587452258675
30
0
41
1
10
201.943347184806
20
7.59508865244291
30
0
41
1
10
201.96052712005
20
7.68105268140116
30
0
41
1
10
201.993977258949
20
7.85560688505862
30
0
41
1
10
202.010303580353
20
7.94455066829644
30
0
41
1
10
202.042242478502
20
8.12356501963285
30
0
41
1
10
202.057618914118
20
8.21232055671587
30
0
41
1
10
202.088021548086
20
8.38823024954618
30
0
41
1
10
202.10301490673
20
8.47539051351015
30
0
41
1
10
202.134177290248
20
8.64778878182281
30
0
41
1
10
202.150252726062
20
8.7332385876945
30
0
41
1
10
202.168674051505
20
8.81519513797437
30
0
0
SPLINE
5
2E3
100
AcDbEntity
8
1
62
256
6
ByLayer
370
13
48
1
60
0
100
AcDbSpline
70
4
71
3
72
8
73
4
40
0
40
0
40
0
40
0
40
1
40
1
40
1
40
1
41
1
10
0.0999999999999801
20
-4.94974746830573
30
0
41
1
10
0.0649210758567591
20
-4.77434389911281
30
0
41
1
10
0.0315748582919468
20
-4.59865317079695
30
0
41
1
10
0
20
-4.42266887749926
30
0
0
SPLINE
5
2E4
100
AcDbEntity
8
1
62
256
6
ByLayer
370
13
48
1
60
0
100
AcDbSpline
70
4
71
3
72
8
73
4
40
0
40
0
40
0
40
0
40
1
40
1
40
1
40
1
41
1
10
222.415476188022
20
0.306825574411533
30
0
41
1
10
222.413443588573
20
0.362420798299524
30
0
41
1
10
222.413152424293
20
0.416841714628276
30
0
41
1
10
222.41449223533
20
0.468064346338139
30
0
0
SPLINE
5
2E5
100
AcDbEntity
8
1
62
256
6
ByLayer
370
13
48
1
60
0
100
AcDbSpline
70
4
71
3
72
16
73
12
40
0
40
0
40
0
40
0
40
0.182815691750669
40
0.182815691750669
40
0.455210461167113
40
0.455210461167113
40
0.591407845875335
40
0.591407845875335
40
0.727605230583557
40
0.727605230583557
40
1
40
1
40
1
40
1
41
1
10
12.9119897077583
20
-10.7565951432066
30
0
41
1
10
12.3406531184654
20
-11.276541892314
30
0
41
1
10
11.8025325595617
20
-11.8170848952252
30
0
41
1
10
10.5415607029622
20
-13.2121779537735
30
0
41
1
10
9.8572207695529
20
-14.0905331648614
30
0
41
1
10
8.94089867528794
20
-15.4756120111951
30
0
41
1
10
8.653554214704
20
-15.9500259878941
30
0
41
1
10
8.12430223188349
20
-16.9097324720736
30
0
41
1
10
7.8812155906195
20
-17.3961128075002
30
0
41
1
10
7.21333519585156
20
-18.8736846549323
30
0
41
1
10
6.8492895674888
20
-19.8831296702434
30
0
41
1
10
6.5650306825945
20
-20.9159834305482
30
0
0
SPLINE
5
2E6
100
AcDbEntity
8
1
62
256
6
ByLayer
370
13
48
1
60
0
100
AcDbSpline
70
4
71
3
72
42
73
38
40
0
40
0
40
0
40
0
40
0.125000000000002
40
0.125000000000002
40
0.1875
40
0.1875
40
0.249999999999999
40
0.249999999999999
40
0.374999999999995
40
0.374999999999995
40
0.406249999999996
40
0.406249999999996
40
0.437499999999996
40
0.437499999999996
40
0.500000000000002
40
0.500000000000002
40
0.531250000000002
40
0.531250000000002
40
0.562500000000002
40
0.562500000000002
40
0.625000000000003
40
0.625000000000003
40
0.687500000000004
40
0.687500000000004
40
0.718750000000003
40
0.718750000000003
40
0.750000000000003
40
0.750000000000003
40
0.812500000000002
40
0.812500000000002
40
0.843750000000002
40
0.843750000000002
40
0.875000000000002
40
0.875000000000002
40
0.937500000000001
40
0.937500000000001
40
1
40
1
40
1
40
1
41
1
10
204.42350104165
20
1.31292951395824
30
0
41
1
10
205.08421375319
20
1.20264139581468
30
0
41
1
10
205.749241248337
20
1.11301155113213
30
0
41
1
10
206.755913523119
20
1.02228423889204
30
0
41
1
10
207.092997245979
20
0.999349393922387
30
0
41
1
10
207.770771944929
20
0.970750471284362
30
0
41
1
10
208.111871248053
20
0.965078054776768
30
0
41
1
10
209.139080556063
20
0.978984626980804
30
0
41
1
10
209.812650641012
20
1.0288278469516
30
0
41
1
10
210.636714136345
20
1.15576323719648
30
0
41
1
10
210.800621882351
20
1.18441798324989
30
0
41
1
10
211.126477729364
20
1.24880349900494
30
0
41
1
10
211.288137608078
20
1.28450873510658
30
0
41
1
10
211.763354672235
20
1.40135835092664
30
0
41
1
10
212.069293557047
20
1.49258736501437
30
0
41
1
10
212.510427242831
20
1.65122193587965
30
0
41
1
10
212.654501137169
20
1.70774205421827
30
0
41
1
10
212.936332233427
20
1.82852632101409
30
0
41
1
10
213.074632100273
20
1.89307085741558
30
0
41
1
10
213.475417434236
20
2.097220952546
30
0
41
1
10
213.721130394034
20
2.24570489318629
30
0
41
1
10
214.168906479453
20
2.56784144661429
30
0
41
1
10
214.370997662973
20
2.74147788110244
30
0
41
1
10
214.638786748156
20
3.0223141548957
30
0
41
1
10
214.722248791178
20
3.11962625613154
30
0
41
1
10
214.873335130733
20
3.31680810977451
30
0
41
1
10
214.941489964678
20
3.41717656867789
30
0
41
1
10
215.124256763618
20
3.72350211456828
30
0
41
1
10
215.217289913191
20
3.9346507680421
30
0
41
1
10
215.313272845392
20
4.26185531981804
30
0
41
1
10
215.337876350783
20
4.37268784712322
30
0
41
1
10
215.371787411808
20
4.59347406617192
30
0
41
1
10
215.381279873714
20
4.70397636265233
30
0
41
1
10
215.388310731815
20
5.0357970212938
30
0
41
1
10
215.36450013818
20
5.25742772564777
30
0
41
1
10
215.262123105911
20
5.70149022896661
30
0
41
1
10
215.184520721363
20
5.91951618414726
30
0
41
1
10
215.083691857338
20
6.13306846137982
30
0
0
SPLINE
5
2E7
100
AcDbEntity
8
1
62
256
6
ByLayer
370
13
48
1
60
0
100
AcDbSpline
70
4
71
3
72
10
73
6
40
0
40
0
40
0
40
0
40
0.5
40
0.5
40
1
40
1
40
1
40
1
41
1
10
203.219789309966
20
8.88519317106972
30
0
41
1
10
203.260873652936
20
8.88450808457063
30
0
41
1
10
203.302166371108
20
8.88223031826007
30
0
41
1
10
203.385444633975
20
8.87237928598566
30
0
41
1
10
203.427113303802
20
8.86491870995974
30
0
41
1
10
203.468253403203
20
8.85270544721041
30
0
0
SPLINE
5
2E8
100
AcDbEntity
8
1
62
256
6
ByLayer
370
13
48
1
60
0
100
AcDbSpline
70
4
71
3
72
8
73
4
40
0
40
0
40
0
40
0
40
1
40
1
40
1
40
1
41
1
10
222.421023580436
20
0.473733290581976
30
0
41
1
10
222.540219558948
20
0.494983059477619
30
0
41
1
10
222.65872036474
20
0.505081638937071
30
0
41
1
10
222.777498657341
20
0.50562035679323
30
0
0
SPLINE
5
2E9
100
AcDbEntity
8
1
62
256
6
ByLayer
370
13
48
1
60
0
100
AcDbSpline
70
4
71
3
72
10
73
6
40
0
40
0
40
0
40
0
40
0.5
40
0.5
40
1
40
1
40
1
40
1
41
1
10
221.62305302064
20
-2.94850481323112
30
0
41
1
10
221.676850771624
20
-3.24304816468376
30
0
41
1
10
221.709653577854
20
-3.53702709524725
30
0
41
1
10
221.735983444404
20
-4.12369271756887
30
0
41
1
10
221.729501765873
20
-4.416380018853
30
0
41
1
10
221.703487142556
20
-4.70838498682261
30
0
0
SPLINE
5
2EA
100
AcDbEntity
8
1
62
256
6
ByLayer
370
13
48
1
60
0
100
AcDbSpline
70
4
71
3
72
8
73
4
40
0
40
0
40
0
40
0
40
1
40
1
40
1
40
1
41
1
10
30.0099999999997
20
-17.875906165862
30
0
41
1
10
29.7387174830041
20
-17.8758480807046
30
0
41
1
10
29.467434966047
20
-17.8757898633819
30
0
41
1
10
29.1961524490705
20
-17.8757317124347
30
0
0
SPLINE
5
2EB
100
AcDbEntity
8
1
62
256
6
ByLayer
370
13
48
1
60
0
100
AcDbSpline
70
4
71
3
72
8
73
4
40
0
40
0
40
0
40
0
40
1
40
1
40
1
40
1
41
1
10
208.984982986136
20
13.3381910073451
30
0
41
1
10
208.971838664414
20
13.3096533561026
30
0
41
1
10
208.9568293175
20
13.2836743348809
30
0
41
1
10
208.940780711297
20
13.260185566632
30
0
0
SPLINE
5
2EC
100
AcDbEntity
8
1
62
256
6
ByLayer
370
13
48
1
60
0
100
AcDbSpline
70
4
71
3
72
10
73
6
40
0
40
0
40
0
40
0
40
0.5
40
0.5
40
1
40
1
40
1
40
1
41
1
10
202.34558031975
20
8.92249439116802
30
0
41
1
10
202.491054096557
20
8.92779913709518
30
0
41
1
10
202.63540467266
20
8.9278063802457
30
0
41
1
10
202.921776682654
20
8.91656564633712
30
0
41
1
10
203.062100775159
20
8.90533314201306
30
0
41
1
10
203.197821530187
20
8.88865916993609
30
0
0
SPLINE
5
2ED
100
AcDbEntity
8
1
62
256
6
ByLayer
370
13
48
1
60
0
100
AcDbSpline
70
4
71
3
72
8
73
4
40
0
40
0
40
0
40
0
40
1
40
1
40
1
40
1
41
1
10
204.66190056123
20
-0.171056985597886
30
0
41
1
10
205.578731829572
20
-0.244817370009855
30
0
41
1
10
206.495619747066
20
-0.318210920839562
30
0
41
1
10
207.412560194403
20
-0.391258001125806
30
0
0
SPLINE
5
2EE
100
AcDbEntity
8
1
62
256
6
ByLayer
370
13
48
1
60
0
100
AcDbSpline
70
4
71
3
72
8
73
4
40
0
40
0
40
0
40
0
40
1
40
1
40
1
40
1
41
1
10
212.731580251915
20
6.85815865866067
30
0
41
1
10
212.687136380105
20
6.76579859471246
30
0
41
1
10
212.636643737381
20
6.67575256009962
30
0
41
1
10
212.581015090067
20
6.59031583366584
30
0
0
SPLINE
5
2EF
100
AcDbEntity
8
1
62
256
6
ByLayer
370
13
48
1
60
0
100
AcDbSpline
70
4
71
3
72
8
73
4
40
0
40
0
40
0
40
0
40
1
40
1
40
1
40
1
41
1
10
202.862163996045
20
1.69206914987652
30
0
41
1
10
202.966129820241
20
1.6575725601418
30
0
41
1
10
203.070575916626
20
1.62428196993741
30
0
41
1
10
203.175522300336
20
1.59224069552363
30
0
0
SPLINE
5
2F0
100
AcDbEntity
8
1
62
256
6
ByLayer
370
13
48
1
60
0
100
AcDbSpline
70
4
71
3
72
18
73
14
40
0
40
0
40
0
40
0
40
0.176425191562532
40
0.176425191562532
40
0.352850383125065
40
0.352850383125065
40
0.529275574687597
40
0.529275574687597
40
0.705700766250129
40
0.705700766250129
40
0.882125957812662
40
0.882125957812662
40
1
40
1
40
1
40
1
41
1
10
30.01
20
-10.5325217966578
30
0
41
1
10
30.01
20
-10.3212083881145
30
0
41
1
10
30.01
20
-10.1015561337584
30
0
41
1
10
30.01
20
-9.64626917874165
30
0
41
1
10
30.01
20
-9.40878575084531
30
0
41
1
10
30.01
20
-8.92541940452364
30
0
41
1
10
30.01
20
-8.68294480527928
30
0
41
1
10
30.01
20
-8.19645418059898
30
0
41
1
10
30.01
20
-7.94991364159063
30
0
41
1
10
30.01
20
-7.469840489913
30
0
41
1
10
30.01
20
-7.23646563074564
30
0
41
1
10
30.01
20
-6.85816267200332
30
0
41
1
10
30.01
20
-6.70883009209038
30
0
41
1
10
30.01
20
-6.56470879666196
30
0
0
SPLINE
5
2F1
100
AcDbEntity
8
1
62
256
6
ByLayer
370
13
48
1
60
0
100
AcDbSpline
70
4
71
3
72
14
73
10
40
0
40
0
40
0
40
0
40
0.499999999999996
40
0.499999999999996
40
0.624999999999998
40
0.624999999999998
40
0.75
40
0.75
40
1
40
1
40
1
40
1
41
1
10
29.1961524499217
20
-18.4782803496361
30
0
41
1
10
28.7003867689021
20
-18.4990613276004
30
0
41
1
10
28.214823997523
20
-18.5336178882501
30
0
41
1
10
27.6200861792622
20
-18.5900549534692
30
0
41
1
10
27.5017571545463
20
-18.6019856575587
30
0
41
1
10
27.2663541488552
20
-18.6269516332155
30
0
41
1
10
27.149025859444
20
-18.6400197309962
30
0
41
1
10
26.803688491174
20
-18.6799785119947
30
0
41
1
10
26.5808621079184
20
-18.7077797826139
30
0
41
1
10
26.3652411693607
20
-18.7354743331806
30
0
0
SPLINE
5
2F2
100
AcDbEntity
8
1
62
256
6
ByLayer
370
13
48
1
60
0
100
AcDbSpline
70
4
71
1
72
4
73
2
40
0
40
0
40
1
40
1
41
1
10
30.0100000006722
20
-17.8620832142159
30
0
41
1
10
30.0099999993278
20
-17.8759061658466
30
0
0
SPLINE
5
2F3
100
AcDbEntity
8
1
62
256
6
ByLayer
370
13
48
1
60
0
100
AcDbSpline
70
4
71
3
72
12
73
8
40
0
40
0
40
0
40
0
40
0.24999999999999
40
0.24999999999999
40
0.49999999999998
40
0.49999999999998
40
1
40
1
40
1
40
1
41
1
10
203.468253403202
20
8.85270544718193
30
0
41
1
10
203.601517060916
20
8.81498139885781
30
0
41
1
10
203.732351796717
20
8.78414376755177
30
0
41
1
10
203.990957848169
20
8.73433319408545
30
0
41
1
10
204.119009090811
20
8.71520823810869
30
0
41
1
10
204.498165595656
20
8.67160802913634
30
0
41
1
10
204.742181129407
20
8.66055419570009
30
0
41
1
10
204.981740165841
20
8.66054924660867
30
0
0
SPLINE
5
2F4
100
AcDbEntity
8
1
62
256
6
ByLayer
370
18
48
1
60
0
100
AcDbSpline
70
4
71
3
72
16
73
12
40
0
40
0
40
0
40
0
40
0.249999999999958
40
0.249999999999958
40
0.499999999999916
40
0.499999999999916
40
0.749999999999875
40
0.749999999999875
40
0.874999999999937
40
0.874999999999937
40
1
40
1
40
1
40
1
41
1
10
217.170311292124
20
11.3106040602694
30
0
41
1
10
217.13870716966
20
11.289996553011
30
0
41
1
10
217.105243784759
20
11.2720972189961
30
0
41
1
10
217.035285350581
20
11.2431419703637
30
0
41
1
10
216.998775889959
20
11.2320015216195
30
0
41
1
10
216.924051429427
20
11.2210068309839
30
0
41
1
10
216.88528912435
20
11.2209406546274
30
0
41
1
10
216.833627748831
20
11.2391071549184
30
0
41
1
10
216.817901814125
20
11.2484646587077
30
0
41
1
10
216.79419380524
20
11.2731628057499
30
0
41
1
10
216.78632645722
20
11.2883398979438
30
0
41
1
10
216.782544765121
20
11.3045714275763
30
0
0
SPLINE
5
2F5
100
AcDbEntity
8
1
62
256
6
ByLayer
370
18
48
1
60
0
100
AcDbSpline
70
4
71
3
72
8
73
4
40
0
40
0
40
0
40
0
40
1
40
1
40
1
40
1
41
1
10
215.179905250713
20
12.7517436159001
30
0
41
1
10
215.186177326169
20
12.7524047606033
30
0
41
1
10
215.192450813957
20
12.7530660400636
30
0
41
1
10
215.198725780142
20
12.7537274605622
30
0
0
SPLINE
5
2F6
100
AcDbEntity
8
1
62
256
6
ByLayer
370
18
48
1
60
0
100
AcDbSpline
70
4
71
3
72
18
73
14
40
0
40
0
40
0
40
0
40
0.125000000000028
40
0.125000000000028
40
0.250000000000056
40
0.250000000000056
40
0.500000000000002
40
0.500000000000002
40
0.749999999999949
40
0.749999999999949
40
0.874999999999975
40
0.874999999999975
40
1
40
1
40
1
40
1
41
1
10
216.769848393795
20
11.3207515655008
30
0
41
1
10
216.753021147894
20
11.3421975017249
30
0
41
1
10
216.729863240674
20
11.3587512124382
30
0
41
1
10
216.678861941878
20
11.3853599753105
30
0
41
1
10
216.650986791109
20
11.3952786413026
30
0
41
1
10
216.564864582155
20
11.4174252644227
30
0
41
1
10
216.503757355884
20
11.4223190799611
30
0
41
1
10
216.383845816445
20
11.416013444833
30
0
41
1
10
216.325243494352
20
11.4048773142103
30
0
41
1
10
216.245992601384
20
11.3740063748312
30
0
41
1
10
216.221022643942
20
11.3612821598371
30
0
41
1
10
216.177343793985
20
11.329757551304
30
0
41
1
10
216.158480061758
20
11.3110583968451
30
0
41
1
10
216.146663655628
20
11.2880918372904
30
0
0
SPLINE
5
2F7
100
AcDbEntity
8
1
62
256
6
ByLayer
370
18
48
1
60
0
100
AcDbSpline
70
4
71
3
72
8
73
4
40
0
40
0
40
0
40
0
40
1
40
1
40
1
40
1
41
1
10
216.011463602333
20
13.6806049187122
30
0
41
1
10
216.01501843676
20
13.6751770857997
30
0
41
1
10
216.018574187054
20
13.6697482751276
30
0
41
1
10
216.022130896237
20
13.6643184413459
30
0
0
SPLINE
5
2F8
100
AcDbEntity
8
1
62
256
6
ByLayer
370
18
48
1
60
0
100
AcDbSpline
70
4
71
3
72
8
73
4
40
0
40
0
40
0
40
0
40
1
40
1
40
1
40
1
41
1
10
217.228562535347
20
13.4214494759562
30
0
41
1
10
217.225506906876
20
13.4153427642062
30
0
41
1
10
217.222450986474
20
13.4092349506586
30
0
41
1
10
217.219394761111
20
13.403125984207
30
0
0
SPLINE
5
2F9
100
AcDbEntity
8
1
62
256
6
ByLayer
370
18
48
1
60
0
100
AcDbSpline
70
4
71
3
72
18
73
14
40
0
40
0
40
0
40
0
40
0.124999999999997
40
0.124999999999997
40
0.249999999999993
40
0.249999999999993
40
0.499999999999986
40
0.499999999999986
40
0.749999999999979
40
0.749999999999979
40
0.87499999999999
40
0.87499999999999
40
1
40
1
40
1
40
1
41
1
10
215.198725780142
20
12.7537274605622
30
0
41
1
10
215.223672445042
20
12.75635699434
30
0
41
1
10
215.247777046616
20
12.7670798970687
30
0
41
1
10
215.293187284957
20
12.7961553001211
30
0
41
1
10
215.314401035382
20
12.8146100961041
30
0
41
1
10
215.373474289366
20
12.8764403574826
30
0
41
1
10
215.40717564515
20
12.9264541322898
30
0
41
1
10
215.46164993306
20
13.033901004924
30
0
41
1
10
215.482370281516
20
13.0911226533703
30
0
41
1
10
215.498402399755
20
13.1774909243733
30
0
41
1
10
215.501174891648
20
13.2064029251532
30
0
41
1
10
215.498823562792
20
13.2621294474151
30
0
41
1
10
215.493858095592
20
13.2890238639801
30
0
41
1
10
215.481912552415
20
13.3120684001055
30
0
0
SPLINE
5
2FA
100
AcDbEntity
8
1
62
256
6
ByLayer
370
18
48
1
60
0
100
AcDbSpline
70
4
71
3
72
18
73
14
40
0
40
0
40
0
40
0
40
0.125000000000032
40
0.125000000000032
40
0.250000000000063
40
0.250000000000063
40
0.500000000000033
40
0.500000000000033
40
0.750000000000003
40
0.750000000000003
40
0.875000000000002
40
0.875000000000002
40
1
40
1
40
1
40
1
41
1
10
217.559392727005
20
12.8774447728742
30
0
41
1
10
217.531589130092
20
12.8773112815643
30
0
41
1
10
217.504072093343
20
12.8853479410694
30
0
41
1
10
217.451669155478
20
12.9093467426809
30
0
41
1
10
217.426879064885
20
12.92542062445
30
0
41
1
10
217.357411699812
20
12.9806132751886
30
0
41
1
10
217.317198866256
20
13.0268336763492
30
0
41
1
10
217.251794023128
20
13.1281506309453
30
0
41
1
10
217.226864469549
20
13.1826116630187
30
0
41
1
10
217.206136902793
20
13.2668085418432
30
0
41
1
10
217.202099849004
20
13.2952821699134
30
0
41
1
10
217.202680245446
20
13.3510091509689
30
0
41
1
10
217.207168277642
20
13.3786869561723
30
0
41
1
10
217.219394761111
20
13.4031259842071
30
0
0
SPLINE
5
2FB
100
AcDbEntity
8
1
62
256
6
ByLayer
370
18
48
1
60
0
100
AcDbSpline
70
4
71
3
72
16
73
12
40
0
40
0
40
0
40
0
40
0.125000000000002
40
0.125000000000002
40
0.250000000000004
40
0.250000000000004
40
0.500000000000002
40
0.500000000000002
40
0.750000000000001
40
0.750000000000001
40
1
40
1
40
1
40
1
41
1
10
216.137757198728
20
11.2707795431123
30
0
41
1
10
216.137437328475
20
11.2543184601016
30
0
41
1
10
216.132996722865
20
11.2384841140888
30
0
41
1
10
216.114999410956
20
11.2113667679101
30
0
41
1
10
216.101725099023
20
11.2005938029906
30
0
41
1
10
216.056373503825
20
11.1776365891432
30
0
41
1
10
216.018981052456
20
11.1735682511242
30
0
41
1
10
215.945543983385
20
11.1768379934586
30
0
41
1
10
215.908665764799
20
11.1841675717322
30
0
41
1
10
215.837041127478
20
11.2056709331377
30
0
41
1
10
215.802139299334
20
11.2199543066322
30
0
41
1
10
215.768561870303
20
11.2371414859604
30
0
0
SPLINE
5
2FC
100
AcDbEntity
8
1
62
256
6
ByLayer
370
18
48
1
60
0
100
AcDbSpline
70
4
71
3
72
8
73
4
40
0
40
0
40
0
40
0
40
1
40
1
40
1
40
1
41
1
10
217.59325350989
20
12.2313425462845
30
0
41
1
10
217.600204412797
20
12.2320393911256
30
0
41
1
10
217.6071542664
20
12.2327361174163
30
0
41
1
10
217.614103116741
20
12.2334327303883
30
0
0
SPLINE
5
2FD
100
AcDbEntity
8
1
62
256
6
ByLayer
370
18
48
1
60
0
100
AcDbSpline
70
4
71
3
72
16
73
12
40
0
40
0
40
0
40
0
40
0.124999999999998
40
0.124999999999998
40
0.249999999999996
40
0.249999999999996
40
0.499999999999998
40
0.499999999999998
40
0.749999999999999
40
0.749999999999999
40
1
40
1
40
1
40
1
41
1
10
217.321099616261
20
11.6557367863495
30
0
41
1
10
217.335611278037
20
11.6464851320816
30
0
41
1
10
217.34753059127
20
11.6339525465469
30
0
41
1
10
217.362818074785
20
11.603347348283
30
0
41
1
10
217.365871873861
20
11.5857997273285
30
0
41
1
10
217.363987400281
20
11.5333587058614
30
0
41
1
10
217.349222216785
20
11.4981706795442
30
0
41
1
10
217.310289898056
20
11.4350441799641
30
0
41
1
10
217.285716910884
20
11.4063713579403
30
0
41
1
10
217.231613221851
20
11.354491218097
30
0
41
1
10
217.201908231043
20
11.3312068834881
30
0
41
1
10
217.170311292124
20
11.3106040602694
30
0
0
SPLINE
5
2FE
100
AcDbEntity
8
1
62
256
6
ByLayer
370
18
48
1
60
0
100
AcDbSpline
70
4
71
3
72
8
73
4
40
0
40
0
40
0
40
0
40
1
40
1
40
1
40
1
41
1
10
216.146663655628
20
11.2880918372904
30
0
41
1
10
216.143694002652
20
11.2823199713612
30
0
41
1
10
216.140725196367
20
11.276549223168
30
0
41
1
10
216.137757198728
20
11.2707795431123
30
0
0
SPLINE
5
2FF
100
AcDbEntity
8
1
62
256
6
ByLayer
370
18
48
1
60
0
100
AcDbSpline
70
4
71
3
72
8
73
4
40
0
40
0
40
0
40
0
40
1
40
1
40
1
40
1
41
1
10
216.645315634403
20
13.6969781695563
30
0
41
1
10
216.648961224102
20
13.7027854598281
30
0
41
1
10
216.652606396201
20
13.7085916548516
30
0
41
1
10
216.656251168726
20
13.7143968031762
30
0
0
SPLINE
5
300
100
AcDbEntity
8
1
62
256
6
ByLayer
370
18
48
1
60
0
100
AcDbSpline
70
4
71
3
72
8
73
4
40
0
40
0
40
0
40
0
40
1
40
1
40
1
40
1
41
1
10
215.481912552415
20
13.3120684001055
30
0
41
1
10
215.47891044522
20
13.3178598628015
30
0
41
1
10
215.475909190921
20
13.3236502332743
30
0
41
1
10
215.472908751194
20
13.3294395599389
30
0
0
SPLINE
5
301
100
AcDbEntity
8
1
62
256
6
ByLayer
370
18
48
1
60
0
100
AcDbSpline
70
4
71
3
72
16
73
12
40
0
40
0
40
0
40
0
40
0.249999999999961
40
0.249999999999961
40
0.499999999999923
40
0.499999999999923
40
0.749999999999884
40
0.749999999999884
40
0.874999999999942
40
0.874999999999942
40
1
40
1
40
1
40
1
41
1
10
215.640774630125
20
13.6754672827414
30
0
41
1
10
215.672378752589
20
13.6960747899998
30
0
41
1
10
215.705660254325
20
13.7139645919219
30
0
41
1
10
215.774794039428
20
13.7428766225276
30
0
41
1
10
215.81067038241
20
13.7539838909823
30
0
41
1
10
215.883278447975
20
13.7648676660577
30
0
41
1
10
215.920569013608
20
13.7648567118182
30
0
41
1
10
215.968603716402
20
13.7465001456635
30
0
41
1
10
215.982870233777
20
13.7370661570528
30
0
41
1
10
216.003330314431
20
13.7121977933047
30
0
41
1
10
216.009426642714
20
13.6969278858994
30
0
41
1
10
216.011463602333
20
13.6806049187122
30
0
0
SPLINE
5
302
100
AcDbEntity
8
1
62
256
6
ByLayer
370
18
48
1
60
0
100
AcDbSpline
70
4
71
3
72
18
73
14
40
0
40
0
40
0
40
0
40
0.12499999999998
40
0.12499999999998
40
0.24999999999996
40
0.24999999999996
40
0.374999999999941
40
0.374999999999941
40
0.499999999999921
40
0.499999999999921
40
0.74999999999996
40
0.74999999999996
40
1
40
1
40
1
40
1
41
1
10
217.614103116741
20
12.2334327303883
30
0
41
1
10
217.630470957144
20
12.2278619949425
30
0
41
1
10
217.648055644868
20
12.2263514408947
30
0
41
1
10
217.682237319649
20
12.2333361490342
30
0
41
1
10
217.698531989647
20
12.2417981560399
30
0
41
1
10
217.726491689581
20
12.2644041156775
30
0
41
1
10
217.738630939953
20
12.2786808853254
30
0
41
1
10
217.759200886997
20
12.3098046896263
30
0
41
1
10
217.767671580786
20
12.3266126767907
30
0
41
1
10
217.788973565328
20
12.3788314243125
30
0
41
1
10
217.797769351378
20
12.4159180382152
30
0
41
1
10
217.807947145082
20
12.4908476785958
30
0
41
1
10
217.809271588953
20
12.5287327454721
30
0
41
1
10
217.807292382946
20
12.5664982458144
30
0
0
SPLINE
5
303
100
AcDbEntity
8
1
62
256
6
ByLayer
370
18
48
1
60
0
100
AcDbSpline
70
4
71
3
72
18
73
14
40
0
40
0
40
0
40
0
40
0.125000000000025
40
0.125000000000025
40
0.25000000000005
40
0.25000000000005
40
0.500000000000061
40
0.500000000000061
40
0.750000000000072
40
0.750000000000072
40
0.875000000000036
40
0.875000000000036
40
1
40
1
40
1
40
1
41
1
10
215.572584528921
20
11.5819440226397
30
0
41
1
10
215.582047570052
20
11.6060899088937
30
0
41
1
10
215.584190859539
20
11.6334292332293
30
0
41
1
10
215.580673834783
20
11.6892220947591
30
0
41
1
10
215.574883096995
20
11.7176411862253
30
0
41
1
10
215.549932876174
20
11.80172806072
30
0
41
1
10
215.523248053602
20
11.8566734395855
30
0
41
1
10
215.457808981779
20
11.957814581694
30
0
41
1
10
215.419208450992
20
12.0038624415331
30
0
41
1
10
215.353886599457
20
12.0592495555721
30
0
41
1
10
215.33081604406
20
12.0753915846577
30
0
41
1
10
215.282715471627
20
12.0994849936547
30
0
41
1
10
215.257693306303
20
12.1076177350672
30
0
41
1
10
215.232586563027
20
12.1076252339726
30
0
0
SPLINE
5
304
100
AcDbEntity
8
1
62
256
6
ByLayer
370
18
48
1
60
0
100
AcDbSpline
70
4
71
3
72
16
73
12
40
0
40
0
40
0
40
0
40
0.125
40
0.125
40
0.25
40
0.25
40
0.5
40
0.5
40
0.75
40
0.75
40
1
40
1
40
1
40
1
41
1
10
215.472908751193
20
13.3294395599389
30
0
41
1
10
215.460143372283
20
13.3387827330138
30
0
41
1
10
215.449995574837
20
13.3514081597569
30
0
41
1
10
215.437987895067
20
13.3821852452515
30
0
41
1
10
215.436385074698
20
13.3998089087778
30
0
41
1
10
215.441850084709
20
13.452437578208
30
0
41
1
10
215.458111785199
20
13.4877040336575
30
0
41
1
10
215.499160647608
20
13.5509414565916
30
0
41
1
10
215.524365734755
20
13.5796474055714
30
0
41
1
10
215.579291034525
20
13.6315706042088
30
0
41
1
10
215.609177691206
20
13.6548644595227
30
0
41
1
10
215.640774630125
20
13.6754672827414
30
0
0
SPLINE
5
305
100
AcDbEntity
8
1
62
256
6
ByLayer
370
18
48
1
60
0
100
AcDbSpline
70
4
71
3
72
8
73
4
40
0
40
0
40
0
40
0
40
1
40
1
40
1
40
1
41
1
10
217.310066737617
20
11.6730016067412
30
0
41
1
10
217.313744781533
20
11.6672455683877
30
0
41
1
10
217.317422401648
20
11.6614906447453
30
0
41
1
10
217.321099616261
20
11.6557367863495
30
0
0
SPLINE
5
306
100
AcDbEntity
8
1
62
256
6
ByLayer
370
18
48
1
60
0
100
AcDbSpline
70
4
71
3
72
8
73
4
40
0
40
0
40
0
40
0
40
1
40
1
40
1
40
1
41
1
10
215.232586563027
20
12.1076252339726
30
0
41
1
10
215.226276834495
20
12.1076271185681
30
0
41
1
10
215.219968591004
20
12.1076290174325
30
0
41
1
10
215.213661766194
20
12.107630929907
30
0
0
SPLINE
5
307
100
AcDbEntity
8
1
62
256
6
ByLayer
370
18
48
1
60
0
100
AcDbSpline
70
4
71
3
72
16
73
12
40
0
40
0
40
0
40
0
40
0.250000000000003
40
0.250000000000003
40
0.500000000000005
40
0.500000000000005
40
0.750000000000008
40
0.750000000000008
40
0.875000000000004
40
0.875000000000004
40
1
40
1
40
1
40
1
41
1
10
215.768561870303
20
11.2371414859604
30
0
41
1
10
215.734976807462
20
11.2543325727838
30
0
41
1
10
215.702755441546
20
11.2744122611863
30
0
41
1
10
215.642592361089
20
11.3204209397886
30
0
41
1
10
215.614572730032
20
11.3463245517699
30
0
41
1
10
215.567219456417
20
11.4048730000858
30
0
41
1
10
215.547431810272
20
11.4378931242187
30
0
41
1
10
215.536422829971
20
11.490275785993
30
0
41
1
10
215.536291549945
20
11.5079743426671
30
0
41
1
10
215.544988670172
20
11.5394782624321
30
0
41
1
10
215.553737415012
20
11.553109968975
30
0
41
1
10
215.565445832108
20
11.5637268703322
30
0
0
SPLINE
5
308
100
AcDbEntity
8
1
62
256
6
ByLayer
370
18
48
1
60
0
100
AcDbSpline
70
4
71
3
72
16
73
12
40
0
40
0
40
0
40
0
40
0.250000000000037
40
0.250000000000037
40
0.500000000000074
40
0.500000000000074
40
0.750000000000111
40
0.750000000000111
40
0.875000000000056
40
0.875000000000056
40
1
40
1
40
1
40
1
41
1
10
217.807292382946
20
12.5664982458144
30
0
41
1
10
217.805313104656
20
12.6042651254108
30
0
41
1
10
217.80001621758
20
12.6419286639098
30
0
41
1
10
217.782026673954
20
12.7154374448054
30
0
41
1
10
217.769394747455
20
12.7513750905851
30
0
41
1
10
217.733846132485
20
12.817621881705
30
0
41
1
10
217.710781106611
20
12.8485055426771
30
0
41
1
10
217.664961159954
20
12.8781907465383
30
0
41
1
10
217.647850180022
20
12.8848180255675
30
0
41
1
10
217.613286805469
20
12.8881144209206
30
0
41
1
10
217.596037523658
20
12.8847942518613
30
0
41
1
10
217.58034660126
20
12.8775454163815
30
0
0
SPLINE
5
309
100
AcDbEntity
8
1
62
256
6
ByLayer
370
18
48
1
60
0
100
AcDbSpline
70
4
71
3
72
18
73
14
40
0
40
0
40
0
40
0
40
0.125
40
0.125
40
0.25
40
0.25
40
0.5
40
0.5
40
0.75
40
0.75
40
0.875
40
0.875
40
1
40
1
40
1
40
1
41
1
10
216.022130896237
20
13.6643184413459
30
0
41
1
10
216.036270897874
20
13.6427316726175
30
0
41
1
10
216.057035614827
20
13.626052540117
30
0
41
1
10
216.103888842226
20
13.5992263860345
30
0
41
1
10
216.130022667882
20
13.5892164610603
30
0
41
1
10
216.211947408537
20
13.566849857948
30
0
41
1
10
216.271612538979
20
13.5618804653696
30
0
41
1
10
216.391527719007
20
13.5681862912929
30
0
41
1
10
216.4515671554
20
13.5793977378846
30
0
41
1
10
216.53502420198
20
13.6104891124338
30
0
41
1
10
216.561740339117
20
13.623304840828
30
0
41
1
10
216.609559976314
20
13.6550464588248
30
0
41
1
10
216.630809640338
20
13.6738706546708
30
0
41
1
10
216.645315634403
20
13.6969781695563
30
0
0
SPLINE
5
30A
100
AcDbEntity
8
1
62
256
6
ByLayer
370
18
48
1
60
0
100
AcDbSpline
70
4
71
3
72
16
73
12
40
0
40
0
40
0
40
0
40
0.250000000000003
40
0.250000000000003
40
0.500000000000006
40
0.500000000000006
40
0.750000000000008
40
0.750000000000008
40
0.875000000000004
40
0.875000000000004
40
1
40
1
40
1
40
1
41
1
10
217.042524051946
20
13.7489298570504
30
0
41
1
10
217.076109114787
20
13.7317387702271
30
0
41
1
10
217.108148597538
20
13.7116495497317
30
0
41
1
10
217.16748702892
20
13.6655976531028
30
0
41
1
10
217.194873542337
20
13.6396608608319
30
0
41
1
10
217.240110420985
20
13.5810014969557
30
0
41
1
10
217.258426327687
20
13.5479042422269
30
0
41
1
10
217.265808635262
20
13.4953315145888
30
0
41
1
10
217.264480497957
20
13.4775564730934
30
0
41
1
10
217.252535449498
20
13.4458823366225
30
0
41
1
10
217.242015684922
20
13.4321578148681
30
0
41
1
10
217.228562535347
20
13.4214494759562
30
0
0
SPLINE
5
30B
100
AcDbEntity
8
1
62
256
6
ByLayer
370
18
48
1
60
0
100
AcDbSpline
70
4
71
3
72
8
73
4
40
0
40
0
40
0
40
0
40
1
40
1
40
1
40
1
41
1
10
215.565445832108
20
11.5637268703322
30
0
41
1
10
215.567824685692
20
11.5697981138134
30
0
41
1
10
215.57020424028
20
11.5758704805307
30
0
41
1
10
215.572584528921
20
11.5819440226397
30
0
0
SPLINE
5
30C
100
AcDbEntity
8
1
62
256
6
ByLayer
370
18
48
1
60
0
100
AcDbSpline
70
4
71
3
72
16
73
12
40
0
40
0
40
0
40
0
40
0.24999999999997
40
0.24999999999997
40
0.499999999999941
40
0.499999999999941
40
0.749999999999911
40
0.749999999999911
40
0.874999999999956
40
0.874999999999956
40
1
40
1
40
1
40
1
41
1
10
215.003793539303
20
12.4195730971965
30
0
41
1
10
215.001812598927
20
12.4573716912782
30
0
41
1
10
215.002963676329
20
12.4953459476493
30
0
41
1
10
215.012346705512
20
12.5702882658705
30
0
41
1
10
215.020519976257
20
12.6073157364513
30
0
41
1
10
215.046832965692
20
12.6768034176227
30
0
41
1
10
215.065071754901
20
12.7098511528141
30
0
41
1
10
215.103910813756
20
12.7439722813655
30
0
41
1
10
215.118775759771
20
12.7522750918397
30
0
41
1
10
215.149556924767
20
12.7589957562095
30
0
41
1
10
215.165287507759
20
12.7574039629528
30
0
41
1
10
215.179905250713
20
12.7517436159001
30
0
0
SPLINE
5
30D
100
AcDbEntity
8
1
62
256
6
ByLayer
370
18
48
1
60
0
100
AcDbSpline
70
4
71
3
72
8
73
4
40
0
40
0
40
0
40
0
40
1
40
1
40
1
40
1
41
1
10
216.782544765121
20
11.3045714275763
30
0
41
1
10
216.778313155808
20
11.3099637922199
30
0
41
1
10
216.7740810397
20
11.3153571560617
30
0
41
1
10
216.769848393795
20
11.3207515655008
30
0
0
SPLINE
5
30E
100
AcDbEntity
8
1
62
256
6
ByLayer
370
18
48
1
60
0
100
AcDbSpline
70
4
71
3
72
20
73
16
40
0
40
0
40
0
40
0
40
0.125000000000013
40
0.125000000000013
40
0.250000000000026
40
0.250000000000026
40
0.375000000000039
40
0.375000000000039
40
0.500000000000052
40
0.500000000000052
40
0.750000000000026
40
0.750000000000026
40
0.875000000000013
40
0.875000000000013
40
1
40
1
40
1
40
1
41
1
10
217.310066737615
20
11.6730016067447
30
0
41
1
10
217.295372565773
20
11.6959975846694
30
0
41
1
10
217.287997664234
20
11.7229955939206
30
0
41
1
10
217.281573273688
20
11.7787013469199
30
0
41
1
10
217.28264534432
20
11.8073196392283
30
0
41
1
10
217.290516552412
20
11.8644785858065
30
0
41
1
10
217.297462640124
20
11.8933584134416
30
0
41
1
10
217.315772724976
20
11.9493671223827
30
0
41
1
10
217.327182974343
20
11.9768103804158
30
0
41
1
10
217.368049045775
20
12.0575339224712
30
0
41
1
10
217.403088201812
20
12.1075557881106
30
0
41
1
10
217.466534085556
20
12.1698291666381
30
0
41
1
10
217.489564706744
20
12.1884297531652
30
0
41
1
10
217.539091152607
20
12.2177077558951
30
0
41
1
10
217.565551897965
20
12.2285653926369
30
0
41
1
10
217.59325350989
20
12.2313425462845
30
0
0
SPLINE
5
30F
100
AcDbEntity
8
1
62
256
6
ByLayer
370
18
48
1
60
0
100
AcDbSpline
70
4
71
3
72
16
73
12
40
0
40
0
40
0
40
0
40
0.125000000000061
40
0.125000000000061
40
0.250000000000121
40
0.250000000000121
40
0.500000000000081
40
0.500000000000081
40
0.75000000000004
40
0.75000000000004
40
1
40
1
40
1
40
1
41
1
10
216.656251168726
20
13.7143968031762
30
0
41
1
10
216.658317321844
20
13.7309494049938
30
0
41
1
10
216.664529443242
20
13.7468765922151
30
0
41
1
10
216.685806558896
20
13.7741658256245
30
0
41
1
10
216.700531849536
20
13.7850148331158
30
0
41
1
10
216.749463981165
20
13.8081596949262
30
0
41
1
10
216.788352949528
20
13.8123064620775
30
0
41
1
10
216.86390656228
20
13.8091476430971
30
0
41
1
10
216.901416880841
20
13.8018511917795
30
0
41
1
10
216.973863128898
20
13.7803908891682
30
0
41
1
10
217.008946622915
20
13.7661170363786
30
0
41
1
10
217.042524051946
20
13.7489298570504
30
0
0
SPLINE
5
310
100
AcDbEntity
8
1
62
256
6
ByLayer
370
18
48
1
60
0
100
AcDbSpline
70
4
71
3
72
16
73
12
40
0
40
0
40
0
40
0
40
0.125
40
0.125
40
0.25
40
0.25
40
0.5
40
0.5
40
0.75
40
0.75
40
1
40
1
40
1
40
1
41
1
10
215.213661766194
20
12.107630929907
30
0
41
1
10
215.199703375599
20
12.1004672605677
30
0
41
1
10
215.184229214648
20
12.0972119206938
30
0
41
1
10
215.152584321098
20
12.1007857163943
30
0
41
1
10
215.136981699441
20
12.1075983937152
30
0
41
1
10
215.095304846039
20
12.1371760253165
30
0
41
1
10
215.073425836663
20
12.1683349281809
30
0
41
1
10
215.03997935816
20
12.2347866317723
30
0
41
1
10
215.027990176734
20
12.2708055955478
30
0
41
1
10
215.010880033815
20
12.3442106261936
30
0
41
1
10
215.005774029416
20
12.3817830946495
30
0
41
1
10
215.003793539303
20
12.4195730971965
30
0
0
SPLINE
5
311
100
AcDbEntity
8
1
62
256
6
ByLayer
370
18
48
1
60
0
100
AcDbSpline
70
4
71
3
72
8
73
4
40
0
40
0
40
0
40
0
40
1
40
1
40
1
40
1
41
1
10
217.58034660126
20
12.8775454163815
30
0
41
1
10
217.573363001565
20
12.8775118605871
30
0
41
1
10
217.566378392258
20
12.8774783126212
30
0
41
1
10
217.559392727005
20
12.8774447728742
30
0
0
SPLINE
5
312
100
AcDbEntity
8
1
62
256
6
ByLayer
370
18
48
1
60
0
100
AcDbSpline
70
4
71
1
72
4
73
2
40
0
40
0
40
1
40
1
41
1
10
223.993146684135
20
-5.71725525346025
30
0
41
1
10
223.6209730785
20
-5.41220363403531
30
0
0
SPLINE
5
313
100
AcDbEntity
8
1
62
256
6
ByLayer
370
18
48
1
60
0
100
AcDbSpline
70
4
71
1
72
4
73
2
40
0
40
0
40
1
40
1
41
1
10
223.964485269891
20
-5.93379565815951
30
0
41
1
10
223.993146684135
20
-5.71725525346014
30
0
0
SPLINE
5
314
100
AcDbEntity
8
1
62
256
6
ByLayer
370
18
48
1
60
0
100
AcDbSpline
70
4
71
1
72
4
73
2
40
0
40
0
40
1
40
1
41
1
10
222.786481281594
20
-6.30484664441E-05
30
0
41
1
10
223.146740592103
20
-0.230490269227431
30
0
0
SPLINE
5
315
100
AcDbEntity
8
1
62
256
6
ByLayer
370
18
48
1
60
0
100
AcDbSpline
70
4
71
3
72
28
73
24
40
0
40
0
40
0
40
0
40
0.0007955658846028
40
0.01609450707045
40
0.0313934482562973
40
0.0619913306279917
40
0.123187095371381
40
0.245578624858158
40
0.367970154344936
40
0.48271221323879
40
0.490361683831714
40
0.505660625017561
40
0.520959566203408
40
0.551557448575103
40
0.612753213318491
40
0.735144742805269
40
0.857536272292047
40
0.918732037035436
40
0.94932991940713
40
0.964628860592977
40
0.979927801778825
40
0.995226742964672
40
1
40
1
40
1
40
1
41
1
10
222.525489944062
20
-10.6211063460345
30
0
41
1
10
222.528749492126
20
-10.6196788610636
30
0
41
1
10
222.594447683753
20
-10.5898948525386
30
0
41
1
10
222.711792660962
20
-10.4945404267301
30
0
41
1
10
222.821936784235
20
-10.2387701454054
30
0
41
1
10
222.833882560949
20
-9.8364893218002
30
0
41
1
10
222.959188952034
20
-9.07970158308549
30
0
41
1
10
223.091172593015
20
-7.98284847991502
30
0
41
1
10
223.265432226901
20
-6.69944544115145
30
0
41
1
10
223.382965001543
20
-5.82474229596551
30
0
41
1
10
223.449109375506
20
-5.32131956272551
30
0
41
1
10
223.439611730772
20
-5.16344467986713
30
0
41
1
10
223.384790556043
20
-4.94164798028743
30
0
41
1
10
223.336850292676
20
-4.56478970792207
30
0
41
1
10
223.207416376271
20
-3.80070630854357
30
0
41
1
10
223.039038428939
20
-2.71158858040965
30
0
41
1
10
222.86107899142
20
-1.62354796045173
30
0
41
1
10
222.746057863243
20
-0.857908341713483
30
0
41
1
10
222.675670951908
20
-0.483302111676238
30
0
41
1
10
222.657333745686
20
-0.261355011840834
30
0
41
1
10
222.621292184753
20
-0.0608478452337806
30
0
41
1
10
222.513278084256
20
0.0706579782460324
30
0
41
1
10
222.436863010677
20
0.119902071584079
30
0
41
1
10
222.418168791192
20
0.13036490176691
30
0
0
SPLINE
5
316
100
AcDbEntity
8
1
62
256
6
ByLayer
370
18
48
1
60
0
100
AcDbSpline
70
4
71
1
72
4
73
2
40
0
40
0
40
1
40
1
41
1
10
223.167916848344
20
-0.325364773324168
30
0
41
1
10
222.807622597313
20
-0.094915204093013
30
0
0
SPLINE
5
317
100
AcDbEntity
8
1
62
256
6
ByLayer
370
18
48
1
60
0
100
AcDbSpline
70
4
71
1
72
4
73
2
40
0
40
0
40
1
40
1
41
1
10
223.990141467528
20
-5.48891484373419
30
0
41
1
10
223.957479007877
20
-5.28379541298861
30
0
0
SPLINE
5
318
100
AcDbEntity
8
1
62
256
6
ByLayer
370
18
48
1
60
0
100
AcDbSpline
70
4
71
1
72
4
73
2
40
0
40
0
40
1
40
1
41
1
10
223.828500278615
20
-6.96117849397643
30
0
41
1
10
223.9141800208
20
-6.31385781783396
30
0
0
SPLINE
5
319
100
AcDbEntity
8
1
62
256
6
ByLayer
370
18
48
1
60
0
100
AcDbSpline
70
4
71
1
72
4
73
2
40
0
40
0
40
1
40
1
41
1
10
222.467571894077
20
0.34678164991098
30
0
41
1
10
222.755088860685
20
0.368778862678227
30
0
0
SPLINE
5
31A
100
AcDbEntity
8
1
62
256
6
ByLayer
370
18
48
1
60
0
100
AcDbSpline
70
4
71
3
72
10
73
6
40
0
40
0
40
0
40
0
40
0.380009710345605
40
0.380009710345605
40
1
40
1
40
1
40
1
41
1
10
223.045821507313
20
0.119584607027605
30
0
41
1
10
223.058605184388
20
0.075240498799559
30
0
41
1
10
223.071389186503
20
0.0308961987384748
30
0
41
1
10
223.105029725295
20
-0.0857959250517695
30
0
41
1
10
223.125884487506
20
-0.158142700708879
30
0
41
1
10
223.146740592103
20
-0.23049026922763
30
0
0
SPLINE
5
31B
100
AcDbEntity
8
1
62
256
6
ByLayer
370
18
48
1
60
0
100
AcDbSpline
70
4
71
2
72
6
73
3
40
0
40
0
40
0
40
1
40
1
40
1
41
1
10
222.807622597313
20
-0.0949152040929562
30
0
41
1
10
222.799968243909
20
-0.0468460558970492
30
0
41
1
10
222.786481281594
20
-6.30484664725E-05
30
0
0
SPLINE
5
31C
100
AcDbEntity
8
1
62
256
6
ByLayer
370
18
48
1
60
0
100
AcDbSpline
70
4
71
1
72
4
73
2
40
0
40
0
40
1
40
1
41
1
10
223.04584628698
20
0.119586502858681
30
0
41
1
10
222.758329320374
20
0.0975892900918609
30
0
0
SPLINE
5
31D
100
AcDbEntity
8
1
62
256
6
ByLayer
370
18
48
1
60
0
100
AcDbSpline
70
4
71
3
72
8
73
4
40
0
40
0
40
0
40
0
40
1
40
1
40
1
40
1
41
1
10
223.999923986323
20
-5.6029772384282
30
0
41
1
10
224.000427318117
20
-5.6412210664941
30
0
41
1
10
223.998397760597
20
-5.67935202938062
30
0
41
1
10
223.994822598706
20
-5.71741101263916
30
0
0
SPLINE
5
31E
100
AcDbEntity
8
1
62
256
6
ByLayer
370
18
48
1
60
0
100
AcDbSpline
70
4
71
1
72
4
73
2
40
0
40
0
40
1
40
1
41
1
10
222.60134750695
20
-10.798252779699
30
0
41
1
10
222.68121507326
20
-11.466452343387
30
0
0
SPLINE
5
31F
100
AcDbEntity
8
1
62
256
6
ByLayer
370
18
48
1
60
0
100
AcDbSpline
70
4
71
3
72
12
73
8
40
0
40
0
40
0
40
0
40
0.250321624234104
40
0.250321624234104
40
0.500643240787092
40
0.500643240787092
40
1
40
1
40
1
40
1
41
1
10
223.146740592227
20
-0.230490269655974
30
0
41
1
10
223.148988577428
20
-0.238288286922369
30
0
41
1
10
223.151116957097
20
-0.246121447904017
30
0
41
1
10
223.155131540647
20
-0.261847088958802
30
0
41
1
10
223.157018213435
20
-0.269741405611711
30
0
41
1
10
223.16230214745
20
-0.293456071591749
30
0
41
1
10
223.165338574445
20
-0.309364810511454
30
0
41
1
10
223.167883876147
20
-0.325343684220457
30
0
0
SPLINE
5
320
100
AcDbEntity
8
1
62
256
6
ByLayer
370
18
48
1
60
0
100
AcDbSpline
70
4
71
3
72
25
73
21
40
0
40
0
40
0
40
0
40
0.011750460307589
40
0.0435085886020399
40
0.107024845190942
40
0.234057358368745
40
0.361089871546549
40
0.48018285265074
40
0.488122384724352
40
0.504001448871578
40
0.519880513018803
40
0.551638641313254
40
0.615154897902156
40
0.74218741107996
40
0.869219924257763
40
0.932736180846665
40
0.964494309141116
40
0.980373373288342
40
0.996252437435567
40
1
40
1
40
1
40
1
41
1
10
222.605685574161
20
-10.3514202020267
30
0
41
1
10
222.624579696721
20
-10.3184062824229
30
0
41
1
10
222.678347198638
20
-10.1814035356743
30
0
41
1
10
222.689343226211
20
-9.81110605448453
30
0
41
1
10
222.815706583017
20
-9.04793477307115
30
0
41
1
10
222.94744063029
20
-7.95315592417532
30
0
41
1
10
223.12183352199
20
-6.66877145627325
30
0
41
1
10
223.239325118553
20
-5.79437476684481
30
0
41
1
10
223.303655794013
20
-5.3047560354068
30
0
41
1
10
223.295768217064
20
-5.17364455232104
30
0
41
1
10
223.242096574735
20
-4.95649865589607
30
0
41
1
10
223.193480966323
20
-4.57433149807858
30
0
41
1
10
223.064368700205
20
-3.8121468872971
30
0
41
1
10
222.895928520411
20
-2.7226266214266
30
0
41
1
10
222.717919637594
20
-1.63428369385937
30
0
41
1
10
222.603150010622
20
-0.870318196122838
30
0
41
1
10
222.531879122669
20
-0.4910073535099
30
0
41
1
10
222.513495296598
20
-0.268495983401067
30
0
41
1
10
222.492470041059
20
-0.151527841450218
30
0
41
1
10
222.46412959008
20
-0.0977301640070039
30
0
41
1
10
222.458130852617
20
-0.0878713030010942
30
0
0
SPLINE
5
321
100
AcDbEntity
8
1
62
256
6
ByLayer
370
18
48
1
60
0
100
AcDbSpline
70
4
71
1
72
4
73
2
40
0
40
0
40
1
40
1
41
1
10
222.950057690022
20
-10.4810494524926
30
0
41
1
10
223.283737555386
20
-11.0769258730178
30
0
0
SPLINE
5
322
100
AcDbEntity
8
1
62
256
6
ByLayer
370
18
48
1
60
0
100
AcDbSpline
70
4
71
3
72
11
73
7
40
0
40
0
40
0
40
0
40
0.211920158587185
40
0.448438694464584
40
0.566697962403284
40
1
40
1
40
1
40
1
41
1
10
223.158303239053
20
-5.00498740347979
30
0
41
1
10
223.168603706764
20
-5.05324197192255
30
0
41
1
10
223.192615096449
20
-5.15372572748768
30
0
41
1
10
223.199064961127
20
-5.26093879545871
30
0
41
1
10
223.175731145952
20
-5.43853172299393
30
0
41
1
10
223.15917021904
20
-5.56373420446221
30
0
41
1
10
223.146048365457
20
-5.66251866423175
30
0
0
SPLINE
5
323
100
AcDbEntity
8
1
62
256
6
ByLayer
370
18
48
1
60
0
100
AcDbSpline
70
4
71
1
72
4
73
2
40
0
40
0
40
1
40
1
41
1
10
223.799747927126
20
-4.29324816578452
30
0
41
1
10
223.167916848344
20
-0.325364773324196
30
0
0
SPLINE
5
324
100
AcDbEntity
8
1
62
256
6
ByLayer
370
18
48
1
60
0
100
AcDbSpline
70
4
71
3
72
12
73
8
40
0
40
0
40
0
40
0
40
0.499999999999922
40
0.499999999999922
40
0.749999999999961
40
0.749999999999961
40
1
40
1
40
1
40
1
41
1
10
222.75508895186
20
0.368806259911594
30
0
41
1
10
222.822187071605
20
0.359941568671616
30
0
41
1
10
222.886407354785
20
0.331074366857763
30
0
41
1
10
222.963425585603
20
0.265280075729834
30
0
41
1
10
222.985882665587
20
0.239562146027282
30
0
41
1
10
223.02229431078
20
0.182854952807958
30
0
41
1
10
223.035708957649
20
0.151765006572788
30
0
41
1
10
223.045846422844
20
0.119613258991194
30
0
0
SPLINE
5
325
100
AcDbEntity
8
1
62
256
6
ByLayer
370
18
48
1
60
0
100
AcDbSpline
70
4
71
1
72
4
73
2
40
0
40
0
40
1
40
1
41
1
10
223.283737555386
20
-11.0769258730178
30
0
41
1
10
223.828500278615
20
-6.96117849397643
30
0
0
SPLINE
5
326
100
AcDbEntity
8
1
62
256
6
ByLayer
370
18
48
1
60
0
100
AcDbSpline
70
4
71
3
72
10
73
6
40
0
40
0
40
0
40
0
40
0.382672411603705
40
0.382672411603705
40
1
40
1
40
1
40
1
41
1
10
223.035300764599
20
-11.3654705496305
30
0
41
1
10
222.990134561025
20
-11.3783520008967
30
0
41
1
10
222.944968459656
20
-11.3912341192147
30
0
41
1
10
222.826940138542
20
-11.4248963036392
30
0
41
1
10
222.75407741402
20
-11.4456730687408
30
0
41
1
10
222.68121507326
20
-11.466452343387
30
0
0
SPLINE
5
327
100
AcDbEntity
8
1
62
256
6
ByLayer
370
18
48
1
60
0
100
AcDbSpline
70
4
71
3
72
12
73
8
40
0
40
0
40
0
40
0
40
0.5
40
0.5
40
0.75
40
0.75
40
1
40
1
40
1
40
1
41
1
10
223.283738251705
20
-11.0768992590647
30
0
41
1
10
223.274825846686
20
-11.1436383905983
30
0
41
1
10
223.245805571974
20
-11.2075172924153
30
0
41
1
10
223.179655252889
20
-11.2841213555239
30
0
41
1
10
223.153799033964
20
-11.3064583305605
30
0
41
1
10
223.096786993299
20
-11.3426753336476
30
0
41
1
10
223.065529745189
20
-11.3560181306889
30
0
41
1
10
223.033204978221
20
-11.3661012712627
30
0
0
SPLINE
5
328
100
AcDbEntity
8
1
62
256
6
ByLayer
370
18
48
1
60
0
100
AcDbSpline
70
4
71
1
72
4
73
2
40
0
40
0
40
1
40
1
41
1
10
223.899135926517
20
-4.91740231937979
30
0
41
1
10
223.799747927126
20
-4.29324816578452
30
0
0
SPLINE
5
329
100
AcDbEntity
8
1
62
256
6
ByLayer
370
18
48
1
60
0
100
AcDbSpline
70
4
71
1
72
4
73
2
40
0
40
0
40
1
40
1
41
1
10
223.617967861891
20
-5.18386322430766
30
0
41
1
10
223.990141467528
20
-5.48891484373411
30
0
0
SPLINE
5
32A
100
AcDbEntity
8
1
62
256
6
ByLayer
370
18
48
1
60
0
100
AcDbSpline
70
4
71
1
72
4
73
2
40
0
40
0
40
1
40
1
41
1
10
223.033204928448
20
-11.3661278427519
30
0
41
1
10
222.699525063081
20
-10.7702514222234
30
0
0
SPLINE
5
32B
100
AcDbEntity
8
1
62
256
6
ByLayer
370
18
48
1
60
0
100
AcDbSpline
70
4
71
3
72
8
73
4
40
0
40
0
40
0
40
0
40
1
40
1
40
1
40
1
41
1
10
223.991684901566
20
-5.4887280070281
30
0
41
1
10
223.996327870122
20
-5.52667536596681
30
0
41
1
10
223.999420678462
20
-5.56473522878116
30
0
41
1
10
223.999923986323
20
-5.6029772384282
30
0
0
SPLINE
5
32C
100
AcDbEntity
8
1
62
256
6
ByLayer
370
18
48
1
60
0
100
AcDbSpline
70
4
71
2
72
7
73
4
40
0
40
0
40
0
40
0.5
40
1
40
1
40
1
41
1
10
223.6209730785
20
-5.41220363403519
30
0
41
1
10
223.628465218205
20
-5.35559962454471
30
0
41
1
10
223.627039169179
20
-5.24083080746274
30
0
41
1
10
223.617967861891
20
-5.18386322430777
30
0
0
SPLINE
5
32D
100
AcDbEntity
8
1
62
256
6
ByLayer
370
18
48
1
60
0
100
AcDbSpline
70
4
71
2
72
12
73
9
40
0
40
0
40
0
40
0.25
40
0.5
40
0.5
40
0.75
40
0.75
40
0.875
40
1
40
1
40
1
41
1
10
222.758329320374
20
0.0975892900918609
30
0
41
1
10
222.744426722639
20
0.145814036149176
30
0
41
1
10
222.690014745013
20
0.231085387592685
30
0
41
1
10
222.65057980509
20
0.265167605158126
30
0
41
1
10
222.612865621998
20
0.297762633727928
30
0
41
1
10
222.565254620214
20
0.319213953167918
30
0
41
1
10
222.543143251009
20
0.329176315359518
30
0
41
1
10
222.493526905161
20
0.343382887927362
30
0
41
1
10
222.467571894078
20
0.346781649910923
30
0
0
SPLINE
5
32E
100
AcDbEntity
8
1
62
256
6
ByLayer
370
18
48
1
60
0
100
AcDbSpline
70
4
71
1
72
4
73
2
40
0
40
0
40
1
40
1
41
1
10
223.9141800208
20
-6.31385781783396
30
0
41
1
10
223.964485269891
20
-5.93379565815951
30
0
0
SPLINE
5
32F
100
AcDbEntity
8
1
62
256
6
ByLayer
370
18
48
1
60
0
100
AcDbSpline
70
4
71
3
72
12
73
8
40
0
40
0
40
0
40
0
40
0.250321623582993
40
0.250321623582993
40
0.500643239484182
40
0.500643239484182
40
1
40
1
40
1
40
1
41
1
10
222.681215073269
20
-11.4664523433844
30
0
41
1
10
222.673375022894
20
-11.4686882111627
30
0
41
1
10
222.665499686949
20
-11.47080516017
30
0
41
1
10
222.649689486871
20
-11.4747982873178
30
0
41
1
10
222.641752776314
20
-11.4766749318915
30
0
41
1
10
222.617910949937
20
-11.4819309841635
30
0
41
1
10
222.601917160188
20
-11.4849516780201
30
0
41
1
10
222.585853196995
20
-11.4874842106775
30
0
0
SPLINE
5
330
100
AcDbEntity
8
1
62
256
6
ByLayer
370
18
48
1
60
0
100
AcDbSpline
70
4
71
2
72
12
73
9
40
0
40
0
40
0
40
0.25
40
0.5
40
0.5
40
0.75
40
0.75
40
0.875
40
1
40
1
40
1
41
1
10
222.699525063081
20
-10.7702514222234
30
0
41
1
10
222.748009183229
20
-10.7564231988123
30
0
41
1
10
222.833739161851
20
-10.702302307364
30
0
41
1
10
222.868004688712
20
-10.6630783313937
30
0
41
1
10
222.900775027813
20
-10.6255659067724
30
0
41
1
10
222.92234172197
20
-10.5782096081833
30
0
41
1
10
222.932357666168
20
-10.5562165275261
30
0
41
1
10
222.946640647988
20
-10.5068656128053
30
0
41
1
10
222.950057690022
20
-10.4810494524929
30
0
0
SPLINE
5
331
100
AcDbEntity
8
1
62
256
6
ByLayer
370
18
48
1
60
0
100
AcDbSpline
70
4
71
2
72
6
73
3
40
0
40
0
40
0
40
1
40
1
40
1
41
1
10
222.505985194328
20
-10.8192809963411
30
0
41
1
10
222.554312879771
20
-10.8116675912039
30
0
41
1
10
222.60134750695
20
-10.798252779699
30
0
0
SPLINE
5
332
100
AcDbEntity
8
1
62
256
6
ByLayer
370
18
48
1
60
0
100
AcDbSpline
70
4
71
1
72
4
73
2
40
0
40
0
40
1
40
1
41
1
10
222.755088860685
20
0.368778862678255
30
0
41
1
10
222.384748556972
20
0.417274258851677
30
0
0
SPLINE
5
333
100
AcDbEntity
8
1
62
256
6
ByLayer
370
18
48
1
60
0
100
AcDbSpline
70
4
71
1
72
4
73
2
40
0
40
0
40
1
40
1
41
1
10
223.957479007877
20
-5.28379541298861
30
0
41
1
10
223.899135926517
20
-4.91740231937979
30
0
0
SPLINE
5
334
100
AcDbEntity
8
1
62
256
6
ByLayer
370
13
48
1
60
0
100
AcDbSpline
70
4
71
2
72
6
73
3
40
0
40
0
40
0
40
1
40
1
40
1
41
1
10
185.502274613733
20
8.03840541903568
30
0
41
1
10
185.39676571521
20
8.07919572214061
30
0
41
1
10
185.291280734384
20
8.12204931227475
30
0
0
SPLINE
5
335
100
AcDbEntity
8
1
62
256
6
ByLayer
370
13
48
1
60
0
100
AcDbSpline
70
4
71
2
72
6
73
3
40
0
40
0
40
0
40
1
40
1
40
1
41
1
10
223.040455814211
20
6.83767247291701
30
0
41
1
10
223.107097370776
20
6.90628653599131
30
0
41
1
10
223.173188943918
20
6.96162730425598
30
0
0
SPLINE
5
336
100
AcDbEntity
8
1
62
256
6
ByLayer
370
13
48
1
60
0
100
AcDbSpline
70
4
71
2
72
6
73
3
40
0
40
0
40
0
40
1
40
1
40
1
41
1
10
209.811743805245
20
6.26138363652603
30
0
41
1
10
209.883258007298
20
6.21325448135588
30
0
41
1
10
209.956706617014
20
6.15198223279592
30
0
0
SPLINE
5
337
100
AcDbEntity
8
1
62
256
6
ByLayer
370
13
48
1
60
0
100
AcDbSpline
70
4
71
3
72
15
73
11
40
0
40
0
40
0
40
0
40
0.186502151008814
40
0.373398181084377
40
0.56022431168791
40
0.648156921708964
40
0.735887091184388
40
0.823976900496223
40
0.9122049211509
40
1
40
1
40
1
40
1
41
1
10
5.4552000000011
20
-24.7500000000075
30
0
41
1
10
7.02362935359513
20
-24.5294324014594
30
0
41
1
10
10.1393331480547
20
-23.978931266757
30
0
41
1
10
14.7516839319769
20
-22.8256924811805
30
0
41
1
10
18.4733834205211
20
-21.6058613167587
30
0
41
1
10
21.3433925095289
20
-20.5078961731607
30
0
41
1
10
23.3959373487682
20
-19.6158069414624
30
0
41
1
10
25.5517131216493
20
-18.9921488326352
30
0
41
1
10
27.763771750106
20
-18.6093516368069
30
0
41
1
10
29.2521932645701
20
-18.5252726616986
30
0
41
1
10
30
20
-18.5250000000001
30
0
0
SPLINE
5
338
100
AcDbEntity
8
1
62
256
6
ByLayer
370
13
48
1
60
0
100
AcDbSpline
70
4
71
3
72
16
73
12
40
0
40
0
40
0
40
0
40
0.0931261272845184
40
0.186700326275905
40
0.280041239516332
40
0.37311527035227
40
0.466412448891114
40
0.559826500904535
40
0.706705649748691
40
0.853505021350748
40
1
40
1
40
1
40
1
41
1
10
30
20
18.525
30
0
41
1
10
29.2062821487313
20
18.5253451946444
30
0
41
1
10
27.6283132293591
20
18.6206369217263
30
0
41
1
10
25.284939015298
20
19.0478277541404
30
0
41
1
10
23.0148453151683
20
19.7601139905849
30
0
41
1
10
20.8432007164803
20
20.7161648742714
30
0
41
1
10
18.6169113698224
20
21.5363740052818
30
0
41
1
10
15.9365855173397
20
22.4388476072105
30
0
41
1
10
12.7790583818381
20
23.3384013765125
30
0
41
1
10
9.13739116115551
20
24.163207418347
30
0
41
1
10
6.68635727775249
20
24.5769191212983
30
0
41
1
10
5.45520000000116
20
24.7500000000075
30
0
0
LINE
5
7F
100
AcDbEntity
8
SK1
62
256
6
ByLayer
370
13
48
1
60
0
100
AcDbLine
10
-6.5
20
-9.102615
30
0
11
-6.5
21
9.102615
31
0
39
0
210
0
220
0
230
1
0
LINE
5
81
100
AcDbEntity
8
SK1
62
256
6
ByLayer
370
13
48
1
60
0
100
AcDbLine
10
-66.600002
20
19.996
30
0
11
-66.600002
21
9.102615
31
0
39
0
210
0
220
0
230
1
0
LINE
5
82
100
AcDbEntity
8
SK1
62
256
6
ByLayer
370
13
48
1
60
0
100
AcDbLine
10
-66.600002
20
-9.102615
30
0
11
-66.600002
21
-19.996
31
0
39
0
210
0
220
0
230
1
0
LINE
5
83
100
AcDbEntity
8
SK1
62
256
6
ByLayer
370
13
48
1
60
0
100
AcDbLine
10
-69
20
9.102615
30
0
11
-68.599999
21
9.102615
31
0
39
0
210
0
220
0
230
1
0
LINE
5
84
100
AcDbEntity
8
SK1
62
256
6
ByLayer
370
13
48
1
60
0
100
AcDbLine
10
-68.599999
20
-9.102615
30
0
11
-69
21
-9.102615
31
0
39
0
210
0
220
0
230
1
0
LINE
5
85
100
AcDbEntity
8
SK1
62
256
6
ByLayer
370
13
48
1
60
0
100
AcDbLine
10
-66.600002
20
9.102615
30
0
11
-6.5
21
9.102615
31
0
39
0
210
0
220
0
230
1
0
LINE
5
86
100
AcDbEntity
8
SK1
62
256
6
ByLayer
370
13
48
1
60
0
100
AcDbLine
10
-70
20
6.623111
30
0
11
-70
21
-6.623111
31
0
39
0
210
0
220
0
230
1
0
LINE
5
87
100
AcDbEntity
8
SK1
62
256
6
ByLayer
370
13
48
1
60
0
100
AcDbLine
10
-67.633813
20
19.639667
30
0
11
-67.633813
21
8.290603
31
0
39
0
210
0
220
0
230
1
0
LINE
5
88
100
AcDbEntity
8
SK1
62
256
6
ByLayer
370
13
48
1
60
0
100
AcDbLine
10
-67.633813
20
-8.290603
30
0
11
-67.633813
21
-19.639667
31
0
39
0
210
0
220
0
230
1
0
LINE
5
89
100
AcDbEntity
8
SK1
62
256
6
ByLayer
370
13
48
1
60
0
100
AcDbLine
10
-70
20
-18.996
30
0
11
-70
21
-6.623111
31
0
39
0
210
0
220
0
230
1
0
LINE
5
8A
100
AcDbEntity
8
SK1
62
256
6
ByLayer
370
13
48
1
60
0
100
AcDbLine
10
-70
20
6.623111
30
0
11
-70
21
18.996
31
0
39
0
210
0
220
0
230
1
0
LINE
5
8B
100
AcDbEntity
8
SK1
62
256
6
ByLayer
370
13
48
1
60
0
100
AcDbLine
10
-1.375195
20
-19.746
30
0
11
-1.375195
21
19.746
31
0
39
0
210
0
220
0
230
1
0
LINE
5
8C
100
AcDbEntity
8
SK1
62
256
6
ByLayer
370
13
48
1
60
0
100
AcDbLine
10
-1.544243
20
-19.783477
30
0
11
-1.544243
21
19.783477
31
0
39
0
210
0
220
0
230
1
0
LINE
5
8D
100
AcDbEntity
8
SK1
62
256
6
ByLayer
370
13
48
1
60
0
100
AcDbLine
10
-68.599999
20
-19.996
30
0
11
-68.599999
21
-9.102615
31
0
39
0
210
0
220
0
230
1
0
LINE
5
8E
100
AcDbEntity
8
SK1
62
256
6
ByLayer
370
13
48
1
60
0
100
AcDbLine
10
-68.599999
20
9.102615
30
0
11
-68.599999
21
19.996
31
0
39
0
210
0
220
0
230
1
0
LINE
5
8F
100
AcDbEntity
8
1
62
256
6
ByLayer
370
13
48
1
60
0
100
AcDbLine
10
221.757489
20
18.91728
30
0
11
221.752877
21
18.917038
31
0
39
0
210
0
220
0
230
1
0
LINE
5
90
100
AcDbEntity
8
1
62
256
6
ByLayer
370
13
48
1
60
0
100
AcDbLine
10
208.666939
20
11.044247
30
0
11
209.433563
21
7.840214
31
0
39
0
210
0
220
0
230
1
0
LINE
5
91
100
AcDbEntity
8
1
62
256
6
ByLayer
370
13
48
1
60
0
100
AcDbLine
10
211.21968
20
6.214187
30
0
11
211.215068
21
6.213945
31
0
39
0
210
0
220
0
230
1
0
LINE
5
92
100
AcDbEntity
8
1
62
256
6
ByLayer
370
13
48
1
60
0
100
AcDbLine
10
222.753984
20
7.07938
30
0
11
223.126056
21
7.138481
31
0
39
0
210
0
220
0
230
1
0
LINE
5
93
100
AcDbEntity
8
1
62
256
6
ByLayer
370
13
48
1
60
0
100
AcDbLine
10
210.863684
20
11.953714
30
0
11
210.859072
21
11.953473
31
0
39
0
210
0
220
0
230
1
0
LINE
5
94
100
AcDbEntity
8
1
62
256
6
ByLayer
370
13
48
1
60
0
100
AcDbLine
10
211.101814
20
5.981898
30
0
11
211.041985
21
5.96804
31
0
39
0
210
0
220
0
230
1
0
LINE
5
95
100
AcDbEntity
8
1
62
256
6
ByLayer
370
13
48
1
60
0
100
AcDbLine
10
223.844484
20
12.855291
30
0
11
223.212915
21
8.029484
31
0
39
0
210
0
220
0
230
1
0
LINE
5
96
100
AcDbEntity
8
1
62
256
6
ByLayer
370
13
48
1
60
0
100
AcDbLine
10
211.041985
20
5.96804
30
0
11
211.040868
21
5.967991
31
0
39
0
210
0
220
0
230
1
0
LINE
5
97
100
AcDbEntity
8
1
62
256
6
ByLayer
370
13
48
1
60
0
100
AcDbLine
10
221.363895
20
7.525794
30
0
11
222.729599
21
7.742725
31
0
39
0
210
0
220
0
230
1
0
LINE
5
98
100
AcDbEntity
8
1
62
256
6
ByLayer
370
13
48
1
60
0
100
AcDbLine
10
211.64939
20
6.978653
30
0
11
211.644778
21
6.978411
31
0
39
0
210
0
220
0
230
1
0
LINE
5
99
100
AcDbEntity
8
1
62
256
6
ByLayer
370
13
48
1
60
0
100
AcDbLine
10
211.64939
20
6.978653
30
0
11
211.615033
21
7.196198
31
0
39
0
210
0
220
0
230
1
0
LINE
5
9A
100
AcDbEntity
8
1
62
256
6
ByLayer
370
13
48
1
60
0
100
AcDbLine
10
223.84182
20
13.056162
30
0
11
223.837208
21
13.05592
31
0
39
0
210
0
220
0
230
1
0
LINE
5
9B
100
AcDbEntity
8
1
62
256
6
ByLayer
370
13
48
1
60
0
100
AcDbLine
10
223.083614
20
7.900697
30
0
11
221.376677
21
7.629564
31
0
39
0
210
0
220
0
230
1
0
LINE
5
9C
100
AcDbEntity
8
1
62
256
6
ByLayer
370
13
48
1
60
0
100
AcDbLine
10
221.692178
20
19.003277
30
0
11
221.752007
21
19.017136
31
0
39
0
210
0
220
0
230
1
0
LINE
5
9D
100
AcDbEntity
8
1
62
256
6
ByLayer
370
13
48
1
60
0
100
AcDbLine
10
223.844484
20
12.855291
30
0
11
223.839871
21
12.85505
31
0
39
0
210
0
220
0
230
1
0
LINE
5
9E
100
AcDbEntity
8
1
62
256
6
ByLayer
370
13
48
1
60
0
100
AcDbLine
10
209.615685
20
17.883558
30
0
11
209.694476
21
17.183692
31
0
39
0
210
0
220
0
230
1
0
LINE
5
9F
100
AcDbEntity
8
1
62
256
6
ByLayer
370
13
48
1
60
0
100
AcDbLine
10
208.850783
20
12.142959
30
0
11
209.480722
21
16.956316
31
0
39
0
210
0
220
0
230
1
0
LINE
5
A0
100
AcDbEntity
8
1
62
256
6
ByLayer
370
13
48
1
60
0
100
AcDbLine
10
222.729599
20
7.742725
30
0
11
223.099516
21
7.801484
31
0
39
0
210
0
220
0
230
1
0
LINE
5
A1
100
AcDbEntity
8
1
62
256
6
ByLayer
370
13
48
1
60
0
100
AcDbLine
10
211.479409
20
6.979686
30
0
11
210.697719
21
11.929316
31
0
39
0
210
0
220
0
230
1
0
LINE
5
A2
100
AcDbEntity
8
1
62
256
6
ByLayer
370
13
48
1
60
0
100
AcDbLine
10
211.511693
20
17.126361
30
0
11
211.527026
21
17.243524
31
0
39
0
210
0
220
0
230
1
0
LINE
5
A3
100
AcDbEntity
8
1
62
256
6
ByLayer
370
13
48
1
60
0
100
AcDbLine
10
221.888922
20
18.772709
30
0
11
221.745589
21
18.766456
31
0
39
0
210
0
220
0
230
1
0
LINE
5
A4
100
AcDbEntity
8
1
62
256
6
ByLayer
370
13
48
1
60
0
100
AcDbLine
10
221.28056
20
7.845531
30
0
11
221.266965
21
7.741652
31
0
39
0
210
0
220
0
230
1
0
LINE
5
A5
100
AcDbEntity
8
1
62
256
6
ByLayer
370
13
48
1
60
0
100
AcDbLine
10
208.784456
20
12.938058
30
0
11
208.678257
21
12.126591
31
0
39
0
210
0
220
0
230
1
0
LINE
5
A6
100
AcDbEntity
8
1
62
256
6
ByLayer
370
13
48
1
60
0
100
AcDbLine
10
209.710715
20
16.935113
30
0
11
209.079146
21
12.109305
31
0
39
0
210
0
220
0
230
1
0
LINE
5
A7
100
AcDbEntity
8
1
62
256
6
ByLayer
370
13
48
1
60
0
100
AcDbLine
10
223.088226
20
7.900939
30
0
11
221.381289
21
7.629806
31
0
39
0
210
0
220
0
230
1
0
LINE
5
A8
100
AcDbEntity
8
1
62
256
6
ByLayer
370
13
48
1
60
0
100
AcDbLine
10
221.752007
20
19.017136
30
0
11
221.753123
21
19.017185
31
0
39
0
210
0
220
0
230
1
0
LINE
5
A9
100
AcDbEntity
8
1
62
256
6
ByLayer
370
13
48
1
60
0
100
AcDbLine
10
210.859072
20
11.953473
30
0
11
211.644778
21
6.978411
31
0
39
0
210
0
220
0
230
1
0
LINE
5
AA
100
AcDbEntity
8
1
62
256
6
ByLayer
370
13
48
1
60
0
100
AcDbLine
10
211.351803
20
17.195786
30
0
11
209.710715
21
16.935113
31
0
39
0
210
0
220
0
230
1
0
LINE
5
AB
100
AcDbEntity
8
1
62
256
6
ByLayer
370
13
48
1
60
0
100
AcDbLine
10
221.683735
20
19.002835
30
0
11
221.692178
21
19.003277
31
0
39
0
210
0
220
0
230
1
0
LINE
5
AC
100
AcDbEntity
8
1
62
256
6
ByLayer
370
13
48
1
60
0
100
AcDbLine
10
211.620293
20
6.891142
30
0
11
211.61568
21
6.8909
31
0
39
0
210
0
220
0
230
1
0
LINE
5
AD
100
AcDbEntity
8
1
62
256
6
ByLayer
370
13
48
1
60
0
100
AcDbLine
10
211.615033
20
7.196198
30
0
11
210.863684
21
11.953714
31
0
39
0
210
0
220
0
230
1
0
LINE
5
AE
100
AcDbEntity
8
1
62
256
6
ByLayer
370
13
48
1
60
0
100
AcDbLine
10
221.328118
20
18.789874
30
0
11
221.478357
21
18.797748
31
0
39
0
210
0
220
0
230
1
0
LINE
5
AF
100
AcDbEntity
8
1
62
256
6
ByLayer
370
13
48
1
60
0
100
AcDbLine
10
222.062609
20
12.810011
30
0
11
221.405291
21
7.787455
31
0
39
0
210
0
220
0
230
1
0
LINE
5
B0
100
AcDbEntity
8
1
62
256
6
ByLayer
370
13
48
1
60
0
100
AcDbLine
10
208.696421
20
11.811832
30
0
11
208.681148
21
11.908545
31
0
39
0
210
0
220
0
230
1
0
LINE
5
B1
100
AcDbEntity
8
1
62
256
6
ByLayer
370
13
48
1
60
0
100
AcDbLine
10
211.673616
20
17.107474
30
0
11
211.022945
21
12.135698
31
0
39
0
210
0
220
0
230
1
0
LINE
5
B2
100
AcDbEntity
8
1
62
256
6
ByLayer
370
13
48
1
60
0
100
AcDbLine
10
220.739477
20
7.638203
30
0
11
212.585724
21
7.210883
31
0
39
0
210
0
220
0
230
1
0
LINE
5
B3
100
AcDbEntity
8
1
62
256
6
ByLayer
370
13
48
1
60
0
100
AcDbLine
10
208.853827
20
11.913392
30
0
11
209.687398
21
6.635247
31
0
39
0
210
0
220
0
230
1
0
LINE
5
B4
100
AcDbEntity
8
1
62
256
6
ByLayer
370
13
48
1
60
0
100
AcDbLine
10
223.088226
20
7.900939
30
0
11
223.083614
21
7.900697
31
0
39
0
210
0
220
0
230
1
0
LINE
5
B5
100
AcDbEntity
8
1
62
256
6
ByLayer
370
13
48
1
60
0
100
AcDbLine
10
221.405291
20
7.787455
30
0
11
223.046379
21
8.048129
31
0
39
0
210
0
220
0
230
1
0
LINE
5
B6
100
AcDbEntity
8
1
62
256
6
ByLayer
370
13
48
1
60
0
100
AcDbLine
10
221.144602
20
18.006523
30
0
11
221.176829
21
17.802458
31
0
39
0
210
0
220
0
230
1
0
LINE
5
B7
100
AcDbEntity
8
1
62
256
6
ByLayer
370
13
48
1
60
0
100
AcDbLine
10
221.277686
20
18.003556
30
0
11
222.059375
21
13.053926
31
0
39
0
210
0
220
0
230
1
0
LINE
5
B8
100
AcDbEntity
8
1
62
256
6
ByLayer
370
13
48
1
60
0
100
AcDbLine
10
208.667448
20
12.364685
30
0
11
208.67116
21
12.668254
31
0
39
0
210
0
220
0
230
1
0
LINE
5
B9
100
AcDbEntity
8
1
62
256
6
ByLayer
370
13
48
1
60
0
100
AcDbLine
10
210.401059
20
18.229871
30
0
11
210.106498
21
18.231001
31
0
39
0
210
0
220
0
230
1
0
LINE
5
BA
100
AcDbEntity
8
1
62
256
6
ByLayer
370
13
48
1
60
0
100
AcDbLine
10
223.212915
20
8.029484
30
0
11
223.208303
21
8.029242
31
0
39
0
210
0
220
0
230
1
0
LINE
5
BB
100
AcDbEntity
8
1
62
256
6
ByLayer
370
13
48
1
60
0
100
AcDbLine
10
210.694485
20
12.17323
30
0
11
211.351803
21
17.195786
31
0
39
0
210
0
220
0
230
1
0
LINE
5
BC
100
AcDbEntity
8
1
62
256
6
ByLayer
370
13
48
1
60
0
100
AcDbLine
10
211.522414
20
17.243282
30
0
11
210.856409
21
12.154343
31
0
39
0
210
0
220
0
230
1
0
LINE
5
BD
100
AcDbEntity
8
1
62
256
6
ByLayer
370
13
48
1
60
0
100
AcDbLine
10
222.472559
20
6.729159
30
0
11
222.729599
21
7.742725
31
0
39
0
210
0
220
0
230
1
0
LINE
5
BE
100
AcDbEntity
8
1
62
256
6
ByLayer
370
13
48
1
60
0
100
AcDbLine
10
221.796628
20
13.008754
30
0
11
221.045279
21
17.76627
31
0
39
0
210
0
220
0
230
1
0
LINE
5
BF
100
AcDbEntity
8
1
62
256
6
ByLayer
370
13
48
1
60
0
100
AcDbLine
10
221.941303
20
18.924863
30
0
11
221.936691
21
18.924621
31
0
39
0
210
0
220
0
230
1
0
LINE
5
C0
100
AcDbEntity
8
1
62
256
6
ByLayer
370
13
48
1
60
0
100
AcDbLine
10
211.527026
20
17.243524
30
0
11
211.522414
21
17.243282
31
0
39
0
210
0
220
0
230
1
0
LINE
5
C1
100
AcDbEntity
8
1
62
256
6
ByLayer
370
13
48
1
60
0
100
AcDbLine
10
223.003637
20
18.334066
30
0
11
223.837208
21
13.05592
31
0
39
0
210
0
220
0
230
1
0
LINE
5
C2
100
AcDbEntity
8
1
62
256
6
ByLayer
370
13
48
1
60
0
100
AcDbLine
10
211.036503
20
6.067896
30
0
11
210.893169
21
6.061643
31
0
39
0
210
0
220
0
230
1
0
LINE
5
C3
100
AcDbEntity
8
1
62
256
6
ByLayer
370
13
48
1
60
0
100
AcDbLine
10
209.615685
20
17.883558
30
0
11
209.447584
21
17.856856
31
0
39
0
210
0
220
0
230
1
0
LINE
5
C4
100
AcDbEntity
8
1
62
256
6
ByLayer
370
13
48
1
60
0
100
AcDbLine
10
223.154969
20
6.950387
30
0
11
223.126056
21
7.138481
31
0
39
0
210
0
220
0
230
1
0
LINE
5
C5
100
AcDbEntity
8
1
62
256
6
ByLayer
370
13
48
1
60
0
100
AcDbLine
10
223.38426
20
8.571303
30
0
11
223.287729
21
7.348741
31
0
39
0
210
0
220
0
230
1
0
LINE
5
C6
100
AcDbEntity
8
1
62
256
6
ByLayer
370
13
48
1
60
0
100
AcDbLine
10
221.381289
20
7.629806
30
0
11
221.376677
21
7.629564
31
0
39
0
210
0
220
0
230
1
0
LINE
5
C7
100
AcDbEntity
8
1
62
256
6
ByLayer
370
13
48
1
60
0
100
AcDbLine
10
209.785743
20
6.650868
30
0
11
208.952171
21
11.929013
31
0
39
0
210
0
220
0
230
1
0
LINE
5
C8
100
AcDbEntity
8
1
62
256
6
ByLayer
370
13
48
1
60
0
100
AcDbLine
10
223.008249
20
18.334307
30
0
11
223.84182
21
13.056162
31
0
39
0
210
0
220
0
230
1
0
LINE
5
C9
100
AcDbEntity
8
1
62
256
6
ByLayer
370
13
48
1
60
0
100
AcDbLine
10
223.046379
20
8.048129
30
0
11
223.677948
21
12.873936
31
0
39
0
210
0
220
0
230
1
0
LINE
5
CA
100
AcDbEntity
8
1
62
256
6
ByLayer
370
13
48
1
60
0
100
AcDbLine
10
223.943208
20
12.842217
30
0
11
223.313269
21
8.028859
31
0
39
0
210
0
220
0
230
1
0
LINE
5
CB
100
AcDbEntity
8
1
62
256
6
ByLayer
370
13
48
1
60
0
100
AcDbLine
10
223.008249
20
18.334307
30
0
11
223.003637
21
18.334066
31
0
39
0
210
0
220
0
230
1
0
LINE
5
CC
100
AcDbEntity
8
1
62
256
6
ByLayer
370
13
48
1
60
0
100
AcDbLine
10
223.839871
20
12.85505
30
0
11
223.208303
21
8.029242
31
0
39
0
210
0
220
0
230
1
0
LINE
5
CD
100
AcDbEntity
8
1
62
256
6
ByLayer
370
13
48
1
60
0
100
AcDbLine
10
208.949508
20
12.129884
30
0
11
209.581076
21
16.955691
31
0
39
0
210
0
220
0
230
1
0
LINE
5
CE
100
AcDbEntity
8
1
62
256
6
ByLayer
370
13
48
1
60
0
100
AcDbLine
10
209.964997
20
18.399405
30
0
11
209.963881
21
18.399337
31
0
39
0
210
0
220
0
230
1
0
LINE
5
CF
100
AcDbEntity
8
1
62
256
6
ByLayer
370
13
48
1
60
0
100
AcDbLine
10
211.025037
20
11.977871
30
0
11
211.776386
21
7.220355
31
0
39
0
210
0
220
0
230
1
0
LINE
5
D0
100
AcDbEntity
8
1
62
256
6
ByLayer
370
13
48
1
60
0
100
AcDbLine
10
221.148048
20
7.879152
30
0
11
221.79872
21
12.850927
31
0
39
0
210
0
220
0
230
1
0
LINE
5
D1
100
AcDbEntity
8
1
62
256
6
ByLayer
370
13
48
1
60
0
100
AcDbLine
10
212.054514
20
17.346973
30
0
11
220.208267
21
17.774293
31
0
39
0
210
0
220
0
230
1
0
LINE
5
D2
100
AcDbEntity
8
1
62
256
6
ByLayer
370
13
48
1
60
0
100
AcDbLine
10
210.868172
20
6.210533
30
0
11
211.011506
21
6.216786
31
0
39
0
210
0
220
0
230
1
0
LINE
5
D3
100
AcDbEntity
8
1
62
256
6
ByLayer
370
13
48
1
60
0
100
AcDbLine
10
222.753984
20
7.07938
30
0
11
223.099516
21
7.801484
31
0
39
0
210
0
220
0
230
1
0
LINE
5
D4
100
AcDbEntity
8
1
62
256
6
ByLayer
370
13
48
1
60
0
100
AcDbLine
10
223.675855
20
13.031763
30
0
11
222.842284
21
18.309909
31
0
39
0
210
0
220
0
230
1
0
LINE
5
D5
100
AcDbEntity
8
1
62
256
6
ByLayer
370
13
48
1
60
0
100
AcDbLine
10
221.752007
20
19.017136
30
0
11
221.683735
21
19.002835
31
0
39
0
210
0
220
0
230
1
0
LINE
5
D6
100
AcDbEntity
8
1
62
256
6
ByLayer
370
13
48
1
60
0
100
AcDbLine
10
208.667448
20
12.364685
30
0
11
208.662367
21
12.266906
31
0
39
0
210
0
220
0
230
1
0
LINE
5
D7
100
AcDbEntity
8
1
62
256
6
ByLayer
370
13
48
1
60
0
100
AcDbLine
10
223.189353
20
7.738288
30
0
11
223.126056
21
7.138481
31
0
39
0
210
0
220
0
230
1
0
LINE
5
D8
100
AcDbEntity
8
1
62
256
6
ByLayer
370
13
48
1
60
0
100
AcDbLine
10
210.861021
20
12.154585
30
0
11
211.511693
21
17.126361
31
0
39
0
210
0
220
0
230
1
0
LINE
5
D9
100
AcDbEntity
8
1
62
256
6
ByLayer
370
13
48
1
60
0
100
AcDbLine
10
209.964997
20
18.399405
30
0
11
210.034389
21
18.392318
31
0
39
0
210
0
220
0
230
1
0
LINE
5
DA
100
AcDbEntity
8
1
62
256
6
ByLayer
370
13
48
1
60
0
100
AcDbLine
10
208.696421
20
11.811832
30
0
11
209.657367
21
6.634404
31
0
39
0
210
0
220
0
230
1
0
LINE
5
DB
100
AcDbEntity
8
1
62
256
6
ByLayer
370
13
48
1
60
0
100
AcDbLine
10
222.335172
20
18.924774
30
0
11
222.33056
21
18.924533
31
0
39
0
210
0
220
0
230
1
0
LINE
5
DC
100
AcDbEntity
8
1
62
256
6
ByLayer
370
13
48
1
60
0
100
AcDbLine
10
221.75349
20
18.917065
30
0
11
221.89621
21
18.923291
31
0
39
0
210
0
220
0
230
1
0
LINE
5
DD
100
AcDbEntity
8
1
62
256
6
ByLayer
370
13
48
1
60
0
100
AcDbLine
10
221.757489
20
18.91728
30
0
11
221.900822
21
18.923533
31
0
39
0
210
0
220
0
230
1
0
LINE
5
DE
100
AcDbEntity
8
1
62
256
6
ByLayer
370
13
48
1
60
0
100
AcDbLine
10
209.480722
20
16.956316
30
0
11
209.447644
21
17.25014
31
0
39
0
210
0
220
0
230
1
0
LINE
5
DF
100
AcDbEntity
8
1
62
256
6
ByLayer
370
13
48
1
60
0
100
AcDbLine
10
209.705765
20
17.084236
30
0
11
211.412703
21
17.35537
31
0
39
0
210
0
220
0
230
1
0
LINE
5
E0
100
AcDbEntity
8
1
62
256
6
ByLayer
370
13
48
1
60
0
100
AcDbLine
10
223.940165
20
13.071783
30
0
11
223.106593
21
18.349928
31
0
39
0
210
0
220
0
230
1
0
LINE
5
E1
100
AcDbEntity
8
1
62
256
6
ByLayer
370
13
48
1
60
0
100
AcDbLine
10
209.081239
20
11.951478
30
0
11
209.91481
21
6.673333
31
0
39
0
210
0
220
0
230
1
0
LINE
5
E2
100
AcDbEntity
8
1
62
256
6
ByLayer
370
13
48
1
60
0
100
AcDbLine
10
210.861021
20
12.154585
30
0
11
210.856409
21
12.154343
31
0
39
0
210
0
220
0
230
1
0
LINE
5
E3
100
AcDbEntity
8
1
62
256
6
ByLayer
370
13
48
1
60
0
100
AcDbLine
10
211.430097
20
17.459382
30
0
11
209.694476
21
17.183692
31
0
39
0
210
0
220
0
230
1
0
LINE
5
E4
100
AcDbEntity
8
1
62
256
6
ByLayer
370
13
48
1
60
0
100
AcDbLine
10
221.900822
20
18.923533
30
0
11
221.89621
21
18.923291
31
0
39
0
210
0
220
0
230
1
0
LINE
5
E5
100
AcDbEntity
8
1
62
256
6
ByLayer
370
13
48
1
60
0
100
AcDbLine
10
208.667448
20
12.364685
30
0
11
208.710669
21
12.774253
31
0
39
0
210
0
220
0
230
1
0
LINE
5
E6
100
AcDbEntity
8
SK1
62
256
6
ByLayer
370
13
48
1
60
0
100
AcDbLine
10
-69
20
-19.996
30
0
11
-69
21
-9.102615
31
0
39
0
210
0
220
0
230
1
0
LINE
5
E7
100
AcDbEntity
8
SK1
62
256
6
ByLayer
370
13
48
1
60
0
100
AcDbLine
10
-69
20
9.102615
30
0
11
-69
21
19.996
31
0
39
0
210
0
220
0
230
1
0
LINE
5
E8
100
AcDbEntity
8
SK1
62
256
6
ByLayer
370
13
48
1
60
0
100
AcDbLine
10
-2
20
-19.996
30
0
11
-2
21
19.996
31
0
39
0
210
0
220
0
230
1
0
LINE
5
E9
100
AcDbEntity
8
SK1
62
256
6
ByLayer
370
13
48
1
60
0
100
AcDbLine
10
-0.15
20
-19.746
30
0
11
-0.15
21
19.746
31
0
39
0
210
0
220
0
230
1
0
LINE
5
EA
100
AcDbEntity
8
SK1
62
256
6
ByLayer
370
13
48
1
60
0
100
AcDbLine
10
-6.5
20
-9.102615
30
0
11
-66.600002
21
-9.102615
31
0
39
0
210
0
220
0
230
1
0
LINE
5
EB
100
AcDbEntity
8
SK1
62
256
6
ByLayer
370
13
48
1
60
0
100
AcDbLine
10
-68.516222
20
19.892544
30
0
11
-68.516222
21
8.873042
31
0
39
0
210
0
220
0
230
1
0
LINE
5
EC
100
AcDbEntity
8
SK1
62
256
6
ByLayer
370
13
48
1
60
0
100
AcDbLine
10
-68.516222
20
-8.873042
30
0
11
-68.516222
21
-19.892544
31
0
39
0
210
0
220
0
230
1
0
LINE
5
ED
100
AcDbEntity
8
1
62
256
6
ByLayer
370
13
48
1
60
0
100
AcDbLine
10
107.6
20
-18.265649
30
0
11
107.6
21
-18.335
31
0
39
0
210
0
220
0
230
1
0
LINE
5
EE
100
AcDbEntity
8
1
62
256
6
ByLayer
370
13
48
1
60
0
100
AcDbLine
10
218.838372
20
7.501482
30
0
11
218.690731
21
7.493745
31
0
39
0
210
0
220
0
230
1
0
LINE
5
EF
100
AcDbEntity
8
1
62
256
6
ByLayer
370
13
48
1
60
0
100
AcDbLine
10
222.926366
20
5.765838
30
0
11
222.890453
21
5.763955
31
0
39
0
210
0
220
0
230
1
0
LINE
5
F0
100
AcDbEntity
8
1
62
256
6
ByLayer
370
13
48
1
60
0
100
AcDbLine
10
204.41256
20
-18.245004
30
0
11
199.138161
21
-18.245004
31
0
39
0
210
0
220
0
230
1
0
LINE
5
F1
100
AcDbEntity
8
1
62
256
6
ByLayer
370
13
48
1
60
0
100
AcDbLine
10
207.41256
20
-18.433989
30
0
11
207.41256
21
-0.391258
31
0
39
0
210
0
220
0
230
1
0
LINE
5
F2
100
AcDbEntity
8
1
62
256
6
ByLayer
370
13
48
1
60
0
100
AcDbLine
10
107.6
20
18.335
30
0
11
107.6
21
-6.54609
31
0
39
0
210
0
220
0
230
1
0
LINE
5
F3
100
AcDbEntity
8
1
62
256
6
ByLayer
370
13
48
1
60
0
100
AcDbLine
10
208.944995
20
9.283569
30
0
11
208.578269
21
11.605666
31
0
39
0
210
0
220
0
230
1
0
LINE
5
F4
100
AcDbEntity
8
1
62
256
6
ByLayer
370
13
48
1
60
0
100
AcDbLine
10
219.021124
20
7.548148
30
0
11
220.512932
21
7.62633
31
0
39
0
210
0
220
0
230
1
0
LINE
5
F5
100
AcDbEntity
8
1
62
256
6
ByLayer
370
13
48
1
60
0
100
AcDbLine
10
207.41256
20
18.525
30
0
11
207.41256
21
18.378116
31
0
39
0
210
0
220
0
230
1
0
LINE
5
F6
100
AcDbEntity
8
1
62
256
6
ByLayer
370
13
48
1
60
0
100
AcDbLine
10
215.456429
20
6.159683
30
0
11
221.627153
21
6.483077
31
0
39
0
210
0
220
0
230
1
0
LINE
5
F7
100
AcDbEntity
8
1
62
256
6
ByLayer
370
13
48
1
60
0
100
AcDbLine
10
5.4552
20
24.75
30
0
11
5.4552
21
4.949747
31
0
39
0
210
0
220
0
230
1
0
LINE
5
F8
100
AcDbEntity
8
1
62
256
6
ByLayer
370
13
48
1
60
0
100
AcDbLine
10
5.4552
20
-4.949747
30
0
11
5.4552
21
-24.75
31
0
39
0
210
0
220
0
230
1
0
LINE
5
F9
100
AcDbEntity
8
1
62
256
6
ByLayer
370
13
48
1
60
0
100
AcDbLine
10
212.529526
20
6.846923
30
0
11
212.076401
21
6.823176
31
0
39
0
210
0
220
0
230
1
0
LINE
5
FA
100
AcDbEntity
8
1
62
256
6
ByLayer
370
13
48
1
60
0
100
AcDbLine
10
203.468253
20
8.852705
30
0
11
204.72207
21
9.55357
31
0
39
0
210
0
220
0
230
1
0
LINE
5
FB
100
AcDbEntity
8
1
62
256
6
ByLayer
370
13
48
1
60
0
100
AcDbLine
10
35
20
18.525
30
0
11
35
21
-6.561794
31
0
39
0
210
0
220
0
230
1
0
LINE
5
FC
100
AcDbEntity
8
1
62
256
6
ByLayer
370
13
48
1
60
0
100
AcDbLine
10
223.013403
20
0.898933
30
0
11
222.825871
21
0.827318
31
0
39
0
210
0
220
0
230
1
0
LINE
5
FD
100
AcDbEntity
8
1
62
256
6
ByLayer
370
13
48
1
60
0
100
AcDbLine
10
213.154399
20
7.240686
30
0
11
214.646207
21
7.318868
31
0
39
0
210
0
220
0
230
1
0
LINE
5
FE
100
AcDbEntity
8
1
62
256
6
ByLayer
370
13
48
1
60
0
100
AcDbLine
10
222.485013
20
-0.406058
30
0
11
221.124896
21
0.918945
31
0
39
0
210
0
220
0
230
1
0
LINE
5
FF
100
AcDbEntity
8
1
62
256
6
ByLayer
370
13
48
1
60
0
100
AcDbLine
10
222.819709
20
6.645714
30
0
11
222.677518
21
6.638262
31
0
39
0
210
0
220
0
230
1
0
LINE
5
100
100
AcDbEntity
8
1
62
256
6
ByLayer
370
13
48
1
60
0
100
AcDbLine
10
204.72207
20
9.55357
30
0
11
203.197822
21
11.917557
31
0
39
0
210
0
220
0
230
1
0
LINE
5
101
100
AcDbEntity
8
1
62
256
6
ByLayer
370
13
48
1
60
0
100
AcDbLine
10
223.144878
20
-6.112564
30
0
11
222.516334
21
-10.861286
31
0
39
0
210
0
220
0
230
1
0
LINE
5
102
100
AcDbEntity
8
1
62
256
6
ByLayer
370
13
48
1
60
0
100
AcDbLine
10
208.810416
20
12.988255
30
0
11
209.454364
21
17.908649
31
0
39
0
210
0
220
0
230
1
0
LINE
5
103
100
AcDbEntity
8
1
62
256
6
ByLayer
370
13
48
1
60
0
100
AcDbLine
10
222.896614
20
1.028874
30
0
11
222.875276
21
1.031668
31
0
39
0
210
0
220
0
230
1
0
LINE
5
104
100
AcDbEntity
8
1
62
256
6
ByLayer
370
13
48
1
60
0
100
AcDbLine
10
214.581276
20
7.115191
30
0
11
212.813512
21
7.022546
31
0
39
0
210
0
220
0
230
1
0
LINE
5
105
100
AcDbEntity
8
1
62
256
6
ByLayer
370
13
48
1
60
0
100
AcDbLine
10
200.225583
20
1.896824
30
0
11
200.333312
21
1.226233
31
0
39
0
210
0
220
0
230
1
0
LINE
5
106
100
AcDbEntity
8
1
62
256
6
ByLayer
370
13
48
1
60
0
100
AcDbLine
10
5.4552
20
-4.949747
30
0
11
0.1
21
-4.949747
31
0
39
0
210
0
220
0
230
1
0
LINE
5
107
100
AcDbEntity
8
1
62
256
6
ByLayer
370
13
48
1
60
0
100
AcDbLine
10
30
20
18.525
30
0
11
30
21
-6.5626
31
0
39
0
210
0
220
0
230
1
0
LINE
5
108
100
AcDbEntity
8
1
62
256
6
ByLayer
370
13
48
1
60
0
100
AcDbLine
10
221.623053
20
-2.948505
30
0
11
223.122458
21
-4.4092
31
0
39
0
210
0
220
0
230
1
0
LINE
5
109
100
AcDbEntity
8
1
62
256
6
ByLayer
370
13
48
1
60
0
100
AcDbLine
10
222.804639
20
0.511583
30
0
11
222.781219
21
0.51465
31
0
39
0
210
0
220
0
230
1
0
LINE
5
10A
100
AcDbEntity
8
1
62
256
6
ByLayer
370
13
48
1
60
0
100
AcDbLine
10
0
20
-4.422669
30
0
11
0
21
4.422669
31
0
39
0
210
0
220
0
230
1
0
LINE
5
10B
100
AcDbEntity
8
1
62
256
6
ByLayer
370
13
48
1
60
0
100
AcDbLine
10
204.41256
20
-18.245004
30
0
11
204.41256
21
-0.147058
31
0
39
0
210
0
220
0
230
1
0
LINE
5
10C
100
AcDbEntity
8
1
62
256
6
ByLayer
370
13
48
1
60
0
100
AcDbLine
10
35
20
-18.461366
30
0
11
35
21
-18.525
31
0
39
0
210
0
220
0
230
1
0
LINE
5
10D
100
AcDbEntity
8
1
62
256
6
ByLayer
370
13
48
1
60
0
100
AcDbLine
10
204.41256
20
18.335
30
0
11
204.41256
21
18.14868
31
0
39
0
210
0
220
0
230
1
0
LINE
5
10E
100
AcDbEntity
8
1
62
256
6
ByLayer
370
13
48
1
60
0
100
AcDbLine
10
221.124896
20
0.918945
30
0
11
221.234053
21
-0.754438
31
0
39
0
210
0
220
0
230
1
0
LINE
5
10F
100
AcDbEntity
8
1
62
256
6
ByLayer
370
13
48
1
60
0
100
AcDbLine
10
212.76995
20
6.942379
30
0
11
212.570934
21
6.931949
31
0
39
0
210
0
220
0
230
1
0
LINE
5
110
100
AcDbEntity
8
1
62
256
6
ByLayer
370
13
48
1
60
0
100
AcDbLine
10
223.010934
20
6.084798
30
0
11
223.013403
21
0.898933
31
0
39
0
210
0
220
0
230
1
0
LINE
5
111
100
AcDbEntity
8
1
62
256
6
ByLayer
370
13
48
1
60
0
100
AcDbLine
10
209.454364
20
17.908649
30
0
11
209.42857
21
18.400825
31
0
39
0
210
0
220
0
230
1
0
LINE
5
112
100
AcDbEntity
8
1
62
256
6
ByLayer
370
13
48
1
60
0
100
AcDbLine
10
30.01
20
-10.532522
30
0
11
30.01
21
-17.862083
31
0
39
0
210
0
220
0
230
1
0
LINE
5
113
100
AcDbEntity
8
1
62
256
6
ByLayer
370
13
48
1
60
0
100
AcDbLine
10
223.144878
20
-6.112564
30
0
11
221.703487
21
-4.708385
31
0
39
0
210
0
220
0
230
1
0
LINE
5
114
100
AcDbEntity
8
1
62
256
6
ByLayer
370
13
48
1
60
0
100
AcDbLine
10
205.056121
20
7.768551
30
0
11
207.752853
21
6.940008
31
0
39
0
210
0
220
0
230
1
0
LINE
5
115
100
AcDbEntity
8
1
62
256
6
ByLayer
370
13
48
1
60
0
100
AcDbLine
10
222.796875
20
0.520222
30
0
11
222.804639
21
0.511583
31
0
39
0
210
0
220
0
230
1
0
LINE
5
116
100
AcDbEntity
8
1
62
256
6
ByLayer
370
13
48
1
60
0
100
AcDbLine
10
0.1
20
4.949747
30
0
11
5.4552
21
4.949747
31
0
39
0
210
0
220
0
230
1
0
LINE
5
117
100
AcDbEntity
8
1
62
256
6
ByLayer
370
13
48
1
60
0
100
AcDbLine
10
0.1
20
24.75
30
0
11
0.1
21
4.949747
31
0
39
0
210
0
220
0
230
1
0
LINE
5
118
100
AcDbEntity
8
1
62
256
6
ByLayer
370
13
48
1
60
0
100
AcDbLine
10
222.796875
20
0.520222
30
0
11
222.786175
21
0.521623
31
0
39
0
210
0
220
0
230
1
0
LINE
5
119
100
AcDbEntity
8
1
62
256
6
ByLayer
370
13
48
1
60
0
100
AcDbLine
10
0
20
24.65
30
0
11
0
21
4.422669
31
0
39
0
210
0
220
0
230
1
0
LINE
5
11A
100
AcDbEntity
8
1
62
256
6
ByLayer
370
13
48
1
60
0
100
AcDbLine
10
214.581276
20
7.115191
30
0
11
220.967265
21
7.449866
31
0
39
0
210
0
220
0
230
1
0
LINE
5
11B
100
AcDbEntity
8
1
62
256
6
ByLayer
370
13
48
1
60
0
100
AcDbLine
10
203.197822
20
8.888659
30
0
11
203.197822
21
11.917557
31
0
39
0
210
0
220
0
230
1
0
LINE
5
11C
100
AcDbEntity
8
1
62
256
6
ByLayer
370
13
48
1
60
0
100
AcDbLine
10
221.627153
20
6.483077
30
0
11
222.458696
21
6.526657
31
0
39
0
210
0
220
0
230
1
0
LINE
5
11D
100
AcDbEntity
8
1
62
256
6
ByLayer
370
13
48
1
60
0
100
AcDbLine
10
223.010934
20
6.084798
30
0
11
222.926366
21
5.765838
31
0
39
0
210
0
220
0
230
1
0
LINE
5
11E
100
AcDbEntity
8
1
62
256
6
ByLayer
370
13
48
1
60
0
100
AcDbLine
10
222.832164
20
6.429267
30
0
11
223.010934
21
6.084798
31
0
39
0
210
0
220
0
230
1
0
LINE
5
11F
100
AcDbEntity
8
1
62
256
6
ByLayer
370
13
48
1
60
0
100
AcDbLine
10
222.844964
20
-11.695246
30
0
11
222.501876
21
-11.418738
31
0
39
0
210
0
220
0
230
1
0
LINE
5
120
100
AcDbEntity
8
1
62
256
6
ByLayer
370
13
48
1
60
0
100
AcDbLine
10
209.45816
20
16.953733
30
0
11
208.984983
21
13.338191
31
0
39
0
210
0
220
0
230
1
0
LINE
5
121
100
AcDbEntity
8
1
62
256
6
ByLayer
370
13
48
1
60
0
100
AcDbLine
10
222.485013
20
-0.406058
30
0
11
223.122458
21
-4.4092
31
0
39
0
210
0
220
0
230
1
0
LINE
5
122
100
AcDbEntity
8
1
62
256
6
ByLayer
370
13
48
1
60
0
100
AcDbLine
10
212.804288
20
7.022063
30
0
11
212.813512
21
7.022546
31
0
39
0
210
0
220
0
230
1
0
LINE
5
123
100
AcDbEntity
8
1
62
256
6
ByLayer
370
13
48
1
60
0
100
AcDbLine
10
222.896614
20
1.028874
30
0
11
223.013403
21
0.898933
31
0
39
0
210
0
220
0
230
1
0
LINE
5
124
100
AcDbEntity
8
1
62
256
6
ByLayer
370
13
48
1
60
0
100
AcDbLine
10
0
20
-24.65
30
0
11
0
21
-4.422669
31
0
39
0
210
0
220
0
230
1
0
LINE
5
125
100
AcDbEntity
8
1
62
256
6
ByLayer
370
13
48
1
60
0
100
AcDbLine
10
221.95302
20
-18.433989
30
0
11
207.41256
21
-18.433989
31
0
39
0
210
0
220
0
230
1
0
LINE
5
126
100
AcDbEntity
8
1
62
256
6
ByLayer
370
13
48
1
60
0
100
AcDbLine
10
221.627153
20
6.483077
30
0
11
221.139859
21
1.709791
31
0
39
0
210
0
220
0
230
1
0
LINE
5
127
100
AcDbEntity
8
1
62
256
6
ByLayer
370
13
48
1
60
0
100
AcDbLine
10
221.139859
20
1.709791
30
0
11
222.414492
21
0.468064
31
0
39
0
210
0
220
0
230
1
0
LINE
5
128
100
AcDbEntity
8
1
62
256
6
ByLayer
370
13
48
1
60
0
100
AcDbLine
10
221.95302
20
-18.433989
30
0
11
222.844964
21
-11.695246
31
0
39
0
210
0
220
0
230
1
0
LINE
5
129
100
AcDbEntity
8
1
62
256
6
ByLayer
370
13
48
1
60
0
100
AcDbLine
10
214.725856
20
6.121396
30
0
11
215.456429
21
6.159683
31
0
39
0
210
0
220
0
230
1
0
LINE
5
12A
100
AcDbEntity
8
1
62
256
6
ByLayer
370
13
48
1
60
0
100
AcDbLine
10
222.853336
20
6.061257
30
0
11
222.819709
21
6.645714
31
0
39
0
210
0
220
0
230
1
0
LINE
5
12B
100
AcDbEntity
8
1
62
256
6
ByLayer
370
13
48
1
60
0
100
AcDbLine
10
208.795382
20
10.507429
30
0
11
208.980108
21
9.337746
31
0
39
0
210
0
220
0
230
1
0
LINE
5
12C
100
AcDbEntity
8
1
62
256
6
ByLayer
370
13
48
1
60
0
100
AcDbLine
10
212.856258
20
5.842998
30
0
11
213.407242
21
5.871874
31
0
39
0
210
0
220
0
230
1
0
LINE
5
12D
100
AcDbEntity
8
1
62
256
6
ByLayer
370
13
48
1
60
0
100
AcDbLine
10
0.1
20
-24.75
30
0
11
0.1
21
-4.949747
31
0
39
0
210
0
220
0
230
1
0
LINE
5
12E
100
AcDbEntity
8
1
62
256
6
ByLayer
370
13
48
1
60
0
100
AcDbLine
10
204.423501
20
1.31293
30
0
11
204.661901
21
-0.171057
31
0
39
0
210
0
220
0
230
1
0
LINE
5
12F
100
AcDbEntity
8
1
62
256
6
ByLayer
370
13
48
1
60
0
100
AcDbLine
10
30
20
-18.461433
30
0
11
30
21
-18.525
31
0
39
0
210
0
220
0
230
1
0
LINE
5
130
100
AcDbEntity
8
1
62
256
6
ByLayer
370
18
48
1
60
0
100
AcDbLine
10
216.021767
20
11.264701
30
0
11
216.031688
21
11.282066
31
0
39
0
210
0
220
0
230
1
0
LINE
5
131
100
AcDbEntity
8
1
62
256
6
ByLayer
370
18
48
1
60
0
100
AcDbLine
10
217.559393
20
12.877445
30
0
11
217.444417
21
12.871419
31
0
39
0
210
0
220
0
230
1
0
LINE
5
132
100
AcDbEntity
8
1
62
256
6
ByLayer
370
18
48
1
60
0
100
AcDbLine
10
217.478277
20
12.225317
30
0
11
217.498112
21
12.227354
31
0
39
0
210
0
220
0
230
1
0
LINE
5
133
100
AcDbEntity
8
1
62
256
6
ByLayer
370
18
48
1
60
0
100
AcDbLine
10
216.011464
20
13.680605
30
0
11
215.895473
21
13.674526
31
0
39
0
210
0
220
0
230
1
0
LINE
5
134
100
AcDbEntity
8
1
62
256
6
ByLayer
370
18
48
1
60
0
100
AcDbLine
10
215.907155
20
13.658293
30
0
11
215.895473
21
13.674526
31
0
39
0
210
0
220
0
230
1
0
LINE
5
135
100
AcDbEntity
8
1
62
256
6
ByLayer
370
18
48
1
60
0
100
AcDbLine
10
217.310067
20
11.673002
30
0
11
217.195091
21
11.666976
31
0
39
0
210
0
220
0
230
1
0
LINE
5
136
100
AcDbEntity
8
1
62
256
6
ByLayer
370
18
48
1
60
0
100
AcDbLine
10
217.464356
20
12.871467
30
0
11
217.444417
21
12.871419
31
0
39
0
210
0
220
0
230
1
0
LINE
5
137
100
AcDbEntity
8
1
62
256
6
ByLayer
370
18
48
1
60
0
100
AcDbLine
10
217.593254
20
12.231343
30
0
11
217.478277
21
12.225317
31
0
39
0
210
0
220
0
230
1
0
LINE
5
138
100
AcDbEntity
8
1
62
256
6
ByLayer
370
18
48
1
60
0
100
AcDbLine
10
216.146664
20
11.288092
30
0
11
216.031688
21
11.282066
31
0
39
0
210
0
220
0
230
1
0
LINE
5
139
100
AcDbEntity
8
1
62
256
6
ByLayer
370
18
48
1
60
0
100
AcDbLine
10
217.205109
20
11.649658
30
0
11
217.195091
21
11.666976
31
0
39
0
210
0
220
0
230
1
0
LINE
5
13A
100
AcDbEntity
8
1
62
256
6
ByLayer
370
18
48
1
60
0
100
AcDbLine
10
216.137757
20
11.27078
30
0
11
216.021767
21
11.264701
31
0
39
0
210
0
220
0
230
1
0
LINE
5
13B
100
AcDbEntity
8
1
62
256
6
ByLayer
370
18
48
1
60
0
100
AcDbLine
10
216.022131
20
13.664318
30
0
11
215.907155
21
13.658293
31
0
39
0
210
0
220
0
230
1
0
LINE
5
13C
100
AcDbEntity
8
1
62
256
6
ByLayer
370
18
48
1
60
0
100
AcDbLine
10
217.219395
20
13.403126
30
0
11
217.104419
21
13.3971
31
0
39
0
210
0
220
0
230
1
0
LINE
5
13D
100
AcDbEntity
8
1
62
256
6
ByLayer
370
18
48
1
60
0
100
AcDbLine
10
217.104419
20
13.3971
30
0
11
217.112572
21
13.415371
31
0
39
0
210
0
220
0
230
1
0
LINE
5
13E
100
AcDbEntity
8
1
62
256
6
ByLayer
370
18
48
1
60
0
100
AcDbLine
10
215.179905
20
12.751744
30
0
11
215.115072
21
12.748346
31
0
39
0
210
0
220
0
230
1
0
LINE
5
13F
100
AcDbEntity
8
1
62
256
6
ByLayer
370
18
48
1
60
0
100
AcDbLine
10
217.228563
20
13.421449
30
0
11
217.112572
21
13.415371
31
0
39
0
210
0
220
0
230
1
0
LINE
5
140
100
AcDbEntity
8
1
62
256
6
ByLayer
370
18
48
1
60
0
100
AcDbLine
10
215.213662
20
12.107631
30
0
11
215.151163
21
12.104355
31
0
39
0
210
0
220
0
230
1
0
LINE
5
141
100
AcDbEntity
8
1
62
256
6
ByLayer
370
18
48
1
60
0
100
AcDbLine
10
217.3211
20
11.655737
30
0
11
217.205109
21
11.649658
31
0
39
0
210
0
220
0
230
1
0
LINE
5
142
100
AcDbEntity
8
1
62
256
6
ByLayer
370
18
48
1
60
0
100
AcDbLine
10
222.807623
20
-0.094915
30
0
11
223.617968
21
-5.183863
31
0
39
0
210
0
220
0
230
1
0
LINE
5
143
100
AcDbEntity
8
1
62
256
6
ByLayer
370
18
48
1
60
0
100
AcDbLine
10
222.414939
20
0.353674
30
0
11
222.467572
21
0.346782
31
0
39
0
210
0
220
0
230
1
0
LINE
5
144
100
AcDbEntity
8
1
62
256
6
ByLayer
370
18
48
1
60
0
100
AcDbLine
10
222.699525
20
-10.770251
30
0
11
222.601348
21
-10.798253
31
0
39
0
210
0
220
0
230
1
0
LINE
5
145
100
AcDbEntity
8
1
62
256
6
ByLayer
370
18
48
1
60
0
100
AcDbLine
10
223.620973
20
-5.412204
30
0
11
222.950058
21
-10.481049
31
0
39
0
210
0
220
0
230
1
0
LINE
5
146
100
AcDbEntity
8
1
62
256
6
ByLayer
370
18
48
1
60
0
100
AcDbLine
10
222.758329
20
0.097589
30
0
11
222.786481
21
-6.3E-05
31
0
39
0
210
0
220
0
230
1
0
LINE
5
147
100
AcDbEntity
8
4
62
256
6
ByLayer
370
18
48
0.05
60
0
100
AcDbLine
10
224
20
0
30
0
11
0
21
0
31
0
39
0
210
0
220
0
230
1
0
LINE
5
149
100
AcDbEntity
8
SK4
62
256
6
ByLayer
370
13
48
0.05
60
0
100
AcDbLine
10
224
20
0
30
0
11
-70
21
0
31
0
39
0
210
0
220
0
230
1
0
LINE
5
14B
100
AcDbEntity
8
SK1
62
256
6
ByLayer
370
13
48
1
60
0
100
AcDbLine
10
-68.599999
20
19.996
30
0
11
-69
21
19.996
31
0
39
0
210
0
220
0
230
1
0
LINE
5
14C
100
AcDbEntity
8
SK1
62
256
6
ByLayer
370
13
48
1
60
0
100
AcDbLine
10
-69
20
-19.996
30
0
11
-68.599999
21
-19.996
31
0
39
0
210
0
220
0
230
1
0
LINE
5
14D
100
AcDbEntity
8
SK1
62
256
6
ByLayer
370
13
48
1
60
0
100
AcDbLine
10
-68.516222
20
19.892544
30
0
11
-68.599999
21
19.996
31
0
39
0
210
0
220
0
230
1
0
LINE
5
14E
100
AcDbEntity
8
SK1
62
256
6
ByLayer
370
13
48
1
60
0
100
AcDbLine
10
-68.599999
20
-19.996
30
0
11
-68.516222
21
-19.892544
31
0
39
0
210
0
220
0
230
1
0
LINE
5
14F
100
AcDbEntity
8
SK1
62
256
6
ByLayer
370
13
48
1
60
0
100
AcDbLine
10
-67.633813
20
-19.639667
30
0
11
-66.600002
21
-19.996
31
0
39
0
210
0
220
0
230
1
0
LINE
5
150
100
AcDbEntity
8
SK1
62
256
6
ByLayer
370
13
48
1
60
0
100
AcDbLine
10
-66.600002
20
19.996
30
0
11
-67.633813
21
19.639667
31
0
39
0
210
0
220
0
230
1
0
LINE
5
151
100
AcDbEntity
8
SK1
62
256
6
ByLayer
370
13
48
1
60
0
100
AcDbLine
10
-70
20
-18.996
30
0
11
-69
21
-19.996
31
0
39
0
210
0
220
0
230
1
0
LINE
5
152
100
AcDbEntity
8
SK1
62
256
6
ByLayer
370
13
48
1
60
0
100
AcDbLine
10
-69
20
19.996
30
0
11
-70
21
18.996
31
0
39
0
210
0
220
0
230
1
0
LINE
5
153
100
AcDbEntity
8
SK1
62
256
6
ByLayer
370
13
48
1
60
0
100
AcDbLine
10
-0.15
20
19.746
30
0
11
-1.375195
21
19.746
31
0
39
0
210
0
220
0
230
1
0
LINE
5
154
100
AcDbEntity
8
SK1
62
256
6
ByLayer
370
13
48
1
60
0
100
AcDbLine
10
-1.375195
20
-19.746
30
0
11
-0.15
21
-19.746
31
0
39
0
210
0
220
0
230
1
0
LINE
5
155
100
AcDbEntity
8
SK1
62
256
6
ByLayer
370
13
48
1
60
0
100
AcDbLine
10
-1.544243
20
19.783477
30
0
11
-2
21
19.996
31
0
39
0
210
0
220
0
230
1
0
LINE
5
156
100
AcDbEntity
8
SK1
62
256
6
ByLayer
370
13
48
1
60
0
100
AcDbLine
10
-2
20
-19.996
30
0
11
-1.544243
21
-19.783477
31
0
39
0
210
0
220
0
230
1
0
LINE
5
157
100
AcDbEntity
8
SK1
62
256
6
ByLayer
370
13
48
1
60
0
100
AcDbLine
10
-2
20
19.996
30
0
11
-66.600002
21
19.996
31
0
39
0
210
0
220
0
230
1
0
LINE
5
158
100
AcDbEntity
8
SK1
62
256
6
ByLayer
370
13
48
1
60
0
100
AcDbLine
10
-66.600002
20
-19.996
30
0
11
-2
21
-19.996
31
0
39
0
210
0
220
0
230
1
0
LINE
5
159
100
AcDbEntity
8
1
62
256
6
ByLayer
370
13
48
1
60
0
100
AcDbLine
10
124.287165
20
18.335
30
0
11
107.6
21
18.335
31
0
39
0
210
0
220
0
230
1
0
LINE
5
15A
100
AcDbEntity
8
1
62
256
6
ByLayer
370
13
48
1
60
0
100
AcDbLine
10
222.943176
20
7.223812
30
0
11
223.288707
21
7.945916
31
0
39
0
210
0
220
0
230
1
0
LINE
5
15B
100
AcDbEntity
8
1
62
256
6
ByLayer
370
13
48
1
60
0
100
AcDbLine
10
221.930955
20
13.031429
30
0
11
221.179606
21
17.788945
31
0
39
0
210
0
220
0
230
1
0
LINE
5
15C
100
AcDbEntity
8
1
62
256
6
ByLayer
370
13
48
1
60
0
100
AcDbLine
10
221.282944
20
7.858962
30
0
11
221.933615
21
12.830737
31
0
39
0
210
0
220
0
230
1
0
LINE
5
15D
100
AcDbEntity
8
1
62
256
6
ByLayer
370
18
48
1
60
0
100
AcDbLine
10
216.224784
20
13.559437
30
0
11
216.331456
21
13.565027
31
0
39
0
210
0
220
0
230
1
0
LINE
5
15E
100
AcDbEntity
8
1
62
256
6
ByLayer
370
18
48
1
60
0
100
AcDbLine
10
216.443916
20
11.419172
30
0
11
216.337243
21
11.413582
31
0
39
0
210
0
220
0
230
1
0
LINE
5
15F
100
AcDbEntity
8
1
62
256
6
ByLayer
370
18
48
1
60
0
100
AcDbLine
10
216.44813
20
10.091974
30
0
11
216.524887
21
10.095997
31
0
39
0
210
0
220
0
230
1
0
LINE
5
160
100
AcDbEntity
8
1
62
256
6
ByLayer
370
18
48
1
60
0
100
AcDbLine
10
216.273675
20
14.889418
30
0
11
216.196917
21
14.885396
31
0
39
0
210
0
220
0
230
1
0
LINE
5
161
100
AcDbEntity
8
1
62
256
6
ByLayer
370
13
48
1
60
0
100
AcDbLine
10
30
20
-18.525
30
0
11
35
21
-18.525
31
0
39
0
210
0
220
0
230
1
0
LINE
5
162
100
AcDbEntity
8
1
62
256
6
ByLayer
370
13
48
1
60
0
100
AcDbLine
10
35
20
-18.525
30
0
11
107.6
21
-18.335
31
0
39
0
210
0
220
0
230
1
0
LINE
5
163
100
AcDbEntity
8
1
62
256
6
ByLayer
370
13
48
1
60
0
100
AcDbLine
10
209.223145
20
18.525
30
0
11
207.41256
21
18.525
31
0
39
0
210
0
220
0
230
1
0
LINE
5
164
100
AcDbEntity
8
1
62
256
6
ByLayer
370
13
48
1
60
0
100
AcDbLine
10
207.41256
20
18.525
30
0
11
204.41256
21
18.335
31
0
39
0
210
0
220
0
230
1
0
LINE
5
165
100
AcDbEntity
8
1
62
256
6
ByLayer
370
13
48
1
60
0
100
AcDbLine
10
107.6
20
-18.335
30
0
11
137.683165
21
-18.335
31
0
39
0
210
0
220
0
230
1
0
LINE
5
166
100
AcDbEntity
8
1
62
256
6
ByLayer
370
13
48
1
60
0
100
AcDbLine
10
204.41256
20
18.335
30
0
11
192.91617
21
18.335
31
0
39
0
210
0
220
0
230
1
0
LINE
5
167
100
AcDbEntity
8
1
62
256
6
ByLayer
370
13
48
1
60
0
100
AcDbLine
10
107.6
20
18.335
30
0
11
35
21
18.525
31
0
39
0
210
0
220
0
230
1
0
LINE
5
168
100
AcDbEntity
8
1
62
256
6
ByLayer
370
13
48
1
60
0
100
AcDbLine
10
35
20
18.525
30
0
11
30
21
18.525
31
0
39
0
210
0
220
0
230
1
0
LINE
5
169
100
AcDbEntity
8
1
62
256
6
ByLayer
370
13
48
1
60
0
100
AcDbLine
10
0.1
20
-24.75
30
0
11
5.4552
21
-24.75
31
0
39
0
210
0
220
0
230
1
0
LINE
5
16A
100
AcDbEntity
8
1
62
256
6
ByLayer
370
13
48
1
60
0
100
AcDbLine
10
0.1
20
24.75
30
0
11
0
21
24.65
31
0
39
0
210
0
220
0
230
1
0
LINE
5
16B
100
AcDbEntity
8
1
62
256
6
ByLayer
370
13
48
1
60
0
100
AcDbLine
10
0
20
-24.65
30
0
11
0.1
21
-24.75
31
0
39
0
210
0
220
0
230
1
0
LINE
5
16C
100
AcDbEntity
8
1
62
256
6
ByLayer
370
13
48
1
60
0
100
AcDbLine
10
5.4552
20
24.75
30
0
11
0.1
21
24.75
31
0
39
0
210
0
220
0
230
1
0
LINE
5
16D
100
AcDbEntity
8
81
62
256
6
ByLayer
370
18
48
1
60
0
100
AcDbLine
10
224
20
0
30
0
11
231
21
0
31
0
39
0
210
0
220
0
230
1
0
LINE
5
16E
100
AcDbEntity
8
80
62
256
6
ByLayer
370
18
48
1
60
0
100
AcDbLine
10
0
20
0
30
0
11
-7
21
0
31
0
39
0
210
0
220
0
230
1
0
LINE
5
16F
100
AcDbEntity
8
SK2
62
256
6
ByLayer
370
13
48
1
60
0
100
AcDbLine
10
-90.725
20
20
30
0
11
-90.725
21
-20
31
0
39
0
210
0
220
0
230
1
0
LINE
5
171
100
AcDbEntity
8
SK2
62
256
6
ByLayer
370
13
48
1
60
0
100
AcDbLine
10
-71.5875
20
-20
30
0
11
-93.9
21
-20
31
0
39
0
210
0
220
0
230
1
0
LINE
5
172
100
AcDbEntity
8
SK2
62
256
6
ByLayer
370
13
48
1
60
0
100
AcDbLine
10
-71.5875
20
20
30
0
11
-93.9
21
20
31
0
39
0
210
0
220
0
230
1
0
LINE
5
173
100
AcDbEntity
8
1
62
256
6
ByLayer
370
18
48
1
60
1
100
AcDbLine
10
-90.725
20
-20
30
0
11
-91.650575
21
-15.825003
31
0
39
0
210
0
220
0
230
1
0
LINE
5
174
100
AcDbEntity
8
1
62
256
6
ByLayer
370
18
48
1
60
1
100
AcDbLine
10
-91.650575
20
-15.825003
30
0
11
-89.799425
21
-15.824997
31
0
39
0
210
0
220
0
230
1
0
LINE
5
175
100
AcDbEntity
8
1
62
256
6
ByLayer
370
18
48
1
60
1
100
AcDbLine
10
-89.799425
20
-15.824997
30
0
11
-90.725
21
-20
31
0
39
0
210
0
220
0
230
1
0
LINE
5
176
100
AcDbEntity
8
1
62
256
6
ByLayer
370
18
48
1
60
1
100
AcDbLine
10
-90.725
20
20
30
0
11
-89.799425
21
15.825003
31
0
39
0
210
0
220
0
230
1
0
LINE
5
177
100
AcDbEntity
8
1
62
256
6
ByLayer
370
18
48
1
60
1
100
AcDbLine
10
-89.799425
20
15.825003
30
0
11
-91.650575
21
15.824997
31
0
39
0
210
0
220
0
230
1
0
LINE
5
178
100
AcDbEntity
8
1
62
256
6
ByLayer
370
18
48
1
60
1
100
AcDbLine
10
-91.650575
20
15.824997
30
0
11
-90.725
21
20
31
0
39
0
210
0
220
0
230
1
0
LINE
5
179
100
AcDbEntity
8
SK2
62
256
6
ByLayer
370
13
48
1
60
0
100
AcDbLine
10
-100.725
20
-24.75
30
0
11
-100.725
21
24.75
31
0
39
0
210
0
220
0
230
1
0
LINE
5
17A
100
AcDbEntity
8
SK2
62
256
6
ByLayer
370
13
48
1
60
0
100
AcDbLine
10
-1.5875
20
24.75
30
0
11
-103.9
21
24.75
31
0
39
0
210
0
220
0
230
1
0
LINE
5
17B
100
AcDbEntity
8
SK2
62
256
6
ByLayer
370
13
48
1
60
0
100
AcDbLine
10
-1.5875
20
-24.75
30
0
11
-103.9
21
-24.75
31
0
39
0
210
0
220
0
230
1
0
LINE
5
17C
100
AcDbEntity
8
1
62
256
6
ByLayer
370
18
48
1
60
1
100
AcDbLine
10
-100.725
20
24.75
30
0
11
-99.799425
21
20.575003
31
0
39
0
210
0
220
0
230
1
0
LINE
5
17D
100
AcDbEntity
8
1
62
256
6
ByLayer
370
18
48
1
60
1
100
AcDbLine
10
-99.799425
20
20.575003
30
0
11
-101.650575
21
20.574997
31
0
39
0
210
0
220
0
230
1
0
LINE
5
17E
100
AcDbEntity
8
1
62
256
6
ByLayer
370
18
48
1
60
1
100
AcDbLine
10
-101.650575
20
20.574997
30
0
11
-100.725
21
24.75
31
0
39
0
210
0
220
0
230
1
0
LINE
5
17F
100
AcDbEntity
8
1
62
256
6
ByLayer
370
18
48
1
60
1
100
AcDbLine
10
-100.725
20
-24.75
30
0
11
-101.650575
21
-20.575003
31
0
39
0
210
0
220
0
230
1
0
LINE
5
180
100
AcDbEntity
8
1
62
256
6
ByLayer
370
18
48
1
60
1
100
AcDbLine
10
-101.650575
20
-20.575003
30
0
11
-99.799425
21
-20.574997
31
0
39
0
210
0
220
0
230
1
0
LINE
5
181
100
AcDbEntity
8
1
62
256
6
ByLayer
370
18
48
1
60
1
100
AcDbLine
10
-99.799425
20
-20.574997
30
0
11
-100.725
21
-24.75
31
0
39
0
210
0
220
0
230
1
0
LINE
5
182
100
AcDbEntity
8
2
62
256
6
ByLayer
370
13
48
1
60
0
100
AcDbLine
10
250.975
20
19
30
0
11
250.975
21
-19
31
0
39
0
210
0
220
0
230
1
0
LINE
5
184
100
AcDbEntity
8
2
62
256
6
ByLayer
370
13
48
1
60
0
100
AcDbLine
10
225.5875
20
-19
30
0
11
254.15
21
-19
31
0
39
0
210
0
220
0
230
1
0
LINE
5
185
100
AcDbEntity
8
2
62
256
6
ByLayer
370
13
48
1
60
0
100
AcDbLine
10
225.5875
20
19
30
0
11
254.15
21
19
31
0
39
0
210
0
220
0
230
1
0
LINE
5
186
100
AcDbEntity
8
1
62
256
6
ByLayer
370
18
48
1
60
1
100
AcDbLine
10
250.975
20
-19
30
0
11
250.049425
21
-14.825003
31
0
39
0
210
0
220
0
230
1
0
LINE
5
187
100
AcDbEntity
8
1
62
256
6
ByLayer
370
18
48
1
60
1
100
AcDbLine
10
250.049425
20
-14.825003
30
0
11
251.900575
21
-14.824997
31
0
39
0
210
0
220
0
230
1
0
LINE
5
188
100
AcDbEntity
8
1
62
256
6
ByLayer
370
18
48
1
60
1
100
AcDbLine
10
251.900575
20
-14.824997
30
0
11
250.975
21
-19
31
0
39
0
210
0
220
0
230
1
0
LINE
5
189
100
AcDbEntity
8
1
62
256
6
ByLayer
370
18
48
1
60
1
100
AcDbLine
10
250.975
20
19
30
0
11
251.900575
21
14.825003
31
0
39
0
210
0
220
0
230
1
0
LINE
5
18A
100
AcDbEntity
8
1
62
256
6
ByLayer
370
18
48
1
60
1
100
AcDbLine
10
251.900575
20
14.825003
30
0
11
250.049425
21
14.824997
31
0
39
0
210
0
220
0
230
1
0
LINE
5
18B
100
AcDbEntity
8
1
62
256
6
ByLayer
370
18
48
1
60
1
100
AcDbLine
10
250.049425
20
14.824997
30
0
11
250.975
21
19
31
0
39
0
210
0
220
0
230
1
0
LINE
5
33D
100
AcDbEntity
8
1
62
256
6
ByLayer
370
18
48
1
60
1
100
AcDbLine
10
-90.725
20
-20
30
0
11
-91.650575
21
-15.825003
31
0
39
0
210
0
220
0
230
1
0
LINE
5
33E
100
AcDbEntity
8
1
62
256
6
ByLayer
370
18
48
1
60
1
100
AcDbLine
10
-91.650575
20
-15.825003
30
0
11
-89.799425
21
-15.824997
31
0
39
0
210
0
220
0
230
1
0
LINE
5
33F
100
AcDbEntity
8
1
62
256
6
ByLayer
370
18
48
1
60
1
100
AcDbLine
10
-89.799425
20
-15.824997
30
0
11
-90.725
21
-20
31
0
39
0
210
0
220
0
230
1
0
LINE
5
341
100
AcDbEntity
8
1
62
256
6
ByLayer
370
18
48
1
60
1
100
AcDbLine
10
-90.725
20
20
30
0
11
-89.799425
21
15.825003
31
0
39
0
210
0
220
0
230
1
0
LINE
5
342
100
AcDbEntity
8
1
62
256
6
ByLayer
370
18
48
1
60
1
100
AcDbLine
10
-89.799425
20
15.825003
30
0
11
-91.650575
21
15.824997
31
0
39
0
210
0
220
0
230
1
0
LINE
5
343
100
AcDbEntity
8
1
62
256
6
ByLayer
370
18
48
1
60
1
100
AcDbLine
10
-91.650575
20
15.824997
30
0
11
-90.725
21
20
31
0
39
0
210
0
220
0
230
1
0
LINE
5
347
100
AcDbEntity
8
1
62
256
6
ByLayer
370
18
48
1
60
1
100
AcDbLine
10
-100.725
20
24.75
30
0
11
-99.799425
21
20.575003
31
0
39
0
210
0
220
0
230
1
0
LINE
5
348
100
AcDbEntity
8
1
62
256
6
ByLayer
370
18
48
1
60
1
100
AcDbLine
10
-99.799425
20
20.575003
30
0
11
-101.650575
21
20.574997
31
0
39
0
210
0
220
0
230
1
0
LINE
5
349
100
AcDbEntity
8
1
62
256
6
ByLayer
370
18
48
1
60
1
100
AcDbLine
10
-101.650575
20
20.574997
30
0
11
-100.725
21
24.75
31
0
39
0
210
0
220
0
230
1
0
LINE
5
34B
100
AcDbEntity
8
1
62
256
6
ByLayer
370
18
48
1
60
1
100
AcDbLine
10
-100.725
20
-24.75
30
0
11
-101.650575
21
-20.575003
31
0
39
0
210
0
220
0
230
1
0
LINE
5
34C
100
AcDbEntity
8
1
62
256
6
ByLayer
370
18
48
1
60
1
100
AcDbLine
10
-101.650575
20
-20.575003
30
0
11
-99.799425
21
-20.574997
31
0
39
0
210
0
220
0
230
1
0
LINE
5
34D
100
AcDbEntity
8
1
62
256
6
ByLayer
370
18
48
1
60
1
100
AcDbLine
10
-99.799425
20
-20.574997
30
0
11
-100.725
21
-24.75
31
0
39
0
210
0
220
0
230
1
0
LINE
5
351
100
AcDbEntity
8
1
62
256
6
ByLayer
370
18
48
1
60
1
100
AcDbLine
10
250.975
20
-19
30
0
11
250.049425
21
-14.825003
31
0
39
0
210
0
220
0
230
1
0
LINE
5
352
100
AcDbEntity
8
1
62
256
6
ByLayer
370
18
48
1
60
1
100
AcDbLine
10
250.049425
20
-14.825003
30
0
11
251.900575
21
-14.824997
31
0
39
0
210
0
220
0
230
1
0
LINE
5
353
100
AcDbEntity
8
1
62
256
6
ByLayer
370
18
48
1
60
1
100
AcDbLine
10
251.900575
20
-14.824997
30
0
11
250.975
21
-19
31
0
39
0
210
0
220
0
230
1
0
LINE
5
355
100
AcDbEntity
8
1
62
256
6
ByLayer
370
18
48
1
60
1
100
AcDbLine
10
250.975
20
19
30
0
11
251.900575
21
14.825003
31
0
39
0
210
0
220
0
230
1
0
LINE
5
356
100
AcDbEntity
8
1
62
256
6
ByLayer
370
18
48
1
60
1
100
AcDbLine
10
251.900575
20
14.825003
30
0
11
250.049425
21
14.824997
31
0
39
0
210
0
220
0
230
1
0
LINE
5
357
100
AcDbEntity
8
1
62
256
6
ByLayer
370
18
48
1
60
1
100
AcDbLine
10
250.049425
20
14.824997
30
0
11
250.975
21
19
31
0
39
0
210
0
220
0
230
1
0
MTEXT
5
339
100
AcDbEntity
8
SK2
62
256
6
ByLayer
370
18
48
1
60
0
100
AcDbMText
10
-92.736672
20
-7.186314
30
0
210
0
220
0
230
1
1
%%c
40
4.5
41
0
44
1.084337
50
90
71
7
72
5
7
iso_b_vert
0
MTEXT
5
33C
100
AcDbEntity
8
SK2
62
256
6
ByLayer
370
18
48
1
60
0
100
AcDbMText
10
-92.736672
20
4.02853
30
0
210
0
220
0
230
1
1
\W0.7361;40
40
4.5
41
0
44
1.084337
50
90
71
7
72
5
7
iso_b_vert
0
MTEXT
5
345
100
AcDbEntity
8
SK2
62
256
6
ByLayer
370
18
48
1
60
0
100
AcDbMText
10
-102.736672
20
-9.778569
30
0
210
0
220
0
230
1
1
%%c
40
4.5
41
0
44
1.084337
50
90
71
7
72
5
7
iso_b_vert
0
MTEXT
5
346
100
AcDbEntity
8
SK2
62
256
6
ByLayer
370
18
48
1
60
0
100
AcDbMText
10
-102.736672
20
1.436275
30
0
210
0
220
0
230
1
1
\W0.7640;49.5
40
4.5
41
0
44
1.084337
50
90
71
7
72
5
7
iso_b_vert
0
MTEXT
5
34F
100
AcDbEntity
8
2
62
256
6
ByLayer
370
18
48
1
60
0
100
AcDbMText
10
248.963328
20
-6.949399
30
0
210
0
220
0
230
1
1
%%c
40
4.5
41
0
44
1.084337
50
90
71
7
72
5
7
iso_b_vert
0
MTEXT
5
350
100
AcDbEntity
8
2
62
256
6
ByLayer
370
18
48
1
60
0
100
AcDbMText
10
248.963328
20
4.265444
30
0
210
0
220
0
230
1
1
\W0.6740;38
40
4.5
41
0
44
1.084337
50
90
71
7
72
5
7
iso_b_vert
0
MTEXT
5
359
100
AcDbEntity
8
SK6
62
256
6
ByLayer
370
18
48
1
60
0
100
AcDbMText
10
9.308916
20
-94.592562
30
0
210
0
220
0
230
1
1
\W0.7723;DS20-D3800L40-05
40
3.5
41
0
44
1.084337
50
0
71
7
72
5
7
iso_b_vert
0
HATCH
5
340
100
AcDbEntity
8
SK2
62
256
6
ByLayer
370
13
48
1
60
0
100
AcDbHatch
10
0
20
0
30
0
210
0
220
0
230
1
2
ANSI31
70
0
71
0
91
1
92
5
93
3
72
1
10
-90.725
20
-19.9999999999999
11
-91.650575216528
21
-15.8250033998275
72
1
10
-91.650575216528
20
-15.8250033998275
11
-89.799424783472
21
-15.8249966001723
72
1
10
-89.799424783472
20
-15.8249966001723
11
-90.725
21
-19.9999999999999
97
0
75
0
76
1
52
0
41
0.0062
77
0
78
1
53
45
43
0
44
0
45
-0.0139193969876572
46
0.0139193969876572
79
0
47
0
98
1
10
0
20
0
0
HATCH
5
344
100
AcDbEntity
8
SK2
62
256
6
ByLayer
370
13
48
1
60
0
100
AcDbHatch
10
0
20
0
30
0
210
0
220
0
230
1
2
ANSI31
70
0
71
0
91
1
92
5
93
3
72
1
10
-90.725
20
20.0000000000001
11
-89.799424783472
21
15.8250033998277
72
1
10
-89.799424783472
20
15.8250033998277
11
-91.650575216528
21
15.8249966001724
72
1
10
-91.650575216528
20
15.8249966001724
11
-90.725
21
20.0000000000001
97
0
75
0
76
1
52
0
41
0.0062
77
0
78
1
53
45
43
0
44
0
45
-0.0139193969876572
46
0.0139193969876572
79
0
47
0
98
1
10
0
20
0
0
HATCH
5
34A
100
AcDbEntity
8
SK2
62
256
6
ByLayer
370
13
48
1
60
0
100
AcDbHatch
10
0
20
0
30
0
210
0
220
0
230
1
2
ANSI31
70
0
71
0
91
1
92
5
93
3
72
1
10
-100.725
20
24.75
11
-99.799424783472
21
20.5750033998276
72
1
10
-99.799424783472
20
20.5750033998276
11
-101.650575216528
21
20.5749966001724
72
1
10
-101.650575216528
20
20.5749966001724
11
-100.725
21
24.75
97
0
75
0
76
1
52
0
41
0.0062
77
0
78
1
53
45
43
0
44
0
45
-0.0139193969876572
46
0.0139193969876572
79
0
47
0
98
1
10
0
20
0
0
HATCH
5
34E
100
AcDbEntity
8
SK2
62
256
6
ByLayer
370
13
48
1
60
0
100
AcDbHatch
10
0
20
0
30
0
210
0
220
0
230
1
2
ANSI31
70
0
71
0
91
1
92
5
93
3
72
1
10
-100.725
20
-24.75
11
-101.650575216528
21
-20.5750033998276
72
1
10
-101.650575216528
20
-20.5750033998276
11
-99.799424783472
21
-20.5749966001724
72
1
10
-99.799424783472
20
-20.5749966001724
11
-100.725
21
-24.75
97
0
75
0
76
1
52
0
41
0.0062
77
0
78
1
53
45
43
0
44
0
45
-0.0139193969876572
46
0.0139193969876572
79
0
47
0
98
1
10
0
20
0
0
HATCH
5
354
100
AcDbEntity
8
2
62
256
6
ByLayer
370
13
48
1
60
0
100
AcDbHatch
10
0
20
0
30
0
210
0
220
0
230
1
2
ANSI31
70
0
71
0
91
1
92
5
93
3
72
1
10
250.975
20
-19.0000000000003
11
250.049424783472
21
-14.8250033998279
72
1
10
250.049424783472
20
-14.8250033998279
11
251.900575216528
21
-14.8249966001726
72
1
10
251.900575216528
20
-14.8249966001726
11
250.975
21
-19.0000000000003
97
0
75
0
76
1
52
0
41
0.0062
77
0
78
1
53
45
43
0
44
0
45
-0.0139193969876572
46
0.0139193969876572
79
0
47
0
98
1
10
0
20
0
0
HATCH
5
358
100
AcDbEntity
8
2
62
256
6
ByLayer
370
13
48
1
60
0
100
AcDbHatch
10
0
20
0
30
0
210
0
220
0
230
1
2
ANSI31
70
0
71
0
91
1
92
5
93
3
72
1
10
250.975
20
18.9999999999997
11
251.900575216528
21
14.8250033998274
72
1
10
251.900575216528
20
14.8250033998274
11
250.049424783472
21
14.8249966001721
72
1
10
250.049424783472
20
14.8249966001721
11
250.975
21
18.9999999999997
97
0
75
0
76
1
52
0
41
0.0062
77
0
78
1
53
45
43
0
44
0
45
-0.0139193969876572
46
0.0139193969876572
79
0
47
0
98
1
10
0
20
0
0
DIMENSION
5
35C
100
AcDbEntity
8
2
62
256
6
ByLayer
370
18
48
1
60
0
100
AcDbDimension
2
_U0
10
224
20
-73.611386
30
0
11
112
21
-73.611386
31
0
70
32
71
1
72
1
41
1
210
0
220
0
230
1
3
Standard
100
AcDbAlignedDimension
13
0
23
-24.75
33
0
14
224
24
-19
34
0
50
0
100
AcDbRotatedDimension
1001
ACAD
1000
DSTYLE
1002
{
1070
   371
1070
    13
1070
   372
1070
    13
1070
   170
1070
     0
1070
   144
1040
1.0
1070
   277
1070
     2
1070
   284
1070
     8
1070
   278
1070
    46
1070
   146
1040
0.777778
1070
   345
1005
16
1070
   347
1005
16
1070
   346
1005
16
1070
   344
1005
0
1070
   343
1005
0
1070
   172
1070
     1
1070
    76
1070
     0
1070
    75
1070
     0
1070
   282
1070
     0
1070
   281
1070
     0
1070
    71
1070
     0
1070
    74
1070
     0
1070
   279
1070
     0
1070
   173
1070
     1
1070
   340
1005
33A
1070
   271
1070
     1
1070
   272
1070
     2
1070
    77
1070
     1
1070
    73
1070
     1
1070
   171
1070
     3
1070
   274
1070
     4
1070
   177
1070
   150
1070
   176
1070
     9
1070
   178
1070
    43
1070
    78
1070
     8
1070
    48
1040
-0.1
1070
    41
1040
4.175
1070
   147
1040
2.25
1070
    42
1040
1.5875
1070
    44
1040
3.175
1070
   140
1040
4.5
1002
}
1001
ACAD_DSTYLE_DIM_LINETYPE
1070
   380
1005
16
1001
ACAD_DSTYLE_DIM_EXT1_LINETYPE
1070
   381
1005
16
1001
ACAD_DSTYLE_DIM_EXT2_LINETYPE
1070
   382
1005
16
0
DIMENSION
5
375
100
AcDbEntity
8
SK2
62
256
6
ByLayer
370
18
48
1
60
0
100
AcDbDimension
2
_U1
10
0
20
-73.611386
30
0
11
-35
21
-73.611386
31
0
70
32
71
1
72
1
41
1
210
0
220
0
230
1
3
Standard
100
AcDbAlignedDimension
13
-70
23
-20
33
0
14
0
24
-24.75
34
0
50
0
100
AcDbRotatedDimension
1001
ACAD
1000
DSTYLE
1002
{
1070
   371
1070
    13
1070
   372
1070
    13
1070
   170
1070
     0
1070
   144
1040
1.0
1070
   277
1070
     2
1070
   284
1070
     8
1070
   278
1070
    46
1070
   146
1040
0.777778
1070
   345
1005
16
1070
   347
1005
16
1070
   346
1005
16
1070
   344
1005
0
1070
   343
1005
0
1070
   172
1070
     1
1070
    76
1070
     0
1070
    75
1070
     0
1070
   282
1070
     0
1070
   281
1070
     0
1070
    71
1070
     0
1070
    74
1070
     0
1070
   279
1070
     0
1070
   173
1070
     1
1070
   340
1005
33A
1070
   271
1070
     1
1070
   272
1070
     2
1070
    77
1070
     1
1070
    73
1070
     1
1070
   171
1070
     3
1070
   274
1070
     4
1070
   177
1070
   150
1070
   176
1070
     9
1070
   178
1070
    43
1070
    78
1070
     8
1070
    48
1040
-0.1
1070
    41
1040
4.175
1070
   147
1040
2.25
1070
    42
1040
1.5875
1070
    44
1040
3.175
1070
   140
1040
4.5
1002
}
1001
ACAD_DSTYLE_DIM_LINETYPE
1070
   380
1005
16
1001
ACAD_DSTYLE_DIM_EXT1_LINETYPE
1070
   381
1005
16
1001
ACAD_DSTYLE_DIM_EXT2_LINETYPE
1070
   382
1005
16
0
DIMENSION
5
38D
100
AcDbEntity
8
SK2
62
256
6
ByLayer
370
18
48
1
60
0
100
AcDbDimension
2
_U2
10
5.9552
20
-63.611386
30
0
11
114.9776
21
-63.611386
31
0
70
32
71
1
72
1
41
1
210
0
220
0
230
1
3
Standard
100
AcDbAlignedDimension
13
224
23
-19
33
0
14
5.9552
24
-24.75
34
0
50
0
100
AcDbRotatedDimension
1001
ACAD
1000
DSTYLE
1002
{
1070
   371
1070
    13
1070
   372
1070
    13
1070
   170
1070
     0
1070
   144
1040
1.0
1070
   277
1070
     2
1070
   284
1070
     8
1070
   278
1070
    46
1070
   146
1040
0.777778
1070
   345
1005
16
1070
   347
1005
16
1070
   346
1005
16
1070
   344
1005
0
1070
   343
1005
0
1070
   172
1070
     1
1070
    76
1070
     0
1070
    75
1070
     0
1070
   282
1070
     0
1070
   281
1070
     0
1070
    71
1070
     0
1070
    74
1070
     0
1070
   279
1070
     0
1070
   173
1070
     1
1070
   340
1005
33A
1070
   271
1070
     1
1070
   272
1070
     2
1070
    77
1070
     1
1070
    73
1070
     1
1070
   171
1070
     3
1070
   274
1070
     4
1070
   177
1070
   150
1070
   176
1070
     9
1070
   178
1070
    43
1070
    78
1070
     8
1070
    48
1040
-0.1
1070
    41
1040
4.175
1070
   147
1040
2.25
1070
    42
1040
1.5875
1070
    44
1040
3.175
1070
   140
1040
4.5
1002
}
1001
ACAD_DSTYLE_DIM_LINETYPE
1070
   380
1005
16
1001
ACAD_DSTYLE_DIM_EXT1_LINETYPE
1070
   381
1005
16
1001
ACAD_DSTYLE_DIM_EXT2_LINETYPE
1070
   382
1005
16
0
DIMENSION
5
3A5
100
AcDbEntity
8
SK2
62
256
6
ByLayer
370
18
48
1
60
0
100
AcDbDimension
2
_U3
10
224
20
-53.611386
30
0
11
127
21
-53.611386
31
0
70
32
71
1
72
1
41
1
210
0
220
0
230
1
3
Standard
100
AcDbAlignedDimension
13
30
23
-19
33
0
14
224
24
-19
34
0
50
0
100
AcDbRotatedDimension
1001
ACAD
1000
DSTYLE
1002
{
1070
   371
1070
    13
1070
   372
1070
    13
1070
   170
1070
     0
1070
   144
1040
1.0
1070
   277
1070
     2
1070
   284
1070
     8
1070
   278
1070
    46
1070
   146
1040
0.777778
1070
   345
1005
16
1070
   347
1005
16
1070
   346
1005
16
1070
   344
1005
0
1070
   343
1005
0
1070
   172
1070
     1
1070
    76
1070
     0
1070
    75
1070
     0
1070
   282
1070
     0
1070
   281
1070
     0
1070
    71
1070
     0
1070
    74
1070
     0
1070
   279
1070
     0
1070
   173
1070
     1
1070
   340
1005
33A
1070
   271
1070
     1
1070
   272
1070
     2
1070
    77
1070
     1
1070
    73
1070
     1
1070
   171
1070
     3
1070
   274
1070
     4
1070
   177
1070
   150
1070
   176
1070
     9
1070
   178
1070
    43
1070
    78
1070
     8
1070
    48
1040
-0.1
1070
    41
1040
4.175
1070
   147
1040
2.25
1070
    42
1040
1.5875
1070
    44
1040
3.175
1070
   140
1040
4.5
1002
}
1001
ACAD_DSTYLE_DIM_LINETYPE
1070
   380
1005
16
1001
ACAD_DSTYLE_DIM_EXT1_LINETYPE
1070
   381
1005
16
1001
ACAD_DSTYLE_DIM_EXT2_LINETYPE
1070
   382
1005
16
0
DIMENSION
5
3BD
100
AcDbEntity
8
2
62
256
6
ByLayer
370
18
48
1
60
0
100
AcDbDimension
2
_U4
10
224
20
-43.611386
30
0
11
240.029464
21
-43.611386
31
0
70
32
71
1
72
1
41
1
210
0
220
0
230
1
3
Standard
100
AcDbAlignedDimension
13
222.9982
23
-9.5
33
0
14
224
24
0
34
0
50
0
100
AcDbRotatedDimension
1001
ACAD
1000
DSTYLE
1002
{
1070
   371
1070
    13
1070
   372
1070
    13
1070
   170
1070
     0
1070
   144
1040
1.0
1070
   277
1070
     2
1070
   284
1070
     8
1070
   278
1070
    46
1070
   146
1040
0.777778
1070
   345
1005
16
1070
   347
1005
16
1070
   346
1005
16
1070
   344
1005
0
1070
   343
1005
0
1070
   172
1070
     1
1070
    76
1070
     0
1070
    75
1070
     0
1070
   282
1070
     0
1070
   281
1070
     0
1070
    71
1070
     0
1070
    74
1070
     0
1070
   279
1070
     0
1070
   173
1070
     1
1070
   340
1005
33A
1070
   271
1070
     2
1070
   272
1070
     2
1070
    77
1070
     1
1070
    73
1070
     1
1070
   171
1070
     3
1070
   274
1070
     4
1070
   177
1070
   150
1070
   176
1070
     9
1070
   178
1070
    43
1070
    78
1070
     8
1070
    48
1040
-0.1
1070
    41
1040
4.175
1070
   147
1040
2.25
1070
    42
1040
1.5875
1070
    44
1040
3.175
1070
   140
1040
4.5
1002
}
1001
ACAD_DSTYLE_DIM_LINETYPE
1070
   380
1005
16
1001
ACAD_DSTYLE_DIM_EXT1_LINETYPE
1070
   381
1005
16
1001
ACAD_DSTYLE_DIM_EXT2_LINETYPE
1070
   382
1005
16
0
ENDSEC
0
SECTION
2
OBJECTS
0
DICTIONARY
5
447
330
0
100
AcDbDictionary
280
0
281
1
3
ACAD_GROUP
350
448
3
ACAD_MLINESTYLE
350
449
0
DICTIONARY
5
448
330
0
100
AcDbDictionary
280
0
281
1
0
DICTIONARY
5
449
330
0
100
AcDbDictionary
280
0
281
1
3
Standard
350
18
0
MLINESTYLE
5
18
330
449
100
AcDbMlineStyle
2
Standard
70
0
3

62
256
51
90
52
90
71
2
49
-0.5
62
256
6
ByLayer
49
0.5
62
256
6
ByLayer
0
RASTERVARIABLES
5
435
330

100
AcDbRasterVariables
90
0
70
1
71
1
72
1
0
ENDSEC
0
EOF
