0
SECTION
2
HEADER
9
$ACADVER
1
AC1015
9
$DWGCODEPAGE
3
ANSI_1252
9
$HANDSEED
5
456
9
$ANGBASE
50
0
9
$ANGDIR
70
0
9
$ATTMODE
70
1
9
$AUNITS
70
0
9
$AUPREC
70
0
9
$CECOLOR
62
256
9
$CELTSCALE
40
1
9
$CELTYPE
6
ByLayer
9
$CELWEIGHT
370
18
9
$CLAYER
8
0
9
$CMLJUST
70
0
9
$CMLSCALE
40
1
9
$CMLSTYLE
2
Standard
9
$DIMSTYLE
2
Standard
9
$TEXTSIZE
40
0.2
9
$TEXTSTYLE
7
Standard
9
$LUNITS
70
2
9
$LUPREC
70
4
9
$EXTNAMES
290
1
9
$INSUNITS
70
4
9
$LTSCALE
40
1
9
$LWDISPLAY
290
1
9
$PDMODE
70
0
9
$PDSIZE
40
0
9
$PLINEGEN
70
0
0
ENDSEC
0
SECTION
2
CLASSES
0
CLASS
1
RASTERVARIABLES
2
AcDbRasterVariables
3
ISM
90
0
280
0
281
0
0
ENDSEC
0
SECTION
2
TABLES
0
TABLE
2
VPORT
5
44c
100
AcDbSymbolTable
0
VPORT
5
1
100
AcDbSymbolTableRecord
100
AcDbViewportTableRecord
2
*Active
70
0
10
0
20
0
11
1
21
1
12
-1
22
1
13
0
23
0
14
0.5
24
0.5
15
10
25
10
16
0
26
0
36
1
17
0
27
0
37
0
0
ENDTAB
0
TABLE
2
LTYPE
5
44d
100
AcDbSymbolTable
0
LTYPE
5
14
100
AcDbSymbolTableRecord
100
AcDbLinetypeTableRecord
70
0
2
ByBlock
3

72
65
73
0
40
0
0
LTYPE
5
15
100
AcDbSymbolTableRecord
100
AcDbLinetypeTableRecord
70
0
2
ByLayer
3

72
65
73
0
40
0
0
LTYPE
5
16
100
AcDbSymbolTableRecord
100
AcDbLinetypeTableRecord
70
0
2
Continuous
3
Solid line
72
65
73
0
40
0
0
LTYPE
5
6E
100
AcDbSymbolTableRecord
100
AcDbLinetypeTableRecord
70
0
2
CENTER
3
____ _ ____ _ ____ _ ____
72
65
73
4
40
47.5
49
22
74
0
49
-8.5
74
0
49
8.5
74
0
49
-8.5
74
0
0
LTYPE
5
6F
100
AcDbSymbolTableRecord
100
AcDbLinetypeTableRecord
70
0
2
DASHED
3
__ __ __ __ __ __ __ __ __
72
65
73
2
40
25.72
49
12.86
74
0
49
-12.86
74
0
0
ENDTAB
0
TABLE
2
LAYER
5
44e
100
AcDbSymbolTable
0
LAYER
5
10
100
AcDbSymbolTableRecord
100
AcDbLayerTableRecord
2
0
70
0
62
7
6
Continuous
290
1
370
-3
390
0
0
LAYER
5
71
100
AcDbSymbolTableRecord
100
AcDbLayerTableRecord
2
1
70
0
62
4
6
Continuous
290
1
370
-3
390
0
0
LAYER
5
73
100
AcDbSymbolTableRecord
100
AcDbLayerTableRecord
2
80
70
0
62
-6
6
Continuous
290
1
370
-3
390
0
0
LAYER
5
75
100
AcDbSymbolTableRecord
100
AcDbLayerTableRecord
2
81
70
0
62
-3
6
Continuous
290
1
370
-3
390
0
0
LAYER
5
148
100
AcDbSymbolTableRecord
100
AcDbLayerTableRecord
2
4
70
0
62
-2
6
CENTER
290
1
370
-3
390
0
0
LAYER
5
183
100
AcDbSymbolTableRecord
100
AcDbLayerTableRecord
2
2
70
0
62
7
6
Continuous
290
1
370
-3
390
0
0
LAYER
5
361
100
AcDbSymbolTableRecord
100
AcDbLayerTableRecord
2
Defpoints
70
0
62
7
6
Continuous
290
0
370
-3
390
0
0
LAYER
5
438
100
AcDbSymbolTableRecord
100
AcDbLayerTableRecord
2
SK1
70
0
62
4
6
Continuous
290
1
370
-3
390
0
0
LAYER
5
439
100
AcDbSymbolTableRecord
100
AcDbLayerTableRecord
2
SK4
70
0
62
2
6
CENTER
290
1
370
-3
390
0
0
LAYER
5
43a
100
AcDbSymbolTableRecord
100
AcDbLayerTableRecord
2
SK2
70
0
62
7
6
Continuous
290
1
370
-3
390
0
0
LAYER
5
43b
100
AcDbSymbolTableRecord
100
AcDbLayerTableRecord
2
SK6
70
0
62
5
6
Continuous
290
1
370
-3
390
0
0
ENDTAB
0
TABLE
2
STYLE
5
44f
100
AcDbSymbolTable
0
STYLE
5
11
100
AcDbSymbolTableRecord
100
AcDbTextStyleTableRecord
2
Standard
3
txt
70
0
71
0
40
0
41
1
42
0
50
0
0
STYLE
5
33C
100
AcDbSymbolTableRecord
100
AcDbTextStyleTableRecord
2
iso_b_vert
3
simplex.shx
70
0
71
0
40
0
41
1
42
0
50
0
0
STYLE
5
33D
100
AcDbSymbolTableRecord
100
AcDbTextStyleTableRecord
2
DWGDirectTextStyle
3
simplex
70
0
71
0
40
0
41
1
42
0
50
0
0
ENDTAB
0
TABLE
2
DIMSTYLE
5
450
100
AcDbSymbolTable
100
AcDbDimStyleTable
0
DIMSTYLE
105
27
100
AcDbSymbolTableRecord
100
AcDbDimStyleTableRecord
2
Standard
70
0
3
<>
41
0.18
42
0.0625
44
0.18
140
0.18
147
0.09
73
0
74
0
77
1
271
2
275
0
278
52
280
0
340
11
0
ENDTAB
0
TABLE
2
VIEW
5
451
100
AcDbSymbolTable
0
ENDTAB
0
TABLE
2
UCS
5
452
100
AcDbSymbolTable
0
ENDTAB
0
TABLE
2
APPID
5
453
100
AcDbSymbolTable
0
APPID
5
12
100
AcDbSymbolTableRecord
100
AcDbRegAppTableRecord
2
ACAD
70
0
0
APPID
5
35D
100
AcDbSymbolTableRecord
100
AcDbRegAppTableRecord
2
ACAD_DSTYLE_DIMBREAK
70
0
0
APPID
5
3F7
100
AcDbSymbolTableRecord
100
AcDbRegAppTableRecord
2
ACAD_DSTYLE_DIM_LINETYPE
70
0
0
APPID
5
3F8
100
AcDbSymbolTableRecord
100
AcDbRegAppTableRecord
2
ACAD_DSTYLE_DIM_EXT1_LINETYPE
70
0
0
APPID
5
3F9
100
AcDbSymbolTableRecord
100
AcDbRegAppTableRecord
2
ACAD_DSTYLE_DIM_EXT2_LINETYPE
70
0
0
APPID
5
434
100
AcDbSymbolTableRecord
100
AcDbRegAppTableRecord
2
ACAD_MLEADERVER
70
0
0
ENDTAB
0
TABLE
2
BLOCK_RECORD
5
454
100
AcDbSymbolTable
0
BLOCK_RECORD
5
1F
100
AcDbSymbolTableRecord
100
AcDbBlockTableRecord
2
*Model_Space
340
0
70
0
0
BLOCK_RECORD
5
1B
100
AcDbSymbolTableRecord
100
AcDbBlockTableRecord
2
*Paper_Space
340
0
70
0
0
BLOCK_RECORD
5
23
100
AcDbSymbolTableRecord
100
AcDbBlockTableRecord
2
*Paper_Space0
340
0
70
0
0
BLOCK_RECORD
5
362
100
AcDbSymbolTableRecord
100
AcDbBlockTableRecord
2
*D1
340
0
70
0
0
BLOCK_RECORD
5
36E
100
AcDbSymbolTableRecord
100
AcDbBlockTableRecord
2
_U0
340
0
70
0
0
BLOCK_RECORD
5
37A
100
AcDbSymbolTableRecord
100
AcDbBlockTableRecord
2
*D3
340
0
70
0
0
BLOCK_RECORD
5
386
100
AcDbSymbolTableRecord
100
AcDbBlockTableRecord
2
_U1
340
0
70
0
0
BLOCK_RECORD
5
392
100
AcDbSymbolTableRecord
100
AcDbBlockTableRecord
2
*D5
340
0
70
0
0
BLOCK_RECORD
5
39E
100
AcDbSymbolTableRecord
100
AcDbBlockTableRecord
2
_U2
340
0
70
0
0
BLOCK_RECORD
5
3AA
100
AcDbSymbolTableRecord
100
AcDbBlockTableRecord
2
*D7
340
0
70
0
0
BLOCK_RECORD
5
3B6
100
AcDbSymbolTableRecord
100
AcDbBlockTableRecord
2
_U3
340
0
70
0
0
BLOCK_RECORD
5
3C2
100
AcDbSymbolTableRecord
100
AcDbBlockTableRecord
2
*D9
340
0
70
0
0
BLOCK_RECORD
5
3D0
100
AcDbSymbolTableRecord
100
AcDbBlockTableRecord
2
_U4
340
0
70
0
0
ENDTAB
0
ENDSEC
0
SECTION
2
BLOCKS
0
BLOCK
5
20
100
AcDbEntity
8
0
100
AcDbBlockBegin
2
*Model_Space
70
0
10
0
20
0
30
0
3
*Model_Space
0
ENDBLK
5
21
100
AcDbEntity
8
0
100
AcDbBlockEnd
0
BLOCK
5
1C
100
AcDbEntity
8
0
100
AcDbBlockBegin
2
*Paper_Space
70
0
10
0
20
0
30
0
3
*Paper_Space
0
ENDBLK
5
1D
100
AcDbEntity
8
0
100
AcDbBlockEnd
0
BLOCK
5
24
100
AcDbEntity
8
0
100
AcDbBlockBegin
2
*Paper_Space0
70
0
10
0
20
0
30
0
3
*Paper_Space0
0
ENDBLK
5
25
100
AcDbEntity
8
0
100
AcDbBlockEnd
0
BLOCK
5
363
100
AcDbEntity
8
0
100
AcDbBlockBegin
2
*D1
70
1
10
0
20
0
30
0
3
*D1
0
LINE
5
365
100
AcDbEntity
8
0
62
256
6
ByLayer
370
-2
48
1
60
0
100
AcDbLine
10
0
20
-26.3375
30
0
11
0
21
-76.786386
31
0
39
0
210
0
220
0
230
1
0
LINE
5
366
100
AcDbEntity
8
0
62
256
6
ByLayer
370
-2
48
1
60
0
100
AcDbLine
10
300
20
-20.5875
30
0
11
300
21
-76.786386
31
0
39
0
210
0
220
0
230
1
0
LINE
5
367
100
AcDbEntity
8
0
62
256
6
ByLayer
370
-2
48
1
60
0
100
AcDbLine
10
4.175
20
-73.611386
30
0
11
295.825
21
-73.611386
31
0
39
0
210
0
220
0
230
1
0
SOLID
5
368
100
AcDbEntity
8
0
62
256
6
ByLayer
370
-1
48
1
60
0
100
AcDbTrace
10
4.175
20
-72.915552
30
0
11
4.175
21
-74.307219
31
0
12
0
22
-73.611386
32
0
13
0
23
-73.611386
33
0
39
0
210
0
220
0
230
1
0
SOLID
5
369
100
AcDbEntity
8
0
62
256
6
ByLayer
370
-1
48
1
60
0
100
AcDbTrace
10
295.825
20
-74.307219
30
0
11
295.825
21
-72.915552
31
0
12
300
22
-73.611386
32
0
13
300
23
-73.611386
33
0
39
0
210
0
220
0
230
1
0
MTEXT
5
36A
100
AcDbEntity
8
0
62
256
6
ByLayer
370
18
48
1
60
0
100
AcDbMText
10
150
20
-64.217636
30
0
210
0
220
0
230
1
1
\A1;300
40
4.5
41
0
44
1
50
0
71
5
72
5
7
iso_b_vert
0
POINT
5
36B
100
AcDbEntity
8
Defpoints
62
0
6
ByLayer
370
-1
48
1
60
0
100
AcDbPoint
10
0
20
-24.75
30
0
39
0
210
0
220
0
230
1
50
360
0
POINT
5
36C
100
AcDbEntity
8
Defpoints
62
0
6
ByLayer
370
-1
48
1
60
0
100
AcDbPoint
10
300
20
-19
30
0
39
0
210
0
220
0
230
1
50
360
0
POINT
5
36D
100
AcDbEntity
8
Defpoints
62
0
6
ByLayer
370
-1
48
1
60
0
100
AcDbPoint
10
300
20
-73.611386
30
0
39
0
210
0
220
0
230
1
50
360
0
ENDBLK
5
364
100
AcDbEntity
8
0
100
AcDbBlockEnd
0
BLOCK
5
375
100
AcDbEntity
8
0
100
AcDbBlockBegin
2
_U0
70
0
10
0
20
0
30
0
3
_U0
0
MTEXT
5
36F
100
AcDbEntity
8
2
62
256
6
ByLayer
370
18
48
1
60
0
100
AcDbMText
10
145.869387
20
-72.283714
30
0
210
0
220
0
230
1
1
\W0.7138;300
40
4.5
41
0
44
1.084337
50
0
71
7
72
5
7
iso_b_vert
0
LINE
5
370
100
AcDbEntity
8
2
62
256
6
ByLayer
370
13
48
1
60
0
100
AcDbLine
10
0
20
-26.3375
30
0
11
0
21
-76.786386
31
0
39
0
210
0
220
0
230
1
0
LINE
5
371
100
AcDbEntity
8
2
62
256
6
ByLayer
370
13
48
1
60
0
100
AcDbLine
10
300
20
-20.5875
30
0
11
300
21
-76.786386
31
0
39
0
210
0
220
0
230
1
0
LINE
5
372
100
AcDbEntity
8
2
62
256
6
ByLayer
370
13
48
1
60
0
100
AcDbLine
10
0
20
-73.611386
30
0
11
300
21
-73.611386
31
0
39
0
210
0
220
0
230
1
0
SOLID
5
373
100
AcDbEntity
8
2
62
256
6
ByLayer
370
18
48
1
60
0
100
AcDbTrace
10
0
20
-73.611386
30
0
11
4.174997
21
-72.68581
31
0
12
4.175003
22
-74.536961
32
0
13
4.175003
23
-74.536961
33
0
39
0
210
0
220
0
230
1
0
SOLID
5
374
100
AcDbEntity
8
2
62
256
6
ByLayer
370
18
48
1
60
0
100
AcDbTrace
10
300
20
-73.611386
30
0
11
295.825003
21
-74.536961
31
0
12
295.824997
22
-72.68581
32
0
13
295.824997
23
-72.68581
33
0
39
0
210
0
220
0
230
1
0
ENDBLK
5
376
100
AcDbEntity
8
0
100
AcDbBlockEnd
0
BLOCK
5
37B
100
AcDbEntity
8
0
100
AcDbBlockBegin
2
*D3
70
1
10
0
20
0
30
0
3
*D3
0
LINE
5
37D
100
AcDbEntity
8
0
62
256
6
ByLayer
370
-2
48
1
60
0
100
AcDbLine
10
-70
20
-21.5875
30
0
11
-70
21
-76.786386
31
0
39
0
210
0
220
0
230
1
0
LINE
5
37E
100
AcDbEntity
8
0
62
256
6
ByLayer
370
-2
48
1
60
0
100
AcDbLine
10
0
20
-26.3375
30
0
11
0
21
-76.786386
31
0
39
0
210
0
220
0
230
1
0
LINE
5
37F
100
AcDbEntity
8
0
62
256
6
ByLayer
370
-2
48
1
60
0
100
AcDbLine
10
-65.825
20
-73.611386
30
0
11
-4.175
21
-73.611386
31
0
39
0
210
0
220
0
230
1
0
SOLID
5
380
100
AcDbEntity
8
0
62
256
6
ByLayer
370
-1
48
1
60
0
100
AcDbTrace
10
-65.825
20
-72.915552
30
0
11
-65.825
21
-74.307219
31
0
12
-70
22
-73.611386
32
0
13
-70
23
-73.611386
33
0
39
0
210
0
220
0
230
1
0
SOLID
5
381
100
AcDbEntity
8
0
62
256
6
ByLayer
370
-1
48
1
60
0
100
AcDbTrace
10
-4.175
20
-74.307219
30
0
11
-4.175
21
-72.915552
31
0
12
0
22
-73.611386
32
0
13
0
23
-73.611386
33
0
39
0
210
0
220
0
230
1
0
MTEXT
5
382
100
AcDbEntity
8
0
62
256
6
ByLayer
370
18
48
1
60
0
100
AcDbMText
10
-35
20
-64.217636
30
0
210
0
220
0
230
1
1
\A1;70
40
4.5
41
0
44
1
50
0
71
5
72
5
7
iso_b_vert
0
POINT
5
383
100
AcDbEntity
8
Defpoints
62
0
6
ByLayer
370
-1
48
1
60
0
100
AcDbPoint
10
-70
20
-20
30
0
39
0
210
0
220
0
230
1
50
360
0
POINT
5
384
100
AcDbEntity
8
Defpoints
62
0
6
ByLayer
370
-1
48
1
60
0
100
AcDbPoint
10
0
20
-24.75
30
0
39
0
210
0
220
0
230
1
50
360
0
POINT
5
385
100
AcDbEntity
8
Defpoints
62
0
6
ByLayer
370
-1
48
1
60
0
100
AcDbPoint
10
0
20
-73.611386
30
0
39
0
210
0
220
0
230
1
50
360
0
ENDBLK
5
37C
100
AcDbEntity
8
0
100
AcDbBlockEnd
0
BLOCK
5
38D
100
AcDbEntity
8
0
100
AcDbBlockBegin
2
_U1
70
0
10
0
20
0
30
0
3
_U1
0
MTEXT
5
387
100
AcDbEntity
8
SK2
62
256
6
ByLayer
370
18
48
1
60
0
100
AcDbMText
10
-37.449242
20
-72.283714
30
0
210
0
220
0
230
1
1
\W0.6740;70
40
4.5
41
0
44
1.084337
50
0
71
7
72
5
7
iso_b_vert
0
LINE
5
388
100
AcDbEntity
8
SK2
62
256
6
ByLayer
370
13
48
1
60
0
100
AcDbLine
10
-70
20
-21.5875
30
0
11
-70
21
-76.786386
31
0
39
0
210
0
220
0
230
1
0
LINE
5
389
100
AcDbEntity
8
SK2
62
256
6
ByLayer
370
13
48
1
60
0
100
AcDbLine
10
0
20
-26.3375
30
0
11
0
21
-76.786386
31
0
39
0
210
0
220
0
230
1
0
LINE
5
38A
100
AcDbEntity
8
SK2
62
256
6
ByLayer
370
13
48
1
60
0
100
AcDbLine
10
-70
20
-73.611386
30
0
11
0
21
-73.611386
31
0
39
0
210
0
220
0
230
1
0
SOLID
5
38B
100
AcDbEntity
8
SK2
62
256
6
ByLayer
370
18
48
1
60
0
100
AcDbTrace
10
-70
20
-73.611386
30
0
11
-65.825003
21
-72.68581
31
0
12
-65.824997
22
-74.536961
32
0
13
-65.824997
23
-74.536961
33
0
39
0
210
0
220
0
230
1
0
SOLID
5
38C
100
AcDbEntity
8
SK2
62
256
6
ByLayer
370
18
48
1
60
0
100
AcDbTrace
10
0
20
-73.611386
30
0
11
-4.174997
21
-74.536961
31
0
12
-4.175003
22
-72.68581
32
0
13
-4.175003
23
-72.68581
33
0
39
0
210
0
220
0
230
1
0
ENDBLK
5
38E
100
AcDbEntity
8
0
100
AcDbBlockEnd
0
BLOCK
5
393
100
AcDbEntity
8
0
100
AcDbBlockBegin
2
*D5
70
1
10
0
20
0
30
0
3
*D5
0
LINE
5
395
100
AcDbEntity
8
0
62
256
6
ByLayer
370
-2
48
1
60
0
100
AcDbLine
10
300
20
-20.5875
30
0
11
300
21
-66.786386
31
0
39
0
210
0
220
0
230
1
0
LINE
5
396
100
AcDbEntity
8
0
62
256
6
ByLayer
370
-2
48
1
60
0
100
AcDbLine
10
5.9552
20
-26.3375
30
0
11
5.9552
21
-66.786386
31
0
39
0
210
0
220
0
230
1
0
LINE
5
397
100
AcDbEntity
8
0
62
256
6
ByLayer
370
-2
48
1
60
0
100
AcDbLine
10
295.825
20
-63.611386
30
0
11
10.1302
21
-63.611386
31
0
39
0
210
0
220
0
230
1
0
SOLID
5
398
100
AcDbEntity
8
0
62
256
6
ByLayer
370
-1
48
1
60
0
100
AcDbTrace
10
295.825
20
-64.307219
30
0
11
295.825
21
-62.915552
31
0
12
300
22
-63.611386
32
0
13
300
23
-63.611386
33
0
39
0
210
0
220
0
230
1
0
SOLID
5
399
100
AcDbEntity
8
0
62
256
6
ByLayer
370
-1
48
1
60
0
100
AcDbTrace
10
10.1302
20
-62.915552
30
0
11
10.1302
21
-64.307219
31
0
12
5.9552
22
-63.611386
32
0
13
5.9552
23
-63.611386
33
0
39
0
210
0
220
0
230
1
0
MTEXT
5
39A
100
AcDbEntity
8
0
62
256
6
ByLayer
370
18
48
1
60
0
100
AcDbMText
10
152.9776
20
-54.217636
30
0
210
0
220
0
230
1
1
\A1;294
40
4.5
41
0
44
1
50
0
71
5
72
5
7
iso_b_vert
0
POINT
5
39B
100
AcDbEntity
8
Defpoints
62
0
6
ByLayer
370
-1
48
1
60
0
100
AcDbPoint
10
300
20
-19
30
0
39
0
210
0
220
0
230
1
50
360
0
POINT
5
39C
100
AcDbEntity
8
Defpoints
62
0
6
ByLayer
370
-1
48
1
60
0
100
AcDbPoint
10
5.9552
20
-24.75
30
0
39
0
210
0
220
0
230
1
50
360
0
POINT
5
39D
100
AcDbEntity
8
Defpoints
62
0
6
ByLayer
370
-1
48
1
60
0
100
AcDbPoint
10
5.9552
20
-63.611386
30
0
39
0
210
0
220
0
230
1
50
360
0
ENDBLK
5
394
100
AcDbEntity
8
0
100
AcDbBlockEnd
0
BLOCK
5
3A5
100
AcDbEntity
8
0
100
AcDbBlockBegin
2
_U2
70
0
10
0
20
0
30
0
3
_U2
0
MTEXT
5
39F
100
AcDbEntity
8
SK2
62
256
6
ByLayer
370
18
48
1
60
0
100
AcDbMText
10
148.610072
20
-62.283714
30
0
210
0
220
0
230
1
1
\W0.7411;294
40
4.5
41
0
44
1.084337
50
0
71
7
72
5
7
iso_b_vert
0
LINE
5
3A0
100
AcDbEntity
8
SK2
62
256
6
ByLayer
370
13
48
1
60
0
100
AcDbLine
10
300
20
-20.5875
30
0
11
300
21
-66.786386
31
0
39
0
210
0
220
0
230
1
0
LINE
5
3A1
100
AcDbEntity
8
SK2
62
256
6
ByLayer
370
13
48
1
60
0
100
AcDbLine
10
5.9552
20
-26.3375
30
0
11
5.9552
21
-66.786386
31
0
39
0
210
0
220
0
230
1
0
LINE
5
3A2
100
AcDbEntity
8
SK2
62
256
6
ByLayer
370
13
48
1
60
0
100
AcDbLine
10
300
20
-63.611386
30
0
11
5.9552
21
-63.611386
31
0
39
0
210
0
220
0
230
1
0
SOLID
5
3A3
100
AcDbEntity
8
SK2
62
256
6
ByLayer
370
18
48
1
60
0
100
AcDbTrace
10
300
20
-63.611386
30
0
11
295.825003
21
-64.536961
31
0
12
295.824997
22
-62.68581
32
0
13
295.824997
23
-62.68581
33
0
39
0
210
0
220
0
230
1
0
SOLID
5
3A4
100
AcDbEntity
8
SK2
62
256
6
ByLayer
370
18
48
1
60
0
100
AcDbTrace
10
5.9552
20
-63.611386
30
0
11
10.130197
21
-62.68581
31
0
12
10.130203
22
-64.536961
32
0
13
10.130203
23
-64.536961
33
0
39
0
210
0
220
0
230
1
0
ENDBLK
5
3A6
100
AcDbEntity
8
0
100
AcDbBlockEnd
0
BLOCK
5
3AB
100
AcDbEntity
8
0
100
AcDbBlockBegin
2
*D7
70
1
10
0
20
0
30
0
3
*D7
0
LINE
5
3AD
100
AcDbEntity
8
0
62
256
6
ByLayer
370
-2
48
1
60
0
100
AcDbLine
10
30
20
-20.5875
30
0
11
30
21
-56.786386
31
0
39
0
210
0
220
0
230
1
0
LINE
5
3AE
100
AcDbEntity
8
0
62
256
6
ByLayer
370
-2
48
1
60
0
100
AcDbLine
10
300
20
-20.5875
30
0
11
300
21
-56.786386
31
0
39
0
210
0
220
0
230
1
0
LINE
5
3AF
100
AcDbEntity
8
0
62
256
6
ByLayer
370
-2
48
1
60
0
100
AcDbLine
10
34.175
20
-53.611386
30
0
11
295.825
21
-53.611386
31
0
39
0
210
0
220
0
230
1
0
SOLID
5
3B0
100
AcDbEntity
8
0
62
256
6
ByLayer
370
-1
48
1
60
0
100
AcDbTrace
10
34.175
20
-52.915552
30
0
11
34.175
21
-54.307219
31
0
12
30
22
-53.611386
32
0
13
30
23
-53.611386
33
0
39
0
210
0
220
0
230
1
0
SOLID
5
3B1
100
AcDbEntity
8
0
62
256
6
ByLayer
370
-1
48
1
60
0
100
AcDbTrace
10
295.825
20
-54.307219
30
0
11
295.825
21
-52.915552
31
0
12
300
22
-53.611386
32
0
13
300
23
-53.611386
33
0
39
0
210
0
220
0
230
1
0
MTEXT
5
3B2
100
AcDbEntity
8
0
62
256
6
ByLayer
370
18
48
1
60
0
100
AcDbMText
10
165
20
-44.217636
30
0
210
0
220
0
230
1
1
\A1;270
40
4.5
41
0
44
1
50
0
71
5
72
5
7
iso_b_vert
0
POINT
5
3B3
100
AcDbEntity
8
Defpoints
62
0
6
ByLayer
370
-1
48
1
60
0
100
AcDbPoint
10
30
20
-19
30
0
39
0
210
0
220
0
230
1
50
360
0
POINT
5
3B4
100
AcDbEntity
8
Defpoints
62
0
6
ByLayer
370
-1
48
1
60
0
100
AcDbPoint
10
300
20
-19
30
0
39
0
210
0
220
0
230
1
50
360
0
POINT
5
3B5
100
AcDbEntity
8
Defpoints
62
0
6
ByLayer
370
-1
48
1
60
0
100
AcDbPoint
10
300
20
-53.611386
30
0
39
0
210
0
220
0
230
1
50
360
0
ENDBLK
5
3AC
100
AcDbEntity
8
0
100
AcDbBlockEnd
0
BLOCK
5
3BD
100
AcDbEntity
8
0
100
AcDbBlockBegin
2
_U3
70
0
10
0
20
0
30
0
3
_U3
0
MTEXT
5
3B7
100
AcDbEntity
8
SK2
62
256
6
ByLayer
370
18
48
1
60
0
100
AcDbMText
10
160.869387
20
-52.283714
30
0
210
0
220
0
230
1
1
\W0.7138;270
40
4.5
41
0
44
1.084337
50
0
71
7
72
5
7
iso_b_vert
0
LINE
5
3B8
100
AcDbEntity
8
SK2
62
256
6
ByLayer
370
13
48
1
60
0
100
AcDbLine
10
30
20
-20.5875
30
0
11
30
21
-56.786386
31
0
39
0
210
0
220
0
230
1
0
LINE
5
3B9
100
AcDbEntity
8
SK2
62
256
6
ByLayer
370
13
48
1
60
0
100
AcDbLine
10
300
20
-20.5875
30
0
11
300
21
-56.786386
31
0
39
0
210
0
220
0
230
1
0
LINE
5
3BA
100
AcDbEntity
8
SK2
62
256
6
ByLayer
370
13
48
1
60
0
100
AcDbLine
10
30
20
-53.611386
30
0
11
300
21
-53.611386
31
0
39
0
210
0
220
0
230
1
0
SOLID
5
3BB
100
AcDbEntity
8
SK2
62
256
6
ByLayer
370
18
48
1
60
0
100
AcDbTrace
10
30
20
-53.611386
30
0
11
34.174997
21
-52.68581
31
0
12
34.175003
22
-54.536961
32
0
13
34.175003
23
-54.536961
33
0
39
0
210
0
220
0
230
1
0
SOLID
5
3BC
100
AcDbEntity
8
SK2
62
256
6
ByLayer
370
18
48
1
60
0
100
AcDbTrace
10
300
20
-53.611386
30
0
11
295.825003
21
-54.536961
31
0
12
295.824997
22
-52.68581
32
0
13
295.824997
23
-52.68581
33
0
39
0
210
0
220
0
230
1
0
ENDBLK
5
3BE
100
AcDbEntity
8
0
100
AcDbBlockEnd
0
BLOCK
5
3C3
100
AcDbEntity
8
0
100
AcDbBlockBegin
2
*D9
70
1
10
0
20
0
30
0
3
*D9
0
LINE
5
3C5
100
AcDbEntity
8
0
62
256
6
ByLayer
370
-2
48
1
60
0
100
AcDbLine
10
298.9982
20
-11.0875
30
0
11
298.9982
21
-46.786386
31
0
39
0
210
0
220
0
230
1
0
LINE
5
3C6
100
AcDbEntity
8
0
62
256
6
ByLayer
370
-2
48
1
60
0
100
AcDbLine
10
300
20
-1.5875
30
0
11
300
21
-46.786386
31
0
39
0
210
0
220
0
230
1
0
LINE
5
3C7
100
AcDbEntity
8
0
62
256
6
ByLayer
370
-2
48
1
60
0
100
AcDbLine
10
300
20
-43.611386
30
0
11
323.708929
21
-43.611386
31
0
39
0
210
0
220
0
230
1
0
LINE
5
3C8
100
AcDbEntity
8
0
62
256
6
ByLayer
370
-2
48
1
60
0
100
AcDbLine
10
294.8232
20
-43.611386
30
0
11
290.6482
21
-43.611386
31
0
39
0
210
0
220
0
230
1
0
LINE
5
3C9
100
AcDbEntity
8
0
62
256
6
ByLayer
370
-2
48
1
60
0
100
AcDbLine
10
304.175
20
-43.611386
30
0
11
308.35
21
-43.611386
31
0
39
0
210
0
220
0
230
1
0
SOLID
5
3CA
100
AcDbEntity
8
0
62
256
6
ByLayer
370
-1
48
1
60
0
100
AcDbTrace
10
294.8232
20
-44.307219
30
0
11
294.8232
21
-42.915552
31
0
12
298.9982
22
-43.611386
32
0
13
298.9982
23
-43.611386
33
0
39
0
210
0
220
0
230
1
0
SOLID
5
3CB
100
AcDbEntity
8
0
62
256
6
ByLayer
370
-1
48
1
60
0
100
AcDbTrace
10
304.175
20
-42.915552
30
0
11
304.175
21
-44.307219
31
0
12
300
22
-43.611386
32
0
13
300
23
-43.611386
33
0
39
0
210
0
220
0
230
1
0
MTEXT
5
3CC
100
AcDbEntity
8
0
62
256
6
ByLayer
370
18
48
1
60
0
100
AcDbMText
10
316.029464
20
-34.217636
30
0
210
0
220
0
230
1
1
\A1;1
40
4.5
41
0
44
1
50
0
71
5
72
5
7
iso_b_vert
0
POINT
5
3CD
100
AcDbEntity
8
Defpoints
62
0
6
ByLayer
370
-1
48
1
60
0
100
AcDbPoint
10
298.9982
20
-9.5
30
0
39
0
210
0
220
0
230
1
50
360
0
POINT
5
3CE
100
AcDbEntity
8
Defpoints
62
0
6
ByLayer
370
-1
48
1
60
0
100
AcDbPoint
10
300
20
0
30
0
39
0
210
0
220
0
230
1
50
360
0
POINT
5
3CF
100
AcDbEntity
8
Defpoints
62
0
6
ByLayer
370
-1
48
1
60
0
100
AcDbPoint
10
300
20
-43.611386
30
0
39
0
210
0
220
0
230
1
50
360
0
ENDBLK
5
3C4
100
AcDbEntity
8
0
100
AcDbBlockEnd
0
BLOCK
5
3D7
100
AcDbEntity
8
0
100
AcDbBlockBegin
2
_U4
70
0
10
0
20
0
30
0
3
_U4
0
MTEXT
5
3D1
100
AcDbEntity
8
2
62
256
6
ByLayer
370
18
48
1
60
0
100
AcDbMText
10
312.351
20
-42.283714
30
0
210
0
220
0
230
1
1
\W0.3580;1
40
4.5
41
0
44
1.084337
50
0
71
7
72
5
7
iso_b_vert
0
LINE
5
3D2
100
AcDbEntity
8
2
62
256
6
ByLayer
370
13
48
1
60
0
100
AcDbLine
10
298.9982
20
-11.0875
30
0
11
298.9982
21
-46.786386
31
0
39
0
210
0
220
0
230
1
0
LINE
5
3D3
100
AcDbEntity
8
2
62
256
6
ByLayer
370
13
48
1
60
0
100
AcDbLine
10
300
20
-1.5875
30
0
11
300
21
-46.786386
31
0
39
0
210
0
220
0
230
1
0
LINE
5
3D4
100
AcDbEntity
8
2
62
256
6
ByLayer
370
13
48
1
60
0
100
AcDbLine
10
313.000414
20
-43.611386
30
0
11
287.7482
21
-43.611386
31
0
39
0
210
0
220
0
230
1
0
SOLID
5
3D5
100
AcDbEntity
8
2
62
256
6
ByLayer
370
18
48
1
60
0
100
AcDbTrace
10
298.9982
20
-43.611386
30
0
11
294.823203
21
-44.536961
31
0
12
294.823197
22
-42.68581
32
0
13
294.823197
23
-42.68581
33
0
39
0
210
0
220
0
230
1
0
SOLID
5
3D6
100
AcDbEntity
8
2
62
256
6
ByLayer
370
18
48
1
60
0
100
AcDbTrace
10
300
20
-43.611386
30
0
11
304.174997
21
-42.68581
31
0
12
304.175003
22
-44.536961
32
0
13
304.175003
23
-44.536961
33
0
39
0
210
0
220
0
230
1
0
ENDBLK
5
3D8
100
AcDbEntity
8
0
100
AcDbBlockEnd
0
ENDSEC
0
SECTION
2
ENTITIES
0
ARC
5
18C
100
AcDbEntity
8
SK1
62
256
6
ByLayer
370
13
48
1
60
0
100
AcDbCircle
39
0
10
-67.894505
20
-20.396
30
0
40
0.799999999999993
210
0
220
0
230
1
100
AcDbArc
50
70.982
51
141
0
ARC
5
18D
100
AcDbEntity
8
SK1
62
256
6
ByLayer
370
13
48
1
60
0
100
AcDbCircle
39
0
10
-67.894505
20
20.396
30
0
40
0.799999999999993
210
0
220
0
230
1
100
AcDbArc
50
219
51
289.018
0
ARC
5
18E
100
AcDbEntity
8
SK1
62
256
6
ByLayer
370
13
48
1
60
0
100
AcDbCircle
39
0
10
-0.15
20
20.146
30
0
40
0.399999999999999
210
0
220
0
230
1
100
AcDbArc
50
270
51
292.024313
0
ARC
5
18F
100
AcDbEntity
8
SK1
62
256
6
ByLayer
370
13
48
1
60
0
100
AcDbCircle
39
0
10
-0.15
20
-20.146
30
0
40
0.399999999999999
210
0
220
0
230
1
100
AcDbArc
50
67.975687
51
90
0
ARC
5
190
100
AcDbEntity
8
SK1
62
256
6
ByLayer
370
13
48
1
60
0
100
AcDbCircle
39
0
10
-1.375195
20
20.146
30
0
40
0.400000000000004
210
0
220
0
230
1
100
AcDbArc
50
245
51
270
0
ARC
5
191
100
AcDbEntity
8
SK1
62
256
6
ByLayer
370
13
48
1
60
0
100
AcDbCircle
39
0
10
-1.375195
20
-20.146
30
0
40
0.400000000000004
210
0
220
0
230
1
100
AcDbArc
50
90
51
115
0
ARC
5
192
100
AcDbEntity
8
1
62
256
6
ByLayer
370
13
48
1
60
0
100
AcDbCircle
39
0
10
297.031442
20
17.778212
30
0
40
0.15
210
0
220
0
230
1
100
AcDbArc
50
8.974534
51
93
0
ARC
5
193
100
AcDbEntity
8
1
62
256
6
ByLayer
370
13
48
1
60
0
100
AcDbCircle
39
0
10
297.134212
20
7.891093
30
0
40
0.15
210
0
220
0
230
1
100
AcDbArc
50
273
51
352.543899
0
ARC
5
194
100
AcDbEntity
8
1
62
256
6
ByLayer
370
13
48
1
60
0
100
AcDbCircle
39
0
10
287.65978
20
17.119415
30
0
40
0.15
210
0
220
0
230
1
100
AcDbArc
50
78.801932
51
93
0
ARC
5
195
100
AcDbEntity
8
1
62
256
6
ByLayer
370
13
48
1
60
0
100
AcDbCircle
39
0
10
287.76255
20
7.232297
30
0
40
0.15
210
0
220
0
230
1
100
AcDbArc
50
273
51
302.717373
0
ELLIPSE
5
196
100
AcDbEntity
8
1
62
256
6
ByLayer
370
18
48
1
60
0
100
AcDbEllipse
10
292.281014
20
12.499176
30
0
11
0.056229751387404
21
-1.07292757214032
31
0
210
0
220
0
230
1
40
0.995725
41
2.09439510239318
42
-3.14159265358974
0
ELLIPSE
5
197
100
AcDbEntity
8
1
62
256
6
ByLayer
370
18
48
1
60
0
100
AcDbEllipse
10
292.281014
20
12.499176
30
0
11
0.056229751387404
21
-1.07292757214032
31
0
210
0
220
0
230
1
40
0.995725
41
-0.771932135407444
42
0
0
ELLIPSE
5
198
100
AcDbEntity
8
1
62
256
6
ByLayer
370
18
48
1
60
0
100
AcDbEllipse
10
292.405543
20
12.505702
30
0
11
-0.0785039343644271
21
1.49794430213186
31
0
210
0
220
0
230
1
40
0.995725
41
0
42
6.28318530717959
0
ELLIPSE
5
199
100
AcDbEntity
8
1
62
256
6
ByLayer
370
18
48
1
60
0
100
AcDbEllipse
10
293.516108
20
12.563904
30
0
11
-0.0172603983689432
21
0.329348020562083
31
0
210
0
220
0
230
1
40
0.506014
41
-2.93072041300281
42
-0.438969405994703
0
ELLIPSE
5
19A
100
AcDbEntity
8
1
62
256
6
ByLayer
370
18
48
1
60
0
100
AcDbEllipse
10
292.346015
20
11.258878
30
0
11
-0.327939958371402
21
-0.0171866049566317
31
0
210
0
220
0
230
1
40
0.510369
41
-1.5707963267949
42
-0.317077564754946
0
ELLIPSE
5
19B
100
AcDbEntity
8
1
62
256
6
ByLayer
370
18
48
1
60
0
100
AcDbEllipse
10
292.281014
20
12.499176
30
0
11
-0.0562297513874272
21
1.07292757214031
31
0
210
0
220
0
230
1
40
0.995725
41
-3.03423855710068
42
-2.09439510239318
0
ELLIPSE
5
19C
100
AcDbEntity
8
1
62
256
6
ByLayer
370
18
48
1
60
0
100
AcDbEllipse
10
293.31805
20
13.175377
30
0
11
-0.178562894789671
21
0.276860684791182
31
0
210
0
220
0
230
1
40
0.507093
41
0.319610439795086
42
1.57332920184165
0
ELLIPSE
5
19D
100
AcDbEntity
8
1
62
256
6
ByLayer
370
18
48
1
60
0
100
AcDbEllipse
10
292.399281
20
12.505374
30
0
11
-0.125606294983083
21
2.39671088341098
31
0
210
0
220
0
230
1
40
0.995725
41
0
42
6.28318530717959
0
ELLIPSE
5
19E
100
AcDbEntity
8
1
62
256
6
ByLayer
370
18
48
1
60
0
100
AcDbEllipse
10
292.405543
20
12.505702
30
0
11
0.0737779975156579
21
-1.40776805514352
31
0
210
0
220
0
230
1
40
0.995725
41
-0.523598775598272
42
0.523598775598294
0
ELLIPSE
5
19F
100
AcDbEntity
8
1
62
256
6
ByLayer
370
18
48
1
60
0
100
AcDbEllipse
10
292.954858
20
11.457324
30
0
11
-0.275141261392249
21
-0.179916130671712
31
0
210
0
220
0
230
1
40
0.509271
41
0.674876380105698
42
-2.93332695348141
0
ELLIPSE
5
1A0
100
AcDbEntity
8
1
62
256
6
ByLayer
370
18
48
1
60
0
100
AcDbEllipse
10
291.719764
20
11.392595
30
0
11
-0.292440365430009
21
0.150170438048083
31
0
210
0
220
0
230
1
40
0.509271
41
2.51949454501529
42
-2.92822425255388
0
ELLIPSE
5
1A1
100
AcDbEntity
8
1
62
256
6
ByLayer
370
18
48
1
60
0
100
AcDbEllipse
10
292.281014
20
12.499176
30
0
11
0.056229751387404
21
-1.07292757214032
31
0
210
0
220
0
230
1
40
0.995725
41
-1.89465892456941
42
-1.23067011332411
0
ELLIPSE
5
1A2
100
AcDbEntity
8
1
62
256
6
ByLayer
370
18
48
1
60
0
100
AcDbEllipse
10
293.383051
20
11.935079
30
0
11
-0.148644886649848
21
-0.294008917986547
31
0
210
0
220
0
230
1
40
0.507093
41
-2.82704796387739
42
-1.57332920185092
0
ELLIPSE
5
1A3
100
AcDbEntity
8
1
62
256
6
ByLayer
370
18
48
1
60
0
100
AcDbEllipse
10
293.31805
20
13.175377
30
0
11
-0.178562894791568
21
0.276860684791965
31
0
210
0
220
0
230
1
40
0.507093
41
1.57332920183491
42
2.82704796387534
0
ELLIPSE
5
1A4
100
AcDbEntity
8
1
62
256
6
ByLayer
370
18
48
1
60
0
100
AcDbEllipse
10
292.405543
20
12.505702
30
0
11
0.0737779975156579
21
-1.40776805514352
31
0
210
0
220
0
230
1
40
0.995725
41
-1.5707963267949
42
-0.523598775598272
0
ELLIPSE
5
1A5
100
AcDbEntity
8
1
62
256
6
ByLayer
370
18
48
1
60
0
100
AcDbEllipse
10
292.281014
20
12.499176
30
0
11
0.056229751387404
21
-1.07292757214032
31
0
210
0
220
0
230
1
40
0.995725
41
1.04719755119662
42
2.09439510239324
0
ELLIPSE
5
1A6
100
AcDbEntity
8
1
62
256
6
ByLayer
370
18
48
1
60
0
100
AcDbEllipse
10
292.281014
20
12.499176
30
0
11
0.056229751387404
21
-1.07292757214032
31
0
210
0
220
0
230
1
40
0.995725
41
3.14159265358979
42
-2.35220199832173
0
ELLIPSE
5
1A7
100
AcDbEntity
8
1
62
256
6
ByLayer
370
18
48
1
60
0
100
AcDbEllipse
10
293.383051
20
11.935079
30
0
11
-0.148644886659054
21
-0.294008917987469
31
0
210
0
220
0
230
1
40
0.507093
41
-1.57332920180084
42
-0.319610439789029
0
ELLIPSE
5
1A8
100
AcDbEntity
8
1
62
256
6
ByLayer
370
18
48
1
60
0
100
AcDbEllipse
10
291.607169
20
13.541027
30
0
11
-0.275141261392251
21
-0.17991613067171
31
0
210
0
220
0
230
1
40
0.509271
41
2.92822425255344
42
-2.46671532346132
0
ELLIPSE
5
1A9
100
AcDbEntity
8
1
62
256
6
ByLayer
370
18
48
1
60
0
100
AcDbEllipse
10
292.842264
20
13.605756
30
0
11
-0.292440365430009
21
0.150170438048089
31
0
210
0
220
0
230
1
40
0.509271
41
2.93332695348104
42
-0.622097124196271
0
ELLIPSE
5
1AA
100
AcDbEntity
8
1
62
256
6
ByLayer
370
18
48
1
60
0
100
AcDbEllipse
10
292.405543
20
12.505702
30
0
11
0.0737779975156579
21
-1.40776805514352
31
0
210
0
220
0
230
1
40
0.995725
41
1.5707963267949
42
2.61799387799144
0
ELLIPSE
5
1AB
100
AcDbEntity
8
1
62
256
6
ByLayer
370
18
48
1
60
0
100
AcDbEllipse
10
292.216012
20
13.739474
30
0
11
-0.327939958372513
21
-0.0171866049568198
31
0
210
0
220
0
230
1
40
0.510369
41
0.317077564755852
42
1.5707963267949
0
ELLIPSE
5
1AC
100
AcDbEntity
8
1
62
256
6
ByLayer
370
18
48
1
60
0
100
AcDbEllipse
10
292.405543
20
12.505702
30
0
11
0.0737779975156579
21
-1.40776805514352
31
0
210
0
220
0
230
1
40
0.995725
41
2.61799387799144
42
-2.61799387799152
0
ELLIPSE
5
1AD
100
AcDbEntity
8
1
62
256
6
ByLayer
370
18
48
1
60
0
100
AcDbEllipse
10
292.322523
20
12.501351
30
0
11
-0.125606294983083
21
2.39671088341098
31
0
210
0
220
0
230
1
40
0.995725
41
9.24722979011893E-05
42
3.14158700123305
0
ELLIPSE
5
1AE
100
AcDbEntity
8
1
62
256
6
ByLayer
370
18
48
1
60
0
100
AcDbEllipse
10
292.405543
20
12.505702
30
0
11
0.0737779975156579
21
-1.40776805514352
31
0
210
0
220
0
230
1
40
0.995725
41
0.523598775598294
42
1.5707963267949
0
ELLIPSE
5
1AF
100
AcDbEntity
8
1
62
256
6
ByLayer
370
18
48
1
60
0
100
AcDbEllipse
10
292.405543
20
12.505702
30
0
11
0.0737779975156579
21
-1.40776805514352
31
0
210
0
220
0
230
1
40
0.995725
41
-2.61799387799152
42
-1.5707963267949
0
ELLIPSE
5
1B0
100
AcDbEntity
8
1
62
256
6
ByLayer
370
18
48
1
60
0
100
AcDbEllipse
10
293.265781
20
-4.790081
30
0
11
1.75
21
0
31
0
210
0
220
0
230
1
40
0.99563
41
0.405756240217064
42
-3.14159249498709
0
ELLIPSE
5
1B1
100
AcDbEntity
8
1
62
256
6
ByLayer
370
18
48
1
60
0
100
AcDbEllipse
10
293.265781
20
-4.752727
30
0
11
-1.35
21
1.36436272436119E-15
31
0
210
0
220
0
230
1
40
0.99563
41
-3.1415923461887
42
0
0
ELLIPSE
5
1B2
100
AcDbEntity
8
1
62
256
6
ByLayer
370
18
48
1
60
0
100
AcDbEllipse
10
293.265781
20
-4.752727
30
0
11
-1.35
21
1.36436272436119E-15
31
0
210
0
220
0
230
1
40
0.99563
41
0
42
0.523173581721311
0
ELLIPSE
5
1B3
100
AcDbEntity
8
1
62
256
6
ByLayer
370
18
48
1
60
0
100
AcDbEllipse
10
293.265781
20
-4.752727
30
0
11
-1.35
21
1.36436272436119E-15
31
0
210
0
220
0
230
1
40
0.99563
41
3.10026133704924
42
-3.1415923461887
0
ELLIPSE
5
1B4
100
AcDbEntity
8
1
62
256
6
ByLayer
370
18
48
1
60
0
100
AcDbEllipse
10
293.265781
20
-5.431759
30
0
11
-2
21
2.02127811016473E-15
31
0
210
0
220
0
230
1
40
0.99563
41
-0.552429637732811
42
-0.406836262627347
0
ELLIPSE
5
1B5
100
AcDbEntity
8
1
62
256
6
ByLayer
370
18
48
1
60
0
100
AcDbEllipse
10
293.265781
20
-5.313726
30
0
11
-2
21
2.02127811016473E-15
31
0
210
0
220
0
230
1
40
0.99563
41
-0.615163328058628
42
-0.372671570482246
0
ELLIPSE
5
1B6
100
AcDbEntity
8
1
62
256
6
ByLayer
370
13
48
1
60
0
100
AcDbEllipse
10
285.622132
20
12.050061
30
0
11
-0.0287847759336247
21
0.549246244115043
31
0
210
0
220
0
230
1
40
0.995725
41
1.38753675533538
42
1.67551608191447
0
ELLIPSE
5
1B7
100
AcDbEntity
8
1
62
256
6
ByLayer
370
13
48
1
60
0
100
AcDbEllipse
10
299.060216
20
8.061521
30
0
11
0.14873168642479
21
-0.019464980175639
31
0
210
0
220
0
230
1
40
0.016833
41
-1.66175841710664
42
-0.0909620903112957
0
ELLIPSE
5
1B8
100
AcDbEntity
8
1
62
256
6
ByLayer
370
13
48
1
60
0
100
AcDbEllipse
10
287.071136
20
6.26675
30
0
11
-0.14459027608009
21
0.039920571928309
31
0
210
0
220
0
230
1
40
0.029322
41
1.48305313748049
42
3.05384946427515
0
ELLIPSE
5
1B9
100
AcDbEntity
8
1
62
256
6
ByLayer
370
13
48
1
60
0
100
AcDbEllipse
10
298.85612
20
18.3233
30
0
11
0.148163665863162
21
0.0233993187505377
31
0
210
0
220
0
230
1
40
0.009655
41
0.0919985744760602
42
1.66279490126864
0
ELLIPSE
5
1BA
100
AcDbEntity
8
1
62
256
6
ByLayer
370
13
48
1
60
0
100
AcDbEllipse
10
287.552094
20
12.075729
30
0
11
0.036635169370053
21
-0.699040674328231
31
0
210
0
220
0
230
1
40
0.995725
41
-1.75405589825439
42
-1.46607657167541
0
ELLIPSE
5
1BB
100
AcDbEntity
8
1
62
256
6
ByLayer
370
13
48
1
60
0
100
AcDbEllipse
10
287.76255
20
7.232297
30
0
11
0.0810743178595881
21
-0.126202040330585
31
0
210
0
220
0
230
1
40
0.080306
41
2.25337034323769E-05
42
1.5249901753082
0
ELLIPSE
5
1BC
100
AcDbEntity
8
1
62
256
6
ByLayer
370
13
48
1
60
0
100
AcDbEllipse
10
285.729163
20
16.948746
30
0
11
0.00785039343643943
21
-0.149794430213183
31
0
210
0
220
0
230
1
40
0.995725
41
-3.036872898472
42
-1.75405589825393
0
ELLIPSE
5
1BD
100
AcDbEntity
8
1
62
256
6
ByLayer
370
13
48
1
60
0
100
AcDbEllipse
10
297.031442
20
17.778212
30
0
11
-0.148163665863163
21
-0.0233993187505308
31
0
210
0
220
0
230
1
40
0.009655
41
1.66279490126826
42
3.14137689880611
0
ELLIPSE
5
1BE
100
AcDbEntity
8
1
62
256
6
ByLayer
370
13
48
1
60
0
100
AcDbEllipse
10
287.011201
20
11.989813
30
0
11
-0.148163665863163
21
-0.0233993187505308
31
0
210
0
220
0
230
1
40
0.009655
41
0.0919985744748388
42
1.66279490126875
0
ELLIPSE
5
1BF
100
AcDbEntity
8
1
62
256
6
ByLayer
370
13
48
1
60
0
100
AcDbEllipse
10
297.747771
20
18.72917
30
0
11
-0.00261679781214755
21
0.0499314767377284
31
0
210
0
220
0
230
1
40
0.995725
41
-0.00872664625809204
42
1.24776550800995
0
ELLIPSE
5
1C0
100
AcDbEntity
8
1
62
256
6
ByLayer
370
13
48
1
60
0
100
AcDbEllipse
10
286.160577
20
18.124842
30
0
11
-0.28130886958175
21
0.197301603060104
31
0
210
0
220
0
230
1
40
0.736454
41
-2.00283244508684
42
-1.95660943935387
0
ELLIPSE
5
1C1
100
AcDbEntity
8
1
62
256
6
ByLayer
370
13
48
1
60
0
100
AcDbEllipse
10
286.474152
20
6.772883
30
0
11
0.0366351693700497
21
-0.699040674328169
31
0
210
0
220
0
230
1
40
0.995725
41
-1.46607657167523
42
-0.074583929178115
0
ELLIPSE
5
1C2
100
AcDbEntity
8
1
62
256
6
ByLayer
370
13
48
1
60
0
100
AcDbEllipse
10
299.134962
20
12.958513
30
0
11
-0.0287847759336247
21
0.549246244115043
31
0
210
0
220
0
230
1
40
0.995725
41
-1.75405589825441
42
-1.46607657167533
0
ELLIPSE
5
1C3
100
AcDbEntity
8
1
62
256
6
ByLayer
370
13
48
1
60
0
100
AcDbEllipse
10
286.810222
20
7.972497
30
0
11
0.0994383168615681
21
-1.89739611603369
31
0
210
0
220
0
230
1
40
0.995725
41
-0.0301358259416774
42
-0.00872664626005121
0
ELLIPSE
5
1C4
100
AcDbEntity
8
1
62
256
6
ByLayer
370
13
48
1
60
0
100
AcDbEllipse
10
298.319839
20
18.237625
30
0
11
0.0366351693700497
21
-0.699040674328169
31
0
210
0
220
0
230
1
40
0.995725
41
1.67551608191456
42
3.06700872441176
0
ELLIPSE
5
1C5
100
AcDbEntity
8
1
62
256
6
ByLayer
370
13
48
1
60
0
100
AcDbEllipse
10
287.365639
20
17.209178
30
0
11
-0.157381426401206
21
-0.046672370161075
31
0
210
0
220
0
230
1
40
0.019797
41
-3.05943361684968
42
-1.4886372900296
0
ELLIPSE
5
1C6
100
AcDbEntity
8
1
62
256
6
ByLayer
370
13
48
1
60
0
100
AcDbEllipse
10
297.940044
20
18.787325
30
0
11
-0.00331394097838864
21
0.149963388182555
31
0
210
0
220
0
230
1
40
0.092329
41
0.00279518564272077
42
1.57359151243404
0
ELLIPSE
5
1C7
100
AcDbEntity
8
1
62
256
6
ByLayer
370
13
48
1
60
0
100
AcDbEllipse
10
287.612737
20
18.738408
30
0
11
-1.35440056055532
21
0.949932038373152
31
0
210
0
220
0
230
1
40
0.736455
41
1.13875822778147
42
1.92747736988163
0
ELLIPSE
5
1C8
100
AcDbEntity
8
1
62
256
6
ByLayer
370
13
48
1
60
0
100
AcDbEllipse
10
297.713631
20
18.743275
30
0
11
0.144590276080093
21
-0.0399205719282993
31
0
210
0
220
0
230
1
40
0.029322
41
3.05384946427193
42
-1.65853951610892
0
ELLIPSE
5
1C9
100
AcDbEntity
8
1
62
256
6
ByLayer
370
13
48
1
60
0
100
AcDbEllipse
10
287.023159
20
6.280129
30
0
11
0.0104671912485861
21
-0.199725906950915
31
0
210
0
220
0
230
1
40
0.995725
41
0.0113951578220071
42
1.24776550800967
0
ELLIPSE
5
1CA
100
AcDbEntity
8
1
62
256
6
ByLayer
370
13
48
1
60
0
100
AcDbEllipse
10
297.98377
20
17.038011
30
0
11
0.0994383168615681
21
-1.89739611603369
31
0
210
0
220
0
230
1
40
0.995725
41
3.11145682764811
42
3.13286600732977
0
ELLIPSE
5
1CB
100
AcDbEntity
8
1
62
256
6
ByLayer
370
13
48
1
60
0
100
AcDbEllipse
10
297.242946
20
18.03481
30
0
11
0.0052335956242927
21
-0.0998629534754506
31
0
210
0
220
0
230
1
40
0.995725
41
-2.42515449132501
42
-1.46607657167474
0
ELLIPSE
5
1CC
100
AcDbEntity
8
1
62
256
6
ByLayer
370
13
48
1
60
0
100
AcDbEllipse
10
285.648959
20
17.637516
30
0
11
-0.0435800210534234
21
-0.25837169128843
31
0
210
0
220
0
230
1
40
0.950251
41
-2.83208175194379
42
-1.94230769974074
0
ELLIPSE
5
1CD
100
AcDbEntity
8
1
62
256
6
ByLayer
370
13
48
1
60
0
100
AcDbEllipse
10
286.635317
20
14.969754
30
0
11
-0.457939617125825
21
8.73800842910252
31
0
210
0
220
0
230
1
40
0.995725
41
3.06700872441164
42
3.11145682764821
0
ELLIPSE
5
1CE
100
AcDbEntity
8
1
62
256
6
ByLayer
370
13
48
1
60
0
100
AcDbEllipse
10
287.533645
20
12.074762
30
0
11
0.0444855628064925
21
-0.848835104541417
31
0
210
0
220
0
230
1
40
0.995725
41
-1.75405589825438
42
-1.46607657167532
0
ELLIPSE
5
1CF
100
AcDbEntity
8
1
62
256
6
ByLayer
370
13
48
1
60
0
100
AcDbEllipse
10
299.691784
20
12.887328
30
0
11
0.14873168642479
21
-0.019464980175639
31
0
210
0
220
0
230
1
40
0.016833
41
-1.66175841710664
42
-0.0909620903140981
0
ELLIPSE
5
1D0
100
AcDbEntity
8
1
62
256
6
ByLayer
370
13
48
1
60
0
100
AcDbEllipse
10
287.428302
20
17.269265
30
0
11
0.00523359562429244
21
-0.0998629534754455
31
0
210
0
220
0
230
1
40
0.995725
41
1.38753675533603
42
-3.03687289847007
0
ELLIPSE
5
1D1
100
AcDbEntity
8
1
62
256
6
ByLayer
370
13
48
1
60
0
100
AcDbEllipse
10
285.640581
20
12.051028
30
0
11
0.0366351693700529
21
-0.69904067432823
31
0
210
0
220
0
230
1
40
0.995725
41
-1.75405589825439
42
-1.46607657167532
0
ELLIPSE
5
1D2
100
AcDbEntity
8
1
62
256
6
ByLayer
370
13
48
1
60
0
100
AcDbEllipse
10
297.223449
20
12.933812
30
0
11
0.0444855628064925
21
-0.848835104541417
31
0
210
0
220
0
230
1
40
0.995725
41
1.38753675533542
42
1.67551608191447
0
ELLIPSE
5
1D3
100
AcDbEntity
8
1
62
256
6
ByLayer
370
13
48
1
60
0
100
AcDbEllipse
10
292.145522
20
17.303669
30
0
11
0.00785039343643958
21
-0.149794430213186
31
0
210
0
220
0
230
1
40
0.092371
41
1.5707963267949
42
3.14159265358569
0
ELLIPSE
5
1D4
100
AcDbEntity
8
1
62
256
6
ByLayer
370
13
48
1
60
0
100
AcDbEllipse
10
287.65978
20
17.119415
30
0
11
0.14873168642479
21
-0.019464980175639
31
0
210
0
220
0
230
1
40
0.016833
41
1.47983423648586
42
3.05063056328417
0
ELLIPSE
5
1D5
100
AcDbEntity
8
1
62
256
6
ByLayer
370
13
48
1
60
0
100
AcDbEllipse
10
297.759425
20
18.779848
30
0
11
-0.00653729335066937
21
0.149857478277353
31
0
210
0
220
0
230
1
40
0.092367
41
0.000809536045784406
42
1.57160586284002
0
ELLIPSE
5
1D6
100
AcDbEntity
8
1
62
256
6
ByLayer
370
13
48
1
60
0
100
AcDbEllipse
10
287.027771
20
6.280371
30
0
11
0.0104671912485861
21
-0.199725906950915
31
0
210
0
220
0
230
1
40
0.995725
41
-0.00872664625813019
42
1.24776550800996
0
ELLIPSE
5
1D7
100
AcDbEntity
8
1
62
256
6
ByLayer
370
13
48
1
60
0
100
AcDbEllipse
10
292.334355
20
12.501971
30
0
11
0.132450797150147
21
-2.52731176482115
31
0
210
0
220
0
230
1
40
0.995725
41
0
42
6.28318530717959
0
ELLIPSE
5
1D8
100
AcDbEntity
8
1
62
256
6
ByLayer
370
13
48
1
60
0
100
AcDbEllipse
10
299.060216
20
8.061521
30
0
11
-0.0235312926466496
21
0.148142763125229
31
0
210
0
220
0
230
1
40
0.091865
41
1.56109981834391
42
3.13189614513645
0
ELLIPSE
5
1D9
100
AcDbEntity
8
1
62
256
6
ByLayer
370
13
48
1
60
0
100
AcDbEllipse
10
287.551046
20
6.975698
30
0
11
0.0052335956242927
21
-0.0998629534754506
31
0
210
0
220
0
230
1
40
0.995725
41
0.71643816226476
42
1.67551608191448
0
ELLIPSE
5
1DA
100
AcDbEntity
8
1
62
256
6
ByLayer
370
13
48
1
60
0
100
AcDbEllipse
10
297.241898
20
12.934779
30
0
11
0.036635169370053
21
-0.699040674328231
31
0
210
0
220
0
230
1
40
0.995725
41
1.3875367553354
42
1.67551608191447
0
ELLIPSE
5
1DB
100
AcDbEntity
8
1
62
256
6
ByLayer
370
13
48
1
60
0
100
AcDbEllipse
10
286.213964
20
18.127639
30
0
11
-0.357961887352709
21
0.22036683811362
31
0
210
0
220
0
230
1
40
0.479615
41
-1.80876844141567
42
-0.7817587888869
0
ELLIPSE
5
1DC
100
AcDbEntity
8
1
62
256
6
ByLayer
370
13
48
1
60
0
100
AcDbEllipse
10
287.65978
20
17.119415
30
0
11
-0.0291301903379164
21
-0.147144255786207
31
0
210
0
220
0
230
1
40
0.089572
41
1.59345443284413
42
-3.11893454754349
0
ELLIPSE
5
1DD
100
AcDbEntity
8
1
62
256
6
ByLayer
370
13
48
1
60
0
100
AcDbEllipse
10
287.981244
20
18.75772
30
0
11
-0.0732703387401324
21
1.3980813486564
31
0
210
0
220
0
230
1
40
0.995725
41
2.68254628766458
42
3.14159265358971
0
ELLIPSE
5
1DE
100
AcDbEntity
8
1
62
256
6
ByLayer
370
13
48
1
60
0
100
AcDbEllipse
10
298.140226
20
10.039787
30
0
11
0.465790010562083
21
-8.88780285931571
31
0
210
0
220
0
230
1
40
0.995725
41
3.06700872441167
42
3.11145682764823
0
ELLIPSE
5
1DF
100
AcDbEntity
8
1
62
256
6
ByLayer
370
13
48
1
60
0
100
AcDbEllipse
10
298.720711
20
7.350755
30
0
11
-0.0435800210475831
21
-0.25837169129014
31
0
210
0
220
0
230
1
40
0.950251
41
0.309510901624633
42
1.2777626382157
0
ELLIPSE
5
1E0
100
AcDbEntity
8
1
62
256
6
ByLayer
370
13
48
1
60
0
100
AcDbEllipse
10
297.36569
20
7.741243
30
0
11
0.00523359562429244
21
-0.0998629534754455
31
0
210
0
220
0
230
1
40
0.995725
41
-1.75405589825318
42
0.104719755119167
0
ELLIPSE
5
1E1
100
AcDbEntity
8
1
62
256
6
ByLayer
370
13
48
1
60
0
100
AcDbEllipse
10
297.134212
20
7.891093
30
0
11
0.029130190337901
21
0.14714425578621
31
0
210
0
220
0
230
1
40
0.089572
41
-3.11893454753939
42
-1.54813822074529
0
ELLIPSE
5
1E2
100
AcDbEntity
8
1
62
256
6
ByLayer
370
13
48
1
60
0
100
AcDbEllipse
10
286.708322
20
12.186622
30
0
11
-0.148731686424786
21
0.0194649801756648
31
0
210
0
220
0
230
1
40
0.016833
41
1.47983423648466
42
3.05063056327286
0
ELLIPSE
5
1E3
100
AcDbEntity
8
1
62
256
6
ByLayer
370
13
48
1
60
0
100
AcDbEllipse
10
286.844724
20
6.222699
30
0
11
0.00331394097838853
21
-0.149963388182555
31
0
210
0
220
0
230
1
40
0.092329
41
-1.56800114115575
42
-0.0435131345137198
0
ELLIPSE
5
1E4
100
AcDbEntity
8
1
62
256
6
ByLayer
370
13
48
1
60
0
100
AcDbEllipse
10
297.902759
20
18.7861
30
0
11
-0.00653729335066937
21
0.149857478277353
31
0
210
0
220
0
230
1
40
0.092367
41
0.000809536049887126
42
1.57160586284002
0
ELLIPSE
5
1E5
100
AcDbEntity
8
1
62
256
6
ByLayer
370
13
48
1
60
0
100
AcDbEllipse
10
297.965321
20
17.037044
30
0
11
-0.0915879234251647
21
1.7476016858205
31
0
210
0
220
0
230
1
40
0.995725
41
-0.0301358259416215
42
-0.00872664625998746
0
ELLIPSE
5
1E6
100
AcDbEntity
8
1
62
256
6
ByLayer
370
13
48
1
60
0
100
AcDbEllipse
10
298.076445
20
12.823403
30
0
11
0.14873168642479
21
-0.019464980175639
31
0
210
0
220
0
230
1
40
0.016833
41
-2.86301658541776
42
-1.66175841710513
0
ELLIPSE
5
1E7
100
AcDbEntity
8
1
62
256
6
ByLayer
370
13
48
1
60
0
100
AcDbEllipse
10
287.56593
20
12.076454
30
0
11
-0.0287847759336248
21
0.549246244115044
31
0
210
0
220
0
230
1
40
0.995725
41
1.38753675533538
42
1.67551608191447
0
ELLIPSE
5
1E8
100
AcDbEntity
8
1
62
256
6
ByLayer
370
13
48
1
60
0
100
AcDbEllipse
10
299.064828
20
8.061762
30
0
11
0.00785039343643943
21
-0.149794430213183
31
0
210
0
220
0
230
1
40
0.995725
41
0.104719755117794
42
1.38753675533586
0
ELLIPSE
5
1E9
100
AcDbEntity
8
1
62
256
6
ByLayer
370
13
48
1
60
0
100
AcDbEllipse
10
296.812748
20
6.252788
30
0
11
-0.0732703387401324
21
1.3980813486564
31
0
210
0
220
0
230
1
40
0.995725
41
-0.45904636592518
42
-4.14138996212445E-14
0
ELLIPSE
5
1EA
100
AcDbEntity
8
1
62
256
6
ByLayer
370
13
48
1
60
0
100
AcDbEllipse
10
292.362431
20
12.503443
30
0
11
0.139331774436712
21
-2.65860863297128
31
0
210
0
220
0
230
1
40
0.995725
41
-0.853733347690237
42
0
0
ELLIPSE
5
1EB
100
AcDbEntity
8
1
62
256
6
ByLayer
370
13
48
1
60
0
100
AcDbEllipse
10
292.362431
20
12.503443
30
0
11
0.139331774436712
21
-2.65860863297128
31
0
210
0
220
0
230
1
40
0.995725
41
0
42
-2.28787036705991
0
ELLIPSE
5
1EC
100
AcDbEntity
8
1
62
256
6
ByLayer
370
13
48
1
60
0
100
AcDbEllipse
10
286.711556
20
11.942707
30
0
11
-0.148163665863163
21
-0.0233993187505308
31
0
210
0
220
0
230
1
40
0.009655
41
-3.04959407912483
42
-1.47879775232255
0
ELLIPSE
5
1ED
100
AcDbEntity
8
1
62
256
6
ByLayer
370
13
48
1
60
0
100
AcDbEllipse
10
296.079182
20
19.182115
30
0
11
-1.24768607642635
21
-1.08630162053638
31
0
210
0
220
0
230
1
40
0.736455
41
1.21411528372387
42
2.00283442580486
0
ELLIPSE
5
1EE
100
AcDbEntity
8
1
62
256
6
ByLayer
370
13
48
1
60
0
100
AcDbEllipse
10
295.710674
20
19.162803
30
0
11
0.0732703387401032
21
-1.39808134865641
31
0
210
0
220
0
230
1
40
0.995725
41
0
42
0.459046365925122
0
ELLIPSE
5
1EF
100
AcDbEntity
8
1
62
256
6
ByLayer
370
13
48
1
60
0
100
AcDbEllipse
10
287.65978
20
17.119415
30
0
11
0.00785039343643958
21
-0.149794430213186
31
0
210
0
220
0
230
1
40
0.995725
41
-3.1415697891092
42
-1.75405589825432
0
ELLIPSE
5
1F0
100
AcDbEntity
8
1
62
256
6
ByLayer
370
13
48
1
60
0
100
AcDbEllipse
10
287.76255
20
7.232297
30
0
11
0.148163665863162
21
0.0233993187505377
31
0
210
0
220
0
230
1
40
0.009655
41
-3.04959407911434
42
-1.4787977523211
0
ELLIPSE
5
1F1
100
AcDbEntity
8
1
62
256
6
ByLayer
370
13
48
1
60
0
100
AcDbEllipse
10
297.031442
20
17.778212
30
0
11
-0.0810743178595912
21
0.126202040330582
31
0
210
0
220
0
230
1
40
0.080306
41
-1.61660247828311
42
-0.0458061514856211
0
ELLIPSE
5
1F2
100
AcDbEntity
8
1
62
256
6
ByLayer
370
13
48
1
60
0
100
AcDbEllipse
10
285.72775
20
16.93765
30
0
11
-0.0435800209750308
21
-0.258371691311462
31
0
210
0
220
0
230
1
40
0.950251
41
-2.83208175223432
42
-1.53189750452662
0
ELLIPSE
5
1F3
100
AcDbEntity
8
1
62
256
6
ByLayer
370
13
48
1
60
0
100
AcDbEllipse
10
297.784884
20
12.862869
30
0
11
0.14873168642479
21
-0.019464980175639
31
0
210
0
220
0
230
1
40
0.016833
41
5.34639396603488E-05
42
1.47983423648315
0
ELLIPSE
5
1F4
100
AcDbEntity
8
1
62
256
6
ByLayer
370
13
48
1
60
0
100
AcDbEllipse
10
298.327274
20
18.787238
30
0
11
0.00338117794798626
21
0.149961887277015
31
0
210
0
220
0
230
1
40
0.092114
41
0.00691241886450697
42
1.57770874566007
0
ELLIPSE
5
1F5
100
AcDbEntity
8
1
62
256
6
ByLayer
370
13
48
1
60
0
100
AcDbEllipse
10
288.658995
20
5.825468
30
0
11
-0.0732703387401323
21
1.39808134865641
31
0
210
0
220
0
230
1
40
0.995725
41
0
42
1.24776550800924
0
ELLIPSE
5
1F6
100
AcDbEntity
8
1
62
256
6
ByLayer
370
13
48
1
60
0
100
AcDbEllipse
10
296.116548
20
19.184073
30
0
11
0.0863543278008357
21
-1.64773873234505
31
0
210
0
220
0
230
1
40
0.995725
41
0.732285237847754
42
1.24776550800927
0
ELLIPSE
5
1F7
100
AcDbEntity
8
1
62
256
6
ByLayer
370
13
48
1
60
0
100
AcDbEllipse
10
298.121777
20
10.03882
30
0
11
-0.457939617125825
21
8.73800842910252
31
0
210
0
220
0
230
1
40
0.995725
41
-0.0745839291781363
42
-0.030135825941562
0
ELLIPSE
5
1F8
100
AcDbEntity
8
1
62
256
6
ByLayer
370
13
48
1
60
0
100
AcDbEllipse
10
297.979158
20
17.037769
30
0
11
0.0994383168615681
21
-1.89739611603369
31
0
210
0
220
0
230
1
40
0.995725
41
3.11145682764818
42
3.13286600732983
0
ELLIPSE
5
1F9
100
AcDbEntity
8
1
62
256
6
ByLayer
370
13
48
1
60
0
100
AcDbEllipse
10
285.095075
20
11.96487
30
0
11
-0.148163665863163
21
-0.0233993187505308
31
0
210
0
220
0
230
1
40
0.009655
41
-1.47879775232142
42
0.0919985744649635
0
ELLIPSE
5
1FA
100
AcDbEntity
8
1
62
256
6
ByLayer
370
13
48
1
60
0
100
AcDbEllipse
10
297.782791
20
13.020696
30
0
11
0.148163665863162
21
0.0233993187505377
31
0
210
0
220
0
230
1
40
0.009655
41
-1.47879775232066
42
-0.000215754718679642
0
ELLIPSE
5
1FB
100
AcDbEntity
8
1
62
256
6
ByLayer
370
13
48
1
60
0
100
AcDbEllipse
10
297.757374
20
18.732604
30
0
11
0.0152182918357993
21
-0.290382306672699
31
0
210
0
220
0
230
1
40
0.995725
41
-2.96705972839102
42
-1.89382714557951
0
ELLIPSE
5
1FC
100
AcDbEntity
8
1
62
256
6
ByLayer
370
13
48
1
60
0
100
AcDbEllipse
10
285.928647
20
6.686725
30
0
11
-0.148163665863163
21
-0.0233993187505308
31
0
210
0
220
0
230
1
40
0.009655
41
-1.47879775232147
42
-0.264793552090716
0
ELLIPSE
5
1FD
100
AcDbEntity
8
1
62
256
6
ByLayer
370
13
48
1
60
0
100
AcDbEllipse
10
286.455703
20
6.771916
30
0
11
-0.0287847759336215
21
0.549246244114982
31
0
210
0
220
0
230
1
40
0.995725
41
1.67551608191458
42
3.06700872441162
0
ELLIPSE
5
1FE
100
AcDbEntity
8
1
62
256
6
ByLayer
370
13
48
1
60
0
100
AcDbEllipse
10
298.073212
20
13.067317
30
0
11
0.148163665863162
21
0.0233993187505377
31
0
210
0
220
0
230
1
40
0.009655
41
1.66279490126951
42
2.86108759533477
0
ELLIPSE
5
1FF
100
AcDbEntity
8
1
62
256
6
ByLayer
370
13
48
1
60
0
100
AcDbEllipse
10
299.148799
20
12.959238
30
0
11
0.0366351693700529
21
-0.69904067432823
31
0
210
0
220
0
230
1
40
0.995725
41
1.3875367553354
42
1.67551608191455
0
ELLIPSE
5
200
100
AcDbEntity
8
1
62
256
6
ByLayer
370
13
48
1
60
0
100
AcDbEllipse
10
287.009323
20
6.279404
30
0
11
-0.00261679781214755
21
0.0499314767377284
31
0
210
0
220
0
230
1
40
0.995725
41
3.13286600733281
42
-1.89382714557983
0
ELLIPSE
5
201
100
AcDbEntity
8
1
62
256
6
ByLayer
370
13
48
1
60
0
100
AcDbEllipse
10
286.882009
20
6.223924
30
0
11
0.00653729335061326
21
-0.149857478277355
31
0
210
0
220
0
230
1
40
0.092367
41
-1.56998679074977
42
0.000809536045656196
0
ELLIPSE
5
202
100
AcDbEntity
8
1
62
256
6
ByLayer
370
13
48
1
60
0
100
AcDbEllipse
10
287.009108
20
12.14764
30
0
11
-0.148731686424786
21
0.0194649801756648
31
0
210
0
220
0
230
1
40
0.016833
41
-1.66175841710469
42
-0.0909620903112957
0
ELLIPSE
5
203
100
AcDbEntity
8
1
62
256
6
ByLayer
370
13
48
1
60
0
100
AcDbEllipse
10
292.410832
20
12.505979
30
0
11
0.141252064642822
21
-2.69524995287424
31
0
210
0
220
0
230
1
40
0.995725
41
0
42
6.28318530717959
0
ELLIPSE
5
204
100
AcDbEntity
8
1
62
256
6
ByLayer
370
13
48
1
60
0
100
AcDbEllipse
10
287.365639
20
17.209178
30
0
11
-0.0427993177815848
21
-0.158580925173888
31
0
210
0
220
0
230
1
40
0.080206
41
-3.1153776664594
42
-1.5445813398077
0
ELLIPSE
5
205
100
AcDbEntity
8
1
62
256
6
ByLayer
370
13
48
1
60
0
100
AcDbEllipse
10
296.134997
20
19.18504
30
0
11
-0.0785039343644272
21
1.49794430213187
31
0
210
0
220
0
230
1
40
0.995725
41
-2.42515449132424
42
-1.89382714558059
0
ELLIPSE
5
206
100
AcDbEntity
8
1
62
256
6
ByLayer
370
13
48
1
60
0
100
AcDbEllipse
10
298.301391
20
18.236658
30
0
11
-0.0287847759336215
21
0.549246244114982
31
0
210
0
220
0
230
1
40
0.995725
41
-1.46607657167521
42
-0.0745839291781728
0
ELLIPSE
5
207
100
AcDbEntity
8
1
62
256
6
ByLayer
370
13
48
1
60
0
100
AcDbEllipse
10
299.060216
20
8.061521
30
0
11
0.00785039343643943
21
-0.149794430213183
31
0
210
0
220
0
230
1
40
0.995725
41
0.104719755117415
42
1.38753675533547
0
ELLIPSE
5
208
100
AcDbEntity
8
1
62
256
6
ByLayer
370
13
48
1
60
0
100
AcDbEllipse
10
299.066242
20
8.072858
30
0
11
-0.0435800209617367
21
-0.258371691315647
31
0
210
0
220
0
230
1
40
0.950251
41
0.309510901306447
42
1.609695149006
0
ELLIPSE
5
209
100
AcDbEntity
8
1
62
256
6
ByLayer
370
13
48
1
60
0
100
AcDbEllipse
10
287.546434
20
6.975456
30
0
11
0.0052335956242927
21
-0.0998629534754506
31
0
210
0
220
0
230
1
40
0.995725
41
0.716438162264104
42
1.67551608191391
0
ELLIPSE
5
20A
100
AcDbEntity
8
1
62
256
6
ByLayer
370
13
48
1
60
0
100
AcDbEllipse
10
297.419128
20
7.800847
30
0
11
-0.157381426392875
21
-0.0466723701587938
31
0
210
0
220
0
230
1
40
0.019797
41
-1.48863729010063
42
-0.271936942503604
0
ELLIPSE
5
20B
100
AcDbEntity
8
1
62
256
6
ByLayer
370
13
48
1
60
0
100
AcDbEllipse
10
292.64847
20
7.706839
30
0
11
0.00785039343643958
21
-0.149794430213186
31
0
210
0
220
0
230
1
40
0.092371
41
0
42
1.5707963267949
0
ELLIPSE
5
20C
100
AcDbEntity
8
1
62
256
6
ByLayer
370
13
48
1
60
0
100
AcDbEllipse
10
288.640546
20
5.824501
30
0
11
0.0863543278008357
21
-1.64773873234505
31
0
210
0
220
0
230
1
40
0.995725
41
-2.40930741574206
42
-1.89382714558055
0
ELLIPSE
5
20D
100
AcDbEntity
8
1
62
256
6
ByLayer
370
13
48
1
60
0
100
AcDbEllipse
10
296.134997
20
19.18504
30
0
11
-0.0732703387401323
21
1.39808134865641
31
0
210
0
220
0
230
1
40
0.995725
41
3.14159265358967
42
-1.89382714558051
0
ELLIPSE
5
20E
100
AcDbEntity
8
1
62
256
6
ByLayer
370
13
48
1
60
0
100
AcDbEllipse
10
296.44424
20
6.233475
30
0
11
-1.0999405560286
21
-1.17548008838539
31
0
210
0
220
0
230
1
40
0.728398
41
2.64252550721396
42
-2.95274918124785
0
ELLIPSE
5
20F
100
AcDbEntity
8
1
62
256
6
ByLayer
370
13
48
1
60
0
100
AcDbEllipse
10
287.547482
20
12.075487
30
0
11
-0.0366351693700675
21
0.69904067432823
31
0
210
0
220
0
230
1
40
0.995725
41
1.3875367553354
42
1.67551608191447
0
ELLIPSE
5
210
100
AcDbEntity
8
1
62
256
6
ByLayer
370
13
48
1
60
0
100
AcDbEllipse
10
285.724551
20
16.948504
30
0
11
-0.148731686424786
21
0.0194649801756648
31
0
210
0
220
0
230
1
40
0.016833
41
-0.0909620903084588
42
1.47983423648586
0
ELLIPSE
5
211
100
AcDbEntity
8
1
62
256
6
ByLayer
370
13
48
1
60
0
100
AcDbEllipse
10
286.791773
20
7.97153
30
0
11
-0.0915879234251647
21
1.7476016858205
31
0
210
0
220
0
230
1
40
0.995725
41
3.11145682764814
42
3.13286600732977
0
ELLIPSE
5
212
100
AcDbEntity
8
1
62
256
6
ByLayer
370
13
48
1
60
0
100
AcDbEllipse
10
285.092983
20
12.122697
30
0
11
-0.148731686424786
21
0.0194649801756648
31
0
210
0
220
0
230
1
40
0.016833
41
0.26318191249181
42
1.47983423648466
0
ELLIPSE
5
213
100
AcDbEntity
8
1
62
256
6
ByLayer
370
13
48
1
60
0
100
AcDbEllipse
10
297.134212
20
7.891093
30
0
11
-0.148731686424786
21
0.0194649801756648
31
0
210
0
220
0
230
1
40
0.016833
41
-3.14153918974616
42
-1.66175841710815
0
ELLIPSE
5
214
100
AcDbEntity
8
1
62
256
6
ByLayer
370
13
48
1
60
0
100
AcDbEllipse
10
297.255734
20
12.935504
30
0
11
-0.0287847759336248
21
0.549246244115044
31
0
210
0
220
0
230
1
40
0.995725
41
-1.75405589825441
42
-1.46607657167533
0
ELLIPSE
5
215
100
AcDbEntity
8
1
62
256
6
ByLayer
370
13
48
1
60
0
100
AcDbEllipse
10
297.534135
20
18.720905
30
0
11
-0.332966327736893
21
-0.256576851510899
31
0
210
0
220
0
230
1
40
0.479615
41
-2.35983386470253
42
-1.33282421217532
0
ELLIPSE
5
216
100
AcDbEntity
8
1
62
256
6
ByLayer
370
13
48
1
60
0
100
AcDbEllipse
10
297.419128
20
7.800847
30
0
11
-0.0427993177742593
21
-0.158580925143779
31
0
210
0
220
0
230
1
40
0.080206
41
-1.54458133975152
42
0.0262149871181983
0
ELLIPSE
5
217
100
AcDbEntity
8
1
62
256
6
ByLayer
370
13
48
1
60
0
100
AcDbEllipse
10
285.724551
20
16.948504
30
0
11
0.0235312926466277
21
-0.148142763125233
31
0
210
0
220
0
230
1
40
0.091865
41
-3.05123893755224
42
-1.58049283524171
0
ELLIPSE
5
218
100
AcDbEntity
8
1
62
256
6
ByLayer
370
13
48
1
60
0
100
AcDbEllipse
10
286.457493
20
6.222786
30
0
11
-0.00338117794798638
21
-0.149961887277015
31
0
210
0
220
0
230
1
40
0.092114
41
-1.56388390792972
42
-0.0705436472716478
0
ELLIPSE
5
219
100
AcDbEntity
8
1
62
256
6
ByLayer
370
13
48
1
60
0
100
AcDbEllipse
10
297.134212
20
7.891093
30
0
11
0.00785039343643958
21
-0.149794430213186
31
0
210
0
220
0
230
1
40
0.995725
41
-0.246786176440861
42
2.11287845660578E-05
0
ELLIPSE
5
21A
100
AcDbEntity
8
1
62
256
6
ByLayer
370
13
48
1
60
0
100
AcDbEllipse
10
297.587517
20
18.723704
30
0
11
-0.259138863860557
21
-0.225625947393508
31
0
210
0
220
0
230
1
40
0.736449
41
-1.1849950030595
42
-1.13877155993391
0
ELLIPSE
5
21B
100
AcDbEntity
8
1
62
256
6
ByLayer
370
13
48
1
60
0
100
AcDbEllipse
10
296.388425
20
6.23055
30
0
11
0.0732703387401032
21
-1.39808134865641
31
0
210
0
220
0
230
1
40
0.995725
41
2.11396009062567
42
2.76708731380248
0
ELLIPSE
5
21C
100
AcDbEntity
8
1
62
256
6
ByLayer
370
13
48
1
60
0
100
AcDbEllipse
10
286.653766
20
14.970721
30
0
11
0.465790010562083
21
-8.88780285931571
31
0
210
0
220
0
230
1
40
0.995725
41
-0.0745839291781526
42
-0.0301358259415826
0
ELLIPSE
5
21D
100
AcDbEntity
8
1
62
256
6
ByLayer
370
13
48
1
60
0
100
AcDbEllipse
10
298.315227
20
18.237383
30
0
11
0.0366351693700497
21
-0.699040674328169
31
0
210
0
220
0
230
1
40
0.995725
41
1.67551608191456
42
3.06700872441152
0
ELLIPSE
5
21E
100
AcDbEntity
8
1
62
256
6
ByLayer
370
13
48
1
60
0
100
AcDbEllipse
10
297.76622
20
18.730137
30
0
11
0.0104671912485861
21
-0.199725906950915
31
0
210
0
220
0
230
1
40
0.995725
41
3.13286600733138
42
-1.89382714558013
0
ELLIPSE
5
21F
100
AcDbEntity
8
1
62
256
6
ByLayer
370
13
48
1
60
0
100
AcDbEllipse
10
298.135614
20
10.039545
30
0
11
0.465790010562083
21
-8.88780285931571
31
0
210
0
220
0
230
1
40
0.995725
41
3.06700872441166
42
3.11145682764823
0
ELLIPSE
5
220
100
AcDbEntity
8
1
62
256
6
ByLayer
370
13
48
1
60
0
100
AcDbEllipse
10
299.689692
20
13.045155
30
0
11
0.148163665863162
21
0.0233993187505377
31
0
210
0
220
0
230
1
40
0.009655
41
0.0919985744760602
42
1.66279490126762
0
ELLIPSE
5
221
100
AcDbEntity
8
1
62
256
6
ByLayer
370
13
48
1
60
0
100
AcDbEllipse
10
288.658995
20
5.825468
30
0
11
-0.0785039343644272
21
1.49794430213187
31
0
210
0
220
0
230
1
40
0.995725
41
0.716438162265551
42
1.24776550800921
0
ELLIPSE
5
222
100
AcDbEntity
8
1
62
256
6
ByLayer
370
13
48
1
60
0
100
AcDbEllipse
10
299.153411
20
12.95948
30
0
11
0.0366351693700529
21
-0.69904067432823
31
0
210
0
220
0
230
1
40
0.995725
41
1.3875367553354
42
1.67551608191447
0
ELLIPSE
5
223
100
AcDbEntity
8
1
62
256
6
ByLayer
370
13
48
1
60
0
100
AcDbEllipse
10
287.76255
20
7.232297
30
0
11
0.00785039343643958
21
-0.149794430213186
31
0
210
0
220
0
230
1
40
0.995725
41
-1.46607657167532
42
-2.19467210415049E-06
0
ELLIPSE
5
224
100
AcDbEntity
8
1
62
256
6
ByLayer
370
13
48
1
60
0
100
AcDbEllipse
10
287.423689
20
17.269023
30
0
11
0.00523359562429244
21
-0.0998629534754455
31
0
210
0
220
0
230
1
40
0.995725
41
1.38753675533719
42
3.14158141713822
0
ELLIPSE
5
225
100
AcDbEntity
8
1
62
256
6
ByLayer
370
13
48
1
60
0
100
AcDbEllipse
10
287.025342
20
6.230177
30
0
11
0.00653729335061326
21
-0.149857478277355
31
0
210
0
220
0
230
1
40
0.092367
41
-1.56998679074977
42
-0.0232440763794336
0
ELLIPSE
5
226
100
AcDbEntity
8
1
62
256
6
ByLayer
370
13
48
1
60
0
100
AcDbEllipse
10
297.031442
20
17.778212
30
0
11
0.00785039343643958
21
-0.149794430213186
31
0
210
0
220
0
230
1
40
0.995725
41
-3.14159196048124
42
-2.62476921230586
0
ELLIPSE
5
227
100
AcDbEntity
8
1
62
256
6
ByLayer
370
13
48
1
60
0
100
AcDbEllipse
10
288.654383
20
5.825226
30
0
11
-0.0785039343644272
21
1.49794430213187
31
0
210
0
220
0
230
1
40
0.995725
41
0.716438162265512
42
1.24776550800921
0
ELLIPSE
5
228
100
AcDbEntity
8
1
62
256
6
ByLayer
370
13
48
1
60
0
100
AcDbEllipse
10
287.036618
20
6.277904
30
0
11
0.0152182918357993
21
-0.290382306672699
31
0
210
0
220
0
230
1
40
0.995725
41
0.174532925199214
42
1.24776550801029
0
ELLIPSE
5
229
100
AcDbEntity
8
1
62
256
6
ByLayer
370
13
48
1
60
0
100
AcDbEllipse
10
293.064043
20
-4.551366
30
0
11
-1.85
21
1.86968225190237E-15
31
0
210
0
220
0
230
1
40
0.99563
41
-2.93542576012617
42
-0.199785824250383
0
ELLIPSE
5
22A
100
AcDbEntity
8
1
62
256
6
ByLayer
370
13
48
1
60
0
100
AcDbEllipse
10
289.02048
20
6.745648
30
0
11
-0.318392676566616
21
-0.395166625667819
31
0
210
0
220
0
230
1
40
0.966608
41
-2.15731445310598
42
-1.31761740175046
0
ELLIPSE
5
22B
100
AcDbEntity
8
1
62
256
6
ByLayer
370
13
48
1
60
0
100
AcDbEllipse
10
285.02623
20
9.352829
30
0
11
0.49387888621054
21
0.0779977291684589
31
0
210
0
220
0
230
1
40
0.009655
41
1.66279490126868
42
1.74990113868087
0
ELLIPSE
5
22C
100
AcDbEntity
8
1
62
256
6
ByLayer
370
13
48
1
60
0
100
AcDbEllipse
10
298.801281
20
0.025339
30
0
11
-0.0100645055473344
21
0.505535516068342
31
0
210
0
220
0
230
1
40
0.102526
41
-0.108244943263433
42
0.275450909902482
0
ELLIPSE
5
22D
100
AcDbEntity
8
1
62
256
6
ByLayer
370
13
48
1
60
0
100
AcDbEllipse
10
277.5
20
4.769283
30
0
11
-3.86667977559532
21
1.33630196316782
31
0
210
0
220
0
230
1
40
0.766371
41
1.42067089433305
42
1.50589833913371
0
ELLIPSE
5
22E
100
AcDbEntity
8
1
62
256
6
ByLayer
370
13
48
1
60
0
100
AcDbEllipse
10
286.592929
20
7.820072
30
0
11
-1.4009277588068
21
-1.73873316133645
31
0
210
0
220
0
230
1
40
0.966608
41
1.61034580861148
42
1.823975243406
0
ELLIPSE
5
22F
100
AcDbEntity
8
1
62
256
6
ByLayer
370
13
48
1
60
0
100
AcDbEllipse
10
309.507993
20
4E-06
30
0
11
-197.918849124744
21
0.089786438906955
31
0
210
0
220
0
230
1
40
0.092638
41
-1.42321270700759
42
-1.39908794178968
0
ELLIPSE
5
230
100
AcDbEntity
8
1
62
256
6
ByLayer
370
13
48
1
60
0
100
AcDbEllipse
10
293.162889
20
-5.373373
30
0
11
-6.03297743875625
21
-0.0292932222975646
31
0
210
0
220
0
230
1
40
0.990176
41
3.00659244133406
42
-2.99016952139541
0
ELLIPSE
5
231
100
AcDbEntity
8
1
62
256
6
ByLayer
370
13
48
1
60
0
100
AcDbEllipse
10
283.845097
20
6.957509
30
0
11
-0.293690420649028
21
-0.955900589401951
31
0
210
0
220
0
230
1
40
0.0868
41
-1.53907871771952
42
-1.39194543658208E-05
0
ELLIPSE
5
232
100
AcDbEntity
8
1
62
256
6
ByLayer
370
13
48
1
60
0
100
AcDbEllipse
10
286.759118
20
7.828781
30
0
11
0.115139103734447
21
-2.19698497646006
31
0
210
0
220
0
230
1
40
0.995725
41
1.06813311206811
42
1.11024233511358
0
ELLIPSE
5
233
100
AcDbEntity
8
1
62
256
6
ByLayer
370
13
48
1
60
0
100
AcDbEllipse
10
286.043137
20
7.791258
30
0
11
-1.94064156501112
21
1.56360892395353
31
0
210
0
220
0
230
1
40
0.775936
41
3.0989946195312
42
-2.86439260880424
0
ELLIPSE
5
234
100
AcDbEntity
8
1
62
256
6
ByLayer
370
13
48
1
60
0
100
AcDbEllipse
10
286.30251
20
7.804852
30
0
11
-0.0889711256130172
21
1.69767020908278
31
0
210
0
220
0
230
1
40
0.995725
41
0.978142719062971
42
2.78013392635906
0
ELLIPSE
5
235
100
AcDbEntity
8
1
62
256
6
ByLayer
370
13
48
1
60
0
100
AcDbEllipse
10
286.30251
20
7.804852
30
0
11
-0.0889711256130172
21
1.69767020908278
31
0
210
0
220
0
230
1
40
0.995725
41
-2.41025799286357
42
-2.22913047555113
0
ELLIPSE
5
236
100
AcDbEntity
8
1
62
256
6
ByLayer
370
13
48
1
60
0
100
AcDbEllipse
10
288.616962
20
6.826454
30
0
11
0.240875810252339
21
-0.970555945855405
31
0
210
0
220
0
230
1
40
0.090706
41
-1.36102782571421
42
-0.0175282834730317
0
ELLIPSE
5
237
100
AcDbEntity
8
1
62
256
6
ByLayer
370
13
48
1
60
0
100
AcDbEllipse
10
309.507822
20
0.00013
30
0
11
-199.969125340906
21
0.0907006813631675
31
0
210
0
220
0
230
1
40
0.092638
41
-1.45004989102441
42
-1.43988460906145
0
ELLIPSE
5
238
100
AcDbEntity
8
1
62
256
6
ByLayer
370
13
48
1
60
0
100
AcDbEllipse
10
255.845971
20
0
30
0
11
-199.969841574224
21
0.0907174387715344
31
0
210
0
220
0
230
1
40
0.092638
41
-1.77645478787852
42
-1.72356308186285
0
ELLIPSE
5
239
100
AcDbEntity
8
1
62
256
6
ByLayer
370
13
48
1
60
0
100
AcDbEllipse
10
286.194663
20
0
30
0
11
-0.979269621787313
21
18.5247778752419
31
0
210
0
220
0
230
1
40
0.092638
41
-0.120746901894949
42
-0.00489864574204698
0
ELLIPSE
5
23A
100
AcDbEntity
8
1
62
256
6
ByLayer
370
13
48
1
60
0
100
AcDbEllipse
10
286.759118
20
7.828781
30
0
11
0.115139103734447
21
-2.19698497646006
31
0
210
0
220
0
230
1
40
0.995725
41
-2.16344993452687
42
-1.07532345372517
0
ELLIPSE
5
23B
100
AcDbEntity
8
1
62
256
6
ByLayer
370
13
48
1
60
0
100
AcDbEllipse
10
285.586792
20
15.180788
30
0
11
-0.143594274809818
21
2.73994198513285
31
0
210
0
220
0
230
1
40
0.016833
41
0.320049800237091
42
0.860095363265818
0
ELLIPSE
5
23C
100
AcDbEntity
8
1
62
256
6
ByLayer
370
13
48
1
60
0
100
AcDbEllipse
10
293.051683
20
-3.757771
30
0
11
-7.87428491520265
21
6.99140840820057
31
0
210
0
220
0
230
1
40
0.897987
41
-0.738627318751016
42
-0.701490426083584
0
ELLIPSE
5
23D
100
AcDbEntity
8
1
62
256
6
ByLayer
370
13
48
1
60
0
100
AcDbEllipse
10
286.4633
20
15.563563
30
0
11
0.523359562429307
21
-9.98629534754575
31
0
210
0
220
0
230
1
40
0.995725
41
0.0193608472769977
42
0.190111626873107
0
ELLIPSE
5
23E
100
AcDbEntity
8
1
62
256
6
ByLayer
370
13
48
1
60
0
100
AcDbEllipse
10
293.064043
20
-4.551366
30
0
11
1.75
21
0
31
0
210
0
220
0
230
1
40
0.99563
41
0.0723548052392779
42
3.04076742085703
0
ELLIPSE
5
23F
100
AcDbEntity
8
1
62
256
6
ByLayer
370
13
48
1
60
0
100
AcDbEllipse
10
303.1854
20
1.601722
30
0
11
-5.79047985379332
21
-2.16255848140731
31
0
210
0
220
0
230
1
40
0.86083
41
-0.403509281821391
42
-0.255957211996747
0
ELLIPSE
5
240
100
AcDbEntity
8
1
62
256
6
ByLayer
370
13
48
1
60
0
100
AcDbEllipse
10
856.157763
20
0
30
0
11
-903.450075698464
21
14.0860576844609
31
0
210
0
220
0
230
1
40
0.013317
41
0.884349572324824
42
0.903936030078885
0
ELLIPSE
5
241
100
AcDbEntity
8
1
62
256
6
ByLayer
370
13
48
1
60
0
100
AcDbEllipse
10
293.826247
20
9.500938
30
0
11
-1.40092777791009
21
-1.73873315194198
31
0
210
0
220
0
230
1
40
0.966608
41
0.713732917356249
42
1.10104951826071
0
ELLIPSE
5
242
100
AcDbEntity
8
1
62
256
6
ByLayer
370
13
48
1
60
0
100
AcDbEllipse
10
301.253261
20
0
30
0
11
-37.3298264152977
21
15.6219602194424
31
0
210
0
220
0
230
1
40
0.25712
41
0.885530475812711
42
0.952185701690712
0
ELLIPSE
5
243
100
AcDbEntity
8
1
62
256
6
ByLayer
370
13
48
1
60
0
100
AcDbEllipse
10
291.083845
20
6.853784
30
0
11
-3.96879668248237
21
-0.704906654142189
31
0
210
0
220
0
230
1
40
0.015321
41
-3.01817314105267
42
-2.74816671139421
0
ELLIPSE
5
244
100
AcDbEntity
8
1
62
256
6
ByLayer
370
13
48
1
60
0
100
AcDbEllipse
10
298.603595
20
8.850073
30
0
11
-0.0662865377652074
21
2.19939210111371
31
0
210
0
220
0
230
1
40
0.530325
41
3.01264370542513
42
-3.1298019041104
0
ELLIPSE
5
245
100
AcDbEntity
8
1
62
256
6
ByLayer
370
13
48
1
60
0
100
AcDbEllipse
10
283.996666
20
9.1942
30
0
11
0.0523359562429306
21
-0.998629534754573
31
0
210
0
220
0
230
1
40
0.995725
41
0.97814271906282
42
1.67551608191453
0
ELLIPSE
5
246
100
AcDbEntity
8
1
62
256
6
ByLayer
370
13
48
1
60
0
100
AcDbEllipse
10
293.064043
20
-5.08366
30
0
11
1.75
21
0
31
0
210
0
220
0
230
1
40
0.99563
41
2.43925009399618
42
2.8595364856974
0
ELLIPSE
5
247
100
AcDbEntity
8
1
62
256
6
ByLayer
370
13
48
1
60
0
100
AcDbEllipse
10
297.982766
20
-11.354923
30
0
11
-0.299110213035895
21
-2.48447967255831
31
0
210
0
220
0
230
1
40
0.116721
41
0
42
6.28318530717959
0
ELLIPSE
5
248
100
AcDbEntity
8
1
62
256
6
ByLayer
370
13
48
1
60
0
100
AcDbEllipse
10
288.067586
20
7.305872
30
0
11
0.0261679781214653
21
-0.499314767377287
31
0
210
0
220
0
230
1
40
0.092371
41
-1.10449593319571
42
-0.349065850408301
0
ELLIPSE
5
249
100
AcDbEntity
8
1
62
256
6
ByLayer
370
13
48
1
60
0
100
AcDbEllipse
10
298.45307
20
7.5404
30
0
11
-0.0177997152037525
21
1.00043287343375
31
0
210
0
220
0
230
1
40
0.105212
41
-3.13795405657838
42
-2.63934279540938
0
ELLIPSE
5
24A
100
AcDbEntity
8
1
62
256
6
ByLayer
370
13
48
1
60
0
100
AcDbEllipse
10
298.905426
20
0.04182
30
0
11
-0.0201290110877966
21
1.01107103172382
31
0
210
0
220
0
230
1
40
0.102526
41
-0.108244943284613
42
1.07599365517431
0
ELLIPSE
5
24B
100
AcDbEntity
8
1
62
256
6
ByLayer
370
13
48
1
60
0
100
AcDbEllipse
10
288.180982
20
6.498834
30
0
11
0.999824179059027
21
0.0187512926977857
31
0
210
0
220
0
230
1
40
0.340558
41
1.66919827215418
42
1.68893406298084
0
ELLIPSE
5
24C
100
AcDbEntity
8
1
62
256
6
ByLayer
370
13
48
1
60
0
100
AcDbEllipse
10
300.389643
20
0
30
0
11
-2.2769850119905
21
-18.523146047454
31
0
210
0
220
0
230
1
40
0.115099
41
-1.28975752598899
42
-0.0782937640995143
0
ELLIPSE
5
24D
100
AcDbEntity
8
1
62
256
6
ByLayer
370
13
48
1
60
0
100
AcDbEllipse
10
286.371057
20
15.558728
30
0
11
-0.471023606186562
21
8.98766581279116
31
0
210
0
220
0
230
1
40
0.995725
41
2.79252680319576
42
2.92290545858134
0
ELLIPSE
5
24E
100
AcDbEntity
8
1
62
256
6
ByLayer
370
13
48
1
60
0
100
AcDbEllipse
10
286.741842
20
11.961998
30
0
11
0.115139103734447
21
-2.19698497646006
31
0
210
0
220
0
230
1
40
0.995725
41
-2.11476638941937
42
-1.46607657167524
0
ELLIPSE
5
24F
100
AcDbEntity
8
1
62
256
6
ByLayer
370
13
48
1
60
0
100
AcDbEllipse
10
298.748253
20
0
30
0
11
-3.12761539773932
21
18.5229779024388
31
0
210
0
220
0
230
1
40
0.087519
41
1.59605633681303
42
1.72577270502197
0
ELLIPSE
5
250
100
AcDbEntity
8
1
62
256
6
ByLayer
370
13
48
1
60
0
100
AcDbEllipse
10
589.088318
20
-0.125782
30
0
11
-408.947615455279
21
0.184802104920247
31
0
210
0
220
0
230
1
40
0.067607
41
-0.726521611815991
42
-0.715408788903911
0
ELLIPSE
5
251
100
AcDbEntity
8
1
62
256
6
ByLayer
370
13
48
1
60
0
100
AcDbEllipse
10
291.156972
20
-3.857068
30
0
11
0.575695518672236
21
-10.9849248823003
31
0
210
0
220
0
230
1
40
0.995725
41
3.14159265358979
42
-2.97089193967396
0
ELLIPSE
5
252
100
AcDbEntity
8
1
62
256
6
ByLayer
370
13
48
1
60
0
100
AcDbEllipse
10
284.453274
20
9.21813
30
0
11
-0.0261679781214756
21
0.499314767377285
31
0
210
0
220
0
230
1
40
0.995725
41
-2.16344993452691
42
-1.46607657167532
0
ELLIPSE
5
253
100
AcDbEntity
8
1
62
256
6
ByLayer
370
13
48
1
60
0
100
AcDbEllipse
10
286.348632
20
7.807269
30
0
11
0.115139103734447
21
-2.19698497646006
31
0
210
0
220
0
230
1
40
0.995725
41
0.048708877262133
42
0.990932961428698
0
ELLIPSE
5
254
100
AcDbEntity
8
1
62
256
6
ByLayer
370
13
48
1
60
0
100
AcDbEllipse
10
298.889983
20
-1.758887
30
0
11
-1.85405303750698
21
2.81716918054927
31
0
210
0
220
0
230
1
40
0.420375
41
-0.951222749580669
42
-0.806203082336815
0
ELLIPSE
5
255
100
AcDbEntity
8
1
62
256
6
ByLayer
370
13
48
1
60
0
100
AcDbEllipse
10
277.5
20
2.17338
30
0
11
-0.394930751199332
21
11.2590964339723
31
0
210
0
220
0
230
1
40
0.353532
41
-0.537254116978603
42
-0.402065780770954
0
ELLIPSE
5
256
100
AcDbEntity
8
1
62
256
6
ByLayer
370
13
48
1
60
0
100
AcDbEllipse
10
291.249216
20
-3.852233
30
0
11
-0.523359562429514
21
9.98629534754574
31
0
210
0
220
0
230
1
40
0.995725
41
0
42
0.190111626873101
0
ELLIPSE
5
257
100
AcDbEntity
8
1
62
256
6
ByLayer
370
13
48
1
60
0
100
AcDbEllipse
10
294.887204
20
7.05311
30
0
11
-0.318392524750905
21
-0.395166774447791
31
0
210
0
220
0
230
1
40
0.966608
41
-2.15731486862403
42
-2.04054355525248
0
ELLIPSE
5
258
100
AcDbEntity
8
1
62
256
6
ByLayer
370
13
48
1
60
0
100
AcDbEllipse
10
298.569942
20
-10.93999
30
0
11
-0.0647201143932647
21
-0.516121675694697
31
0
210
0
220
0
230
1
40
0.111607
41
-1.63095180330615
42
-0.0601554765126078
0
ELLIPSE
5
259
100
AcDbEntity
8
1
62
256
6
ByLayer
370
13
48
1
60
0
100
AcDbEllipse
10
298.912432
20
6.248265
30
0
11
-0.00889985760826424
21
0.500216436853851
31
0
210
0
220
0
230
1
40
0.105212
41
1.92350077422485
42
-2.78888820618409
0
ELLIPSE
5
25A
100
AcDbEntity
8
1
62
256
6
ByLayer
370
13
48
1
60
0
100
AcDbEllipse
10
277.5
20
5.310141
30
0
11
-2
21
2.02127811016473E-15
31
0
210
0
220
0
230
1
40
0.758099
41
-2.85994908447726
42
-1.6948850439559
0
ELLIPSE
5
25B
100
AcDbEntity
8
1
62
256
6
ByLayer
370
13
48
1
60
0
100
AcDbEllipse
10
290.67352
20
7.132691
30
0
11
0.0523359562429307
21
-0.998629534754575
31
0
210
0
220
0
230
1
40
0.092371
41
-1.5707963267949
42
0
0
ELLIPSE
5
25C
100
AcDbEntity
8
1
62
256
6
ByLayer
370
13
48
1
60
0
100
AcDbEllipse
10
285.21712
20
6.546322
30
0
11
-3.96879666960717
21
-0.704906651804408
31
0
210
0
220
0
230
1
40
0.015321
41
-3.01817314106201
42
-2.74816671075103
0
ELLIPSE
5
25D
100
AcDbEntity
8
1
62
256
6
ByLayer
370
13
48
1
60
0
100
AcDbEllipse
10
289.226957
20
6.756469
30
0
11
-0.0261679781214756
21
0.499314767377288
31
0
210
0
220
0
230
1
40
0.995725
41
0.927295218001868
42
1.11024233511356
0
ELLIPSE
5
25E
100
AcDbEntity
8
1
62
256
6
ByLayer
370
13
48
1
60
0
100
AcDbEllipse
10
284.896804
20
8.682044
30
0
11
0.429288093870874
21
-0.25634299768223
31
0
210
0
220
0
230
1
40
0.051595
41
-1.85925558562609
42
-1.64759180831579
0
ELLIPSE
5
25F
100
AcDbEntity
8
1
62
256
6
ByLayer
370
13
48
1
60
0
100
AcDbEllipse
10
304.444582
20
0.493839
30
0
11
-6.03297727437049
21
-0.0292924186581224
31
0
210
0
220
0
230
1
40
0.990176
41
0.0313423863009376
42
0.151423266074391
0
POINT
5
70
100
AcDbEntity
8
1
62
256
6
ByLayer
370
18
48
1
60
0
100
AcDbPoint
10
0
20
0
30
0
39
0
210
0
220
0
230
1
50
360
0
POINT
5
72
100
AcDbEntity
8
80
62
256
6
ByLayer
370
18
48
1
60
0
100
AcDbPoint
10
0
20
0
30
0
39
0
210
0
220
0
230
1
50
360
0
POINT
5
74
100
AcDbEntity
8
81
62
256
6
ByLayer
370
18
48
1
60
0
100
AcDbPoint
10
300
20
0
30
0
39
0
210
0
220
0
230
1
50
360
0
POINT
5
76
100
AcDbEntity
8
1
62
256
6
ByLayer
370
18
48
1
60
1
100
AcDbPoint
10
0
20
-24.75
30
0
39
0
210
0
220
0
230
1
50
360
0
POINT
5
77
100
AcDbEntity
8
1
62
256
6
ByLayer
370
18
48
1
60
1
100
AcDbPoint
10
300
20
-19
30
0
39
0
210
0
220
0
230
1
50
360
0
POINT
5
78
100
AcDbEntity
8
1
62
256
6
ByLayer
370
18
48
1
60
1
100
AcDbPoint
10
-70
20
-20
30
0
39
0
210
0
220
0
230
1
50
360
0
POINT
5
79
100
AcDbEntity
8
1
62
256
6
ByLayer
370
18
48
1
60
1
100
AcDbPoint
10
0
20
-24.75
30
0
39
0
210
0
220
0
230
1
50
360
0
POINT
5
7A
100
AcDbEntity
8
1
62
256
6
ByLayer
370
18
48
1
60
1
100
AcDbPoint
10
300
20
-19
30
0
39
0
210
0
220
0
230
1
50
360
0
POINT
5
7B
100
AcDbEntity
8
1
62
256
6
ByLayer
370
18
48
1
60
1
100
AcDbPoint
10
5.9552
20
-24.75
30
0
39
0
210
0
220
0
230
1
50
360
0
POINT
5
7C
100
AcDbEntity
8
1
62
256
6
ByLayer
370
18
48
1
60
1
100
AcDbPoint
10
30
20
-19
30
0
39
0
210
0
220
0
230
1
50
360
0
POINT
5
7D
100
AcDbEntity
8
1
62
256
6
ByLayer
370
18
48
1
60
1
100
AcDbPoint
10
300
20
-19
30
0
39
0
210
0
220
0
230
1
50
360
0
POINT
5
7E
100
AcDbEntity
8
1
62
256
6
ByLayer
370
18
48
1
60
1
100
AcDbPoint
10
298.9982
20
-9.5
30
0
39
0
210
0
220
0
230
1
50
360
0
SPLINE
5
260
100
AcDbEntity
8
SK1
62
256
6
ByLayer
370
13
48
1
60
0
100
AcDbSpline
70
4
71
3
72
70
73
66
40
0
40
0
40
0
40
0
40
0.015625
40
0.015625
40
0.0312500000000001
40
0.0312500000000001
40
0.0468750000000001
40
0.0468750000000001
40
0.0625000000000002
40
0.0625000000000002
40
0.0781250000000002
40
0.0781250000000002
40
0.0937500000000002
40
0.0937500000000002
40
0.125
40
0.125
40
0.140625
40
0.140625
40
0.15625
40
0.15625
40
0.1875
40
0.1875
40
0.25
40
0.25
40
0.28125
40
0.28125
40
0.3125
40
0.3125
40
0.375
40
0.375
40
0.4375
40
0.4375
40
0.5
40
0.5
40
0.5625
40
0.5625
40
0.59375
40
0.59375
40
0.625
40
0.625
40
0.6875
40
0.6875
40
0.75
40
0.75
40
0.78125
40
0.78125
40
0.8125
40
0.8125
40
0.84375
40
0.84375
40
0.875
40
0.875
40
0.90625
40
0.90625
40
0.921875
40
0.921875
40
0.9375
40
0.9375
40
0.953125
40
0.953125
40
0.96875
40
0.96875
40
0.984375
40
0.984375
40
1
40
1
40
1
40
1
41
1
10
-6.50000000009538
20
9.10261500888618
30
0
41
1
10
-6.38737485512922
20
9.1026150088932
30
0
41
1
10
-6.27721440025223
20
9.09029369099659
30
0
41
1
10
-6.0613636277516
20
9.04323422380682
30
0
41
1
10
-5.95503984638167
20
9.0079756276379
30
0
41
1
10
-5.7551214099729
20
8.92022913512542
30
0
41
1
10
-5.66004837762688
20
8.86741358852154
30
0
41
1
10
-5.47992014745202
20
8.74769988825136
30
0
41
1
10
-5.39641097128508
20
8.68193245792781
30
0
41
1
10
-5.23955455947049
20
8.54101721258675
30
0
41
1
10
-5.16623380692405
20
8.4658464043282
30
0
41
1
10
-5.02798749993248
20
8.30754690558993
30
0
41
1
10
-4.96306756616258
20
8.22430232171715
30
0
41
1
10
-4.78227303428737
20
7.96913620185182
30
0
41
1
10
-4.67861785228318
20
7.79021273110939
30
0
41
1
10
-4.54045696768523
20
7.51196302988765
30
0
41
1
10
-4.49735015796675
20
7.4175428463376
30
0
41
1
10
-4.41619750727808
20
7.22570350524146
30
0
41
1
10
-4.37807582127729
20
7.12805793071107
30
0
41
1
10
-4.27101040197245
20
6.8329347652097
30
0
41
1
10
-4.20926968038492
20
6.63342457544303
30
0
41
1
10
-4.0452314228167
20
6.02794589486371
30
0
41
1
10
-3.96376841865315
20
5.61509125673697
30
0
41
1
10
-3.86635044633076
20
4.98491154714242
30
0
41
1
10
-3.83813392781771
20
4.77301296087188
30
0
41
1
10
-3.78843459914702
20
4.34583232970297
30
0
41
1
10
-3.76694967433093
20
4.13034331603052
30
0
41
1
10
-3.71092724378032
20
3.48419995481069
30
0
41
1
10
-3.68445814337734
20
3.05221472734811
30
0
41
1
10
-3.64489223558412
20
2.18603867811205
30
0
41
1
10
-3.63184735027673
20
1.75184658678651
30
0
41
1
10
-3.61484709816499
20
0.88137274435141
30
0
41
1
10
-3.61090691638442
20
0.445090670727808
30
0
41
1
10
-3.61081183099837
20
-0.429544754978423
30
0
41
1
10
-3.61465206561212
20
-0.867897875286985
30
0
41
1
10
-3.62742391003748
20
-1.52704012585428
30
0
41
1
10
-3.6328856781081
20
-1.74736793829624
30
0
41
1
10
-3.64660759107323
20
-2.18617039208055
30
0
41
1
10
-3.65486548614162
20
-2.40477290161152
30
0
41
1
10
-3.68476512689929
20
-3.05812562975754
30
0
41
1
10
-3.71139513941525
20
-3.49043386677977
30
0
41
1
10
-3.78588921301478
20
-4.3479397579712
30
0
41
1
10
-3.83363504443875
20
-4.77314633439445
30
0
41
1
10
-3.93125050047647
20
-5.40480591630586
30
0
41
1
10
-3.96825658176709
20
-5.6147159399498
30
0
41
1
10
-4.05334160699206
20
-6.03027097921884
30
0
41
1
10
-4.10133221047873
20
-6.2356468686169
30
0
41
1
10
-4.21147783132868
20
-6.64092561009161
30
0
41
1
10
-4.27380622007676
20
-6.84139160095842
30
0
41
1
10
-4.41651374865074
20
-7.23323112675126
30
0
41
1
10
-4.49649452537749
20
-7.42374327337623
30
0
41
1
10
-4.67945843004416
20
-7.79158187670348
30
0
41
1
10
-4.7823032521182
20
-7.9689701957796
30
0
41
1
10
-4.96134406177452
20
-8.2219726784019
30
0
41
1
10
-5.02519408327927
20
-8.30410886087677
30
0
41
1
10
-5.16353530738408
20
-8.46298659207028
30
0
41
1
10
-5.2378095715431
20
-8.53934452778824
30
0
41
1
10
-5.3955540056559
20
-8.68126590509502
30
0
41
1
10
-5.47938183829518
20
-8.74730497974389
30
0
41
1
10
-5.65962274296652
20
-8.86716765928176
30
0
41
1
10
-5.75457229472995
20
-8.91989407179133
30
0
41
1
10
-5.95304597128592
20
-9.00719334610281
30
0
41
1
10
-6.05703345759315
20
-9.04208374011839
30
0
41
1
10
-6.27602107391631
20
-9.09023480877454
30
0
41
1
10
-6.38714501013285
20
-9.1026150088932
30
0
41
1
10
-6.5000000000954
20
-9.10261500888618
30
0
0
SPLINE
5
261
100
AcDbEntity
8
SK1
62
256
6
ByLayer
370
13
48
1
60
0
100
AcDbSpline
70
4
71
3
72
8
73
4
40
0
40
0
40
0
40
0
40
1
40
1
40
1
40
1
41
1
10
-68.5162221138915
20
-8.8730422260673
30
0
41
1
10
-68.5438911763826
20
-8.94964473727831
30
0
41
1
10
-68.5718187810779
20
-9.02616843489534
30
0
41
1
10
-68.5999993841625
20
-9.10261500888609
30
0
0
SPLINE
5
262
100
AcDbEntity
8
SK1
62
256
6
ByLayer
370
13
48
1
60
0
100
AcDbSpline
70
4
71
3
72
24
73
20
40
0
40
0
40
0
40
0
40
0.125000000000002
40
0.125000000000002
40
0.187500000000003
40
0.187500000000003
40
0.250000000000003
40
0.250000000000003
40
0.312500000000004
40
0.312500000000004
40
0.375000000000005
40
0.375000000000005
40
0.500000000000005
40
0.500000000000005
40
0.625000000000004
40
0.625000000000004
40
0.750000000000004
40
0.750000000000004
40
1
40
1
40
1
40
1
41
1
10
-67.6338131992802
20
-8.29060335030417
30
0
41
1
10
-67.6747713759278
20
-8.25716048388816
30
0
41
1
10
-67.7199880974509
20
-8.22886033900863
30
0
41
1
10
-67.793880519716
20
-8.2008880294116
30
0
41
1
10
-67.8199292648204
20
-8.1939328764407
30
0
41
1
10
-67.8721249133958
20
-8.18635061520672
30
0
41
1
10
-67.8986618314253
20
-8.18559388534683
30
0
41
1
10
-67.9517518593081
20
-8.19047370174488
30
0
41
1
10
-67.9775498144819
20
-8.19599853062289
30
0
41
1
10
-68.0278488578996
20
-8.21240349880759
30
0
41
1
10
-68.0523670478266
20
-8.22336101159533
30
0
41
1
10
-68.1215174396824
20
-8.26159722859708
30
0
41
1
10
-68.1634030389204
20
-8.29487671382614
30
0
41
1
10
-68.2387215873517
20
-8.36859765624112
30
0
41
1
10
-68.2722140942872
20
-8.40893158874499
30
0
41
1
10
-68.3337486824602
20
-8.49414298628952
30
0
41
1
10
-68.3617871625299
20
-8.53918182565536
30
0
41
1
10
-68.4385883635459
20
-8.67748763500578
30
0
41
1
10
-68.4807188690209
20
-8.77475057942746
30
0
41
1
10
-68.5162221138916
20
-8.8730422260673
30
0
0
SPLINE
5
263
100
AcDbEntity
8
SK1
62
256
6
ByLayer
370
13
48
1
60
0
100
AcDbSpline
70
4
71
3
72
10
73
6
40
0
40
0
40
0
40
0
40
0.5
40
0.5
40
1
40
1
40
1
40
1
41
1
10
-70
20
6.62311105146222
30
0
41
1
10
-69.8530506944621
20
7.04458201673972
30
0
41
1
10
-69.694319575278
20
7.46427372903668
30
0
41
1
10
-69.3597590551627
20
8.29110810010306
30
0
41
1
10
-69.18366079479
20
8.69916157830215
30
0
41
1
10
-69
20
9.10261500888626
30
0
0
SPLINE
5
264
100
AcDbEntity
8
SK1
62
256
6
ByLayer
370
13
48
1
60
0
100
AcDbSpline
70
4
71
3
72
8
73
4
40
0
40
0
40
0
40
0
40
1
40
1
40
1
40
1
41
1
10
-69
20
-9.10261500888609
30
0
41
1
10
-69.3690731351762
20
-8.29186047254925
30
0
41
1
10
-69.7058190647956
20
-7.46686272672801
30
0
41
1
10
-70
20
-6.62311105146205
30
0
0
SPLINE
5
265
100
AcDbEntity
8
SK1
62
256
6
ByLayer
370
13
48
1
60
0
100
AcDbSpline
70
4
71
3
72
8
73
4
40
0
40
0
40
0
40
0
40
1
40
1
40
1
40
1
41
1
10
-66.6000022063888
20
-9.10261500888609
30
0
41
1
10
-66.9491342178767
20
-8.83826366601562
30
0
41
1
10
-67.2940480150733
20
-8.56802589686919
30
0
41
1
10
-67.6338131992802
20
-8.29060335030417
30
0
0
SPLINE
5
266
100
AcDbEntity
8
SK1
62
256
6
ByLayer
370
13
48
1
60
0
100
AcDbSpline
70
4
71
3
72
8
73
4
40
0
40
0
40
0
40
0
40
1
40
1
40
1
40
1
41
1
10
-68.5999993841625
20
9.10261500888626
30
0
41
1
10
-68.5718317815599
20
9.02620370178852
30
0
41
1
10
-68.5439040453543
20
8.94968036535744
30
0
41
1
10
-68.5162221139001
20
8.8730422260912
30
0
0
SPLINE
5
267
100
AcDbEntity
8
1
62
256
6
ByLayer
370
18
48
1
60
0
100
AcDbSpline
70
4
71
3
72
8
73
4
40
0
40
0
40
0
40
0
40
1
40
1
40
1
40
1
41
1
10
292.011463602333
20
13.6932712542458
30
0
41
1
10
292.01501843676
20
13.6878434213333
30
0
41
1
10
292.018574187054
20
13.6824146106612
30
0
41
1
10
292.022130896236
20
13.6769847768796
30
0
0
SPLINE
5
268
100
AcDbEntity
8
1
62
256
6
ByLayer
370
18
48
1
60
0
100
AcDbSpline
70
4
71
3
72
8
73
4
40
0
40
0
40
0
40
0
40
1
40
1
40
1
40
1
41
1
10
291.179905250713
20
12.7644099514338
30
0
41
1
10
291.186177326168
20
12.7650710961369
30
0
41
1
10
291.192450813957
20
12.7657323755972
30
0
41
1
10
291.198725780142
20
12.7663937960958
30
0
0
SPLINE
5
269
100
AcDbEntity
8
1
62
256
6
ByLayer
370
18
48
1
60
0
100
AcDbSpline
70
4
71
3
72
16
73
12
40
0
40
0
40
0
40
0
40
0.12499999999988
40
0.12499999999988
40
0.249999999999761
40
0.249999999999761
40
0.499999999999841
40
0.499999999999841
40
0.74999999999992
40
0.74999999999992
40
1
40
1
40
1
40
1
41
1
10
292.656251168726
20
13.7270631387098
30
0
41
1
10
292.658317321844
20
13.7436157405274
30
0
41
1
10
292.664529443242
20
13.7595429277486
30
0
41
1
10
292.685806558896
20
13.7868321611581
30
0
41
1
10
292.700531849535
20
13.7976811686494
30
0
41
1
10
292.749463981165
20
13.8208260304598
30
0
41
1
10
292.788352949528
20
13.8249727976111
30
0
41
1
10
292.86390656228
20
13.8218139786307
30
0
41
1
10
292.90141688084
20
13.8145175273131
30
0
41
1
10
292.973863128898
20
13.7930572247018
30
0
41
1
10
293.008946622915
20
13.7787833719122
30
0
41
1
10
293.042524051946
20
13.761596192584
30
0
0
SPLINE
5
26A
100
AcDbEntity
8
1
62
256
6
ByLayer
370
18
48
1
60
0
100
AcDbSpline
70
4
71
3
72
18
73
14
40
0
40
0
40
0
40
0
40
0.125000000000003
40
0.125000000000003
40
0.250000000000006
40
0.250000000000006
40
0.499999999999949
40
0.499999999999949
40
0.749999999999891
40
0.749999999999891
40
0.874999999999945
40
0.874999999999945
40
1
40
1
40
1
40
1
41
1
10
291.572584528921
20
11.5946103581733
30
0
41
1
10
291.582047570052
20
11.6187562444273
30
0
41
1
10
291.584190859539
20
11.6460955687629
30
0
41
1
10
291.580673834783
20
11.7018884302927
30
0
41
1
10
291.574883096994
20
11.7303075217589
30
0
41
1
10
291.549932876174
20
11.8143943962536
30
0
41
1
10
291.523248053602
20
11.8693397751191
30
0
41
1
10
291.457808981779
20
11.9704809172277
30
0
41
1
10
291.419208450992
20
12.0165287770667
30
0
41
1
10
291.353886599457
20
12.0719158911057
30
0
41
1
10
291.33081604406
20
12.0880579201913
30
0
41
1
10
291.282715471627
20
12.1121513291883
30
0
41
1
10
291.257693306302
20
12.1202840706008
30
0
41
1
10
291.232586563027
20
12.1202915695062
30
0
0
SPLINE
5
26B
100
AcDbEntity
8
1
62
256
6
ByLayer
370
18
48
1
60
0
100
AcDbSpline
70
4
71
3
72
8
73
4
40
0
40
0
40
0
40
0
40
1
40
1
40
1
40
1
41
1
10
291.565445832107
20
11.5763932058658
30
0
41
1
10
291.567824685692
20
11.582464449347
30
0
41
1
10
291.570204240279
20
11.5885368160643
30
0
41
1
10
291.572584528921
20
11.5946103581733
30
0
0
SPLINE
5
26C
100
AcDbEntity
8
1
62
256
6
ByLayer
370
18
48
1
60
0
100
AcDbSpline
70
4
71
3
72
18
73
14
40
0
40
0
40
0
40
0
40
0.124999999999997
40
0.124999999999997
40
0.249999999999995
40
0.249999999999995
40
0.374999999999992
40
0.374999999999992
40
0.49999999999999
40
0.49999999999999
40
0.749999999999995
40
0.749999999999995
40
1
40
1
40
1
40
1
41
1
10
293.614103116741
20
12.2460990659219
30
0
41
1
10
293.630470957144
20
12.2405283304761
30
0
41
1
10
293.648055644868
20
12.2390177764283
30
0
41
1
10
293.682237319649
20
12.2460024845678
30
0
41
1
10
293.698531989647
20
12.2544644915735
30
0
41
1
10
293.726491689581
20
12.2770704512111
30
0
41
1
10
293.738630939953
20
12.2913472208591
30
0
41
1
10
293.759200886997
20
12.3224710251599
30
0
41
1
10
293.767671580785
20
12.3392790123243
30
0
41
1
10
293.788973565328
20
12.3914977598461
30
0
41
1
10
293.797769351378
20
12.4285843737489
30
0
41
1
10
293.807947145082
20
12.5035140141294
30
0
41
1
10
293.809271588953
20
12.5413990810057
30
0
41
1
10
293.807292382946
20
12.579164581348
30
0
0
SPLINE
5
26D
100
AcDbEntity
8
1
62
256
6
ByLayer
370
18
48
1
60
0
100
AcDbSpline
70
4
71
3
72
8
73
4
40
0
40
0
40
0
40
0
40
1
40
1
40
1
40
1
41
1
10
292.146663655628
20
11.300758172824
30
0
41
1
10
292.143694002652
20
11.2949863068948
30
0
41
1
10
292.140725196367
20
11.2892155587016
30
0
41
1
10
292.137757198728
20
11.2834458786459
30
0
0
SPLINE
5
26E
100
AcDbEntity
8
1
62
256
6
ByLayer
370
18
48
1
60
0
100
AcDbSpline
70
4
71
3
72
8
73
4
40
0
40
0
40
0
40
0
40
1
40
1
40
1
40
1
41
1
10
291.481912552414
20
13.3247347356391
30
0
41
1
10
291.47891044522
20
13.3305261983352
30
0
41
1
10
291.47590919092
20
13.3363165688079
30
0
41
1
10
291.472908751193
20
13.3421058954725
30
0
0
SPLINE
5
26F
100
AcDbEntity
8
1
62
256
6
ByLayer
370
18
48
1
60
0
100
AcDbSpline
70
4
71
3
72
18
73
14
40
0
40
0
40
0
40
0
40
0.124999999999922
40
0.124999999999922
40
0.249999999999843
40
0.249999999999843
40
0.499999999999896
40
0.499999999999896
40
0.74999999999995
40
0.74999999999995
40
0.874999999999975
40
0.874999999999975
40
1
40
1
40
1
40
1
41
1
10
292.022130896236
20
13.6769847768795
30
0
41
1
10
292.036270897874
20
13.6553980081512
30
0
41
1
10
292.057035614827
20
13.6387188756506
30
0
41
1
10
292.103888842225
20
13.6118927215681
30
0
41
1
10
292.130022667882
20
13.6018827965939
30
0
41
1
10
292.211947408537
20
13.5795161934816
30
0
41
1
10
292.271612538979
20
13.5745468009032
30
0
41
1
10
292.391527719007
20
13.5808526268266
30
0
41
1
10
292.4515671554
20
13.5920640734183
30
0
41
1
10
292.53502420198
20
13.6231554479674
30
0
41
1
10
292.561740339117
20
13.6359711763616
30
0
41
1
10
292.609559976314
20
13.6677127943584
30
0
41
1
10
292.630809640338
20
13.6865369902044
30
0
41
1
10
292.645315634403
20
13.7096445050899
30
0
0
SPLINE
5
270
100
AcDbEntity
8
1
62
256
6
ByLayer
370
18
48
1
60
0
100
AcDbSpline
70
4
71
3
72
18
73
14
40
0
40
0
40
0
40
0
40
0.125000000000006
40
0.125000000000006
40
0.250000000000012
40
0.250000000000012
40
0.500000000000024
40
0.500000000000024
40
0.750000000000036
40
0.750000000000036
40
0.875000000000018
40
0.875000000000018
40
1
40
1
40
1
40
1
41
1
10
291.198725780142
20
12.7663937960958
30
0
41
1
10
291.223672445042
20
12.7690233298736
30
0
41
1
10
291.247777046616
20
12.7797462326023
30
0
41
1
10
291.293187284957
20
12.8088216356547
30
0
41
1
10
291.314401035381
20
12.8272764316378
30
0
41
1
10
291.373474289366
20
12.8891066930163
30
0
41
1
10
291.407175645149
20
12.9391204678234
30
0
41
1
10
291.46164993306
20
13.0465673404576
30
0
41
1
10
291.482370281516
20
13.1037889889039
30
0
41
1
10
291.498402399755
20
13.190157259907
30
0
41
1
10
291.501174891648
20
13.2190692606867
30
0
41
1
10
291.498823562791
20
13.2747957829487
30
0
41
1
10
291.493858095592
20
13.3016901995137
30
0
41
1
10
291.481912552414
20
13.3247347356391
30
0
0
SPLINE
5
271
100
AcDbEntity
8
1
62
256
6
ByLayer
370
18
48
1
60
0
100
AcDbSpline
70
4
71
3
72
8
73
4
40
0
40
0
40
0
40
0
40
1
40
1
40
1
40
1
41
1
10
292.782544765121
20
11.3172377631099
30
0
41
1
10
292.778313155808
20
11.3226301277535
30
0
41
1
10
292.7740810397
20
11.3280234915953
30
0
41
1
10
292.769848393795
20
11.3334179010344
30
0
0
SPLINE
5
272
100
AcDbEntity
8
1
62
256
6
ByLayer
370
18
48
1
60
0
100
AcDbSpline
70
4
71
3
72
16
73
12
40
0
40
0
40
0
40
0
40
0.25
40
0.25
40
0.5
40
0.5
40
0.75
40
0.75
40
0.875
40
0.875
40
1
40
1
40
1
40
1
41
1
10
293.807292382946
20
12.579164581348
30
0
41
1
10
293.805313104656
20
12.6169314609444
30
0
41
1
10
293.80001621758
20
12.6545949994435
30
0
41
1
10
293.782026673953
20
12.728103780339
30
0
41
1
10
293.769394747455
20
12.7640414261187
30
0
41
1
10
293.733846132485
20
12.8302882172386
30
0
41
1
10
293.710781106611
20
12.8611718782107
30
0
41
1
10
293.664961159954
20
12.890857082072
30
0
41
1
10
293.647850180022
20
12.8974843611011
30
0
41
1
10
293.613286805469
20
12.9007807564542
30
0
41
1
10
293.596037523658
20
12.8974605873949
30
0
41
1
10
293.58034660126
20
12.8902117519151
30
0
0
SPLINE
5
273
100
AcDbEntity
8
1
62
256
6
ByLayer
370
18
48
1
60
0
100
AcDbSpline
70
4
71
3
72
8
73
4
40
0
40
0
40
0
40
0
40
1
40
1
40
1
40
1
41
1
10
293.228562535347
20
13.4341158114898
30
0
41
1
10
293.225506906876
20
13.4280090997398
30
0
41
1
10
293.222450986474
20
13.4219012861922
30
0
41
1
10
293.219394761111
20
13.4157923197407
30
0
0
SPLINE
5
274
100
AcDbEntity
8
1
62
256
6
ByLayer
370
18
48
1
60
0
100
AcDbSpline
70
4
71
3
72
16
73
12
40
0
40
0
40
0
40
0
40
0.25000000000002
40
0.25000000000002
40
0.500000000000041
40
0.500000000000041
40
0.750000000000061
40
0.750000000000061
40
0.875000000000031
40
0.875000000000031
40
1
40
1
40
1
40
1
41
1
10
291.768561870303
20
11.249807821494
30
0
41
1
10
291.734976807462
20
11.2669989083174
30
0
41
1
10
291.702755441546
20
11.28707859672
30
0
41
1
10
291.642592361089
20
11.3330872753222
30
0
41
1
10
291.614572730032
20
11.3589908873036
30
0
41
1
10
291.567219456417
20
11.4175393356195
30
0
41
1
10
291.547431810272
20
11.4505594597522
30
0
41
1
10
291.536422829971
20
11.5029421215266
30
0
41
1
10
291.536291549945
20
11.5206406782007
30
0
41
1
10
291.544988670172
20
11.5521445979657
30
0
41
1
10
291.553737415012
20
11.5657763045087
30
0
41
1
10
291.565445832107
20
11.5763932058658
30
0
0
SPLINE
5
275
100
AcDbEntity
8
1
62
256
6
ByLayer
370
18
48
1
60
0
100
AcDbSpline
70
4
71
3
72
8
73
4
40
0
40
0
40
0
40
0
40
1
40
1
40
1
40
1
41
1
10
293.59325350989
20
12.2440088818181
30
0
41
1
10
293.600204412797
20
12.2447057266593
30
0
41
1
10
293.6071542664
20
12.2454024529499
30
0
41
1
10
293.614103116741
20
12.2460990659219
30
0
0
SPLINE
5
276
100
AcDbEntity
8
1
62
256
6
ByLayer
370
18
48
1
60
0
100
AcDbSpline
70
4
71
3
72
18
73
14
40
0
40
0
40
0
40
0
40
0.125000000000025
40
0.125000000000025
40
0.250000000000051
40
0.250000000000051
40
0.500000000000101
40
0.500000000000101
40
0.750000000000151
40
0.750000000000151
40
0.875000000000076
40
0.875000000000076
40
1
40
1
40
1
40
1
41
1
10
292.769848393795
20
11.3334179010344
30
0
41
1
10
292.753021147894
20
11.3548638372586
30
0
41
1
10
292.729863240674
20
11.3714175479718
30
0
41
1
10
292.678861941878
20
11.3980263108441
30
0
41
1
10
292.650986791108
20
11.4079449768362
30
0
41
1
10
292.564864582155
20
11.4300915999563
30
0
41
1
10
292.503757355884
20
11.4349854154947
30
0
41
1
10
292.383845816445
20
11.4286797803666
30
0
41
1
10
292.325243494352
20
11.4175436497439
30
0
41
1
10
292.245992601383
20
11.3866727103649
30
0
41
1
10
292.221022643942
20
11.3739484953707
30
0
41
1
10
292.177343793984
20
11.3424238868376
30
0
41
1
10
292.158480061758
20
11.3237247323787
30
0
41
1
10
292.146663655628
20
11.300758172824
30
0
0
SPLINE
5
277
100
AcDbEntity
8
1
62
256
6
ByLayer
370
18
48
1
60
0
100
AcDbSpline
70
4
71
3
72
16
73
12
40
0
40
0
40
0
40
0
40
0.250000000000079
40
0.250000000000079
40
0.500000000000157
40
0.500000000000157
40
0.750000000000236
40
0.750000000000236
40
0.875000000000118
40
0.875000000000118
40
1
40
1
40
1
40
1
41
1
10
291.640774630125
20
13.6881336182751
30
0
41
1
10
291.672378752589
20
13.7087411255335
30
0
41
1
10
291.705660254325
20
13.7266309274556
30
0
41
1
10
291.774794039427
20
13.7555429580612
30
0
41
1
10
291.81067038241
20
13.7666502265159
30
0
41
1
10
291.883278447975
20
13.7775340015913
30
0
41
1
10
291.920569013608
20
13.7775230473519
30
0
41
1
10
291.968603716401
20
13.759166481197
30
0
41
1
10
291.982870233777
20
13.7497324925864
30
0
41
1
10
292.00333031443
20
13.7248641288383
30
0
41
1
10
292.009426642713
20
13.709594221433
30
0
41
1
10
292.011463602333
20
13.6932712542458
30
0
0
SPLINE
5
278
100
AcDbEntity
8
1
62
256
6
ByLayer
370
18
48
1
60
0
100
AcDbSpline
70
4
71
3
72
16
73
12
40
0
40
0
40
0
40
0
40
0.249999999999917
40
0.249999999999917
40
0.499999999999833
40
0.499999999999833
40
0.74999999999975
40
0.74999999999975
40
0.874999999999875
40
0.874999999999875
40
1
40
1
40
1
40
1
41
1
10
293.170311292124
20
11.323270395803
30
0
41
1
10
293.13870716966
20
11.3026628885446
30
0
41
1
10
293.105243784759
20
11.2847635545297
30
0
41
1
10
293.035285350581
20
11.2558083058974
30
0
41
1
10
292.998775889959
20
11.2446678571531
30
0
41
1
10
292.924051429427
20
11.2336731665175
30
0
41
1
10
292.88528912435
20
11.233606990161
30
0
41
1
10
292.833627748831
20
11.251773490452
30
0
41
1
10
292.817901814125
20
11.2611309942413
30
0
41
1
10
292.79419380524
20
11.2858291412834
30
0
41
1
10
292.78632645722
20
11.3010062334774
30
0
41
1
10
292.782544765121
20
11.3172377631099
30
0
0
SPLINE
5
279
100
AcDbEntity
8
1
62
256
6
ByLayer
370
18
48
1
60
0
100
AcDbSpline
70
4
71
3
72
8
73
4
40
0
40
0
40
0
40
0
40
1
40
1
40
1
40
1
41
1
10
293.310066737617
20
11.6856679422749
30
0
41
1
10
293.313744781533
20
11.6799119039214
30
0
41
1
10
293.317422401648
20
11.6741569802789
30
0
41
1
10
293.321099616261
20
11.6684031218832
30
0
0
SPLINE
5
27A
100
AcDbEntity
8
1
62
256
6
ByLayer
370
18
48
1
60
0
100
AcDbSpline
70
4
71
3
72
16
73
12
40
0
40
0
40
0
40
0
40
0.125000000000112
40
0.125000000000112
40
0.250000000000224
40
0.250000000000224
40
0.50000000000015
40
0.50000000000015
40
0.750000000000075
40
0.750000000000075
40
1
40
1
40
1
40
1
41
1
10
292.137757198728
20
11.2834458786459
30
0
41
1
10
292.137437328475
20
11.2669847956352
30
0
41
1
10
292.132996722865
20
11.2511504496224
30
0
41
1
10
292.114999410956
20
11.2240331034437
30
0
41
1
10
292.101725099023
20
11.2132601385242
30
0
41
1
10
292.056373503825
20
11.1903029246768
30
0
41
1
10
292.018981052456
20
11.1862345866578
30
0
41
1
10
291.945543983384
20
11.1895043289922
30
0
41
1
10
291.908665764799
20
11.1968339072658
30
0
41
1
10
291.837041127478
20
11.2183372686713
30
0
41
1
10
291.802139299334
20
11.2326206421658
30
0
41
1
10
291.768561870303
20
11.249807821494
30
0
0
SPLINE
5
27B
100
AcDbEntity
8
1
62
256
6
ByLayer
370
18
48
1
60
0
100
AcDbSpline
70
4
71
3
72
16
73
12
40
0
40
0
40
0
40
0
40
0.124999999999982
40
0.124999999999982
40
0.249999999999965
40
0.249999999999965
40
0.499999999999977
40
0.499999999999977
40
0.749999999999988
40
0.749999999999988
40
1
40
1
40
1
40
1
41
1
10
291.472908751193
20
13.3421058954725
30
0
41
1
10
291.460143372283
20
13.3514490685474
30
0
41
1
10
291.449995574837
20
13.3640744952905
30
0
41
1
10
291.437987895067
20
13.3948515807851
30
0
41
1
10
291.436385074697
20
13.4124752443114
30
0
41
1
10
291.441850084709
20
13.4651039137416
30
0
41
1
10
291.458111785199
20
13.5003703691911
30
0
41
1
10
291.499160647608
20
13.5636077921252
30
0
41
1
10
291.524365734755
20
13.592313741105
30
0
41
1
10
291.579291034525
20
13.6442369397424
30
0
41
1
10
291.609177691206
20
13.6675307950564
30
0
41
1
10
291.640774630125
20
13.6881336182751
30
0
0
SPLINE
5
27C
100
AcDbEntity
8
1
62
256
6
ByLayer
370
18
48
1
60
0
100
AcDbSpline
70
4
71
3
72
16
73
12
40
0
40
0
40
0
40
0
40
0.125
40
0.125
40
0.25
40
0.25
40
0.5
40
0.5
40
0.75
40
0.75
40
1
40
1
40
1
40
1
41
1
10
291.213661766194
20
12.1202972654406
30
0
41
1
10
291.199703375598
20
12.1131335961013
30
0
41
1
10
291.184229214648
20
12.1098782562274
30
0
41
1
10
291.152584321097
20
12.1134520519279
30
0
41
1
10
291.136981699441
20
12.1202647292489
30
0
41
1
10
291.095304846039
20
12.1498423608502
30
0
41
1
10
291.073425836663
20
12.1810012637145
30
0
41
1
10
291.03997935816
20
12.247452967306
30
0
41
1
10
291.027990176734
20
12.2834719310814
30
0
41
1
10
291.010880033815
20
12.3568769617272
30
0
41
1
10
291.005774029415
20
12.3944494301832
30
0
41
1
10
291.003793539303
20
12.4322394327301
30
0
0
SPLINE
5
27D
100
AcDbEntity
8
1
62
256
6
ByLayer
370
18
48
1
60
0
100
AcDbSpline
70
4
71
3
72
18
73
14
40
0
40
0
40
0
40
0
40
0.125000000000008
40
0.125000000000008
40
0.250000000000016
40
0.250000000000016
40
0.500000000000029
40
0.500000000000029
40
0.750000000000041
40
0.750000000000041
40
0.87500000000002
40
0.87500000000002
40
1
40
1
40
1
40
1
41
1
10
293.559392727005
20
12.8901111084078
30
0
41
1
10
293.531589130092
20
12.889977617098
30
0
41
1
10
293.504072093343
20
12.898014276603
30
0
41
1
10
293.451669155478
20
12.9220130782145
30
0
41
1
10
293.426879064885
20
12.9380869599836
30
0
41
1
10
293.357411699812
20
12.9932796107222
30
0
41
1
10
293.317198866256
20
13.0395000118828
30
0
41
1
10
293.251794023128
20
13.1408169664789
30
0
41
1
10
293.226864469548
20
13.1952779985523
30
0
41
1
10
293.206136902793
20
13.2794748773768
30
0
41
1
10
293.202099849004
20
13.307948505447
30
0
41
1
10
293.202680245446
20
13.3636754865025
30
0
41
1
10
293.207168277642
20
13.3913532917059
30
0
41
1
10
293.219394761111
20
13.4157923197407
30
0
0
SPLINE
5
27E
100
AcDbEntity
8
1
62
256
6
ByLayer
370
18
48
1
60
0
100
AcDbSpline
70
4
71
3
72
16
73
12
40
0
40
0
40
0
40
0
40
0.250000000000012
40
0.250000000000012
40
0.500000000000024
40
0.500000000000024
40
0.750000000000036
40
0.750000000000036
40
0.875000000000018
40
0.875000000000018
40
1
40
1
40
1
40
1
41
1
10
293.042524051946
20
13.761596192584
30
0
41
1
10
293.076109114787
20
13.7444051057607
30
0
41
1
10
293.108148597537
20
13.7243158852653
30
0
41
1
10
293.16748702892
20
13.6782639886364
30
0
41
1
10
293.194873542337
20
13.6523271963655
30
0
41
1
10
293.240110420985
20
13.5936678324893
30
0
41
1
10
293.258426327687
20
13.5605705777606
30
0
41
1
10
293.265808635262
20
13.5079978501225
30
0
41
1
10
293.264480497957
20
13.490222808627
30
0
41
1
10
293.252535449498
20
13.4585486721561
30
0
41
1
10
293.242015684922
20
13.4448241504017
30
0
41
1
10
293.228562535347
20
13.4341158114899
30
0
0
SPLINE
5
27F
100
AcDbEntity
8
1
62
256
6
ByLayer
370
18
48
1
60
0
100
AcDbSpline
70
4
71
3
72
16
73
12
40
0
40
0
40
0
40
0
40
0.125
40
0.125
40
0.249999999999999
40
0.249999999999999
40
0.499999999999999
40
0.499999999999999
40
0.75
40
0.75
40
1
40
1
40
1
40
1
41
1
10
293.321099616261
20
11.6684031218832
30
0
41
1
10
293.335611278037
20
11.6591514676152
30
0
41
1
10
293.34753059127
20
11.6466188820805
30
0
41
1
10
293.362818074785
20
11.6160136838167
30
0
41
1
10
293.365871873861
20
11.5984660628621
30
0
41
1
10
293.36398740028
20
11.546025041395
30
0
41
1
10
293.349222216785
20
11.5108370150778
30
0
41
1
10
293.310289898056
20
11.4477105154978
30
0
41
1
10
293.285716910884
20
11.4190376934739
30
0
41
1
10
293.231613221851
20
11.3671575536306
30
0
41
1
10
293.201908231043
20
11.3438732190217
30
0
41
1
10
293.170311292124
20
11.323270395803
30
0
0
SPLINE
5
280
100
AcDbEntity
8
1
62
256
6
ByLayer
370
18
48
1
60
0
100
AcDbSpline
70
4
71
3
72
8
73
4
40
0
40
0
40
0
40
0
40
1
40
1
40
1
40
1
41
1
10
293.58034660126
20
12.8902117519151
30
0
41
1
10
293.573363001564
20
12.8901781961207
30
0
41
1
10
293.566378392258
20
12.8901446481548
30
0
41
1
10
293.559392727005
20
12.8901111084078
30
0
0
SPLINE
5
281
100
AcDbEntity
8
1
62
256
6
ByLayer
370
18
48
1
60
0
100
AcDbSpline
70
4
71
3
72
8
73
4
40
0
40
0
40
0
40
0
40
1
40
1
40
1
40
1
41
1
10
291.232586563027
20
12.1202915695062
30
0
41
1
10
291.226276834495
20
12.1202934541017
30
0
41
1
10
291.219968591004
20
12.1202953529661
30
0
41
1
10
291.213661766194
20
12.1202972654406
30
0
0
SPLINE
5
282
100
AcDbEntity
8
1
62
256
6
ByLayer
370
18
48
1
60
0
100
AcDbSpline
70
4
71
3
72
20
73
16
40
0
40
0
40
0
40
0
40
0.125
40
0.125
40
0.25
40
0.25
40
0.375
40
0.375
40
0.5
40
0.5
40
0.75
40
0.75
40
0.875
40
0.875
40
1
40
1
40
1
40
1
41
1
10
293.310066737615
20
11.6856679422784
30
0
41
1
10
293.295372565773
20
11.708663920203
30
0
41
1
10
293.287997664234
20
11.7356619294543
30
0
41
1
10
293.281573273688
20
11.7913676824535
30
0
41
1
10
293.28264534432
20
11.819985974762
30
0
41
1
10
293.290516552411
20
11.8771449213402
30
0
41
1
10
293.297462640124
20
11.9060247489753
30
0
41
1
10
293.315772724976
20
11.9620334579163
30
0
41
1
10
293.327182974343
20
11.9894767159495
30
0
41
1
10
293.368049045775
20
12.0702002580048
30
0
41
1
10
293.403088201812
20
12.1202221236442
30
0
41
1
10
293.466534085556
20
12.1824955021717
30
0
41
1
10
293.489564706744
20
12.2010960886988
30
0
41
1
10
293.539091152606
20
12.2303740914287
30
0
41
1
10
293.565551897965
20
12.2412317281705
30
0
41
1
10
293.59325350989
20
12.2440088818181
30
0
0
SPLINE
5
283
100
AcDbEntity
8
1
62
256
6
ByLayer
370
18
48
1
60
0
100
AcDbSpline
70
4
71
3
72
8
73
4
40
0
40
0
40
0
40
0
40
1
40
1
40
1
40
1
41
1
10
292.645315634403
20
13.7096445050899
30
0
41
1
10
292.648961224102
20
13.7154517953617
30
0
41
1
10
292.652606396201
20
13.7212579903852
30
0
41
1
10
292.656251168726
20
13.7270631387098
30
0
0
SPLINE
5
284
100
AcDbEntity
8
1
62
256
6
ByLayer
370
18
48
1
60
0
100
AcDbSpline
70
4
71
3
72
16
73
12
40
0
40
0
40
0
40
0
40
0.250000000000002
40
0.250000000000002
40
0.500000000000004
40
0.500000000000004
40
0.750000000000006
40
0.750000000000006
40
0.875000000000003
40
0.875000000000003
40
1
40
1
40
1
40
1
41
1
10
291.003793539303
20
12.4322394327301
30
0
41
1
10
291.001812598927
20
12.4700380268118
30
0
41
1
10
291.002963676329
20
12.5080122831829
30
0
41
1
10
291.012346705512
20
12.5829546014041
30
0
41
1
10
291.020519976257
20
12.6199820719849
30
0
41
1
10
291.046832965692
20
12.6894697531563
30
0
41
1
10
291.065071754901
20
12.7225174883477
30
0
41
1
10
291.103910813756
20
12.7566386168991
30
0
41
1
10
291.118775759771
20
12.7649414273733
30
0
41
1
10
291.149556924767
20
12.7716620917432
30
0
41
1
10
291.165287507758
20
12.7700702984864
30
0
41
1
10
291.179905250713
20
12.7644099514338
30
0
0
SPLINE
5
285
100
AcDbEntity
8
1
62
256
6
ByLayer
370
18
48
1
60
0
100
AcDbSpline
70
4
71
2
72
7
73
4
40
0
40
0
40
0
40
0.5
40
1
40
1
40
1
41
1
10
299.620973078529
20
-5.44229293099082
30
0
41
1
10
299.628465218241
20
-5.3856331653887
30
0
41
1
10
299.627039169178
20
-5.27075129860589
30
0
41
1
10
299.617967861878
20
-5.21372760115082
30
0
0
SPLINE
5
286
100
AcDbEntity
8
1
62
256
6
ByLayer
370
18
48
1
60
0
100
AcDbSpline
70
4
71
1
72
4
73
2
40
0
40
0
40
1
40
1
41
1
10
298.467571894072
20
0.322365074718391
30
0
41
1
10
298.755088860696
20
0.374432035238982
30
0
0
SPLINE
5
287
100
AcDbEntity
8
1
62
256
6
ByLayer
370
18
48
1
60
0
100
AcDbSpline
70
4
71
3
72
12
73
8
40
0
40
0
40
0
40
0
40
0.250321624969151
40
0.250321624969151
40
0.50064324225984
40
0.50064324225984
40
1
40
1
40
1
40
1
41
1
10
298.681215073814
20
-11.4724600369018
30
0
41
1
10
298.673375023395
20
-11.4746981159356
30
0
41
1
10
298.665499687408
20
-11.4768171545219
30
0
41
1
10
298.649689487242
20
-11.4808142130466
30
0
41
1
10
298.641752776642
20
-11.4826926998797
30
0
41
1
10
298.617910950308
20
-11.4879538920907
30
0
41
1
10
298.601917160647
20
-11.4909775118664
30
0
41
1
10
298.585853197543
20
-11.4935124569462
30
0
0
SPLINE
5
288
100
AcDbEntity
8
1
62
256
6
ByLayer
370
18
48
1
60
0
100
AcDbSpline
70
4
71
3
72
12
73
8
40
0
40
0
40
0
40
0
40
0.250321623566211
40
0.250321623566211
40
0.500643239451202
40
0.500643239451202
40
1
40
1
40
1
40
1
41
1
10
299.146740592463
20
-0.225430304605055
30
0
41
1
10
299.148988577647
20
-0.233236011931552
30
0
41
1
10
299.1511169573
20
-0.241076893041537
30
0
41
1
10
299.15513154082
20
-0.256818022178834
30
0
41
1
10
299.157018213595
20
-0.264720108591632
30
0
41
1
10
299.162302147594
20
-0.288458096660747
30
0
41
1
10
299.165338574564
20
-0.304382456551622
30
0
41
1
10
299.167883876286
20
-0.320376987656942
30
0
0
SPLINE
5
289
100
AcDbEntity
8
1
62
256
6
ByLayer
370
18
48
1
60
0
100
AcDbSpline
70
4
71
1
72
4
73
2
40
0
40
0
40
1
40
1
41
1
10
298.786481281642
20
-0.0248212731325168
30
0
41
1
10
299.146740592055
20
-0.225430303188176
30
0
0
SPLINE
5
28A
100
AcDbEntity
8
1
62
256
6
ByLayer
370
18
48
1
60
0
100
AcDbSpline
70
4
71
1
72
4
73
2
40
0
40
0
40
1
40
1
41
1
10
299.899135926281
20
-4.91695614518343
30
0
41
1
10
299.799747927916
20
-4.29218719303708
30
0
0
SPLINE
5
28B
100
AcDbEntity
8
1
62
256
6
ByLayer
370
18
48
1
60
0
100
AcDbSpline
70
4
71
1
72
4
73
2
40
0
40
0
40
1
40
1
41
1
10
299.04584628699
20
0.124994215691203
30
0
41
1
10
298.758329320382
20
0.0729272551753866
30
0
0
SPLINE
5
28C
100
AcDbEntity
8
1
62
256
6
ByLayer
370
18
48
1
60
0
100
AcDbSpline
70
4
71
1
72
4
73
2
40
0
40
0
40
1
40
1
41
1
10
299.957479007955
20
-5.28371014568344
30
0
41
1
10
299.899135926281
20
-4.91695614518343
30
0
0
SPLINE
5
28D
100
AcDbEntity
8
1
62
256
6
ByLayer
370
18
48
1
60
0
100
AcDbSpline
70
4
71
1
72
4
73
2
40
0
40
0
40
1
40
1
41
1
10
298.950057690031
20
-10.5161316695919
30
0
41
1
10
299.283737555395
20
-11.0825469609189
30
0
0
SPLINE
5
28E
100
AcDbEntity
8
1
62
256
6
ByLayer
370
18
48
1
60
0
100
AcDbSpline
70
4
71
3
72
12
73
8
40
0
40
0
40
0
40
0
40
0.5
40
0.5
40
0.75
40
0.75
40
1
40
1
40
1
40
1
41
1
10
298.755088951871
20
0.374456870141699
30
0
41
1
10
298.822187071612
20
0.365583443598354
30
0
41
1
10
298.886407354793
20
0.336688017988848
30
0
41
1
10
298.963425585617
20
0.270828710060556
30
0
41
1
10
298.985882665607
20
0.245085450846972
30
0
41
1
10
299.022294310803
20
0.188322414201139
30
0
41
1
10
299.035708957666
20
0.157201835386417
30
0
41
1
10
299.045846422853
20
0.125018408669092
30
0
0
SPLINE
5
28F
100
AcDbEntity
8
1
62
256
6
ByLayer
370
18
48
1
60
0
100
AcDbSpline
70
4
71
3
72
8
73
4
40
0
40
0
40
0
40
0
40
1
40
1
40
1
40
1
41
1
10
299.999923986323
20
-5.60320637151784
30
0
41
1
10
300.000427318117
20
-5.64148787053833
30
0
41
1
10
299.9983977606
20
-5.6796563932061
30
0
41
1
10
299.994822598713
20
-5.71775286534509
30
0
0
SPLINE
5
290
100
AcDbEntity
8
1
62
256
6
ByLayer
370
18
48
1
60
0
100
AcDbSpline
70
4
71
1
72
4
73
2
40
0
40
0
40
1
40
1
41
1
10
298.755088860696
20
0.37443203523901
30
0
41
1
10
298.403821610848
20
0.420475158156194
30
0
0
SPLINE
5
291
100
AcDbEntity
8
1
62
256
6
ByLayer
370
18
48
1
60
0
100
AcDbSpline
70
4
71
1
72
4
73
2
40
0
40
0
40
1
40
1
41
1
10
299.993146684153
20
-5.71759695273869
30
0
41
1
10
299.620973078529
20
-5.44229293099067
30
0
0
SPLINE
5
292
100
AcDbEntity
8
1
62
256
6
ByLayer
370
18
48
1
60
0
100
AcDbSpline
70
4
71
3
72
28
73
24
40
0
40
0
40
0
40
0
40
0.0007343720731341
40
0.0160333137047398
40
0.0313322553363455
40
0.0619301385995568
40
0.123125905125979
40
0.245517438178825
40
0.36790897123167
40
0.482651033468713
40
0.490300504284516
40
0.505599445916121
40
0.520898387547727
40
0.551496270810938
40
0.612692037337361
40
0.735083570390206
40
0.857475103443052
40
0.918670869969474
40
0.949268753232686
40
0.964567694864291
40
0.979866636495897
40
0.995165578127503
40
1
40
1
40
1
40
1
41
1
10
298.526241889754
20
-10.6559960009075
30
0
41
1
10
298.529249001661
20
-10.6546706446258
30
0
41
1
10
298.594676419035
20
-10.6248982314776
30
0
41
1
10
298.711792660971
20
-10.5296359327175
30
0
41
1
10
298.821936784245
20
-10.2736137122737
30
0
41
1
10
298.833882560959
20
-9.8709366335766
30
0
41
1
10
298.959188952044
20
-9.11340344298546
30
0
41
1
10
299.091172593024
20
-8.01546991638551
30
0
41
1
10
299.265432226911
20
-6.73080269857297
30
0
41
1
10
299.382965001553
20
-5.85523795234914
30
0
41
1
10
299.449109375515
20
-5.35131933710414
30
0
41
1
10
299.439611730782
20
-5.19328894415813
30
0
41
1
10
299.384790556053
20
-4.97127377015411
30
0
41
1
10
299.336850292686
20
-4.5940442844456
30
0
41
1
10
299.207416376281
20
-3.82920824681119
30
0
41
1
10
299.039038428949
20
-2.73901771475522
30
0
41
1
10
298.861078991429
20
-1.64990535184955
30
0
41
1
10
298.746057863253
20
-0.883511561946392
30
0
41
1
10
298.675670951918
20
-0.50853633687538
30
0
41
1
10
298.657333745696
20
-0.286370614467899
30
0
41
1
10
298.621292184763
20
-0.0856659440749183
30
0
41
1
10
298.513091303467
20
0.0461970427086271
30
0
41
1
10
298.436397160982
20
0.0955621915296092
30
0
41
1
10
298.417449889271
20
0.106137146215644
30
0
0
SPLINE
5
293
100
AcDbEntity
8
1
62
256
6
ByLayer
370
18
48
1
60
0
100
AcDbSpline
70
4
71
1
72
4
73
2
40
0
40
0
40
1
40
1
41
1
10
298.601347507027
20
-10.8336474487368
30
0
41
1
10
298.68121507329
20
-11.4724600370515
30
0
0
SPLINE
5
294
100
AcDbEntity
8
1
62
256
6
ByLayer
370
18
48
1
60
0
100
AcDbSpline
70
4
71
3
72
10
73
6
40
0
40
0
40
0
40
0
40
0.379522608663453
40
0.379522608663453
40
1
40
1
40
1
40
1
41
1
10
299.045821507323
20
0.124989728297152
30
0
41
1
10
299.058588798094
20
0.0806588186416377
30
0
41
1
10
299.071356413127
20
0.0363277449394559
30
0
41
1
10
299.104996953579
20
-0.0804793603378471
30
0
41
1
10
299.125868101655
20
-0.152954491904211
30
0
41
1
10
299.146740592055
20
-0.225430303188347
30
0
0
SPLINE
5
295
100
AcDbEntity
8
1
62
256
6
ByLayer
370
18
48
1
60
0
100
AcDbSpline
70
4
71
1
72
4
73
2
40
0
40
0
40
1
40
1
41
1
10
299.033204928439
20
-11.3720338006859
30
0
41
1
10
298.699525063072
20
-10.8056185093589
30
0
0
SPLINE
5
296
100
AcDbEntity
8
1
62
256
6
ByLayer
370
18
48
1
60
0
100
AcDbSpline
70
4
71
3
72
10
73
6
40
0
40
0
40
0
40
0
40
0.382671396167855
40
0.382671396167855
40
1
40
1
40
1
40
1
41
1
10
299.035301480515
20
-11.3713782445134
30
0
41
1
10
298.990135305473
20
-11.3842723963228
30
0
41
1
10
298.944969232638
20
-11.3971671855831
30
0
41
1
10
298.826940672898
20
-11.4308626325183
30
0
41
1
10
298.754077681214
20
-11.4516601357166
30
0
41
1
10
298.68121507329
20
-11.4724600370515
30
0
0
SPLINE
5
297
100
AcDbEntity
8
1
62
256
6
ByLayer
370
18
48
1
60
0
100
AcDbSpline
70
4
71
3
72
25
73
21
40
0
40
0
40
0
40
0
40
0.0116870250282092
40
0.04344515368043
40
0.106961410984871
40
0.233993925593755
40
0.361026440202638
40
0.480119422648465
40
0.488058954811521
40
0.503938019137631
40
0.519817083463741
40
0.551575212115962
40
0.615091469420404
40
0.742123984029287
40
0.86915649863817
40
0.932672755942611
40
0.964430884594832
40
0.980309948920942
40
0.996189013247053
40
1
40
1
40
1
40
1
41
1
10
298.605991194367
20
-10.3869527281147
30
0
41
1
10
298.624736377697
20
-10.3540419241754
30
0
41
1
10
298.678353716177
20
-10.2170844507673
30
0
41
1
10
298.68934322622
20
-9.84664191644023
30
0
41
1
10
298.815706583026
20
-9.08271889522626
30
0
41
1
10
298.9474406303
20
-7.98686166608519
30
0
41
1
10
299.121833522
20
-6.70121205240574
30
0
41
1
10
299.239325118563
20
-5.8259540638048
30
0
41
1
10
299.303655794022
20
-5.33585304759461
30
0
41
1
10
299.295768217073
20
-5.20461241693422
30
0
41
1
10
299.242096574744
20
-4.98725262722408
30
0
41
1
10
299.193480966333
20
-4.60470902669934
30
0
41
1
10
299.064368700215
20
-3.84177364800874
30
0
41
1
10
298.895928520421
20
-2.75118018170804
30
0
41
1
10
298.717919637604
20
-1.66176521341367
30
0
41
1
10
298.603150010632
20
-0.897047193556716
30
0
41
1
10
298.531879122679
20
-0.517362721767455
30
0
41
1
10
298.513495296608
20
-0.294632173268383
30
0
41
1
10
298.492432483459
20
-0.177339668141229
30
0
41
1
10
298.463946249144
20
-0.123350218731133
30
0
41
1
10
298.45782577825
20
-0.113328879142784
30
0
0
SPLINE
5
298
100
AcDbEntity
8
1
62
256
6
ByLayer
370
18
48
1
60
0
100
AcDbSpline
70
4
71
2
72
12
73
9
40
0
40
0
40
0
40
0.25
40
0.5
40
0.5
40
0.75
40
0.75
40
0.875
40
1
40
1
40
1
41
1
10
298.699525063072
20
-10.8056185093586
30
0
41
1
10
298.748009183222
20
-10.7917766648552
30
0
41
1
10
298.833739161841
20
-10.7376024631906
30
0
41
1
10
298.868004688708
20
-10.6983398507756
30
0
41
1
10
298.900775027807
20
-10.660790475635
30
0
41
1
10
298.922341721972
20
-10.6133875300847
30
0
41
1
10
298.932357666174
20
-10.5913727857761
30
0
41
1
10
298.946640647996
20
-10.5419732593589
30
0
41
1
10
298.950057690031
20
-10.5161316695924
30
0
0
SPLINE
5
299
100
AcDbEntity
8
1
62
256
6
ByLayer
370
18
48
1
60
0
100
AcDbSpline
70
4
71
1
72
4
73
2
40
0
40
0
40
1
40
1
41
1
10
299.799747927916
20
-4.29218719303708
30
0
41
1
10
299.16791684832
20
-0.320395346672854
30
0
0
SPLINE
5
29A
100
AcDbEntity
8
1
62
256
6
ByLayer
370
18
48
1
60
0
100
AcDbSpline
70
4
71
1
72
4
73
2
40
0
40
0
40
1
40
1
41
1
10
299.990141467526
20
-5.48903162289218
30
0
41
1
10
299.957479007955
20
-5.28371014568344
30
0
0
SPLINE
5
29B
100
AcDbEntity
8
1
62
256
6
ByLayer
370
18
48
1
60
0
100
AcDbSpline
70
4
71
1
72
4
73
2
40
0
40
0
40
1
40
1
41
1
10
299.914180020615
20
-6.31478718475103
30
0
41
1
10
299.964485269957
20
-5.93435065394181
30
0
0
SPLINE
5
29C
100
AcDbEntity
8
1
62
256
6
ByLayer
370
18
48
1
60
0
100
AcDbSpline
70
4
71
2
72
6
73
3
40
0
40
0
40
0
40
1
40
1
40
1
41
1
10
298.505985194406
20
-10.8546963786241
30
0
41
1
10
298.554312879789
20
-10.8470754741322
30
0
41
1
10
298.601347507027
20
-10.8336474487368
30
0
0
SPLINE
5
29D
100
AcDbEntity
8
1
62
256
6
ByLayer
370
18
48
1
60
0
100
AcDbSpline
70
4
71
1
72
4
73
2
40
0
40
0
40
1
40
1
41
1
10
299.964485269957
20
-5.93435065394181
30
0
41
1
10
299.993146684153
20
-5.71759695273872
30
0
0
SPLINE
5
29E
100
AcDbEntity
8
1
62
256
6
ByLayer
370
18
48
1
60
0
100
AcDbSpline
70
4
71
1
72
4
73
2
40
0
40
0
40
1
40
1
41
1
10
299.617967861878
20
-5.21372760115096
30
0
41
1
10
299.990141467526
20
-5.48903162289218
30
0
0
SPLINE
5
29F
100
AcDbEntity
8
1
62
256
6
ByLayer
370
18
48
1
60
0
100
AcDbSpline
70
4
71
3
72
10
73
6
40
0
40
0
40
0
40
0
40
0.526012388149256
40
0.887284575620133
40
1
40
1
40
1
40
1
41
1
10
299.192372353209
20
-5.21889351269871
30
0
41
1
10
299.196013296438
20
-5.25348933602379
30
0
41
1
10
299.197160160896
20
-5.31039876130112
30
0
41
1
10
299.187468098701
20
-5.38423740044433
30
0
41
1
10
299.182855976621
20
-5.41930798169997
30
0
41
1
10
299.181758191809
20
-5.42765183996531
30
0
0
SPLINE
5
2A0
100
AcDbEntity
8
1
62
256
6
ByLayer
370
18
48
1
60
0
100
AcDbSpline
70
4
71
2
72
12
73
9
40
0
40
0
40
0
40
0.25
40
0.5
40
0.5
40
0.75
40
0.75
40
0.875
40
1
40
1
40
1
41
1
10
298.758329320382
20
0.0729272551753866
30
0
41
1
10
298.744426722647
20
0.121199503616367
30
0
41
1
10
298.690014745019
20
0.206554849142293
30
0
41
1
10
298.650579805089
20
0.240670638412922
30
0
41
1
10
298.612865621991
20
0.273297773775084
30
0
41
1
10
298.565254620211
20
0.294770223213504
30
0
41
1
10
298.543143251003
20
0.304742398541975
30
0
41
1
10
298.493526905158
20
0.318962964882445
30
0
41
1
10
298.467571894072
20
0.322365074718306
30
0
0
SPLINE
5
2A1
100
AcDbEntity
8
1
62
256
6
ByLayer
370
18
48
1
60
0
100
AcDbSpline
70
4
71
1
72
4
73
2
40
0
40
0
40
1
40
1
41
1
10
299.828500279253
20
-6.96274547918028
30
0
41
1
10
299.914180020615
20
-6.31478718475103
30
0
0
SPLINE
5
2A2
100
AcDbEntity
8
1
62
256
6
ByLayer
370
18
48
1
60
0
100
AcDbSpline
70
4
71
1
72
4
73
2
40
0
40
0
40
1
40
1
41
1
10
299.16791684832
20
-0.32039534667274
30
0
41
1
10
298.807622597344
20
-0.119766860135826
30
0
0
SPLINE
5
2A3
100
AcDbEntity
8
1
62
256
6
ByLayer
370
18
48
1
60
0
100
AcDbSpline
70
4
71
2
72
6
73
3
40
0
40
0
40
0
40
1
40
1
40
1
41
1
10
298.807622597344
20
-0.119766860135712
30
0
41
1
10
298.799968243936
20
-0.0716503627843963
30
0
41
1
10
298.786481281642
20
-0.0248212731326021
30
0
0
SPLINE
5
2A4
100
AcDbEntity
8
1
62
256
6
ByLayer
370
18
48
1
60
0
100
AcDbSpline
70
4
71
1
72
4
73
2
40
0
40
0
40
1
40
1
41
1
10
299.283737555395
20
-11.082546960919
30
0
41
1
10
299.828500279253
20
-6.96274547918028
30
0
0
SPLINE
5
2A5
100
AcDbEntity
8
1
62
256
6
ByLayer
370
18
48
1
60
0
100
AcDbSpline
70
4
71
3
72
8
73
4
40
0
40
0
40
0
40
0
40
1
40
1
40
1
40
1
41
1
10
299.991684901558
20
-5.48884460215092
30
0
41
1
10
299.996327870118
20
-5.52682934005966
30
0
41
1
10
299.999420678461
20
-5.56492669266288
30
0
41
1
10
299.999923986323
20
-5.60320637151784
30
0
0
SPLINE
5
2A6
100
AcDbEntity
8
1
62
256
6
ByLayer
370
18
48
1
60
0
100
AcDbSpline
70
4
71
3
72
12
73
8
40
0
40
0
40
0
40
0
40
0.500000000000005
40
0.500000000000005
40
0.750000000000002
40
0.750000000000002
40
1
40
1
40
1
40
1
41
1
10
299.283738251713
20
-11.0825229100681
30
0
41
1
10
299.274825846724
20
-11.1493277844777
30
0
41
1
10
299.245805572026
20
-11.213269397372
30
0
41
1
10
299.179655252931
20
-11.2899491251345
30
0
41
1
10
299.153799033993
20
-11.3123080993649
30
0
41
1
10
299.096786993308
20
-11.3485607625933
30
0
41
1
10
299.065529745196
20
-11.3619167108901
30
0
41
1
10
299.033204978211
20
-11.3720097925329
30
0
0
SPLINE
5
2A7
100
AcDbEntity
8
1
62
256
6
ByLayer
370
18
48
1
60
0
100
AcDbSpline
70
4
71
1
72
4
73
2
40
0
40
0
40
1
40
1
41
1
10
298.585860506793
20
-11.4935709235254
30
0
41
1
10
298.514445707679
20
-10.9223669317078
30
0
0
SPLINE
5
2A8
100
AcDbEntity
8
1
62
256
6
ByLayer
370
13
48
1
60
0
100
AcDbSpline
70
4
71
2
72
6
73
3
40
0
40
0
40
0
40
1
40
1
40
1
41
1
10
284.678256726214
20
12.1392571675069
30
0
41
0.999077414835779
10
284.675728713196
20
12.1199406495286
30
0
41
0.998811969636008
10
284.674189840505
20
12.1005189591557
30
0
0
SPLINE
5
2A9
100
AcDbEntity
8
1
62
256
6
ByLayer
370
13
48
1
60
0
100
AcDbSpline
70
4
71
1
72
4
73
2
40
0
40
0
40
1
40
1
41
1
10
284.853826962868
20
11.9260585772057
30
0
41
1
10
284.681147682917
20
11.9212110661846
30
0
0
SPLINE
5
2AA
100
AcDbEntity
8
1
62
256
6
ByLayer
370
13
48
1
60
0
100
AcDbSpline
70
4
71
1
72
4
73
2
40
0
40
0
40
1
40
1
41
1
10
285.687398411917
20
6.64791338987121
30
0
41
1
10
285.657367232795
20
6.64707034447562
30
0
0
SPLINE
5
2AB
100
AcDbEntity
8
1
62
256
6
ByLayer
370
13
48
1
60
0
100
AcDbSpline
70
4
71
1
72
4
73
2
40
0
40
0
40
1
40
1
41
1
10
285.778155188844
20
18.4001772445014
30
0
41
1
10
285.914411382891
20
18.2437013417876
30
0
0
SPLINE
5
2AC
100
AcDbEntity
8
1
62
256
6
ByLayer
370
13
48
1
60
0
100
AcDbSpline
70
4
71
1
72
4
73
2
40
0
40
0
40
1
40
1
41
1
10
286.106497853551
20
18.2436670926466
30
0
41
1
10
285.963881443428
20
18.4120029264311
30
0
0
SPLINE
5
2AD
100
AcDbEntity
8
1
62
256
6
ByLayer
370
13
48
1
60
0
100
AcDbSpline
70
4
71
1
72
4
73
2
40
0
40
0
40
1
40
1
41
1
10
284.850783263238
20
12.155625086205
30
0
41
1
10
284.678256726214
20
12.1392571675069
30
0
0
SPLINE
5
2AE
100
AcDbEntity
8
1
62
256
6
ByLayer
370
13
48
1
60
0
100
AcDbSpline
70
4
71
3
72
22
73
18
40
0
40
0
40
0
40
0
40
0.0312499999999961
40
0.0312499999999961
40
0.0624999999999922
40
0.0624999999999922
40
0.124999999999984
40
0.124999999999984
40
0.156249999999997
40
0.156249999999997
40
0.187500000000009
40
0.187500000000009
40
0.250000000000035
40
0.250000000000035
40
0.500000000000035
40
0.500000000000035
40
1
40
1
40
1
40
1
41
1
10
287.84307485769
20
7.10592881340432
30
0
41
1
10
287.885568585667
20
7.13322750049431
30
0
41
1
10
287.929874706291
20
7.15864453632005
30
0
41
1
10
288.020412702672
20
7.20465303841345
30
0
41
1
10
288.066507918107
20
7.22520820242889
30
0
41
1
10
288.207191792468
20
7.27976482659906
30
0
41
1
10
288.304149312571
20
7.30674446866999
30
0
41
1
10
288.454567754073
20
7.33244572544194
30
0
41
1
10
288.505122804702
20
7.33856211456913
30
0
41
1
10
288.606290037065
20
7.34533113480123
30
0
41
1
10
288.656946077601
20
7.34743570291101
30
0
41
1
10
288.808819298548
20
7.35542656877246
30
0
41
1
10
288.910070571234
20
7.36071036013237
30
0
41
1
10
289.416321352494
20
7.3872279696551
30
0
41
1
10
289.821319929098
20
7.40847825834368
30
0
41
1
10
291.036320107003
20
7.47215051403796
30
0
41
1
10
291.846320468478
20
7.51459442365453
30
0
41
1
10
292.65632048576
20
7.55704472577946
30
0
0
SPLINE
5
2AF
100
AcDbEntity
8
1
62
256
6
ByLayer
370
13
48
1
60
0
100
AcDbSpline
70
4
71
2
72
6
73
3
40
0
40
0
40
0
40
1
40
1
40
1
41
1
10
284.844062250779
20
12.0407353153673
30
0
41
0.997409491337352
10
284.843297368134
20
12.0984254490554
30
0
41
1
10
284.850783263238
20
12.155625086205
30
0
0
SPLINE
5
2B0
100
AcDbEntity
8
1
62
256
6
ByLayer
370
13
48
1
60
0
100
AcDbSpline
70
4
71
3
72
26
73
22
40
0
40
0
40
0
40
0
40
0.250000000000152
40
0.250000000000152
40
0.500000000000305
40
0.500000000000305
40
0.625000000000314
40
0.625000000000314
40
0.687500000000318
40
0.687500000000318
40
0.750000000000322
40
0.750000000000322
40
0.812500000000326
40
0.812500000000326
40
0.843750000000329
40
0.843750000000329
40
0.875000000000331
40
0.875000000000331
40
0.937500000000165
40
0.937500000000165
40
1
40
1
40
1
40
1
41
1
10
299.154968516383
20
6.96305375533669
30
0
41
1
10
299.121374482193
20
6.93833834606642
30
0
41
1
10
299.084657810023
20
6.9135018575021
30
0
41
1
10
299.000898372688
20
6.86411587999888
30
0
41
1
10
298.953312106088
20
6.83915527513241
30
0
41
1
10
298.866797853666
20
6.80372030232294
30
0
41
1
10
298.835651142834
20
6.7922528110756
30
0
41
1
10
298.783192853606
20
6.77716140308269
30
0
41
1
10
298.764821442186
20
6.77254976899678
30
0
41
1
10
298.727466177808
20
6.76487061753707
30
0
41
1
10
298.708189937782
20
6.76176631290272
30
0
41
1
10
298.670994268831
20
6.75711858504292
30
0
41
1
10
298.652708751259
20
6.75553663937112
30
0
41
1
10
298.626203457561
20
6.75395844009412
30
0
41
1
10
298.617166631725
20
6.75324572147233
30
0
41
1
10
298.598594506848
20
6.75135906343809
30
0
41
1
10
298.589188875964
20
6.75030510168821
30
0
41
1
10
298.561725652657
20
6.74784056178677
30
0
41
1
10
298.543837441418
20
6.74658670645098
30
0
41
1
10
298.50797224554
20
6.74399685668362
30
0
41
1
10
298.490184218737
20
6.74283569869763
30
0
41
1
10
298.47255903405
20
6.74182521314208
30
0
0
SPLINE
5
2B1
100
AcDbEntity
8
1
62
256
6
ByLayer
370
13
48
1
60
0
100
AcDbSpline
70
4
71
3
72
17
73
13
40
0
40
0
40
0
40
0
40
0.500000000000018
40
0.750000000000009
40
0.750000000000009
40
0.875000000000023
40
0.875000000000023
40
0.906250000000017
40
0.906250000000017
40
0.937500000000011
40
0.937500000000011
40
1
40
1
40
1
40
1
41
1
10
292.137671159392
20
17.4534634151974
30
0
41
1
10
291.395891664477
20
17.4145883991513
30
0
41
1
10
290.283222422104
20
17.3562758750819
30
0
41
1
10
289.170553179731
20
17.2979633510127
30
0
41
1
10
288.614218558545
20
17.268807088978
30
0
41
1
10
288.428773660092
20
17.2590876228031
30
0
41
1
10
288.196967601267
20
17.2469401404971
30
0
41
1
10
288.150607027805
20
17.2445290298503
30
0
41
1
10
288.057883550098
20
17.2396396721808
30
0
41
1
10
288.011525740885
20
17.2373081835623
30
0
41
1
10
287.872749705725
20
17.2388798742595
30
0
41
1
10
287.780525893103
20
17.2483829765477
30
0
41
1
10
287.6886039361
20
17.2665807926254
30
0
0
SPLINE
5
2B2
100
AcDbEntity
8
1
62
256
6
ByLayer
370
13
48
1
60
0
100
AcDbSpline
70
4
71
3
72
11
73
7
40
0
40
0
40
0
40
0
40
0.25
40
0.5
40
0.75
40
1
40
1
40
1
40
1
41
1
10
286.854923535964
20
5.97300445626587
30
0
41
1
10
286.870428557618
20
5.97334709140668
30
0
41
1
10
286.901425214898
20
5.9745117343214
30
0
41
1
10
286.947903668995
20
5.97661742304348
30
0
41
1
10
286.99438643538
20
5.97862953148461
30
0
41
1
10
287.02537446709
20
5.97998133491794
30
0
41
1
10
287.040868483051
20
5.98065723663922
30
0
0
SPLINE
5
2B3
100
AcDbEntity
8
1
62
256
6
ByLayer
370
13
48
1
60
0
100
AcDbSpline
70
4
71
3
72
8
73
4
40
0
40
0
40
0
40
0
40
1
40
1
40
1
40
1
41
1
10
298.138215030586
20
19.0396788933415
30
0
41
1
10
298.07184321227
20
19.0396945274078
30
0
41
1
10
298.005460690658
20
19.0389543116946
30
0
41
1
10
297.939068109188
20
19.0375036847111
30
0
0
SPLINE
5
2B4
100
AcDbEntity
8
1
62
256
6
ByLayer
370
13
48
1
60
0
100
AcDbSpline
70
4
71
3
72
24
73
20
40
0
40
0
40
0
40
0
40
0.0312500000000031
40
0.0312500000000031
40
0.0625000000000061
40
0.0625000000000061
40
0.125000000000012
40
0.125000000000012
40
0.187500000000018
40
0.187500000000018
40
0.250000000000024
40
0.250000000000024
40
0.375000000000021
40
0.375000000000021
40
0.500000000000017
40
0.500000000000017
40
0.750000000000008
40
0.750000000000008
40
1
40
1
40
1
40
1
41
1
10
285.657367232795
20
6.64707034447562
30
0
41
1
10
285.659832372879
20
6.63341123397927
30
0
41
1
10
285.662615927514
20
6.61890681689184
30
0
41
1
10
285.668686224666
20
6.58985445088334
30
0
41
1
10
285.672020841802
20
6.57515458414287
30
0
41
1
10
285.681785286486
20
6.53508805819737
30
0
41
1
10
285.687972426812
20
6.51308366915845
30
0
41
1
10
285.699140117811
20
6.47622556935536
30
0
41
1
10
285.70424016362
20
6.46100573845746
30
0
41
1
10
285.713756226991
20
6.43429808109323
30
0
41
1
10
285.718187322192
20
6.4227987084337
30
0
41
1
10
285.730897474054
20
6.39160825394762
30
0
41
1
10
285.73856147649
20
6.3752663364622
30
0
41
1
10
285.752991958196
20
6.34716802080496
30
0
41
1
10
285.759702843192
20
6.33563200069861
30
0
41
1
10
285.778831892336
20
6.3060247739318
30
0
41
1
10
285.790265772267
20
6.29285812377876
30
0
41
1
10
285.811671842499
20
6.27380822719812
30
0
41
1
10
285.82162194386
20
6.26805486892616
30
0
41
1
10
285.831039307223
20
6.2647762141591
30
0
0
SPLINE
5
2B5
100
AcDbEntity
8
1
62
256
6
ByLayer
370
13
48
1
60
0
100
AcDbSpline
70
4
71
3
72
10
73
6
40
0
40
0
40
0
40
0
40
0.5
40
0.5
40
1
40
1
40
1
40
1
41
1
10
297.169086805869
20
18.106457905931
30
0
41
1
10
297.165408838195
20
18.1062651518129
30
0
41
1
10
297.175161273637
20
18.0960253244845
30
0
41
1
10
297.215268419897
20
18.0623893520996
30
0
41
1
10
297.245713379712
20
18.0390492462636
30
0
41
1
10
297.277685540842
20
18.0162221957133
30
0
0
SPLINE
5
2B6
100
AcDbEntity
8
1
62
256
6
ByLayer
370
13
48
1
60
0
100
AcDbSpline
70
4
71
3
72
24
73
20
40
0
40
0
40
0
40
0
40
0.0312499999999961
40
0.0312499999999961
40
0.0624999999999922
40
0.0624999999999922
40
0.124999999999999
40
0.124999999999999
40
0.187500000000006
40
0.187500000000006
40
0.250000000000012
40
0.250000000000012
40
0.375000000000014
40
0.375000000000014
40
0.500000000000016
40
0.500000000000016
40
0.750000000000008
40
0.750000000000008
40
1
40
1
40
1
40
1
41
1
10
299.287728579055
20
7.36140731345853
30
0
41
1
10
299.286704709096
20
7.34756535169396
30
0
41
1
10
299.285452527493
20
7.33284943063296
30
0
41
1
10
299.282452283238
20
7.30332169769221
30
0
41
1
10
299.280672487964
20
7.28835379595506
30
0
41
1
10
299.275149626316
20
7.24748609623339
30
0
41
1
10
299.271296464763
20
7.22495551726971
30
0
41
1
10
299.264042672074
20
7.18713198841536
30
0
41
1
10
299.260561470385
20
7.17146243339261
30
0
41
1
10
299.253889247387
20
7.14390638388932
30
0
41
1
10
299.250684437942
20
7.13200683042416
30
0
41
1
10
299.241304203898
20
7.09965866786916
30
0
41
1
10
299.23539038119
20
7.0826051667205
30
0
41
1
10
299.223976024929
20
7.05315238049951
30
0
41
1
10
299.218507745318
20
7.04097807742261
30
0
41
1
10
299.202578285021
20
7.00953351203114
30
0
41
1
10
299.192583330788
20
6.99524382426708
30
0
41
1
10
299.173285781663
20
6.97406074138721
30
0
41
1
10
299.163991577698
20
6.96729883180919
30
0
41
1
10
299.154968516381
20
6.96305375533558
30
0
0
SPLINE
5
2B7
100
AcDbEntity
8
1
62
256
6
ByLayer
370
13
48
1
60
0
100
AcDbSpline
70
4
71
3
72
17
73
13
40
0
40
0
40
0
40
0
40
0.5
40
0.749999999999982
40
0.749999999999982
40
0.874999999999973
40
0.874999999999973
40
0.906249999999979
40
0.906249999999979
40
0.937499999999986
40
0.937499999999986
40
1
40
1
40
1
40
1
41
1
10
292.662306691838
20
7.70756430144613
30
0
41
1
10
293.409629469573
20
7.74672982863478
30
0
41
1
10
294.530613636174
20
7.80547811941781
30
0
41
1
10
295.651597802775
20
7.86422641020084
30
0
41
1
10
296.212089886075
20
7.89360055559234
30
0
41
1
10
296.398920509634
20
7.90339392966851
30
0
41
1
10
296.632458978842
20
7.91563031317475
30
0
41
1
10
296.679166084338
20
7.91809412803696
30
0
41
1
10
296.772580096849
20
7.92302733696772
30
0
41
1
10
296.819334673544
20
7.92415675557183
30
0
41
1
10
296.959843290114
20
7.92066135104142
30
0
41
1
10
297.053795094328
20
7.91047745208286
30
0
41
1
10
297.148048413274
20
7.89181809561552
30
0
0
SPLINE
5
2B8
100
AcDbEntity
8
1
62
256
6
ByLayer
370
13
48
1
60
0
100
AcDbSpline
70
4
71
3
72
20
73
16
40
0
40
0
40
0
40
0
40
0.0625000000000129
40
0.0625000000000129
40
0.125000000000026
40
0.125000000000026
40
0.156250000000032
40
0.156250000000032
40
0.187500000000038
40
0.187500000000038
40
0.250000000000017
40
0.250000000000017
40
0.500000000000001
40
0.500000000000001
40
1
40
1
40
1
40
1
41
1
10
297.045278589438
20
17.7789366786888
30
0
41
1
10
296.957022767319
20
17.7222396509964
30
0
41
1
10
296.864731394229
20
17.6746742700114
30
0
41
1
10
296.672361695836
20
17.597163827314
30
0
41
1
10
296.571166513756
20
17.5670248475766
30
0
41
1
10
296.418727406229
20
17.5370190796063
30
0
41
1
10
296.367745127455
20
17.5294314612415
30
0
41
1
10
296.265446766026
20
17.5190180431016
30
0
41
1
10
296.214080566646
20
17.5169071743667
30
0
41
1
10
296.060104422336
20
17.5088277253141
30
0
41
1
10
295.957453660143
20
17.5034414162465
30
0
41
1
10
295.444195777304
20
17.4765679574541
30
0
41
1
10
295.033593132585
20
17.4550169572061
30
0
41
1
10
293.801778273955
20
17.3904627363046
30
0
41
1
10
292.980568012476
20
17.3474319155326
30
0
41
1
10
292.159358152343
20
17.3043941304377
30
0
0
SPLINE
5
2B9
100
AcDbEntity
8
1
62
256
6
ByLayer
370
13
48
1
60
0
100
AcDbSpline
70
4
71
3
72
11
73
7
40
0
40
0
40
0
40
0
40
0.25
40
0.5
40
0.75
40
1
40
1
40
1
40
1
41
1
10
297.939068109188
20
19.0375036847111
30
0
41
1
10
297.923563087534
20
19.0371610495703
30
0
41
1
10
297.892566430253
20
19.0359964066556
30
0
41
1
10
297.846087976157
20
19.0338907179335
30
0
41
1
10
297.799605209771
20
19.0318786094924
30
0
41
1
10
297.768617178062
20
19.030526806059
30
0
41
1
10
297.753123162101
20
19.0298509043377
30
0
0
SPLINE
5
2BA
100
AcDbEntity
8
1
62
256
6
ByLayer
370
13
48
1
60
0
100
AcDbSpline
70
4
71
2
72
6
73
3
40
0
40
0
40
0
40
1
40
1
40
1
41
0.998811969636009
10
284.674189840505
20
12.1005189591557
30
0
41
0.998332076501573
10
284.67140566589
20
12.0653806545758
30
0
41
1
10
284.671872996418
20
12.0301329458504
30
0
0
SPLINE
5
2BB
100
AcDbEntity
8
1
62
256
6
ByLayer
370
13
48
1
60
0
100
AcDbSpline
70
4
71
1
72
4
73
2
40
0
40
0
40
1
40
1
41
1
10
284.606530433926
20
12.277576412968
30
0
41
1
10
284.662366788626
20
12.2795718772602
30
0
0
SPLINE
5
2BC
100
AcDbEntity
8
1
62
256
6
ByLayer
370
13
48
1
60
0
100
AcDbSpline
70
4
71
3
72
11
73
7
40
0
40
0
40
0
40
0
40
0.25
40
0.5
40
0.75
40
1
40
1
40
1
40
1
41
1
10
285.778155188844
20
18.4001772445014
30
0
41
1
10
285.793611087492
20
18.4014572024382
30
0
41
1
10
285.824559680175
20
18.4035389725112
30
0
41
1
10
285.871003624843
20
18.406303140354
30
0
41
1
10
285.917442076374
20
18.4091608265921
30
0
41
1
10
285.948401654339
20
18.4110555598138
30
0
41
1
10
285.963881443428
20
18.4120029264311
30
0
0
SPLINE
5
2BD
100
AcDbEntity
8
1
62
256
6
ByLayer
370
13
48
1
60
0
100
AcDbSpline
70
4
71
3
72
10
73
6
40
0
40
0
40
0
40
0
40
0.381095285605421
40
0.381095285605421
40
1
40
1
40
1
40
1
41
1
10
297.142942063928
20
18.0186241565583
30
0
41
1
10
297.148228585998
20
18.0184027651674
30
0
41
1
10
297.159245229474
20
18.0181114635362
30
0
41
1
10
297.200488326412
20
18.0172674478904
30
0
41
1
10
297.238454133271
20
18.016677725571
30
0
41
1
10
297.277685540842
20
18.0162221957134
30
0
0
SPLINE
5
2BE
100
AcDbEntity
8
1
62
256
6
ByLayer
370
13
48
1
60
0
100
AcDbSpline
70
4
71
3
72
22
73
18
40
0
40
0
40
0
40
0
40
0.0312500000000127
40
0.0312500000000127
40
0.0625000000000254
40
0.0625000000000254
40
0.125000000000019
40
0.125000000000019
40
0.156250000000016
40
0.156250000000016
40
0.187500000000013
40
0.187500000000013
40
0.250000000000007
40
0.250000000000007
40
0.500000000000016
40
0.500000000000016
40
1
40
1
40
1
40
1
41
1
10
296.950916787461
20
17.9045793275718
30
0
41
1
10
296.908423059483
20
17.8772806404818
30
0
41
1
10
296.864116938859
20
17.8518636046561
30
0
41
1
10
296.773578942478
20
17.8058551025628
30
0
41
1
10
296.727483727043
20
17.7852999385474
30
0
41
1
10
296.586799852682
20
17.7307433143773
30
0
41
1
10
296.489842332579
20
17.7037636723065
30
0
41
1
10
296.339423891076
20
17.6780624155347
30
0
41
1
10
296.288868840447
20
17.6719460264076
30
0
41
1
10
296.187701608085
20
17.6651770061756
30
0
41
1
10
296.137045567548
20
17.6630724380658
30
0
41
1
10
295.985172346602
20
17.6550815722044
30
0
41
1
10
295.883921073915
20
17.6497977808444
30
0
41
1
10
295.377670292654
20
17.6232801713217
30
0
41
1
10
294.972671716051
20
17.6020298826331
30
0
41
1
10
293.757671538143
20
17.5383576269387
30
0
41
1
10
292.947671176675
20
17.4959137173225
30
0
41
1
10
292.137671159392
20
17.4534634151975
30
0
0
SPLINE
5
2BF
100
AcDbEntity
8
1
62
256
6
ByLayer
370
13
48
1
60
0
100
AcDbSpline
70
4
71
3
72
8
73
4
40
0
40
0
40
0
40
0
40
1
40
1
40
1
40
1
41
1
10
298.47255903405
20
6.74182521314208
30
0
41
1
10
298.40532077161
20
6.73797031492762
30
0
41
1
10
298.340077938368
20
6.73603870458481
30
0
41
1
10
298.276549905512
20
6.7352033173519
30
0
0
SPLINE
5
2C0
100
AcDbEntity
8
1
62
256
6
ByLayer
370
13
48
1
60
0
100
AcDbSpline
70
4
71
1
72
4
73
2
40
0
40
0
40
1
40
1
41
1
10
284.671872996418
20
12.0301329458504
30
0
41
1
10
284.844062250779
20
12.0407353153673
30
0
0
SPLINE
5
2C1
100
AcDbEntity
8
1
62
256
6
ByLayer
370
13
48
1
60
0
100
AcDbSpline
70
4
71
1
72
4
73
2
40
0
40
0
40
1
40
1
41
1
10
284.597008074595
20
12.0554602361694
30
0
41
1
10
284.672513161508
20
12.0616208681395
30
0
0
SPLINE
5
2C2
100
AcDbEntity
8
1
62
256
6
ByLayer
370
13
48
1
60
0
100
AcDbSpline
70
4
71
2
72
6
73
3
40
0
40
0
40
0
40
1
40
1
40
1
41
0.998811969635707
10
284.674189840503
20
12.1005189591349
30
0
41
0.998332076502097
10
284.667747964911
20
12.1351737469009
30
0
41
1
10
284.664528346529
20
12.1702772143209
30
0
0
SPLINE
5
2C3
100
AcDbEntity
8
1
62
256
6
ByLayer
370
13
48
1
60
0
100
AcDbSpline
70
4
71
3
72
10
73
6
40
0
40
0
40
0
40
0
40
0.5
40
0.5
40
1
40
1
40
1
40
1
41
1
10
285.914411382891
20
18.2437013417876
30
0
41
1
10
285.94752722735
20
18.2447169373139
30
0
41
1
10
285.978980038625
20
18.2441823745375
30
0
41
1
10
286.042685886784
20
18.2438804868824
30
0
41
1
10
286.074610570376
20
18.243789399162
30
0
41
1
10
286.106497853551
20
18.2436670926466
30
0
0
SPLINE
5
2C4
100
AcDbEntity
8
1
62
256
6
ByLayer
370
13
48
1
60
0
100
AcDbSpline
70
4
71
3
72
17
73
13
40
0
40
0
40
0
40
0
40
0.500000000000019
40
0.750000000000009
40
0.750000000000009
40
0.874999999999986
40
0.874999999999986
40
0.90624999999999
40
0.90624999999999
40
0.937499999999993
40
0.937499999999993
40
1
40
1
40
1
40
1
41
1
10
292.159358152343
20
17.3043941304377
30
0
41
1
10
291.412035374609
20
17.265228603249
30
0
41
1
10
290.291051208008
20
17.206480312466
30
0
41
1
10
289.170067041407
20
17.147732021683
30
0
41
1
10
288.609574958106
20
17.1183578762914
30
0
41
1
10
288.422744334548
20
17.1085645022153
30
0
41
1
10
288.18920586534
20
17.096328118709
30
0
41
1
10
288.142498759844
20
17.0938643038469
30
0
41
1
10
288.049084747333
20
17.088931094916
30
0
41
1
10
288.002330170638
20
17.087801676312
30
0
41
1
10
287.861821554068
20
17.0912970808424
30
0
41
1
10
287.767869749854
20
17.1014809798009
30
0
41
1
10
287.673616430908
20
17.1201403362683
30
0
0
SPLINE
5
2C5
100
AcDbEntity
8
1
62
256
6
ByLayer
370
13
48
1
60
0
100
AcDbSpline
70
4
71
3
72
10
73
6
40
0
40
0
40
0
40
0
40
0.5
40
0.5
40
1
40
1
40
1
40
1
41
1
10
287.644777860096
20
6.99107738024071
30
0
41
1
10
287.641098456484
20
6.99088455086829
30
0
41
1
10
287.620775971728
20
6.99094978726023
30
0
41
1
10
287.55955053743
20
6.99146130321762
30
0
41
1
10
287.518639913174
20
6.99189669419681
30
0
41
1
10
287.479408505603
20
6.99235222405451
30
0
0
SPLINE
5
2C6
100
AcDbEntity
8
1
62
256
6
ByLayer
370
13
48
1
60
0
100
AcDbSpline
70
4
71
3
72
17
73
13
40
0
40
0
40
0
40
0
40
0.499999999999982
40
0.749999999999991
40
0.749999999999991
40
0.875000000000014
40
0.875000000000014
40
0.90625000000001
40
0.90625000000001
40
0.937500000000007
40
0.937500000000007
40
1
40
1
40
1
40
1
41
1
10
292.65632048576
20
7.55704472577952
30
0
41
1
10
293.398099980675
20
7.59591974182572
30
0
41
1
10
294.510769223047
20
7.65423226589502
30
0
41
1
10
295.62343846542
20
7.71254478996431
30
0
41
1
10
296.179773086606
20
7.74170105199894
30
0
41
1
10
296.365217985059
20
7.75142051817389
30
0
41
1
10
296.597024043885
20
7.76356800047989
30
0
41
1
10
296.643384617346
20
7.76597911112663
30
0
41
1
10
296.736108095054
20
7.77086846879618
30
0
41
1
10
296.782465904267
20
7.77319995741465
30
0
41
1
10
296.921241939426
20
7.7716282667175
30
0
41
1
10
297.013465752048
20
7.76212516442925
30
0
41
1
10
297.105387709052
20
7.7439273483516
30
0
0
SPLINE
5
2C7
100
AcDbEntity
8
1
62
256
6
ByLayer
370
13
48
1
60
0
100
AcDbSpline
70
4
71
3
72
24
73
20
40
0
40
0
40
0
40
0
40
0.124999999999984
40
0.124999999999984
40
0.249999999999969
40
0.249999999999969
40
0.374999999999953
40
0.374999999999953
40
0.499999999999937
40
0.499999999999937
40
0.624999999999921
40
0.624999999999921
40
0.749999999999906
40
0.749999999999906
40
0.812499999999898
40
0.812499999999898
40
0.87499999999989
40
0.87499999999989
40
1
40
1
40
1
40
1
41
1
10
299.106593233234
20
18.3625947511058
30
0
41
1
10
299.098378217691
20
18.4171290168979
30
0
41
1
10
299.084924318314
20
18.4701408988388
30
0
41
1
10
299.046492789504
20
18.5728159454946
30
0
41
1
10
299.021508530664
20
18.6221647893388
30
0
41
1
10
298.963129941369
20
18.7138120170704
30
0
41
1
10
298.929265073893
20
18.7568117348152
30
0
41
1
10
298.852360713473
20
18.8352997408477
30
0
41
1
10
298.810534441195
20
18.8699911154054
30
0
41
1
10
298.720536207716
20
18.930811690338
30
0
41
1
10
298.671603773937
20
18.9568919518205
30
0
41
1
10
298.57078167885
20
18.9979462588634
30
0
41
1
10
298.518814685858
20
19.0134447545062
30
0
41
1
10
298.438392420834
20
19.02870397012
30
0
41
1
10
298.411055906969
20
19.0323941938405
30
0
41
1
10
298.35653437745
20
19.0371451832478
30
0
41
1
10
298.329248349238
20
19.0377366128001
30
0
41
1
10
298.247383387402
20
19.0390252450575
30
0
41
1
10
298.19280365494
20
19.0396660348393
30
0
41
1
10
298.138215030586
20
19.0396788933415
30
0
0
SPLINE
5
2C8
100
AcDbEntity
8
1
62
256
6
ByLayer
370
13
48
1
60
0
100
AcDbSpline
70
4
71
2
72
6
73
3
40
0
40
0
40
0
40
1
40
1
40
1
41
1
10
284.681147682917
20
11.9212110661846
30
0
41
0.997409491337351
10
284.672599494719
20
11.9753378941235
30
0
41
1
10
284.671872996418
20
12.0301329458504
30
0
0
SPLINE
5
2C9
100
AcDbEntity
8
1
62
256
6
ByLayer
370
13
48
1
60
0
100
AcDbSpline
70
4
71
3
72
16
73
12
40
0
40
0
40
0
40
0
40
0.127164964751799
40
0.127164964751799
40
0.199901217689065
40
0.199901217689065
40
0.272637470626332
40
0.272637470626332
40
0.418109976500866
40
0.418109976500866
40
1
40
1
40
1
40
1
41
1
10
285.435345339097
20
18.2120811735526
30
0
41
1
10
285.455506805451
20
18.2157296743956
30
0
41
1
10
285.476379675569
20
18.2184833834857
30
0
41
1
10
285.508770531397
20
18.2216597092323
30
0
41
1
10
285.520537023102
20
18.222488114217
30
0
41
1
10
285.543803241924
20
18.2238652301047
30
0
41
1
10
285.555632623933
20
18.2248982974634
30
0
41
1
10
285.591488324985
20
18.2286426540731
30
0
41
1
10
285.614951231723
20
18.230365008346
30
0
41
1
10
285.732195931418
20
18.2388542029576
30
0
41
1
10
285.824275637262
20
18.2422160079115
30
0
41
1
10
285.914411382891
20
18.2437013417876
30
0
0
SPLINE
5
2CA
100
AcDbEntity
8
1
62
256
6
ByLayer
370
13
48
1
60
0
100
AcDbSpline
70
4
71
2
72
6
73
3
40
0
40
0
40
0
40
1
40
1
40
1
41
1
10
299.949929394373
20
12.9697728256097
30
0
41
0.997409491337352
10
299.950694277017
20
12.9120826919216
30
0
41
1
10
299.943208381914
20
12.854883054772
30
0
0
SPLINE
5
2CB
100
AcDbEntity
8
1
62
256
6
ByLayer
370
13
48
1
60
0
100
AcDbSpline
70
4
71
2
72
6
73
3
40
0
40
0
40
0
40
1
40
1
40
1
41
1
10
299.949929394373
20
12.9697728256097
30
0
41
0.997409491337352
10
299.949164511728
20
13.0274629592992
30
0
41
1
10
299.940164682284
20
13.0844495637713
30
0
0
SPLINE
5
2CC
100
AcDbEntity
8
1
62
256
6
ByLayer
370
13
48
1
60
0
100
AcDbSpline
70
4
71
3
72
10
73
6
40
0
40
0
40
0
40
0
40
0.5
40
0.5
40
1
40
1
40
1
40
1
41
1
10
287.615680439606
20
6.90356680474372
30
0
41
1
10
287.612002471932
20
6.90337405062564
30
0
41
1
10
287.595055055253
20
6.91323680496541
30
0
41
1
10
287.544770273906
20
6.94633939009711
30
0
41
1
10
287.511380666733
20
6.96952517350391
30
0
41
1
10
287.479408505603
20
6.99235222405454
30
0
0
SPLINE
5
2CD
100
AcDbEntity
8
1
62
256
6
ByLayer
370
13
48
1
60
0
100
AcDbSpline
70
4
71
3
72
22
73
18
40
0
40
0
40
0
40
0
40
0.125000000000054
40
0.125000000000054
40
0.250000000000108
40
0.250000000000108
40
0.375000000000161
40
0.375000000000161
40
0.500000000000215
40
0.500000000000215
40
0.625000000000269
40
0.625000000000269
40
0.687500000000242
40
0.687500000000242
40
0.750000000000216
40
0.750000000000216
40
1
40
1
40
1
40
1
41
1
10
285.687398411917
20
6.64791338987121
30
0
41
1
10
285.696861960295
20
6.58509090830142
30
0
41
1
10
285.713308019715
20
6.524297496738
30
0
41
1
10
285.761568032344
20
6.40717647855453
30
0
41
1
10
285.792729708941
20
6.35222199760753
30
0
41
1
10
285.866352742652
20
6.25092642972038
30
0
41
1
10
285.910090808482
20
6.20410857870971
30
0
41
1
10
286.005676618731
20
6.12312793085019
30
0
41
1
10
286.057707463858
20
6.08823472867849
30
0
41
1
10
286.170825615198
20
6.03115774051557
30
0
41
1
10
286.229599511334
20
6.00977732154939
30
0
41
1
10
286.320886900294
20
5.9878113686579
30
0
41
1
10
286.351971541121
20
5.98221990279001
30
0
41
1
10
286.41475130598
20
5.97476637326753
30
0
41
1
10
286.446171868519
20
5.97320618923226
30
0
41
1
10
286.603341667878
20
5.97013576097729
30
0
41
1
10
286.729113987874
20
5.97025561413318
30
0
41
1
10
286.854923535964
20
5.97300445626587
30
0
0
SPLINE
5
2CE
100
AcDbEntity
8
1
62
256
6
ByLayer
370
13
48
1
60
0
100
AcDbSpline
70
4
71
2
72
6
73
3
40
0
40
0
40
0
40
1
40
1
40
1
41
1
10
284.844062250779
20
12.0407353153673
30
0
41
0.997409491337352
10
284.844827133424
20
11.9830451816778
30
0
41
1
10
284.853826962868
20
11.9260585772057
30
0
0
SPLINE
5
2CF
100
AcDbEntity
8
1
62
256
6
ByLayer
370
13
48
1
60
0
100
AcDbSpline
70
4
71
3
72
14
73
10
40
0
40
0
40
0
40
0
40
0.0108648623971962
40
0.0108648623971962
40
0.499267634966757
40
0.499267634966757
40
0.987670407536318
40
0.987670407536318
40
1
40
1
40
1
40
1
41
1
10
299.042275495421
20
6.85222058539696
30
0
41
1
10
299.041316959923
20
6.85120787261218
30
0
41
1
10
299.040356072917
20
6.85019803358634
30
0
41
1
10
298.996094163717
20
6.80392686634221
30
0
41
1
10
298.947995681805
20
6.76378610849963
30
0
41
1
10
298.841463373394
20
6.6951977275225
30
0
41
1
10
298.78524630915
20
6.66779088768516
30
0
41
1
10
298.724762858093
20
6.64633746990793
30
0
41
1
10
298.723271443915
20
6.64581343243023
30
0
41
1
10
298.721777949785
20
6.64529362941531
30
0
0
SPLINE
5
2D0
100
AcDbEntity
8
1
62
256
6
ByLayer
370
13
48
1
60
0
100
AcDbSpline
70
4
71
2
72
6
73
3
40
0
40
0
40
0
40
1
40
1
40
1
41
1
10
284.662366788626
20
12.2795718772602
30
0
41
0.997409491337351
10
284.659523222444
20
12.224848032772
30
0
41
1
10
284.664528346529
20
12.1702772143209
30
0
0
SPLINE
5
2D1
100
AcDbEntity
8
1
62
256
6
ByLayer
370
13
48
1
60
0
100
AcDbSpline
70
4
71
3
72
8
73
4
40
0
40
0
40
0
40
0
40
1
40
1
40
1
40
1
41
1
10
285.429165584915
20
18.3643937416246
30
0
41
1
10
285.545229252915
20
18.3785502609505
30
0
41
1
10
285.661557443317
20
18.3904921402639
30
0
41
1
10
285.778155188844
20
18.4001772445014
30
0
0
SPLINE
5
2D2
100
AcDbEntity
8
1
62
256
6
ByLayer
370
13
48
1
60
0
100
AcDbSpline
70
4
71
3
72
20
73
16
40
0
40
0
40
0
40
0
40
0.0625000000000049
40
0.0625000000000049
40
0.12500000000001
40
0.12500000000001
40
0.156250000000029
40
0.156250000000029
40
0.187500000000047
40
0.187500000000047
40
0.250000000000052
40
0.250000000000052
40
0.500000000000034
40
0.500000000000034
40
1
40
1
40
1
40
1
41
1
10
287.776386254744
20
7.23302175319503
30
0
41
1
10
287.864642076863
20
7.28971878088734
30
0
41
1
10
287.956933449952
20
7.33728416187233
30
0
41
1
10
288.149303148346
20
7.41479460456978
30
0
41
1
10
288.250498330425
20
7.44493358430719
30
0
41
1
10
288.402937437953
20
7.47493935227746
30
0
41
1
10
288.453919716727
20
7.48252697064225
30
0
41
1
10
288.556218078156
20
7.49294038878219
30
0
41
1
10
288.607584277535
20
7.4950512575171
30
0
41
1
10
288.761560421846
20
7.50313070656972
30
0
41
1
10
288.864211184039
20
7.5085170156373
30
0
41
1
10
289.377469066878
20
7.53539047442968
30
0
41
1
10
289.788071711596
20
7.55694147467764
30
0
41
1
10
291.019886570227
20
7.62149569557914
30
0
41
1
10
291.841096831706
20
7.6645265163512
30
0
41
1
10
292.662306691838
20
7.70756430144607
30
0
0
SPLINE
5
2D3
100
AcDbEntity
8
SK1
62
256
6
ByLayer
370
13
48
1
60
0
100
AcDbSpline
70
4
71
3
72
22
73
18
40
0
40
0
40
0
40
0
40
0.249999999999984
40
0.249999999999984
40
0.499999999999968
40
0.499999999999968
40
0.624999999999959
40
0.624999999999959
40
0.749999999999951
40
0.749999999999951
40
0.812499999999963
40
0.812499999999963
40
0.874999999999976
40
0.874999999999976
40
0.937499999999988
40
0.937499999999988
40
1
40
1
40
1
40
1
41
1
10
-68.5162221139001
20
8.8730422260912
30
0
41
1
10
-68.4806148031928
20
8.77446247050247
30
0
41
1
10
-68.439030376807
20
8.67849216034347
30
0
41
1
10
-68.3371998535552
20
8.49469871558048
30
0
41
1
10
-68.2767685878681
20
8.40593562609388
30
0
41
1
10
-68.1637425351441
20
8.2951603566016
30
0
41
1
10
-68.1227917757747
20
8.26245866462776
30
0
41
1
10
-68.0301397358031
20
8.2109172856386
30
0
41
1
10
-67.979238160389
20
8.19317027456333
30
0
41
1
10
-67.8997825758302
20
8.18561435729944
30
0
41
1
10
-67.8728381623004
20
8.18629209054791
30
0
41
1
10
-67.8203470589832
20
8.19382805997071
30
0
41
1
10
-67.7948393210407
20
8.20058148467908
30
0
41
1
10
-67.7451106763606
20
8.21929528168133
30
0
41
1
10
-67.7210452240317
20
8.23125325856924
30
0
41
1
10
-67.6758001698851
20
8.25847389471045
30
0
41
1
10
-67.6543432159221
20
8.27384033348378
30
0
41
1
10
-67.6338131992796
20
8.29060335030459
30
0
0
SPLINE
5
2D4
100
AcDbEntity
8
SK1
62
256
6
ByLayer
370
13
48
1
60
0
100
AcDbSpline
70
4
71
3
72
8
73
4
40
0
40
0
40
0
40
0
40
1
40
1
40
1
40
1
41
1
10
-67.6338131992796
20
8.29060335030476
30
0
41
1
10
-67.2944948862475
20
8.56766102093468
30
0
41
1
10
-66.9495650728325
20
8.83793743673166
30
0
41
1
10
-66.6000022063887
20
9.10261500888626
30
0
0
SPLINE
5
2D5
100
AcDbEntity
8
1
62
256
6
ByLayer
370
13
48
1
60
0
100
AcDbSpline
70
4
71
3
72
8
73
4
40
0
40
0
40
0
40
0
40
1
40
1
40
1
40
1
41
1
10
280.661916258396
20
-0.158488361606004
30
0
41
1
10
281.578742102267
20
-0.232290864315132
30
0
41
1
10
282.495624794103
20
-0.305725511867621
30
0
41
1
10
283.412560194403
20
-0.378812748593163
30
0
0
SPLINE
5
2D6
100
AcDbEntity
8
1
62
256
6
ByLayer
370
13
48
1
60
0
100
AcDbSpline
70
4
71
3
72
12
73
8
40
0
40
0
40
0
40
0
40
0.25
40
0.25
40
0.5
40
0.5
40
1
40
1
40
1
40
1
41
1
10
138
20
-6.55551368352675
30
0
41
1
10
129.416671678196
20
-6.55043753173982
30
0
41
1
10
120.833336434327
20
-6.55166082390798
30
0
41
1
10
103.666667127918
20
-6.55676921948717
30
0
41
1
10
95.0833319185299
20
-6.56021807954127
30
0
41
1
10
69.33333126757
20
-6.56285761559758
30
0
41
1
10
52.1666683008392
20
-6.55860639458885
30
0
41
1
10
35
20
-6.56179477591257
30
0
0
SPLINE
5
2D7
100
AcDbEntity
8
1
62
256
6
ByLayer
370
13
48
1
60
0
100
AcDbSpline
70
4
71
3
72
24
73
20
40
0
40
0
40
0
40
0
40
0.122122491167449
40
0.122122491167449
40
0.244244982334899
40
0.244244982334899
40
0.366367473502348
40
0.366367473502348
40
0.488489964669797
40
0.488489964669797
40
0.610612455837247
40
0.610612455837247
40
0.732734947004696
40
0.732734947004696
40
0.854857438172146
40
0.854857438172146
40
0.976979929339595
40
0.976979929339595
40
1
40
1
40
1
40
1
41
1
10
275.698614326898
20
18.0804958724549
30
0
41
1
10
274.345198574588
20
18.1817702771112
30
0
41
1
10
272.991005283187
20
18.2531174436953
30
0
41
1
10
270.284100066988
20
18.334791076631
30
0
41
1
10
268.93134554015
20
18.3451653409308
30
0
41
1
10
266.224815445673
20
18.3048937855595
30
0
41
1
10
264.87058694752
20
18.2541995821207
30
0
41
1
10
262.164150956218
20
18.092347827552
30
0
41
1
10
260.811356801907
20
17.9812009409312
30
0
41
1
10
258.104140814165
20
17.6995114552293
30
0
41
1
10
256.749829239461
20
17.529006207149
30
0
41
1
10
254.043077873727
20
17.1306286378884
30
0
41
1
10
252.690014859225
20
16.9026705853933
30
0
41
1
10
249.983192028321
20
16.3898240061652
30
0
41
1
10
248.631225780048
20
16.1043946838902
30
0
41
1
10
245.924590812555
20
15.4848238470337
30
0
41
1
10
244.569220236116
20
15.1504506438338
30
0
41
1
10
242.949847049028
20
14.7356675704905
30
0
41
1
10
242.692809986697
20
14.6693950834937
30
0
41
1
10
242.435569577828
20
14.6026639715831
30
0
0
SPLINE
5
2D8
100
AcDbEntity
8
1
62
256
6
ByLayer
370
13
48
1
60
0
100
AcDbSpline
70
4
71
3
72
12
73
8
40
0
40
0
40
0
40
0
40
0.235474449442817
40
0.235474449442817
40
0.490316299628544
40
0.490316299628544
40
1
40
1
40
1
40
1
41
1
10
261.583849962655
20
8.00598670594394
30
0
41
1
10
262.68869760877
20
7.5760774528153
30
0
41
1
10
263.794653416569
20
7.13678636042519
30
0
41
1
10
266.094530853603
20
6.20776454783021
30
0
41
1
10
267.288952530505
20
5.7165843542065
30
0
41
1
10
270.87158193844
20
4.22297822622562
30
0
41
1
10
273.259207848479
20
3.20062246941117
30
0
41
1
10
275.651257450427
20
2.16345375788697
30
0
0
SPLINE
5
2D9
100
AcDbEntity
8
1
62
256
6
ByLayer
370
13
48
1
60
0
100
AcDbSpline
70
4
71
3
72
10
73
6
40
0
40
0
40
0
40
0
40
0.5
40
0.5
40
1
40
1
40
1
40
1
41
1
10
279.421199861701
20
5.73154547565031
30
0
41
1
10
279.144793157221
20
5.89020881078679
30
0
41
1
10
278.860525810002
20
6.0392158204952
30
0
41
1
10
278.27913725423
20
6.32143964664704
30
0
41
1
10
277.981998415123
20
6.45463480501906
30
0
41
1
10
277.679293795895
20
6.58099273825613
30
0
0
SPLINE
5
2DA
100
AcDbEntity
8
1
62
256
6
ByLayer
370
13
48
1
60
0
100
AcDbSpline
70
4
71
3
72
18
73
14
40
0
40
0
40
0
40
0
40
0.250000000000012
40
0.250000000000012
40
0.375000000000019
40
0.375000000000019
40
0.500000000000026
40
0.500000000000026
40
0.749999999999908
40
0.749999999999908
40
0.874999999999954
40
0.874999999999954
40
1
40
1
40
1
40
1
41
1
10
288.804288032276
20
7.03472910844701
30
0
41
1
10
288.798967482439
20
7.03445027024546
30
0
41
1
10
288.800231426662
20
7.04470872238187
30
0
41
1
10
288.815496522328
20
7.07312705325546
30
0
41
1
10
288.822855176804
20
7.08463156203419
30
0
41
1
10
288.842797436002
20
7.11012992162009
30
0
41
1
10
288.855648516776
20
7.12437470651992
30
0
41
1
10
288.901731778397
20
7.16684171527584
30
0
41
1
10
288.943919472479
20
7.19553445440451
30
0
41
1
10
289.017208437898
20
7.22671972327913
30
0
41
1
10
289.043720551693
20
7.23539770555303
30
0
41
1
10
289.097865274482
20
7.24787924359862
30
0
41
1
10
289.125730597856
20
7.25183406594735
30
0
41
1
10
289.154398942195
20
7.25335207655402
30
0
0
SPLINE
5
2DB
100
AcDbEntity
8
1
62
256
6
ByLayer
370
13
48
1
60
0
100
AcDbSpline
70
4
71
3
72
8
73
4
40
0
40
0
40
0
40
0
40
1
40
1
40
1
40
1
41
1
10
279.219789309965
20
8.88519317106966
30
0
41
1
10
279.212487528702
20
8.88650246117336
30
0
41
1
10
279.205165237506
20
8.88766002865137
30
0
41
1
10
279.197821530188
20
8.88865916993578
30
0
0
SPLINE
5
2DC
100
AcDbEntity
8
1
62
256
6
ByLayer
370
13
48
1
60
0
100
AcDbSpline
70
4
71
3
72
8
73
4
40
0
40
0
40
0
40
0
40
1
40
1
40
1
40
1
41
1
10
279.21349140579
20
1.58864820886149
30
0
41
1
10
279.613356325676
20
1.47709014218515
30
0
41
1
10
280.017166383121
20
1.38759544236538
30
0
41
1
10
280.424473516799
20
1.31954239777687
30
0
0
SPLINE
5
2DD
100
AcDbEntity
8
1
62
256
6
ByLayer
370
13
48
1
60
0
100
AcDbSpline
70
4
71
3
72
16
73
12
40
0
40
0
40
0
40
0
40
0.469070336315943
40
0.469070336315943
40
0.703605504473915
40
0.703605504473915
40
0.8208730885529
40
0.8208730885529
40
0.938140672631886
40
0.938140672631886
40
1
40
1
40
1
40
1
41
1
10
6.56503924499752
20
-18.1848071328326
30
0
41
1
10
6.8492717458829
20
-17.2038946421025
30
0
41
1
10
7.21334850678619
20
-16.241718175698
30
0
41
1
10
7.88164984173504
20
-14.8262783881199
30
0
41
1
10
8.12493955353145
20
-14.3591411219817
30
0
41
1
10
8.52232374723931
20
-13.6657364927187
30
0
41
1
10
8.66046635677776
20
-13.4354123650764
30
0
41
1
10
8.94641248219666
20
-12.9797276981253
30
0
41
1
10
9.09418526071939
20
-12.7544062614419
30
0
41
1
10
9.32702612324856
20
-12.4139626712925
30
0
41
1
10
9.40871838050356
20
-12.2970672465881
30
0
41
1
10
9.49168760653944
20
-12.1808398692262
30
0
0
SPLINE
5
2DE
100
AcDbEntity
8
1
62
256
6
ByLayer
370
13
48
1
60
0
100
AcDbSpline
70
4
71
3
72
8
73
4
40
0
40
0
40
0
40
0
40
1
40
1
40
1
40
1
41
1
10
29.1961524876503
20
-17.8761689428301
30
0
41
1
10
29.1961524883432
20
-18.0768619148901
30
0
41
1
10
29.1961524890482
20
-18.2775548869476
30
0
41
1
10
29.1961524897653
20
-18.4782478590026
30
0
0
SPLINE
5
2DF
100
AcDbEntity
8
1
62
256
6
ByLayer
370
13
48
1
60
0
100
AcDbSpline
70
4
71
3
72
14
73
10
40
0
40
0
40
0
40
0
40
0.125
40
0.125
40
0.25
40
0.25
40
0.5
40
0.5
40
1
40
1
40
1
40
1
41
1
10
138
20
-18.2670269962246
30
0
41
1
10
133.708332258718
20
-18.2749406126669
30
0
41
1
10
129.416664383844
20
-18.2828487529234
30
0
41
1
10
120.833329579
20
-18.2988271104942
30
0
41
1
10
116.541662702695
20
-18.3068975885888
30
0
41
1
10
103.666663009288
20
-18.3312520506958
30
0
41
1
10
95.0833310651484
20
-18.3476668175277
30
0
41
1
10
69.333334169969
20
-18.3967471189213
30
0
41
1
10
52.1666688865801
20
-18.4294046602718
30
0
41
1
10
34.9999999999999
20
-18.4615393564497
30
0
0
SPLINE
5
2E0
100
AcDbEntity
8
1
62
256
6
ByLayer
370
13
48
1
60
0
100
AcDbSpline
70
4
71
3
72
16
73
12
40
0
40
0
40
0
40
0
40
0.250000000000005
40
0.250000000000005
40
0.50000000000001
40
0.50000000000001
40
0.625000000000003
40
0.625000000000003
40
0.749999999999996
40
0.749999999999996
40
1
40
1
40
1
40
1
41
1
10
283.650547627472
20
6.00633052917337
30
0
41
1
10
284.158527357548
20
5.86213513967874
30
0
41
1
10
284.659644961003
20
5.75920124617517
30
0
41
1
10
285.649581435402
20
5.62116706802942
30
0
41
1
10
286.138367982724
20
5.58621974569365
30
0
41
1
10
286.862159522397
20
5.57865543770654
30
0
41
1
10
287.101849351398
20
5.58364545771397
30
0
41
1
10
287.577965100323
20
5.60793759650758
30
0
41
1
10
287.814117030465
20
5.62725669900578
30
0
41
1
10
288.51215831659
20
5.70497817215335
30
0
41
1
10
288.965466345133
20
5.78315868328227
30
0
41
1
10
289.406713844484
20
5.88451278060256
30
0
0
SPLINE
5
2E1
100
AcDbEntity
8
1
62
256
6
ByLayer
370
13
48
1
60
0
100
AcDbSpline
70
4
71
3
72
8
73
4
40
0
40
0
40
0
40
0
40
1
40
1
40
1
40
1
41
1
10
289.406713844484
20
5.88451278060253
30
0
41
1
10
290.006986673103
20
6.02239483269477
30
0
41
1
10
290.569531780751
20
6.10191267246714
30
0
41
1
10
291.088339205357
20
6.14615439778089
30
0
0
SPLINE
5
2E2
100
AcDbEntity
8
1
62
256
6
ByLayer
370
13
48
1
60
0
100
AcDbSpline
70
4
71
3
72
14
73
10
40
0
40
0
40
0
40
0
40
0.500000000000001
40
0.500000000000001
40
0.749999999999916
40
0.749999999999916
40
0.874999999999958
40
0.874999999999958
40
1
40
1
40
1
40
1
41
1
10
290.838762199696
20
7.30453798610307
30
0
41
1
10
290.982391664728
20
7.25619164094127
30
0
41
1
10
291.125970066845
20
7.22361637891234
30
0
41
1
10
291.342911036845
20
7.19469360333082
30
0
41
1
10
291.415476704449
20
7.18843385018664
30
0
41
1
10
291.52487366335
20
7.18406260986109
30
0
41
1
10
291.561476706542
20
7.18344503758019
30
0
41
1
10
291.634650103107
20
7.18390309731808
30
0
41
1
10
291.671528869705
20
7.18499483340622
30
0
41
1
10
291.707624509873
20
7.18688652574923
30
0
0
SPLINE
5
2E3
100
AcDbEntity
8
1
62
256
6
ByLayer
370
13
48
1
60
0
100
AcDbSpline
70
4
71
3
72
9
73
5
40
0
40
0
40
0
40
0
40
0.5
40
1
40
1
40
1
40
1
41
1
10
288.269209470219
20
6.46062627107054
30
0
41
1
10
288.279201906505
20
6.47290617599791
30
0
41
1
10
288.298941953304
20
6.49770445712372
30
0
41
1
10
288.318185121082
20
6.52297660046438
30
0
41
1
10
288.327680645791
20
6.53573041710041
30
0
0
SPLINE
5
2E4
100
AcDbEntity
8
1
62
256
6
ByLayer
370
13
48
1
60
0
100
AcDbSpline
70
4
71
3
72
54
73
50
40
0
40
0
40
0
40
0
40
0.0557072032852606
40
0.0557072032852606
40
0.111414406570521
40
0.111414406570521
40
0.222828813141044
40
0.222828813141044
40
0.250682414783676
40
0.250682414783676
40
0.278536016426308
40
0.278536016426308
40
0.334243219711573
40
0.334243219711573
40
0.38995042299684
40
0.38995042299684
40
0.445657626282106
40
0.445657626282106
40
0.47351122792474
40
0.47351122792474
40
0.501364829567373
40
0.501364829567373
40
0.557072032852641
40
0.557072032852641
40
0.584925634495275
40
0.584925634495275
40
0.612779236137909
40
0.612779236137909
40
0.668486439423178
40
0.668486439423178
40
0.696340041065812
40
0.696340041065812
40
0.724193642708446
40
0.724193642708446
40
0.779900845993716
40
0.779900845993716
40
0.835608049278985
40
0.835608049278985
40
0.86346165092162
40
0.86346165092162
40
0.891315252564255
40
0.891315252564255
40
0.91916885420689
40
0.91916885420689
40
0.947022455849525
40
0.947022455849525
40
0.97487605749216
40
0.97487605749216
40
1
40
1
40
1
40
1
41
1
10
274.518050632323
20
2.45534865054222
30
0
41
1
10
273.173661465771
20
3.05544872832823
30
0
41
1
10
271.82931280494
20
3.65110994322114
30
0
41
1
10
269.138660825845
20
4.82909544325031
30
0
41
1
10
267.794261188001
20
5.41056810940995
30
0
41
1
10
263.765770211297
20
7.12341057835741
30
0
41
1
10
261.084092208531
20
8.22387102088877
30
0
41
1
10
257.72648129367
20
9.5263986877317
30
0
41
1
10
257.054693625924
20
9.78327346703617
30
0
41
1
10
255.710334125706
20
10.2892510893828
30
0
41
1
10
255.037421736394
20
10.5384764748621
30
0
41
1
10
253.019993561133
20
11.2726589912781
30
0
41
1
10
251.67707246594
20
11.7440386338237
30
0
41
1
10
248.993134610962
20
12.6469883678005
30
0
41
1
10
247.652134722656
20
13.0785829574097
30
0
41
1
10
244.969770493635
20
13.898251363449
30
0
41
1
10
243.628342007113
20
14.2861961123317
30
0
41
1
10
241.613202661606
20
14.8315785304784
30
0
41
1
10
240.9409881301
20
15.0072882267651
30
0
41
1
10
239.595106839889
20
15.346002157668
30
0
41
1
10
238.921831430157
20
15.509006016756
30
0
41
1
10
236.901011226026
20
15.9752470841026
30
0
41
1
10
235.551490419041
20
16.255580997761
30
0
41
1
10
233.511284140283
20
16.6221125453029
30
0
41
1
10
232.828441663708
20
16.7352709338809
30
0
41
1
10
231.455675227802
20
16.9438881767956
30
0
41
1
10
230.765958496017
20
17.0395970598131
30
0
41
1
10
228.687747172412
20
17.3046110440907
30
0
41
1
10
227.290162201678
20
17.4519453357111
30
0
41
1
10
225.179725510586
20
17.640683050226
30
0
41
1
10
224.473731460695
20
17.6982073667248
30
0
41
1
10
223.059835726614
20
17.8035512467994
30
0
41
1
10
222.351656970334
20
17.851391818272
30
0
41
1
10
220.223662388527
20
17.9821625857268
30
0
41
1
10
218.80040348837
20
18.0523385920836
30
0
41
1
10
215.94387322545
20
18.1653393415722
30
0
41
1
10
214.510477730969
20
18.2079750318643
30
0
41
1
10
212.349659736156
20
18.2555735842958
30
0
41
1
10
211.627596064493
20
18.2687310534651
30
0
41
1
10
210.179348630944
20
18.2905405678104
30
0
41
1
10
209.452702086387
20
18.2991950369838
30
0
41
1
10
207.997242269928
20
18.3129926402587
30
0
41
1
10
207.268669936549
20
18.3181405338886
30
0
41
1
10
205.809726773351
20
18.3259419091283
30
0
41
1
10
205.079340664956
20
18.3286044960217
30
0
41
1
10
203.617175606112
20
18.3324155099336
30
0
41
1
10
202.88540834667
20
18.3335614582888
30
0
41
1
10
201.492649068159
20
18.3348361938354
30
0
41
1
10
200.83170740995
20
18.3350355353351
30
0
41
1
10
200.170160967223
20
18.3349946068666
30
0
0
SPLINE
5
2E5
100
AcDbEntity
8
1
62
256
6
ByLayer
370
13
48
1
60
0
100
AcDbSpline
70
4
71
3
72
38
73
34
40
0
40
0
40
0
40
0
40
0.0624999999999733
40
0.0624999999999733
40
0.124999999999947
40
0.124999999999947
40
0.249999999999868
40
0.249999999999868
40
0.31249999999983
40
0.31249999999983
40
0.374999999999791
40
0.374999999999791
40
0.406249999999771
40
0.406249999999771
40
0.437499999999752
40
0.437499999999752
40
0.499999999999748
40
0.499999999999748
40
0.531249999999764
40
0.531249999999764
40
0.562499999999779
40
0.562499999999779
40
0.624999999999811
40
0.624999999999811
40
0.749999999999874
40
0.749999999999874
40
0.812499999999906
40
0.812499999999906
40
0.874999999999937
40
0.874999999999937
40
0.937499999999969
40
0.937499999999969
40
1
40
1
40
1
40
1
41
1
10
288.581015090067
20
6.60298216919981
30
0
41
1
10
288.529695732165
20
6.5241638237313
30
0
41
1
10
288.474631543411
20
6.44999519897507
30
0
41
1
10
288.356983899921
20
6.31006563999449
30
0
41
1
10
288.294360679359
20
6.24441829128168
30
0
41
1
10
288.100449890964
20
6.06433970627842
30
0
41
1
10
287.961647932204
20
5.96427546173516
30
0
41
1
10
287.735871868006
20
5.84061825532396
30
0
41
1
10
287.658921740467
20
5.80458724961733
30
0
41
1
10
287.500463442179
20
5.74224567222015
30
0
41
1
10
287.419000595968
20
5.71591813945386
30
0
41
1
10
287.291082773036
20
5.68375189904222
30
0
41
1
10
287.247468972351
20
5.67425662622253
30
0
41
1
10
287.1575309696
20
5.65786419707862
30
0
41
1
10
287.110838638964
20
5.65094514052029
30
0
41
1
10
286.97032861786
20
5.63502421178512
30
0
41
1
10
286.874956575678
20
5.63056321270241
30
0
41
1
10
286.729360031543
20
5.63322345643343
30
0
41
1
10
286.680789298495
20
5.63568861903892
30
0
41
1
10
286.585689435328
20
5.64343562708854
30
0
41
1
10
286.538787125434
20
5.64872294907045
30
0
41
1
10
286.399502193323
20
5.66860828882778
30
0
41
1
10
286.308268256817
20
5.68726357269179
30
0
41
1
10
286.039440332511
20
5.75880282295964
30
0
41
1
10
285.870410507112
20
5.82576976953476
30
0
41
1
10
285.627973430109
20
5.95695386622052
30
0
41
1
10
285.548798369651
20
6.00609799312144
30
0
41
1
10
285.395690455103
20
6.11526943934729
30
0
41
1
10
285.322740873126
20
6.17454503789463
30
0
41
1
10
285.184146928087
20
6.3031292103289
30
0
41
1
10
285.11839434405
20
6.37254740703392
30
0
41
1
10
284.9952298044
20
6.52245191597865
30
0
41
1
10
284.939360004991
20
6.60105520411327
30
0
41
1
10
284.889339449605
20
6.68337003970873
30
0
0
SPLINE
5
2E6
100
AcDbEntity
8
1
62
256
6
ByLayer
370
13
48
1
60
0
100
AcDbSpline
70
4
71
3
72
8
73
4
40
0
40
0
40
0
40
0
40
1
40
1
40
1
40
1
41
1
10
288.731580251915
20
6.87082499419429
30
0
41
1
10
288.687136380105
20
6.77846493024609
30
0
41
1
10
288.636643737381
20
6.6884188956333
30
0
41
1
10
288.581015090067
20
6.60298216919955
30
0
0
SPLINE
5
2E7
100
AcDbEntity
8
1
62
256
6
ByLayer
370
13
48
1
60
0
100
AcDbSpline
70
4
71
3
72
8
73
4
40
0
40
0
40
0
40
0
40
1
40
1
40
1
40
1
41
1
10
277.747541018072
20
6.814681237847
30
0
41
1
10
277.747978450531
20
6.81622368381485
30
0
41
1
10
277.748445698742
20
6.81775905094514
30
0
41
1
10
277.748941935755
20
6.8192875444343
30
0
0
SPLINE
5
2E8
100
AcDbEntity
8
1
62
256
6
ByLayer
370
13
48
1
60
0
100
AcDbSpline
70
4
71
2
72
12
73
9
40
0
40
0
40
0
40
0.30460368861879
40
0.30460368861879
40
0.60920737723758
40
0.60920737723758
40
0.91381106585637
40
0.91381106585637
40
1
40
1
40
1
41
1
10
29.9999999999992
20
-10.5376658757751
30
0
41
1
10
26.5621927341109
20
-11.1901167592564
30
0
41
1
10
23.5136332034868
20
-12.6402451553695
30
0
41
1
10
20.359741661573
20
-14.1404775232294
30
0
41
1
10
17.8944856893469
20
-16.3555630729505
30
0
41
1
10
15.4457871628534
20
-18.5557714013219
30
0
41
1
10
13.8907288064491
20
-21.2674835064885
30
0
41
1
10
13.4709848006562
20
-21.9994334663676
30
0
41
1
10
13.1273338692087
20
-22.7506022104739
30
0
0
SPLINE
5
2E9
100
AcDbEntity
8
1
62
256
6
ByLayer
370
13
48
1
60
0
100
AcDbSpline
70
4
71
3
72
8
73
4
40
0
40
0
40
0
40
0
40
1
40
1
40
1
40
1
41
1
10
30
20
-18.4614326827401
30
0
41
1
10
29.7316876754134
20
-18.4614260897343
30
0
41
1
10
29.4637392215209
20
-18.467042198452
30
0
41
1
10
29.1961524897654
20
-18.4782478590029
30
0
0
SPLINE
5
2EA
100
AcDbEntity
8
1
62
256
6
ByLayer
370
13
48
1
60
0
100
AcDbSpline
70
4
71
3
72
10
73
6
40
0
40
0
40
0
40
0
40
0.5
40
0.5
40
1
40
1
40
1
40
1
41
1
10
278.344584077106
20
8.92245798037862
30
0
41
1
10
278.490229041598
20
8.92779308859545
30
0
41
1
10
278.634748292843
20
8.9278191065105
30
0
41
1
10
278.921452495296
20
8.91659136498203
30
0
41
1
10
279.061945869334
20
8.90535217296647
30
0
41
1
10
279.197821530188
20
8.88865916993572
30
0
0
SPLINE
5
2EB
100
AcDbEntity
8
1
62
256
6
ByLayer
370
13
48
1
60
0
100
AcDbSpline
70
4
71
3
72
10
73
6
40
0
40
0
40
0
40
0
40
0.5
40
0.5
40
1
40
1
40
1
40
1
41
1
10
275.360146454824
20
17.5046749422625
30
0
41
1
10
275.815133885201
20
16.6195412093858
30
0
41
1
10
276.31534241915
20
15.7639234409346
30
0
41
1
10
277.421891205383
20
14.1219604289265
30
0
41
1
10
278.028311521074
20
13.3356674430207
30
0
41
1
10
278.694796090023
20
12.5885785946172
30
0
0
SPLINE
5
2EC
100
AcDbEntity
8
1
62
256
6
ByLayer
370
13
48
1
60
0
100
AcDbSpline
70
4
71
3
72
8
73
4
40
0
40
0
40
0
40
0
40
1
40
1
40
1
40
1
41
1
10
278.344501947603
20
8.92247197697674
30
0
41
1
10
278.465272052951
20
10.1462641064088
30
0
41
1
10
278.582391625961
20
11.3682633202106
30
0
41
1
10
278.694821134947
20
12.5888504931787
30
0
0
SPLINE
5
2ED
100
AcDbEntity
8
1
62
256
6
ByLayer
370
13
48
1
60
0
100
AcDbSpline
70
4
71
3
72
20
73
16
40
0
40
0
40
0
40
0
40
0.125
40
0.125
40
0.25
40
0.25
40
0.5
40
0.5
40
0.625
40
0.625
40
0.75
40
0.75
40
0.875
40
0.875
40
1
40
1
40
1
40
1
41
1
10
298.519342062981
20
6.66442074403358
30
0
41
1
10
298.444299590249
20
6.67086674243711
30
0
41
1
10
298.370585639833
20
6.6808349445262
30
0
41
1
10
298.224826616208
20
6.70748332108408
30
0
41
1
10
298.152665586358
20
6.72424018373536
30
0
41
1
10
297.941662139287
20
6.78363531071733
30
0
41
1
10
297.806726867782
20
6.83544778261208
30
0
41
1
10
297.610390671618
20
6.93328523760817
30
0
41
1
10
297.545993907287
20
6.96928793231956
30
0
41
1
10
297.419173970383
20
7.0489607729599
30
0
41
1
10
297.357327490169
20
7.09232001994738
30
0
41
1
10
297.238627443634
20
7.1852555272647
30
0
41
1
10
297.181489344738
20
7.23500127138379
30
0
41
1
10
297.071846982409
20
7.34174022834159
30
0
41
1
10
297.019150969192
20
7.39903059075789
30
0
41
1
10
296.970195310145
20
7.45897738824456
30
0
0
SPLINE
5
2EE
100
AcDbEntity
8
1
62
256
6
ByLayer
370
13
48
1
60
0
100
AcDbSpline
70
4
71
3
72
16
73
12
40
0
40
0
40
0
40
0
40
0.249999999999999
40
0.249999999999999
40
0.374999999999992
40
0.374999999999992
40
0.499999999999985
40
0.499999999999985
40
0.749999999999992
40
0.749999999999992
40
1
40
1
40
1
40
1
41
1
10
298.414492235314
20
0.4390194377265
30
0
41
1
10
298.415768815785
20
0.488036627406899
30
0
41
1
10
298.417837811728
20
0.533273281967809
30
0
41
1
10
298.42205835305
20
0.593881451054358
30
0
41
1
10
298.423668488078
20
0.613013670152696
30
0
41
1
10
298.427173688636
20
0.64765756104805
30
0
41
1
10
298.429078306187
20
0.663345497148669
30
0
41
1
10
298.435250977847
20
0.705477533264059
30
0
41
1
10
298.439999802117
20
0.726810145432296
30
0
41
1
10
298.450104577769
20
0.752684547264579
30
0
41
1
10
298.455588173
20
0.757605460750995
30
0
41
1
10
298.461169064864
20
0.753742664834306
30
0
0
SPLINE
5
2EF
100
AcDbEntity
8
1
62
256
6
ByLayer
370
13
48
1
60
0
100
AcDbSpline
70
4
71
3
72
8
73
4
40
0
40
0
40
0
40
0
40
1
40
1
40
1
40
1
41
1
10
280.412560194403
20
-0.134474085396249
30
0
41
1
10
280.49569482395
20
-0.143794183853146
30
0
41
1
10
280.578813618384
20
-0.151798778348734
30
0
41
1
10
280.661916258396
20
-0.158488361605578
30
0
0
SPLINE
5
2F0
100
AcDbEntity
8
1
62
256
6
ByLayer
370
13
48
1
60
0
100
AcDbSpline
70
4
71
3
72
8
73
4
40
0
40
0
40
0
40
0
40
1
40
1
40
1
40
1
41
1
10
1.42E-14
20
4.42266887749923
30
0
41
1
10
0.0315947615411005
20
4.59876410270371
30
0
41
1
10
0.0649429983480019
20
4.77445351716128
30
0
41
1
10
0.0999999999999943
20
4.94974746830573
30
0
0
SPLINE
5
2F1
100
AcDbEntity
8
1
62
256
6
ByLayer
370
13
48
1
60
0
100
AcDbSpline
70
4
71
3
72
20
73
16
40
0
40
0
40
0
40
0
40
0.250000000000001
40
0.250000000000001
40
0.312500000000001
40
0.312500000000001
40
0.375000000000001
40
0.375000000000001
40
0.500000000000001
40
0.500000000000001
40
0.625000000000001
40
0.625000000000001
40
0.750000000000001
40
0.750000000000001
40
1
40
1
40
1
40
1
41
1
10
6.56503924499751
20
-18.1848071328326
30
0
41
1
10
6.40519567798266
20
-18.4449192554337
30
0
41
1
10
6.28372351078521
20
-18.70190282459
30
0
41
1
10
6.17979264198625
20
-19.0184317802034
30
0
41
1
10
6.16143569565023
20
-19.0815028127486
30
0
41
1
10
6.12972008685043
20
-19.2071558182472
30
0
41
1
10
6.11633086399694
20
-19.2699323304502
30
0
41
1
10
6.08421433969804
20
-19.4559652890989
30
0
41
1
10
6.0735056947243
20
-19.576520570366
30
0
41
1
10
6.07340101828089
20
-19.8108020861561
30
0
41
1
10
6.0839191308756
20
-19.9245407716988
30
0
41
1
10
6.1257346978999
20
-20.1452912389833
30
0
41
1
10
6.15714732185093
20
-20.252582655453
30
0
41
1
10
6.28245869193738
20
-20.5623964340255
30
0
41
1
10
6.40499610283469
20
-20.7486288518253
30
0
41
1
10
6.56503068259451
20
-20.9159834305481
30
0
0
SPLINE
5
2F2
100
AcDbEntity
8
1
62
256
6
ByLayer
370
13
48
1
60
0
100
AcDbSpline
70
4
71
3
72
24
73
20
40
0
40
0
40
0
40
0
40
0.0880407343546889
40
0.0880407343546889
40
0.176081468709378
40
0.176081468709378
40
0.352162937418756
40
0.352162937418756
40
0.440203671773446
40
0.440203671773446
40
0.528244406128136
40
0.528244406128136
40
0.704325874837513
40
0.704325874837513
40
0.792366609192202
40
0.792366609192202
40
0.880407343546891
40
0.880407343546891
40
1
40
1
40
1
40
1
41
1
10
30.01
20
-10.5324901451858
30
0
41
1
10
30.01
20
-10.4268306273539
30
0
41
1
10
30.01
20
-10.318542459287
30
0
41
1
10
30.01
20
-10.0966575878354
30
0
41
1
10
30.01
20
-9.98325212393499
30
0
41
1
10
30.01
20
-9.63990682883036
30
0
41
1
10
30.01
20
-9.40535761952992
30
0
41
1
10
30.01
20
-9.04509538623765
30
0
41
1
10
30.01
20
-8.92339478999611
30
0
41
1
10
30.01
20
-8.67791172267516
30
0
41
1
10
30.01
20
-8.55563886519155
30
0
41
1
10
30.01
20
-8.19016702458453
30
0
41
1
10
30.01
20
-7.94831210380241
30
0
41
1
10
30.01
20
-7.58825066577242
30
0
41
1
10
30.01
20
-7.46807428562255
30
0
41
1
10
30.01
20
-7.23268809701031
30
0
41
1
10
30.01
20
-7.11731480245408
30
0
41
1
10
30.01
20
-6.85050666157795
30
0
41
1
10
30.01
20
-6.7009572432701
30
0
41
1
10
30.01
20
-6.55561314518775
30
0
0
SPLINE
5
2F3
100
AcDbEntity
8
1
62
256
6
ByLayer
370
13
48
1
60
0
100
AcDbSpline
70
4
71
3
72
18
73
14
40
0
40
0
40
0
40
0
40
0.499999999999995
40
0.499999999999995
40
0.624999999999995
40
0.624999999999995
40
0.687499999999995
40
0.687499999999995
40
0.718749999999995
40
0.718749999999995
40
0.749999999999995
40
0.749999999999995
40
1
40
1
40
1
40
1
41
1
10
13.12712477642
20
-22.7510592668377
30
0
41
1
10
15.3878494452706
20
-22.2132974235197
30
0
41
1
10
17.6068156110251
20
-21.5692110094092
30
0
41
1
10
20.3266685428574
20
-20.6269791618726
30
0
41
1
10
20.8678510879045
20
-20.4316745735008
30
0
41
1
10
21.6758942172061
20
-20.1280328098166
30
0
41
1
10
21.9446148966114
20
-20.0250385084222
30
0
41
1
10
22.3467432894022
20
-19.8678421841196
30
0
41
1
10
22.4806659372239
20
-19.8151022579662
30
0
41
1
10
22.7499229361116
20
-19.713630773691
30
0
41
1
10
22.8850419848457
20
-19.6642878895074
30
0
41
1
10
24.1055235828201
20
-19.232724069133
30
0
41
1
10
25.221509710933
20
-18.9374552420662
30
0
41
1
10
26.3700514366143
20
-18.7346242676789
30
0
0
SPLINE
5
2F4
100
AcDbEntity
8
1
62
256
6
ByLayer
370
13
48
1
60
0
100
AcDbSpline
70
4
71
3
72
8
73
4
40
0
40
0
40
0
40
0
40
1
40
1
40
1
40
1
41
1
10
30.45
20
-17.8621945666608
30
0
41
1
10
30.3033333330582
20
-17.8622415808698
30
0
41
1
10
30.156666666387
20
-17.8622892194927
30
0
41
1
10
30.01
20
-17.862337488484
30
0
0
SPLINE
5
2F5
100
AcDbEntity
8
1
62
256
6
ByLayer
370
13
48
1
60
0
100
AcDbSpline
70
4
71
3
72
14
73
10
40
0
40
0
40
0
40
0
40
0.25
40
0.25
40
0.5
40
0.5
40
0.75
40
0.75
40
1
40
1
40
1
40
1
41
1
10
280.981817743258
20
8.66054924541032
30
0
41
1
10
280.979865233841
20
8.73862485033953
30
0
41
1
10
280.973651692354
20
8.81670088998033
30
0
41
1
10
280.951246934882
20
8.97285398718674
30
0
41
1
10
280.935115609374
20
9.05007505920216
30
0
41
1
10
280.892665894597
20
9.2004014170916
30
0
41
1
10
280.866300734998
20
9.27384493572669
30
0
41
1
10
280.802487646675
20
9.41702429251444
30
0
41
1
10
280.76482449894
20
9.48699261125887
30
0
41
1
10
280.722146029506
20
9.55361237191045
30
0
0
SPLINE
5
2F6
100
AcDbEntity
8
1
62
256
6
ByLayer
370
13
48
1
60
0
100
AcDbSpline
70
4
71
3
72
19
73
15
40
0
40
0
40
0
40
0
40
0.125000000000001
40
0.125000000000001
40
0.250000000000002
40
0.250000000000002
40
0.281250000000002
40
0.281250000000002
40
0.312500000000002
40
0.312500000000002
40
0.375000000000002
40
0.500000000000002
40
0.500000000000002
40
1
40
1
40
1
40
1
41
1
10
26.3693079092637
20
-7.27433099486362
30
0
41
1
10
25.8031697851391
20
-7.35965342128168
30
0
41
1
10
25.2418799994069
20
-7.46472215272019
30
0
41
1
10
24.1289859726474
20
-7.71430688692101
30
0
41
1
10
23.5760647422953
20
-7.85927363809736
30
0
41
1
10
22.8971916973686
20
-8.06368527576737
30
0
41
1
10
22.7619889463908
20
-8.10573275266984
30
0
41
1
10
22.4927242663774
20
-8.19215210859528
30
0
41
1
10
22.3589059656161
20
-8.23702037540372
30
0
41
1
10
21.9571870943688
20
-8.37108734429208
30
0
41
1
10
21.1515378791888
20
-8.63471545025652
30
0
41
1
10
20.3393267452296
20
-8.88497377662495
30
0
41
1
10
17.6176198237047
20
-9.68995791389455
30
0
41
1
10
15.3946022731797
20
-10.2409301504463
30
0
41
1
10
13.1270409241486
20
-10.7011452794458
30
0
0
SPLINE
5
2F7
100
AcDbEntity
8
1
62
256
6
ByLayer
370
13
48
1
60
0
100
AcDbSpline
70
4
71
3
72
8
73
4
40
0
40
0
40
0
40
0
40
1
40
1
40
1
40
1
41
1
10
0.0999999999999801
20
-4.94974746830573
30
0
41
1
10
0.0649210758567591
20
-4.77434389911281
30
0
41
1
10
0.0315748582919468
20
-4.59865317079695
30
0
41
1
10
0
20
-4.42266887749926
30
0
0
SPLINE
5
2F8
100
AcDbEntity
8
1
62
256
6
ByLayer
370
13
48
1
60
0
100
AcDbSpline
70
4
71
3
72
12
73
8
40
0
40
0
40
0
40
0
40
0.25000000000002
40
0.25000000000002
40
0.50000000000004
40
0.50000000000004
40
1
40
1
40
1
40
1
41
1
10
279.468253403196
20
8.8527054471852
30
0
41
1
10
279.601524253481
20
8.81497936279973
30
0
41
1
10
279.732365923344
20
8.78414044951816
30
0
41
1
10
279.990985594341
20
8.73432844701941
30
0
41
1
10
280.119043691929
20
8.71520330845084
30
0
41
1
10
280.498219177285
20
8.67160376967152
30
0
41
1
10
280.742246806436
20
8.66055169390643
30
0
41
1
10
280.981817743254
20
8.66054924541001
30
0
0
SPLINE
5
2F9
100
AcDbEntity
8
1
62
256
6
ByLayer
370
13
48
1
60
0
100
AcDbSpline
70
4
71
3
72
8
73
4
40
0
40
0
40
0
40
0
40
1
40
1
40
1
40
1
41
1
10
275.360146454825
20
17.5046749422657
30
0
41
1
10
275.474665606811
20
17.6955902818668
30
0
41
1
10
275.587455843139
20
17.8875501592122
30
0
41
1
10
275.698614326906
20
18.0804958724662
30
0
0
SPLINE
5
2FA
100
AcDbEntity
8
1
62
256
6
ByLayer
370
13
48
1
60
0
100
AcDbSpline
70
4
71
3
72
20
73
16
40
0
40
0
40
0
40
0
40
0.302846850624739
40
0.302846850624739
40
0.605693701249478
40
0.605693701249478
40
0.681405413905641
40
0.681405413905641
40
0.757117126561804
40
0.757117126561804
40
0.908540551874129
40
0.908540551874129
40
0.984252264530278
40
0.984252264530278
40
1
40
1
40
1
40
1
41
1
10
272.027939802949
20
6.96749227243629
30
0
41
1
10
271.495045835453
20
6.92515178649109
30
0
41
1
10
270.966532762445
20
6.86227740164708
30
0
41
1
10
269.918971264116
20
6.69492465582596
30
0
41
1
10
269.399885435586
20
6.59060347257855
30
0
41
1
10
268.758151166387
20
6.43057410921787
30
0
41
1
10
268.630155213097
20
6.3970495103884
30
0
41
1
10
268.377763822627
20
6.32760743591442
30
0
41
1
10
268.253020447091
20
6.2916065371389
30
0
41
1
10
267.883351349146
20
6.17965031376588
30
0
41
1
10
267.642955481549
20
6.09977711664135
30
0
41
1
10
267.292697107841
20
5.97114394409411
30
0
41
1
10
267.177673611537
20
5.92678792235964
30
0
41
1
10
267.041010818105
20
5.87124382376743
30
0
41
1
10
267.01755671705
20
5.86160674700989
30
0
41
1
10
266.994195861436
20
5.85190148684879
30
0
0
SPLINE
5
2FB
100
AcDbEntity
8
1
62
256
6
ByLayer
370
13
48
1
60
0
100
AcDbSpline
70
4
71
3
72
14
73
10
40
0
40
0
40
0
40
0
40
0.500000000000003
40
0.500000000000003
40
0.625000000000002
40
0.625000000000002
40
0.750000000000002
40
0.750000000000002
40
1
40
1
40
1
40
1
41
1
10
29.1961524897653
20
-18.4782478590029
30
0
41
1
10
28.701244274556
20
-18.4989730026865
30
0
41
1
10
28.2165322844248
20
-18.5334230970456
30
0
41
1
10
27.6228494853689
20
-18.589672563894
30
0
41
1
10
27.5047310183529
20
-18.6015631563187
30
0
41
1
10
27.2697481298022
20
-18.6264445468226
30
0
41
1
10
27.1526164324535
20
-18.6394694963935
30
0
41
1
10
26.8078242583152
20
-18.6793006048491
30
0
41
1
10
26.5853442308528
20
-18.7070138587857
30
0
41
1
10
26.3700514366143
20
-18.7346242676789
30
0
0
SPLINE
5
2FC
100
AcDbEntity
8
1
62
256
6
ByLayer
370
13
48
1
60
0
100
AcDbSpline
70
4
71
3
72
14
73
10
40
0
40
0
40
0
40
0
40
0.500000000000018
40
0.500000000000018
40
0.625000000000014
40
0.625000000000014
40
0.750000000000009
40
0.750000000000009
40
1
40
1
40
1
40
1
41
1
10
276.333187380583
20
1.23967731528529
30
0
41
1
10
276.944656247559
20
0.84136758417776
30
0
41
1
10
277.591496465645
20
0.522251115585334
30
0
41
1
10
278.447324397921
20
0.229841260530605
30
0
41
1
10
278.620879934271
20
0.176741357719635
30
0
41
1
10
278.972974245866
20
0.0817750231566663
30
0
41
1
10
279.151027254865
20
0.0400762322498736
30
0
41
1
10
279.686737109139
20
-0.0663862111103413
30
0
41
1
10
280.047669960094
20
-0.113091041654059
30
0
41
1
10
280.412560194403
20
-0.134474085396249
30
0
0
SPLINE
5
2FD
100
AcDbEntity
8
1
62
256
6
ByLayer
370
13
48
1
60
0
100
AcDbSpline
70
4
71
3
72
8
73
4
40
0
40
0
40
0
40
0
40
1
40
1
40
1
40
1
41
1
10
284.984982986136
20
13.3508573428785
30
0
41
1
10
284.971838664414
20
13.322319691636
30
0
41
1
10
284.9568293175
20
13.2963406704145
30
0
41
1
10
284.940780711297
20
13.2728519021657
30
0
0
SPLINE
5
2FE
100
AcDbEntity
8
1
62
256
6
ByLayer
370
13
48
1
60
0
100
AcDbSpline
70
2053
71
3
72
93
73
89
40
0
40
0
40
0
40
0
40
0.0312499999999883
40
0.0312499999999883
40
0.0468749999999894
40
0.0468749999999894
40
0.0624999999999904
40
0.0624999999999904
40
0.0937499999999797
40
0.0937499999999797
40
0.10937499999998
40
0.10937499999998
40
0.12499999999998
40
0.12499999999998
40
0.156249999999991
40
0.156249999999991
40
0.187500000000001
40
0.187500000000001
40
0.203125000000008
40
0.203125000000008
40
0.218750000000016
40
0.218750000000016
40
0.250000000000031
40
0.250000000000031
40
0.281250000000046
40
0.281250000000046
40
0.312500000000061
40
0.312500000000061
40
0.328125000000069
40
0.328125000000069
40
0.343750000000076
40
0.343750000000076
40
0.375000000000084
40
0.375000000000084
40
0.406250000000091
40
0.406250000000091
40
0.421875000000101
40
0.421875000000101
40
0.43750000000011
40
0.43750000000011
40
0.468750000000129
40
0.468750000000129
40
0.484375000000139
40
0.484375000000139
40
0.500000000000148
40
0.500000000000148
40
0.531250000000153
40
0.531250000000153
40
0.546875000000156
40
0.546875000000156
40
0.562500000000159
40
0.578125000000161
40
0.578125000000161
40
0.593750000000164
40
0.593750000000164
40
0.625000000000158
40
0.625000000000158
40
0.640625000000154
40
0.640625000000154
40
0.656250000000151
40
0.656250000000151
40
0.687500000000137
40
0.687500000000137
40
0.718750000000123
40
0.718750000000123
40
0.734375000000114
40
0.734375000000114
40
0.750000000000106
40
0.750000000000106
40
0.781250000000089
40
0.781250000000089
40
0.796875000000081
40
0.796875000000081
40
0.812500000000073
40
0.812500000000073
40
0.843750000000056
40
0.843750000000056
40
0.87500000000004
40
0.87500000000004
40
0.906250000000023
40
0.906250000000023
40
0.921875000000015
40
0.921875000000015
40
0.937500000000007
40
0.937500000000007
40
0.968750000000004
40
0.968750000000004
40
1
40
1
40
1
40
1
41
1
10
293.06404310808
20
-1.89795908706358
30
0
41
1
10
293.189266317772
20
-1.89795908706358
30
0
41
1
10
293.312299885098
20
-1.91071962878303
30
0
41
1
10
293.493701995897
20
-1.94819537342565
30
0
41
1
10
293.553640495447
20
-1.96376713756513
30
0
41
1
10
293.672432828962
20
-2.00122216739635
30
0
41
1
10
293.73119935493
20
-2.02312662895173
30
0
41
1
10
293.901843714389
20
-2.09678802181881
30
0
41
1
10
294.009507266654
20
-2.15681474926922
30
0
41
1
10
294.161897161581
20
-2.26309934690551
30
0
41
1
10
294.211413968443
20
-2.30149099850146
30
0
41
1
10
294.305479520438
20
-2.38233296706937
30
0
41
1
10
294.350160865286
20
-2.42482966591643
30
0
41
1
10
294.477358379883
20
-2.55834430651669
30
0
41
1
10
294.55326441345
20
-2.65560723515773
30
0
41
1
10
294.685760102593
20
-2.86525657629454
30
0
41
1
10
294.740598303822
20
-2.97474542782544
30
0
41
1
10
294.806694545588
20
-3.14551096640096
30
0
41
1
10
294.826013320449
20
-3.20352986596802
30
0
41
1
10
294.859155330794
20
-3.32177981174883
30
0
41
1
10
294.872917962498
20
-3.38193361342925
30
0
41
1
10
294.905216361556
20
-3.56198017196991
30
0
41
1
10
294.915212594936
20
-3.682674215676
30
0
41
1
10
294.912658485205
20
-3.92532620536446
30
0
41
1
10
294.899784961729
20
-4.04762110985223
30
0
41
1
10
294.852430430906
20
-4.28397131103401
30
0
41
1
10
294.81802988768
20
-4.39925990763609
30
0
41
1
10
294.749999681401
20
-4.56783308701745
30
0
41
1
10
294.724490026347
20
-4.6233675687252
30
0
41
1
10
294.668926633068
20
-4.7307240578682
30
0
41
1
10
294.638769947673
20
-4.78283570676069
30
0
41
1
10
294.541233932446
20
-4.93453997777644
30
0
41
1
10
294.466865503979
20
-5.02955034976515
30
0
41
1
10
294.298030275663
20
-5.20659125344457
30
0
41
1
10
294.205797813356
20
-5.28615854066229
30
0
41
1
10
294.057060908575
20
-5.39104718336745
30
0
41
1
10
294.005670292302
20
-5.42365367159201
30
0
41
1
10
293.899115376602
20
-5.48398457020997
30
0
41
1
10
293.843606555065
20
-5.51185392040438
30
0
41
1
10
293.673674653662
20
-5.58650313939498
30
0
41
1
10
293.556809472768
20
-5.62419340518477
30
0
41
1
10
293.376118688804
20
-5.66263385299783
30
0
41
1
10
293.314983334031
20
-5.67240980214828
30
0
41
1
10
293.190815915389
20
-5.68560652728851
30
0
41
1
10
293.128303667324
20
-5.68893615591691
30
0
41
1
10
292.942487608884
20
-5.68917770206031
30
0
41
1
10
292.81967791738
20
-5.6765781227424
30
0
41
1
10
292.637072766117
20
-5.63840405953172
30
0
41
1
10
292.576511279622
20
-5.62239858623081
30
0
41
1
10
292.458808523862
20
-5.58473158995008
30
0
41
1
10
292.343768549248
20
-5.54127451535334
30
0
41
1
10
292.233887735094
20
-5.48655910554132
30
0
41
1
10
292.126580213099
20
-5.42620384791795
30
0
41
1
10
292.07411973327
20
-5.39309870409699
30
0
41
1
10
291.923831502924
20
-5.28749820360142
30
0
41
1
10
291.831877243886
20
-5.20820709156436
30
0
41
1
10
291.705743614037
20
-5.07637856072554
30
0
41
1
10
291.665502309833
20
-5.03002473840425
30
0
41
1
10
291.590249851695
20
-4.93443827762454
30
0
41
1
10
291.555165846057
20
-4.88517964161491
30
0
41
1
10
291.457264504092
20
-4.73313362788568
30
0
41
1
10
291.401727950037
20
-4.62611590502084
30
0
41
1
10
291.31041717671
20
-4.40044838872177
30
0
41
1
10
291.2758212962
20
-4.28455628499543
30
0
41
1
10
291.240282494355
20
-4.10753983197463
30
0
41
1
10
291.231153258771
20
-4.04793006805133
30
0
41
1
10
291.218435420854
20
-3.92747340391625
30
0
41
1
10
291.214848354829
20
-3.86632087252005
30
0
41
1
10
291.212798119984
20
-3.68329864421179
30
0
41
1
10
291.222841509203
20
-3.56259167823785
30
0
41
1
10
291.254847885367
20
-3.38349628023667
30
0
41
1
10
291.268359055358
20
-3.32412785953235
30
0
41
1
10
291.3012743246
20
-3.20608390193326
30
0
41
1
10
291.320784334438
20
-3.14721479461818
30
0
41
1
10
291.387088545612
20
-2.97551264042994
30
0
41
1
10
291.441829473077
20
-2.86636082984333
30
0
41
1
10
291.572560431713
20
-2.65887365292718
30
0
41
1
10
291.649550174373
20
-2.55973233336957
30
0
41
1
10
291.819333369582
20
-2.38121521235021
30
0
41
1
10
291.912450674737
20
-2.30088148306956
30
0
41
1
10
292.064785107056
20
-2.19418880118099
30
0
41
1
10
292.117967771602
20
-2.16081456856355
30
0
41
1
10
292.226373810659
20
-2.10024356852802
30
0
41
1
10
292.281788199284
20
-2.07287617135705
30
0
41
1
10
292.451599216242
20
-1.99938121854495
30
0
41
1
10
292.569918333505
20
-1.96169051202429
30
0
41
1
10
292.814873670287
20
-1.91073451844102
30
0
41
1
10
292.938819898387
20
-1.89795908706358
30
0
41
1
10
293.06404310808
20
-1.89795908706358
30
0
0
SPLINE
5
2FF
100
AcDbEntity
8
1
62
256
6
ByLayer
370
13
48
1
60
0
100
AcDbSpline
70
4
71
3
72
10
73
6
40
0
40
0
40
0
40
0
40
0.5
40
0.5
40
1
40
1
40
1
40
1
41
1
10
294.838371678002
20
7.51414863686057
30
0
41
1
10
294.865504477443
20
7.52737795825175
30
0
41
1
10
294.895138014091
20
7.53835470549592
30
0
41
1
10
294.956545785626
20
7.5541524068361
30
0
41
1
10
294.988306093764
20
7.55907637570971
30
0
41
1
10
295.021123485437
20
7.56081408153057
30
0
0
SPLINE
5
300
100
AcDbEntity
8
1
62
256
6
ByLayer
370
13
48
1
60
0
100
AcDbSpline
70
4
71
3
72
8
73
4
40
0
40
0
40
0
40
0
40
1
40
1
40
1
40
1
41
1
10
30
20
-6.56260047784065
30
0
41
1
10
29.7316839297505
20
-6.56265596489396
30
0
41
1
10
29.46373548376
20
-6.56291361816622
30
0
41
1
10
29.1961524606463
20
-6.56337238955575
30
0
0
SPLINE
5
301
100
AcDbEntity
8
1
62
256
6
ByLayer
370
13
48
1
60
0
100
AcDbSpline
70
4
71
3
72
8
73
4
40
0
40
0
40
0
40
0
40
1
40
1
40
1
40
1
41
1
10
275.909064679178
20
2.03918195996272
30
0
41
1
10
275.823106292575
20
2.08050992145559
30
0
41
1
10
275.737170591676
20
2.12193403218546
30
0
41
1
10
275.651257450427
20
2.16345375788694
30
0
0
SPLINE
5
302
100
AcDbEntity
8
1
62
256
6
ByLayer
370
13
48
1
60
0
100
AcDbSpline
70
4
71
3
72
8
73
4
40
0
40
0
40
0
40
0
40
1
40
1
40
1
40
1
41
1
10
298.410328371667
20
0.476142557598479
30
0
41
1
10
298.533132505483
20
0.499202857607287
30
0
41
1
10
298.655168415953
20
0.510431195153814
30
0
41
1
10
298.777498657317
20
0.511536775968864
30
0
0
SPLINE
5
303
100
AcDbEntity
8
1
62
256
6
ByLayer
370
13
48
1
60
0
100
AcDbSpline
70
4
71
3
72
16
73
12
40
0
40
0
40
0
40
0
40
0.249999999999998
40
0.249999999999998
40
0.499999999999995
40
0.499999999999995
40
0.624999999999996
40
0.624999999999996
40
0.749999999999996
40
0.749999999999996
40
1
40
1
40
1
40
1
41
1
10
29.1961524876503
20
-17.8761689428245
30
0
41
1
10
28.9389620982439
20
-17.8762537049649
30
0
41
1
10
28.6861639566594
20
-17.8962871975172
30
0
41
1
10
28.1887085789718
20
-17.9733285828387
30
0
41
1
10
27.9440548288788
20
-18.0303523083804
30
0
41
1
10
27.5830237397538
20
-18.1429095254498
30
0
41
1
10
27.4641737164398
20
-18.1848326167117
30
0
41
1
10
27.2325148008447
20
-18.2758286138427
30
0
41
1
10
27.1192070688679
20
-18.3250523481449
30
0
41
1
10
26.786375313021
20
-18.4832008327318
30
0
41
1
10
26.5739136468238
20
-18.6025598967515
30
0
41
1
10
26.3700514366143
20
-18.7346242676789
30
0
0
SPLINE
5
304
100
AcDbEntity
8
1
62
256
6
ByLayer
370
13
48
1
60
0
100
AcDbSpline
70
4
71
3
72
38
73
34
40
0
40
0
40
0
40
0
40
0.0061815553670744
40
0.0061815553670744
40
0.0260579242597329
40
0.0260579242597329
40
0.0459342931523914
40
0.0459342931523914
40
0.0658106620450499
40
0.0658106620450499
40
0.0856870309377084
40
0.0856870309377084
40
0.105563399830367
40
0.105563399830367
40
0.125439768723025
40
0.125439768723025
40
0.145316137615684
40
0.145316137615684
40
0.165192506508342
40
0.165192506508342
40
0.204945244293659
40
0.204945244293659
40
0.284450719864293
40
0.284450719864293
40
0.363956195434927
40
0.363956195434927
40
0.443461671005561
40
0.443461671005561
40
0.522967146576195
40
0.522967146576195
40
0.681978097717463
40
0.681978097717463
40
1
40
1
40
1
40
1
41
1
10
224.161721411008
20
-9.71533928643774
30
0
41
1
10
223.769855832597
20
-9.7432400013187
30
0
41
1
10
223.377846767348
20
-9.77038708851316
30
0
41
1
10
221.724754347871
20
-9.88177491678761
30
0
41
1
10
220.462353537399
20
-9.95937559824375
30
0
41
1
10
217.934512232732
20
-10.1005324683369
30
0
41
1
10
216.669042350298
20
-10.163802609111
30
0
41
1
10
214.134467407569
20
-10.27371751232
30
0
41
1
10
212.865340297548
20
-10.3202178292696
30
0
41
1
10
210.322919040961
20
-10.3951176439694
30
0
41
1
10
209.04965350066
20
-10.4237732229584
30
0
41
1
10
206.499436490916
20
-10.4682902518436
30
0
41
1
10
205.222517691271
20
-10.4843926124515
30
0
41
1
10
202.66560048515
20
-10.5092294630923
30
0
41
1
10
201.385611123672
20
-10.5176815416153
30
0
41
1
10
198.821748203224
20
-10.5289336116101
30
0
41
1
10
197.537680901952
20
-10.5319458042673
30
0
41
1
10
194.967956563511
20
-10.5333155051431
30
0
41
1
10
193.682544529651
20
-10.5320005816284
30
0
41
1
10
189.826657063466
20
-10.5313372167151
30
0
41
1
10
187.256065629959
20
-10.5321746657137
30
0
41
1
10
179.544291822852
20
-10.532692259474
30
0
41
1
10
174.403109873975
20
-10.5328665053426
30
0
41
1
10
164.120745577687
20
-10.5333489457121
30
0
41
1
10
158.979563184729
20
-10.5328192619869
30
0
41
1
10
148.697198155724
20
-10.5317372282204
30
0
41
1
10
143.556015527348
20
-10.5312336717239
30
0
41
1
10
133.273650319919
20
-10.5315401947942
30
0
41
1
10
128.132467730183
20
-10.5321558365707
30
0
41
1
10
112.708920042099
20
-10.5331725145338
30
0
41
1
10
102.426555014174
20
-10.5331410334924
30
0
41
1
10
71.5794600153348
20
-10.5325489533787
30
0
41
1
10
51.0147300784877
20
-10.5313530991879
30
0
41
1
10
30.45
20
-10.5324901451858
30
0
0
SPLINE
5
305
100
AcDbEntity
8
1
62
256
6
ByLayer
370
13
48
1
60
0
100
AcDbSpline
70
4
71
3
72
20
73
16
40
0
40
0
40
0
40
0
40
0.249999999999988
40
0.249999999999988
40
0.37499999999999
40
0.37499999999999
40
0.499999999999992
40
0.499999999999992
40
0.624999999999994
40
0.624999999999994
40
0.749999999999996
40
0.749999999999996
40
0.874999999999998
40
0.874999999999998
40
1
40
1
40
1
40
1
41
1
10
277.748941935755
20
6.8192875444343
30
0
41
1
10
277.792451883208
20
6.95330550291888
30
0
41
1
10
277.831843161153
20
7.10092081856075
30
0
41
1
10
277.888834051023
20
7.34205711128342
30
0
41
1
10
277.907404106296
20
7.42579686656586
30
0
41
1
10
277.94297458521
20
7.59486826421937
30
0
41
1
10
277.960120703326
20
7.68081724911272
30
0
41
1
10
277.993525090579
20
7.85546495792357
30
0
41
1
10
278.009872088513
20
7.94470368963118
30
0
41
1
10
278.041696115629
20
8.12344420982757
30
0
41
1
10
278.057028324272
20
8.21212919583081
30
0
41
1
10
278.087360971032
20
8.38802202913504
30
0
41
1
10
278.102328324726
20
8.4752360469684
30
0
41
1
10
278.133457408444
20
8.64786445109067
30
0
41
1
10
278.14948708183
20
8.73327516180217
30
0
41
1
10
278.167860891922
20
8.81523036006971
30
0
0
SPLINE
5
306
100
AcDbEntity
8
1
62
256
6
ByLayer
370
13
48
1
60
0
100
AcDbSpline
70
4
71
1
72
4
73
2
40
0
40
0
40
1
40
1
41
1
10
30.01
20
-17.8716644953622
30
0
41
1
10
30.01
20
-10.5376658757752
30
0
0
SPLINE
5
307
100
AcDbEntity
8
1
62
256
6
ByLayer
370
13
48
1
60
0
100
AcDbSpline
70
4
71
3
72
14
73
10
40
0
40
0
40
0
40
0
40
0.25
40
0.25
40
0.5
40
0.5
40
0.75
40
0.75
40
1
40
1
40
1
40
1
41
1
10
276.065989229446
20
6.87730039044175
30
0
41
1
10
275.735508001328
20
6.92055186885716
30
0
41
1
10
275.403752447075
20
6.95659658622824
30
0
41
1
10
274.737381997642
20
7.01027412500184
30
0
41
1
10
274.40276522197
20
7.02784486074458
30
0
41
1
10
273.730272593576
20
7.04266299018963
30
0
41
1
10
273.392392579368
20
7.03987342058235
30
0
41
1
10
272.71297674715
20
7.01592114888561
30
0
41
1
10
272.371436690691
20
6.99478442816493
30
0
41
1
10
272.027939802931
20
6.96749227243478
30
0
0
SPLINE
5
308
100
AcDbEntity
8
1
62
256
6
ByLayer
370
13
48
1
60
0
100
AcDbSpline
70
4
71
3
72
10
73
6
40
0
40
0
40
0
40
0
40
0.5
40
0.5
40
1
40
1
40
1
40
1
41
1
10
281.393692253803
20
6.73540889736955
30
0
41
1
10
281.498953829873
20
6.67800185720731
30
0
41
1
10
281.606344399689
20
6.62643661225121
30
0
41
1
10
281.825697263995
20
6.53525592194453
30
0
41
1
10
281.938286055021
20
6.49546789103124
30
0
41
1
10
282.051791138256
20
6.46287540868619
30
0
0
SPLINE
5
309
100
AcDbEntity
8
1
62
256
6
ByLayer
370
13
48
1
60
0
100
AcDbSpline
70
4
71
3
72
10
73
6
40
0
40
0
40
0
40
0
40
0.5
40
0.5
40
1
40
1
40
1
40
1
41
1
10
297.629332192884
20
-3.12959295970757
30
0
41
1
10
297.683128089526
20
-3.42364636967804
30
0
41
1
10
297.715929183628
20
-3.71706392245844
30
0
41
1
10
297.742255594417
20
-4.30246211566595
30
0
41
1
10
297.735772174301
20
-4.59444337526921
30
0
41
1
10
297.709755629363
20
-4.88566850610403
30
0
0
SPLINE
5
30A
100
AcDbEntity
8
1
62
256
6
ByLayer
370
13
48
1
60
0
100
AcDbSpline
70
4
71
3
72
18
73
14
40
0
40
0
40
0
40
0
40
0.250000000000022
40
0.250000000000022
40
0.375000000000033
40
0.375000000000033
40
0.500000000000045
40
0.500000000000045
40
0.750000000000068
40
0.750000000000068
40
0.875000000000034
40
0.875000000000034
40
1
40
1
40
1
40
1
41
1
10
296.512931960636
20
7.63899648721562
30
0
41
1
10
296.570308303245
20
7.64200345391515
30
0
41
1
10
296.62806512792
20
7.63482887433861
30
0
41
1
10
296.709363428524
20
7.61145271654769
30
0
41
1
10
296.735245900463
20
7.60168150938909
30
0
41
1
10
296.783393433411
20
7.5797370930803
30
0
41
1
10
296.806047914976
20
7.56734582231954
30
0
41
1
10
296.866036333461
20
7.53042163281771
30
0
41
1
10
296.896856556676
20
7.50555367565099
30
0
41
1
10
296.929067329257
20
7.479913982857
30
0
41
1
10
296.937739973856
20
7.47308845003556
30
0
41
1
10
296.950822972479
20
7.4641519872435
30
0
41
1
10
296.955380098791
20
7.46190974238459
30
0
41
1
10
296.958040787422
20
7.46204918316713
30
0
0
SPLINE
5
30B
100
AcDbEntity
8
1
62
256
6
ByLayer
370
13
48
1
60
0
100
AcDbSpline
70
4
71
3
72
10
73
6
40
0
40
0
40
0
40
0
40
0.5
40
0.5
40
1
40
1
40
1
40
1
41
1
10
290.646207417296
20
7.33153448223382
30
0
41
1
10
290.679079927407
20
7.33325725748819
30
0
41
1
10
290.712355978378
20
7.33165817666037
30
0
41
1
10
290.776976510677
20
7.32238035789393
30
0
41
1
10
290.808353512457
20
7.3147736914913
30
0
41
1
10
290.838762199696
20
7.30453798610307
30
0
0
SPLINE
5
30C
100
AcDbEntity
8
1
62
256
6
ByLayer
370
13
48
1
60
0
100
AcDbSpline
70
4
71
3
72
16
73
12
40
0
40
0
40
0
40
0
40
0.182815691768767
40
0.182815691768767
40
0.455210461179178
40
0.455210461179178
40
0.591407845884384
40
0.591407845884384
40
0.727605230589589
40
0.727605230589589
40
1
40
1
40
1
40
1
41
1
10
12.911989707966
20
-10.7565951430176
30
0
41
1
10
12.3406531185958
20
-11.276541892183
30
0
41
1
10
11.802532559623
20
-11.8170848951573
30
0
41
1
10
10.5415607029622
20
-13.2121779537735
30
0
41
1
10
9.85722076955288
20
-14.0905331648614
30
0
41
1
10
8.94089867528791
20
-15.4756120111951
30
0
41
1
10
8.653554214704
20
-15.9500259878941
30
0
41
1
10
8.12430223188349
20
-16.9097324720736
30
0
41
1
10
7.88121559061949
20
-17.3961128075001
30
0
41
1
10
7.21333519585154
20
-18.8736846549323
30
0
41
1
10
6.8492895674888
20
-19.8831296702434
30
0
41
1
10
6.5650306825945
20
-20.9159834305482
30
0
0
SPLINE
5
30D
100
AcDbEntity
8
1
62
256
6
ByLayer
370
13
48
1
60
0
100
AcDbSpline
70
4
71
3
72
12
73
8
40
0
40
0
40
0
40
0
40
0.383220482350784
40
0.383220482350784
40
0.766440964701569
40
0.766440964701569
40
1
40
1
40
1
40
1
41
1
10
284.940780711297
20
13.2728519021657
30
0
41
1
10
284.920747746211
20
13.2435316192511
30
0
41
1
10
284.902161264429
20
13.2144376072228
30
0
41
1
10
284.868032405932
20
13.1573412268865
30
0
41
1
10
284.852509959737
20
13.1293474655913
30
0
41
1
10
284.830988926878
20
13.0873334889824
30
0
41
1
10
284.823522171991
20
13.0718818568019
30
0
41
1
10
284.817204555408
20
13.0578665473287
30
0
0
SPLINE
5
30E
100
AcDbEntity
8
1
62
256
6
ByLayer
370
13
48
1
60
0
100
AcDbSpline
70
4
71
3
72
12
73
8
40
0
40
0
40
0
40
0
40
0.144013504239257
40
0.144013504239257
40
0.572006752119629
40
0.572006752119629
40
1
40
1
40
1
40
1
41
1
10
260.343596735004
20
8.49828076128389
30
0
41
1
10
261.199152734734
20
8.55388479656648
30
0
41
1
10
262.054596999089
20
8.60387108488095
30
0
41
1
10
265.451921417534
20
8.77953907156535
30
0
41
1
10
267.993514889582
20
8.86031737026966
30
0
41
1
10
273.080395998152
20
8.91688256307603
30
0
41
1
10
275.623864635881
20
8.89259194586279
30
0
41
1
10
278.167860891922
20
8.81523036006979
30
0
0
SPLINE
5
30F
100
AcDbEntity
8
1
62
256
6
ByLayer
370
13
48
1
60
0
100
AcDbSpline
70
4
71
3
72
8
73
4
40
0
40
0
40
0
40
0
40
1
40
1
40
1
40
1
41
1
10
274.518050632324
20
2.45534865054216
30
0
41
1
10
274.897620049412
20
2.3496593935908
30
0
41
1
10
275.275451532547
20
2.25192239170158
30
0
41
1
10
275.651257450427
20
2.16345375788697
30
0
0
SPLINE
5
310
100
AcDbEntity
8
1
62
256
6
ByLayer
370
13
48
1
60
0
100
AcDbSpline
70
4
71
3
72
38
73
34
40
0
40
0
40
0
40
0
40
0.125
40
0.125
40
0.1875
40
0.1875
40
0.21875
40
0.21875
40
0.25
40
0.25
40
0.375
40
0.375
40
0.4375
40
0.4375
40
0.46875
40
0.46875
40
0.5
40
0.5
40
0.562499999999999
40
0.562499999999999
40
0.624999999999999
40
0.624999999999999
40
0.75
40
0.75
40
0.78125
40
0.78125
40
0.8125
40
0.8125
40
0.875
40
0.875
40
0.9375
40
0.9375
40
1
40
1
40
1
40
1
41
1
10
13.1289481669544
20
-10.7007581694658
30
0
41
1
10
12.6174647961549
20
-10.8045806592376
30
0
41
1
10
12.1167169724512
20
-10.9466434021986
30
0
41
1
10
11.3806934450814
20
-11.2140855815861
30
0
41
1
10
11.1378867220224
20
-11.3123598056415
30
0
41
1
10
10.7775132890415
20
-11.473702342973
30
0
41
1
10
10.6580293637583
20
-11.5298093594631
30
0
41
1
10
10.420362704011
20
-11.6467715334953
30
0
41
1
10
10.3023623050725
20
-11.7075484174526
30
0
41
1
10
9.72222501538045
20
-12.0199342294831
30
0
41
1
10
9.28431334529728
20
-12.2992936228916
30
0
41
1
10
8.66822324861418
20
-12.7632929220177
30
0
41
1
10
8.46968260415113
20
-12.9254783614882
30
0
41
1
10
8.18286709752526
20
-13.1807457799245
30
0
41
1
10
8.08887977495937
20
-13.2680878467428
30
0
41
1
10
7.9071144467601
20
-13.4447432073392
30
0
41
1
10
7.81908324202992
20
-13.5342522052558
30
0
41
1
10
7.56359934895798
20
-13.8062940621525
30
0
41
1
10
7.40471758812727
20
-13.9923254990336
30
0
41
1
10
7.11099104493327
20
-14.3739424830805
30
0
41
1
10
6.97586327109791
20
-14.5699662521466
30
0
41
1
10
6.61204532430165
20
-15.1707926414696
30
0
41
1
10
6.4340720912184
20
-15.5723821813765
30
0
41
1
10
6.29638291714305
20
-16.0746916567905
30
0
41
1
10
6.27315328566587
20
-16.1751738328254
30
0
41
1
10
6.23577668500056
20
-16.3761789371033
30
0
41
1
10
6.22168392076968
20
-16.4767515521417
30
0
41
1
10
6.19424317030199
20
-16.7725929526666
30
0
41
1
10
6.19538626327665
20
-16.9639818591895
30
0
41
1
10
6.23587190582606
20
-17.3353411950649
30
0
41
1
10
6.2750579281694
20
-17.5153343403192
30
0
41
1
10
6.39251193795576
20
-17.8637451422784
30
0
41
1
10
6.46976940184724
20
-18.0289772744211
30
0
41
1
10
6.56503924499751
20
-18.1848071328326
30
0
0
SPLINE
5
311
100
AcDbEntity
8
1
62
256
6
ByLayer
370
13
48
1
60
0
100
AcDbSpline
70
4
71
3
72
8
73
4
40
0
40
0
40
0
40
0
40
1
40
1
40
1
40
1
41
1
10
282.051791138256
20
6.46287540868622
30
0
41
1
10
282.594923901518
20
6.30691723929786
30
0
41
1
10
283.128189721777
20
6.15460731505462
30
0
41
1
10
283.650547627472
20
6.0063305291732
30
0
0
SPLINE
5
312
100
AcDbEntity
8
1
62
256
6
ByLayer
370
13
48
1
60
0
100
AcDbSpline
70
4
71
3
72
22
73
18
40
0
40
0
40
0
40
0
40
0.12499999999999
40
0.12499999999999
40
0.24999999999998
40
0.24999999999998
40
0.37499999999997
40
0.37499999999997
40
0.49999999999996
40
0.49999999999996
40
0.562499999999955
40
0.562499999999955
40
0.62499999999995
40
0.62499999999995
40
0.74999999999994
40
0.74999999999994
40
1
40
1
40
1
40
1
41
1
10
280.915392328643
20
6.02429381609679
30
0
41
1
10
280.874690704756
20
5.96123139760314
30
0
41
1
10
280.829438810245
20
5.90140563304729
30
0
41
1
10
280.72806865876
20
5.78959040032339
30
0
41
1
10
280.672849328203
20
5.73872496763141
30
0
41
1
10
280.554211760169
20
5.6503819334817
30
0
41
1
10
280.489503572279
20
5.6122481506483
30
0
41
1
10
280.356160852961
20
5.55437309915868
30
0
41
1
10
280.287451754853
20
5.53426176856365
30
0
41
1
10
280.181338185485
20
5.51773852289304
30
0
41
1
10
280.145468762428
20
5.51455704678068
30
0
41
1
10
280.074766904653
20
5.5127372496012
30
0
41
1
10
280.039671312247
20
5.51404818572237
30
0
41
1
10
279.935069739531
20
5.5239813180564
30
0
41
1
10
279.865839987244
20
5.53882042173012
30
0
41
1
10
279.66668206668
20
5.5997959346943
30
0
41
1
10
279.542608794335
20
5.66185416261484
30
0
41
1
10
279.421199861701
20
5.73154547565025
30
0
0
SPLINE
5
313
100
AcDbEntity
8
1
62
256
6
ByLayer
370
13
48
1
60
0
100
AcDbSpline
70
4
71
3
72
14
73
10
40
0
40
0
40
0
40
0
40
0.25
40
0.25
40
0.5
40
0.5
40
0.75
40
0.75
40
1
40
1
40
1
40
1
41
1
10
26.3693079092637
20
-7.27433099486362
30
0
41
1
10
26.5855835574548
20
-7.15882189065047
30
0
41
1
10
26.8112695326005
20
-7.05547681037899
30
0
41
1
10
27.2681289458059
20
-6.87914300720095
30
0
41
1
10
27.5005756864325
20
-6.80534425823589
30
0
41
1
10
27.9734539854453
20
-6.68616712409766
30
0
41
1
10
28.213884932518
20
-6.64078687623805
30
0
41
1
10
28.7030299442884
20
-6.5794235334383
30
0
41
1
10
28.9493783431032
20
-6.56379548405366
30
0
41
1
10
29.1961524606462
20
-6.56337238955578
30
0
0
SPLINE
5
314
100
AcDbEntity
8
1
62
256
6
ByLayer
370
13
48
1
60
0
100
AcDbSpline
70
4
71
3
72
8
73
4
40
0
40
0
40
0
40
0
40
1
40
1
40
1
40
1
41
1
10
277.679293795899
20
6.58099273825411
30
0
41
1
10
277.151618307619
20
6.70865672002836
30
0
41
1
10
276.613548119459
20
6.80563903875978
30
0
41
1
10
276.065989229434
20
6.87730039044337
30
0
0
SPLINE
5
315
100
AcDbEntity
8
1
62
256
6
ByLayer
370
13
48
1
60
0
100
AcDbSpline
70
4
71
3
72
38
73
34
40
0
40
0
40
0
40
0
40
0.125
40
0.125
40
0.1875
40
0.1875
40
0.25
40
0.25
40
0.312500000000001
40
0.312500000000001
40
0.343750000000001
40
0.343750000000001
40
0.375000000000001
40
0.375000000000001
40
0.437500000000001
40
0.437500000000001
40
0.468750000000001
40
0.468750000000001
40
0.500000000000001
40
0.500000000000001
40
0.562500000000001
40
0.562500000000001
40
0.59375
40
0.59375
40
0.625
40
0.625
40
0.75
40
0.75
40
0.875
40
0.875
40
0.9375
40
0.9375
40
1
40
1
40
1
40
1
41
1
10
5.45520000000111
20
-4.94974746834356
30
0
41
1
10
5.86911616371458
20
-4.65887201317139
30
0
41
1
10
6.25884054720002
20
-4.34134509058626
30
0
41
1
10
6.79821305446015
20
-3.81524352093805
30
0
41
1
10
6.97041242525322
20
-3.63151300768269
30
0
41
1
10
7.29703903562378
20
-3.2444728773819
30
0
41
1
10
7.44967795912837
20
-3.04314827437705
30
0
41
1
10
7.72883691543409
20
-2.62626370787592
30
0
41
1
10
7.8557523347235
20
-2.41026898099065
30
0
41
1
10
8.02445452407669
20
-2.07335302861665
30
0
41
1
10
8.07706623615464
20
-1.95888745571858
30
0
41
1
10
8.17443747571454
20
-1.72527351570852
30
0
41
1
10
8.21923017176334
20
-1.60589577343635
30
0
41
1
10
8.33891536651014
20
-1.24622860098793
30
0
41
1
10
8.39998472023957
20
-1.00261958391187
30
0
41
1
10
8.4619179405579
20
-0.631134409927654
30
0
41
1
10
8.47760778670011
20
-0.506292148412115
30
0
41
1
10
8.49868398142318
20
-0.25449918231547
30
0
41
1
10
8.50404938550312
20
-0.126936877054106
30
0
41
1
10
8.50407135043461
20
0.253084799266787
30
0
41
1
10
8.48298466533792
20
0.503413487367538
30
0
41
1
10
8.42143414625224
20
0.874625611806692
30
0
41
1
10
8.39591966016084
20
0.997647942782947
30
0
41
1
10
8.33506455554482
20
1.24228671986899
30
0
41
1
10
8.29961241858177
20
1.36423050178004
30
0
41
1
10
8.09929449665609
20
1.96674395428022
30
0
41
1
10
7.87049172302241
20
2.41511685392283
30
0
41
1
10
7.30494280354957
20
3.25889303780028
30
0
41
1
10
6.97848517383353
20
3.63920917994673
30
0
41
1
10
6.44091420220644
20
4.16384940915145
30
0
41
1
10
6.25358402228281
20
4.33095640089314
30
0
41
1
10
5.86426968879753
20
4.65117669984198
30
0
41
1
10
5.66219926081808
20
4.80428080265392
30
0
41
1
10
5.45520000000113
20
4.94974746834353
30
0
0
SPLINE
5
316
100
AcDbEntity
8
1
62
256
6
ByLayer
370
13
48
1
60
0
100
AcDbSpline
70
4
71
3
72
8
73
4
40
0
40
0
40
0
40
0
40
1
40
1
40
1
40
1
41
1
10
277.748941935755
20
6.81928754443433
30
0
41
1
10
277.18786871709
20
6.8406284296486
30
0
41
1
10
276.626889406964
20
6.85996645639889
30
0
41
1
10
276.065989229433
20
6.87730039044214
30
0
0
SPLINE
5
317
100
AcDbEntity
8
1
62
256
6
ByLayer
370
13
48
1
60
0
100
AcDbSpline
70
4
71
3
72
10
73
6
40
0
40
0
40
0
40
0
40
0.960614779295847
40
0.960614779295847
40
1
40
1
40
1
40
1
41
1
10
272.027939802949
20
6.96749227243632
30
0
41
1
10
269.535295073383
20
7.00180647665917
30
0
41
1
10
267.043502180398
20
6.99652920133801
30
0
41
1
10
264.449050997783
20
6.95034555438767
30
0
41
1
10
264.346867062976
20
6.9484605540907
30
0
41
1
10
264.244682153468
20
6.94650962482098
30
0
0
SPLINE
5
318
100
AcDbEntity
8
1
62
256
6
ByLayer
370
13
48
1
60
0
100
AcDbSpline
70
4
71
3
72
8
73
4
40
0
40
0
40
0
40
0
40
1
40
1
40
1
40
1
41
1
10
35
20
-6.56179477591243
30
0
41
1
10
33.3333333218126
20
-6.56199110576267
30
0
41
1
10
31.6666666506582
20
-6.56225581558766
30
0
41
1
10
30
20
-6.56260047784068
30
0
0
SPLINE
5
319
100
AcDbEntity
8
1
62
256
6
ByLayer
370
13
48
1
60
0
100
AcDbSpline
70
4
71
3
72
14
73
10
40
0
40
0
40
0
40
0
40
0.124999999999981
40
0.124999999999981
40
0.249999999999962
40
0.249999999999962
40
0.499999999999924
40
0.499999999999924
40
1
40
1
40
1
40
1
41
1
10
294.054704309831
20
7.3098917658651
30
0
41
1
10
294.087742521626
20
7.31162322517673
30
0
41
1
10
294.121413290871
20
7.31422883359156
30
0
41
1
10
294.188067960622
20
7.32109885229073
30
0
41
1
10
294.221334155678
20
7.32537811618843
30
0
41
1
10
294.3205576947
20
7.34068269352304
30
0
41
1
10
294.386107875865
20
7.35418079158504
30
0
41
1
10
294.581484355439
20
7.40471220905837
30
0
41
1
10
294.709976378917
20
7.45154607790136
30
0
41
1
10
294.838371678002
20
7.51414863686057
30
0
0
SPLINE
5
31A
100
AcDbEntity
8
1
62
256
6
ByLayer
370
13
48
1
60
0
100
AcDbSpline
70
4
71
3
72
8
73
4
40
0
40
0
40
0
40
0
40
1
40
1
40
1
40
1
41
1
10
296.970195310145
20
7.45897738824459
30
0
41
1
10
296.969223846156
20
7.46016695766565
30
0
41
1
10
296.968247116968
20
7.46135206071745
30
0
41
1
10
296.967265187105
20
7.46253261346965
30
0
0
SPLINE
5
31B
100
AcDbEntity
8
1
62
256
6
ByLayer
370
13
48
1
60
0
100
AcDbSpline
70
4
71
3
72
8
73
4
40
0
40
0
40
0
40
0
40
1
40
1
40
1
40
1
41
1
10
35
20
-18.4615393564497
30
0
41
1
10
33.3333333182838
20
-18.4615090217303
30
0
41
1
10
31.6666666486359
20
-18.4614736362927
30
0
41
1
10
30
20
-18.4614326827401
30
0
0
SPLINE
5
31C
100
AcDbEntity
8
1
62
256
6
ByLayer
370
13
48
1
60
0
100
AcDbSpline
70
4
71
3
72
14
73
10
40
0
40
0
40
0
40
0
40
0.25
40
0.25
40
0.5
40
0.5
40
0.75
40
0.75
40
1
40
1
40
1
40
1
41
1
10
288.056798085515
20
6.83474852357173
30
0
41
1
10
288.089923676323
20
6.82801554073211
30
0
41
1
10
288.120099066663
20
6.81963744793464
30
0
41
1
10
288.171329797839
20
6.80024409306029
30
0
41
1
10
288.19279640938
20
6.78901812344753
30
0
41
1
10
288.224484841135
20
6.76524902785476
30
0
41
1
10
288.235297216731
20
6.75230810068609
30
0
41
1
10
288.246082090679
20
6.72600997902063
30
0
41
1
10
288.24624058447
20
6.7127620966159
30
0
41
1
10
288.241720899003
20
6.69942588596376
30
0
0
SPLINE
5
31D
100
AcDbEntity
8
1
62
256
6
ByLayer
370
13
48
1
60
0
100
AcDbSpline
70
4
71
3
72
18
73
14
40
0
40
0
40
0
40
0
40
0.125000000000022
40
0.125000000000022
40
0.250000000000044
40
0.250000000000044
40
0.375000000000066
40
0.375000000000066
40
0.500000000000089
40
0.500000000000089
40
0.750000000000044
40
0.750000000000044
40
1
40
1
40
1
40
1
41
1
10
287.93035151801
20
6.1649426800912
30
0
41
1
10
287.918866828707
20
6.15218908301338
30
0
41
1
10
287.911743788128
20
6.14338427110812
30
0
41
1
10
287.907314343336
20
6.13403297978044
30
0
41
1
10
287.910014675901
20
6.13344698051071
30
0
41
1
10
287.923664884001
20
6.13944338686409
30
0
41
1
10
287.93473772353
20
6.14607010161239
30
0
41
1
10
287.962417330503
20
6.16484190127494
30
0
41
1
10
287.979233804268
20
6.17711857414596
30
0
41
1
10
288.0356135085
20
6.22118931310459
30
0
41
1
10
288.079799436768
20
6.25913767385723
30
0
41
1
10
288.173965510324
20
6.35080001153833
30
0
41
1
10
288.221819307424
20
6.40238755161207
30
0
41
1
10
288.269209470218
20
6.46062627106957
30
0
0
SPLINE
5
31E
100
AcDbEntity
8
1
62
256
6
ByLayer
370
13
48
1
60
0
100
AcDbSpline
70
4
71
3
72
14
73
10
40
0
40
0
40
0
40
0
40
0.25
40
0.25
40
0.5
40
0.5
40
0.75
40
0.75
40
1
40
1
40
1
40
1
41
1
10
278.167860891922
20
8.81523036006982
30
0
41
1
10
278.171873581979
20
8.83312870600602
30
0
41
1
10
278.18104198991
20
8.84925165899952
30
0
41
1
10
278.205120275052
20
8.8760886166047
30
0
41
1
10
278.220158832778
20
8.8870717617207
30
0
41
1
10
278.252536719932
20
8.90419335141561
30
0
41
1
10
278.270318284288
20
8.91057929409675
30
0
41
1
10
278.306633338962
20
8.91930930588813
30
0
41
1
10
278.325324329788
20
8.92175221049959
30
0
41
1
10
278.344500263308
20
8.92245490961855
30
0
0
SPLINE
5
31F
100
AcDbEntity
8
1
62
256
6
ByLayer
370
13
48
1
60
0
100
AcDbSpline
70
4
71
3
72
16
73
12
40
0
40
0
40
0
40
0
40
0.125000000000019
40
0.125000000000019
40
0.250000000000037
40
0.250000000000037
40
0.500000000000025
40
0.500000000000025
40
0.750000000000012
40
0.750000000000012
40
1
40
1
40
1
40
1
41
1
10
281.393692253803
20
6.73540889736955
30
0
41
1
10
281.367322255198
20
6.76107476148496
30
0
41
1
10
281.342107746732
20
6.78967234920194
30
0
41
1
10
281.294759984453
20
6.85155484116834
30
0
41
1
10
281.27246466476
20
6.88499046090138
30
0
41
1
10
281.209458196869
20
6.9929256615097
30
0
41
1
10
281.172158233871
20
7.07638019575165
30
0
41
1
10
281.111801460832
20
7.2564852928983
30
0
41
1
10
281.08803748296
20
7.35395381165642
30
0
41
1
10
281.057226171771
20
7.56334601115461
30
0
41
1
10
281.05063107798
20
7.67060160078893
30
0
41
1
10
281.056916109649
20
7.78097273710858
30
0
0
SPLINE
5
320
100
AcDbEntity
8
1
62
256
6
ByLayer
370
13
48
1
60
0
100
AcDbSpline
70
4
71
3
72
12
73
8
40
0
40
0
40
0
40
0
40
0.295639219080205
40
0.295639219080205
40
0.647819609540103
40
0.647819609540103
40
1
40
1
40
1
40
1
41
1
10
30.4499493611019
20
-6.55585615083797
30
0
41
1
10
30.4499202162161
20
-6.91599430663061
30
0
41
1
10
30.449900413816
20
-7.30641390117324
30
0
41
1
10
30.4498797080913
20
-8.18882095057162
30
0
41
1
10
30.4498831502618
20
-8.68566630331415
30
0
41
1
10
30.4499189785753
20
-9.6481992398887
30
0
41
1
10
30.4499513540111
20
-10.1135991731597
30
0
41
1
10
30.4499960590928
20
-10.5324901454036
30
0
0
SPLINE
5
321
100
AcDbEntity
8
1
62
256
6
ByLayer
370
13
48
1
60
0
100
AcDbSpline
70
4
71
3
72
8
73
4
40
0
40
0
40
0
40
0
40
1
40
1
40
1
40
1
41
1
10
283.412560194403
20
-18.4459041914733
30
0
41
1
10
282.412560194379
20
-18.3828475829547
30
0
41
1
10
281.412560194379
20
-18.3197909740608
30
0
41
1
10
280.412560194403
20
-18.2567343647797
30
0
0
SPLINE
5
322
100
AcDbEntity
8
1
62
256
6
ByLayer
370
13
48
1
60
0
100
AcDbSpline
70
4
71
3
72
16
73
12
40
0
40
0
40
0
40
0
40
0.249999999999974
40
0.249999999999974
40
0.499999999999948
40
0.499999999999948
40
0.624999999999961
40
0.624999999999961
40
0.749999999999974
40
0.749999999999974
40
1
40
1
40
1
40
1
41
1
10
276.227289073737
20
1.8988718386741
30
0
41
1
10
276.448503244981
20
1.80987182137773
30
0
41
1
10
276.670658245893
20
1.74029838777966
30
0
41
1
10
277.11732279402
20
1.63662090399285
30
0
41
1
10
277.341825288701
20
1.60255863981683
30
0
41
1
10
277.680346874051
20
1.57805791719829
30
0
41
1
10
277.79294038067
20
1.57441841006997
30
0
41
1
10
278.015005635142
20
1.57595376034695
30
0
41
1
10
278.124873786502
20
1.58109731057772
30
0
41
1
10
278.45095762246
20
1.60922056072633
30
0
41
1
10
278.663683602721
20
1.64483760242419
30
0
41
1
10
278.871280664333
20
1.69693814329281
30
0
0
SPLINE
5
323
100
AcDbEntity
8
1
62
256
6
ByLayer
370
13
48
1
60
0
100
AcDbSpline
70
4
71
3
72
8
73
4
40
0
40
0
40
0
40
0
40
1
40
1
40
1
40
1
41
1
10
30.01
20
-17.8759007288851
30
0
41
1
10
29.7387174958591
20
-17.8759900794403
30
0
41
1
10
29.467434991766
20
-17.8760795363316
30
0
41
1
10
29.1961524876503
20
-17.876168942805
30
0
0
SPLINE
5
324
100
AcDbEntity
8
1
62
256
6
ByLayer
370
13
48
1
60
0
100
AcDbSpline
70
4
71
3
72
42
73
38
40
0
40
0
40
0
40
0
40
0.125000000000003
40
0.125000000000003
40
0.1875
40
0.1875
40
0.249999999999996
40
0.249999999999996
40
0.374999999999999
40
0.374999999999999
40
0.40625
40
0.40625
40
0.437500000000001
40
0.437500000000001
40
0.500000000000003
40
0.500000000000003
40
0.531250000000004
40
0.531250000000004
40
0.562500000000004
40
0.562500000000004
40
0.624999999999999
40
0.624999999999999
40
0.687499999999993
40
0.687499999999993
40
0.718749999999993
40
0.718749999999993
40
0.749999999999993
40
0.749999999999993
40
0.812499999999996
40
0.812499999999996
40
0.843749999999996
40
0.843749999999996
40
0.874999999999997
40
0.874999999999997
40
0.937499999999999
40
0.937499999999999
40
1
40
1
40
1
40
1
41
1
10
280.42447351679
20
1.31954239777809
30
0
41
1
10
281.085821984051
20
1.20904402195828
30
0
41
1
10
281.751500643821
20
1.11923380071866
30
0
41
1
10
282.759186048184
20
1.02831718962287
30
0
41
1
10
283.096613555468
20
1.0053327957051
30
0
41
1
10
283.775090693671
20
0.97666925550925
30
0
41
1
10
284.116578490342
20
0.970982202807505
30
0
41
1
10
285.14478772836
20
0.984908227219819
30
0
41
1
10
285.81902137801
20
1.03484247623831
30
0
41
1
10
286.643904992974
20
1.16203216778226
30
0
41
1
10
286.807976267251
20
1.19074496378892
30
0
41
1
10
287.134157872489
20
1.25526296224763
30
0
41
1
10
287.295942222044
20
1.29103452770693
30
0
41
1
10
287.771541628309
20
1.40810514034305
30
0
41
1
10
288.077721448446
20
1.49950722390091
30
0
41
1
10
288.519189833902
20
1.65844823894596
30
0
41
1
10
288.663370808498
20
1.71507836237623
30
0
41
1
10
288.945405504415
20
1.83610059919536
30
0
41
1
10
289.083820792515
20
1.90078387656644
30
0
41
1
10
289.484741324692
20
2.10527666001678
30
0
41
1
10
289.730520253753
20
2.25400980676159
30
0
41
1
10
290.178364058963
20
2.57669565621407
30
0
41
1
10
290.380457280966
20
2.75063200560271
30
0
41
1
10
290.648180280193
20
3.03196924552861
30
0
41
1
10
290.731577646386
20
3.12942369633925
30
0
41
1
10
290.882505471764
20
3.32687272536452
30
0
41
1
10
290.950573502078
20
3.42737801225147
30
0
41
1
10
291.133052057652
20
3.73412492327785
30
0
41
1
10
291.225856372171
20
3.94556886693113
30
0
41
1
10
291.321414812129
20
4.27324430721393
30
0
41
1
10
291.345850747168
20
4.38418821028705
30
0
41
1
10
291.379419032217
20
4.60519911766443
30
0
41
1
10
291.388733133322
20
4.71581487489348
30
0
41
1
10
291.395202617887
20
5.04797921683451
30
0
41
1
10
291.37098287832
20
5.26984342921347
30
0
41
1
10
291.267687866368
20
5.71438185744233
30
0
41
1
10
291.189645703598
20
5.93247174030205
30
0
41
1
10
291.088339205359
20
6.14615439779195
30
0
0
SPLINE
5
325
100
AcDbEntity
8
1
62
256
6
ByLayer
370
13
48
1
60
0
100
AcDbSpline
70
4
71
3
72
28
73
24
40
0
40
0
40
0
40
0
40
0.110326560398887
40
0.110326560398887
40
0.220653120797774
40
0.220653120797774
40
0.330979681196661
40
0.330979681196661
40
0.441306241595549
40
0.441306241595549
40
0.551632801994436
40
0.551632801994436
40
0.661959362393323
40
0.661959362393323
40
0.77228592279221
40
0.77228592279221
40
0.882612483191099
40
0.882612483191099
40
0.937775763390543
40
0.937775763390543
40
0.992939043589987
40
0.992939043589987
40
1
40
1
40
1
40
1
41
1
10
275.360146454833
20
17.5046749422618
30
0
41
1
10
274.169769224625
20
17.5942883264516
30
0
41
1
10
272.979955648081
20
17.6615034686452
30
0
41
1
10
270.599908138564
20
17.7508373003851
30
0
41
1
10
269.409173270842
20
17.7729483907341
30
0
41
1
10
267.028965958185
20
17.771425535606
30
0
41
1
10
265.839389182971
20
17.7478179668852
30
0
41
1
10
263.459681718361
20
17.6541956024034
30
0
41
1
10
262.269030448881
20
17.5840688593757
30
0
41
1
10
259.888380721009
20
17.3989192664267
30
0
41
1
10
258.698523887407
20
17.284031486273
30
0
41
1
10
256.318414095372
20
17.0118592127337
30
0
41
1
10
255.127728761503
20
16.8545254527726
30
0
41
1
10
252.746909210487
20
16.4960468521031
30
0
41
1
10
251.557220960696
20
16.2949748188325
30
0
41
1
10
249.177766266932
20
15.8476960164576
30
0
41
1
10
247.987664360408
20
15.6011304507592
30
0
41
1
10
246.202182607604
20
15.2113321711337
30
0
41
1
10
245.607202346407
20
15.0782041252806
30
0
41
1
10
244.41548515771
20
14.8027976943174
30
0
41
1
10
243.81856487871
20
14.6600058145685
30
0
41
1
10
243.143504788697
20
14.4948483308757
30
0
41
1
10
243.066878195022
20
14.4760598613478
30
0
41
1
10
242.990228634262
20
14.4572261333464
30
0
0
SPLINE
5
326
100
AcDbEntity
8
1
62
256
6
ByLayer
370
13
48
1
60
0
100
AcDbSpline
70
4
71
3
72
64
73
60
40
0
40
0
40
0
40
0
40
0.0044890845700834
40
0.0044890845700834
40
0.0219541883495555
40
0.0219541883495555
40
0.0394192921290276
40
0.0394192921290276
40
0.0568843959084998
40
0.0568843959084998
40
0.0743494996879719
40
0.0743494996879719
40
0.083082051577708
40
0.083082051577708
40
0.091814603467444
40
0.091814603467444
40
0.109279707246917
40
0.109279707246917
40
0.126744811026389
40
0.126744811026389
40
0.144209914805862
40
0.144209914805862
40
0.161675018585334
40
0.161675018585334
40
0.179140122364807
40
0.179140122364807
40
0.196605226144279
40
0.196605226144279
40
0.205337778034015
40
0.205337778034015
40
0.214070329923751
40
0.214070329923751
40
0.222802881813487
40
0.222802881813487
40
0.231535433703223
40
0.231535433703223
40
0.240267985592959
40
0.240267985592959
40
0.249000537482695
40
0.249000537482695
40
0.266465641262168
40
0.266465641262168
40
0.301395848821112
40
0.301395848821112
40
0.336326056380057
40
0.336326056380057
40
0.371256263939002
40
0.371256263939002
40
0.44111667905689
40
0.44111667905689
40
0.510977094174779
40
0.510977094174779
40
0.580837509292668
40
0.580837509292668
40
0.720558339528445
40
0.720558339528445
40
0.860279169764223
40
0.860279169764223
40
1
40
1
40
1
40
1
41
1
10
246.527712313784
20
-15.1022718876716
30
0
41
1
10
246.228490012914
20
-15.1718245026164
30
0
41
1
10
245.929285591107
20
-15.2403117317959
30
0
41
1
10
244.466147524894
20
-15.570041354397
30
0
41
1
10
243.303732008949
20
-15.8137487915332
30
0
41
1
10
240.974576323522
20
-16.2540589030483
30
0
41
1
10
239.807615289039
20
-16.4508884338979
30
0
41
1
10
237.457456619044
20
-16.803607469985
30
0
41
1
10
236.274889569373
20
-16.9580997573908
30
0
41
1
10
233.893408996558
20
-17.2206706134689
30
0
41
1
10
232.694431487439
20
-17.3288303003343
30
0
41
1
10
230.884361450035
20
-17.4661985538455
30
0
41
1
10
230.278956217332
20
-17.5078087412917
30
0
41
1
10
229.066534902697
20
-17.5837113116907
30
0
41
1
10
228.459268957491
20
-17.6180245769671
30
0
41
1
10
226.634442181429
20
-17.7117975895536
30
0
41
1
10
225.413894921597
20
-17.7621513948164
30
0
41
1
10
222.964604938545
20
-17.8402258123763
30
0
41
1
10
221.7358075751
20
-17.8683623549388
30
0
41
1
10
219.269187606643
20
-17.9098685633104
30
0
41
1
10
218.031400643175
20
-17.9234534021115
30
0
41
1
10
215.545691415104
20
-17.939176739824
30
0
41
1
10
214.296829646068
20
-17.9412748821781
30
0
41
1
10
211.795657799478
20
-17.9368806473213
30
0
41
1
10
210.542626326263
20
-17.9303319458896
30
0
41
1
10
208.031855917897
20
-17.9164388474941
30
0
41
1
10
206.774157204409
20
-17.9085824581188
30
0
41
1
10
204.884487639765
20
-17.8979142873232
30
0
41
1
10
204.254086304679
20
-17.8947062189096
30
0
41
1
10
202.992251198764
20
-17.8881709472571
30
0
41
1
10
202.360810501321
20
-17.8844142173454
30
0
41
1
10
201.09664984314
20
-17.876183366304
30
0
41
1
10
200.463911599883
20
-17.8714392783182
30
0
41
1
10
199.19699493813
20
-17.8634206665137
30
0
41
1
10
198.562682928049
20
-17.8615611967822
30
0
41
1
10
197.2940319941
20
-17.8612867384843
30
0
41
1
10
196.659686940158
20
-17.8627410539567
30
0
41
1
10
195.390982828348
20
-17.8662561721719
30
0
41
1
10
194.756623542288
20
-17.8674654751512
30
0
41
1
10
192.853533192964
20
-17.8682776379984
30
0
41
1
10
191.584789488467
20
-17.8666215577988
30
0
41
1
10
187.778534277931
20
-17.8623824462032
30
0
41
1
10
185.240999116011
20
-17.8606661474018
30
0
41
1
10
180.165896703323
20
-17.8593839837557
30
0
41
1
10
177.62834481602
20
-17.8590410521184
30
0
41
1
10
172.553247406443
20
-17.8599977752019
30
0
41
1
10
170.015698539217
20
-17.8621172881809
30
0
41
1
10
162.40304470913
20
-17.8656243024288
30
0
41
1
10
157.327933602372
20
-17.8639892731315
30
0
41
1
10
147.177701761678
20
-17.8620161705541
30
0
41
1
10
142.102583923742
20
-17.8611075276072
30
0
41
1
10
131.952350220429
20
-17.8615750498397
30
0
41
1
10
126.877233214076
20
-17.8625141247741
30
0
41
1
10
111.651880940733
20
-17.8630270873121
30
0
41
1
10
101.50164553737
20
-17.8614538560854
30
0
41
1
10
81.2011754259386
20
-17.8607996522125
30
0
41
1
10
71.0509403458883
20
-17.8614588458212
30
0
41
1
10
50.7504701984855
20
-17.8622744683979
30
0
41
1
10
40.6002351136612
20
-17.8624660798541
30
0
41
1
10
30.45
20
-17.8621945993854
30
0
0
SPLINE
5
327
100
AcDbEntity
8
1
62
256
6
ByLayer
370
13
48
1
60
0
100
AcDbSpline
70
4
71
3
72
54
73
50
40
0
40
0
40
0
40
0
40
0.0067426917353899
40
0.0067426917353899
40
0.0449448958994147
40
0.0449448958994147
40
0.0831471000634396
40
0.0831471000634396
40
0.102248202145452
40
0.102248202145452
40
0.121349304227464
40
0.121349304227464
40
0.159551508391487
40
0.159551508391487
40
0.197753712555511
40
0.197753712555511
40
0.235955916719534
40
0.235955916719534
40
0.255057018801546
40
0.255057018801546
40
0.274158120883558
40
0.274158120883558
40
0.312360325047581
40
0.312360325047581
40
0.350562529211604
40
0.350562529211604
40
0.388764733375628
40
0.388764733375628
40
0.40786583545764
40
0.40786583545764
40
0.426966937539651
40
0.426966937539651
40
0.446068039621663
40
0.446068039621663
40
0.465169141703675
40
0.465169141703675
40
0.484270243785687
40
0.484270243785687
40
0.503371345867699
40
0.503371345867699
40
0.541573550031721
40
0.541573550031721
40
0.617977958359768
40
0.617977958359768
40
0.694382366687814
40
0.694382366687814
40
0.847191183343907
40
0.847191183343907
40
1
40
1
40
1
40
1
41
1
10
247.070991423122
20
-15.2418369735024
30
0
41
1
10
246.842759401429
20
-15.2978504476546
30
0
41
1
10
246.614514897065
20
-15.3531944443153
30
0
41
1
10
245.092988880969
20
-15.7175935693753
30
0
41
1
10
243.799052811552
20
-16.0058678855615
30
0
41
1
10
241.202635129184
20
-16.5282623020263
30
0
41
1
10
239.901831280283
20
-16.7619544683229
30
0
41
1
10
237.936385151947
20
-17.0664205009612
30
0
41
1
10
237.278899128574
20
-17.1603558094304
30
0
41
1
10
235.958559781564
20
-17.3339117191931
30
0
41
1
10
235.2953450498
20
-17.413549209275
30
0
41
1
10
233.299921149102
20
-17.6321669863405
30
0
41
1
10
231.962002264823
20
-17.7512979024257
30
0
41
1
10
229.272671938477
20
-17.9492815494233
30
0
41
1
10
227.921340061003
20
-18.0281478658067
30
0
41
1
10
225.206768025488
20
-18.1550376124427
30
0
41
1
10
223.843326143403
20
-18.2028582425247
30
0
41
1
10
221.788243455091
20
-18.2564473716791
30
0
41
1
10
221.101562778951
20
-18.2712850023621
30
0
41
1
10
219.724781541935
20
-18.2957691868721
30
0
41
1
10
219.034602888234
20
-18.3054153711277
30
0
41
1
10
216.962139750217
20
-18.3277815482948
30
0
41
1
10
215.576803811545
20
-18.3339483309415
30
0
41
1
10
212.797408992817
20
-18.3358009572872
30
0
41
1
10
211.403195746321
20
-18.3315526557511
30
0
41
1
10
208.605622856139
20
-18.3191527679092
30
0
41
1
10
207.202398366152
20
-18.3109962536152
30
0
41
1
10
205.091649536029
20
-18.2988920857215
30
0
41
1
10
204.387104562101
20
-18.2948511455106
30
0
41
1
10
202.976056760391
20
-18.2871571182717
30
0
41
1
10
202.270033199052
20
-18.2835254439018
30
0
41
1
10
200.85822304488
20
-18.2772939172881
30
0
41
1
10
200.152234600449
20
-18.2747477948327
30
0
41
1
10
198.740106390168
20
-18.2709285080688
30
0
41
1
10
198.033973112566
20
-18.2695969589142
30
0
41
1
10
196.621637121239
20
-18.2675599654903
30
0
41
1
10
195.915438425083
20
-18.2668135885662
30
0
41
1
10
194.503011905219
20
-18.2655877773243
30
0
41
1
10
193.796781463382
20
-18.2651320154589
30
0
41
1
10
191.678058213845
20
-18.2640636298144
30
0
41
1
10
190.265536409823
20
-18.2637223778725
30
0
41
1
10
186.027924187081
20
-18.2631475890972
30
0
41
1
10
183.202789850133
20
-18.2633328186144
30
0
41
1
10
177.552460329387
20
-18.2642805571987
30
0
41
1
10
174.72726600588
20
-18.2650317677659
30
0
41
1
10
166.251737844325
20
-18.266753780033
30
0
41
1
10
160.601398894501
20
-18.2673461091146
30
0
41
1
10
149.300701468488
20
-18.2675988378935
30
0
41
1
10
143.650350671934
20
-18.2673007498774
30
0
41
1
10
138
20
-18.2670269962244
30
0
0
SPLINE
5
328
100
AcDbEntity
8
1
62
256
6
ByLayer
370
13
48
1
60
0
100
AcDbSpline
70
4
71
3
72
8
73
4
40
0
40
0
40
0
40
0
40
1
40
1
40
1
40
1
41
1
10
280.915392328643
20
6.02429381609579
30
0
41
1
10
281.077483634973
20
6.26411800480165
30
0
41
1
10
281.235894420726
20
6.50191230447379
30
0
41
1
10
281.393692253803
20
6.73540889736952
30
0
0
SPLINE
5
329
100
AcDbEntity
8
1
62
256
6
ByLayer
370
13
48
1
60
0
100
AcDbSpline
70
4
71
1
72
4
73
2
40
0
40
0
40
1
40
1
41
1
10
30.4499999999901
20
-10.5324901453606
30
0
41
1
10
29.9999999999901
20
-10.5324901453606
30
0
0
SPLINE
5
32A
100
AcDbEntity
8
1
62
256
6
ByLayer
370
13
48
1
60
0
100
AcDbSpline
70
4
71
3
72
40
73
36
40
0
40
0
40
0
40
0
40
0.0624999999999997
40
0.0624999999999997
40
0.124999999999999
40
0.124999999999999
40
0.249999999999998
40
0.249999999999998
40
0.281249999999998
40
0.281249999999998
40
0.312499999999998
40
0.312499999999998
40
0.374999999999997
40
0.374999999999997
40
0.406249999999997
40
0.406249999999997
40
0.437499999999997
40
0.437499999999997
40
0.499999999999997
40
0.499999999999997
40
0.531249999999997
40
0.531249999999997
40
0.562499999999998
40
0.562499999999998
40
0.624999999999998
40
0.624999999999998
40
0.687499999999998
40
0.687499999999998
40
0.749999999999999
40
0.749999999999999
40
0.874999999999999
40
0.874999999999999
40
0.9375
40
0.9375
40
1
40
1
40
1
40
1
41
1
10
6.56503068259455
20
-20.915983430548
30
0
41
1
10
6.47031898322628
20
-21.0582642641144
30
0
41
1
10
6.39406821473894
20
-21.1971594932522
30
0
41
1
10
6.27765039941906
20
-21.4678177911989
30
0
41
1
10
6.23745371032372
20
-21.5997247071168
30
0
41
1
10
6.17441994818815
20
-21.9829481760169
30
0
41
1
10
6.21117227971479
20
-22.2094201166815
30
0
41
1
10
6.348162645822
20
-22.458424735638
30
0
41
1
10
6.38023510987635
20
-22.5064829546659
30
0
41
1
10
6.45245994220751
20
-22.5977278864677
30
0
41
1
10
6.49271163053359
20
-22.6411205958437
30
0
41
1
10
6.62545778269275
20
-22.7648960009603
30
0
41
1
10
6.7299702658751
20
-22.8388756567972
30
0
41
1
10
6.90978612374307
20
-22.9378008108793
30
0
41
1
10
6.97378555883911
20
-22.9688557068914
30
0
41
1
10
7.10825960719264
20
-23.0265215672699
30
0
41
1
10
7.17862528477114
20
-23.0531154780544
30
0
41
1
10
7.39866895504325
20
-23.1265826305493
30
0
41
1
10
7.5572580124751
20
-23.1671650233409
30
0
41
1
10
7.81198492534695
20
-23.2165343543779
30
0
41
1
10
7.89971062489948
20
-23.2310670056725
30
0
41
1
10
8.08073200542248
20
-23.2563985859619
30
0
41
1
10
8.17426440300771
20
-23.267210946008
30
0
41
1
10
8.46030557313
20
-23.2939417864972
30
0
41
1
10
8.65879718331897
20
-23.3043072357706
30
0
41
1
10
9.07043211290623
20
-23.3116360892335
30
0
41
1
10
9.28357913103198
20
-23.3085940201954
30
0
41
1
10
9.72419823621931
20
-23.2899873494847
30
0
41
1
10
9.95268412991608
20
-23.2742947884523
30
0
41
1
10
10.6474528810563
20
-23.2103462248768
30
0
41
1
10
11.1253947652148
20
-23.1455777728893
30
0
41
1
10
11.8641254493469
20
-23.0189272769523
30
0
41
1
10
12.1148243740772
20
-22.9715626187124
30
0
41
1
10
12.6198928138379
20
-22.8677022002223
30
0
41
1
10
12.8737511335295
20
-22.8113368746344
30
0
41
1
10
13.1289617666231
20
-22.7506222736067
30
0
0
SPLINE
5
32B
100
AcDbEntity
8
1
62
256
6
ByLayer
370
13
48
1
60
0
100
AcDbSpline
70
4
71
3
72
38
73
34
40
0
40
0
40
0
40
0
40
0.077588006944163
40
0.178309026347723
40
0.288636973873767
40
0.40868482775369
40
0.538421524916036
40
0.550212386954989
40
0.562474011777713
40
0.575207673967461
40
0.588414597952704
40
0.602095952220971
40
0.616252842649841
40
0.630886305033049
40
0.645997296864873
40
0.66158668843568
40
0.677655253284262
40
0.694203658048157
40
0.711232451750539
40
0.72874205456141
40
0.746732746071265
40
0.765204653116944
40
0.784157737201937
40
0.803591781556754
40
0.823506377889074
40
0.843900912878139
40
0.864774554473222
40
0.886126238061925
40
0.907954652580449
40
0.930258226644904
40
0.953035114790052
40
0.976283183909557
40
1
40
1
40
1
40
1
41
1
10
27.6163418108641
20
-6.70949077664815
30
0
41
1
10
27.6562909264496
20
-6.80712516755378
30
0
41
1
10
27.7530022162147
20
-7.03458863606801
30
0
41
1
10
27.9266140750309
20
-7.41277808876006
30
0
41
1
10
28.150131602087
20
-7.85493306751113
30
0
41
1
10
28.4200245180768
20
-8.33962353783645
30
0
41
1
10
28.6343320953477
20
-8.68995251336776
30
0
41
1
10
28.7645196909893
20
-8.89341026364889
30
0
41
1
10
28.7957849307333
20
-8.94201300879033
30
0
41
1
10
28.8284183464245
20
-8.99238152704481
30
0
41
1
10
28.862446913889
20
-9.04449421795283
30
0
41
1
10
28.8979024415171
20
-9.09832139811382
30
0
41
1
10
28.9348138873938
20
-9.1538321862507
30
0
41
1
10
28.9732092005628
20
-9.21099234489307
30
0
41
1
10
29.0131144509626
20
-9.26976468022215
30
0
41
1
10
29.0545537091051
20
-9.33010871929878
30
0
41
1
10
29.0975486983371
20
-9.39198059205935
30
0
41
1
10
29.142118495409
20
-9.45533285769872
30
0
41
1
10
29.1882792021286
20
-9.52011434983089
30
0
41
1
10
29.2360436103275
20
-9.58627002071563
30
0
41
1
10
29.2854208545671
20
-9.65374079122071
30
0
41
1
10
29.336416055003
20
-9.72246340631111
30
0
41
1
10
29.389029950632
20
-9.79237029604954
30
0
41
1
10
29.4432585244496
20
-9.86338944905887
30
0
41
1
10
29.4990926199122
20
-9.93544427651796
30
0
41
1
10
29.5565175565173
20
-10.0084535573988
30
0
41
1
10
29.6155127207242
20
-10.0823311198585
30
0
41
1
10
29.6760512313536
20
-10.1569865986293
30
0
41
1
10
29.7380993047733
20
-10.2323221004349
30
0
41
1
10
29.8016167746746
20
-10.3082447242707
30
0
41
1
10
29.8665531677791
20
-10.3846180421393
30
0
41
1
10
29.932860913493
20
-10.4614487572511
30
0
41
1
10
29.9774718868127
20
-10.5120916840151
30
0
41
1
10
30
20
-10.5376658757751
30
0
0
SPLINE
5
32C
100
AcDbEntity
8
1
62
256
6
ByLayer
370
13
48
1
60
0
100
AcDbSpline
70
4
71
3
72
10
73
6
40
0
40
0
40
0
40
0
40
0.5
40
0.5
40
1
40
1
40
1
40
1
41
1
10
279.219789309966
20
8.88519317106886
30
0
41
1
10
279.260873652934
20
8.88450808456975
30
0
41
1
10
279.302166371106
20
8.88223031825959
30
0
41
1
10
279.385444633971
20
8.87237928598552
30
0
41
1
10
279.427113303798
20
8.86491870995997
30
0
41
1
10
279.468253403197
20
8.85270544721121
30
0
0
SPLINE
5
32D
100
AcDbEntity
8
1
62
256
6
ByLayer
370
13
48
1
60
0
100
AcDbSpline
70
4
71
3
72
8
73
4
40
0
40
0
40
0
40
0
40
1
40
1
40
1
40
1
41
1
10
298.415476188006
20
0.277361628292965
30
0
41
1
10
298.413443761566
20
0.333006877810959
30
0
41
1
10
298.413152553145
20
0.387579315931447
30
0
41
1
10
298.414492235314
20
0.439019437726472
30
0
0
SPLINE
5
32E
100
AcDbEntity
8
1
62
256
6
ByLayer
370
13
48
1
60
0
100
AcDbSpline
70
4
71
3
72
10
73
6
40
0
40
0
40
0
40
0
40
0.466595680267211
40
0.466595680267211
40
1
40
1
40
1
40
1
41
1
10
30.45
20
-17.8621945993854
30
0
41
1
10
30.45
20
-16.7221917833533
30
0
41
1
10
30.45
20
-15.5821889692086
30
0
41
1
10
30.45
20
-13.1389541505637
30
0
41
1
10
30.45
20
-11.8357221466425
30
0
41
1
10
30.45
20
-10.5324901451858
30
0
0
SPLINE
5
32F
100
AcDbEntity
8
1
62
256
6
ByLayer
370
13
48
1
60
0
100
AcDbSpline
70
4
71
3
72
8
73
4
40
0
40
0
40
0
40
0
40
1
40
1
40
1
40
1
41
1
10
278.871280664333
20
1.69693814329281
30
0
41
1
10
278.984007701854
20
1.65963707075863
30
0
41
1
10
279.097296914979
20
1.62375524875597
30
0
41
1
10
279.211173870999
20
1.58934820586313
30
0
0
SPLINE
5
330
100
AcDbEntity
8
1
62
256
6
ByLayer
370
13
48
1
60
0
100
AcDbSpline
70
4
71
3
72
12
73
8
40
0
40
0
40
0
40
0
40
0.25
40
0.25
40
0.5
40
0.5
40
1
40
1
40
1
40
1
41
1
10
281.056916109649
20
7.7809727371085
30
0
41
1
10
281.061083931694
20
7.85416365791593
30
0
41
1
10
281.062993718523
20
7.92772426801875
30
0
41
1
10
281.061727417762
20
8.07567815607456
30
0
41
1
10
281.058514638919
20
8.15030117394954
30
0
41
1
10
281.040557416994
20
8.37183800731373
30
0
41
1
10
281.017605655548
20
8.51742409626357
30
0
41
1
10
280.981817743258
20
8.66054924541112
30
0
0
SPLINE
5
331
100
AcDbEntity
8
1
62
256
6
ByLayer
370
13
48
1
60
0
100
AcDbSpline
70
4
71
3
72
10
73
6
40
0
40
0
40
0
40
0
40
0.5
40
0.5
40
1
40
1
40
1
40
1
41
1
10
287.727177139359
20
6.88612294519405
30
0
41
1
10
287.784934134786
20
6.88183970656812
30
0
41
1
10
287.842531147239
20
6.87445807661189
30
0
41
1
10
287.954876533087
20
6.8557067731922
30
0
41
1
10
288.007926120053
20
6.84468205520989
30
0
41
1
10
288.056798085512
20
6.83474852355749
30
0
0
SPLINE
5
332
100
AcDbEntity
8
1
62
256
6
ByLayer
370
13
48
1
60
0
100
AcDbSpline
70
4
71
3
72
8
73
4
40
0
40
0
40
0
40
0
40
1
40
1
40
1
40
1
41
1
10
277.679293795906
20
6.58099273826934
30
0
41
1
10
277.702716435846
20
6.65876075112177
30
0
41
1
10
277.725416243112
20
6.73666629122218
30
0
41
1
10
277.747541018072
20
6.81468123784697
30
0
0
SPLINE
5
333
100
AcDbEntity
8
1
62
256
6
ByLayer
370
13
48
1
60
0
100
AcDbSpline
70
4
71
3
72
26
73
22
40
0
40
0
40
0
40
0
40
0.0624999999999811
40
0.0624999999999811
40
0.124999999999962
40
0.124999999999962
40
0.249999999999955
40
0.249999999999955
40
0.374999999999948
40
0.374999999999948
40
0.437499999999946
40
0.437499999999946
40
0.499999999999943
40
0.499999999999943
40
0.749999999999971
40
0.749999999999971
40
0.812499999999979
40
0.812499999999979
40
0.874999999999986
40
0.874999999999986
40
1
40
1
40
1
40
1
41
1
10
279.219789309965
20
8.88519317107026
30
0
41
1
10
279.279717852627
20
8.83529486891118
30
0
41
1
10
279.338467708178
20
8.78368160479047
30
0
41
1
10
279.45386258721
20
8.67737593595587
30
0
41
1
10
279.510494571978
20
8.62268151509579
30
0
41
1
10
279.674843175576
20
8.45729385220406
30
0
41
1
10
279.778108946117
20
8.34447765970248
30
0
41
1
10
279.973249144543
20
8.1144414256878
30
0
41
1
10
280.065043077775
20
7.99712620517477
30
0
41
1
10
280.193740851581
20
7.81715192625001
30
0
41
1
10
280.235140225638
20
7.7564960895341
30
0
41
1
10
280.314921735226
20
7.63384213893207
30
0
41
1
10
280.353354377268
20
7.57173979395722
30
0
41
1
10
280.535554996142
20
7.26222229219252
30
0
41
1
10
280.652615546458
20
7.01509459829151
30
0
41
1
10
280.764287122274
20
6.70484447221597
30
0
41
1
10
280.784821871305
20
6.64268980583495
30
0
41
1
10
280.822084707671
20
6.51800324939569
30
0
41
1
10
280.838816000578
20
6.45539081897741
30
0
41
1
10
280.882482276104
20
6.26908899102653
30
0
41
1
10
280.903139511382
20
6.14617293398038
30
0
41
1
10
280.915392328645
20
6.0242938161033
30
0
0
SPLINE
5
334
100
AcDbEntity
8
1
62
256
6
ByLayer
370
13
48
1
60
0
100
AcDbSpline
70
4
71
3
72
78
73
74
40
0
40
0
40
0
40
0
40
0.0312500000000008
40
0.0312500000000008
40
0.0468750000000007
40
0.0468750000000007
40
0.0625000000000005
40
0.0625000000000005
40
0.0781250000000003
40
0.0781250000000003
40
0.0859374999999997
40
0.0859374999999997
40
0.0898437499999999
40
0.0898437499999999
40
0.0937500000000001
40
0.0937500000000001
40
0.0976562500000004
40
0.0976562500000004
40
0.101562500000001
40
0.101562500000001
40
0.105468750000001
40
0.105468750000001
40
0.109375000000001
40
0.109375000000001
40
0.125000000000001
40
0.125000000000001
40
0.140625000000001
40
0.140625000000001
40
0.156250000000001
40
0.156250000000001
40
0.1875
40
0.1875
40
0.21875
40
0.21875
40
0.25
40
0.25
40
0.28125
40
0.28125
40
0.3125
40
0.3125
40
0.375
40
0.375
40
0.390625
40
0.390625
40
0.40625
40
0.40625
40
0.437500000000001
40
0.437500000000001
40
0.468750000000001
40
0.468750000000001
40
0.500000000000001
40
0.500000000000001
40
0.531250000000001
40
0.531250000000001
40
0.546875000000001
40
0.546875000000001
40
0.562500000000001
40
0.562500000000001
40
0.593750000000001
40
0.593750000000001
40
0.625000000000001
40
0.625000000000001
40
0.75
40
0.75
40
0.78125
40
0.78125
40
0.8125
40
0.8125
40
0.875
40
0.875
40
0.9375
40
0.9375
40
1
40
1
40
1
40
1
41
1
10
276.020775369506
20
-18.2567343647797
30
0
41
1
10
274.560576673093
20
-18.2367638994116
30
0
41
1
10
273.092196565867
20
-18.2203743750267
30
0
41
1
10
270.889759451767
20
-18.1941009374128
30
0
41
1
10
270.155673578718
20
-18.1848924862617
30
0
41
1
10
268.690053201547
20
-18.1624810828821
30
0
41
1
10
267.95776102226
20
-18.1493434759214
30
0
41
1
10
266.502192871028
20
-18.1143666613785
30
0
41
1
10
265.779389965624
20
-18.0925899557914
30
0
41
1
10
264.707634974859
20
-18.046713573007
30
0
41
1
10
264.352456416437
20
-18.0291913400321
30
0
41
1
10
263.823587858808
20
-17.9981580554819
30
0
41
1
10
263.647886854597
20
-17.9870045861844
30
0
41
1
10
263.299490877102
20
-17.9629111503727
30
0
41
1
10
263.126636379203
20
-17.9499496940344
30
0
41
1
10
262.783308839228
20
-17.9221638292917
30
0
41
1
10
262.61284099312
20
-17.9073363327031
30
0
41
1
10
262.273907736437
20
-17.8758389929623
30
0
41
1
10
262.105303628442
20
-17.8592317572987
30
0
41
1
10
261.767696268259
20
-17.8253616936272
30
0
41
1
10
261.598920540818
20
-17.8079882880295
30
0
41
1
10
261.26191564226
20
-17.7720711702962
30
0
41
1
10
261.093612031655
20
-17.7535658459512
30
0
41
1
10
260.252304861881
20
-17.6587115064624
30
0
41
1
10
259.578913107208
20
-17.5760065240645
30
0
41
1
10
258.231218766512
20
-17.3973592216907
30
0
41
1
10
257.557080330393
20
-17.301318729904
30
0
41
1
10
256.2089397383
20
-17.0952367385105
30
0
41
1
10
255.534886413099
20
-16.9851877243165
30
0
41
1
10
253.514713389508
20
-16.6351277037965
30
0
41
1
10
252.169954363354
20
-16.3746607216261
30
0
41
1
10
249.477527986884
20
-15.8077894507824
30
0
41
1
10
248.129648794922
20
-15.5016048163055
30
0
41
1
10
245.422850203215
20
-14.8573629628696
30
0
41
1
10
244.06386568776
20
-14.5194593782061
30
0
41
1
10
241.329197567787
20
-13.8265913420391
30
0
41
1
10
239.952870155289
20
-13.4714558540777
30
0
41
1
10
237.189439226276
20
-12.7633833048436
30
0
41
1
10
235.801049172174
20
-12.4103336227466
30
0
41
1
10
231.614628398085
20
-11.3674208304188
30
0
41
1
10
228.795452541417
20
-10.6936123839806
30
0
41
1
10
225.230915719866
20
-9.92208482267793
30
0
41
1
10
224.515949313719
20
-9.77132622301909
30
0
41
1
10
223.084310710828
20
-9.47854935685811
30
0
41
1
10
222.367317190489
20
-9.33651139327816
30
0
41
1
10
220.212765960875
20
-8.92443341003192
30
0
41
1
10
218.771665751765
20
-8.66831911822311
30
0
41
1
10
215.880066798407
20
-8.19647681390774
30
0
41
1
10
214.429531117436
20
-7.98092966821486
30
0
41
1
10
211.519248007977
20
-7.59213173883916
30
0
41
1
10
210.059104888105
20
-7.41862044034912
30
0
41
1
10
207.132016902804
20
-7.11355196110961
30
0
41
1
10
205.667309620476
20
-6.9808552633483
30
0
41
1
10
203.468028605314
20
-6.82106291402633
30
0
41
1
10
202.734542386837
20
-6.77474597481574
30
0
41
1
10
201.266761387051
20
-6.69657058608169
30
0
41
1
10
200.532480366313
20
-6.66446489801731
30
0
41
1
10
198.32859824613
20
-6.58684198443839
30
0
41
1
10
196.857858516401
20
-6.56183742300874
30
0
41
1
10
193.915614527071
20
-6.52568166162823
30
0
41
1
10
192.444139147211
20
-6.51252049608138
30
0
41
1
10
185.086825430717
20
-6.46767050880706
30
0
41
1
10
179.200994714338
20
-6.50148627725901
30
0
41
1
10
171.843706132376
20
-6.53951621822847
30
0
41
1
10
170.372248193527
20
-6.54692221128423
30
0
41
1
10
167.429329389811
20
-6.55912961966842
30
0
41
1
10
165.957868265614
20
-6.56370065237076
30
0
41
1
10
161.543479189976
20
-6.57234355547826
30
0
41
1
10
158.600546777932
20
-6.57245011974851
30
0
41
1
10
152.714678844804
20
-6.56990053675898
30
0
41
1
10
149.771742761981
20
-6.56674463489591
30
0
41
1
10
143.885870545678
20
-6.56038694005917
30
0
41
1
10
140.942934717624
20
-6.55745672107872
30
0
41
1
10
138
20
-6.5555136835269
30
0
0
SPLINE
5
335
100
AcDbEntity
8
1
62
256
6
ByLayer
370
13
48
1
60
0
100
AcDbSpline
70
4
71
2
72
6
73
3
40
0
40
0
40
0
40
1
40
1
40
1
41
1
10
261.519098288932
20
8.03118342965843
30
0
41
1
10
261.407626393887
20
8.0741725284866
30
0
41
1
10
261.296189045263
20
8.11944930986553
30
0
0
SPLINE
5
336
100
AcDbEntity
8
1
62
256
6
ByLayer
370
13
48
1
60
0
100
AcDbSpline
70
4
71
2
72
6
73
3
40
0
40
0
40
0
40
1
40
1
40
1
41
1
10
299.040455814211
20
6.85033880845126
30
0
41
1
10
299.107097370776
20
6.91895287152508
30
0
41
1
10
299.173188943918
20
6.97429363978969
30
0
0
SPLINE
5
337
100
AcDbEntity
8
1
62
256
6
ByLayer
370
13
48
1
60
0
100
AcDbSpline
70
4
71
2
72
6
73
3
40
0
40
0
40
0
40
1
40
1
40
1
41
1
10
285.811743805245
20
6.2740499720596
30
0
41
1
10
285.883258007297
20
6.22592081688947
30
0
41
1
10
285.956706617013
20
6.16464856832988
30
0
0
SPLINE
5
338
100
AcDbEntity
8
1
62
256
6
ByLayer
370
13
48
1
60
0
100
AcDbSpline
70
4
71
3
72
15
73
11
40
0
40
0
40
0
40
0
40
0.186502151008814
40
0.373398181084377
40
0.56022431168791
40
0.648156921708964
40
0.735887091184389
40
0.823976900496224
40
0.9122049211509
40
1
40
1
40
1
40
1
41
1
10
5.4552000000011
20
-24.7500000000075
30
0
41
1
10
7.02362935359513
20
-24.5294324014594
30
0
41
1
10
10.1393331480547
20
-23.978931266757
30
0
41
1
10
14.7516839319769
20
-22.8256924811804
30
0
41
1
10
18.4733834205211
20
-21.6058613167587
30
0
41
1
10
21.3433925095289
20
-20.5078961731607
30
0
41
1
10
23.3959373487682
20
-19.6158069414624
30
0
41
1
10
25.5517131216493
20
-18.9921488326352
30
0
41
1
10
27.763771750106
20
-18.6093516368068
30
0
41
1
10
29.2521932645701
20
-18.5252726616985
30
0
41
1
10
30
20
-18.525
30
0
0
SPLINE
5
339
100
AcDbEntity
8
1
62
256
6
ByLayer
370
13
48
1
60
0
100
AcDbSpline
70
4
71
3
72
16
73
12
40
0
40
0
40
0
40
0
40
0.0931261272845185
40
0.186700326275905
40
0.280041239516332
40
0.37311527035227
40
0.466412448891114
40
0.559826500904535
40
0.706705649748691
40
0.853505021350748
40
1
40
1
40
1
40
1
41
1
10
30
20
18.5249999999999
30
0
41
1
10
29.2062821487313
20
18.5253451946444
30
0
41
1
10
27.6283132293591
20
18.6206369217263
30
0
41
1
10
25.284939015298
20
19.0478277541404
30
0
41
1
10
23.0148453151683
20
19.7601139905849
30
0
41
1
10
20.8432007164803
20
20.7161648742713
30
0
41
1
10
18.6169113698224
20
21.5363740052818
30
0
41
1
10
15.9365855173397
20
22.4388476072105
30
0
41
1
10
12.7790583818381
20
23.3384013765125
30
0
41
1
10
9.13739116115552
20
24.163207418347
30
0
41
1
10
6.68635727775249
20
24.5769191212983
30
0
41
1
10
5.45520000000116
20
24.7500000000075
30
0
0
SPLINE
5
33A
100
AcDbEntity
8
1
62
256
6
ByLayer
370
18
48
1
60
0
100
AcDbSpline
70
4
71
3
72
8
73
4
40
0
40
0
40
0
40
0
40
1
40
1
40
1
40
1
41
1
10
291.432568410981
20
-4.63917529047825
30
0
41
1
10
291.484485107131
20
-4.5211825939771
30
0
41
1
10
291.547967352879
20
-4.40831211008611
30
0
41
1
10
291.621975315533
20
-4.30247441987805
30
0
0
LINE
5
7F
100
AcDbEntity
8
SK1
62
256
6
ByLayer
370
13
48
1
60
0
100
AcDbLine
10
-70
20
-18.996
30
0
11
-70
21
-6.623111
31
0
39
0
210
0
220
0
230
1
0
LINE
5
81
100
AcDbEntity
8
SK1
62
256
6
ByLayer
370
13
48
1
60
0
100
AcDbLine
10
-70
20
6.623111
30
0
11
-70
21
18.996
31
0
39
0
210
0
220
0
230
1
0
LINE
5
82
100
AcDbEntity
8
SK1
62
256
6
ByLayer
370
13
48
1
60
0
100
AcDbLine
10
-69
20
9.102615
30
0
11
-68.599999
21
9.102615
31
0
39
0
210
0
220
0
230
1
0
LINE
5
83
100
AcDbEntity
8
SK1
62
256
6
ByLayer
370
13
48
1
60
0
100
AcDbLine
10
-6.5
20
-9.102615
30
0
11
-6.5
21
9.102615
31
0
39
0
210
0
220
0
230
1
0
LINE
5
84
100
AcDbEntity
8
SK1
62
256
6
ByLayer
370
13
48
1
60
0
100
AcDbLine
10
-6.5
20
-9.102615
30
0
11
-66.600002
21
-9.102615
31
0
39
0
210
0
220
0
230
1
0
LINE
5
85
100
AcDbEntity
8
SK1
62
256
6
ByLayer
370
13
48
1
60
0
100
AcDbLine
10
-68.599999
20
-19.996
30
0
11
-68.599999
21
-9.102615
31
0
39
0
210
0
220
0
230
1
0
LINE
5
86
100
AcDbEntity
8
SK1
62
256
6
ByLayer
370
13
48
1
60
0
100
AcDbLine
10
-68.599999
20
9.102615
30
0
11
-68.599999
21
19.996
31
0
39
0
210
0
220
0
230
1
0
LINE
5
87
100
AcDbEntity
8
SK1
62
256
6
ByLayer
370
13
48
1
60
0
100
AcDbLine
10
-2
20
-19.996
30
0
11
-2
21
19.996
31
0
39
0
210
0
220
0
230
1
0
LINE
5
88
100
AcDbEntity
8
SK1
62
256
6
ByLayer
370
13
48
1
60
0
100
AcDbLine
10
-1.544243
20
-19.783477
30
0
11
-1.544243
21
19.783477
31
0
39
0
210
0
220
0
230
1
0
LINE
5
89
100
AcDbEntity
8
SK1
62
256
6
ByLayer
370
13
48
1
60
0
100
AcDbLine
10
-66.600002
20
9.102615
30
0
11
-6.5
21
9.102615
31
0
39
0
210
0
220
0
230
1
0
LINE
5
8A
100
AcDbEntity
8
SK1
62
256
6
ByLayer
370
13
48
1
60
0
100
AcDbLine
10
-66.600002
20
19.996
30
0
11
-66.600002
21
9.102615
31
0
39
0
210
0
220
0
230
1
0
LINE
5
8B
100
AcDbEntity
8
SK1
62
256
6
ByLayer
370
13
48
1
60
0
100
AcDbLine
10
-66.600002
20
-9.102615
30
0
11
-66.600002
21
-19.996
31
0
39
0
210
0
220
0
230
1
0
LINE
5
8C
100
AcDbEntity
8
1
62
256
6
ByLayer
370
18
48
1
60
0
100
AcDbLine
10
293.104419
20
13.409767
30
0
11
293.112572
21
13.428037
31
0
39
0
210
0
220
0
230
1
0
LINE
5
8D
100
AcDbEntity
8
1
62
256
6
ByLayer
370
18
48
1
60
0
100
AcDbLine
10
292.011464
20
13.693271
30
0
11
291.895473
21
13.687192
31
0
39
0
210
0
220
0
230
1
0
LINE
5
8E
100
AcDbEntity
8
1
62
256
6
ByLayer
370
18
48
1
60
0
100
AcDbLine
10
293.228563
20
13.434116
30
0
11
293.112572
21
13.428037
31
0
39
0
210
0
220
0
230
1
0
LINE
5
8F
100
AcDbEntity
8
1
62
256
6
ByLayer
370
18
48
1
60
0
100
AcDbLine
10
292.022131
20
13.676985
30
0
11
291.907155
21
13.670959
31
0
39
0
210
0
220
0
230
1
0
LINE
5
90
100
AcDbEntity
8
1
62
256
6
ByLayer
370
18
48
1
60
0
100
AcDbLine
10
293.219395
20
13.415792
30
0
11
293.104419
21
13.409767
31
0
39
0
210
0
220
0
230
1
0
LINE
5
91
100
AcDbEntity
8
1
62
256
6
ByLayer
370
18
48
1
60
0
100
AcDbLine
10
293.478277
20
12.237983
30
0
11
293.498112
21
12.24002
31
0
39
0
210
0
220
0
230
1
0
LINE
5
92
100
AcDbEntity
8
1
62
256
6
ByLayer
370
18
48
1
60
0
100
AcDbLine
10
293.464356
20
12.884133
30
0
11
293.444417
21
12.884085
31
0
39
0
210
0
220
0
230
1
0
LINE
5
93
100
AcDbEntity
8
1
62
256
6
ByLayer
370
18
48
1
60
0
100
AcDbLine
10
291.213662
20
12.120297
30
0
11
291.151163
21
12.117022
31
0
39
0
210
0
220
0
230
1
0
LINE
5
94
100
AcDbEntity
8
1
62
256
6
ByLayer
370
18
48
1
60
0
100
AcDbLine
10
293.559393
20
12.890111
30
0
11
293.444417
21
12.884085
31
0
39
0
210
0
220
0
230
1
0
LINE
5
95
100
AcDbEntity
8
1
62
256
6
ByLayer
370
18
48
1
60
0
100
AcDbLine
10
291.179905
20
12.76441
30
0
11
291.115072
21
12.761012
31
0
39
0
210
0
220
0
230
1
0
LINE
5
96
100
AcDbEntity
8
1
62
256
6
ByLayer
370
18
48
1
60
0
100
AcDbLine
10
293.205109
20
11.662324
30
0
11
293.195091
21
11.679642
31
0
39
0
210
0
220
0
230
1
0
LINE
5
97
100
AcDbEntity
8
1
62
256
6
ByLayer
370
18
48
1
60
0
100
AcDbLine
10
293.310067
20
11.685668
30
0
11
293.195091
21
11.679642
31
0
39
0
210
0
220
0
230
1
0
LINE
5
98
100
AcDbEntity
8
1
62
256
6
ByLayer
370
18
48
1
60
0
100
AcDbLine
10
293.3211
20
11.668403
30
0
11
293.205109
21
11.662324
31
0
39
0
210
0
220
0
230
1
0
LINE
5
99
100
AcDbEntity
8
1
62
256
6
ByLayer
370
18
48
1
60
0
100
AcDbLine
10
292.021767
20
11.277367
30
0
11
292.031688
21
11.294733
31
0
39
0
210
0
220
0
230
1
0
LINE
5
9A
100
AcDbEntity
8
1
62
256
6
ByLayer
370
18
48
1
60
0
100
AcDbLine
10
292.146664
20
11.300758
30
0
11
292.031688
21
11.294733
31
0
39
0
210
0
220
0
230
1
0
LINE
5
9B
100
AcDbEntity
8
1
62
256
6
ByLayer
370
18
48
1
60
0
100
AcDbLine
10
291.907155
20
13.670959
30
0
11
291.895473
21
13.687192
31
0
39
0
210
0
220
0
230
1
0
LINE
5
9C
100
AcDbEntity
8
1
62
256
6
ByLayer
370
18
48
1
60
0
100
AcDbLine
10
292.137757
20
11.283446
30
0
11
292.021767
21
11.277367
31
0
39
0
210
0
220
0
230
1
0
LINE
5
9D
100
AcDbEntity
8
1
62
256
6
ByLayer
370
18
48
1
60
0
100
AcDbLine
10
293.593254
20
12.244009
30
0
11
293.478277
21
12.237983
31
0
39
0
210
0
220
0
230
1
0
LINE
5
9E
100
AcDbEntity
8
1
62
256
6
ByLayer
370
18
48
1
60
0
100
AcDbLine
10
298.699525
20
-10.805619
30
0
11
298.601348
21
-10.833647
31
0
39
0
210
0
220
0
230
1
0
LINE
5
9F
100
AcDbEntity
8
1
62
256
6
ByLayer
370
18
48
1
60
0
100
AcDbLine
10
298.807623
20
-0.119767
30
0
11
299.617968
21
-5.213728
31
0
39
0
210
0
220
0
230
1
0
LINE
5
A0
100
AcDbEntity
8
1
62
256
6
ByLayer
370
18
48
1
60
0
100
AcDbLine
10
299.620973
20
-5.442293
30
0
11
298.950058
21
-10.516132
31
0
39
0
210
0
220
0
230
1
0
LINE
5
A1
100
AcDbEntity
8
1
62
256
6
ByLayer
370
18
48
1
60
0
100
AcDbLine
10
298.758329
20
0.072927
30
0
11
298.786481
21
-0.024821
31
0
39
0
210
0
220
0
230
1
0
LINE
5
A2
100
AcDbEntity
8
1
62
256
6
ByLayer
370
18
48
1
60
0
100
AcDbLine
10
298.414859
20
0.329275
30
0
11
298.467572
21
0.322365
31
0
39
0
210
0
220
0
230
1
0
LINE
5
A3
100
AcDbEntity
8
1
62
256
6
ByLayer
370
13
48
1
60
0
100
AcDbLine
10
286.868172
20
6.223199
30
0
11
287.011506
21
6.229452
31
0
39
0
210
0
220
0
230
1
0
LINE
5
A4
100
AcDbEntity
8
1
62
256
6
ByLayer
370
13
48
1
60
0
100
AcDbLine
10
296.739477
20
7.650869
30
0
11
288.585724
21
7.223549
31
0
39
0
210
0
220
0
230
1
0
LINE
5
A5
100
AcDbEntity
8
1
62
256
6
ByLayer
370
13
48
1
60
0
100
AcDbLine
10
287.64939
20
6.991319
30
0
11
287.644778
21
6.991077
31
0
39
0
210
0
220
0
230
1
0
LINE
5
A6
100
AcDbEntity
8
1
62
256
6
ByLayer
370
13
48
1
60
0
100
AcDbLine
10
299.940165
20
13.08445
30
0
11
299.106593
21
18.362595
31
0
39
0
210
0
220
0
230
1
0
LINE
5
A7
100
AcDbEntity
8
1
62
256
6
ByLayer
370
13
48
1
60
0
100
AcDbLine
10
287.64939
20
6.991319
30
0
11
287.615033
21
7.208865
31
0
39
0
210
0
220
0
230
1
0
LINE
5
A8
100
AcDbEntity
8
1
62
256
6
ByLayer
370
13
48
1
60
0
100
AcDbLine
10
284.850783
20
12.155625
30
0
11
285.480722
21
16.968983
31
0
39
0
210
0
220
0
230
1
0
LINE
5
A9
100
AcDbEntity
8
1
62
256
6
ByLayer
370
13
48
1
60
0
100
AcDbLine
10
299.943208
20
12.854883
30
0
11
299.313269
21
8.041525
31
0
39
0
210
0
220
0
230
1
0
LINE
5
AA
100
AcDbEntity
8
1
62
256
6
ByLayer
370
13
48
1
60
0
100
AcDbLine
10
299.844484
20
12.867958
30
0
11
299.212915
21
8.04215
31
0
39
0
210
0
220
0
230
1
0
LINE
5
AB
100
AcDbEntity
8
1
62
256
6
ByLayer
370
13
48
1
60
0
100
AcDbLine
10
299.008249
20
18.346974
30
0
11
299.003637
21
18.346732
31
0
39
0
210
0
220
0
230
1
0
LINE
5
AC
100
AcDbEntity
8
1
62
256
6
ByLayer
370
13
48
1
60
0
100
AcDbLine
10
297.148048
20
7.891818
30
0
11
297.79872
21
12.863594
31
0
39
0
210
0
220
0
230
1
0
LINE
5
AD
100
AcDbEntity
8
1
62
256
6
ByLayer
370
13
48
1
60
0
100
AcDbLine
10
297.381289
20
7.642472
30
0
11
297.376677
21
7.64223
31
0
39
0
210
0
220
0
230
1
0
LINE
5
AE
100
AcDbEntity
8
1
62
256
6
ByLayer
370
13
48
1
60
0
100
AcDbLine
10
297.683735
20
19.015501
30
0
11
297.692178
21
19.015943
31
0
39
0
210
0
220
0
230
1
0
LINE
5
AF
100
AcDbEntity
8
1
62
256
6
ByLayer
370
13
48
1
60
0
100
AcDbLine
10
299.189353
20
7.750954
30
0
11
299.126056
21
7.151147
31
0
39
0
210
0
220
0
230
1
0
LINE
5
B0
100
AcDbEntity
8
1
62
256
6
ByLayer
370
13
48
1
60
0
100
AcDbLine
10
285.615685
20
17.896224
30
0
11
285.447584
21
17.869523
31
0
39
0
210
0
220
0
230
1
0
LINE
5
B1
100
AcDbEntity
8
1
62
256
6
ByLayer
370
13
48
1
60
0
100
AcDbLine
10
298.753984
20
7.092046
30
0
11
299.126056
21
7.151147
31
0
39
0
210
0
220
0
230
1
0
LINE
5
B2
100
AcDbEntity
8
1
62
256
6
ByLayer
370
13
48
1
60
0
100
AcDbLine
10
285.081239
20
11.964145
30
0
11
285.91481
21
6.686
31
0
39
0
210
0
220
0
230
1
0
LINE
5
B3
100
AcDbEntity
8
1
62
256
6
ByLayer
370
13
48
1
60
0
100
AcDbLine
10
297.900822
20
18.936199
30
0
11
297.89621
21
18.935957
31
0
39
0
210
0
220
0
230
1
0
LINE
5
B4
100
AcDbEntity
8
1
62
256
6
ByLayer
370
13
48
1
60
0
100
AcDbLine
10
299.844484
20
12.867958
30
0
11
299.839871
21
12.867716
31
0
39
0
210
0
220
0
230
1
0
LINE
5
B5
100
AcDbEntity
8
1
62
256
6
ByLayer
370
13
48
1
60
0
100
AcDbLine
10
287.673616
20
17.12014
30
0
11
287.022945
21
12.148365
31
0
39
0
210
0
220
0
230
1
0
LINE
5
B6
100
AcDbEntity
8
1
62
256
6
ByLayer
370
13
48
1
60
0
100
AcDbLine
10
284.696421
20
11.824499
30
0
11
285.657367
21
6.64707
31
0
39
0
210
0
220
0
230
1
0
LINE
5
B7
100
AcDbEntity
8
1
62
256
6
ByLayer
370
13
48
1
60
0
100
AcDbLine
10
297.363895
20
7.53846
30
0
11
298.729599
21
7.755392
31
0
39
0
210
0
220
0
230
1
0
LINE
5
B8
100
AcDbEntity
8
1
62
256
6
ByLayer
370
13
48
1
60
0
100
AcDbLine
10
287.036503
20
6.080562
30
0
11
286.893169
21
6.074309
31
0
39
0
210
0
220
0
230
1
0
LINE
5
B9
100
AcDbEntity
8
1
62
256
6
ByLayer
370
13
48
1
60
0
100
AcDbLine
10
299.839871
20
12.867716
30
0
11
299.208303
21
8.041909
31
0
39
0
210
0
220
0
230
1
0
LINE
5
BA
100
AcDbEntity
8
1
62
256
6
ByLayer
370
13
48
1
60
0
100
AcDbLine
10
284.666939
20
11.056914
30
0
11
285.433563
21
7.85288
31
0
39
0
210
0
220
0
230
1
0
LINE
5
BB
100
AcDbEntity
8
1
62
256
6
ByLayer
370
13
48
1
60
0
100
AcDbLine
10
298.335172
20
18.937441
30
0
11
298.33056
21
18.937199
31
0
39
0
210
0
220
0
230
1
0
LINE
5
BC
100
AcDbEntity
8
1
62
256
6
ByLayer
370
13
48
1
60
0
100
AcDbLine
10
284.667448
20
12.377351
30
0
11
284.710669
21
12.786919
31
0
39
0
210
0
220
0
230
1
0
LINE
5
BD
100
AcDbEntity
8
1
62
256
6
ByLayer
370
13
48
1
60
0
100
AcDbLine
10
284.667448
20
12.377351
30
0
11
284.67116
21
12.680921
31
0
39
0
210
0
220
0
230
1
0
LINE
5
BE
100
AcDbEntity
8
1
62
256
6
ByLayer
370
13
48
1
60
0
100
AcDbLine
10
299.154969
20
6.963054
30
0
11
299.126056
21
7.151147
31
0
39
0
210
0
220
0
230
1
0
LINE
5
BF
100
AcDbEntity
8
1
62
256
6
ByLayer
370
13
48
1
60
0
100
AcDbLine
10
287.522414
20
17.255948
30
0
11
286.856409
21
12.16701
31
0
39
0
210
0
220
0
230
1
0
LINE
5
C0
100
AcDbEntity
8
1
62
256
6
ByLayer
370
13
48
1
60
0
100
AcDbLine
10
286.401059
20
18.242537
30
0
11
286.106498
21
18.243667
31
0
39
0
210
0
220
0
230
1
0
LINE
5
C1
100
AcDbEntity
8
1
62
256
6
ByLayer
370
13
48
1
60
0
100
AcDbLine
10
285.705765
20
17.096903
30
0
11
287.412703
21
17.368036
31
0
39
0
210
0
220
0
230
1
0
LINE
5
C2
100
AcDbEntity
8
1
62
256
6
ByLayer
370
13
48
1
60
0
100
AcDbLine
10
299.84182
20
13.068828
30
0
11
299.837208
21
13.068587
31
0
39
0
210
0
220
0
230
1
0
LINE
5
C3
100
AcDbEntity
8
1
62
256
6
ByLayer
370
13
48
1
60
0
100
AcDbLine
10
286.694485
20
12.185897
30
0
11
287.351803
21
17.208453
31
0
39
0
210
0
220
0
230
1
0
LINE
5
C4
100
AcDbEntity
8
1
62
256
6
ByLayer
370
13
48
1
60
0
100
AcDbLine
10
285.785743
20
6.663535
30
0
11
284.952171
21
11.94168
31
0
39
0
210
0
220
0
230
1
0
LINE
5
C5
100
AcDbEntity
8
1
62
256
6
ByLayer
370
13
48
1
60
0
100
AcDbLine
10
297.368613
20
7.641286
30
0
11
297.376677
21
7.64223
31
0
39
0
210
0
220
0
230
1
0
LINE
5
C6
100
AcDbEntity
8
1
62
256
6
ByLayer
370
13
48
1
60
0
100
AcDbLine
10
297.752007
20
19.029802
30
0
11
297.683735
21
19.015501
31
0
39
0
210
0
220
0
230
1
0
LINE
5
C7
100
AcDbEntity
8
1
62
256
6
ByLayer
370
13
48
1
60
0
100
AcDbLine
10
284.667448
20
12.377351
30
0
11
284.662367
21
12.279572
31
0
39
0
210
0
220
0
230
1
0
LINE
5
C8
100
AcDbEntity
8
1
62
256
6
ByLayer
370
13
48
1
60
0
100
AcDbLine
10
297.752007
20
19.029802
30
0
11
297.753123
21
19.029851
31
0
39
0
210
0
220
0
230
1
0
LINE
5
C9
100
AcDbEntity
8
1
62
256
6
ByLayer
370
13
48
1
60
0
100
AcDbLine
10
287.21968
20
6.226853
30
0
11
287.215068
21
6.226611
31
0
39
0
210
0
220
0
230
1
0
LINE
5
CA
100
AcDbEntity
8
1
62
256
6
ByLayer
370
13
48
1
60
0
100
AcDbLine
10
297.328118
20
18.80254
30
0
11
297.478357
21
18.810414
31
0
39
0
210
0
220
0
230
1
0
LINE
5
CB
100
AcDbEntity
8
1
62
256
6
ByLayer
370
13
48
1
60
0
100
AcDbLine
10
286.861021
20
12.167252
30
0
11
287.511693
21
17.139027
31
0
39
0
210
0
220
0
230
1
0
LINE
5
CC
100
AcDbEntity
8
1
62
256
6
ByLayer
370
13
48
1
60
0
100
AcDbLine
10
287.479409
20
6.992352
30
0
11
286.697719
21
11.941982
31
0
39
0
210
0
220
0
230
1
0
LINE
5
CD
100
AcDbEntity
8
1
62
256
6
ByLayer
370
13
48
1
60
0
100
AcDbLine
10
297.757489
20
18.929946
30
0
11
297.900822
21
18.936199
31
0
39
0
210
0
220
0
230
1
0
LINE
5
CE
100
AcDbEntity
8
1
62
256
6
ByLayer
370
13
48
1
60
0
100
AcDbLine
10
297.75349
20
18.929731
30
0
11
297.89621
21
18.935957
31
0
39
0
210
0
220
0
230
1
0
LINE
5
CF
100
AcDbEntity
8
1
62
256
6
ByLayer
370
13
48
1
60
0
100
AcDbLine
10
299.046379
20
8.060795
30
0
11
299.677948
21
12.886603
31
0
39
0
210
0
220
0
230
1
0
LINE
5
D0
100
AcDbEntity
8
1
62
256
6
ByLayer
370
13
48
1
60
0
100
AcDbLine
10
284.784456
20
12.950725
30
0
11
284.678257
21
12.139257
31
0
39
0
210
0
220
0
230
1
0
LINE
5
D1
100
AcDbEntity
8
1
62
256
6
ByLayer
370
13
48
1
60
0
100
AcDbLine
10
297.796628
20
13.021421
30
0
11
297.045279
21
17.778937
31
0
39
0
210
0
220
0
230
1
0
LINE
5
D2
100
AcDbEntity
8
1
62
256
6
ByLayer
370
13
48
1
60
0
100
AcDbLine
10
297.277686
20
18.016222
30
0
11
298.059375
21
13.066592
31
0
39
0
210
0
220
0
230
1
0
LINE
5
D3
100
AcDbEntity
8
1
62
256
6
ByLayer
370
13
48
1
60
0
100
AcDbLine
10
299.083614
20
7.913364
30
0
11
297.376677
21
7.64223
31
0
39
0
210
0
220
0
230
1
0
LINE
5
D4
100
AcDbEntity
8
1
62
256
6
ByLayer
370
13
48
1
60
0
100
AcDbLine
10
287.351803
20
17.208453
30
0
11
285.710715
21
16.947779
31
0
39
0
210
0
220
0
230
1
0
LINE
5
D5
100
AcDbEntity
8
1
62
256
6
ByLayer
370
13
48
1
60
0
100
AcDbLine
10
286.863684
20
11.966381
30
0
11
286.859072
21
11.966139
31
0
39
0
210
0
220
0
230
1
0
LINE
5
D6
100
AcDbEntity
8
1
62
256
6
ByLayer
370
13
48
1
60
0
100
AcDbLine
10
285.964997
20
18.412071
30
0
11
285.963881
21
18.412003
31
0
39
0
210
0
220
0
230
1
0
LINE
5
D7
100
AcDbEntity
8
1
62
256
6
ByLayer
370
13
48
1
60
0
100
AcDbLine
10
287.615033
20
7.208865
30
0
11
286.863684
21
11.966381
31
0
39
0
210
0
220
0
230
1
0
LINE
5
D8
100
AcDbEntity
8
1
62
256
6
ByLayer
370
13
48
1
60
0
100
AcDbLine
10
287.101814
20
5.994565
30
0
11
287.041985
21
5.980706
31
0
39
0
210
0
220
0
230
1
0
LINE
5
D9
100
AcDbEntity
8
1
62
256
6
ByLayer
370
13
48
1
60
0
100
AcDbLine
10
286.859072
20
11.966139
30
0
11
287.644778
21
6.991077
31
0
39
0
210
0
220
0
230
1
0
LINE
5
DA
100
AcDbEntity
8
1
62
256
6
ByLayer
370
13
48
1
60
0
100
AcDbLine
10
298.729599
20
7.755392
30
0
11
299.099516
21
7.81415
31
0
39
0
210
0
220
0
230
1
0
LINE
5
DB
100
AcDbEntity
8
1
62
256
6
ByLayer
370
13
48
1
60
0
100
AcDbLine
10
288.054514
20
17.359639
30
0
11
296.208267
21
17.786959
31
0
39
0
210
0
220
0
230
1
0
LINE
5
DC
100
AcDbEntity
8
1
62
256
6
ByLayer
370
13
48
1
60
0
100
AcDbLine
10
299.008249
20
18.346974
30
0
11
299.84182
21
13.068828
31
0
39
0
210
0
220
0
230
1
0
LINE
5
DD
100
AcDbEntity
8
1
62
256
6
ByLayer
370
13
48
1
60
0
100
AcDbLine
10
298.753984
20
7.092046
30
0
11
299.099516
21
7.81415
31
0
39
0
210
0
220
0
230
1
0
LINE
5
DE
100
AcDbEntity
8
1
62
256
6
ByLayer
370
13
48
1
60
0
100
AcDbLine
10
285.964997
20
18.412071
30
0
11
286.034389
21
18.404985
31
0
39
0
210
0
220
0
230
1
0
LINE
5
DF
100
AcDbEntity
8
1
62
256
6
ByLayer
370
13
48
1
60
0
100
AcDbLine
10
285.710715
20
16.947779
30
0
11
285.079146
21
12.121972
31
0
39
0
210
0
220
0
230
1
0
LINE
5
E0
100
AcDbEntity
8
1
62
256
6
ByLayer
370
13
48
1
60
0
100
AcDbLine
10
287.025037
20
11.990538
30
0
11
287.776386
21
7.233022
31
0
39
0
210
0
220
0
230
1
0
LINE
5
E1
100
AcDbEntity
8
1
62
256
6
ByLayer
370
13
48
1
60
0
100
AcDbLine
10
299.088226
20
7.913606
30
0
11
297.381289
21
7.642472
31
0
39
0
210
0
220
0
230
1
0
LINE
5
E2
100
AcDbEntity
8
1
62
256
6
ByLayer
370
13
48
1
60
0
100
AcDbLine
10
287.430097
20
17.472048
30
0
11
285.694476
21
17.196358
31
0
39
0
210
0
220
0
230
1
0
LINE
5
E3
100
AcDbEntity
8
1
62
256
6
ByLayer
370
13
48
1
60
0
100
AcDbLine
10
298.472559
20
6.741825
30
0
11
298.729599
21
7.755392
31
0
39
0
210
0
220
0
230
1
0
LINE
5
E4
100
AcDbEntity
8
1
62
256
6
ByLayer
370
13
48
1
60
0
100
AcDbLine
10
297.757489
20
18.929946
30
0
11
297.752877
21
18.929705
31
0
39
0
210
0
220
0
230
1
0
LINE
5
E5
100
AcDbEntity
8
1
62
256
6
ByLayer
370
13
48
1
60
0
100
AcDbLine
10
298.062609
20
12.822678
30
0
11
297.405291
21
7.800122
31
0
39
0
210
0
220
0
230
1
0
LINE
5
E6
100
AcDbEntity
8
1
62
256
6
ByLayer
370
13
48
1
60
0
100
AcDbLine
10
297.888922
20
18.785375
30
0
11
297.745589
21
18.779122
31
0
39
0
210
0
220
0
230
1
0
LINE
5
E7
100
AcDbEntity
8
1
62
256
6
ByLayer
370
13
48
1
60
0
100
AcDbLine
10
297.405291
20
7.800122
30
0
11
299.046379
21
8.060795
31
0
39
0
210
0
220
0
230
1
0
LINE
5
E8
100
AcDbEntity
8
1
62
256
6
ByLayer
370
13
48
1
60
0
100
AcDbLine
10
299.675855
20
13.04443
30
0
11
298.842284
21
18.322575
31
0
39
0
210
0
220
0
230
1
0
LINE
5
E9
100
AcDbEntity
8
1
62
256
6
ByLayer
370
13
48
1
60
0
100
AcDbLine
10
287.527026
20
17.25619
30
0
11
287.522414
21
17.255948
31
0
39
0
210
0
220
0
230
1
0
LINE
5
EA
100
AcDbEntity
8
1
62
256
6
ByLayer
370
13
48
1
60
0
100
AcDbLine
10
297.144602
20
18.019189
30
0
11
297.176829
21
17.815124
31
0
39
0
210
0
220
0
230
1
0
LINE
5
EB
100
AcDbEntity
8
1
62
256
6
ByLayer
370
13
48
1
60
0
100
AcDbLine
10
299.003637
20
18.346732
30
0
11
299.837208
21
13.068587
31
0
39
0
210
0
220
0
230
1
0
LINE
5
EC
100
AcDbEntity
8
1
62
256
6
ByLayer
370
13
48
1
60
0
100
AcDbLine
10
285.615685
20
17.896224
30
0
11
285.694476
21
17.196358
31
0
39
0
210
0
220
0
230
1
0
LINE
5
ED
100
AcDbEntity
8
1
62
256
6
ByLayer
370
13
48
1
60
0
100
AcDbLine
10
285.480722
20
16.968983
30
0
11
285.447644
21
17.262806
31
0
39
0
210
0
220
0
230
1
0
LINE
5
EE
100
AcDbEntity
8
1
62
256
6
ByLayer
370
13
48
1
60
0
100
AcDbLine
10
287.620293
20
6.903809
30
0
11
287.61568
21
6.903567
31
0
39
0
210
0
220
0
230
1
0
LINE
5
EF
100
AcDbEntity
8
1
62
256
6
ByLayer
370
13
48
1
60
0
100
AcDbLine
10
297.941303
20
18.937529
30
0
11
297.936691
21
18.937287
31
0
39
0
210
0
220
0
230
1
0
LINE
5
F0
100
AcDbEntity
8
1
62
256
6
ByLayer
370
13
48
1
60
0
100
AcDbLine
10
299.212915
20
8.04215
30
0
11
299.208303
21
8.041909
31
0
39
0
210
0
220
0
230
1
0
LINE
5
F1
100
AcDbEntity
8
1
62
256
6
ByLayer
370
13
48
1
60
0
100
AcDbLine
10
284.949508
20
12.14255
30
0
11
285.581076
21
16.968358
31
0
39
0
210
0
220
0
230
1
0
LINE
5
F2
100
AcDbEntity
8
1
62
256
6
ByLayer
370
13
48
1
60
0
100
AcDbLine
10
286.861021
20
12.167252
30
0
11
286.856409
21
12.16701
31
0
39
0
210
0
220
0
230
1
0
LINE
5
F3
100
AcDbEntity
8
1
62
256
6
ByLayer
370
13
48
1
60
0
100
AcDbLine
10
284.853827
20
11.926059
30
0
11
285.687398
21
6.647913
31
0
39
0
210
0
220
0
230
1
0
LINE
5
F4
100
AcDbEntity
8
1
62
256
6
ByLayer
370
13
48
1
60
0
100
AcDbLine
10
299.088226
20
7.913606
30
0
11
299.083614
21
7.913364
31
0
39
0
210
0
220
0
230
1
0
LINE
5
F5
100
AcDbEntity
8
1
62
256
6
ByLayer
370
13
48
1
60
0
100
AcDbLine
10
297.692178
20
19.015943
30
0
11
297.752007
21
19.029802
31
0
39
0
210
0
220
0
230
1
0
LINE
5
F6
100
AcDbEntity
8
1
62
256
6
ByLayer
370
13
48
1
60
0
100
AcDbLine
10
287.511693
20
17.139027
30
0
11
287.527026
21
17.25619
31
0
39
0
210
0
220
0
230
1
0
LINE
5
F7
100
AcDbEntity
8
1
62
256
6
ByLayer
370
13
48
1
60
0
100
AcDbLine
10
299.38426
20
8.583969
30
0
11
299.287729
21
7.361407
31
0
39
0
210
0
220
0
230
1
0
LINE
5
F8
100
AcDbEntity
8
1
62
256
6
ByLayer
370
13
48
1
60
0
100
AcDbLine
10
284.696421
20
11.824499
30
0
11
284.681148
21
11.921211
31
0
39
0
210
0
220
0
230
1
0
LINE
5
F9
100
AcDbEntity
8
1
62
256
6
ByLayer
370
13
48
1
60
0
100
AcDbLine
10
287.041985
20
5.980706
30
0
11
287.040868
21
5.980657
31
0
39
0
210
0
220
0
230
1
0
LINE
5
FA
100
AcDbEntity
8
1
62
256
6
ByLayer
370
13
48
1
60
0
100
AcDbLine
10
297.28056
20
7.858198
30
0
11
297.266965
21
7.754318
31
0
39
0
210
0
220
0
230
1
0
LINE
5
FB
100
AcDbEntity
8
SK1
62
256
6
ByLayer
370
13
48
1
60
0
100
AcDbLine
10
-69
20
-19.996
30
0
11
-69
21
-9.102615
31
0
39
0
210
0
220
0
230
1
0
LINE
5
FC
100
AcDbEntity
8
SK1
62
256
6
ByLayer
370
13
48
1
60
0
100
AcDbLine
10
-69
20
9.102615
30
0
11
-69
21
19.996
31
0
39
0
210
0
220
0
230
1
0
LINE
5
FD
100
AcDbEntity
8
SK1
62
256
6
ByLayer
370
13
48
1
60
0
100
AcDbLine
10
-68.516222
20
19.892544
30
0
11
-68.516222
21
8.873042
31
0
39
0
210
0
220
0
230
1
0
LINE
5
FE
100
AcDbEntity
8
SK1
62
256
6
ByLayer
370
13
48
1
60
0
100
AcDbLine
10
-68.516222
20
-8.873042
30
0
11
-68.516222
21
-19.892544
31
0
39
0
210
0
220
0
230
1
0
LINE
5
FF
100
AcDbEntity
8
SK1
62
256
6
ByLayer
370
13
48
1
60
0
100
AcDbLine
10
-1.375195
20
-19.746
30
0
11
-1.375195
21
19.746
31
0
39
0
210
0
220
0
230
1
0
LINE
5
100
100
AcDbEntity
8
SK1
62
256
6
ByLayer
370
13
48
1
60
0
100
AcDbLine
10
-67.633813
20
19.639667
30
0
11
-67.633813
21
8.290603
31
0
39
0
210
0
220
0
230
1
0
LINE
5
101
100
AcDbEntity
8
SK1
62
256
6
ByLayer
370
13
48
1
60
0
100
AcDbLine
10
-67.633813
20
-8.290603
30
0
11
-67.633813
21
-19.639667
31
0
39
0
210
0
220
0
230
1
0
LINE
5
102
100
AcDbEntity
8
SK1
62
256
6
ByLayer
370
13
48
1
60
0
100
AcDbLine
10
-70
20
6.623111
30
0
11
-70
21
-6.623111
31
0
39
0
210
0
220
0
230
1
0
LINE
5
103
100
AcDbEntity
8
SK1
62
256
6
ByLayer
370
13
48
1
60
0
100
AcDbLine
10
-68.599999
20
-9.102615
30
0
11
-69
21
-9.102615
31
0
39
0
210
0
220
0
230
1
0
LINE
5
104
100
AcDbEntity
8
SK1
62
256
6
ByLayer
370
13
48
1
60
0
100
AcDbLine
10
-0.15
20
-19.746
30
0
11
-0.15
21
19.746
31
0
39
0
210
0
220
0
230
1
0
LINE
5
105
100
AcDbEntity
8
1
62
256
6
ByLayer
370
13
48
1
60
0
100
AcDbLine
10
35
20
-18.461539
30
0
11
35
21
-18.525
31
0
39
0
210
0
220
0
230
1
0
LINE
5
106
100
AcDbEntity
8
1
62
256
6
ByLayer
370
13
48
1
60
0
100
AcDbLine
10
290.581276
20
7.127857
30
0
11
288.813512
21
7.035213
31
0
39
0
210
0
220
0
230
1
0
LINE
5
107
100
AcDbEntity
8
1
62
256
6
ByLayer
370
13
48
1
60
0
100
AcDbLine
10
283.41256
20
18.525
30
0
11
283.41256
21
18.378108
31
0
39
0
210
0
220
0
230
1
0
LINE
5
108
100
AcDbEntity
8
1
62
256
6
ByLayer
370
13
48
1
60
0
100
AcDbLine
10
35
20
18.525
30
0
11
35
21
-6.561795
31
0
39
0
210
0
220
0
230
1
0
LINE
5
109
100
AcDbEntity
8
1
62
256
6
ByLayer
370
13
48
1
60
0
100
AcDbLine
10
280.41256
20
-18.256734
30
0
11
280.41256
21
-0.134474
31
0
39
0
210
0
220
0
230
1
0
LINE
5
10A
100
AcDbEntity
8
1
62
256
6
ByLayer
370
13
48
1
60
0
100
AcDbLine
10
284.944995
20
9.296236
30
0
11
284.578269
21
11.618332
31
0
39
0
210
0
220
0
230
1
0
LINE
5
10B
100
AcDbEntity
8
1
62
256
6
ByLayer
370
13
48
1
60
0
100
AcDbLine
10
297.952881
20
-18.445904
30
0
11
298.844964
21
-11.699473
31
0
39
0
210
0
220
0
230
1
0
LINE
5
10C
100
AcDbEntity
8
1
62
256
6
ByLayer
370
13
48
1
60
0
100
AcDbLine
10
290.725856
20
6.134062
30
0
11
291.456429
21
6.17235
31
0
39
0
210
0
220
0
230
1
0
LINE
5
10D
100
AcDbEntity
8
1
62
256
6
ByLayer
370
13
48
1
60
0
100
AcDbLine
10
298.844964
20
-11.699473
30
0
11
298.501876
21
-11.454744
31
0
39
0
210
0
220
0
230
1
0
LINE
5
10E
100
AcDbEntity
8
1
62
256
6
ByLayer
370
13
48
1
60
0
100
AcDbLine
10
280.41256
20
18.335
30
0
11
280.41256
21
18.148671
31
0
39
0
210
0
220
0
230
1
0
LINE
5
10F
100
AcDbEntity
8
1
62
256
6
ByLayer
370
13
48
1
60
0
100
AcDbLine
10
288.76995
20
6.955045
30
0
11
288.570934
21
6.944615
31
0
39
0
210
0
220
0
230
1
0
LINE
5
110
100
AcDbEntity
8
1
62
256
6
ByLayer
370
13
48
1
60
0
100
AcDbLine
10
299.018298
20
0.923258
30
0
11
298.82838
21
0.860009
31
0
39
0
210
0
220
0
230
1
0
LINE
5
111
100
AcDbEntity
8
1
62
256
6
ByLayer
370
13
48
1
60
0
100
AcDbLine
10
279.197822
20
8.888659
30
0
11
279.197822
21
11.917718
31
0
39
0
210
0
220
0
230
1
0
LINE
5
112
100
AcDbEntity
8
1
62
256
6
ByLayer
370
13
48
1
60
0
100
AcDbLine
10
0.1
20
-24.75
30
0
11
0.1
21
-4.949747
31
0
39
0
210
0
220
0
230
1
0
LINE
5
113
100
AcDbEntity
8
1
62
256
6
ByLayer
370
13
48
1
60
0
100
AcDbLine
10
297.638128
20
6.496319
30
0
11
298.471252
21
6.539981
31
0
39
0
210
0
220
0
230
1
0
LINE
5
114
100
AcDbEntity
8
1
62
256
6
ByLayer
370
13
48
1
60
0
100
AcDbLine
10
297.112263
20
0.771581
30
0
11
297.206647
21
-0.74148
31
0
39
0
210
0
220
0
230
1
0
LINE
5
115
100
AcDbEntity
8
1
62
256
6
ByLayer
370
13
48
1
60
0
100
AcDbLine
10
281.056916
20
7.780973
30
0
11
283.752853
21
6.952674
31
0
39
0
210
0
220
0
230
1
0
LINE
5
116
100
AcDbEntity
8
1
62
256
6
ByLayer
370
13
48
1
60
0
100
AcDbLine
10
284.810416
20
13.000921
30
0
11
285.454364
21
17.921316
31
0
39
0
210
0
220
0
230
1
0
LINE
5
117
100
AcDbEntity
8
1
62
256
6
ByLayer
370
13
48
1
60
0
100
AcDbLine
10
298.833059
20
6.65908
30
0
11
298.683629
21
6.651248
31
0
39
0
210
0
220
0
230
1
0
LINE
5
118
100
AcDbEntity
8
1
62
256
6
ByLayer
370
13
48
1
60
0
100
AcDbLine
10
295.021124
20
7.560814
30
0
11
296.512932
21
7.638996
31
0
39
0
210
0
220
0
230
1
0
LINE
5
119
100
AcDbEntity
8
1
62
256
6
ByLayer
370
13
48
1
60
0
100
AcDbLine
10
285.454364
20
17.921316
30
0
11
285.429234
21
18.400825
31
0
39
0
210
0
220
0
230
1
0
LINE
5
11A
100
AcDbEntity
8
1
62
256
6
ByLayer
370
13
48
1
60
0
100
AcDbLine
10
138
20
-18.267027
30
0
11
138
21
-18.335
31
0
39
0
210
0
220
0
230
1
0
LINE
5
11B
100
AcDbEntity
8
1
62
256
6
ByLayer
370
13
48
1
60
0
100
AcDbLine
10
298.796875
20
0.528027
30
0
11
298.78718
21
0.529298
31
0
39
0
210
0
220
0
230
1
0
LINE
5
11C
100
AcDbEntity
8
1
62
256
6
ByLayer
370
13
48
1
60
0
100
AcDbLine
10
280.41256
20
-18.256734
30
0
11
276.020775
21
-18.256734
31
0
39
0
210
0
220
0
230
1
0
LINE
5
11D
100
AcDbEntity
8
1
62
256
6
ByLayer
370
13
48
1
60
0
100
AcDbLine
10
283.41256
20
-18.445904
30
0
11
283.41256
21
-0.378813
31
0
39
0
210
0
220
0
230
1
0
LINE
5
11E
100
AcDbEntity
8
1
62
256
6
ByLayer
370
13
48
1
60
0
100
AcDbLine
10
298.866117
20
6.074593
30
0
11
298.833059
21
6.65908
31
0
39
0
210
0
220
0
230
1
0
LINE
5
11F
100
AcDbEntity
8
1
62
256
6
ByLayer
370
13
48
1
60
0
100
AcDbLine
10
298.896614
20
1.047197
30
0
11
298.877325
21
1.049725
31
0
39
0
210
0
220
0
230
1
0
LINE
5
120
100
AcDbEntity
8
1
62
256
6
ByLayer
370
13
48
1
60
0
100
AcDbLine
10
299.019465
20
6.081026
30
0
11
298.938964
21
5.779164
31
0
39
0
210
0
220
0
230
1
0
LINE
5
121
100
AcDbEntity
8
1
62
256
6
ByLayer
370
13
48
1
60
0
100
AcDbLine
10
299.144878
20
-6.148351
30
0
11
298.516334
21
-10.901751
31
0
39
0
210
0
220
0
230
1
0
LINE
5
122
100
AcDbEntity
8
1
62
256
6
ByLayer
370
13
48
1
60
0
100
AcDbLine
10
299.144878
20
-6.148351
30
0
11
297.709756
21
-4.885669
31
0
39
0
210
0
220
0
230
1
0
LINE
5
123
100
AcDbEntity
8
1
62
256
6
ByLayer
370
13
48
1
60
0
100
AcDbLine
10
279.468253
20
8.852705
30
0
11
280.722146
21
9.553612
31
0
39
0
210
0
220
0
230
1
0
LINE
5
124
100
AcDbEntity
8
1
62
256
6
ByLayer
370
13
48
1
60
0
100
AcDbLine
10
290.581276
20
7.127857
30
0
11
296.967265
21
7.462533
31
0
39
0
210
0
220
0
230
1
0
LINE
5
125
100
AcDbEntity
8
1
62
256
6
ByLayer
370
13
48
1
60
0
100
AcDbLine
10
297.638128
20
6.496319
30
0
11
297.129008
21
1.570044
31
0
39
0
210
0
220
0
230
1
0
LINE
5
126
100
AcDbEntity
8
1
62
256
6
ByLayer
370
13
48
1
60
0
100
AcDbLine
10
294.838372
20
7.514149
30
0
11
294.690731
21
7.506411
31
0
39
0
210
0
220
0
230
1
0
LINE
5
127
100
AcDbEntity
8
1
62
256
6
ByLayer
370
13
48
1
60
0
100
AcDbLine
10
299.019465
20
6.081026
30
0
11
299.018298
21
0.923258
31
0
39
0
210
0
220
0
230
1
0
LINE
5
128
100
AcDbEntity
8
1
62
256
6
ByLayer
370
13
48
1
60
0
100
AcDbLine
10
276.227289
20
1.898872
30
0
11
276.333187
21
1.239677
31
0
39
0
210
0
220
0
230
1
0
LINE
5
129
100
AcDbEntity
8
1
62
256
6
ByLayer
370
13
48
1
60
0
100
AcDbLine
10
297.629332
20
-3.129593
30
0
11
299.122458
21
-4.44331
31
0
39
0
210
0
220
0
230
1
0
LINE
5
12A
100
AcDbEntity
8
1
62
256
6
ByLayer
370
13
48
1
60
0
100
AcDbLine
10
288.856258
20
5.855665
30
0
11
289.406714
21
5.884513
31
0
39
0
210
0
220
0
230
1
0
LINE
5
12B
100
AcDbEntity
8
1
62
256
6
ByLayer
370
13
48
1
60
0
100
AcDbLine
10
298.796875
20
0.528027
30
0
11
298.804639
21
0.520119
31
0
39
0
210
0
220
0
230
1
0
LINE
5
12C
100
AcDbEntity
8
1
62
256
6
ByLayer
370
13
48
1
60
0
100
AcDbLine
10
30
20
18.525
30
0
11
30
21
-6.5626
31
0
39
0
210
0
220
0
230
1
0
LINE
5
12D
100
AcDbEntity
8
1
62
256
6
ByLayer
370
13
48
1
60
0
100
AcDbLine
10
297.952881
20
-18.445904
30
0
11
283.41256
21
-18.445904
31
0
39
0
210
0
220
0
230
1
0
LINE
5
12E
100
AcDbEntity
8
1
62
256
6
ByLayer
370
13
48
1
60
0
100
AcDbLine
10
5.4552
20
24.75
30
0
11
5.4552
21
4.949747
31
0
39
0
210
0
220
0
230
1
0
LINE
5
12F
100
AcDbEntity
8
1
62
256
6
ByLayer
370
13
48
1
60
0
100
AcDbLine
10
0.1
20
24.75
30
0
11
0.1
21
4.949747
31
0
39
0
210
0
220
0
230
1
0
LINE
5
130
100
AcDbEntity
8
1
62
256
6
ByLayer
370
13
48
1
60
0
100
AcDbLine
10
298.938964
20
5.779164
30
0
11
298.902982
21
5.777278
31
0
39
0
210
0
220
0
230
1
0
LINE
5
131
100
AcDbEntity
8
1
62
256
6
ByLayer
370
13
48
1
60
0
100
AcDbLine
10
291.456429
20
6.17235
30
0
11
297.638128
21
6.496319
31
0
39
0
210
0
220
0
230
1
0
LINE
5
132
100
AcDbEntity
8
1
62
256
6
ByLayer
370
13
48
1
60
0
100
AcDbLine
10
30
20
-18.461433
30
0
11
30
21
-18.525
31
0
39
0
210
0
220
0
230
1
0
LINE
5
133
100
AcDbEntity
8
1
62
256
6
ByLayer
370
13
48
1
60
0
100
AcDbLine
10
297.129008
20
1.570044
30
0
11
298.414492
21
0.439019
31
0
39
0
210
0
220
0
230
1
0
LINE
5
134
100
AcDbEntity
8
1
62
256
6
ByLayer
370
13
48
1
60
0
100
AcDbLine
10
298.485013
20
-0.436224
30
0
11
299.122458
21
-4.44331
31
0
39
0
210
0
220
0
230
1
0
LINE
5
135
100
AcDbEntity
8
1
62
256
6
ByLayer
370
13
48
1
60
0
100
AcDbLine
10
288.804288
20
7.034729
30
0
11
288.813512
21
7.035213
31
0
39
0
210
0
220
0
230
1
0
LINE
5
136
100
AcDbEntity
8
1
62
256
6
ByLayer
370
13
48
1
60
0
100
AcDbLine
10
288.529526
20
6.85959
30
0
11
288.076401
21
6.835843
31
0
39
0
210
0
220
0
230
1
0
LINE
5
137
100
AcDbEntity
8
1
62
256
6
ByLayer
370
13
48
1
60
0
100
AcDbLine
10
280.722146
20
9.553612
30
0
11
279.197822
21
11.917718
31
0
39
0
210
0
220
0
230
1
0
LINE
5
138
100
AcDbEntity
8
1
62
256
6
ByLayer
370
13
48
1
60
0
100
AcDbLine
10
280.424474
20
1.319542
30
0
11
280.661916
21
-0.158488
31
0
39
0
210
0
220
0
230
1
0
LINE
5
139
100
AcDbEntity
8
1
62
256
6
ByLayer
370
13
48
1
60
0
100
AcDbLine
10
0
20
24.65
30
0
11
0
21
4.422669
31
0
39
0
210
0
220
0
230
1
0
LINE
5
13A
100
AcDbEntity
8
1
62
256
6
ByLayer
370
13
48
1
60
0
100
AcDbLine
10
298.804639
20
0.520119
30
0
11
298.782318
21
0.523045
31
0
39
0
210
0
220
0
230
1
0
LINE
5
13B
100
AcDbEntity
8
1
62
256
6
ByLayer
370
13
48
1
60
0
100
AcDbLine
10
5.4552
20
-4.949747
30
0
11
0.1
21
-4.949747
31
0
39
0
210
0
220
0
230
1
0
LINE
5
13C
100
AcDbEntity
8
1
62
256
6
ByLayer
370
13
48
1
60
0
100
AcDbLine
10
0
20
-24.65
30
0
11
0
21
-4.422669
31
0
39
0
210
0
220
0
230
1
0
LINE
5
13D
100
AcDbEntity
8
1
62
256
6
ByLayer
370
13
48
1
60
0
100
AcDbLine
10
284.795382
20
10.520095
30
0
11
284.980108
21
9.350412
31
0
39
0
210
0
220
0
230
1
0
LINE
5
13E
100
AcDbEntity
8
1
62
256
6
ByLayer
370
13
48
1
60
0
100
AcDbLine
10
138
20
18.335
30
0
11
138
21
-6.555514
31
0
39
0
210
0
220
0
230
1
0
LINE
5
13F
100
AcDbEntity
8
1
62
256
6
ByLayer
370
13
48
1
60
0
100
AcDbLine
10
298.896614
20
1.047197
30
0
11
299.018298
21
0.923258
31
0
39
0
210
0
220
0
230
1
0
LINE
5
140
100
AcDbEntity
8
1
62
256
6
ByLayer
370
13
48
1
60
0
100
AcDbLine
10
289.154399
20
7.253352
30
0
11
290.646207
21
7.331534
31
0
39
0
210
0
220
0
230
1
0
LINE
5
141
100
AcDbEntity
8
1
62
256
6
ByLayer
370
13
48
1
60
0
100
AcDbLine
10
298.846955
20
6.413434
30
0
11
299.019465
21
6.081026
31
0
39
0
210
0
220
0
230
1
0
LINE
5
142
100
AcDbEntity
8
1
62
256
6
ByLayer
370
13
48
1
60
0
100
AcDbLine
10
285.45816
20
16.966399
30
0
11
284.984983
21
13.350857
31
0
39
0
210
0
220
0
230
1
0
LINE
5
143
100
AcDbEntity
8
1
62
256
6
ByLayer
370
13
48
1
60
0
100
AcDbLine
10
5.4552
20
-4.949747
30
0
11
5.4552
21
-24.75
31
0
39
0
210
0
220
0
230
1
0
LINE
5
144
100
AcDbEntity
8
1
62
256
6
ByLayer
370
13
48
1
60
0
100
AcDbLine
10
0
20
-4.422669
30
0
11
0
21
4.422669
31
0
39
0
210
0
220
0
230
1
0
LINE
5
145
100
AcDbEntity
8
1
62
256
6
ByLayer
370
13
48
1
60
0
100
AcDbLine
10
0.1
20
4.949747
30
0
11
5.4552
21
4.949747
31
0
39
0
210
0
220
0
230
1
0
LINE
5
146
100
AcDbEntity
8
1
62
256
6
ByLayer
370
13
48
1
60
0
100
AcDbLine
10
298.485013
20
-0.436224
30
0
11
297.112263
21
0.771581
31
0
39
0
210
0
220
0
230
1
0
LINE
5
147
100
AcDbEntity
8
4
62
256
6
ByLayer
370
18
48
0.05
60
0
100
AcDbLine
10
300
20
0
30
0
11
0
21
0
31
0
39
0
210
0
220
0
230
1
0
LINE
5
149
100
AcDbEntity
8
SK4
62
256
6
ByLayer
370
13
48
0.05
60
0
100
AcDbLine
10
300
20
0
30
0
11
-70
21
0
31
0
39
0
210
0
220
0
230
1
0
LINE
5
14B
100
AcDbEntity
8
SK1
62
256
6
ByLayer
370
13
48
1
60
0
100
AcDbLine
10
-68.516222
20
19.892544
30
0
11
-68.599999
21
19.996
31
0
39
0
210
0
220
0
230
1
0
LINE
5
14C
100
AcDbEntity
8
SK1
62
256
6
ByLayer
370
13
48
1
60
0
100
AcDbLine
10
-68.599999
20
-19.996
30
0
11
-68.516222
21
-19.892544
31
0
39
0
210
0
220
0
230
1
0
LINE
5
14D
100
AcDbEntity
8
SK1
62
256
6
ByLayer
370
13
48
1
60
0
100
AcDbLine
10
-67.633813
20
-19.639667
30
0
11
-66.600002
21
-19.996
31
0
39
0
210
0
220
0
230
1
0
LINE
5
14E
100
AcDbEntity
8
SK1
62
256
6
ByLayer
370
13
48
1
60
0
100
AcDbLine
10
-66.600002
20
19.996
30
0
11
-67.633813
21
19.639667
31
0
39
0
210
0
220
0
230
1
0
LINE
5
14F
100
AcDbEntity
8
SK1
62
256
6
ByLayer
370
13
48
1
60
0
100
AcDbLine
10
-68.599999
20
19.996
30
0
11
-69
21
19.996
31
0
39
0
210
0
220
0
230
1
0
LINE
5
150
100
AcDbEntity
8
SK1
62
256
6
ByLayer
370
13
48
1
60
0
100
AcDbLine
10
-69
20
-19.996
30
0
11
-68.599999
21
-19.996
31
0
39
0
210
0
220
0
230
1
0
LINE
5
151
100
AcDbEntity
8
SK1
62
256
6
ByLayer
370
13
48
1
60
0
100
AcDbLine
10
-70
20
-18.996
30
0
11
-69
21
-19.996
31
0
39
0
210
0
220
0
230
1
0
LINE
5
152
100
AcDbEntity
8
SK1
62
256
6
ByLayer
370
13
48
1
60
0
100
AcDbLine
10
-69
20
19.996
30
0
11
-70
21
18.996
31
0
39
0
210
0
220
0
230
1
0
LINE
5
153
100
AcDbEntity
8
SK1
62
256
6
ByLayer
370
13
48
1
60
0
100
AcDbLine
10
-0.15
20
19.746
30
0
11
-1.375195
21
19.746
31
0
39
0
210
0
220
0
230
1
0
LINE
5
154
100
AcDbEntity
8
SK1
62
256
6
ByLayer
370
13
48
1
60
0
100
AcDbLine
10
-1.375195
20
-19.746
30
0
11
-0.15
21
-19.746
31
0
39
0
210
0
220
0
230
1
0
LINE
5
155
100
AcDbEntity
8
SK1
62
256
6
ByLayer
370
13
48
1
60
0
100
AcDbLine
10
-1.544243
20
19.783477
30
0
11
-2
21
19.996
31
0
39
0
210
0
220
0
230
1
0
LINE
5
156
100
AcDbEntity
8
SK1
62
256
6
ByLayer
370
13
48
1
60
0
100
AcDbLine
10
-2
20
-19.996
30
0
11
-1.544243
21
-19.783477
31
0
39
0
210
0
220
0
230
1
0
LINE
5
157
100
AcDbEntity
8
SK1
62
256
6
ByLayer
370
13
48
1
60
0
100
AcDbLine
10
-2
20
19.996
30
0
11
-66.600002
21
19.996
31
0
39
0
210
0
220
0
230
1
0
LINE
5
158
100
AcDbEntity
8
SK1
62
256
6
ByLayer
370
13
48
1
60
0
100
AcDbLine
10
-66.600002
20
-19.996
30
0
11
-2
21
-19.996
31
0
39
0
210
0
220
0
230
1
0
LINE
5
159
100
AcDbEntity
8
1
62
256
6
ByLayer
370
13
48
1
60
0
100
AcDbLine
10
200.115643
20
18.335
30
0
11
138
21
18.335
31
0
39
0
210
0
220
0
230
1
0
LINE
5
15A
100
AcDbEntity
8
1
62
256
6
ByLayer
370
13
48
1
60
0
100
AcDbLine
10
298.943176
20
7.236478
30
0
11
299.288707
21
7.958582
31
0
39
0
210
0
220
0
230
1
0
LINE
5
15B
100
AcDbEntity
8
1
62
256
6
ByLayer
370
13
48
1
60
0
100
AcDbLine
10
297.930955
20
13.044095
30
0
11
297.179606
21
17.801611
31
0
39
0
210
0
220
0
230
1
0
LINE
5
15C
100
AcDbEntity
8
1
62
256
6
ByLayer
370
13
48
1
60
0
100
AcDbLine
10
297.282944
20
7.871628
30
0
11
297.933615
21
12.843404
31
0
39
0
210
0
220
0
230
1
0
LINE
5
15D
100
AcDbEntity
8
1
62
256
6
ByLayer
370
18
48
1
60
0
100
AcDbLine
10
292.443916
20
11.431839
30
0
11
292.337243
21
11.426248
31
0
39
0
210
0
220
0
230
1
0
LINE
5
15E
100
AcDbEntity
8
1
62
256
6
ByLayer
370
18
48
1
60
0
100
AcDbLine
10
292.224784
20
13.572103
30
0
11
292.331456
21
13.577694
31
0
39
0
210
0
220
0
230
1
0
LINE
5
15F
100
AcDbEntity
8
1
62
256
6
ByLayer
370
18
48
1
60
0
100
AcDbLine
10
292.44813
20
10.10464
30
0
11
292.524887
21
10.108663
31
0
39
0
210
0
220
0
230
1
0
LINE
5
160
100
AcDbEntity
8
1
62
256
6
ByLayer
370
18
48
1
60
0
100
AcDbLine
10
292.273675
20
14.902085
30
0
11
292.196917
21
14.898062
31
0
39
0
210
0
220
0
230
1
0
LINE
5
161
100
AcDbEntity
8
1
62
256
6
ByLayer
370
13
48
1
60
0
100
AcDbLine
10
30
20
-18.525
30
0
11
35
21
-18.525
31
0
39
0
210
0
220
0
230
1
0
LINE
5
162
100
AcDbEntity
8
1
62
256
6
ByLayer
370
13
48
1
60
0
100
AcDbLine
10
35
20
-18.525
30
0
11
138
21
-18.335
31
0
39
0
210
0
220
0
230
1
0
LINE
5
163
100
AcDbEntity
8
1
62
256
6
ByLayer
370
13
48
1
60
0
100
AcDbLine
10
285.223809
20
18.525
30
0
11
283.41256
21
18.525
31
0
39
0
210
0
220
0
230
1
0
LINE
5
164
100
AcDbEntity
8
1
62
256
6
ByLayer
370
13
48
1
60
0
100
AcDbLine
10
283.41256
20
18.525
30
0
11
280.41256
21
18.335
31
0
39
0
210
0
220
0
230
1
0
LINE
5
165
100
AcDbEntity
8
1
62
256
6
ByLayer
370
13
48
1
60
0
100
AcDbLine
10
138
20
-18.335
30
0
11
213.688041
21
-18.335
31
0
39
0
210
0
220
0
230
1
0
LINE
5
166
100
AcDbEntity
8
1
62
256
6
ByLayer
370
13
48
1
60
0
100
AcDbLine
10
280.41256
20
18.335
30
0
11
268.918312
21
18.335
31
0
39
0
210
0
220
0
230
1
0
LINE
5
167
100
AcDbEntity
8
1
62
256
6
ByLayer
370
13
48
1
60
0
100
AcDbLine
10
138
20
18.335
30
0
11
35
21
18.525
31
0
39
0
210
0
220
0
230
1
0
LINE
5
168
100
AcDbEntity
8
1
62
256
6
ByLayer
370
13
48
1
60
0
100
AcDbLine
10
35
20
18.525
30
0
11
30
21
18.525
31
0
39
0
210
0
220
0
230
1
0
LINE
5
169
100
AcDbEntity
8
1
62
256
6
ByLayer
370
13
48
1
60
0
100
AcDbLine
10
0.1
20
-24.75
30
0
11
5.4552
21
-24.75
31
0
39
0
210
0
220
0
230
1
0
LINE
5
16A
100
AcDbEntity
8
1
62
256
6
ByLayer
370
13
48
1
60
0
100
AcDbLine
10
0.1
20
24.75
30
0
11
0
21
24.65
31
0
39
0
210
0
220
0
230
1
0
LINE
5
16B
100
AcDbEntity
8
1
62
256
6
ByLayer
370
13
48
1
60
0
100
AcDbLine
10
0
20
-24.65
30
0
11
0.1
21
-24.75
31
0
39
0
210
0
220
0
230
1
0
LINE
5
16C
100
AcDbEntity
8
1
62
256
6
ByLayer
370
13
48
1
60
0
100
AcDbLine
10
5.4552
20
24.75
30
0
11
0.1
21
24.75
31
0
39
0
210
0
220
0
230
1
0
LINE
5
16D
100
AcDbEntity
8
81
62
256
6
ByLayer
370
18
48
1
60
0
100
AcDbLine
10
300
20
0
30
0
11
307
21
0
31
0
39
0
210
0
220
0
230
1
0
LINE
5
16E
100
AcDbEntity
8
80
62
256
6
ByLayer
370
18
48
1
60
0
100
AcDbLine
10
0
20
0
30
0
11
-7
21
0
31
0
39
0
210
0
220
0
230
1
0
LINE
5
16F
100
AcDbEntity
8
SK2
62
256
6
ByLayer
370
13
48
1
60
0
100
AcDbLine
10
-90.725
20
20
30
0
11
-90.725
21
-20
31
0
39
0
210
0
220
0
230
1
0
LINE
5
171
100
AcDbEntity
8
SK2
62
256
6
ByLayer
370
13
48
1
60
0
100
AcDbLine
10
-71.5875
20
-20
30
0
11
-93.9
21
-20
31
0
39
0
210
0
220
0
230
1
0
LINE
5
172
100
AcDbEntity
8
SK2
62
256
6
ByLayer
370
13
48
1
60
0
100
AcDbLine
10
-71.5875
20
20
30
0
11
-93.9
21
20
31
0
39
0
210
0
220
0
230
1
0
LINE
5
173
100
AcDbEntity
8
1
62
256
6
ByLayer
370
18
48
1
60
1
100
AcDbLine
10
-90.725
20
-20
30
0
11
-91.650575
21
-15.825003
31
0
39
0
210
0
220
0
230
1
0
LINE
5
174
100
AcDbEntity
8
1
62
256
6
ByLayer
370
18
48
1
60
1
100
AcDbLine
10
-91.650575
20
-15.825003
30
0
11
-89.799425
21
-15.824997
31
0
39
0
210
0
220
0
230
1
0
LINE
5
175
100
AcDbEntity
8
1
62
256
6
ByLayer
370
18
48
1
60
1
100
AcDbLine
10
-89.799425
20
-15.824997
30
0
11
-90.725
21
-20
31
0
39
0
210
0
220
0
230
1
0
LINE
5
176
100
AcDbEntity
8
1
62
256
6
ByLayer
370
18
48
1
60
1
100
AcDbLine
10
-90.725
20
20
30
0
11
-89.799425
21
15.825003
31
0
39
0
210
0
220
0
230
1
0
LINE
5
177
100
AcDbEntity
8
1
62
256
6
ByLayer
370
18
48
1
60
1
100
AcDbLine
10
-89.799425
20
15.825003
30
0
11
-91.650575
21
15.824997
31
0
39
0
210
0
220
0
230
1
0
LINE
5
178
100
AcDbEntity
8
1
62
256
6
ByLayer
370
18
48
1
60
1
100
AcDbLine
10
-91.650575
20
15.824997
30
0
11
-90.725
21
20
31
0
39
0
210
0
220
0
230
1
0
LINE
5
179
100
AcDbEntity
8
SK2
62
256
6
ByLayer
370
13
48
1
60
0
100
AcDbLine
10
-100.725
20
-24.75
30
0
11
-100.725
21
24.75
31
0
39
0
210
0
220
0
230
1
0
LINE
5
17A
100
AcDbEntity
8
SK2
62
256
6
ByLayer
370
13
48
1
60
0
100
AcDbLine
10
-1.5875
20
24.75
30
0
11
-103.9
21
24.75
31
0
39
0
210
0
220
0
230
1
0
LINE
5
17B
100
AcDbEntity
8
SK2
62
256
6
ByLayer
370
13
48
1
60
0
100
AcDbLine
10
-1.5875
20
-24.75
30
0
11
-103.9
21
-24.75
31
0
39
0
210
0
220
0
230
1
0
LINE
5
17C
100
AcDbEntity
8
1
62
256
6
ByLayer
370
18
48
1
60
1
100
AcDbLine
10
-100.725
20
24.75
30
0
11
-99.799425
21
20.575003
31
0
39
0
210
0
220
0
230
1
0
LINE
5
17D
100
AcDbEntity
8
1
62
256
6
ByLayer
370
18
48
1
60
1
100
AcDbLine
10
-99.799425
20
20.575003
30
0
11
-101.650575
21
20.574997
31
0
39
0
210
0
220
0
230
1
0
LINE
5
17E
100
AcDbEntity
8
1
62
256
6
ByLayer
370
18
48
1
60
1
100
AcDbLine
10
-101.650575
20
20.574997
30
0
11
-100.725
21
24.75
31
0
39
0
210
0
220
0
230
1
0
LINE
5
17F
100
AcDbEntity
8
1
62
256
6
ByLayer
370
18
48
1
60
1
100
AcDbLine
10
-100.725
20
-24.75
30
0
11
-101.650575
21
-20.575003
31
0
39
0
210
0
220
0
230
1
0
LINE
5
180
100
AcDbEntity
8
1
62
256
6
ByLayer
370
18
48
1
60
1
100
AcDbLine
10
-101.650575
20
-20.575003
30
0
11
-99.799425
21
-20.574997
31
0
39
0
210
0
220
0
230
1
0
LINE
5
181
100
AcDbEntity
8
1
62
256
6
ByLayer
370
18
48
1
60
1
100
AcDbLine
10
-99.799425
20
-20.574997
30
0
11
-100.725
21
-24.75
31
0
39
0
210
0
220
0
230
1
0
LINE
5
182
100
AcDbEntity
8
2
62
256
6
ByLayer
370
13
48
1
60
0
100
AcDbLine
10
326.975
20
19
30
0
11
326.975
21
-19
31
0
39
0
210
0
220
0
230
1
0
LINE
5
184
100
AcDbEntity
8
2
62
256
6
ByLayer
370
13
48
1
60
0
100
AcDbLine
10
301.5875
20
-19
30
0
11
330.15
21
-19
31
0
39
0
210
0
220
0
230
1
0
LINE
5
185
100
AcDbEntity
8
2
62
256
6
ByLayer
370
13
48
1
60
0
100
AcDbLine
10
301.5875
20
19
30
0
11
330.15
21
19
31
0
39
0
210
0
220
0
230
1
0
LINE
5
186
100
AcDbEntity
8
1
62
256
6
ByLayer
370
18
48
1
60
1
100
AcDbLine
10
326.975
20
-19
30
0
11
326.049425
21
-14.825003
31
0
39
0
210
0
220
0
230
1
0
LINE
5
187
100
AcDbEntity
8
1
62
256
6
ByLayer
370
18
48
1
60
1
100
AcDbLine
10
326.049425
20
-14.825003
30
0
11
327.900575
21
-14.824997
31
0
39
0
210
0
220
0
230
1
0
LINE
5
188
100
AcDbEntity
8
1
62
256
6
ByLayer
370
18
48
1
60
1
100
AcDbLine
10
327.900575
20
-14.824997
30
0
11
326.975
21
-19
31
0
39
0
210
0
220
0
230
1
0
LINE
5
189
100
AcDbEntity
8
1
62
256
6
ByLayer
370
18
48
1
60
1
100
AcDbLine
10
326.975
20
19
30
0
11
327.900575
21
14.825003
31
0
39
0
210
0
220
0
230
1
0
LINE
5
18A
100
AcDbEntity
8
1
62
256
6
ByLayer
370
18
48
1
60
1
100
AcDbLine
10
327.900575
20
14.825003
30
0
11
326.049425
21
14.824997
31
0
39
0
210
0
220
0
230
1
0
LINE
5
18B
100
AcDbEntity
8
1
62
256
6
ByLayer
370
18
48
1
60
1
100
AcDbLine
10
326.049425
20
14.824997
30
0
11
326.975
21
19
31
0
39
0
210
0
220
0
230
1
0
LINE
5
33F
100
AcDbEntity
8
1
62
256
6
ByLayer
370
18
48
1
60
1
100
AcDbLine
10
-90.725
20
-20
30
0
11
-91.650575
21
-15.825003
31
0
39
0
210
0
220
0
230
1
0
LINE
5
340
100
AcDbEntity
8
1
62
256
6
ByLayer
370
18
48
1
60
1
100
AcDbLine
10
-91.650575
20
-15.825003
30
0
11
-89.799425
21
-15.824997
31
0
39
0
210
0
220
0
230
1
0
LINE
5
341
100
AcDbEntity
8
1
62
256
6
ByLayer
370
18
48
1
60
1
100
AcDbLine
10
-89.799425
20
-15.824997
30
0
11
-90.725
21
-20
31
0
39
0
210
0
220
0
230
1
0
LINE
5
343
100
AcDbEntity
8
1
62
256
6
ByLayer
370
18
48
1
60
1
100
AcDbLine
10
-90.725
20
20
30
0
11
-89.799425
21
15.825003
31
0
39
0
210
0
220
0
230
1
0
LINE
5
344
100
AcDbEntity
8
1
62
256
6
ByLayer
370
18
48
1
60
1
100
AcDbLine
10
-89.799425
20
15.825003
30
0
11
-91.650575
21
15.824997
31
0
39
0
210
0
220
0
230
1
0
LINE
5
345
100
AcDbEntity
8
1
62
256
6
ByLayer
370
18
48
1
60
1
100
AcDbLine
10
-91.650575
20
15.824997
30
0
11
-90.725
21
20
31
0
39
0
210
0
220
0
230
1
0
LINE
5
349
100
AcDbEntity
8
1
62
256
6
ByLayer
370
18
48
1
60
1
100
AcDbLine
10
-100.725
20
24.75
30
0
11
-99.799425
21
20.575003
31
0
39
0
210
0
220
0
230
1
0
LINE
5
34A
100
AcDbEntity
8
1
62
256
6
ByLayer
370
18
48
1
60
1
100
AcDbLine
10
-99.799425
20
20.575003
30
0
11
-101.650575
21
20.574997
31
0
39
0
210
0
220
0
230
1
0
LINE
5
34B
100
AcDbEntity
8
1
62
256
6
ByLayer
370
18
48
1
60
1
100
AcDbLine
10
-101.650575
20
20.574997
30
0
11
-100.725
21
24.75
31
0
39
0
210
0
220
0
230
1
0
LINE
5
34D
100
AcDbEntity
8
1
62
256
6
ByLayer
370
18
48
1
60
1
100
AcDbLine
10
-100.725
20
-24.75
30
0
11
-101.650575
21
-20.575003
31
0
39
0
210
0
220
0
230
1
0
LINE
5
34E
100
AcDbEntity
8
1
62
256
6
ByLayer
370
18
48
1
60
1
100
AcDbLine
10
-101.650575
20
-20.575003
30
0
11
-99.799425
21
-20.574997
31
0
39
0
210
0
220
0
230
1
0
LINE
5
34F
100
AcDbEntity
8
1
62
256
6
ByLayer
370
18
48
1
60
1
100
AcDbLine
10
-99.799425
20
-20.574997
30
0
11
-100.725
21
-24.75
31
0
39
0
210
0
220
0
230
1
0
LINE
5
353
100
AcDbEntity
8
1
62
256
6
ByLayer
370
18
48
1
60
1
100
AcDbLine
10
326.975
20
-19
30
0
11
326.049425
21
-14.825003
31
0
39
0
210
0
220
0
230
1
0
LINE
5
354
100
AcDbEntity
8
1
62
256
6
ByLayer
370
18
48
1
60
1
100
AcDbLine
10
326.049425
20
-14.825003
30
0
11
327.900575
21
-14.824997
31
0
39
0
210
0
220
0
230
1
0
LINE
5
355
100
AcDbEntity
8
1
62
256
6
ByLayer
370
18
48
1
60
1
100
AcDbLine
10
327.900575
20
-14.824997
30
0
11
326.975
21
-19
31
0
39
0
210
0
220
0
230
1
0
LINE
5
357
100
AcDbEntity
8
1
62
256
6
ByLayer
370
18
48
1
60
1
100
AcDbLine
10
326.975
20
19
30
0
11
327.900575
21
14.825003
31
0
39
0
210
0
220
0
230
1
0
LINE
5
358
100
AcDbEntity
8
1
62
256
6
ByLayer
370
18
48
1
60
1
100
AcDbLine
10
327.900575
20
14.825003
30
0
11
326.049425
21
14.824997
31
0
39
0
210
0
220
0
230
1
0
LINE
5
359
100
AcDbEntity
8
1
62
256
6
ByLayer
370
18
48
1
60
1
100
AcDbLine
10
326.049425
20
14.824997
30
0
11
326.975
21
19
31
0
39
0
210
0
220
0
230
1
0
MTEXT
5
33B
100
AcDbEntity
8
SK2
62
256
6
ByLayer
370
18
48
1
60
0
100
AcDbMText
10
-92.736672
20
-7.186314
30
0
210
0
220
0
230
1
1
%%c
40
4.5
41
0
44
1.084337
50
90
71
7
72
5
7
iso_b_vert
0
MTEXT
5
33E
100
AcDbEntity
8
SK2
62
256
6
ByLayer
370
18
48
1
60
0
100
AcDbMText
10
-92.736672
20
4.02853
30
0
210
0
220
0
230
1
1
\W0.7361;40
40
4.5
41
0
44
1.084337
50
90
71
7
72
5
7
iso_b_vert
0
MTEXT
5
347
100
AcDbEntity
8
SK2
62
256
6
ByLayer
370
18
48
1
60
0
100
AcDbMText
10
-102.736672
20
-9.778569
30
0
210
0
220
0
230
1
1
%%c
40
4.5
41
0
44
1.084337
50
90
71
7
72
5
7
iso_b_vert
0
MTEXT
5
348
100
AcDbEntity
8
SK2
62
256
6
ByLayer
370
18
48
1
60
0
100
AcDbMText
10
-102.736672
20
1.436275
30
0
210
0
220
0
230
1
1
\W0.7640;49.5
40
4.5
41
0
44
1.084337
50
90
71
7
72
5
7
iso_b_vert
0
MTEXT
5
351
100
AcDbEntity
8
2
62
256
6
ByLayer
370
18
48
1
60
0
100
AcDbMText
10
324.963328
20
-6.949399
30
0
210
0
220
0
230
1
1
%%c
40
4.5
41
0
44
1.084337
50
90
71
7
72
5
7
iso_b_vert
0
MTEXT
5
352
100
AcDbEntity
8
2
62
256
6
ByLayer
370
18
48
1
60
0
100
AcDbMText
10
324.963328
20
4.265444
30
0
210
0
220
0
230
1
1
\W0.6740;38
40
4.5
41
0
44
1.084337
50
90
71
7
72
5
7
iso_b_vert
0
MTEXT
5
35B
100
AcDbEntity
8
SK6
62
256
6
ByLayer
370
18
48
1
60
0
100
AcDbMText
10
9.308916
20
-94.592562
30
0
210
0
220
0
230
1
1
\W0.7723;DS20-D3800L40-07
40
3.5
41
0
44
1.084337
50
0
71
7
72
5
7
iso_b_vert
0
HATCH
5
342
100
AcDbEntity
8
SK2
62
256
6
ByLayer
370
13
48
1
60
0
100
AcDbHatch
10
0
20
0
30
0
210
0
220
0
230
1
2
ANSI31
70
0
71
0
91
1
92
5
93
3
72
1
10
-90.725
20
-19.9999999999999
11
-91.650575216528
21
-15.8250033998275
72
1
10
-91.650575216528
20
-15.8250033998275
11
-89.799424783472
21
-15.8249966001723
72
1
10
-89.799424783472
20
-15.8249966001723
11
-90.725
21
-19.9999999999999
97
0
75
0
76
1
52
0
41
0.0062
77
0
78
1
53
45
43
0
44
0
45
-0.0139193969876572
46
0.0139193969876572
79
0
47
0
98
1
10
0
20
0
0
HATCH
5
346
100
AcDbEntity
8
SK2
62
256
6
ByLayer
370
13
48
1
60
0
100
AcDbHatch
10
0
20
0
30
0
210
0
220
0
230
1
2
ANSI31
70
0
71
0
91
1
92
5
93
3
72
1
10
-90.725
20
20.0000000000001
11
-89.799424783472
21
15.8250033998277
72
1
10
-89.799424783472
20
15.8250033998277
11
-91.650575216528
21
15.8249966001724
72
1
10
-91.650575216528
20
15.8249966001724
11
-90.725
21
20.0000000000001
97
0
75
0
76
1
52
0
41
0.0062
77
0
78
1
53
45
43
0
44
0
45
-0.0139193969876572
46
0.0139193969876572
79
0
47
0
98
1
10
0
20
0
0
HATCH
5
34C
100
AcDbEntity
8
SK2
62
256
6
ByLayer
370
13
48
1
60
0
100
AcDbHatch
10
0
20
0
30
0
210
0
220
0
230
1
2
ANSI31
70
0
71
0
91
1
92
5
93
3
72
1
10
-100.725
20
24.75
11
-99.799424783472
21
20.5750033998276
72
1
10
-99.799424783472
20
20.5750033998276
11
-101.650575216528
21
20.5749966001724
72
1
10
-101.650575216528
20
20.5749966001724
11
-100.725
21
24.75
97
0
75
0
76
1
52
0
41
0.0062
77
0
78
1
53
45
43
0
44
0
45
-0.0139193969876572
46
0.0139193969876572
79
0
47
0
98
1
10
0
20
0
0
HATCH
5
350
100
AcDbEntity
8
SK2
62
256
6
ByLayer
370
13
48
1
60
0
100
AcDbHatch
10
0
20
0
30
0
210
0
220
0
230
1
2
ANSI31
70
0
71
0
91
1
92
5
93
3
72
1
10
-100.725
20
-24.75
11
-101.650575216528
21
-20.5750033998276
72
1
10
-101.650575216528
20
-20.5750033998276
11
-99.799424783472
21
-20.5749966001724
72
1
10
-99.799424783472
20
-20.5749966001724
11
-100.725
21
-24.75
97
0
75
0
76
1
52
0
41
0.0062
77
0
78
1
53
45
43
0
44
0
45
-0.0139193969876572
46
0.0139193969876572
79
0
47
0
98
1
10
0
20
0
0
HATCH
5
356
100
AcDbEntity
8
2
62
256
6
ByLayer
370
13
48
1
60
0
100
AcDbHatch
10
0
20
0
30
0
210
0
220
0
230
1
2
ANSI31
70
0
71
0
91
1
92
5
93
3
72
1
10
326.975
20
-19.0000000000003
11
326.049424783472
21
-14.8250033998279
72
1
10
326.049424783472
20
-14.8250033998279
11
327.900575216528
21
-14.8249966001727
72
1
10
327.900575216528
20
-14.8249966001727
11
326.975
21
-19.0000000000003
97
0
75
0
76
1
52
0
41
0.0062
77
0
78
1
53
45
43
0
44
0
45
-0.0139193969876572
46
0.0139193969876572
79
0
47
0
98
1
10
0
20
0
0
HATCH
5
35A
100
AcDbEntity
8
2
62
256
6
ByLayer
370
13
48
1
60
0
100
AcDbHatch
10
0
20
0
30
0
210
0
220
0
230
1
2
ANSI31
70
0
71
0
91
1
92
5
93
3
72
1
10
326.975
20
18.9999999999997
11
327.900575216528
21
14.8250033998273
72
1
10
327.900575216528
20
14.8250033998273
11
326.049424783472
21
14.824996600172
72
1
10
326.049424783472
20
14.824996600172
11
326.975
21
18.9999999999997
97
0
75
0
76
1
52
0
41
0.0062
77
0
78
1
53
45
43
0
44
0
45
-0.0139193969876572
46
0.0139193969876572
79
0
47
0
98
1
10
0
20
0
0
DIMENSION
5
35E
100
AcDbEntity
8
2
62
256
6
ByLayer
370
18
48
1
60
0
100
AcDbDimension
2
_U0
10
300
20
-73.611386
30
0
11
150
21
-73.611386
31
0
70
32
71
1
72
1
41
1
210
0
220
0
230
1
3
Standard
100
AcDbAlignedDimension
13
0
23
-24.75
33
0
14
300
24
-19
34
0
50
0
100
AcDbRotatedDimension
1001
ACAD
1000
DSTYLE
1002
{
1070
   371
1070
    13
1070
   372
1070
    13
1070
   170
1070
     0
1070
   144
1040
1.0
1070
   277
1070
     2
1070
   284
1070
     8
1070
   278
1070
    46
1070
   146
1040
0.777778
1070
   345
1005
16
1070
   347
1005
16
1070
   346
1005
16
1070
   344
1005
0
1070
   343
1005
0
1070
   172
1070
     1
1070
    76
1070
     0
1070
    75
1070
     0
1070
   282
1070
     0
1070
   281
1070
     0
1070
    71
1070
     0
1070
    74
1070
     0
1070
   279
1070
     0
1070
   173
1070
     1
1070
   340
1005
33C
1070
   271
1070
     1
1070
   272
1070
     2
1070
    77
1070
     1
1070
    73
1070
     1
1070
   171
1070
     3
1070
   274
1070
     4
1070
   177
1070
   150
1070
   176
1070
     9
1070
   178
1070
    43
1070
    78
1070
     8
1070
    48
1040
-0.1
1070
    41
1040
4.175
1070
   147
1040
2.25
1070
    42
1040
1.5875
1070
    44
1040
3.175
1070
   140
1040
4.5
1002
}
1001
ACAD_DSTYLE_DIM_LINETYPE
1070
   380
1005
16
1001
ACAD_DSTYLE_DIM_EXT1_LINETYPE
1070
   381
1005
16
1001
ACAD_DSTYLE_DIM_EXT2_LINETYPE
1070
   382
1005
16
0
DIMENSION
5
377
100
AcDbEntity
8
SK2
62
256
6
ByLayer
370
18
48
1
60
0
100
AcDbDimension
2
_U1
10
0
20
-73.611386
30
0
11
-35
21
-73.611386
31
0
70
32
71
1
72
1
41
1
210
0
220
0
230
1
3
Standard
100
AcDbAlignedDimension
13
-70
23
-20
33
0
14
0
24
-24.75
34
0
50
0
100
AcDbRotatedDimension
1001
ACAD
1000
DSTYLE
1002
{
1070
   371
1070
    13
1070
   372
1070
    13
1070
   170
1070
     0
1070
   144
1040
1.0
1070
   277
1070
     2
1070
   284
1070
     8
1070
   278
1070
    46
1070
   146
1040
0.777778
1070
   345
1005
16
1070
   347
1005
16
1070
   346
1005
16
1070
   344
1005
0
1070
   343
1005
0
1070
   172
1070
     1
1070
    76
1070
     0
1070
    75
1070
     0
1070
   282
1070
     0
1070
   281
1070
     0
1070
    71
1070
     0
1070
    74
1070
     0
1070
   279
1070
     0
1070
   173
1070
     1
1070
   340
1005
33C
1070
   271
1070
     1
1070
   272
1070
     2
1070
    77
1070
     1
1070
    73
1070
     1
1070
   171
1070
     3
1070
   274
1070
     4
1070
   177
1070
   150
1070
   176
1070
     9
1070
   178
1070
    43
1070
    78
1070
     8
1070
    48
1040
-0.1
1070
    41
1040
4.175
1070
   147
1040
2.25
1070
    42
1040
1.5875
1070
    44
1040
3.175
1070
   140
1040
4.5
1002
}
1001
ACAD_DSTYLE_DIM_LINETYPE
1070
   380
1005
16
1001
ACAD_DSTYLE_DIM_EXT1_LINETYPE
1070
   381
1005
16
1001
ACAD_DSTYLE_DIM_EXT2_LINETYPE
1070
   382
1005
16
0
DIMENSION
5
38F
100
AcDbEntity
8
SK2
62
256
6
ByLayer
370
18
48
1
60
0
100
AcDbDimension
2
_U2
10
5.9552
20
-63.611386
30
0
11
152.9776
21
-63.611386
31
0
70
32
71
1
72
1
41
1
210
0
220
0
230
1
3
Standard
100
AcDbAlignedDimension
13
300
23
-19
33
0
14
5.9552
24
-24.75
34
0
50
0
100
AcDbRotatedDimension
1001
ACAD
1000
DSTYLE
1002
{
1070
   371
1070
    13
1070
   372
1070
    13
1070
   170
1070
     0
1070
   144
1040
1.0
1070
   277
1070
     2
1070
   284
1070
     8
1070
   278
1070
    46
1070
   146
1040
0.777778
1070
   345
1005
16
1070
   347
1005
16
1070
   346
1005
16
1070
   344
1005
0
1070
   343
1005
0
1070
   172
1070
     1
1070
    76
1070
     0
1070
    75
1070
     0
1070
   282
1070
     0
1070
   281
1070
     0
1070
    71
1070
     0
1070
    74
1070
     0
1070
   279
1070
     0
1070
   173
1070
     1
1070
   340
1005
33C
1070
   271
1070
     1
1070
   272
1070
     2
1070
    77
1070
     1
1070
    73
1070
     1
1070
   171
1070
     3
1070
   274
1070
     4
1070
   177
1070
   150
1070
   176
1070
     9
1070
   178
1070
    43
1070
    78
1070
     8
1070
    48
1040
-0.1
1070
    41
1040
4.175
1070
   147
1040
2.25
1070
    42
1040
1.5875
1070
    44
1040
3.175
1070
   140
1040
4.5
1002
}
1001
ACAD_DSTYLE_DIM_LINETYPE
1070
   380
1005
16
1001
ACAD_DSTYLE_DIM_EXT1_LINETYPE
1070
   381
1005
16
1001
ACAD_DSTYLE_DIM_EXT2_LINETYPE
1070
   382
1005
16
0
DIMENSION
5
3A7
100
AcDbEntity
8
SK2
62
256
6
ByLayer
370
18
48
1
60
0
100
AcDbDimension
2
_U3
10
300
20
-53.611386
30
0
11
165
21
-53.611386
31
0
70
32
71
1
72
1
41
1
210
0
220
0
230
1
3
Standard
100
AcDbAlignedDimension
13
30
23
-19
33
0
14
300
24
-19
34
0
50
0
100
AcDbRotatedDimension
1001
ACAD
1000
DSTYLE
1002
{
1070
   371
1070
    13
1070
   372
1070
    13
1070
   170
1070
     0
1070
   144
1040
1.0
1070
   277
1070
     2
1070
   284
1070
     8
1070
   278
1070
    46
1070
   146
1040
0.777778
1070
   345
1005
16
1070
   347
1005
16
1070
   346
1005
16
1070
   344
1005
0
1070
   343
1005
0
1070
   172
1070
     1
1070
    76
1070
     0
1070
    75
1070
     0
1070
   282
1070
     0
1070
   281
1070
     0
1070
    71
1070
     0
1070
    74
1070
     0
1070
   279
1070
     0
1070
   173
1070
     1
1070
   340
1005
33C
1070
   271
1070
     1
1070
   272
1070
     2
1070
    77
1070
     1
1070
    73
1070
     1
1070
   171
1070
     3
1070
   274
1070
     4
1070
   177
1070
   150
1070
   176
1070
     9
1070
   178
1070
    43
1070
    78
1070
     8
1070
    48
1040
-0.1
1070
    41
1040
4.175
1070
   147
1040
2.25
1070
    42
1040
1.5875
1070
    44
1040
3.175
1070
   140
1040
4.5
1002
}
1001
ACAD_DSTYLE_DIM_LINETYPE
1070
   380
1005
16
1001
ACAD_DSTYLE_DIM_EXT1_LINETYPE
1070
   381
1005
16
1001
ACAD_DSTYLE_DIM_EXT2_LINETYPE
1070
   382
1005
16
0
DIMENSION
5
3BF
100
AcDbEntity
8
2
62
256
6
ByLayer
370
18
48
1
60
0
100
AcDbDimension
2
_U4
10
300
20
-43.611386
30
0
11
316.029464
21
-43.611386
31
0
70
32
71
1
72
1
41
1
210
0
220
0
230
1
3
Standard
100
AcDbAlignedDimension
13
298.9982
23
-9.5
33
0
14
300
24
0
34
0
50
0
100
AcDbRotatedDimension
1001
ACAD
1000
DSTYLE
1002
{
1070
   371
1070
    13
1070
   372
1070
    13
1070
   170
1070
     0
1070
   144
1040
1.0
1070
   277
1070
     2
1070
   284
1070
     8
1070
   278
1070
    46
1070
   146
1040
0.777778
1070
   345
1005
16
1070
   347
1005
16
1070
   346
1005
16
1070
   344
1005
0
1070
   343
1005
0
1070
   172
1070
     1
1070
    76
1070
     0
1070
    75
1070
     0
1070
   282
1070
     0
1070
   281
1070
     0
1070
    71
1070
     0
1070
    74
1070
     0
1070
   279
1070
     0
1070
   173
1070
     1
1070
   340
1005
33C
1070
   271
1070
     2
1070
   272
1070
     2
1070
    77
1070
     1
1070
    73
1070
     1
1070
   171
1070
     3
1070
   274
1070
     4
1070
   177
1070
   150
1070
   176
1070
     9
1070
   178
1070
    43
1070
    78
1070
     8
1070
    48
1040
-0.1
1070
    41
1040
4.175
1070
   147
1040
2.25
1070
    42
1040
1.5875
1070
    44
1040
3.175
1070
   140
1040
4.5
1002
}
1001
ACAD_DSTYLE_DIM_LINETYPE
1070
   380
1005
16
1001
ACAD_DSTYLE_DIM_EXT1_LINETYPE
1070
   381
1005
16
1001
ACAD_DSTYLE_DIM_EXT2_LINETYPE
1070
   382
1005
16
0
ENDSEC
0
SECTION
2
OBJECTS
0
DICTIONARY
5
449
330
0
100
AcDbDictionary
280
0
281
1
3
ACAD_GROUP
350
44a
3
ACAD_MLINESTYLE
350
44b
0
DICTIONARY
5
44a
330
0
100
AcDbDictionary
280
0
281
1
0
DICTIONARY
5
44b
330
0
100
AcDbDictionary
280
0
281
1
3
Standard
350
18
0
MLINESTYLE
5
18
330
44b
100
AcDbMlineStyle
2
Standard
70
0
3

62
256
51
90
52
90
71
2
49
-0.5
62
256
6
ByLayer
49
0.5
62
256
6
ByLayer
0
RASTERVARIABLES
5
437
330

100
AcDbRasterVariables
90
0
70
1
71
1
72
1
0
ENDSEC
0
EOF
