0
SECTION
2
HEADER
9
$ACADVER
1
AC1015
9
$DWGCODEPAGE
3
ANSI_1252
9
$HANDSEED
5
457
9
$ANGBASE
50
0
9
$ANGDIR
70
0
9
$ATTMODE
70
1
9
$AUNITS
70
0
9
$AUPREC
70
0
9
$CECOLOR
62
256
9
$CELTSCALE
40
1
9
$CELTYPE
6
ByLayer
9
$CELWEIGHT
370
18
9
$CLAYER
8
0
9
$CMLJUST
70
0
9
$CMLSCALE
40
1
9
$CMLSTYLE
2
Standard
9
$DIMSTYLE
2
Standard
9
$TEXTSIZE
40
0.2
9
$TEXTSTYLE
7
Standard
9
$LUNITS
70
2
9
$LUPREC
70
4
9
$EXTNAMES
290
1
9
$INSUNITS
70
4
9
$LTSCALE
40
1
9
$LWDISPLAY
290
1
9
$PDMODE
70
0
9
$PDSIZE
40
0
9
$PLINEGEN
70
0
0
ENDSEC
0
SECTION
2
CLASSES
0
CLASS
1
RASTERVARIABLES
2
AcDbRasterVariables
3
ISM
90
0
280
0
281
0
0
ENDSEC
0
SECTION
2
TABLES
0
TABLE
2
VPORT
5
44d
100
AcDbSymbolTable
0
VPORT
5
1
100
AcDbSymbolTableRecord
100
AcDbViewportTableRecord
2
*Active
70
0
10
0
20
0
11
1
21
1
12
-1
22
1
13
0
23
0
14
0.5
24
0.5
15
10
25
10
16
0
26
0
36
1
17
0
27
0
37
0
0
ENDTAB
0
TABLE
2
LTYPE
5
44e
100
AcDbSymbolTable
0
LTYPE
5
14
100
AcDbSymbolTableRecord
100
AcDbLinetypeTableRecord
70
0
2
ByBlock
3

72
65
73
0
40
0
0
LTYPE
5
15
100
AcDbSymbolTableRecord
100
AcDbLinetypeTableRecord
70
0
2
ByLayer
3

72
65
73
0
40
0
0
LTYPE
5
16
100
AcDbSymbolTableRecord
100
AcDbLinetypeTableRecord
70
0
2
Continuous
3
Solid line
72
65
73
0
40
0
0
LTYPE
5
6E
100
AcDbSymbolTableRecord
100
AcDbLinetypeTableRecord
70
0
2
CENTER
3
____ _ ____ _ ____ _ ____
72
65
73
4
40
47.5
49
22
74
0
49
-8.5
74
0
49
8.5
74
0
49
-8.5
74
0
0
LTYPE
5
6F
100
AcDbSymbolTableRecord
100
AcDbLinetypeTableRecord
70
0
2
DASHED
3
__ __ __ __ __ __ __ __ __
72
65
73
2
40
25.72
49
12.86
74
0
49
-12.86
74
0
0
ENDTAB
0
TABLE
2
LAYER
5
44f
100
AcDbSymbolTable
0
LAYER
5
10
100
AcDbSymbolTableRecord
100
AcDbLayerTableRecord
2
0
70
0
62
7
6
Continuous
290
1
370
-3
390
0
0
LAYER
5
71
100
AcDbSymbolTableRecord
100
AcDbLayerTableRecord
2
1
70
0
62
4
6
Continuous
290
1
370
-3
390
0
0
LAYER
5
73
100
AcDbSymbolTableRecord
100
AcDbLayerTableRecord
2
80
70
0
62
-6
6
Continuous
290
1
370
-3
390
0
0
LAYER
5
75
100
AcDbSymbolTableRecord
100
AcDbLayerTableRecord
2
81
70
0
62
-3
6
Continuous
290
1
370
-3
390
0
0
LAYER
5
148
100
AcDbSymbolTableRecord
100
AcDbLayerTableRecord
2
4
70
0
62
-2
6
CENTER
290
1
370
-3
390
0
0
LAYER
5
183
100
AcDbSymbolTableRecord
100
AcDbLayerTableRecord
2
2
70
0
62
7
6
Continuous
290
1
370
-3
390
0
0
LAYER
5
362
100
AcDbSymbolTableRecord
100
AcDbLayerTableRecord
2
Defpoints
70
0
62
7
6
Continuous
290
0
370
-3
390
0
0
LAYER
5
439
100
AcDbSymbolTableRecord
100
AcDbLayerTableRecord
2
SK1
70
0
62
4
6
Continuous
290
1
370
-3
390
0
0
LAYER
5
43a
100
AcDbSymbolTableRecord
100
AcDbLayerTableRecord
2
SK4
70
0
62
2
6
CENTER
290
1
370
-3
390
0
0
LAYER
5
43b
100
AcDbSymbolTableRecord
100
AcDbLayerTableRecord
2
SK2
70
0
62
7
6
Continuous
290
1
370
-3
390
0
0
LAYER
5
43c
100
AcDbSymbolTableRecord
100
AcDbLayerTableRecord
2
SK6
70
0
62
5
6
Continuous
290
1
370
-3
390
0
0
ENDTAB
0
TABLE
2
STYLE
5
450
100
AcDbSymbolTable
0
STYLE
5
11
100
AcDbSymbolTableRecord
100
AcDbTextStyleTableRecord
2
Standard
3
txt
70
0
71
0
40
0
41
1
42
0
50
0
0
STYLE
5
33D
100
AcDbSymbolTableRecord
100
AcDbTextStyleTableRecord
2
iso_b_vert
3
simplex.shx
70
0
71
0
40
0
41
1
42
0
50
0
0
STYLE
5
33E
100
AcDbSymbolTableRecord
100
AcDbTextStyleTableRecord
2
DWGDirectTextStyle
3
simplex
70
0
71
0
40
0
41
1
42
0
50
0
0
ENDTAB
0
TABLE
2
DIMSTYLE
5
451
100
AcDbSymbolTable
100
AcDbDimStyleTable
0
DIMSTYLE
105
27
100
AcDbSymbolTableRecord
100
AcDbDimStyleTableRecord
2
Standard
70
0
3
<>
41
0.18
42
0.0625
44
0.18
140
0.18
147
0.09
73
0
74
0
77
1
271
2
275
0
278
52
280
0
340
11
0
ENDTAB
0
TABLE
2
VIEW
5
452
100
AcDbSymbolTable
0
ENDTAB
0
TABLE
2
UCS
5
453
100
AcDbSymbolTable
0
ENDTAB
0
TABLE
2
APPID
5
454
100
AcDbSymbolTable
0
APPID
5
12
100
AcDbSymbolTableRecord
100
AcDbRegAppTableRecord
2
ACAD
70
0
0
APPID
5
35E
100
AcDbSymbolTableRecord
100
AcDbRegAppTableRecord
2
ACAD_DSTYLE_DIMBREAK
70
0
0
APPID
5
3F8
100
AcDbSymbolTableRecord
100
AcDbRegAppTableRecord
2
ACAD_DSTYLE_DIM_LINETYPE
70
0
0
APPID
5
3F9
100
AcDbSymbolTableRecord
100
AcDbRegAppTableRecord
2
ACAD_DSTYLE_DIM_EXT1_LINETYPE
70
0
0
APPID
5
3FA
100
AcDbSymbolTableRecord
100
AcDbRegAppTableRecord
2
ACAD_DSTYLE_DIM_EXT2_LINETYPE
70
0
0
APPID
5
435
100
AcDbSymbolTableRecord
100
AcDbRegAppTableRecord
2
ACAD_MLEADERVER
70
0
0
ENDTAB
0
TABLE
2
BLOCK_RECORD
5
455
100
AcDbSymbolTable
0
BLOCK_RECORD
5
1F
100
AcDbSymbolTableRecord
100
AcDbBlockTableRecord
2
*Model_Space
340
0
70
0
0
BLOCK_RECORD
5
1B
100
AcDbSymbolTableRecord
100
AcDbBlockTableRecord
2
*Paper_Space
340
0
70
0
0
BLOCK_RECORD
5
23
100
AcDbSymbolTableRecord
100
AcDbBlockTableRecord
2
*Paper_Space0
340
0
70
0
0
BLOCK_RECORD
5
363
100
AcDbSymbolTableRecord
100
AcDbBlockTableRecord
2
*D1
340
0
70
0
0
BLOCK_RECORD
5
36F
100
AcDbSymbolTableRecord
100
AcDbBlockTableRecord
2
_U0
340
0
70
0
0
BLOCK_RECORD
5
37B
100
AcDbSymbolTableRecord
100
AcDbBlockTableRecord
2
*D3
340
0
70
0
0
BLOCK_RECORD
5
387
100
AcDbSymbolTableRecord
100
AcDbBlockTableRecord
2
_U1
340
0
70
0
0
BLOCK_RECORD
5
393
100
AcDbSymbolTableRecord
100
AcDbBlockTableRecord
2
*D5
340
0
70
0
0
BLOCK_RECORD
5
39F
100
AcDbSymbolTableRecord
100
AcDbBlockTableRecord
2
_U2
340
0
70
0
0
BLOCK_RECORD
5
3AB
100
AcDbSymbolTableRecord
100
AcDbBlockTableRecord
2
*D7
340
0
70
0
0
BLOCK_RECORD
5
3B7
100
AcDbSymbolTableRecord
100
AcDbBlockTableRecord
2
_U3
340
0
70
0
0
BLOCK_RECORD
5
3C3
100
AcDbSymbolTableRecord
100
AcDbBlockTableRecord
2
*D9
340
0
70
0
0
BLOCK_RECORD
5
3D1
100
AcDbSymbolTableRecord
100
AcDbBlockTableRecord
2
_U4
340
0
70
0
0
ENDTAB
0
ENDSEC
0
SECTION
2
BLOCKS
0
BLOCK
5
20
100
AcDbEntity
8
0
100
AcDbBlockBegin
2
*Model_Space
70
0
10
0
20
0
30
0
3
*Model_Space
0
ENDBLK
5
21
100
AcDbEntity
8
0
100
AcDbBlockEnd
0
BLOCK
5
1C
100
AcDbEntity
8
0
100
AcDbBlockBegin
2
*Paper_Space
70
0
10
0
20
0
30
0
3
*Paper_Space
0
ENDBLK
5
1D
100
AcDbEntity
8
0
100
AcDbBlockEnd
0
BLOCK
5
24
100
AcDbEntity
8
0
100
AcDbBlockBegin
2
*Paper_Space0
70
0
10
0
20
0
30
0
3
*Paper_Space0
0
ENDBLK
5
25
100
AcDbEntity
8
0
100
AcDbBlockEnd
0
BLOCK
5
364
100
AcDbEntity
8
0
100
AcDbBlockBegin
2
*D1
70
1
10
0
20
0
30
0
3
*D1
0
LINE
5
366
100
AcDbEntity
8
0
62
256
6
ByLayer
370
-2
48
1
60
0
100
AcDbLine
10
0
20
-26.3375
30
0
11
0
21
-76.786691
31
0
39
0
210
0
220
0
230
1
0
LINE
5
367
100
AcDbEntity
8
0
62
256
6
ByLayer
370
-2
48
1
60
0
100
AcDbLine
10
250
20
-19.5875
30
0
11
250
21
-76.786691
31
0
39
0
210
0
220
0
230
1
0
LINE
5
368
100
AcDbEntity
8
0
62
256
6
ByLayer
370
-2
48
1
60
0
100
AcDbLine
10
4.175
20
-73.611691
30
0
11
245.825
21
-73.611691
31
0
39
0
210
0
220
0
230
1
0
SOLID
5
369
100
AcDbEntity
8
0
62
256
6
ByLayer
370
-1
48
1
60
0
100
AcDbTrace
10
4.175
20
-72.915858
30
0
11
4.175
21
-74.307525
31
0
12
0
22
-73.611691
32
0
13
0
23
-73.611691
33
0
39
0
210
0
220
0
230
1
0
SOLID
5
36A
100
AcDbEntity
8
0
62
256
6
ByLayer
370
-1
48
1
60
0
100
AcDbTrace
10
245.825
20
-74.307525
30
0
11
245.825
21
-72.915858
31
0
12
250
22
-73.611691
32
0
13
250
23
-73.611691
33
0
39
0
210
0
220
0
230
1
0
MTEXT
5
36B
100
AcDbEntity
8
0
62
256
6
ByLayer
370
18
48
1
60
0
100
AcDbMText
10
125
20
-64.217941
30
0
210
0
220
0
230
1
1
\A1;250
40
4.5
41
0
44
1
50
0
71
5
72
5
7
iso_b_vert
0
POINT
5
36C
100
AcDbEntity
8
Defpoints
62
0
6
ByLayer
370
-1
48
1
60
0
100
AcDbPoint
10
0
20
-24.75
30
0
39
0
210
0
220
0
230
1
50
360
0
POINT
5
36D
100
AcDbEntity
8
Defpoints
62
0
6
ByLayer
370
-1
48
1
60
0
100
AcDbPoint
10
250
20
-18
30
0
39
0
210
0
220
0
230
1
50
360
0
POINT
5
36E
100
AcDbEntity
8
Defpoints
62
0
6
ByLayer
370
-1
48
1
60
0
100
AcDbPoint
10
250
20
-73.611691
30
0
39
0
210
0
220
0
230
1
50
360
0
ENDBLK
5
365
100
AcDbEntity
8
0
100
AcDbBlockEnd
0
BLOCK
5
376
100
AcDbEntity
8
0
100
AcDbBlockBegin
2
_U0
70
0
10
0
20
0
30
0
3
_U0
0
MTEXT
5
370
100
AcDbEntity
8
2
62
256
6
ByLayer
370
18
48
1
60
0
100
AcDbMText
10
120.869387
20
-72.28402
30
0
210
0
220
0
230
1
1
\W0.7138;250
40
4.5
41
0
44
1.084337
50
0
71
7
72
5
7
iso_b_vert
0
LINE
5
371
100
AcDbEntity
8
2
62
256
6
ByLayer
370
13
48
1
60
0
100
AcDbLine
10
0
20
-26.3375
30
0
11
0
21
-76.786691
31
0
39
0
210
0
220
0
230
1
0
LINE
5
372
100
AcDbEntity
8
2
62
256
6
ByLayer
370
13
48
1
60
0
100
AcDbLine
10
250
20
-19.5875
30
0
11
250
21
-76.786691
31
0
39
0
210
0
220
0
230
1
0
LINE
5
373
100
AcDbEntity
8
2
62
256
6
ByLayer
370
13
48
1
60
0
100
AcDbLine
10
0
20
-73.611691
30
0
11
250
21
-73.611691
31
0
39
0
210
0
220
0
230
1
0
SOLID
5
374
100
AcDbEntity
8
2
62
256
6
ByLayer
370
18
48
1
60
0
100
AcDbTrace
10
0
20
-73.611691
30
0
11
4.174997
21
-72.686116
31
0
12
4.175003
22
-74.537267
32
0
13
4.175003
23
-74.537267
33
0
39
0
210
0
220
0
230
1
0
SOLID
5
375
100
AcDbEntity
8
2
62
256
6
ByLayer
370
18
48
1
60
0
100
AcDbTrace
10
250
20
-73.611691
30
0
11
245.825003
21
-74.537267
31
0
12
245.824997
22
-72.686116
32
0
13
245.824997
23
-72.686116
33
0
39
0
210
0
220
0
230
1
0
ENDBLK
5
377
100
AcDbEntity
8
0
100
AcDbBlockEnd
0
BLOCK
5
37C
100
AcDbEntity
8
0
100
AcDbBlockBegin
2
*D3
70
1
10
0
20
0
30
0
3
*D3
0
LINE
5
37E
100
AcDbEntity
8
0
62
256
6
ByLayer
370
-2
48
1
60
0
100
AcDbLine
10
-70
20
-21.5875
30
0
11
-70
21
-76.786691
31
0
39
0
210
0
220
0
230
1
0
LINE
5
37F
100
AcDbEntity
8
0
62
256
6
ByLayer
370
-2
48
1
60
0
100
AcDbLine
10
0
20
-26.3375
30
0
11
0
21
-76.786691
31
0
39
0
210
0
220
0
230
1
0
LINE
5
380
100
AcDbEntity
8
0
62
256
6
ByLayer
370
-2
48
1
60
0
100
AcDbLine
10
-65.825
20
-73.611691
30
0
11
-4.175
21
-73.611691
31
0
39
0
210
0
220
0
230
1
0
SOLID
5
381
100
AcDbEntity
8
0
62
256
6
ByLayer
370
-1
48
1
60
0
100
AcDbTrace
10
-65.825
20
-72.915858
30
0
11
-65.825
21
-74.307525
31
0
12
-70
22
-73.611691
32
0
13
-70
23
-73.611691
33
0
39
0
210
0
220
0
230
1
0
SOLID
5
382
100
AcDbEntity
8
0
62
256
6
ByLayer
370
-1
48
1
60
0
100
AcDbTrace
10
-4.175
20
-74.307525
30
0
11
-4.175
21
-72.915858
31
0
12
0
22
-73.611691
32
0
13
0
23
-73.611691
33
0
39
0
210
0
220
0
230
1
0
MTEXT
5
383
100
AcDbEntity
8
0
62
256
6
ByLayer
370
18
48
1
60
0
100
AcDbMText
10
-35
20
-64.217941
30
0
210
0
220
0
230
1
1
\A1;70
40
4.5
41
0
44
1
50
0
71
5
72
5
7
iso_b_vert
0
POINT
5
384
100
AcDbEntity
8
Defpoints
62
0
6
ByLayer
370
-1
48
1
60
0
100
AcDbPoint
10
-70
20
-20
30
0
39
0
210
0
220
0
230
1
50
360
0
POINT
5
385
100
AcDbEntity
8
Defpoints
62
0
6
ByLayer
370
-1
48
1
60
0
100
AcDbPoint
10
0
20
-24.75
30
0
39
0
210
0
220
0
230
1
50
360
0
POINT
5
386
100
AcDbEntity
8
Defpoints
62
0
6
ByLayer
370
-1
48
1
60
0
100
AcDbPoint
10
0
20
-73.611691
30
0
39
0
210
0
220
0
230
1
50
360
0
ENDBLK
5
37D
100
AcDbEntity
8
0
100
AcDbBlockEnd
0
BLOCK
5
38E
100
AcDbEntity
8
0
100
AcDbBlockBegin
2
_U1
70
0
10
0
20
0
30
0
3
_U1
0
MTEXT
5
388
100
AcDbEntity
8
SK2
62
256
6
ByLayer
370
18
48
1
60
0
100
AcDbMText
10
-37.449242
20
-72.28402
30
0
210
0
220
0
230
1
1
\W0.6740;70
40
4.5
41
0
44
1.084337
50
0
71
7
72
5
7
iso_b_vert
0
LINE
5
389
100
AcDbEntity
8
SK2
62
256
6
ByLayer
370
13
48
1
60
0
100
AcDbLine
10
-70
20
-21.5875
30
0
11
-70
21
-76.786691
31
0
39
0
210
0
220
0
230
1
0
LINE
5
38A
100
AcDbEntity
8
SK2
62
256
6
ByLayer
370
13
48
1
60
0
100
AcDbLine
10
0
20
-26.3375
30
0
11
0
21
-76.786691
31
0
39
0
210
0
220
0
230
1
0
LINE
5
38B
100
AcDbEntity
8
SK2
62
256
6
ByLayer
370
13
48
1
60
0
100
AcDbLine
10
-70
20
-73.611691
30
0
11
0
21
-73.611691
31
0
39
0
210
0
220
0
230
1
0
SOLID
5
38C
100
AcDbEntity
8
SK2
62
256
6
ByLayer
370
18
48
1
60
0
100
AcDbTrace
10
-70
20
-73.611691
30
0
11
-65.825003
21
-72.686116
31
0
12
-65.824997
22
-74.537267
32
0
13
-65.824997
23
-74.537267
33
0
39
0
210
0
220
0
230
1
0
SOLID
5
38D
100
AcDbEntity
8
SK2
62
256
6
ByLayer
370
18
48
1
60
0
100
AcDbTrace
10
0
20
-73.611691
30
0
11
-4.174997
21
-74.537267
31
0
12
-4.175003
22
-72.686116
32
0
13
-4.175003
23
-72.686116
33
0
39
0
210
0
220
0
230
1
0
ENDBLK
5
38F
100
AcDbEntity
8
0
100
AcDbBlockEnd
0
BLOCK
5
394
100
AcDbEntity
8
0
100
AcDbBlockBegin
2
*D5
70
1
10
0
20
0
30
0
3
*D5
0
LINE
5
396
100
AcDbEntity
8
0
62
256
6
ByLayer
370
-2
48
1
60
0
100
AcDbLine
10
250
20
-19.5875
30
0
11
250
21
-66.786691
31
0
39
0
210
0
220
0
230
1
0
LINE
5
397
100
AcDbEntity
8
0
62
256
6
ByLayer
370
-2
48
1
60
0
100
AcDbLine
10
5.7991
20
-26.3375
30
0
11
5.7991
21
-66.786691
31
0
39
0
210
0
220
0
230
1
0
LINE
5
398
100
AcDbEntity
8
0
62
256
6
ByLayer
370
-2
48
1
60
0
100
AcDbLine
10
245.825
20
-63.611691
30
0
11
9.9741
21
-63.611691
31
0
39
0
210
0
220
0
230
1
0
SOLID
5
399
100
AcDbEntity
8
0
62
256
6
ByLayer
370
-1
48
1
60
0
100
AcDbTrace
10
245.825
20
-64.307525
30
0
11
245.825
21
-62.915858
31
0
12
250
22
-63.611691
32
0
13
250
23
-63.611691
33
0
39
0
210
0
220
0
230
1
0
SOLID
5
39A
100
AcDbEntity
8
0
62
256
6
ByLayer
370
-1
48
1
60
0
100
AcDbTrace
10
9.9741
20
-62.915858
30
0
11
9.9741
21
-64.307525
31
0
12
5.7991
22
-63.611691
32
0
13
5.7991
23
-63.611691
33
0
39
0
210
0
220
0
230
1
0
MTEXT
5
39B
100
AcDbEntity
8
0
62
256
6
ByLayer
370
18
48
1
60
0
100
AcDbMText
10
127.89955
20
-54.217941
30
0
210
0
220
0
230
1
1
\A1;244.2
40
4.5
41
0
44
1
50
0
71
5
72
5
7
iso_b_vert
0
POINT
5
39C
100
AcDbEntity
8
Defpoints
62
0
6
ByLayer
370
-1
48
1
60
0
100
AcDbPoint
10
250
20
-18
30
0
39
0
210
0
220
0
230
1
50
360
0
POINT
5
39D
100
AcDbEntity
8
Defpoints
62
0
6
ByLayer
370
-1
48
1
60
0
100
AcDbPoint
10
5.7991
20
-24.75
30
0
39
0
210
0
220
0
230
1
50
360
0
POINT
5
39E
100
AcDbEntity
8
Defpoints
62
0
6
ByLayer
370
-1
48
1
60
0
100
AcDbPoint
10
5.7991
20
-63.611691
30
0
39
0
210
0
220
0
230
1
50
360
0
ENDBLK
5
395
100
AcDbEntity
8
0
100
AcDbBlockEnd
0
BLOCK
5
3A6
100
AcDbEntity
8
0
100
AcDbBlockBegin
2
_U2
70
0
10
0
20
0
30
0
3
_U2
0
MTEXT
5
3A0
100
AcDbEntity
8
SK2
62
256
6
ByLayer
370
18
48
1
60
0
100
AcDbMText
10
120.702166
20
-62.28402
30
0
210
0
220
0
230
1
1
\W0.7958;244.2
40
4.5
41
0
44
1.084337
50
0
71
7
72
5
7
iso_b_vert
0
LINE
5
3A1
100
AcDbEntity
8
SK2
62
256
6
ByLayer
370
13
48
1
60
0
100
AcDbLine
10
250
20
-19.5875
30
0
11
250
21
-66.786691
31
0
39
0
210
0
220
0
230
1
0
LINE
5
3A2
100
AcDbEntity
8
SK2
62
256
6
ByLayer
370
13
48
1
60
0
100
AcDbLine
10
5.7991
20
-26.3375
30
0
11
5.7991
21
-66.786691
31
0
39
0
210
0
220
0
230
1
0
LINE
5
3A3
100
AcDbEntity
8
SK2
62
256
6
ByLayer
370
13
48
1
60
0
100
AcDbLine
10
250
20
-63.611691
30
0
11
5.7991
21
-63.611691
31
0
39
0
210
0
220
0
230
1
0
SOLID
5
3A4
100
AcDbEntity
8
SK2
62
256
6
ByLayer
370
18
48
1
60
0
100
AcDbTrace
10
250
20
-63.611691
30
0
11
245.825003
21
-64.537267
31
0
12
245.824997
22
-62.686116
32
0
13
245.824997
23
-62.686116
33
0
39
0
210
0
220
0
230
1
0
SOLID
5
3A5
100
AcDbEntity
8
SK2
62
256
6
ByLayer
370
18
48
1
60
0
100
AcDbTrace
10
5.7991
20
-63.611691
30
0
11
9.974097
21
-62.686116
31
0
12
9.974103
22
-64.537267
32
0
13
9.974103
23
-64.537267
33
0
39
0
210
0
220
0
230
1
0
ENDBLK
5
3A7
100
AcDbEntity
8
0
100
AcDbBlockEnd
0
BLOCK
5
3AC
100
AcDbEntity
8
0
100
AcDbBlockBegin
2
*D7
70
1
10
0
20
0
30
0
3
*D7
0
LINE
5
3AE
100
AcDbEntity
8
0
62
256
6
ByLayer
370
-2
48
1
60
0
100
AcDbLine
10
30
20
-19.5875
30
0
11
30
21
-56.786691
31
0
39
0
210
0
220
0
230
1
0
LINE
5
3AF
100
AcDbEntity
8
0
62
256
6
ByLayer
370
-2
48
1
60
0
100
AcDbLine
10
250
20
-19.5875
30
0
11
250
21
-56.786691
31
0
39
0
210
0
220
0
230
1
0
LINE
5
3B0
100
AcDbEntity
8
0
62
256
6
ByLayer
370
-2
48
1
60
0
100
AcDbLine
10
34.175
20
-53.611691
30
0
11
245.825
21
-53.611691
31
0
39
0
210
0
220
0
230
1
0
SOLID
5
3B1
100
AcDbEntity
8
0
62
256
6
ByLayer
370
-1
48
1
60
0
100
AcDbTrace
10
34.175
20
-52.915858
30
0
11
34.175
21
-54.307525
31
0
12
30
22
-53.611691
32
0
13
30
23
-53.611691
33
0
39
0
210
0
220
0
230
1
0
SOLID
5
3B2
100
AcDbEntity
8
0
62
256
6
ByLayer
370
-1
48
1
60
0
100
AcDbTrace
10
245.825
20
-54.307525
30
0
11
245.825
21
-52.915858
31
0
12
250
22
-53.611691
32
0
13
250
23
-53.611691
33
0
39
0
210
0
220
0
230
1
0
MTEXT
5
3B3
100
AcDbEntity
8
0
62
256
6
ByLayer
370
18
48
1
60
0
100
AcDbMText
10
140
20
-44.217941
30
0
210
0
220
0
230
1
1
\A1;220
40
4.5
41
0
44
1
50
0
71
5
72
5
7
iso_b_vert
0
POINT
5
3B4
100
AcDbEntity
8
Defpoints
62
0
6
ByLayer
370
-1
48
1
60
0
100
AcDbPoint
10
30
20
-18
30
0
39
0
210
0
220
0
230
1
50
360
0
POINT
5
3B5
100
AcDbEntity
8
Defpoints
62
0
6
ByLayer
370
-1
48
1
60
0
100
AcDbPoint
10
250
20
-18
30
0
39
0
210
0
220
0
230
1
50
360
0
POINT
5
3B6
100
AcDbEntity
8
Defpoints
62
0
6
ByLayer
370
-1
48
1
60
0
100
AcDbPoint
10
250
20
-53.611691
30
0
39
0
210
0
220
0
230
1
50
360
0
ENDBLK
5
3AD
100
AcDbEntity
8
0
100
AcDbBlockEnd
0
BLOCK
5
3BE
100
AcDbEntity
8
0
100
AcDbBlockBegin
2
_U3
70
0
10
0
20
0
30
0
3
_U3
0
MTEXT
5
3B8
100
AcDbEntity
8
SK2
62
256
6
ByLayer
370
18
48
1
60
0
100
AcDbMText
10
135.869387
20
-52.28402
30
0
210
0
220
0
230
1
1
\W0.7138;220
40
4.5
41
0
44
1.084337
50
0
71
7
72
5
7
iso_b_vert
0
LINE
5
3B9
100
AcDbEntity
8
SK2
62
256
6
ByLayer
370
13
48
1
60
0
100
AcDbLine
10
30
20
-19.5875
30
0
11
30
21
-56.786691
31
0
39
0
210
0
220
0
230
1
0
LINE
5
3BA
100
AcDbEntity
8
SK2
62
256
6
ByLayer
370
13
48
1
60
0
100
AcDbLine
10
250
20
-19.5875
30
0
11
250
21
-56.786691
31
0
39
0
210
0
220
0
230
1
0
LINE
5
3BB
100
AcDbEntity
8
SK2
62
256
6
ByLayer
370
13
48
1
60
0
100
AcDbLine
10
30
20
-53.611691
30
0
11
250
21
-53.611691
31
0
39
0
210
0
220
0
230
1
0
SOLID
5
3BC
100
AcDbEntity
8
SK2
62
256
6
ByLayer
370
18
48
1
60
0
100
AcDbTrace
10
30
20
-53.611691
30
0
11
34.174997
21
-52.686116
31
0
12
34.175003
22
-54.537267
32
0
13
34.175003
23
-54.537267
33
0
39
0
210
0
220
0
230
1
0
SOLID
5
3BD
100
AcDbEntity
8
SK2
62
256
6
ByLayer
370
18
48
1
60
0
100
AcDbTrace
10
250
20
-53.611691
30
0
11
245.825003
21
-54.537267
31
0
12
245.824997
22
-52.686116
32
0
13
245.824997
23
-52.686116
33
0
39
0
210
0
220
0
230
1
0
ENDBLK
5
3BF
100
AcDbEntity
8
0
100
AcDbBlockEnd
0
BLOCK
5
3C4
100
AcDbEntity
8
0
100
AcDbBlockBegin
2
*D9
70
1
10
0
20
0
30
0
3
*D9
0
LINE
5
3C6
100
AcDbEntity
8
0
62
256
6
ByLayer
370
-2
48
1
60
0
100
AcDbLine
10
248.9982
20
-10.5875
30
0
11
248.9982
21
-46.786691
31
0
39
0
210
0
220
0
230
1
0
LINE
5
3C7
100
AcDbEntity
8
0
62
256
6
ByLayer
370
-2
48
1
60
0
100
AcDbLine
10
250
20
-1.5875
30
0
11
250
21
-46.786691
31
0
39
0
210
0
220
0
230
1
0
LINE
5
3C8
100
AcDbEntity
8
0
62
256
6
ByLayer
370
-2
48
1
60
0
100
AcDbLine
10
250
20
-43.611691
30
0
11
273.708929
21
-43.611691
31
0
39
0
210
0
220
0
230
1
0
LINE
5
3C9
100
AcDbEntity
8
0
62
256
6
ByLayer
370
-2
48
1
60
0
100
AcDbLine
10
244.8232
20
-43.611691
30
0
11
240.6482
21
-43.611691
31
0
39
0
210
0
220
0
230
1
0
LINE
5
3CA
100
AcDbEntity
8
0
62
256
6
ByLayer
370
-2
48
1
60
0
100
AcDbLine
10
254.175
20
-43.611691
30
0
11
258.35
21
-43.611691
31
0
39
0
210
0
220
0
230
1
0
SOLID
5
3CB
100
AcDbEntity
8
0
62
256
6
ByLayer
370
-1
48
1
60
0
100
AcDbTrace
10
244.8232
20
-44.307525
30
0
11
244.8232
21
-42.915858
31
0
12
248.9982
22
-43.611691
32
0
13
248.9982
23
-43.611691
33
0
39
0
210
0
220
0
230
1
0
SOLID
5
3CC
100
AcDbEntity
8
0
62
256
6
ByLayer
370
-1
48
1
60
0
100
AcDbTrace
10
254.175
20
-42.915858
30
0
11
254.175
21
-44.307525
31
0
12
250
22
-43.611691
32
0
13
250
23
-43.611691
33
0
39
0
210
0
220
0
230
1
0
MTEXT
5
3CD
100
AcDbEntity
8
0
62
256
6
ByLayer
370
18
48
1
60
0
100
AcDbMText
10
266.029464
20
-34.217941
30
0
210
0
220
0
230
1
1
\A1;1
40
4.5
41
0
44
1
50
0
71
5
72
5
7
iso_b_vert
0
POINT
5
3CE
100
AcDbEntity
8
Defpoints
62
0
6
ByLayer
370
-1
48
1
60
0
100
AcDbPoint
10
248.9982
20
-9
30
0
39
0
210
0
220
0
230
1
50
360
0
POINT
5
3CF
100
AcDbEntity
8
Defpoints
62
0
6
ByLayer
370
-1
48
1
60
0
100
AcDbPoint
10
250
20
0
30
0
39
0
210
0
220
0
230
1
50
360
0
POINT
5
3D0
100
AcDbEntity
8
Defpoints
62
0
6
ByLayer
370
-1
48
1
60
0
100
AcDbPoint
10
250
20
-43.611691
30
0
39
0
210
0
220
0
230
1
50
360
0
ENDBLK
5
3C5
100
AcDbEntity
8
0
100
AcDbBlockEnd
0
BLOCK
5
3D8
100
AcDbEntity
8
0
100
AcDbBlockBegin
2
_U4
70
0
10
0
20
0
30
0
3
_U4
0
MTEXT
5
3D2
100
AcDbEntity
8
2
62
256
6
ByLayer
370
18
48
1
60
0
100
AcDbMText
10
262.351
20
-42.28402
30
0
210
0
220
0
230
1
1
\W0.3580;1
40
4.5
41
0
44
1.084337
50
0
71
7
72
5
7
iso_b_vert
0
LINE
5
3D3
100
AcDbEntity
8
2
62
256
6
ByLayer
370
13
48
1
60
0
100
AcDbLine
10
248.9982
20
-10.5875
30
0
11
248.9982
21
-46.786691
31
0
39
0
210
0
220
0
230
1
0
LINE
5
3D4
100
AcDbEntity
8
2
62
256
6
ByLayer
370
13
48
1
60
0
100
AcDbLine
10
250
20
-1.5875
30
0
11
250
21
-46.786691
31
0
39
0
210
0
220
0
230
1
0
LINE
5
3D5
100
AcDbEntity
8
2
62
256
6
ByLayer
370
13
48
1
60
0
100
AcDbLine
10
263.000414
20
-43.611691
30
0
11
237.7482
21
-43.611691
31
0
39
0
210
0
220
0
230
1
0
SOLID
5
3D6
100
AcDbEntity
8
2
62
256
6
ByLayer
370
18
48
1
60
0
100
AcDbTrace
10
248.9982
20
-43.611691
30
0
11
244.823203
21
-44.537267
31
0
12
244.823197
22
-42.686116
32
0
13
244.823197
23
-42.686116
33
0
39
0
210
0
220
0
230
1
0
SOLID
5
3D7
100
AcDbEntity
8
2
62
256
6
ByLayer
370
18
48
1
60
0
100
AcDbTrace
10
250
20
-43.611691
30
0
11
254.174997
21
-42.686116
31
0
12
254.175003
22
-44.537267
32
0
13
254.175003
23
-44.537267
33
0
39
0
210
0
220
0
230
1
0
ENDBLK
5
3D9
100
AcDbEntity
8
0
100
AcDbBlockEnd
0
ENDSEC
0
SECTION
2
ENTITIES
0
ARC
5
18C
100
AcDbEntity
8
SK1
62
256
6
ByLayer
370
13
48
1
60
0
100
AcDbCircle
39
0
10
-67.894505
20
-20.396
30
0
40
0.799999999999993
210
0
220
0
230
1
100
AcDbArc
50
70.982
51
141
0
ARC
5
18D
100
AcDbEntity
8
SK1
62
256
6
ByLayer
370
13
48
1
60
0
100
AcDbCircle
39
0
10
-67.894505
20
20.396
30
0
40
0.799999999999993
210
0
220
0
230
1
100
AcDbArc
50
219
51
289.018
0
ARC
5
18E
100
AcDbEntity
8
SK1
62
256
6
ByLayer
370
13
48
1
60
0
100
AcDbCircle
39
0
10
-0.15
20
20.146
30
0
40
0.399999999999999
210
0
220
0
230
1
100
AcDbArc
50
270
51
292.024313
0
ARC
5
18F
100
AcDbEntity
8
SK1
62
256
6
ByLayer
370
13
48
1
60
0
100
AcDbCircle
39
0
10
-0.15
20
-20.146
30
0
40
0.399999999999999
210
0
220
0
230
1
100
AcDbArc
50
67.975687
51
90
0
ARC
5
190
100
AcDbEntity
8
SK1
62
256
6
ByLayer
370
13
48
1
60
0
100
AcDbCircle
39
0
10
-1.375195
20
20.146
30
0
40
0.400000000000004
210
0
220
0
230
1
100
AcDbArc
50
245
51
270
0
ARC
5
191
100
AcDbEntity
8
SK1
62
256
6
ByLayer
370
13
48
1
60
0
100
AcDbCircle
39
0
10
-1.375195
20
-20.146
30
0
40
0.400000000000004
210
0
220
0
230
1
100
AcDbArc
50
90
51
115
0
ARC
5
192
100
AcDbEntity
8
1
62
256
6
ByLayer
370
13
48
1
60
0
100
AcDbCircle
39
0
10
247.031442
20
16.779012
30
0
40
0.15
210
0
220
0
230
1
100
AcDbArc
50
8.974534
51
93
0
ARC
5
193
100
AcDbEntity
8
1
62
256
6
ByLayer
370
13
48
1
60
0
100
AcDbCircle
39
0
10
247.134212
20
6.891893
30
0
40
0.15
210
0
220
0
230
1
100
AcDbArc
50
273
51
352.543899
0
ARC
5
194
100
AcDbEntity
8
1
62
256
6
ByLayer
370
13
48
1
60
0
100
AcDbCircle
39
0
10
237.65978
20
16.120216
30
0
40
0.15
210
0
220
0
230
1
100
AcDbArc
50
78.801932
51
93
0
ARC
5
195
100
AcDbEntity
8
1
62
256
6
ByLayer
370
13
48
1
60
0
100
AcDbCircle
39
0
10
237.76255
20
6.233097
30
0
40
0.15
210
0
220
0
230
1
100
AcDbArc
50
273
51
302.717373
0
ELLIPSE
5
196
100
AcDbEntity
8
1
62
256
6
ByLayer
370
13
48
1
60
0
100
AcDbEllipse
10
242.362431
20
11.504243
30
0
11
0.139331774436744
21
-2.65860863297132
31
0
210
0
220
0
230
1
40
0.995725
41
-0.853733347690236
42
0
0
ELLIPSE
5
197
100
AcDbEntity
8
1
62
256
6
ByLayer
370
13
48
1
60
0
100
AcDbEllipse
10
242.362431
20
11.504243
30
0
11
0.139331774436744
21
-2.65860863297132
31
0
210
0
220
0
230
1
40
0.995725
41
0
42
-2.28787036705996
0
ELLIPSE
5
198
100
AcDbEntity
8
1
62
256
6
ByLayer
370
13
48
1
60
0
100
AcDbEllipse
10
237.612737
20
17.739208
30
0
11
-1.35440056059141
21
0.949932038389553
31
0
210
0
220
0
230
1
40
0.736455
41
1.1387582277862
42
1.92747736986654
0
ELLIPSE
5
199
100
AcDbEntity
8
1
62
256
6
ByLayer
370
13
48
1
60
0
100
AcDbEllipse
10
235.72775
20
15.93845
30
0
11
-0.0435800209885082
21
-0.258371691307661
31
0
210
0
220
0
230
1
40
0.950251
41
-2.83208175218495
42
-1.53189750447093
0
ELLIPSE
5
19A
100
AcDbEntity
8
1
62
256
6
ByLayer
370
13
48
1
60
0
100
AcDbEllipse
10
247.965321
20
16.037845
30
0
11
-0.0915879234251497
21
1.74760168582051
31
0
210
0
220
0
230
1
40
0.995725
41
-0.0301358259415884
42
-0.00872664626000391
0
ELLIPSE
5
19B
100
AcDbEntity
8
1
62
256
6
ByLayer
370
13
48
1
60
0
100
AcDbEllipse
10
249.153411
20
11.96028
30
0
11
0.0366351693700595
21
-0.699040674328201
31
0
210
0
220
0
230
1
40
0.995725
41
1.38753675533597
42
1.67551608191509
0
ELLIPSE
5
19C
100
AcDbEntity
8
1
62
256
6
ByLayer
370
13
48
1
60
0
100
AcDbEllipse
10
247.979158
20
16.03857
30
0
11
0.0994383168615901
21
-1.89739611603369
31
0
210
0
220
0
230
1
40
0.995725
41
3.11145682764821
42
3.1328660073298
0
ELLIPSE
5
19D
100
AcDbEntity
8
1
62
256
6
ByLayer
370
13
48
1
60
0
100
AcDbEllipse
10
246.116548
20
18.184874
30
0
11
0.0863543278008547
21
-1.64773873234505
31
0
210
0
220
0
230
1
40
0.995725
41
0.732285237848157
42
1.24776550800933
0
ELLIPSE
5
19E
100
AcDbEntity
8
1
62
256
6
ByLayer
370
13
48
1
60
0
100
AcDbEllipse
10
247.223449
20
11.934612
30
0
11
0.0444855628065009
21
-0.848835104541388
31
0
210
0
220
0
230
1
40
0.995725
41
1.38753675533551
42
1.67551608191454
0
ELLIPSE
5
19F
100
AcDbEntity
8
1
62
256
6
ByLayer
370
13
48
1
60
0
100
AcDbEllipse
10
237.65978
20
16.120216
30
0
11
0.148731686424787
21
-0.0194649801756622
31
0
210
0
220
0
230
1
40
0.016833
41
1.47983423648265
42
3.05063056328417
0
ELLIPSE
5
1A0
100
AcDbEntity
8
1
62
256
6
ByLayer
370
13
48
1
60
0
100
AcDbEllipse
10
236.711556
20
10.943508
30
0
11
-0.148163665863162
21
-0.0233993187505365
31
0
210
0
220
0
230
1
40
0.009655
41
-3.04959407911497
42
-1.47879775232179
0
ELLIPSE
5
1A1
100
AcDbEntity
8
1
62
256
6
ByLayer
370
13
48
1
60
0
100
AcDbEllipse
10
247.031442
20
16.779012
30
0
11
-0.148163665863162
21
-0.0233993187505365
31
0
210
0
220
0
230
1
40
0.009655
41
1.66279490126864
42
3.141376898838
0
ELLIPSE
5
1A2
100
AcDbEntity
8
1
62
256
6
ByLayer
370
13
48
1
60
0
100
AcDbEllipse
10
249.689692
20
12.045955
30
0
11
0.148163665863162
21
0.0233993187505386
31
0
210
0
220
0
230
1
40
0.009655
41
0.0919985744760602
42
1.66279490126875
0
ELLIPSE
5
1A3
100
AcDbEntity
8
1
62
256
6
ByLayer
370
13
48
1
60
0
100
AcDbEllipse
10
235.724551
20
15.949304
30
0
11
-0.148731686424783
21
0.0194649801756897
31
0
210
0
220
0
230
1
40
0.016833
41
-0.0909620903112785
42
1.47983423648108
0
ELLIPSE
5
1A4
100
AcDbEntity
8
1
62
256
6
ByLayer
370
13
48
1
60
0
100
AcDbEllipse
10
247.419128
20
6.801647
30
0
11
-0.157381426433823
21
-0.0466723701703744
31
0
210
0
220
0
230
1
40
0.019797
41
-1.48863728986138
42
0.0821590367359756
0
ELLIPSE
5
1A5
100
AcDbEntity
8
1
62
256
6
ByLayer
370
13
48
1
60
0
100
AcDbEllipse
10
249.060216
20
7.062321
30
0
11
-0.0235312926468167
21
0.148142763125203
31
0
210
0
220
0
230
1
40
0.091865
41
1.56109981835774
42
3.13189614514258
0
ELLIPSE
5
1A6
100
AcDbEntity
8
1
62
256
6
ByLayer
370
13
48
1
60
0
100
AcDbEllipse
10
248.301391
20
17.237459
30
0
11
-0.0287847759336181
21
0.54924624411501
31
0
210
0
220
0
230
1
40
0.995725
41
-1.46607657167522
42
-0.0745839291780073
0
ELLIPSE
5
1A7
100
AcDbEntity
8
1
62
256
6
ByLayer
370
13
48
1
60
0
100
AcDbEllipse
10
249.134962
20
11.959313
30
0
11
-0.0287847759336183
21
0.549246244115015
31
0
210
0
220
0
230
1
40
0.995725
41
-1.75405589825437
42
-1.46607657167527
0
ELLIPSE
5
1A8
100
AcDbEntity
8
1
62
256
6
ByLayer
370
13
48
1
60
0
100
AcDbEllipse
10
246.44424
20
5.234276
30
0
11
-1.09994055602822
21
-1.17548008838694
31
0
210
0
220
0
230
1
40
0.728398
41
2.64236531992715
42
-2.95274918124881
0
ELLIPSE
5
1A9
100
AcDbEntity
8
1
62
256
6
ByLayer
370
13
48
1
60
0
100
AcDbEllipse
10
236.708322
20
11.187422
30
0
11
-0.148731686424783
21
0.0194649801756897
31
0
210
0
220
0
230
1
40
0.016833
41
1.47983423648391
42
3.05063056328417
0
ELLIPSE
5
1AA
100
AcDbEntity
8
1
62
256
6
ByLayer
370
13
48
1
60
0
100
AcDbEllipse
10
247.782791
20
12.021496
30
0
11
0.148163665863162
21
0.0233993187505386
31
0
210
0
220
0
230
1
40
0.009655
41
-1.4787977523216
42
-0.000215754808218124
0
ELLIPSE
5
1AB
100
AcDbEntity
8
1
62
256
6
ByLayer
370
13
48
1
60
0
100
AcDbEllipse
10
247.587524
20
17.724502
30
0
11
-0.259146150480011
21
-0.225625397344287
31
0
210
0
220
0
230
1
40
0.736456
41
-1.18497887369814
42
-1.13875602750684
0
ELLIPSE
5
1AC
100
AcDbEntity
8
1
62
256
6
ByLayer
370
13
48
1
60
0
100
AcDbEllipse
10
247.98377
20
16.038811
30
0
11
0.0994383168615901
21
-1.89739611603369
31
0
210
0
220
0
230
1
40
0.995725
41
3.11145682764875
42
3.13286600733033
0
ELLIPSE
5
1AD
100
AcDbEntity
8
1
62
256
6
ByLayer
370
13
48
1
60
0
100
AcDbEllipse
10
247.241898
20
11.935579
30
0
11
0.0366351693700595
21
-0.699040674328202
31
0
210
0
220
0
230
1
40
0.995725
41
1.38753675533548
42
1.67551608191455
0
ELLIPSE
5
1AE
100
AcDbEntity
8
1
62
256
6
ByLayer
370
13
48
1
60
0
100
AcDbEllipse
10
237.76255
20
6.233097
30
0
11
0.081074317859623
21
-0.126202040330562
31
0
210
0
220
0
230
1
40
0.080306
41
2.25336961328214E-05
42
1.52499017530744
0
ELLIPSE
5
1AF
100
AcDbEntity
8
1
62
256
6
ByLayer
370
13
48
1
60
0
100
AcDbEllipse
10
247.784884
20
11.863669
30
0
11
0.148731686424787
21
-0.0194649801756622
31
0
210
0
220
0
230
1
40
0.016833
41
5.34639593589533E-05
42
1.47983423648353
0
ELLIPSE
5
1B0
100
AcDbEntity
8
1
62
256
6
ByLayer
370
13
48
1
60
0
100
AcDbEllipse
10
237.365639
20
16.209978
30
0
11
-0.042799317778524
21
-0.158580925158205
31
0
210
0
220
0
230
1
40
0.080206
41
-3.1153776664744
42
-1.54458133970771
0
ELLIPSE
5
1B1
100
AcDbEntity
8
1
62
256
6
ByLayer
370
13
48
1
60
0
100
AcDbEllipse
10
236.213964
20
17.12844
30
0
11
-0.357961887354245
21
0.220366838114832
31
0
210
0
220
0
230
1
40
0.479615
41
-1.80876844141246
42
-0.781758788887208
0
ELLIPSE
5
1B2
100
AcDbEntity
8
1
62
256
6
ByLayer
370
13
48
1
60
0
100
AcDbEllipse
10
237.009323
20
5.280205
30
0
11
-0.00261679781214717
21
0.0499314767377296
31
0
210
0
220
0
230
1
40
0.995725
41
3.13286600733052
42
-1.89382714558042
0
ELLIPSE
5
1B3
100
AcDbEntity
8
1
62
256
6
ByLayer
370
13
48
1
60
0
100
AcDbEllipse
10
235.622132
20
11.050862
30
0
11
-0.0287847759336183
21
0.549246244115015
31
0
210
0
220
0
230
1
40
0.995725
41
1.38753675533543
42
1.67551608191452
0
ELLIPSE
5
1B4
100
AcDbEntity
8
1
62
256
6
ByLayer
370
13
48
1
60
0
100
AcDbEllipse
10
248.720711
20
6.351555
30
0
11
-0.0435800209817806
21
-0.258371691309641
31
0
210
0
220
0
230
1
40
0.950251
41
0.309510901380048
42
1.27776263794777
0
ELLIPSE
5
1B5
100
AcDbEntity
8
1
62
256
6
ByLayer
370
13
48
1
60
0
100
AcDbEllipse
10
237.65978
20
16.120216
30
0
11
-0.0291301903381154
21
-0.147144255786168
31
0
210
0
220
0
230
1
40
0.089572
41
1.59345443284451
42
-3.11893454750752
0
ELLIPSE
5
1B6
100
AcDbEntity
8
1
62
256
6
ByLayer
370
13
48
1
60
0
100
AcDbEllipse
10
237.011201
20
10.990613
30
0
11
-0.148163665863162
21
-0.0233993187505365
31
0
210
0
220
0
230
1
40
0.009655
41
0.0919985744772816
42
1.66279490126838
0
ELLIPSE
5
1B7
100
AcDbEntity
8
1
62
256
6
ByLayer
370
13
48
1
60
0
100
AcDbEllipse
10
235.640581
20
11.051828
30
0
11
0.0366351693700595
21
-0.699040674328201
31
0
210
0
220
0
230
1
40
0.995725
41
-1.75405589825493
42
-1.46607657167577
0
ELLIPSE
5
1B8
100
AcDbEntity
8
1
62
256
6
ByLayer
370
13
48
1
60
0
100
AcDbEllipse
10
238.658995
20
4.826268
30
0
11
-0.0785039343644141
21
1.49794430213186
31
0
210
0
220
0
230
1
40
0.995725
41
0.716438162265262
42
1.24776550800877
0
ELLIPSE
5
1B9
100
AcDbEntity
8
1
62
256
6
ByLayer
370
13
48
1
60
0
100
AcDbEllipse
10
247.361078
20
6.741802
30
0
11
0.00523359562429359
21
-0.0998629534754454
31
0
210
0
220
0
230
1
40
0.995725
41
-6.34410640751874E-06
42
0.104719755120852
0
ELLIPSE
5
1BA
100
AcDbEntity
8
1
62
256
6
ByLayer
370
13
48
1
60
0
100
AcDbEllipse
10
237.56593
20
11.077255
30
0
11
-0.0287847759336184
21
0.549246244115016
31
0
210
0
220
0
230
1
40
0.995725
41
1.38753675533548
42
1.67551608191458
0
ELLIPSE
5
1BB
100
AcDbEntity
8
1
62
256
6
ByLayer
370
13
48
1
60
0
100
AcDbEllipse
10
247.36569
20
6.742044
30
0
11
0.00523359562429359
21
-0.0998629534754454
31
0
210
0
220
0
230
1
40
0.995725
41
-1.75405589825347
42
0.10471975512001
0
ELLIPSE
5
1BC
100
AcDbEntity
8
1
62
256
6
ByLayer
370
13
48
1
60
0
100
AcDbEllipse
10
237.547482
20
11.076288
30
0
11
-0.0366351693700599
21
0.699040674328202
31
0
210
0
220
0
230
1
40
0.995725
41
1.38753675533548
42
1.67551608191455
0
ELLIPSE
5
1BD
100
AcDbEntity
8
1
62
256
6
ByLayer
370
13
48
1
60
0
100
AcDbEllipse
10
235.092983
20
11.123497
30
0
11
-0.148731686424783
21
0.0194649801756897
31
0
210
0
220
0
230
1
40
0.016833
41
-0.0909620903105779
42
1.4798342364841
0
ELLIPSE
5
1BE
100
AcDbEntity
8
1
62
256
6
ByLayer
370
13
48
1
60
0
100
AcDbEllipse
10
247.134212
20
6.891893
30
0
11
0.00785039343644132
21
-0.149794430213186
31
0
210
0
220
0
230
1
40
0.995725
41
-0.246786176441721
42
2.1128783798941E-05
0
ELLIPSE
5
1BF
100
AcDbEntity
8
1
62
256
6
ByLayer
370
13
48
1
60
0
100
AcDbEllipse
10
237.428302
20
16.270065
30
0
11
0.00523359562429359
21
-0.0998629534754454
31
0
210
0
220
0
230
1
40
0.995725
41
1.38753675533546
42
-3.03687289847123
0
ELLIPSE
5
1C0
100
AcDbEntity
8
1
62
256
6
ByLayer
370
13
48
1
60
0
100
AcDbEllipse
10
235.095075
20
10.96567
30
0
11
-0.148163665863162
21
-0.0233993187505365
31
0
210
0
220
0
230
1
40
0.009655
41
-1.4787977523216
42
-0.264819008251334
0
ELLIPSE
5
1C1
100
AcDbEntity
8
1
62
256
6
ByLayer
370
13
48
1
60
0
100
AcDbEllipse
10
236.160577
20
17.125642
30
0
11
-0.281308669543643
21
0.197301638527995
31
0
210
0
220
0
230
1
40
0.736454
41
-2.00283201779321
42
-1.9566089953138
0
ELLIPSE
5
1C2
100
AcDbEntity
8
1
62
256
6
ByLayer
370
13
48
1
60
0
100
AcDbEllipse
10
236.635317
20
13.970555
30
0
11
-0.457939617125747
21
8.73800842910252
31
0
210
0
220
0
230
1
40
0.995725
41
3.0670087244117
42
3.11145682764822
0
ELLIPSE
5
1C3
100
AcDbEntity
8
1
62
256
6
ByLayer
370
13
48
1
60
0
100
AcDbEllipse
10
242.64847
20
6.707639
30
0
11
0.00785039343644132
21
-0.149794430213186
31
0
210
0
220
0
230
1
40
0.092371
41
0
42
1.5707963267949
0
ELLIPSE
5
1C4
100
AcDbEntity
8
1
62
256
6
ByLayer
370
13
48
1
60
0
100
AcDbEllipse
10
237.546434
20
5.976256
30
0
11
0.00523359562429436
21
-0.0998629534754602
31
0
210
0
220
0
230
1
40
0.995725
41
0.716438162266656
42
1.67551608191476
0
ELLIPSE
5
1C5
100
AcDbEntity
8
1
62
256
6
ByLayer
370
13
48
1
60
0
100
AcDbEllipse
10
237.552094
20
11.076529
30
0
11
0.0366351693700595
21
-0.699040674328202
31
0
210
0
220
0
230
1
40
0.995725
41
-1.75405589825431
42
-1.46607657167524
0
ELLIPSE
5
1C6
100
AcDbEntity
8
1
62
256
6
ByLayer
370
13
48
1
60
0
100
AcDbEllipse
10
237.027771
20
5.281171
30
0
11
0.0104671912485885
21
-0.199725906950916
31
0
210
0
220
0
230
1
40
0.995725
41
-0.00872664625869981
42
1.24776550800892
0
ELLIPSE
5
1C7
100
AcDbEntity
8
1
62
256
6
ByLayer
370
13
48
1
60
0
100
AcDbEllipse
10
237.009108
20
11.14844
30
0
11
-0.148731686424783
21
0.0194649801756897
31
0
210
0
220
0
230
1
40
0.016833
41
-1.66175841710469
42
-0.0909620903084588
0
ELLIPSE
5
1C8
100
AcDbEntity
8
1
62
256
6
ByLayer
370
13
48
1
60
0
100
AcDbEllipse
10
237.76255
20
6.233097
30
0
11
0.148163665863162
21
0.0233993187505386
31
0
210
0
220
0
230
1
40
0.009655
41
-3.04959407911497
42
-1.47879775232091
0
ELLIPSE
5
1C9
100
AcDbEntity
8
1
62
256
6
ByLayer
370
13
48
1
60
0
100
AcDbEllipse
10
242.334355
20
11.502772
30
0
11
0.132450797150177
21
-2.52731176482117
31
0
210
0
220
0
230
1
40
0.995725
41
0
42
6.28318530717959
0
ELLIPSE
5
1CA
100
AcDbEntity
8
1
62
256
6
ByLayer
370
13
48
1
60
0
100
AcDbEllipse
10
247.255734
20
11.936304
30
0
11
-0.0287847759336184
21
0.549246244115016
31
0
210
0
220
0
230
1
40
0.995725
41
-1.75405589825431
42
-1.46607657167522
0
ELLIPSE
5
1CB
100
AcDbEntity
8
1
62
256
6
ByLayer
370
13
48
1
60
0
100
AcDbEllipse
10
237.365639
20
16.209978
30
0
11
-0.157381426412771
21
-0.0466723701647285
31
0
210
0
220
0
230
1
40
0.019797
41
-3.05943361682946
42
-1.48863729010724
0
ELLIPSE
5
1CC
100
AcDbEntity
8
1
62
256
6
ByLayer
370
13
48
1
60
0
100
AcDbEllipse
10
238.654383
20
4.826026
30
0
11
-0.0785039343644141
21
1.49794430213186
31
0
210
0
220
0
230
1
40
0.995725
41
0.71643816226579
42
1.24776550800931
0
ELLIPSE
5
1CD
100
AcDbEntity
8
1
62
256
6
ByLayer
370
13
48
1
60
0
100
AcDbEllipse
10
247.76622
20
17.730937
30
0
11
0.0104671912485885
21
-0.199725906950916
31
0
210
0
220
0
230
1
40
0.995725
41
3.13286600733181
42
-1.89382714557982
0
ELLIPSE
5
1CE
100
AcDbEntity
8
1
62
256
6
ByLayer
370
13
48
1
60
0
100
AcDbEllipse
10
237.65978
20
16.120216
30
0
11
0.00785039343644132
21
-0.149794430213186
31
0
210
0
220
0
230
1
40
0.995725
41
-3.14156978910991
42
-1.75405589825489
0
ELLIPSE
5
1CF
100
AcDbEntity
8
1
62
256
6
ByLayer
370
13
48
1
60
0
100
AcDbEllipse
10
246.134997
20
18.185841
30
0
11
-0.0785039343644141
21
1.49794430213186
31
0
210
0
220
0
230
1
40
0.995725
41
-2.42515449132346
42
-1.89382714557993
0
ELLIPSE
5
1D0
100
AcDbEntity
8
1
62
256
6
ByLayer
370
13
48
1
60
0
100
AcDbEllipse
10
237.533645
20
11.075563
30
0
11
0.0444855628065009
21
-0.848835104541388
31
0
210
0
220
0
230
1
40
0.995725
41
-1.75405589825431
42
-1.46607657167525
0
ELLIPSE
5
1D1
100
AcDbEntity
8
1
62
256
6
ByLayer
370
13
48
1
60
0
100
AcDbEllipse
10
247.747771
20
17.72997
30
0
11
-0.00261679781214717
21
0.0499314767377296
31
0
210
0
220
0
230
1
40
0.995725
41
-0.00872664625866289
42
1.24776550800937
0
ELLIPSE
5
1D2
100
AcDbEntity
8
1
62
256
6
ByLayer
370
13
48
1
60
0
100
AcDbEllipse
10
236.844724
20
5.2235
30
0
11
0.00331394097836056
21
-0.149963388182556
31
0
210
0
220
0
230
1
40
0.092329
41
-1.56800114115575
42
-0.0435131345146251
0
ELLIPSE
5
1D3
100
AcDbEntity
8
1
62
256
6
ByLayer
370
13
48
1
60
0
100
AcDbEllipse
10
237.036618
20
5.278704
30
0
11
0.0152182918358443
21
-0.290382306673492
31
0
210
0
220
0
230
1
40
0.995725
41
0.174532925198709
42
1.24776550800842
0
ELLIPSE
5
1D4
100
AcDbEntity
8
1
62
256
6
ByLayer
370
13
48
1
60
0
100
AcDbEllipse
10
249.066242
20
7.073659
30
0
11
-0.0435800209809906
21
-0.258371691309859
31
0
210
0
220
0
230
1
40
0.950251
41
0.309510901376994
42
1.60969514908725
0
ELLIPSE
5
1D5
100
AcDbEntity
8
1
62
256
6
ByLayer
370
13
48
1
60
0
100
AcDbEllipse
10
247.759425
20
17.780648
30
0
11
-0.00653729335064181
21
0.149857478277354
31
0
210
0
220
0
230
1
40
0.092367
41
0.000809536043732892
42
1.57160586284002
0
ELLIPSE
5
1D6
100
AcDbEntity
8
1
62
256
6
ByLayer
370
13
48
1
60
0
100
AcDbEllipse
10
236.810222
20
6.973297
30
0
11
0.0994383168615901
21
-1.89739611603369
31
0
210
0
220
0
230
1
40
0.995725
41
-0.0301358259420988
42
-0.00872664626051691
0
ELLIPSE
5
1D7
100
AcDbEntity
8
1
62
256
6
ByLayer
370
13
48
1
60
0
100
AcDbEllipse
10
248.319839
20
17.238426
30
0
11
0.0366351693700593
21
-0.699040674328197
31
0
210
0
220
0
230
1
40
0.995725
41
1.67551608191513
42
3.0670087244123
0
ELLIPSE
5
1D8
100
AcDbEntity
8
1
62
256
6
ByLayer
370
13
48
1
60
0
100
AcDbEllipse
10
248.135614
20
9.040345
30
0
11
0.465790010562185
21
-8.88780285931571
31
0
210
0
220
0
230
1
40
0.995725
41
3.0670087244117
42
3.11145682764823
0
ELLIPSE
5
1D9
100
AcDbEntity
8
1
62
256
6
ByLayer
370
13
48
1
60
0
100
AcDbEllipse
10
248.140226
20
9.040587
30
0
11
0.465790010562185
21
-8.88780285931571
31
0
210
0
220
0
230
1
40
0.995725
41
3.06700872441224
42
3.11145682764877
0
ELLIPSE
5
1DA
100
AcDbEntity
8
1
62
256
6
ByLayer
370
13
48
1
60
0
100
AcDbEllipse
10
248.85612
20
17.3241
30
0
11
0.148163665863162
21
0.0233993187505386
31
0
210
0
220
0
230
1
40
0.009655
41
0.0919985744760602
42
1.66279490126864
0
ELLIPSE
5
1DB
100
AcDbEntity
8
1
62
256
6
ByLayer
370
13
48
1
60
0
100
AcDbEllipse
10
248.073212
20
12.068118
30
0
11
0.148163665863162
21
0.0233993187505386
31
0
210
0
220
0
230
1
40
0.009655
41
1.66279490126894
42
2.86108759533354
0
ELLIPSE
5
1DC
100
AcDbEntity
8
1
62
256
6
ByLayer
370
13
48
1
60
0
100
AcDbEllipse
10
247.757374
20
17.733404
30
0
11
0.0152182918358443
21
-0.290382306673492
31
0
210
0
220
0
230
1
40
0.995725
41
-2.96705972839021
42
-1.89382714558035
0
ELLIPSE
5
1DD
100
AcDbEntity
8
1
62
256
6
ByLayer
370
13
48
1
60
0
100
AcDbEllipse
10
247.940044
20
17.788126
30
0
11
-0.00331394097836111
21
0.149963388182556
31
0
210
0
220
0
230
1
40
0.092329
41
0.00279518563861637
42
1.57359151243404
0
ELLIPSE
5
1DE
100
AcDbEntity
8
1
62
256
6
ByLayer
370
13
48
1
60
0
100
AcDbEllipse
10
247.134212
20
6.891893
30
0
11
0.0291301903380954
21
0.147144255786172
31
0
210
0
220
0
230
1
40
0.089572
41
-3.11893454757106
42
-1.54813822074548
0
ELLIPSE
5
1DF
100
AcDbEntity
8
1
62
256
6
ByLayer
370
13
48
1
60
0
100
AcDbEllipse
10
249.064828
20
7.062563
30
0
11
0.00785039343644137
21
-0.149794430213187
31
0
210
0
220
0
230
1
40
0.995725
41
0.104719755119883
42
1.38753675533587
0
ELLIPSE
5
1E0
100
AcDbEntity
8
1
62
256
6
ByLayer
370
13
48
1
60
0
100
AcDbEllipse
10
248.076445
20
11.824203
30
0
11
0.148731686424787
21
-0.0194649801756622
31
0
210
0
220
0
230
1
40
0.016833
41
-2.86301658541631
42
-1.66175841710494
0
ELLIPSE
5
1E1
100
AcDbEntity
8
1
62
256
6
ByLayer
370
13
48
1
60
0
100
AcDbEllipse
10
236.457493
20
5.223587
30
0
11
-0.00338117794798625
21
-0.149961887277015
31
0
210
0
220
0
230
1
40
0.092114
41
-1.56388390792953
42
-0.0704860709496585
0
ELLIPSE
5
1E2
100
AcDbEntity
8
1
62
256
6
ByLayer
370
13
48
1
60
0
100
AcDbEllipse
10
235.928647
20
5.687525
30
0
11
-0.148163665863162
21
-0.0233993187505365
31
0
210
0
220
0
230
1
40
0.009655
41
-1.47879775232047
42
0.0919985744742108
0
ELLIPSE
5
1E3
100
AcDbEntity
8
1
62
256
6
ByLayer
370
13
48
1
60
0
100
AcDbEllipse
10
238.658995
20
4.826268
30
0
11
-0.07327033874012
21
1.3980813486564
31
0
210
0
220
0
230
1
40
0.995725
41
0
42
1.24776550800874
0
ELLIPSE
5
1E4
100
AcDbEntity
8
1
62
256
6
ByLayer
370
13
48
1
60
0
100
AcDbEllipse
10
246.134997
20
18.185841
30
0
11
-0.07327033874012
21
1.3980813486564
31
0
210
0
220
0
230
1
40
0.995725
41
-3.14159265358928
42
-1.89382714557998
0
ELLIPSE
5
1E5
100
AcDbEntity
8
1
62
256
6
ByLayer
370
13
48
1
60
0
100
AcDbEllipse
10
247.713631
20
17.744075
30
0
11
0.14459027608008
21
-0.0399205719283455
31
0
210
0
220
0
230
1
40
0.029322
41
3.05384946427191
42
-1.65853951610911
0
ELLIPSE
5
1E6
100
AcDbEntity
8
1
62
256
6
ByLayer
370
13
48
1
60
0
100
AcDbEllipse
10
245.710674
20
18.163603
30
0
11
0.0732703387401194
21
-1.39808134865641
31
0
210
0
220
0
230
1
40
0.995725
41
0
42
0.459046365926033
0
ELLIPSE
5
1E7
100
AcDbEntity
8
1
62
256
6
ByLayer
370
13
48
1
60
0
100
AcDbEllipse
10
236.474152
20
5.773683
30
0
11
0.0366351693700593
21
-0.699040674328197
31
0
210
0
220
0
230
1
40
0.995725
41
-1.46607657167573
42
-0.0745839291785623
0
ELLIPSE
5
1E8
100
AcDbEntity
8
1
62
256
6
ByLayer
370
13
48
1
60
0
100
AcDbEllipse
10
235.724551
20
15.949304
30
0
11
0.0235312926468261
21
-0.148142763125201
31
0
210
0
220
0
230
1
40
0.091865
41
-3.05123893766161
42
-1.58049283525574
0
ELLIPSE
5
1E9
100
AcDbEntity
8
1
62
256
6
ByLayer
370
13
48
1
60
0
100
AcDbEllipse
10
237.551046
20
5.976498
30
0
11
0.00523359562429436
21
-0.0998629534754602
31
0
210
0
220
0
230
1
40
0.995725
41
0.716438162266288
42
1.6755160819139
0
ELLIPSE
5
1EA
100
AcDbEntity
8
1
62
256
6
ByLayer
370
13
48
1
60
0
100
AcDbEllipse
10
246.812748
20
5.253588
30
0
11
-0.0732703387401199
21
1.39808134865641
31
0
210
0
220
0
230
1
40
0.995725
41
-0.459046365924981
42
5.70874677855912E-13
0
ELLIPSE
5
1EB
100
AcDbEntity
8
1
62
256
6
ByLayer
370
13
48
1
60
0
100
AcDbEllipse
10
235.729163
20
15.949546
30
0
11
0.00785039343644137
21
-0.149794430213187
31
0
210
0
220
0
230
1
40
0.995725
41
-3.03687289847108
42
-1.75405589825508
0
ELLIPSE
5
1EC
100
AcDbEntity
8
1
62
256
6
ByLayer
370
13
48
1
60
0
100
AcDbEllipse
10
247.031442
20
16.779012
30
0
11
0.00785039343644132
21
-0.149794430213186
31
0
210
0
220
0
230
1
40
0.995725
41
-3.14159196048121
42
-2.62476921230584
0
ELLIPSE
5
1ED
100
AcDbEntity
8
1
62
256
6
ByLayer
370
13
48
1
60
0
100
AcDbEllipse
10
247.031442
20
16.779012
30
0
11
-0.0810743178596171
21
0.126202040330566
31
0
210
0
220
0
230
1
40
0.080306
41
-1.61660247828216
42
-0.0458061514599369
0
ELLIPSE
5
1EE
100
AcDbEntity
8
1
62
256
6
ByLayer
370
13
48
1
60
0
100
AcDbEllipse
10
249.691784
20
11.888128
30
0
11
0.148731686424787
21
-0.0194649801756622
31
0
210
0
220
0
230
1
40
0.016833
41
-1.66175841710551
42
-0.0909620903119791
0
ELLIPSE
5
1EF
100
AcDbEntity
8
1
62
256
6
ByLayer
370
13
48
1
60
0
100
AcDbEllipse
10
237.025342
20
5.230977
30
0
11
0.00653729335064122
21
-0.149857478277354
31
0
210
0
220
0
230
1
40
0.092367
41
-1.56998679074977
42
-0.0232440763802712
0
ELLIPSE
5
1F0
100
AcDbEntity
8
1
62
256
6
ByLayer
370
13
48
1
60
0
100
AcDbEllipse
10
238.640546
20
4.825301
30
0
11
0.0863543278008547
21
-1.64773873234505
31
0
210
0
220
0
230
1
40
0.995725
41
-2.40930741574166
42
-1.89382714558046
0
ELLIPSE
5
1F1
100
AcDbEntity
8
1
62
256
6
ByLayer
370
13
48
1
60
0
100
AcDbEllipse
10
237.423689
20
16.269823
30
0
11
0.00523359562429359
21
-0.0998629534754454
31
0
210
0
220
0
230
1
40
0.995725
41
1.38753675533575
42
3.1415814171369
0
ELLIPSE
5
1F2
100
AcDbEntity
8
1
62
256
6
ByLayer
370
13
48
1
60
0
100
AcDbEllipse
10
236.882009
20
5.224725
30
0
11
0.00653729335064122
21
-0.149857478277354
31
0
210
0
220
0
230
1
40
0.092367
41
-1.56998679074977
42
0.000809536043604682
0
ELLIPSE
5
1F3
100
AcDbEntity
8
1
62
256
6
ByLayer
370
13
48
1
60
0
100
AcDbEllipse
10
242.145522
20
16.304469
30
0
11
0.00785039343644132
21
-0.149794430213186
31
0
210
0
220
0
230
1
40
0.092371
41
1.5707963267949
42
3.14159265358774
0
ELLIPSE
5
1F4
100
AcDbEntity
8
1
62
256
6
ByLayer
370
13
48
1
60
0
100
AcDbEllipse
10
249.148799
20
11.960039
30
0
11
0.0366351693700595
21
-0.699040674328201
31
0
210
0
220
0
230
1
40
0.995725
41
1.38753675533544
42
1.67551608191455
0
ELLIPSE
5
1F5
100
AcDbEntity
8
1
62
256
6
ByLayer
370
13
48
1
60
0
100
AcDbEllipse
10
236.455703
20
5.772716
30
0
11
-0.0287847759336181
21
0.54924624411501
31
0
210
0
220
0
230
1
40
0.995725
41
1.67551608191458
42
3.06700872441183
0
ELLIPSE
5
1F6
100
AcDbEntity
8
1
62
256
6
ByLayer
370
13
48
1
60
0
100
AcDbEllipse
10
247.902759
20
17.786901
30
0
11
-0.00653729335064181
21
0.149857478277354
31
0
210
0
220
0
230
1
40
0.092367
41
0.000809536043732892
42
1.57160586284021
0
ELLIPSE
5
1F7
100
AcDbEntity
8
1
62
256
6
ByLayer
370
13
48
1
60
0
100
AcDbEllipse
10
247.134212
20
6.891893
30
0
11
-0.148731686424783
21
0.0194649801756897
31
0
210
0
220
0
230
1
40
0.016833
41
-3.14153918949501
42
-1.66175841710397
0
ELLIPSE
5
1F8
100
AcDbEntity
8
1
62
256
6
ByLayer
370
13
48
1
60
0
100
AcDbEllipse
10
235.648959
20
16.638316
30
0
11
-0.0435800209845875
21
-0.25837169130883
31
0
210
0
220
0
230
1
40
0.950251
41
-2.83208175219944
42
-1.94230770001888
0
ELLIPSE
5
1F9
100
AcDbEntity
8
1
62
256
6
ByLayer
370
13
48
1
60
0
100
AcDbEllipse
10
246.079182
20
18.182915
30
0
11
-1.24768607641773
21
-1.08630162053549
31
0
210
0
220
0
230
1
40
0.736455
41
1.21411528371866
42
2.00283442580273
0
ELLIPSE
5
1FA
100
AcDbEntity
8
1
62
256
6
ByLayer
370
13
48
1
60
0
100
AcDbEllipse
10
237.76255
20
6.233097
30
0
11
0.00785039343644132
21
-0.149794430213186
31
0
210
0
220
0
230
1
40
0.995725
41
-1.4660765716757
42
-2.19467250852006E-06
0
ELLIPSE
5
1FB
100
AcDbEntity
8
1
62
256
6
ByLayer
370
13
48
1
60
0
100
AcDbEllipse
10
246.388425
20
5.23135
30
0
11
0.0732703387401189
21
-1.3980813486564
31
0
210
0
220
0
230
1
40
0.995725
41
2.11199142455558
42
2.76708803074286
0
ELLIPSE
5
1FC
100
AcDbEntity
8
1
62
256
6
ByLayer
370
13
48
1
60
0
100
AcDbEllipse
10
237.981244
20
17.758521
30
0
11
-0.0732703387401199
21
1.39808134865641
31
0
210
0
220
0
230
1
40
0.995725
41
2.68254628766376
42
3.14159265358926
0
ELLIPSE
5
1FD
100
AcDbEntity
8
1
62
256
6
ByLayer
370
13
48
1
60
0
100
AcDbEllipse
10
248.327274
20
17.788039
30
0
11
0.00338117794798616
21
0.149961887277015
31
0
210
0
220
0
230
1
40
0.092114
41
0.00691241886656392
42
1.57770874566026
0
ELLIPSE
5
1FE
100
AcDbEntity
8
1
62
256
6
ByLayer
370
13
48
1
60
0
100
AcDbEllipse
10
249.060216
20
7.062321
30
0
11
0.148731686424787
21
-0.0194649801756622
31
0
210
0
220
0
230
1
40
0.016833
41
-1.66175841710261
42
-0.0909620903109282
0
ELLIPSE
5
1FF
100
AcDbEntity
8
1
62
256
6
ByLayer
370
13
48
1
60
0
100
AcDbEllipse
10
237.071136
20
5.26755
30
0
11
-0.144590276080079
21
0.0399205719283485
31
0
210
0
220
0
230
1
40
0.029322
41
1.48305313748087
42
3.05384946427212
0
ELLIPSE
5
200
100
AcDbEntity
8
1
62
256
6
ByLayer
370
13
48
1
60
0
100
AcDbEllipse
10
236.653766
20
13.971522
30
0
11
0.465790010562185
21
-8.88780285931571
31
0
210
0
220
0
230
1
40
0.995725
41
-0.0745839291786387
42
-0.0301358259421062
0
ELLIPSE
5
201
100
AcDbEntity
8
1
62
256
6
ByLayer
370
13
48
1
60
0
100
AcDbEllipse
10
237.023159
20
5.28093
30
0
11
0.0104671912485885
21
-0.199725906950916
31
0
210
0
220
0
230
1
40
0.995725
41
0.0113951578217901
42
1.24776550800952
0
ELLIPSE
5
202
100
AcDbEntity
8
1
62
256
6
ByLayer
370
13
48
1
60
0
100
AcDbEllipse
10
236.791773
20
6.972331
30
0
11
-0.0915879234251497
21
1.74760168582051
31
0
210
0
220
0
230
1
40
0.995725
41
3.11145682764819
42
3.13286600732979
0
ELLIPSE
5
203
100
AcDbEntity
8
1
62
256
6
ByLayer
370
13
48
1
60
0
100
AcDbEllipse
10
247.534135
20
17.721705
30
0
11
-0.332966327739235
21
-0.256576851514069
31
0
210
0
220
0
230
1
40
0.479615
41
-2.3598338647025
42
-1.33282421218343
0
ELLIPSE
5
204
100
AcDbEntity
8
1
62
256
6
ByLayer
370
13
48
1
60
0
100
AcDbEllipse
10
248.121777
20
9.03962
30
0
11
-0.457939617125747
21
8.73800842910252
31
0
210
0
220
0
230
1
40
0.995725
41
-0.0745839291780849
42
-0.0301358259415594
0
ELLIPSE
5
205
100
AcDbEntity
8
1
62
256
6
ByLayer
370
13
48
1
60
0
100
AcDbEllipse
10
247.242946
20
17.035611
30
0
11
0.00523359562429436
21
-0.0998629534754602
31
0
210
0
220
0
230
1
40
0.995725
41
-2.42515449132225
42
-1.46607657167475
0
ELLIPSE
5
206
100
AcDbEntity
8
1
62
256
6
ByLayer
370
13
48
1
60
0
100
AcDbEllipse
10
242.410832
20
11.50678
30
0
11
0.141252064642856
21
-2.69524995287424
31
0
210
0
220
0
230
1
40
0.995725
41
0
42
6.28318530717959
0
ELLIPSE
5
207
100
AcDbEntity
8
1
62
256
6
ByLayer
370
13
48
1
60
0
100
AcDbEllipse
10
248.315227
20
17.238184
30
0
11
0.0366351693700593
21
-0.699040674328197
31
0
210
0
220
0
230
1
40
0.995725
41
1.6755160819146
42
3.06700872441172
0
ELLIPSE
5
208
100
AcDbEntity
8
1
62
256
6
ByLayer
370
13
48
1
60
0
100
AcDbEllipse
10
247.419128
20
6.801647
30
0
11
-0.0427993177775941
21
-0.158580925154063
31
0
210
0
220
0
230
1
40
0.080206
41
-1.54458133968712
42
0.0262149871098027
0
ELLIPSE
5
209
100
AcDbEntity
8
1
62
256
6
ByLayer
370
13
48
1
60
0
100
AcDbEllipse
10
249.060216
20
7.062321
30
0
11
0.00785039343644137
21
-0.149794430213187
31
0
210
0
220
0
230
1
40
0.995725
41
0.104719755118917
42
1.38753675533529
0
ELLIPSE
5
20A
100
AcDbEntity
8
1
62
256
6
ByLayer
370
18
48
1
60
0
100
AcDbEllipse
10
243.265781
20
-4.653874
30
0
11
1.75
21
0
31
0
210
0
220
0
230
1
40
0.994119
41
0.410174471238849
42
-3.14159217176868
0
ELLIPSE
5
20B
100
AcDbEntity
8
1
62
256
6
ByLayer
370
18
48
1
60
0
100
AcDbEllipse
10
243.265781
20
-4.610558
30
0
11
-1.35
21
1.36436272436119E-15
31
0
210
0
220
0
230
1
40
0.994119
41
3.14159262446975
42
0
0
ELLIPSE
5
20C
100
AcDbEntity
8
1
62
256
6
ByLayer
370
18
48
1
60
0
100
AcDbEllipse
10
243.265781
20
-4.610558
30
0
11
-1.35
21
1.36436272436119E-15
31
0
210
0
220
0
230
1
40
0.994119
41
0
42
0.508741588597546
0
ELLIPSE
5
20D
100
AcDbEntity
8
1
62
256
6
ByLayer
370
18
48
1
60
0
100
AcDbEllipse
10
243.265781
20
-4.610558
30
0
11
-1.35
21
1.36436272436119E-15
31
0
210
0
220
0
230
1
40
0.994119
41
3.10919476410555
42
3.14159262446975
0
ELLIPSE
5
20E
100
AcDbEntity
8
1
62
256
6
ByLayer
370
18
48
1
60
0
100
AcDbEllipse
10
243.265781
20
-5.397968
30
0
11
-2
21
2.02127811016473E-15
31
0
210
0
220
0
230
1
40
0.994119
41
-0.523860725822136
42
-0.441099208944358
0
ELLIPSE
5
20F
100
AcDbEntity
8
1
62
256
6
ByLayer
370
18
48
1
60
0
100
AcDbEllipse
10
243.265781
20
-5.261096
30
0
11
-2
21
2.02127811016473E-15
31
0
210
0
220
0
230
1
40
0.994119
41
-0.566174014679838
42
-0.401338597164873
0
ELLIPSE
5
210
100
AcDbEntity
8
1
62
256
6
ByLayer
370
18
48
1
60
0
100
AcDbEllipse
10
242.281014
20
11.499976
30
0
11
0.0562297513874169
21
-1.07292757214031
31
0
210
0
220
0
230
1
40
0.995725
41
1.04719755119661
42
2.09439510239318
0
ELLIPSE
5
211
100
AcDbEntity
8
1
62
256
6
ByLayer
370
18
48
1
60
0
100
AcDbEllipse
10
242.405543
20
11.506502
30
0
11
0.0737779975156754
21
-1.40776805514352
31
0
210
0
220
0
230
1
40
0.995725
41
-1.5707963267949
42
-0.523598775598313
0
ELLIPSE
5
212
100
AcDbEntity
8
1
62
256
6
ByLayer
370
18
48
1
60
0
100
AcDbEllipse
10
242.405543
20
11.506502
30
0
11
0.0737779975156754
21
-1.40776805514352
31
0
210
0
220
0
230
1
40
0.995725
41
2.6179938779915
42
-2.61799387799144
0
ELLIPSE
5
213
100
AcDbEntity
8
1
62
256
6
ByLayer
370
18
48
1
60
0
100
AcDbEllipse
10
242.281014
20
11.499976
30
0
11
-0.0562297513874177
21
1.07292757214031
31
0
210
0
220
0
230
1
40
0.995725
41
-3.03423855710067
42
-2.09439510239318
0
ELLIPSE
5
214
100
AcDbEntity
8
1
62
256
6
ByLayer
370
18
48
1
60
0
100
AcDbEllipse
10
242.399281
20
11.506174
30
0
11
-0.125606294983062
21
2.39671088341098
31
0
210
0
220
0
230
1
40
0.995725
41
0
42
6.28318530717959
0
ELLIPSE
5
215
100
AcDbEntity
8
1
62
256
6
ByLayer
370
18
48
1
60
0
100
AcDbEllipse
10
243.31805
20
12.176177
30
0
11
-0.178562894794116
21
0.276860684793519
31
0
210
0
220
0
230
1
40
0.507093
41
0.319610439794186
42
1.57332920182617
0
ELLIPSE
5
216
100
AcDbEntity
8
1
62
256
6
ByLayer
370
18
48
1
60
0
100
AcDbEllipse
10
241.719764
20
10.393396
30
0
11
-0.292440365430039
21
0.15017043804811
31
0
210
0
220
0
230
1
40
0.509271
41
2.51949454501546
42
-2.92822425255348
0
ELLIPSE
5
217
100
AcDbEntity
8
1
62
256
6
ByLayer
370
18
48
1
60
0
100
AcDbEllipse
10
242.842264
20
12.606556
30
0
11
-0.292440365430017
21
0.150170438048101
31
0
210
0
220
0
230
1
40
0.509271
41
2.93332695348114
42
-0.622097124196305
0
ELLIPSE
5
218
100
AcDbEntity
8
1
62
256
6
ByLayer
370
18
48
1
60
0
100
AcDbEllipse
10
243.383051
20
10.935879
30
0
11
-0.148644886650221
21
-0.294008917980207
31
0
210
0
220
0
230
1
40
0.507093
41
-2.82704796387526
42
-1.57332920183103
0
ELLIPSE
5
219
100
AcDbEntity
8
1
62
256
6
ByLayer
370
18
48
1
60
0
100
AcDbEllipse
10
242.346015
20
10.259678
30
0
11
-0.327939958373201
21
-0.0171866049557559
31
0
210
0
220
0
230
1
40
0.510369
41
-1.5707963267949
42
-0.317077564754217
0
ELLIPSE
5
21A
100
AcDbEntity
8
1
62
256
6
ByLayer
370
18
48
1
60
0
100
AcDbEllipse
10
242.216012
20
12.740274
30
0
11
-0.327939958372332
21
-0.0171866049567416
31
0
210
0
220
0
230
1
40
0.510369
41
0.317077564754707
42
1.5707963267949
0
ELLIPSE
5
21B
100
AcDbEntity
8
1
62
256
6
ByLayer
370
18
48
1
60
0
100
AcDbEllipse
10
242.281014
20
11.499976
30
0
11
0.0562297513874169
21
-1.07292757214031
31
0
210
0
220
0
230
1
40
0.995725
41
2.09439510239318
42
3.14159265358979
0
ELLIPSE
5
21C
100
AcDbEntity
8
1
62
256
6
ByLayer
370
18
48
1
60
0
100
AcDbEllipse
10
243.31805
20
12.176177
30
0
11
-0.178562894792263
21
0.276860684802525
31
0
210
0
220
0
230
1
40
0.507093
41
1.57332920186874
42
2.82704796388169
0
ELLIPSE
5
21D
100
AcDbEntity
8
1
62
256
6
ByLayer
370
18
48
1
60
0
100
AcDbEllipse
10
242.281014
20
11.499976
30
0
11
0.0562297513874169
21
-1.07292757214031
31
0
210
0
220
0
230
1
40
0.995725
41
-0.771932135407405
42
2.6567138768425E-14
0
ELLIPSE
5
21E
100
AcDbEntity
8
1
62
256
6
ByLayer
370
18
48
1
60
0
100
AcDbEllipse
10
242.322523
20
11.502151
30
0
11
-0.125606294983062
21
2.39671088341098
31
0
210
0
220
0
230
1
40
0.995725
41
9.24722978997027E-05
42
3.14158700123305
0
ELLIPSE
5
21F
100
AcDbEntity
8
1
62
256
6
ByLayer
370
18
48
1
60
0
100
AcDbEllipse
10
242.405543
20
11.506502
30
0
11
0.0737779975156754
21
-1.40776805514352
31
0
210
0
220
0
230
1
40
0.995725
41
0.523598775598276
42
1.5707963267949
0
ELLIPSE
5
220
100
AcDbEntity
8
1
62
256
6
ByLayer
370
18
48
1
60
0
100
AcDbEllipse
10
242.405543
20
11.506502
30
0
11
0.0737779975156754
21
-1.40776805514352
31
0
210
0
220
0
230
1
40
0.995725
41
-2.61799387799144
42
-1.5707963267949
0
ELLIPSE
5
221
100
AcDbEntity
8
1
62
256
6
ByLayer
370
18
48
1
60
0
100
AcDbEllipse
10
242.405543
20
11.506502
30
0
11
-0.0785039343644137
21
1.49794430213186
31
0
210
0
220
0
230
1
40
0.995725
41
0
42
6.28318530717959
0
ELLIPSE
5
222
100
AcDbEntity
8
1
62
256
6
ByLayer
370
18
48
1
60
0
100
AcDbEllipse
10
241.607169
20
12.541828
30
0
11
-0.27514126139224
21
-0.17991613067171
31
0
210
0
220
0
230
1
40
0.509271
41
2.92822425255385
42
-2.46671532346122
0
ELLIPSE
5
223
100
AcDbEntity
8
1
62
256
6
ByLayer
370
18
48
1
60
0
100
AcDbEllipse
10
243.516108
20
11.564705
30
0
11
-0.0172603983689144
21
0.329348020562051
31
0
210
0
220
0
230
1
40
0.506014
41
-2.93072041300198
42
-0.438969405993965
0
ELLIPSE
5
224
100
AcDbEntity
8
1
62
256
6
ByLayer
370
18
48
1
60
0
100
AcDbEllipse
10
242.281014
20
11.499976
30
0
11
0.0562297513874169
21
-1.07292757214031
31
0
210
0
220
0
230
1
40
0.995725
41
-3.14159265358977
42
-2.35220199832172
0
ELLIPSE
5
225
100
AcDbEntity
8
1
62
256
6
ByLayer
370
18
48
1
60
0
100
AcDbEllipse
10
242.405543
20
11.506502
30
0
11
0.0737779975156754
21
-1.40776805514352
31
0
210
0
220
0
230
1
40
0.995725
41
1.5707963267949
42
2.6179938779915
0
ELLIPSE
5
226
100
AcDbEntity
8
1
62
256
6
ByLayer
370
18
48
1
60
0
100
AcDbEllipse
10
243.383051
20
10.935879
30
0
11
-0.148644886645314
21
-0.294008917978556
31
0
210
0
220
0
230
1
40
0.507093
41
-1.57332920185375
42
-0.319610439799815
0
ELLIPSE
5
227
100
AcDbEntity
8
1
62
256
6
ByLayer
370
18
48
1
60
0
100
AcDbEllipse
10
242.954858
20
10.458124
30
0
11
-0.275141261392239
21
-0.179916130671717
31
0
210
0
220
0
230
1
40
0.509271
41
0.674876380105698
42
-2.9333269534813
0
ELLIPSE
5
228
100
AcDbEntity
8
1
62
256
6
ByLayer
370
18
48
1
60
0
100
AcDbEllipse
10
242.405543
20
11.506502
30
0
11
0.0737779975156754
21
-1.40776805514352
31
0
210
0
220
0
230
1
40
0.995725
41
-0.523598775598313
42
0.523598775598276
0
ELLIPSE
5
229
100
AcDbEntity
8
1
62
256
6
ByLayer
370
18
48
1
60
0
100
AcDbEllipse
10
242.281014
20
11.499976
30
0
11
0.0562297513874169
21
-1.07292757214031
31
0
210
0
220
0
230
1
40
0.995725
41
-1.89465892456941
42
-1.23067011332414
0
ELLIPSE
5
22A
100
AcDbEntity
8
1
62
256
6
ByLayer
370
13
48
1
60
0
100
AcDbEllipse
10
248.744491
20
0
30
0
11
-2.98521318980875
21
17.5481640864601
31
0
210
0
220
0
230
1
40
0.085033
41
1.57876042955551
42
1.72628115626091
0
ELLIPSE
5
22B
100
AcDbEntity
8
1
62
256
6
ByLayer
370
13
48
1
60
0
100
AcDbEllipse
10
241.249216
20
-4.851433
30
0
11
-0.523359562429425
21
9.98629534754574
31
0
210
0
220
0
230
1
40
0.995725
41
0
42
0.19011162687313
0
ELLIPSE
5
22C
100
AcDbEntity
8
1
62
256
6
ByLayer
370
13
48
1
60
0
100
AcDbEllipse
10
253.290157
20
1.720862
30
0
11
-5.8582774830515
21
-1.97538196603383
31
0
210
0
220
0
230
1
40
0.831923
41
-0.378627643859264
42
-0.231075574536463
0
ELLIPSE
5
22D
100
AcDbEntity
8
1
62
256
6
ByLayer
370
13
48
1
60
0
100
AcDbEllipse
10
205.361826
20
0
30
0
11
-189.445112954477
21
0.0859428403890375
31
0
210
0
220
0
230
1
40
0.092638
41
-1.79061692155862
42
-1.73471782383558
0
ELLIPSE
5
22E
100
AcDbEntity
8
1
62
256
6
ByLayer
370
13
48
1
60
0
100
AcDbEllipse
10
243.064043
20
-4.408862
30
0
11
-1.85
21
1.86968225190237E-15
31
0
210
0
220
0
230
1
40
0.994119
41
-2.93159684089707
42
-0.204301554152051
0
ELLIPSE
5
22F
100
AcDbEntity
8
1
62
256
6
ByLayer
370
13
48
1
60
0
100
AcDbEllipse
10
248.923179
20
5.249628
30
0
11
-0.00969391651514219
21
0.500175136559675
31
0
210
0
220
0
230
1
40
0.104919
41
1.92332379001245
42
-2.78906519036652
0
ELLIPSE
5
230
100
AcDbEntity
8
1
62
256
6
ByLayer
370
13
48
1
60
0
100
AcDbEllipse
10
1041.23145
20
0
30
0
11
-1385.38293788583
21
14.1536452173695
31
0
210
0
220
0
230
1
40
0.00749
41
0.948331645908212
42
0.960595860657615
0
ELLIPSE
5
231
100
AcDbEntity
8
1
62
256
6
ByLayer
370
13
48
1
60
0
100
AcDbEllipse
10
238.616962
20
5.827255
30
0
11
0.240875810252365
21
-0.970555945855399
31
0
210
0
220
0
230
1
40
0.090706
41
-1.36102782571436
42
-0.0175282834730312
0
ELLIPSE
5
232
100
AcDbEntity
8
1
62
256
6
ByLayer
370
13
48
1
60
0
100
AcDbEllipse
10
248.905426
20
0.019366
30
0
11
-0.0216759693080163
21
1.01124225767144
31
0
210
0
220
0
230
1
40
0.1022
41
-0.123190395180037
42
1.0610482033219
0
ELLIPSE
5
233
100
AcDbEntity
8
1
62
256
6
ByLayer
370
13
48
1
60
0
100
AcDbEllipse
10
227.5
20
1.765638
30
0
11
-0.39482931922962
21
11.2793296771956
31
0
210
0
220
0
230
1
40
0.352899
41
-0.537228635566181
42
-0.40859822836744
0
ELLIPSE
5
234
100
AcDbEntity
8
1
62
256
6
ByLayer
370
13
48
1
60
0
100
AcDbEllipse
10
236.759118
20
6.829582
30
0
11
0.115139103734473
21
-2.19698497646006
31
0
210
0
220
0
230
1
40
0.995725
41
1.06813311206812
42
1.11024233511358
0
ELLIPSE
5
235
100
AcDbEntity
8
1
62
256
6
ByLayer
370
13
48
1
60
0
100
AcDbEllipse
10
248.331624
20
0
30
0
11
-36.1271353478535
21
15.3431433378257
31
0
210
0
220
0
230
1
40
0.225392
41
0.933751425441536
42
1.01016969060414
0
ELLIPSE
5
236
100
AcDbEntity
8
1
62
256
6
ByLayer
370
13
48
1
60
0
100
AcDbEllipse
10
241.083845
20
5.854584
30
0
11
-3.96879667188235
21
-0.704906652218171
31
0
210
0
220
0
230
1
40
0.015321
41
-3.01817314105547
42
-2.74816671086448
0
ELLIPSE
5
237
100
AcDbEntity
8
1
62
256
6
ByLayer
370
13
48
1
60
0
100
AcDbEllipse
10
244.887204
20
6.05391
30
0
11
-0.31839272922326
21
-0.395166574083721
31
0
210
0
220
0
230
1
40
0.966608
41
-2.15731430896203
42
-2.04054299052891
0
ELLIPSE
5
238
100
AcDbEntity
8
1
62
256
6
ByLayer
370
13
48
1
60
0
100
AcDbEllipse
10
243.162889
20
-5.316891
30
0
11
-6.0329949536976
21
-0.0253881026413465
31
0
210
0
220
0
230
1
40
0.988674
41
3.00723969948013
42
-2.98952226336017
0
ELLIPSE
5
239
100
AcDbEntity
8
1
62
256
6
ByLayer
370
13
48
1
60
0
100
AcDbEllipse
10
259.023866
20
-6E-06
30
0
11
-187.502120570604
21
0.0850624051897458
31
0
210
0
220
0
230
1
40
0.092638
41
-1.4175639384137
42
-1.39412097338483
0
ELLIPSE
5
23A
100
AcDbEntity
8
1
62
256
6
ByLayer
370
13
48
1
60
0
100
AcDbEllipse
10
234.896804
20
7.682844
30
0
11
0.429288093870885
21
-0.256342997682211
31
0
210
0
220
0
230
1
40
0.051595
41
-1.85925558562603
42
-1.64759180831567
0
ELLIPSE
5
23B
100
AcDbEntity
8
1
62
256
6
ByLayer
370
13
48
1
60
0
100
AcDbEllipse
10
239.02048
20
5.746448
30
0
11
-0.318392676562562
21
-0.395166625675256
31
0
210
0
220
0
230
1
40
0.966608
41
-2.15731445311686
42
-1.31761740176796
0
ELLIPSE
5
23C
100
AcDbEntity
8
1
62
256
6
ByLayer
370
13
48
1
60
0
100
AcDbEllipse
10
236.592929
20
6.820872
30
0
11
-1.40092777865849
21
-1.73873315210653
31
0
210
0
220
0
230
1
40
0.966608
41
1.61034581836884
42
1.82397525266723
0
ELLIPSE
5
23D
100
AcDbEntity
8
1
62
256
6
ByLayer
370
13
48
1
60
0
100
AcDbEllipse
10
234.453274
20
8.21893
30
0
11
-0.0261679781214712
21
0.499314767377286
31
0
210
0
220
0
230
1
40
0.995725
41
-2.16344993452691
42
-1.46607657167526
0
ELLIPSE
5
23E
100
AcDbEntity
8
1
62
256
6
ByLayer
370
13
48
1
60
0
100
AcDbEllipse
10
241.156972
20
-4.856267
30
0
11
0.575695518672363
21
-10.9849248823003
31
0
210
0
220
0
230
1
40
0.995725
41
-3.14159265358977
42
-2.97089193967392
0
ELLIPSE
5
23F
100
AcDbEntity
8
1
62
256
6
ByLayer
370
13
48
1
60
0
100
AcDbEllipse
10
238.067586
20
6.306672
30
0
11
0.0261679781214711
21
-0.499314767377287
31
0
210
0
220
0
230
1
40
0.092371
41
-1.10449593319132
42
-0.349065850397241
0
ELLIPSE
5
240
100
AcDbEntity
8
1
62
256
6
ByLayer
370
13
48
1
60
0
100
AcDbEllipse
10
250.386996
20
0
30
0
11
-2.12668774933088
21
-17.5482382719791
31
0
210
0
220
0
230
1
40
0.116925
41
-1.28351808908897
42
-0.0914842074719402
0
ELLIPSE
5
241
100
AcDbEntity
8
1
62
256
6
ByLayer
370
13
48
1
60
0
100
AcDbEllipse
10
243.064043
20
-5.026113
30
0
11
1.75
21
0
31
0
210
0
220
0
230
1
40
0.994119
41
2.52554584054448
42
2.81977567376941
0
ELLIPSE
5
242
100
AcDbEntity
8
1
62
256
6
ByLayer
370
13
48
1
60
0
100
AcDbEllipse
10
248.463013
20
6.541722
30
0
11
-0.0193878330226518
21
1.00035027297271
31
0
210
0
220
0
230
1
40
0.104919
41
-3.13813104076644
42
-2.64262813814889
0
ELLIPSE
5
243
100
AcDbEntity
8
1
62
256
6
ByLayer
370
13
48
1
60
0
100
AcDbEllipse
10
236.759118
20
6.829582
30
0
11
0.115139103734473
21
-2.19698497646006
31
0
210
0
220
0
230
1
40
0.995725
41
-2.1634499345269
42
-1.07532345372506
0
ELLIPSE
5
244
100
AcDbEntity
8
1
62
256
6
ByLayer
370
13
48
1
60
0
100
AcDbEllipse
10
233.996666
20
8.195
30
0
11
0.0523359562429421
21
-0.998629534754573
31
0
210
0
220
0
230
1
40
0.995725
41
0.978142719062889
42
1.67551608191453
0
ELLIPSE
5
245
100
AcDbEntity
8
1
62
256
6
ByLayer
370
13
48
1
60
0
100
AcDbEllipse
10
236.043137
20
6.792059
30
0
11
-1.94064156602279
21
1.56360892434546
31
0
210
0
220
0
230
1
40
0.775936
41
3.09899461944386
42
-2.8643926089648
0
ELLIPSE
5
246
100
AcDbEntity
8
1
62
256
6
ByLayer
370
13
48
1
60
0
100
AcDbEllipse
10
248.801281
20
0.017957
30
0
11
-0.0108379846432696
21
0.505621128421589
31
0
210
0
220
0
230
1
40
0.1022
41
-0.123190395229842
42
0.260505458141678
0
ELLIPSE
5
247
100
AcDbEntity
8
1
62
256
6
ByLayer
370
13
48
1
60
0
100
AcDbEllipse
10
235.21712
20
5.547122
30
0
11
-3.96879667340783
21
-0.70490665249364
31
0
210
0
220
0
230
1
40
0.015321
41
-3.01817314090078
42
-2.74816671094039
0
ELLIPSE
5
248
100
AcDbEntity
8
1
62
256
6
ByLayer
370
13
48
1
60
0
100
AcDbEllipse
10
236.30251
20
6.805652
30
0
11
-0.0889711256130021
21
1.69767020908278
31
0
210
0
220
0
230
1
40
0.995725
41
0.978142719062891
42
2.78013392635898
0
ELLIPSE
5
249
100
AcDbEntity
8
1
62
256
6
ByLayer
370
13
48
1
60
0
100
AcDbEllipse
10
236.30251
20
6.805652
30
0
11
-0.0889711256130021
21
1.69767020908278
31
0
210
0
220
0
230
1
40
0.995725
41
-2.41025799285326
42
-2.22913047554085
0
ELLIPSE
5
24A
100
AcDbEntity
8
1
62
256
6
ByLayer
370
13
48
1
60
0
100
AcDbEllipse
10
227.5
20
4.547602
30
0
11
-3.8884412067823
21
1.26992511103244
31
0
210
0
220
0
230
1
40
0.738704
41
1.40141883489832
42
1.44659483488317
0
ELLIPSE
5
24B
100
AcDbEntity
8
1
62
256
6
ByLayer
370
13
48
1
60
0
100
AcDbEllipse
10
227.5
20
4.905476
30
0
11
-2
21
2.02127811016473E-15
31
0
210
0
220
0
230
1
40
0.757653
41
-2.81461228249923
42
-1.68839317643719
0
ELLIPSE
5
24C
100
AcDbEntity
8
1
62
256
6
ByLayer
370
13
48
1
60
0
100
AcDbEllipse
10
236.371057
20
14.559529
30
0
11
-0.471023606186483
21
8.98766581279117
31
0
210
0
220
0
230
1
40
0.995725
41
2.79252680319576
42
2.92290545858138
0
ELLIPSE
5
24D
100
AcDbEntity
8
1
62
256
6
ByLayer
370
13
48
1
60
0
100
AcDbEllipse
10
259.023889
20
-2.4E-05
30
0
11
-189.44524788784
21
0.08594610568387
31
0
210
0
220
0
230
1
40
0.092638
41
-1.4458778352692
42
-1.43514787415618
0
ELLIPSE
5
24E
100
AcDbEntity
8
1
62
256
6
ByLayer
370
13
48
1
60
0
100
AcDbEllipse
10
248.889983
20
-1.774103
30
0
11
-1.8882949039976
21
3.05753169085733
31
0
210
0
220
0
230
1
40
0.369209
41
-0.980827057744732
42
-0.835807390131582
0
ELLIPSE
5
24F
100
AcDbEntity
8
1
62
256
6
ByLayer
370
13
48
1
60
0
100
AcDbEllipse
10
240.67352
20
6.133492
30
0
11
0.0523359562429422
21
-0.998629534754574
31
0
210
0
220
0
230
1
40
0.092371
41
-1.57079632679492
42
0
0
ELLIPSE
5
250
100
AcDbEntity
8
1
62
256
6
ByLayer
370
13
48
1
60
0
100
AcDbEllipse
10
239.226957
20
5.757269
30
0
11
-0.0261679781214713
21
0.499314767377288
31
0
210
0
220
0
230
1
40
0.995725
41
0.927295218001585
42
1.11024233511356
0
ELLIPSE
5
251
100
AcDbEntity
8
1
62
256
6
ByLayer
370
13
48
1
60
0
100
AcDbEllipse
10
236.146013
20
0
30
0
11
-0.927729114336181
21
17.5497895438866
31
0
210
0
220
0
230
1
40
0.092638
41
-0.124918395328249
42
-0.00489734043370903
0
ELLIPSE
5
252
100
AcDbEntity
8
1
62
256
6
ByLayer
370
13
48
1
60
0
100
AcDbEllipse
10
248.607058
20
7.851055
30
0
11
-0.0685069841493822
21
2.1992896989378
31
0
210
0
220
0
230
1
40
0.529624
41
3.0169801524629
42
-3.13035262623525
0
ELLIPSE
5
253
100
AcDbEntity
8
1
62
256
6
ByLayer
370
13
48
1
60
0
100
AcDbEllipse
10
243.185373
20
-4.749963
30
0
11
-7.99589979090901
21
6.99593041167543
31
0
210
0
220
0
230
1
40
0.882129
41
-0.73700969745577
42
-0.605673951753489
0
ELLIPSE
5
254
100
AcDbEntity
8
1
62
256
6
ByLayer
370
13
48
1
60
0
100
AcDbEllipse
10
236.4633
20
14.564363
30
0
11
0.523359562429422
21
-9.98629534754574
31
0
210
0
220
0
230
1
40
0.995725
41
-7.44766576208787E-06
42
0.190111626873118
0
ELLIPSE
5
255
100
AcDbEntity
8
1
62
256
6
ByLayer
370
13
48
1
60
0
100
AcDbEllipse
10
235.02623
20
8.353629
30
0
11
0.49387888621054
21
0.0779977291684619
31
0
210
0
220
0
230
1
40
0.009655
41
1.66279490126863
42
1.74990113868087
0
ELLIPSE
5
256
100
AcDbEntity
8
1
62
256
6
ByLayer
370
13
48
1
60
0
100
AcDbEllipse
10
248.038658
20
-10.949134
30
0
11
-0.235941075714007
21
-1.98809632720126
31
0
210
0
220
0
230
1
40
0.118215
41
0
42
6.28318530717959
0
ELLIPSE
5
257
100
AcDbEntity
8
1
62
256
6
ByLayer
370
13
48
1
60
0
100
AcDbEllipse
10
243.826247
20
8.501738
30
0
11
-1.40092777740808
21
-1.73873315243246
31
0
210
0
220
0
230
1
40
0.966608
41
0.713732917047281
42
1.10104951794321
0
ELLIPSE
5
258
100
AcDbEntity
8
1
62
256
6
ByLayer
370
13
48
1
60
0
100
AcDbEllipse
10
248.569942
20
-10.882585
30
0
11
-0.0638787092994194
21
-0.515950000548963
31
0
210
0
220
0
230
1
40
0.11345
41
-1.64544141912346
42
-0.0746450923440688
0
ELLIPSE
5
259
100
AcDbEntity
8
1
62
256
6
ByLayer
370
13
48
1
60
0
100
AcDbEllipse
10
236.741842
20
10.962799
30
0
11
0.115139103734473
21
-2.19698497646006
31
0
210
0
220
0
230
1
40
0.995725
41
-2.1147663894193
42
-1.46607657167527
0
ELLIPSE
5
25A
100
AcDbEntity
8
1
62
256
6
ByLayer
370
13
48
1
60
0
100
AcDbEllipse
10
233.845097
20
5.958309
30
0
11
-0.29369042064903
21
-0.95590058940195
31
0
210
0
220
0
230
1
40
0.0868
41
-1.53907871771949
42
-1.39194541100094E-05
0
ELLIPSE
5
25B
100
AcDbEntity
8
1
62
256
6
ByLayer
370
13
48
1
60
0
100
AcDbEllipse
10
236.348632
20
6.808069
30
0
11
0.115139103734473
21
-2.19698497646006
31
0
210
0
220
0
230
1
40
0.995725
41
0.0487088772621601
42
0.990932961428729
0
ELLIPSE
5
25C
100
AcDbEntity
8
1
62
256
6
ByLayer
370
13
48
1
60
0
100
AcDbEllipse
10
488.892512
20
-0.103387
30
0
11
-354.913249729327
21
0.160426563017317
31
0
210
0
220
0
230
1
40
0.070582
41
-0.767195889102691
42
-0.754940419599054
0
ELLIPSE
5
25D
100
AcDbEntity
8
1
62
256
6
ByLayer
370
13
48
1
60
0
100
AcDbEllipse
10
254.444582
20
0.541419
30
0
11
-6.03299491658858
21
-0.0253879400211537
31
0
210
0
220
0
230
1
40
0.988674
41
0.0319895388552177
42
0.152070417330248
0
ELLIPSE
5
25E
100
AcDbEntity
8
1
62
256
6
ByLayer
370
13
48
1
60
0
100
AcDbEllipse
10
235.586792
20
14.181589
30
0
11
-0.143594274788713
21
2.73994198480972
31
0
210
0
220
0
230
1
40
0.016833
41
0.32004980025935
42
0.860095363321268
0
ELLIPSE
5
25F
100
AcDbEntity
8
1
62
256
6
ByLayer
370
13
48
1
60
0
100
AcDbEllipse
10
238.180982
20
5.499634
30
0
11
0.999824179053771
21
0.0187512926976655
31
0
210
0
220
0
230
1
40
0.340558
41
1.66919827215438
42
1.68893406293722
0
ELLIPSE
5
260
100
AcDbEntity
8
1
62
256
6
ByLayer
370
13
48
1
60
0
100
AcDbEllipse
10
243.064043
20
-4.408862
30
0
11
1.75
21
0
31
0
210
0
220
0
230
1
40
0.994119
41
0.0757909443229853
42
3.03605480953314
0
POINT
5
70
100
AcDbEntity
8
1
62
256
6
ByLayer
370
18
48
1
60
0
100
AcDbPoint
10
0
20
0
30
0
39
0
210
0
220
0
230
1
50
360
0
POINT
5
72
100
AcDbEntity
8
80
62
256
6
ByLayer
370
18
48
1
60
0
100
AcDbPoint
10
0
20
0
30
0
39
0
210
0
220
0
230
1
50
360
0
POINT
5
74
100
AcDbEntity
8
81
62
256
6
ByLayer
370
18
48
1
60
0
100
AcDbPoint
10
250
20
0
30
0
39
0
210
0
220
0
230
1
50
360
0
POINT
5
76
100
AcDbEntity
8
1
62
256
6
ByLayer
370
18
48
1
60
1
100
AcDbPoint
10
0
20
-24.75
30
0
39
0
210
0
220
0
230
1
50
360
0
POINT
5
77
100
AcDbEntity
8
1
62
256
6
ByLayer
370
18
48
1
60
1
100
AcDbPoint
10
250
20
-18
30
0
39
0
210
0
220
0
230
1
50
360
0
POINT
5
78
100
AcDbEntity
8
1
62
256
6
ByLayer
370
18
48
1
60
1
100
AcDbPoint
10
-70
20
-20
30
0
39
0
210
0
220
0
230
1
50
360
0
POINT
5
79
100
AcDbEntity
8
1
62
256
6
ByLayer
370
18
48
1
60
1
100
AcDbPoint
10
0
20
-24.75
30
0
39
0
210
0
220
0
230
1
50
360
0
POINT
5
7A
100
AcDbEntity
8
1
62
256
6
ByLayer
370
18
48
1
60
1
100
AcDbPoint
10
250
20
-18
30
0
39
0
210
0
220
0
230
1
50
360
0
POINT
5
7B
100
AcDbEntity
8
1
62
256
6
ByLayer
370
18
48
1
60
1
100
AcDbPoint
10
5.7991
20
-24.75
30
0
39
0
210
0
220
0
230
1
50
360
0
POINT
5
7C
100
AcDbEntity
8
1
62
256
6
ByLayer
370
18
48
1
60
1
100
AcDbPoint
10
30
20
-18
30
0
39
0
210
0
220
0
230
1
50
360
0
POINT
5
7D
100
AcDbEntity
8
1
62
256
6
ByLayer
370
18
48
1
60
1
100
AcDbPoint
10
250
20
-18
30
0
39
0
210
0
220
0
230
1
50
360
0
POINT
5
7E
100
AcDbEntity
8
1
62
256
6
ByLayer
370
18
48
1
60
1
100
AcDbPoint
10
248.9982
20
-9
30
0
39
0
210
0
220
0
230
1
50
360
0
SPLINE
5
261
100
AcDbEntity
8
SK1
62
256
6
ByLayer
370
13
48
1
60
0
100
AcDbSpline
70
4
71
3
72
8
73
4
40
0
40
0
40
0
40
0
40
1
40
1
40
1
40
1
41
1
10
-66.6000022063888
20
-9.10261500888609
30
0
41
1
10
-66.9491342178767
20
-8.83826366601562
30
0
41
1
10
-67.2940480150733
20
-8.56802589686919
30
0
41
1
10
-67.6338131992802
20
-8.29060335030417
30
0
0
SPLINE
5
262
100
AcDbEntity
8
SK1
62
256
6
ByLayer
370
13
48
1
60
0
100
AcDbSpline
70
4
71
3
72
22
73
18
40
0
40
0
40
0
40
0
40
0.249999999999984
40
0.249999999999984
40
0.499999999999968
40
0.499999999999968
40
0.624999999999959
40
0.624999999999959
40
0.749999999999951
40
0.749999999999951
40
0.812499999999963
40
0.812499999999963
40
0.874999999999976
40
0.874999999999976
40
0.937499999999988
40
0.937499999999988
40
1
40
1
40
1
40
1
41
1
10
-68.5162221139001
20
8.8730422260912
30
0
41
1
10
-68.4806148031928
20
8.77446247050247
30
0
41
1
10
-68.439030376807
20
8.67849216034347
30
0
41
1
10
-68.3371998535552
20
8.49469871558048
30
0
41
1
10
-68.2767685878681
20
8.40593562609388
30
0
41
1
10
-68.1637425351441
20
8.2951603566016
30
0
41
1
10
-68.1227917757747
20
8.26245866462776
30
0
41
1
10
-68.0301397358031
20
8.2109172856386
30
0
41
1
10
-67.979238160389
20
8.19317027456333
30
0
41
1
10
-67.8997825758302
20
8.18561435729944
30
0
41
1
10
-67.8728381623004
20
8.18629209054791
30
0
41
1
10
-67.8203470589832
20
8.19382805997071
30
0
41
1
10
-67.7948393210407
20
8.20058148467908
30
0
41
1
10
-67.7451106763606
20
8.21929528168133
30
0
41
1
10
-67.7210452240317
20
8.23125325856924
30
0
41
1
10
-67.6758001698851
20
8.25847389471045
30
0
41
1
10
-67.6543432159221
20
8.27384033348378
30
0
41
1
10
-67.6338131992796
20
8.29060335030459
30
0
0
SPLINE
5
263
100
AcDbEntity
8
SK1
62
256
6
ByLayer
370
13
48
1
60
0
100
AcDbSpline
70
4
71
3
72
8
73
4
40
0
40
0
40
0
40
0
40
1
40
1
40
1
40
1
41
1
10
-67.6338131992796
20
8.29060335030476
30
0
41
1
10
-67.2944948862475
20
8.56766102093468
30
0
41
1
10
-66.9495650728325
20
8.83793743673166
30
0
41
1
10
-66.6000022063887
20
9.10261500888626
30
0
0
SPLINE
5
264
100
AcDbEntity
8
SK1
62
256
6
ByLayer
370
13
48
1
60
0
100
AcDbSpline
70
4
71
3
72
8
73
4
40
0
40
0
40
0
40
0
40
1
40
1
40
1
40
1
41
1
10
-68.5162221138915
20
-8.8730422260673
30
0
41
1
10
-68.5438911763826
20
-8.94964473727831
30
0
41
1
10
-68.5718187810779
20
-9.02616843489534
30
0
41
1
10
-68.5999993841625
20
-9.10261500888609
30
0
0
SPLINE
5
265
100
AcDbEntity
8
SK1
62
256
6
ByLayer
370
13
48
1
60
0
100
AcDbSpline
70
4
71
3
72
10
73
6
40
0
40
0
40
0
40
0
40
0.5
40
0.5
40
1
40
1
40
1
40
1
41
1
10
-70
20
6.62311105146222
30
0
41
1
10
-69.8530506944621
20
7.04458201673972
30
0
41
1
10
-69.694319575278
20
7.46427372903668
30
0
41
1
10
-69.3597590551627
20
8.29110810010306
30
0
41
1
10
-69.18366079479
20
8.69916157830215
30
0
41
1
10
-69
20
9.10261500888626
30
0
0
SPLINE
5
266
100
AcDbEntity
8
1
62
256
6
ByLayer
370
13
48
1
60
0
100
AcDbSpline
70
4
71
3
72
22
73
18
40
0
40
0
40
0
40
0
40
0.0312499999999923
40
0.0312499999999923
40
0.0624999999999846
40
0.0624999999999846
40
0.124999999999953
40
0.124999999999953
40
0.156249999999946
40
0.156249999999946
40
0.187499999999938
40
0.187499999999938
40
0.24999999999994
40
0.24999999999994
40
0.499999999999966
40
0.499999999999966
40
1
40
1
40
1
40
1
41
1
10
237.843074857695
20
6.10672912665302
30
0
41
1
10
237.885568585673
20
6.13402781374293
30
0
41
1
10
237.929874706297
20
6.1594448495685
30
0
41
1
10
238.020412702679
20
6.20545335166173
30
0
41
1
10
238.066507918115
20
6.22600851567699
30
0
41
1
10
238.207191792476
20
6.28056513984671
30
0
41
1
10
238.304149312579
20
6.30754478191721
30
0
41
1
10
238.454567754082
20
6.3332460386884
30
0
41
1
10
238.505122804711
20
6.3393624278153
30
0
41
1
10
238.606290037074
20
6.34613144804686
30
0
41
1
10
238.656946077611
20
6.34823601615682
30
0
41
1
10
238.808819298558
20
6.35622688201829
30
0
41
1
10
238.910070571245
20
6.36151067337826
30
0
41
1
10
239.416321352507
20
6.38802828290108
30
0
41
1
10
239.821319929113
20
6.40927857158977
30
0
41
1
10
241.036320107024
20
6.47295082728434
30
0
41
1
10
241.846320468475
20
6.51539473689962
30
0
41
1
10
242.65632048576
20
6.55784503902476
30
0
0
SPLINE
5
267
100
AcDbEntity
8
1
62
256
6
ByLayer
370
13
48
1
60
0
100
AcDbSpline
70
4
71
3
72
17
73
13
40
0
40
0
40
0
40
0
40
0.500000000000009
40
0.750000000000014
40
0.750000000000014
40
0.875000000000016
40
0.875000000000016
40
0.906250000000008
40
0.906250000000008
40
0.937499999999999
40
0.937499999999999
40
1
40
1
40
1
40
1
41
1
10
242.137671159392
20
16.4542637284426
30
0
41
1
10
241.395891664477
20
16.4153887123964
30
0
41
1
10
240.283222422104
20
16.3570761883271
30
0
41
1
10
239.170553179731
20
16.2987636642578
30
0
41
1
10
238.614218558545
20
16.2696074022232
30
0
41
1
10
238.428773660092
20
16.2598879360482
30
0
41
1
10
238.196967601267
20
16.2477404537422
30
0
41
1
10
238.150607027805
20
16.2453293430956
30
0
41
1
10
238.057883550098
20
16.2404399854259
30
0
41
1
10
238.011525740885
20
16.2381084968075
30
0
41
1
10
237.872749705725
20
16.2396801875047
30
0
41
1
10
237.780525893103
20
16.249183289793
30
0
41
1
10
237.6886039361
20
16.2673811058707
30
0
0
SPLINE
5
268
100
AcDbEntity
8
1
62
256
6
ByLayer
370
13
48
1
60
0
100
AcDbSpline
70
4
71
2
72
6
73
3
40
0
40
0
40
0
40
1
40
1
40
1
41
0.998811969635699
10
234.674189840503
20
11.1013192723802
30
0
41
0.998332076502111
10
234.667747964911
20
11.135974060146
30
0
41
1
10
234.664528346529
20
11.1710775275662
30
0
0
SPLINE
5
269
100
AcDbEntity
8
1
62
256
6
ByLayer
370
13
48
1
60
0
100
AcDbSpline
70
4
71
3
72
11
73
7
40
0
40
0
40
0
40
0
40
0.25
40
0.5
40
0.75
40
1
40
1
40
1
40
1
41
1
10
235.778155188844
20
17.4009775577467
30
0
41
1
10
235.793611087492
20
17.4022575156835
30
0
41
1
10
235.824559680175
20
17.4043392857565
30
0
41
1
10
235.871003624843
20
17.4071034535993
30
0
41
1
10
235.917442076374
20
17.4099611398375
30
0
41
1
10
235.948401654339
20
17.4118558730591
30
0
41
1
10
235.963881443428
20
17.4128032396764
30
0
0
SPLINE
5
26A
100
AcDbEntity
8
1
62
256
6
ByLayer
370
13
48
1
60
0
100
AcDbSpline
70
4
71
1
72
4
73
2
40
0
40
0
40
1
40
1
41
1
10
235.687398411918
20
5.64871370311647
30
0
41
1
10
235.657367232796
20
5.64787065772089
30
0
0
SPLINE
5
26B
100
AcDbEntity
8
1
62
256
6
ByLayer
370
13
48
1
60
0
100
AcDbSpline
70
4
71
2
72
6
73
3
40
0
40
0
40
0
40
1
40
1
40
1
41
1
10
234.844062250779
20
11.0415356286125
30
0
41
0.997409491337352
10
234.843297368134
20
11.0992257623008
30
0
41
1
10
234.850783263238
20
11.1564253994503
30
0
0
SPLINE
5
26C
100
AcDbEntity
8
1
62
256
6
ByLayer
370
13
48
1
60
0
100
AcDbSpline
70
4
71
1
72
4
73
2
40
0
40
0
40
1
40
1
41
1
10
234.597008074595
20
11.0562605494143
30
0
41
1
10
234.672144386993
20
11.0623910922319
30
0
0
SPLINE
5
26D
100
AcDbEntity
8
1
62
256
6
ByLayer
370
13
48
1
60
0
100
AcDbSpline
70
4
71
2
72
6
73
3
40
0
40
0
40
0
40
1
40
1
40
1
41
0.998811969635711
10
234.674189840503
20
11.1013192723798
30
0
41
0.99833207650209
10
234.67140566589
20
11.0661809678107
30
0
41
1
10
234.671872996418
20
11.0309332590956
30
0
0
SPLINE
5
26E
100
AcDbEntity
8
1
62
256
6
ByLayer
370
13
48
1
60
0
100
AcDbSpline
70
4
71
2
72
6
73
3
40
0
40
0
40
0
40
1
40
1
40
1
41
1
10
249.949929394373
20
11.970573138855
30
0
41
0.997409491337352
10
249.950694277018
20
11.9128830051667
30
0
41
1
10
249.943208381914
20
11.8556833680172
30
0
0
SPLINE
5
26F
100
AcDbEntity
8
1
62
256
6
ByLayer
370
13
48
1
60
0
100
AcDbSpline
70
4
71
3
72
10
73
6
40
0
40
0
40
0
40
0
40
0.5
40
0.5
40
1
40
1
40
1
40
1
41
1
10
247.169086805869
20
17.1072582191765
30
0
41
1
10
247.165408838195
20
17.1070654650584
30
0
41
1
10
247.175161273637
20
17.0968256377301
30
0
41
1
10
247.215268419897
20
17.0631896653452
30
0
41
1
10
247.245713379715
20
17.0398495595143
30
0
41
1
10
247.277685540842
20
17.017022508959
30
0
0
SPLINE
5
270
100
AcDbEntity
8
1
62
256
6
ByLayer
370
13
48
1
60
0
100
AcDbSpline
70
4
71
1
72
4
73
2
40
0
40
0
40
1
40
1
41
1
10
234.671872996418
20
11.0309332590956
30
0
41
1
10
234.844062250779
20
11.0415356286125
30
0
0
SPLINE
5
271
100
AcDbEntity
8
1
62
256
6
ByLayer
370
13
48
1
60
0
100
AcDbSpline
70
4
71
3
72
17
73
13
40
0
40
0
40
0
40
0
40
0.500000000000009
40
0.750000000000023
40
0.750000000000023
40
0.875000000000021
40
0.875000000000021
40
0.906250000000011
40
0.906250000000011
40
0.937500000000001
40
0.937500000000001
40
1
40
1
40
1
40
1
41
1
10
242.662306691838
20
6.70836461469142
30
0
41
1
10
243.409629469573
20
6.74753014188011
30
0
41
1
10
244.530613636174
20
6.80627843266313
30
0
41
1
10
245.651597802775
20
6.86502672344614
30
0
41
1
10
246.212089886075
20
6.89440086883766
30
0
41
1
10
246.398920509634
20
6.90419424291383
30
0
41
1
10
246.632458978842
20
6.91643062642007
30
0
41
1
10
246.679166084338
20
6.91889444128225
30
0
41
1
10
246.772580096849
20
6.92382765021304
30
0
41
1
10
246.819334673544
20
6.92495706881715
30
0
41
1
10
246.959843290114
20
6.92146166428671
30
0
41
1
10
247.053795094329
20
6.91127776532804
30
0
41
1
10
247.148048413275
20
6.89261840886067
30
0
0
SPLINE
5
272
100
AcDbEntity
8
1
62
256
6
ByLayer
370
13
48
1
60
0
100
AcDbSpline
70
4
71
3
72
17
73
13
40
0
40
0
40
0
40
0
40
0.500000000000028
40
0.750000000000032
40
0.750000000000032
40
0.875000000000025
40
0.875000000000025
40
0.906250000000014
40
0.906250000000014
40
0.937500000000003
40
0.937500000000003
40
1
40
1
40
1
40
1
41
1
10
242.159358152344
20
16.3051944436828
30
0
41
1
10
241.41203537461
20
16.2660289164942
30
0
41
1
10
240.291051208008
20
16.2072806257111
30
0
41
1
10
239.170067041407
20
16.1485323349281
30
0
41
1
10
238.609574958106
20
16.1191581895366
30
0
41
1
10
238.422744334548
20
16.1093648154604
30
0
41
1
10
238.18920586534
20
16.0971284319543
30
0
41
1
10
238.142498759844
20
16.094664617092
30
0
41
1
10
238.049084747333
20
16.0897314081612
30
0
41
1
10
238.002330170638
20
16.0886019895571
30
0
41
1
10
237.861821554068
20
16.0920973940876
30
0
41
1
10
237.767869749853
20
16.1022812930463
30
0
41
1
10
237.673616430907
20
16.1209406495136
30
0
0
SPLINE
5
273
100
AcDbEntity
8
1
62
256
6
ByLayer
370
13
48
1
60
0
100
AcDbSpline
70
4
71
3
72
10
73
6
40
0
40
0
40
0
40
0
40
0.0468226400006101
40
0.0468226400006101
40
1
40
1
40
1
40
1
41
1
10
235.384485355101
20
17.3595323383824
30
0
41
1
10
235.39060562686
20
17.360379699068
30
0
41
1
10
235.396731329416
20
17.3611815919203
30
0
41
1
10
235.527651652245
20
17.3775330719653
30
0
41
1
10
235.652747506379
20
17.3905606627083
30
0
41
1
10
235.778155188844
20
17.4009775577467
30
0
0
SPLINE
5
274
100
AcDbEntity
8
1
62
256
6
ByLayer
370
13
48
1
60
0
100
AcDbSpline
70
4
71
3
72
11
73
7
40
0
40
0
40
0
40
0
40
0.25
40
0.5
40
0.75
40
1
40
1
40
1
40
1
41
1
10
247.939068109188
20
18.0383039979564
30
0
41
1
10
247.923563087534
20
18.0379613628155
30
0
41
1
10
247.892566430253
20
18.0367967199008
30
0
41
1
10
247.846087976157
20
18.0346910311787
30
0
41
1
10
247.799605209771
20
18.0326789227376
30
0
41
1
10
247.768617178062
20
18.0313271193043
30
0
41
1
10
247.753123162101
20
18.030651217583
30
0
0
SPLINE
5
275
100
AcDbEntity
8
1
62
256
6
ByLayer
370
13
48
1
60
0
100
AcDbSpline
70
4
71
3
72
20
73
16
40
0
40
0
40
0
40
0
40
0.062500000000028
40
0.062500000000028
40
0.125000000000056
40
0.125000000000056
40
0.156250000000062
40
0.156250000000062
40
0.187500000000068
40
0.187500000000068
40
0.250000000000062
40
0.250000000000062
40
0.500000000000042
40
0.500000000000042
40
1
40
1
40
1
40
1
41
1
10
237.776386254744
20
6.23382206644007
30
0
41
1
10
237.864642076863
20
6.29051909413221
30
0
41
1
10
237.956933449952
20
6.33808447511692
30
0
41
1
10
238.149303148343
20
6.41559491781388
30
0
41
1
10
238.250498330421
20
6.44573389755143
30
0
41
1
10
238.402937437949
20
6.47573966552213
30
0
41
1
10
238.453919716724
20
6.48332728388706
30
0
41
1
10
238.556218078153
20
6.49374070202725
30
0
41
1
10
238.607584277532
20
6.49585157076226
30
0
41
1
10
238.761560421842
20
6.50393101981481
30
0
41
1
10
238.864211184036
20
6.50931732888242
30
0
41
1
10
239.377469066875
20
6.5361907876748
30
0
41
1
10
239.788071711594
20
6.55774178792282
30
0
41
1
10
241.019886570226
20
6.62229600882438
30
0
41
1
10
241.841096831705
20
6.66532682959647
30
0
41
1
10
242.662306691838
20
6.70836461469136
30
0
0
SPLINE
5
276
100
AcDbEntity
8
1
62
256
6
ByLayer
370
13
48
1
60
0
100
AcDbSpline
70
4
71
3
72
20
73
16
40
0
40
0
40
0
40
0
40
0.0624999999999994
40
0.0624999999999994
40
0.124999999999999
40
0.124999999999999
40
0.156250000000007
40
0.156250000000007
40
0.187500000000014
40
0.187500000000014
40
0.250000000000013
40
0.250000000000013
40
0.500000000000009
40
0.500000000000009
40
1
40
1
40
1
40
1
41
1
10
247.045278589438
20
16.7797369919342
30
0
41
1
10
246.95702276732
20
16.7230399642421
30
0
41
1
10
246.86473139423
20
16.6754745832574
30
0
41
1
10
246.672361695839
20
16.5979641405604
30
0
41
1
10
246.57116651376
20
16.5678251608228
30
0
41
1
10
246.418727406233
20
16.5378193928522
30
0
41
1
10
246.367745127458
20
16.5302317744872
30
0
41
1
10
246.265446766029
20
16.519818356347
30
0
41
1
10
246.214080566649
20
16.517707487612
30
0
41
1
10
246.060104422339
20
16.5096280385594
30
0
41
1
10
245.957453660146
20
16.5042417294919
30
0
41
1
10
245.444195777307
20
16.4773682706995
30
0
41
1
10
245.033593132588
20
16.4558172704515
30
0
41
1
10
243.801778273956
20
16.3912630495499
30
0
41
1
10
242.980568012477
20
16.3482322287778
30
0
41
1
10
242.159358152344
20
16.3051944436829
30
0
0
SPLINE
5
277
100
AcDbEntity
8
1
62
256
6
ByLayer
370
13
48
1
60
0
100
AcDbSpline
70
4
71
2
72
6
73
3
40
0
40
0
40
0
40
1
40
1
40
1
41
1
10
234.844062250779
20
11.0415356286125
30
0
41
0.997409491337352
10
234.844827133424
20
10.9838454949229
30
0
41
1
10
234.853826962868
20
10.926858890451
30
0
0
SPLINE
5
278
100
AcDbEntity
8
1
62
256
6
ByLayer
370
13
48
1
60
0
100
AcDbSpline
70
4
71
3
72
11
73
7
40
0
40
0
40
0
40
0
40
0.25
40
0.5
40
0.75
40
1
40
1
40
1
40
1
41
1
10
236.854923535964
20
4.97380476951111
30
0
41
1
10
236.870428557618
20
4.97414740465194
30
0
41
1
10
236.901425214899
20
4.97531204756663
30
0
41
1
10
236.947903668995
20
4.97741773628871
30
0
41
1
10
236.994386435381
20
4.97942984472988
30
0
41
1
10
237.02537446709
20
4.98078164816317
30
0
41
1
10
237.040868483051
20
4.98145754988448
30
0
0
SPLINE
5
279
100
AcDbEntity
8
1
62
256
6
ByLayer
370
13
48
1
60
0
100
AcDbSpline
70
4
71
1
72
4
73
2
40
0
40
0
40
1
40
1
41
1
10
234.853826962868
20
10.926858890451
30
0
41
1
10
234.681147682917
20
10.9220113794293
30
0
0
SPLINE
5
27A
100
AcDbEntity
8
1
62
256
6
ByLayer
370
13
48
1
60
0
100
AcDbSpline
70
4
71
1
72
4
73
2
40
0
40
0
40
1
40
1
41
1
10
234.606530433926
20
11.2783767262137
30
0
41
1
10
234.662366788626
20
11.2803721905061
30
0
0
SPLINE
5
27B
100
AcDbEntity
8
1
62
256
6
ByLayer
370
13
48
1
60
0
100
AcDbSpline
70
4
71
3
72
22
73
18
40
0
40
0
40
0
40
0
40
0.125000000000007
40
0.125000000000007
40
0.250000000000014
40
0.250000000000014
40
0.375000000000021
40
0.375000000000021
40
0.500000000000028
40
0.500000000000028
40
0.625000000000035
40
0.625000000000035
40
0.687500000000038
40
0.687500000000038
40
0.750000000000042
40
0.750000000000042
40
1
40
1
40
1
40
1
41
1
10
235.687398411918
20
5.64871370311647
30
0
41
1
10
235.696861960294
20
5.58589122154655
30
0
41
1
10
235.713308019716
20
5.52509780998287
30
0
41
1
10
235.761568032344
20
5.40797679179937
30
0
41
1
10
235.792729708941
20
5.35302231085237
30
0
41
1
10
235.866352742652
20
5.25172674296536
30
0
41
1
10
235.910090808482
20
5.20490889195483
30
0
41
1
10
236.005676618732
20
5.12392824409537
30
0
41
1
10
236.057707463858
20
5.08903504192361
30
0
41
1
10
236.170825615199
20
5.03195805376052
30
0
41
1
10
236.229599511334
20
5.01057763479469
30
0
41
1
10
236.320886900295
20
4.98861168190317
30
0
41
1
10
236.351971541121
20
4.98302021603516
30
0
41
1
10
236.414751305981
20
4.97556668651276
30
0
41
1
10
236.44617186852
20
4.97400650247747
30
0
41
1
10
236.603341667878
20
4.97093607422258
30
0
41
1
10
236.729113987874
20
4.9710559273785
30
0
41
1
10
236.854923535964
20
4.97380476951113
30
0
0
SPLINE
5
27C
100
AcDbEntity
8
1
62
256
6
ByLayer
370
13
48
1
60
0
100
AcDbSpline
70
4
71
2
72
6
73
3
40
0
40
0
40
0
40
1
40
1
40
1
41
1
10
249.949929394373
20
11.970573138855
30
0
41
0.997409491337352
10
249.949164511728
20
12.0282632725446
30
0
41
1
10
249.940164682284
20
12.0852498770165
30
0
0
SPLINE
5
27D
100
AcDbEntity
8
1
62
256
6
ByLayer
370
13
48
1
60
0
100
AcDbSpline
70
4
71
2
72
6
73
3
40
0
40
0
40
0
40
1
40
1
40
1
41
1
10
234.678256726214
20
11.1400574807528
30
0
41
0.999077414835262
10
234.675728713195
20
11.1207409627637
30
0
41
0.998811969635711
10
234.674189840503
20
11.1013192723798
30
0
0
SPLINE
5
27E
100
AcDbEntity
8
1
62
256
6
ByLayer
370
13
48
1
60
0
100
AcDbSpline
70
4
71
3
72
22
73
18
40
0
40
0
40
0
40
0
40
0.0312500000000097
40
0.0312500000000097
40
0.0625000000000193
40
0.0625000000000193
40
0.125000000000023
40
0.125000000000023
40
0.156250000000024
40
0.156250000000024
40
0.187500000000026
40
0.187500000000026
40
0.250000000000029
40
0.250000000000029
40
0.500000000000025
40
0.500000000000025
40
1
40
1
40
1
40
1
41
1
10
246.950916787456
20
16.9053796408144
30
0
41
1
10
246.908423059479
20
16.8780809537245
30
0
41
1
10
246.864116938855
20
16.852663917899
30
0
41
1
10
246.773578942473
20
16.8066554158058
30
0
41
1
10
246.727483727038
20
16.7861002517905
30
0
41
1
10
246.586799852676
20
16.7315436276208
30
0
41
1
10
246.489842332573
20
16.7045639855503
30
0
41
1
10
246.33942389107
20
16.678862728779
30
0
41
1
10
246.288868840441
20
16.6727463396522
30
0
41
1
10
246.187701608078
20
16.6659773194206
30
0
41
1
10
246.137045567541
20
16.6638727513107
30
0
41
1
10
245.985172346594
20
16.6558818854492
30
0
41
1
10
245.883921073907
20
16.6505980940892
30
0
41
1
10
245.377670292645
20
16.6240804845664
30
0
41
1
10
244.97267171604
20
16.6028301958777
30
0
41
1
10
243.757671538128
20
16.5391579401831
30
0
41
1
10
242.947671176677
20
16.4967140305678
30
0
41
1
10
242.137671159392
20
16.4542637284427
30
0
0
SPLINE
5
27F
100
AcDbEntity
8
1
62
256
6
ByLayer
370
13
48
1
60
0
100
AcDbSpline
70
4
71
3
72
16
73
12
40
0
40
0
40
0
40
0
40
0.127164964743402
40
0.127164964743402
40
0.19990121768152
40
0.19990121768152
40
0.272637470619638
40
0.272637470619638
40
0.418109976495711
40
0.418109976495711
40
1
40
1
40
1
40
1
41
1
10
235.435345339101
20
17.2128814867987
30
0
41
1
10
235.455506805453
20
17.2165299876412
30
0
41
1
10
235.47637967557
20
17.2192836967311
30
0
41
1
10
235.508770531396
20
17.2224600224775
30
0
41
1
10
235.520537023102
20
17.2232884274622
30
0
41
1
10
235.543803241923
20
17.2246655433501
30
0
41
1
10
235.555632623932
20
17.2256986107087
30
0
41
1
10
235.591488324984
20
17.2294429673183
30
0
41
1
10
235.614951231722
20
17.2311653215912
30
0
41
1
10
235.732195931417
20
17.239654516203
30
0
41
1
10
235.824275637262
20
17.2430163211568
30
0
41
1
10
235.914411382891
20
17.244501655033
30
0
0
SPLINE
5
280
100
AcDbEntity
8
1
62
256
6
ByLayer
370
13
48
1
60
0
100
AcDbSpline
70
4
71
3
72
26
73
22
40
0
40
0
40
0
40
0
40
0.249999999999999
40
0.249999999999999
40
0.499999999999998
40
0.499999999999998
40
0.624999999999998
40
0.624999999999998
40
0.687499999999998
40
0.687499999999998
40
0.749999999999998
40
0.749999999999998
40
0.812499999999999
40
0.812499999999999
40
0.843749999999999
40
0.843749999999999
40
0.875
40
0.875
40
0.9375
40
0.9375
40
1
40
1
40
1
40
1
41
1
10
249.154968516383
20
5.96385406858178
30
0
41
1
10
249.121374482193
20
5.93913865931157
30
0
41
1
10
249.084657810023
20
5.91430217074725
30
0
41
1
10
249.000898372689
20
5.86491619324403
30
0
41
1
10
248.953312106089
20
5.83995558837762
30
0
41
1
10
248.866797853666
20
5.80452061556809
30
0
41
1
10
248.835651142834
20
5.79305312432089
30
0
41
1
10
248.783192853606
20
5.77796171632801
30
0
41
1
10
248.764821442186
20
5.77335008224205
30
0
41
1
10
248.727466177809
20
5.76567093078225
30
0
41
1
10
248.708189937782
20
5.7625666261479
30
0
41
1
10
248.670994268831
20
5.75791889828812
30
0
41
1
10
248.652708751259
20
5.75633695261629
30
0
41
1
10
248.626203457561
20
5.7547587533393
30
0
41
1
10
248.617166631724
20
5.75404603471742
30
0
41
1
10
248.598594506848
20
5.75215937668321
30
0
41
1
10
248.589188875964
20
5.75110541493333
30
0
41
1
10
248.561725652656
20
5.74864087503187
30
0
41
1
10
248.543837441418
20
5.74738701969611
30
0
41
1
10
248.507972245539
20
5.74479716992869
30
0
41
1
10
248.490184218736
20
5.74363601194278
30
0
41
1
10
248.47255903405
20
5.7426255263872
30
0
0
SPLINE
5
281
100
AcDbEntity
8
1
62
256
6
ByLayer
370
13
48
1
60
0
100
AcDbSpline
70
4
71
3
72
24
73
20
40
0
40
0
40
0
40
0
40
0.0312499999999963
40
0.0312499999999963
40
0.0624999999999926
40
0.0624999999999926
40
0.124999999999992
40
0.124999999999992
40
0.187499999999992
40
0.187499999999992
40
0.249999999999991
40
0.249999999999991
40
0.374999999999991
40
0.374999999999991
40
0.49999999999999
40
0.49999999999999
40
0.749999999999995
40
0.749999999999995
40
1
40
1
40
1
40
1
41
1
10
249.287728579055
20
6.36220762670371
30
0
41
1
10
249.286704709096
20
6.34836566493917
30
0
41
1
10
249.285452527494
20
6.33364974387882
30
0
41
1
10
249.282452283238
20
6.30412201093819
30
0
41
1
10
249.280672487964
20
6.28915410920106
30
0
41
1
10
249.275149626316
20
6.2482864094797
30
0
41
1
10
249.271296464763
20
6.22575583051602
30
0
41
1
10
249.264042672075
20
6.18793230166139
30
0
41
1
10
249.260561470386
20
6.17226274663864
30
0
41
1
10
249.253889247387
20
6.14470669713492
30
0
41
1
10
249.250684437942
20
6.13280714366977
30
0
41
1
10
249.241304203898
20
6.10045898111446
30
0
41
1
10
249.23539038119
20
6.08340547996568
30
0
41
1
10
249.223976024929
20
6.05395269374452
30
0
41
1
10
249.218507745318
20
6.04177839066776
30
0
41
1
10
249.202578285021
20
6.01033382527609
30
0
41
1
10
249.192583330788
20
5.99604413751203
30
0
41
1
10
249.173285781663
20
5.97486105463216
30
0
41
1
10
249.163991577698
20
5.96809914505425
30
0
41
1
10
249.154968516381
20
5.96385406858064
30
0
0
SPLINE
5
282
100
AcDbEntity
8
1
62
256
6
ByLayer
370
13
48
1
60
0
100
AcDbSpline
70
4
71
3
72
17
73
13
40
0
40
0
40
0
40
0
40
0.500000000000018
40
0.750000000000018
40
0.750000000000018
40
0.875000000000018
40
0.875000000000018
40
0.906250000000009
40
0.906250000000009
40
0.9375
40
0.9375
40
1
40
1
40
1
40
1
41
1
10
242.65632048576
20
6.55784503902484
30
0
41
1
10
243.398099980675
20
6.59672005507105
30
0
41
1
10
244.510769223047
20
6.65503257914028
30
0
41
1
10
245.62343846542
20
6.7133451032096
30
0
41
1
10
246.179773086607
20
6.74250136524427
30
0
41
1
10
246.36521798506
20
6.75222083141924
30
0
41
1
10
246.597024043885
20
6.76436831372524
30
0
41
1
10
246.643384617347
20
6.76677942437198
30
0
41
1
10
246.736108095054
20
6.7716687820415
30
0
41
1
10
246.782465904268
20
6.77400027065997
30
0
41
1
10
246.921241939427
20
6.77242857996276
30
0
41
1
10
247.013465752049
20
6.76292547767449
30
0
41
1
10
247.105387709052
20
6.74472766159678
30
0
0
SPLINE
5
283
100
AcDbEntity
8
1
62
256
6
ByLayer
370
13
48
1
60
0
100
AcDbSpline
70
4
71
3
72
8
73
4
40
0
40
0
40
0
40
0
40
1
40
1
40
1
40
1
41
1
10
248.47255903405
20
5.7426255263872
30
0
41
1
10
248.405320771609
20
5.73877062817263
30
0
41
1
10
248.340077938369
20
5.73683901782999
30
0
41
1
10
248.276549905512
20
5.73600363059702
30
0
0
SPLINE
5
284
100
AcDbEntity
8
1
62
256
6
ByLayer
370
13
48
1
60
0
100
AcDbSpline
70
4
71
2
72
6
73
3
40
0
40
0
40
0
40
1
40
1
40
1
41
1
10
234.681147682917
20
10.9220113794293
30
0
41
0.997409491337352
10
234.672599494719
20
10.9761382073679
30
0
41
1
10
234.671872996418
20
11.0309332590956
30
0
0
SPLINE
5
285
100
AcDbEntity
8
1
62
256
6
ByLayer
370
13
48
1
60
0
100
AcDbSpline
70
4
71
3
72
10
73
6
40
0
40
0
40
0
40
0
40
0.5
40
0.5
40
1
40
1
40
1
40
1
41
1
10
235.914411382891
20
17.244501655033
30
0
41
1
10
235.947527227349
20
17.2455172505593
30
0
41
1
10
235.978980038625
20
17.2449826877829
30
0
41
1
10
236.042685886784
20
17.2446808001278
30
0
41
1
10
236.074610570375
20
17.2445897124073
30
0
41
1
10
236.106497853551
20
17.244467405892
30
0
0
SPLINE
5
286
100
AcDbEntity
8
1
62
256
6
ByLayer
370
13
48
1
60
0
100
AcDbSpline
70
4
71
3
72
10
73
6
40
0
40
0
40
0
40
0
40
0.5
40
0.5
40
1
40
1
40
1
40
1
41
1
10
237.644777860096
20
5.99187769348572
30
0
41
1
10
237.641098456484
20
5.99168486411332
30
0
41
1
10
237.620775971729
20
5.99175010050507
30
0
41
1
10
237.55955053743
20
5.99226161646246
30
0
41
1
10
237.518639913174
20
5.99269700743631
30
0
41
1
10
237.479408505603
20
5.99315253729938
30
0
0
SPLINE
5
287
100
AcDbEntity
8
1
62
256
6
ByLayer
370
13
48
1
60
0
100
AcDbSpline
70
4
71
3
72
24
73
20
40
0
40
0
40
0
40
0
40
0.124999999999993
40
0.124999999999993
40
0.249999999999985
40
0.249999999999985
40
0.374999999999978
40
0.374999999999978
40
0.49999999999997
40
0.49999999999997
40
0.624999999999962
40
0.624999999999962
40
0.749999999999955
40
0.749999999999955
40
0.81249999999995
40
0.81249999999995
40
0.874999999999946
40
0.874999999999946
40
1
40
1
40
1
40
1
41
1
10
249.106593233234
20
17.363395064351
30
0
41
1
10
249.098378217692
20
17.4179293301433
30
0
41
1
10
249.084924318314
20
17.470941212084
30
0
41
1
10
249.046492789504
20
17.5736162587399
30
0
41
1
10
249.021508530664
20
17.6229651025842
30
0
41
1
10
248.963129941369
20
17.714612330316
30
0
41
1
10
248.929265073893
20
17.7576120480608
30
0
41
1
10
248.852360713473
20
17.836100054093
30
0
41
1
10
248.810534441195
20
17.8707914286507
30
0
41
1
10
248.720536207715
20
17.9316120035834
30
0
41
1
10
248.671603773937
20
17.9576922650661
30
0
41
1
10
248.57078167885
20
17.9987465721088
30
0
41
1
10
248.518814685858
20
18.0142450677514
30
0
41
1
10
248.438392420834
20
18.0295042833654
30
0
41
1
10
248.411055906969
20
18.0331945070858
30
0
41
1
10
248.35653437745
20
18.037945496493
30
0
41
1
10
248.329248349238
20
18.0385369260454
30
0
41
1
10
248.247383387402
20
18.0398255583027
30
0
41
1
10
248.19280365494
20
18.0404663480845
30
0
41
1
10
248.138215030586
20
18.0404792065867
30
0
0
SPLINE
5
288
100
AcDbEntity
8
1
62
256
6
ByLayer
370
13
48
1
60
0
100
AcDbSpline
70
4
71
3
72
24
73
20
40
0
40
0
40
0
40
0
40
0.0312499999999952
40
0.0312499999999952
40
0.0624999999999903
40
0.0624999999999903
40
0.124999999999992
40
0.124999999999992
40
0.187499999999993
40
0.187499999999993
40
0.249999999999995
40
0.249999999999995
40
0.374999999999998
40
0.374999999999998
40
0.500000000000001
40
0.500000000000001
40
0.75
40
0.75
40
1
40
1
40
1
40
1
41
1
10
235.657367232796
20
5.64787065772089
30
0
41
1
10
235.659832372879
20
5.63421154722454
30
0
41
1
10
235.662615927514
20
5.61970713013838
30
0
41
1
10
235.668686224665
20
5.59065476412965
30
0
41
1
10
235.672020841802
20
5.5759548973891
30
0
41
1
10
235.681785286486
20
5.5358883714436
30
0
41
1
10
235.687972426812
20
5.51388398240542
30
0
41
1
10
235.699140117811
20
5.47702588260182
30
0
41
1
10
235.70424016362
20
5.46180605170369
30
0
41
1
10
235.713756226992
20
5.43509839433915
30
0
41
1
10
235.718187322192
20
5.42359902167928
30
0
41
1
10
235.730897474054
20
5.39240856719283
30
0
41
1
10
235.738561476491
20
5.37606664970735
30
0
41
1
10
235.752991958197
20
5.34796833404999
30
0
41
1
10
235.759702843192
20
5.33643231394365
30
0
41
1
10
235.778831892337
20
5.3068250871768
30
0
41
1
10
235.790265772267
20
5.29365843702382
30
0
41
1
10
235.8116718425
20
5.27460854044333
30
0
41
1
10
235.82162194386
20
5.26885518217137
30
0
41
1
10
235.831039307223
20
5.26557652740433
30
0
0
SPLINE
5
289
100
AcDbEntity
8
1
62
256
6
ByLayer
370
13
48
1
60
0
100
AcDbSpline
70
4
71
3
72
14
73
10
40
0
40
0
40
0
40
0
40
0.0108648624206407
40
0.0108648624206407
40
0.499267634988409
40
0.499267634988409
40
0.987670407556177
40
0.987670407556177
40
1
40
1
40
1
40
1
41
1
10
249.042275495427
20
5.85302089864854
30
0
41
1
10
249.041316959927
20
5.85200818586156
30
0
41
1
10
249.040356072919
20
5.85099834683356
30
0
41
1
10
248.996094163716
20
5.80472717958742
30
0
41
1
10
248.947995681805
20
5.7645864217445
30
0
41
1
10
248.841463373394
20
5.69599804076734
30
0
41
1
10
248.785246309149
20
5.66859120093034
30
0
41
1
10
248.724762858095
20
5.64713778315399
30
0
41
1
10
248.72327144392
20
5.64661374567709
30
0
41
1
10
248.721777949792
20
5.64609394266299
30
0
0
SPLINE
5
28A
100
AcDbEntity
8
1
62
256
6
ByLayer
370
13
48
1
60
0
100
AcDbSpline
70
4
71
1
72
4
73
2
40
0
40
0
40
1
40
1
41
1
10
236.106497853551
20
17.244467405892
30
0
41
1
10
235.963881443428
20
17.4128032396764
30
0
0
SPLINE
5
28B
100
AcDbEntity
8
1
62
256
6
ByLayer
370
13
48
1
60
0
100
AcDbSpline
70
4
71
2
72
6
73
3
40
0
40
0
40
0
40
1
40
1
40
1
41
1
10
234.662366788626
20
11.2803721905061
30
0
41
0.997409491337352
10
234.659523222444
20
11.2256483460182
30
0
41
1
10
234.664528346529
20
11.1710775275662
30
0
0
SPLINE
5
28C
100
AcDbEntity
8
1
62
256
6
ByLayer
370
13
48
1
60
0
100
AcDbSpline
70
4
71
3
72
10
73
6
40
0
40
0
40
0
40
0
40
0.5
40
0.5
40
1
40
1
40
1
40
1
41
1
10
237.615680439606
20
5.9043671179887
30
0
41
1
10
237.612002471932
20
5.90417436387062
30
0
41
1
10
237.595055055253
20
5.91403711821025
30
0
41
1
10
237.544770273906
20
5.94713970334192
30
0
41
1
10
237.51138066673
20
5.970325486744
30
0
41
1
10
237.479408505603
20
5.99315253729935
30
0
0
SPLINE
5
28D
100
AcDbEntity
8
1
62
256
6
ByLayer
370
13
48
1
60
0
100
AcDbSpline
70
4
71
3
72
8
73
4
40
0
40
0
40
0
40
0
40
1
40
1
40
1
40
1
41
1
10
248.138215030586
20
18.0404792065867
30
0
41
1
10
248.07184321227
20
18.0404948406531
30
0
41
1
10
248.005460690658
20
18.0397546249398
30
0
41
1
10
247.939068109188
20
18.0383039979564
30
0
0
SPLINE
5
28E
100
AcDbEntity
8
1
62
256
6
ByLayer
370
13
48
1
60
0
100
AcDbSpline
70
4
71
1
72
4
73
2
40
0
40
0
40
1
40
1
41
1
10
235.778155188844
20
17.4009775577467
30
0
41
1
10
235.914411382891
20
17.244501655033
30
0
0
SPLINE
5
28F
100
AcDbEntity
8
1
62
256
6
ByLayer
370
13
48
1
60
0
100
AcDbSpline
70
4
71
3
72
10
73
6
40
0
40
0
40
0
40
0
40
0.381095285608404
40
0.381095285608404
40
1
40
1
40
1
40
1
41
1
10
247.142942063928
20
17.0194244698038
30
0
41
1
10
247.148228585998
20
17.019203078413
30
0
41
1
10
247.159245229474
20
17.0189117767818
30
0
41
1
10
247.200488326412
20
17.0180677611361
30
0
41
1
10
247.238454133271
20
17.017478038822
30
0
41
1
10
247.277685540842
20
17.017022508959
30
0
0
SPLINE
5
290
100
AcDbEntity
8
1
62
256
6
ByLayer
370
13
48
1
60
0
100
AcDbSpline
70
4
71
1
72
4
73
2
40
0
40
0
40
1
40
1
41
1
10
234.850783263238
20
11.1564253994503
30
0
41
1
10
234.678256726214
20
11.1400574807528
30
0
0
SPLINE
5
291
100
AcDbEntity
8
1
62
256
6
ByLayer
370
18
48
1
60
0
100
AcDbSpline
70
4
71
1
72
4
73
2
40
0
40
0
40
1
40
1
41
1
10
249.283737555391
20
-11.0700652611208
30
0
41
1
10
249.828500278953
20
-6.9565149221259
30
0
0
SPLINE
5
292
100
AcDbEntity
8
1
62
256
6
ByLayer
370
18
48
1
60
0
100
AcDbSpline
70
4
71
1
72
4
73
2
40
0
40
0
40
1
40
1
41
1
10
248.585860506769
20
-11.4804655605489
30
0
41
1
10
248.513820496206
20
-10.8644234398476
30
0
0
SPLINE
5
293
100
AcDbEntity
8
1
62
256
6
ByLayer
370
18
48
1
60
0
100
AcDbSpline
70
4
71
1
72
4
73
2
40
0
40
0
40
1
40
1
41
1
10
248.786481281573
20
0.0160217713627731
30
0
41
1
10
249.146740592142
20
-0.229418166001267
30
0
0
SPLINE
5
294
100
AcDbEntity
8
1
62
256
6
ByLayer
370
18
48
1
60
0
100
AcDbSpline
70
4
71
1
72
4
73
2
40
0
40
0
40
1
40
1
41
1
10
249.167916848367
20
-0.324243492751719
30
0
41
1
10
248.807622597303
20
-0.0787797508749009
30
0
0
SPLINE
5
295
100
AcDbEntity
8
1
62
256
6
ByLayer
370
18
48
1
60
0
100
AcDbSpline
70
4
71
3
72
11
73
7
40
0
40
0
40
0
40
0
40
0.211920556038673
40
0.448438904514187
40
0.566698078751944
40
1
40
1
40
1
40
1
41
1
10
249.158303156619
20
-4.98370763534967
30
0
41
1
10
249.168603646225
20
-5.03193657760448
30
0
41
1
10
249.192615090019
20
-5.13236683988728
30
0
41
1
10
249.199064961131
20
-5.23952278295141
30
0
41
1
10
249.175731139237
20
-5.4170209600596
30
0
41
1
10
249.159170205415
20
-5.54215665858916
30
0
41
1
10
249.146048344841
20
-5.64088843801935
30
0
0
SPLINE
5
296
100
AcDbEntity
8
1
62
256
6
ByLayer
370
18
48
1
60
0
100
AcDbSpline
70
4
71
1
72
4
73
2
40
0
40
0
40
1
40
1
41
1
10
249.899135926395
20
-4.9138297450871
30
0
41
1
10
249.799747927556
20
-4.29000877702777
30
0
0
SPLINE
5
297
100
AcDbEntity
8
1
62
256
6
ByLayer
370
18
48
1
60
0
100
AcDbSpline
70
4
71
2
72
6
73
3
40
0
40
0
40
0
40
1
40
1
40
1
41
1
10
248.807622597303
20
-0.0787797508749293
30
0
41
1
10
248.799968243866
20
-0.0307362626162444
30
0
41
1
10
248.786481281573
20
0.0160217713628299
30
0
0
SPLINE
5
298
100
AcDbEntity
8
1
62
256
6
ByLayer
370
18
48
1
60
0
100
AcDbSpline
70
4
71
3
72
10
73
6
40
0
40
0
40
0
40
0
40
0.380255375925173
40
0.380255375925173
40
1
40
1
40
1
40
1
41
1
10
249.04582150732
20
0.120469672214
30
0
41
1
10
249.058613448689
20
0.0761205928596382
30
0
41
1
10
249.071405715491
20
0.0317713076315727
30
0
41
1
10
249.105046253446
20
-0.084858505410466
30
0
41
1
10
249.125892751585
20
-0.157137910789487
30
0
41
1
10
249.146740592142
20
-0.229418166001523
30
0
0
SPLINE
5
299
100
AcDbEntity
8
1
62
256
6
ByLayer
370
18
48
1
60
0
100
AcDbSpline
70
4
71
1
72
4
73
2
40
0
40
0
40
1
40
1
41
1
10
248.601347506958
20
-10.7764037377491
30
0
41
1
10
248.681215073265
20
-11.4593823289318
30
0
0
SPLINE
5
29A
100
AcDbEntity
8
1
62
256
6
ByLayer
370
18
48
1
60
0
100
AcDbSpline
70
4
71
1
72
4
73
2
40
0
40
0
40
1
40
1
41
1
10
249.045846286986
20
0.120470262433429
30
0
41
1
10
248.758329320378
20
0.113621981671855
30
0
0
SPLINE
5
29B
100
AcDbEntity
8
1
62
256
6
ByLayer
370
18
48
1
60
0
100
AcDbSpline
70
4
71
3
72
12
73
8
40
0
40
0
40
0
40
0
40
0.250321626253233
40
0.250321626253233
40
0.500643244825976
40
0.500643244825976
40
1
40
1
40
1
40
1
41
1
10
249.146740592068
20
-0.229418165743795
30
0
41
1
10
249.148988577293
20
-0.237212015915219
30
0
41
1
10
249.151116956987
20
-0.245040993332623
30
0
41
1
10
249.155131540577
20
-0.260758240938202
30
0
41
1
10
249.157018213382
20
-0.268648346726792
30
0
41
1
10
249.162302147386
20
-0.29235037225655
30
0
41
1
10
249.165338574371
20
-0.308250643685739
30
0
41
1
10
249.167883876057
20
-0.3242210289159
30
0
0
SPLINE
5
29C
100
AcDbEntity
8
1
62
256
6
ByLayer
370
18
48
1
60
0
100
AcDbSpline
70
4
71
3
72
12
73
8
40
0
40
0
40
0
40
0
40
0.5
40
0.5
40
0.75
40
0.75
40
1
40
1
40
1
40
1
41
1
10
248.755088951874
20
0.369558286962018
30
0
41
1
10
248.822187071624
20
0.36069832957881
30
0
41
1
10
248.886407354815
20
0.331846431196851
30
0
41
1
10
248.963425585636
20
0.2660873667609
30
0
41
1
10
248.98588266562
20
0.240383164021892
30
0
41
1
10
249.022294310807
20
0.183706234627238
30
0
41
1
10
249.035708957667
20
0.152632888821301
30
0
41
1
10
249.04584642285
20
0.120498308788427
30
0
0
SPLINE
5
29D
100
AcDbEntity
8
1
62
256
6
ByLayer
370
18
48
1
60
0
100
AcDbSpline
70
4
71
3
72
8
73
4
40
0
40
0
40
0
40
0
40
1
40
1
40
1
40
1
41
1
10
249.99168490156
20
-5.48485045196571
30
0
41
1
10
249.996327870119
20
-5.52277755410029
30
0
41
1
10
249.999420678461
20
-5.56081710005441
30
0
41
1
10
249.999923986323
20
-5.59903869560864
30
0
0
SPLINE
5
29E
100
AcDbEntity
8
1
62
256
6
ByLayer
370
18
48
1
60
0
100
AcDbSpline
70
4
71
3
72
12
73
8
40
0
40
0
40
0
40
0
40
0.285280525070249
40
0.285280525070249
40
0.570561041384794
40
0.570561041384794
40
1
40
1
40
1
40
1
41
1
10
248.681215073295
20
-11.4593823289235
30
0
41
1
10
248.673375022913
20
-11.4616169987008
30
0
41
1
10
248.665499686961
20
-11.4637328154792
30
0
41
1
10
248.649689486869
20
-11.4677238120364
30
0
41
1
10
248.641752776306
20
-11.4695994580015
30
0
41
1
10
248.621807674834
20
-11.4739941259608
30
0
41
1
10
248.609760006417
20
-11.4763611660874
30
0
41
1
10
248.597666154879
20
-11.4784515440245
30
0
0
SPLINE
5
29F
100
AcDbEntity
8
1
62
256
6
ByLayer
370
18
48
1
60
0
100
AcDbSpline
70
4
71
3
72
12
73
8
40
0
40
0
40
0
40
0
40
0.499999999999938
40
0.499999999999938
40
0.749999999999969
40
0.749999999999969
40
1
40
1
40
1
40
1
41
1
10
249.28373825171
20
-11.0700373569671
30
0
41
1
10
249.274825846728
20
-11.136740860514
30
0
41
1
10
249.245805572029
20
-11.2005857691962
30
0
41
1
10
249.17965525294
20
-11.277148835208
30
0
41
1
10
249.153799034008
20
-11.2994738880751
30
0
41
1
10
249.096786993328
20
-11.3356715652611
30
0
41
1
10
249.065529745211
20
-11.3490072355309
30
0
41
1
10
249.033204978228
20
-11.3590849890547
30
0
0
SPLINE
5
2A0
100
AcDbEntity
8
1
62
256
6
ByLayer
370
18
48
1
60
0
100
AcDbSpline
70
4
71
1
72
4
73
2
40
0
40
0
40
1
40
1
41
1
10
248.467571894072
20
0.362681319179046
30
0
41
1
10
248.755088860699
20
0.369529599946219
30
0
0
SPLINE
5
2A1
100
AcDbEntity
8
1
62
256
6
ByLayer
370
18
48
1
60
0
100
AcDbSpline
70
4
71
2
72
7
73
4
40
0
40
0
40
0
40
0.5
40
1
40
1
40
1
41
1
10
249.62097307851
20
-5.39322973916708
30
0
41
1
10
249.628465218219
20
-5.33665594567535
30
0
41
1
10
249.627039169178
20
-5.22194839376843
30
0
41
1
10
249.617967861891
20
-5.16501122069488
30
0
0
SPLINE
5
2A2
100
AcDbEntity
8
1
62
256
6
ByLayer
370
18
48
1
60
0
100
AcDbSpline
70
4
71
2
72
12
73
9
40
0
40
0
40
0
40
0.25
40
0.5
40
0.5
40
0.75
40
0.75
40
0.875
40
1
40
1
40
1
41
1
10
248.758329320378
20
0.113621981671855
30
0
41
1
10
248.744426722642
20
0.161820984695311
30
0
41
1
10
248.690014745015
20
0.247046817115347
30
0
41
1
10
248.650579805089
20
0.281110841127486
30
0
41
1
10
248.612865621997
20
0.313688470021901
30
0
41
1
10
248.565254620211
20
0.335128338452279
30
0
41
1
10
248.543143251004
20
0.345085382598114
30
0
41
1
10
248.493526905157
20
0.359284371501388
30
0
41
1
10
248.467571894073
20
0.362681319178989
30
0
0
SPLINE
5
2A3
100
AcDbEntity
8
1
62
256
6
ByLayer
370
18
48
1
60
0
100
AcDbSpline
70
4
71
3
72
25
73
21
40
0
40
0
40
0
40
0
40
0.0118132717582224
40
0.0435693848577188
40
0.107081611056712
40
0.234106063454697
40
0.361130515852683
40
0.480215939975794
40
0.488154968250668
40
0.504033024800416
40
0.519911081350165
40
0.551667194449661
40
0.615179420648654
40
0.742203873046639
40
0.869228325444625
40
0.932740551643618
40
0.964496664743114
40
0.980374721292862
40
0.99625277784261
40
1
40
1
40
1
40
1
41
1
10
248.605378581442
20
-10.3297838204026
30
0
41
1
10
248.624422495097
20
-10.2966524676385
30
0
41
1
10
248.6783406682
20
-10.1595426054889
30
0
41
1
10
248.689343226216
20
-9.78922299520426
30
0
41
1
10
248.815706583022
20
-9.02645910511865
30
0
41
1
10
248.947440630295
20
-7.93226466423135
30
0
41
1
10
249.121833521995
20
-6.6485658184254
30
0
41
1
10
249.239325118558
20
-5.7746358939774
30
0
41
1
10
249.303655794018
20
-5.28527852775309
30
0
41
1
10
249.295768217069
20
-5.15423703378047
30
0
41
1
10
249.24209657474
20
-4.93720705282195
30
0
41
1
10
249.193480966328
20
-4.55524390109011
30
0
41
1
10
249.06436870021
20
-3.79346615493799
30
0
41
1
10
248.895928520416
20
-2.70452748997215
30
0
41
1
10
248.717919637599
20
-1.61676553483017
30
0
41
1
10
248.603150010627
20
-0.853207852384941
30
0
41
1
10
248.531879122674
20
-0.474099491117272
30
0
41
1
10
248.513495296603
20
-0.251706900638595
30
0
41
1
10
248.492470101828
20
-0.134801535756736
30
0
41
1
10
248.46412988643
20
-0.0810328006292025
30
0
41
1
10
248.458131345384
20
-0.0711794495982474
30
0
0
SPLINE
5
2A4
100
AcDbEntity
8
1
62
256
6
ByLayer
370
18
48
1
60
0
100
AcDbSpline
70
4
71
1
72
4
73
2
40
0
40
0
40
1
40
1
41
1
10
249.993146684147
20
-5.71325570741178
30
0
41
1
10
249.62097307851
20
-5.39322973916714
30
0
0
SPLINE
5
2A5
100
AcDbEntity
8
1
62
256
6
ByLayer
370
18
48
1
60
0
100
AcDbSpline
70
4
71
3
72
10
73
6
40
0
40
0
40
0
40
0
40
0.382672957324112
40
0.382672957324112
40
1
40
1
40
1
40
1
41
1
10
249.035300402747
20
-11.3584547076265
30
0
41
1
10
248.990134180921
20
-11.3713292776297
30
0
41
1
10
248.944968061299
20
-11.3842045295711
30
0
41
1
10
248.826939860803
20
-11.4178486919248
30
0
41
1
10
248.754077275153
20
-11.4386142276414
30
0
41
1
10
248.681215073265
20
-11.4593823289318
30
0
0
SPLINE
5
2A6
100
AcDbEntity
8
1
62
256
6
ByLayer
370
18
48
1
60
0
100
AcDbSpline
70
4
71
1
72
4
73
2
40
0
40
0
40
1
40
1
41
1
10
249.799747927556
20
-4.29000877702777
30
0
41
1
10
249.167916848367
20
-0.324243492751634
30
0
0
SPLINE
5
2A7
100
AcDbEntity
8
1
62
256
6
ByLayer
370
18
48
1
60
0
100
AcDbSpline
70
4
71
1
72
4
73
2
40
0
40
0
40
1
40
1
41
1
10
249.617967861891
20
-5.16501122069485
30
0
41
1
10
249.990141467524
20
-5.48503718893656
30
0
0
SPLINE
5
2A8
100
AcDbEntity
8
1
62
256
6
ByLayer
370
18
48
1
60
0
100
AcDbSpline
70
4
71
3
72
28
73
24
40
0
40
0
40
0
40
0
40
0.0008567246857484
40
0.0161556662988638
40
0.0314546079119791
40
0.0620524911382098
40
0.123248257590671
40
0.245639790495594
40
0.368031323400517
40
0.482773385498882
40
0.49042285630544
40
0.505721797918555
40
0.52102073953167
40
0.551618622757901
40
0.612814389210363
40
0.735205922115285
40
0.857597455020208
40
0.91879322147267
40
0.9493911046989
40
0.964690046312016
40
0.979988987925131
40
0.995287929538246
40
1
40
1
40
1
40
1
41
1
10
248.524738002543
20
-10.59968011103
30
0
41
1
10
248.528250108749
20
-10.5981511049924
30
0
41
1
10
248.594219079521
20
-10.5683426993577
30
0
41
1
10
248.711792660967
20
-10.4728535106126
30
0
41
1
10
248.82193678424
20
-10.2172197629822
30
0
41
1
10
248.833882560954
20
-9.81515368241421
30
0
41
1
10
248.95918895204
20
-9.05876992740434
30
0
41
1
10
249.09117259302
20
-7.96250233950784
30
0
41
1
10
249.265432226906
20
-6.67978439894006
30
0
41
1
10
249.382965001549
20
-5.8055481823248
30
0
41
1
10
249.449109375511
20
-5.30239418306451
30
0
41
1
10
249.439611730777
20
-5.14460357599023
30
0
41
1
10
249.384790556048
20
-4.92292527453972
30
0
41
1
10
249.336850292681
20
-4.54626817430392
30
0
41
1
10
249.207416376276
20
-3.78259265315424
30
0
41
1
10
249.039038428944
20
-2.69405631104479
30
0
41
1
10
248.861078991425
20
-1.60659650213614
30
0
41
1
10
248.746057863248
20
-0.841365592358017
30
0
41
1
10
248.675670951913
20
-0.466959332279146
30
0
41
1
10
248.657333745691
20
-0.24513071085866
30
0
41
1
10
248.621292184758
20
-0.0447305777351801
30
0
41
1
10
248.513464932268
20
0.0864776824373905
30
0
41
1
10
248.437328747067
20
0.135622552224731
30
0
41
1
10
248.418887436886
20
0.145977338929953
30
0
0
SPLINE
5
2A9
100
AcDbEntity
8
1
62
256
6
ByLayer
370
18
48
1
60
0
100
AcDbSpline
70
4
71
2
72
6
73
3
40
0
40
0
40
0
40
1
40
1
40
1
41
1
10
248.505985194336
20
-10.7974207292402
30
0
41
1
10
248.554312879789
20
-10.789811388244
30
0
41
1
10
248.601347506957
20
-10.7764037377491
30
0
0
SPLINE
5
2AA
100
AcDbEntity
8
1
62
256
6
ByLayer
370
18
48
1
60
0
100
AcDbSpline
70
4
71
1
72
4
73
2
40
0
40
0
40
1
40
1
41
1
10
248.950057690026
20
-10.459369738049
30
0
41
1
10
249.283737555391
20
-11.0700652611208
30
0
0
SPLINE
5
2AB
100
AcDbEntity
8
1
62
256
6
ByLayer
370
18
48
1
60
0
100
AcDbSpline
70
4
71
1
72
4
73
2
40
0
40
0
40
1
40
1
41
1
10
248.755088860699
20
0.369529599946219
30
0
41
1
10
248.414489559443
20
0.414106656825084
30
0
0
SPLINE
5
2AC
100
AcDbEntity
8
1
62
256
6
ByLayer
370
18
48
1
60
0
100
AcDbSpline
70
4
71
1
72
4
73
2
40
0
40
0
40
1
40
1
41
1
10
249.033204928456
20
-11.3591128508648
30
0
41
1
10
248.699525063075
20
-10.7484173277875
30
0
0
SPLINE
5
2AD
100
AcDbEntity
8
1
62
256
6
ByLayer
370
18
48
1
60
0
100
AcDbSpline
70
4
71
3
72
8
73
4
40
0
40
0
40
0
40
0
40
1
40
1
40
1
40
1
41
1
10
249.999923986323
20
-5.59903869560864
30
0
41
1
10
250.000427318117
20
-5.63726210857527
30
0
41
1
10
249.998397760599
20
-5.67537271661112
30
0
41
1
10
249.994822598711
20
-5.71341138344249
30
0
0
SPLINE
5
2AE
100
AcDbEntity
8
1
62
256
6
ByLayer
370
18
48
1
60
0
100
AcDbSpline
70
4
71
1
72
4
73
2
40
0
40
0
40
1
40
1
41
1
10
249.990141467524
20
-5.48503718893659
30
0
41
1
10
249.95747900792
20
-5.28002725405764
30
0
0
SPLINE
5
2AF
100
AcDbEntity
8
1
62
256
6
ByLayer
370
18
48
1
60
0
100
AcDbSpline
70
4
71
1
72
4
73
2
40
0
40
0
40
1
40
1
41
1
10
249.95747900792
20
-5.28002725405764
30
0
41
1
10
249.899135926395
20
-4.9138297450871
30
0
0
SPLINE
5
2B0
100
AcDbEntity
8
1
62
256
6
ByLayer
370
18
48
1
60
0
100
AcDbSpline
70
4
71
2
72
12
73
9
40
0
40
0
40
0
40
0.25
40
0.5
40
0.5
40
0.75
40
0.75
40
0.875
40
1
40
1
40
1
41
1
10
248.699525063075
20
-10.7484173277873
30
0
41
1
10
248.748009183224
20
-10.7345964860719
30
0
41
1
10
248.833739161846
20
-10.6805044851008
30
0
41
1
10
248.868004688709
20
-10.6413014474291
30
0
41
1
10
248.900775027809
20
-10.6038090474596
30
0
41
1
10
248.92234172197
20
-10.5564780283119
30
0
41
1
10
248.932357666166
20
-10.5344966878734
30
0
41
1
10
248.94664064799
20
-10.4851721173469
30
0
41
1
10
248.950057690026
20
-10.4593697380494
30
0
0
SPLINE
5
2B1
100
AcDbEntity
8
1
62
256
6
ByLayer
370
18
48
1
60
0
100
AcDbSpline
70
4
71
1
72
4
73
2
40
0
40
0
40
1
40
1
41
1
10
249.828500278953
20
-6.9565149221259
30
0
41
1
10
249.914180020704
20
-6.30953979794307
30
0
0
SPLINE
5
2B2
100
AcDbEntity
8
1
62
256
6
ByLayer
370
18
48
1
60
0
100
AcDbSpline
70
4
71
1
72
4
73
2
40
0
40
0
40
1
40
1
41
1
10
249.914180020704
20
-6.30953979794307
30
0
41
1
10
249.964485269926
20
-5.92968051969095
30
0
0
SPLINE
5
2B3
100
AcDbEntity
8
1
62
256
6
ByLayer
370
18
48
1
60
0
100
AcDbSpline
70
4
71
1
72
4
73
2
40
0
40
0
40
1
40
1
41
1
10
249.964485269926
20
-5.92968051969095
30
0
41
1
10
249.993146684147
20
-5.71325570741178
30
0
0
SPLINE
5
2B4
100
AcDbEntity
8
1
62
256
6
ByLayer
370
18
48
1
60
0
100
AcDbSpline
70
4
71
3
72
18
73
14
40
0
40
0
40
0
40
0
40
0.12499999999998
40
0.12499999999998
40
0.24999999999996
40
0.24999999999996
40
0.499999999999946
40
0.499999999999946
40
0.749999999999931
40
0.749999999999931
40
0.874999999999965
40
0.874999999999965
40
1
40
1
40
1
40
1
41
1
10
241.572584528921
20
10.5954106714186
30
0
41
1
10
241.582047570052
20
10.6195565576725
30
0
41
1
10
241.584190859539
20
10.6468958820082
30
0
41
1
10
241.580673834783
20
10.7026887435379
30
0
41
1
10
241.574883096994
20
10.7311078350041
30
0
41
1
10
241.549932876174
20
10.8151947094989
30
0
41
1
10
241.523248053602
20
10.8701400883644
30
0
41
1
10
241.457808981779
20
10.9712812304729
30
0
41
1
10
241.419208450992
20
11.0173290903119
30
0
41
1
10
241.353886599457
20
11.0727162043509
30
0
41
1
10
241.33081604406
20
11.0888582334366
30
0
41
1
10
241.282715471627
20
11.1129516424336
30
0
41
1
10
241.257693306303
20
11.1210843838461
30
0
41
1
10
241.232586563027
20
11.1210918827514
30
0
0
SPLINE
5
2B5
100
AcDbEntity
8
1
62
256
6
ByLayer
370
18
48
1
60
0
100
AcDbSpline
70
4
71
3
72
20
73
16
40
0
40
0
40
0
40
0
40
0.124999999999987
40
0.124999999999987
40
0.249999999999974
40
0.249999999999974
40
0.374999999999961
40
0.374999999999961
40
0.499999999999948
40
0.499999999999948
40
0.749999999999974
40
0.749999999999974
40
0.874999999999987
40
0.874999999999987
40
1
40
1
40
1
40
1
41
1
10
243.310066737615
20
10.6864682555236
30
0
41
1
10
243.295372565773
20
10.7094642334483
30
0
41
1
10
243.287997664234
20
10.7364622426995
30
0
41
1
10
243.281573273688
20
10.7921679956988
30
0
41
1
10
243.28264534432
20
10.8207862880072
30
0
41
1
10
243.290516552412
20
10.8779452345854
30
0
41
1
10
243.297462640124
20
10.9068250622205
30
0
41
1
10
243.315772724976
20
10.9628337711615
30
0
41
1
10
243.327182974343
20
10.9902770291947
30
0
41
1
10
243.368049045775
20
11.07100057125
30
0
41
1
10
243.403088201812
20
11.1210224368894
30
0
41
1
10
243.466534085556
20
11.1832958154169
30
0
41
1
10
243.489564706744
20
11.201896401944
30
0
41
1
10
243.539091152607
20
11.231174404674
30
0
41
1
10
243.565551897965
20
11.2420320414157
30
0
41
1
10
243.59325350989
20
11.2448091950634
30
0
0
SPLINE
5
2B6
100
AcDbEntity
8
1
62
256
6
ByLayer
370
18
48
1
60
0
100
AcDbSpline
70
4
71
3
72
16
73
12
40
0
40
0
40
0
40
0
40
0.250000000000042
40
0.250000000000042
40
0.500000000000083
40
0.500000000000083
40
0.750000000000125
40
0.750000000000125
40
0.875000000000062
40
0.875000000000062
40
1
40
1
40
1
40
1
41
1
10
243.170311292124
20
10.3240707090482
30
0
41
1
10
243.13870716966
20
10.3034632017898
30
0
41
1
10
243.105243784759
20
10.285563867775
30
0
41
1
10
243.035285350581
20
10.2566086191426
30
0
41
1
10
242.998775889959
20
10.2454681703983
30
0
41
1
10
242.924051429427
20
10.2344734797628
30
0
41
1
10
242.88528912435
20
10.2344073034062
30
0
41
1
10
242.833627748831
20
10.2525738036973
30
0
41
1
10
242.817901814125
20
10.2619313074865
30
0
41
1
10
242.79419380524
20
10.2866294545287
30
0
41
1
10
242.78632645722
20
10.3018065467226
30
0
41
1
10
242.782544765121
20
10.3180380763551
30
0
0
SPLINE
5
2B7
100
AcDbEntity
8
1
62
256
6
ByLayer
370
18
48
1
60
0
100
AcDbSpline
70
4
71
3
72
8
73
4
40
0
40
0
40
0
40
0
40
1
40
1
40
1
40
1
41
1
10
242.645315634403
20
12.7104448183352
30
0
41
1
10
242.648961224102
20
12.7162521086069
30
0
41
1
10
242.652606396201
20
12.7220583036304
30
0
41
1
10
242.656251168726
20
12.7278634519551
30
0
0
SPLINE
5
2B8
100
AcDbEntity
8
1
62
256
6
ByLayer
370
18
48
1
60
0
100
AcDbSpline
70
4
71
3
72
16
73
12
40
0
40
0
40
0
40
0
40
0.125
40
0.125
40
0.25
40
0.25
40
0.5
40
0.5
40
0.75
40
0.75
40
1
40
1
40
1
40
1
41
1
10
241.213661766194
20
11.1210975786858
30
0
41
1
10
241.199703375598
20
11.1139339093466
30
0
41
1
10
241.184229214648
20
11.1106785694726
30
0
41
1
10
241.152584321097
20
11.1142523651732
30
0
41
1
10
241.136981699441
20
11.1210650424941
30
0
41
1
10
241.095304846039
20
11.1506426740953
30
0
41
1
10
241.073425836663
20
11.1818015769597
30
0
41
1
10
241.03997935816
20
11.2482532805512
30
0
41
1
10
241.027990176734
20
11.2842722443267
30
0
41
1
10
241.010880033815
20
11.3576772749724
30
0
41
1
10
241.005774029415
20
11.3952497434284
30
0
41
1
10
241.003793539303
20
11.4330397459753
30
0
0
SPLINE
5
2B9
100
AcDbEntity
8
1
62
256
6
ByLayer
370
18
48
1
60
0
100
AcDbSpline
70
4
71
3
72
8
73
4
40
0
40
0
40
0
40
0
40
1
40
1
40
1
40
1
41
1
10
242.782544765121
20
10.3180380763551
30
0
41
1
10
242.778313155808
20
10.3234304409988
30
0
41
1
10
242.7740810397
20
10.3288238048406
30
0
41
1
10
242.769848393795
20
10.3342182142797
30
0
0
SPLINE
5
2BA
100
AcDbEntity
8
1
62
256
6
ByLayer
370
18
48
1
60
0
100
AcDbSpline
70
4
71
3
72
16
73
12
40
0
40
0
40
0
40
0
40
0.250000000000039
40
0.250000000000039
40
0.500000000000077
40
0.500000000000077
40
0.750000000000116
40
0.750000000000116
40
0.875000000000058
40
0.875000000000058
40
1
40
1
40
1
40
1
41
1
10
241.640774630125
20
12.6889339315203
30
0
41
1
10
241.672378752589
20
12.7095414387787
30
0
41
1
10
241.705660254325
20
12.7274312407008
30
0
41
1
10
241.774794039427
20
12.7563432713065
30
0
41
1
10
241.81067038241
20
12.7674505397612
30
0
41
1
10
241.883278447975
20
12.7783343148365
30
0
41
1
10
241.920569013608
20
12.7783233605971
30
0
41
1
10
241.968603716401
20
12.7599667944423
30
0
41
1
10
241.982870233777
20
12.7505328058317
30
0
41
1
10
242.00333031443
20
12.7256644420836
30
0
41
1
10
242.009426642714
20
12.7103945346782
30
0
41
1
10
242.011463602333
20
12.6940715674911
30
0
0
SPLINE
5
2BB
100
AcDbEntity
8
1
62
256
6
ByLayer
370
18
48
1
60
0
100
AcDbSpline
70
4
71
3
72
18
73
14
40
0
40
0
40
0
40
0
40
0.124999999999997
40
0.124999999999997
40
0.249999999999995
40
0.249999999999995
40
0.374999999999992
40
0.374999999999992
40
0.499999999999989
40
0.499999999999989
40
0.749999999999995
40
0.749999999999995
40
1
40
1
40
1
40
1
41
1
10
243.614103116741
20
11.2468993791672
30
0
41
1
10
243.630470957144
20
11.2413286437213
30
0
41
1
10
243.648055644868
20
11.2398180896736
30
0
41
1
10
243.682237319649
20
11.2468027978131
30
0
41
1
10
243.698531989647
20
11.2552648048187
30
0
41
1
10
243.726491689581
20
11.2778707644563
30
0
41
1
10
243.738630939953
20
11.2921475341043
30
0
41
1
10
243.759200886997
20
11.3232713384052
30
0
41
1
10
243.767671580786
20
11.3400793255696
30
0
41
1
10
243.788973565328
20
11.3922980730914
30
0
41
1
10
243.797769351378
20
11.4293846869941
30
0
41
1
10
243.807947145082
20
11.5043143273746
30
0
41
1
10
243.809271588953
20
11.542199394251
30
0
41
1
10
243.807292382946
20
11.5799648945932
30
0
0
SPLINE
5
2BC
100
AcDbEntity
8
1
62
256
6
ByLayer
370
18
48
1
60
0
100
AcDbSpline
70
4
71
3
72
16
73
12
40
0
40
0
40
0
40
0
40
0.249999999999963
40
0.249999999999963
40
0.499999999999926
40
0.499999999999926
40
0.749999999999889
40
0.749999999999889
40
0.874999999999945
40
0.874999999999945
40
1
40
1
40
1
40
1
41
1
10
243.807292382946
20
11.5799648945932
30
0
41
1
10
243.805313104656
20
11.6177317741897
30
0
41
1
10
243.80001621758
20
11.6553953126887
30
0
41
1
10
243.782026673953
20
11.7289040935842
30
0
41
1
10
243.769394747455
20
11.7648417393639
30
0
41
1
10
243.733846132485
20
11.8310885304838
30
0
41
1
10
243.710781106611
20
11.8619721914559
30
0
41
1
10
243.664961159954
20
11.8916573953172
30
0
41
1
10
243.647850180022
20
11.8982846743464
30
0
41
1
10
243.613286805469
20
11.9015810696995
30
0
41
1
10
243.596037523658
20
11.8982609006402
30
0
41
1
10
243.58034660126
20
11.8910120651604
30
0
0
SPLINE
5
2BD
100
AcDbEntity
8
1
62
256
6
ByLayer
370
18
48
1
60
0
100
AcDbSpline
70
4
71
3
72
8
73
4
40
0
40
0
40
0
40
0
40
1
40
1
40
1
40
1
41
1
10
243.310066737617
20
10.6864682555201
30
0
41
1
10
243.313744781533
20
10.6807122171666
30
0
41
1
10
243.317422401648
20
10.6749572935242
30
0
41
1
10
243.321099616261
20
10.6692034351284
30
0
0
SPLINE
5
2BE
100
AcDbEntity
8
1
62
256
6
ByLayer
370
18
48
1
60
0
100
AcDbSpline
70
4
71
3
72
18
73
14
40
0
40
0
40
0
40
0
40
0.12499999999997
40
0.12499999999997
40
0.249999999999941
40
0.249999999999941
40
0.499999999999993
40
0.499999999999993
40
0.750000000000046
40
0.750000000000046
40
0.875000000000023
40
0.875000000000023
40
1
40
1
40
1
40
1
41
1
10
242.769848393795
20
10.3342182142797
30
0
41
1
10
242.753021147894
20
10.3556641505038
30
0
41
1
10
242.729863240674
20
10.3722178612171
30
0
41
1
10
242.678861941878
20
10.3988266240893
30
0
41
1
10
242.650986791109
20
10.4087452900814
30
0
41
1
10
242.564864582155
20
10.4308919132016
30
0
41
1
10
242.503757355884
20
10.43578572874
30
0
41
1
10
242.383845816445
20
10.4294800936118
30
0
41
1
10
242.325243494352
20
10.4183439629892
30
0
41
1
10
242.245992601384
20
10.3874730236101
30
0
41
1
10
242.221022643942
20
10.3747488086159
30
0
41
1
10
242.177343793985
20
10.3432242000829
30
0
41
1
10
242.158480061758
20
10.3245250456239
30
0
41
1
10
242.146663655628
20
10.3015584860693
30
0
0
SPLINE
5
2BF
100
AcDbEntity
8
1
62
256
6
ByLayer
370
18
48
1
60
0
100
AcDbSpline
70
4
71
3
72
8
73
4
40
0
40
0
40
0
40
0
40
1
40
1
40
1
40
1
41
1
10
242.146663655628
20
10.3015584860693
30
0
41
1
10
242.143694002652
20
10.2957866201401
30
0
41
1
10
242.140725196367
20
10.2900158719469
30
0
41
1
10
242.137757198728
20
10.2842461918911
30
0
0
SPLINE
5
2C0
100
AcDbEntity
8
1
62
256
6
ByLayer
370
18
48
1
60
0
100
AcDbSpline
70
4
71
3
72
16
73
12
40
0
40
0
40
0
40
0
40
0.125
40
0.125
40
0.25
40
0.25
40
0.5
40
0.5
40
0.75
40
0.75
40
1
40
1
40
1
40
1
41
1
10
241.472908751193
20
12.3429062087178
30
0
41
1
10
241.460143372283
20
12.3522493817927
30
0
41
1
10
241.449995574837
20
12.3648748085358
30
0
41
1
10
241.437987895067
20
12.3956518940304
30
0
41
1
10
241.436385074698
20
12.4132755575567
30
0
41
1
10
241.441850084709
20
12.4659042269869
30
0
41
1
10
241.458111785199
20
12.5011706824364
30
0
41
1
10
241.499160647608
20
12.5644081053704
30
0
41
1
10
241.524365734755
20
12.5931140543503
30
0
41
1
10
241.579291034525
20
12.6450372529877
30
0
41
1
10
241.609177691206
20
12.6683311083016
30
0
41
1
10
241.640774630125
20
12.6889339315203
30
0
0
SPLINE
5
2C1
100
AcDbEntity
8
1
62
256
6
ByLayer
370
18
48
1
60
0
100
AcDbSpline
70
4
71
3
72
8
73
4
40
0
40
0
40
0
40
0
40
1
40
1
40
1
40
1
41
1
10
242.011463602333
20
12.6940715674911
30
0
41
1
10
242.01501843676
20
12.6886437345785
30
0
41
1
10
242.018574187054
20
12.6832149239064
30
0
41
1
10
242.022130896236
20
12.6777850901248
30
0
0
SPLINE
5
2C2
100
AcDbEntity
8
1
62
256
6
ByLayer
370
18
48
1
60
0
100
AcDbSpline
70
4
71
3
72
16
73
12
40
0
40
0
40
0
40
0
40
0.124999999999994
40
0.124999999999994
40
0.249999999999987
40
0.249999999999987
40
0.499999999999992
40
0.499999999999992
40
0.749999999999996
40
0.749999999999996
40
1
40
1
40
1
40
1
41
1
10
243.321099616261
20
10.6692034351284
30
0
41
1
10
243.335611278037
20
10.6599517808605
30
0
41
1
10
243.34753059127
20
10.6474191953258
30
0
41
1
10
243.362818074785
20
10.6168139970619
30
0
41
1
10
243.365871873861
20
10.5992663761074
30
0
41
1
10
243.363987400281
20
10.5468253546402
30
0
41
1
10
243.349222216785
20
10.511637328323
30
0
41
1
10
243.310289898056
20
10.448510828743
30
0
41
1
10
243.285716910884
20
10.4198380067191
30
0
41
1
10
243.231613221851
20
10.3679578668759
30
0
41
1
10
243.201908231043
20
10.3446735322669
30
0
41
1
10
243.170311292124
20
10.3240707090482
30
0
0
SPLINE
5
2C3
100
AcDbEntity
8
1
62
256
6
ByLayer
370
18
48
1
60
0
100
AcDbSpline
70
4
71
3
72
16
73
12
40
0
40
0
40
0
40
0
40
0.250000000000033
40
0.250000000000033
40
0.500000000000066
40
0.500000000000066
40
0.750000000000099
40
0.750000000000099
40
0.87500000000005
40
0.87500000000005
40
1
40
1
40
1
40
1
41
1
10
241.003793539303
20
11.4330397459753
30
0
41
1
10
241.001812598927
20
11.4708383400571
30
0
41
1
10
241.002963676329
20
11.5088125964281
30
0
41
1
10
241.012346705512
20
11.5837549146494
30
0
41
1
10
241.020519976257
20
11.6207823852302
30
0
41
1
10
241.046832965692
20
11.6902700664016
30
0
41
1
10
241.065071754901
20
11.7233178015929
30
0
41
1
10
241.103910813756
20
11.7574389301444
30
0
41
1
10
241.118775759771
20
11.7657417406185
30
0
41
1
10
241.149556924767
20
11.7724624049884
30
0
41
1
10
241.165287507758
20
11.7708706117317
30
0
41
1
10
241.179905250713
20
11.765210264679
30
0
0
SPLINE
5
2C4
100
AcDbEntity
8
1
62
256
6
ByLayer
370
18
48
1
60
0
100
AcDbSpline
70
4
71
3
72
8
73
4
40
0
40
0
40
0
40
0
40
1
40
1
40
1
40
1
41
1
10
241.179905250713
20
11.765210264679
30
0
41
1
10
241.186177326168
20
11.7658714093822
30
0
41
1
10
241.192450813957
20
11.7665326888425
30
0
41
1
10
241.198725780142
20
11.7671941093411
30
0
0
SPLINE
5
2C5
100
AcDbEntity
8
1
62
256
6
ByLayer
370
18
48
1
60
0
100
AcDbSpline
70
4
71
3
72
16
73
12
40
0
40
0
40
0
40
0
40
0.250000000000003
40
0.250000000000003
40
0.500000000000006
40
0.500000000000006
40
0.750000000000008
40
0.750000000000008
40
0.875000000000004
40
0.875000000000004
40
1
40
1
40
1
40
1
41
1
10
243.042524051946
20
12.7623965058293
30
0
41
1
10
243.076109114787
20
12.7452054190059
30
0
41
1
10
243.108148597537
20
12.7251161985106
30
0
41
1
10
243.16748702892
20
12.6790643018816
30
0
41
1
10
243.194873542337
20
12.6531275096107
30
0
41
1
10
243.240110420985
20
12.5944681457346
30
0
41
1
10
243.258426327687
20
12.5613708910058
30
0
41
1
10
243.265808635262
20
12.5087981633677
30
0
41
1
10
243.264480497957
20
12.4910231218723
30
0
41
1
10
243.252535449498
20
12.4593489854014
30
0
41
1
10
243.242015684922
20
12.445624463647
30
0
41
1
10
243.228562535347
20
12.4349161247351
30
0
0
SPLINE
5
2C6
100
AcDbEntity
8
1
62
256
6
ByLayer
370
18
48
1
60
0
100
AcDbSpline
70
4
71
3
72
18
73
14
40
0
40
0
40
0
40
0
40
0.124999999999972
40
0.124999999999972
40
0.249999999999943
40
0.249999999999943
40
0.499999999999971
40
0.499999999999971
40
0.749999999999999
40
0.749999999999999
40
0.874999999999999
40
0.874999999999999
40
1
40
1
40
1
40
1
41
1
10
243.559392727005
20
11.8909114216531
30
0
41
1
10
243.531589130092
20
11.8907779303432
30
0
41
1
10
243.504072093343
20
11.8988145898482
30
0
41
1
10
243.451669155478
20
11.9228133914597
30
0
41
1
10
243.426879064885
20
11.9388872732288
30
0
41
1
10
243.357411699812
20
11.9940799239675
30
0
41
1
10
243.317198866256
20
12.040300325128
30
0
41
1
10
243.251794023128
20
12.1416172797242
30
0
41
1
10
243.226864469549
20
12.1960783117975
30
0
41
1
10
243.206136902793
20
12.2802751906221
30
0
41
1
10
243.202099849004
20
12.3087488186922
30
0
41
1
10
243.202680245446
20
12.3644757997478
30
0
41
1
10
243.207168277642
20
12.3921536049511
30
0
41
1
10
243.219394761111
20
12.4165926329859
30
0
0
SPLINE
5
2C7
100
AcDbEntity
8
1
62
256
6
ByLayer
370
18
48
1
60
0
100
AcDbSpline
70
4
71
3
72
18
73
14
40
0
40
0
40
0
40
0
40
0.125000000000002
40
0.125000000000002
40
0.250000000000003
40
0.250000000000003
40
0.500000000000007
40
0.500000000000007
40
0.75000000000001
40
0.75000000000001
40
0.875000000000005
40
0.875000000000005
40
1
40
1
40
1
40
1
41
1
10
241.198725780142
20
11.7671941093411
30
0
41
1
10
241.223672445042
20
11.7698236431188
30
0
41
1
10
241.247777046616
20
11.7805465458476
30
0
41
1
10
241.293187284957
20
11.8096219488999
30
0
41
1
10
241.314401035381
20
11.828076744883
30
0
41
1
10
241.373474289366
20
11.8899070062614
30
0
41
1
10
241.40717564515
20
11.9399207810686
30
0
41
1
10
241.46164993306
20
12.0473676537029
30
0
41
1
10
241.482370281516
20
12.1045893021491
30
0
41
1
10
241.498402399755
20
12.1909575731522
30
0
41
1
10
241.501174891648
20
12.219869573932
30
0
41
1
10
241.498823562792
20
12.275596096194
30
0
41
1
10
241.493858095592
20
12.302490512759
30
0
41
1
10
241.481912552415
20
12.3255350488844
30
0
0
SPLINE
5
2C8
100
AcDbEntity
8
1
62
256
6
ByLayer
370
18
48
1
60
0
100
AcDbSpline
70
4
71
3
72
8
73
4
40
0
40
0
40
0
40
0
40
1
40
1
40
1
40
1
41
1
10
243.58034660126
20
11.8910120651604
30
0
41
1
10
243.573363001565
20
11.8909785093659
30
0
41
1
10
243.566378392258
20
11.8909449614
30
0
41
1
10
243.559392727005
20
11.8909114216531
30
0
0
SPLINE
5
2C9
100
AcDbEntity
8
1
62
256
6
ByLayer
370
18
48
1
60
0
100
AcDbSpline
70
4
71
3
72
18
73
14
40
0
40
0
40
0
40
0
40
0.125
40
0.125
40
0.25
40
0.25
40
0.5
40
0.5
40
0.75
40
0.75
40
0.875
40
0.875
40
1
40
1
40
1
40
1
41
1
10
242.022130896236
20
12.6777850901248
30
0
41
1
10
242.036270897874
20
12.6561983213964
30
0
41
1
10
242.057035614827
20
12.6395191888959
30
0
41
1
10
242.103888842226
20
12.6126930348133
30
0
41
1
10
242.130022667882
20
12.6026831098391
30
0
41
1
10
242.211947408537
20
12.5803165067268
30
0
41
1
10
242.271612538979
20
12.5753471141485
30
0
41
1
10
242.391527719007
20
12.5816529400718
30
0
41
1
10
242.4515671554
20
12.5928643866635
30
0
41
1
10
242.53502420198
20
12.6239557612127
30
0
41
1
10
242.561740339117
20
12.6367714896069
30
0
41
1
10
242.609559976314
20
12.6685131076037
30
0
41
1
10
242.630809640338
20
12.6873373034497
30
0
41
1
10
242.645315634403
20
12.7104448183352
30
0
0
SPLINE
5
2CA
100
AcDbEntity
8
1
62
256
6
ByLayer
370
18
48
1
60
0
100
AcDbSpline
70
4
71
3
72
8
73
4
40
0
40
0
40
0
40
0
40
1
40
1
40
1
40
1
41
1
10
243.59325350989
20
11.2448091950634
30
0
41
1
10
243.600204412797
20
11.2455060399045
30
0
41
1
10
243.6071542664
20
11.2462027661952
30
0
41
1
10
243.614103116741
20
11.2468993791672
30
0
0
SPLINE
5
2CB
100
AcDbEntity
8
1
62
256
6
ByLayer
370
18
48
1
60
0
100
AcDbSpline
70
4
71
3
72
16
73
12
40
0
40
0
40
0
40
0
40
0.124999999999939
40
0.124999999999939
40
0.249999999999879
40
0.249999999999879
40
0.499999999999919
40
0.499999999999919
40
0.74999999999996
40
0.74999999999996
40
1
40
1
40
1
40
1
41
1
10
242.656251168726
20
12.7278634519551
30
0
41
1
10
242.658317321844
20
12.7444160537727
30
0
41
1
10
242.664529443242
20
12.7603432409939
30
0
41
1
10
242.685806558896
20
12.7876324744034
30
0
41
1
10
242.700531849536
20
12.7984814818947
30
0
41
1
10
242.749463981165
20
12.821626343705
30
0
41
1
10
242.788352949528
20
12.8257731108563
30
0
41
1
10
242.86390656228
20
12.822614291876
30
0
41
1
10
242.90141688084
20
12.8153178405584
30
0
41
1
10
242.973863128898
20
12.793857537947
30
0
41
1
10
243.008946622915
20
12.7795836851575
30
0
41
1
10
243.042524051946
20
12.7623965058293
30
0
0
SPLINE
5
2CC
100
AcDbEntity
8
1
62
256
6
ByLayer
370
18
48
1
60
0
100
AcDbSpline
70
4
71
3
72
16
73
12
40
0
40
0
40
0
40
0
40
0.125
40
0.125
40
0.25
40
0.25
40
0.5
40
0.5
40
0.75
40
0.75
40
1
40
1
40
1
40
1
41
1
10
242.137757198728
20
10.2842461918911
30
0
41
1
10
242.137437328475
20
10.2677851088805
30
0
41
1
10
242.132996722865
20
10.2519507628677
30
0
41
1
10
242.114999410956
20
10.2248334166889
30
0
41
1
10
242.101725099023
20
10.2140604517695
30
0
41
1
10
242.056373503825
20
10.1911032379221
30
0
41
1
10
242.018981052456
20
10.1870348999031
30
0
41
1
10
241.945543983384
20
10.1903046422375
30
0
41
1
10
241.908665764799
20
10.1976342205111
30
0
41
1
10
241.837041127478
20
10.2191375819165
30
0
41
1
10
241.802139299334
20
10.2334209554111
30
0
41
1
10
241.768561870303
20
10.2506081347393
30
0
0
SPLINE
5
2CD
100
AcDbEntity
8
1
62
256
6
ByLayer
370
18
48
1
60
0
100
AcDbSpline
70
4
71
3
72
8
73
4
40
0
40
0
40
0
40
0
40
1
40
1
40
1
40
1
41
1
10
241.565445832108
20
10.5771935191111
30
0
41
1
10
241.567824685692
20
10.5832647625923
30
0
41
1
10
241.57020424028
20
10.5893371293095
30
0
41
1
10
241.572584528921
20
10.5954106714186
30
0
0
SPLINE
5
2CE
100
AcDbEntity
8
1
62
256
6
ByLayer
370
18
48
1
60
0
100
AcDbSpline
70
4
71
3
72
8
73
4
40
0
40
0
40
0
40
0
40
1
40
1
40
1
40
1
41
1
10
241.232586563027
20
11.1210918827514
30
0
41
1
10
241.226276834495
20
11.121093767347
30
0
41
1
10
241.219968591004
20
11.1210956662114
30
0
41
1
10
241.213661766194
20
11.1210975786858
30
0
0
SPLINE
5
2CF
100
AcDbEntity
8
1
62
256
6
ByLayer
370
18
48
1
60
0
100
AcDbSpline
70
4
71
3
72
8
73
4
40
0
40
0
40
0
40
0
40
1
40
1
40
1
40
1
41
1
10
241.481912552415
20
12.3255350488844
30
0
41
1
10
241.47891044522
20
12.3313265115804
30
0
41
1
10
241.47590919092
20
12.3371168820532
30
0
41
1
10
241.472908751193
20
12.3429062087178
30
0
0
SPLINE
5
2D0
100
AcDbEntity
8
1
62
256
6
ByLayer
370
18
48
1
60
0
100
AcDbSpline
70
4
71
3
72
16
73
12
40
0
40
0
40
0
40
0
40
0.250000000000003
40
0.250000000000003
40
0.500000000000005
40
0.500000000000005
40
0.750000000000008
40
0.750000000000008
40
0.875000000000004
40
0.875000000000004
40
1
40
1
40
1
40
1
41
1
10
241.768561870303
20
10.2506081347393
30
0
41
1
10
241.734976807462
20
10.2677992215626
30
0
41
1
10
241.702755441546
20
10.2878789099652
30
0
41
1
10
241.642592361089
20
10.3338875885674
30
0
41
1
10
241.614572730032
20
10.3597912005488
30
0
41
1
10
241.567219456417
20
10.4183396488647
30
0
41
1
10
241.547431810272
20
10.4513597729975
30
0
41
1
10
241.536422829971
20
10.5037424347719
30
0
41
1
10
241.536291549945
20
10.5214409914459
30
0
41
1
10
241.544988670172
20
10.5529449112109
30
0
41
1
10
241.553737415012
20
10.5665766177539
30
0
41
1
10
241.565445832108
20
10.5771935191111
30
0
0
SPLINE
5
2D1
100
AcDbEntity
8
1
62
256
6
ByLayer
370
18
48
1
60
0
100
AcDbSpline
70
4
71
3
72
8
73
4
40
0
40
0
40
0
40
0
40
1
40
1
40
1
40
1
41
1
10
243.228562535347
20
12.4349161247351
30
0
41
1
10
243.225506906876
20
12.4288094129851
30
0
41
1
10
243.222450986474
20
12.4227015994375
30
0
41
1
10
243.219394761111
20
12.4165926329859
30
0
0
SPLINE
5
2D2
100
AcDbEntity
8
SK1
62
256
6
ByLayer
370
13
48
1
60
0
100
AcDbSpline
70
4
71
3
72
70
73
66
40
0
40
0
40
0
40
0
40
0.015625
40
0.015625
40
0.0312500000000001
40
0.0312500000000001
40
0.0468750000000001
40
0.0468750000000001
40
0.0625000000000002
40
0.0625000000000002
40
0.0781250000000002
40
0.0781250000000002
40
0.0937500000000002
40
0.0937500000000002
40
0.125
40
0.125
40
0.140625
40
0.140625
40
0.15625
40
0.15625
40
0.1875
40
0.1875
40
0.25
40
0.25
40
0.28125
40
0.28125
40
0.3125
40
0.3125
40
0.375
40
0.375
40
0.4375
40
0.4375
40
0.5
40
0.5
40
0.5625
40
0.5625
40
0.59375
40
0.59375
40
0.625
40
0.625
40
0.6875
40
0.6875
40
0.75
40
0.75
40
0.78125
40
0.78125
40
0.8125
40
0.8125
40
0.84375
40
0.84375
40
0.875
40
0.875
40
0.90625
40
0.90625
40
0.921875
40
0.921875
40
0.9375
40
0.9375
40
0.953125
40
0.953125
40
0.96875
40
0.96875
40
0.984375
40
0.984375
40
1
40
1
40
1
40
1
41
1
10
-6.50000000009538
20
9.10261500888618
30
0
41
1
10
-6.38737485512922
20
9.1026150088932
30
0
41
1
10
-6.27721440025223
20
9.09029369099659
30
0
41
1
10
-6.0613636277516
20
9.04323422380682
30
0
41
1
10
-5.95503984638167
20
9.0079756276379
30
0
41
1
10
-5.7551214099729
20
8.92022913512542
30
0
41
1
10
-5.66004837762688
20
8.86741358852154
30
0
41
1
10
-5.47992014745202
20
8.74769988825136
30
0
41
1
10
-5.39641097128508
20
8.68193245792781
30
0
41
1
10
-5.23955455947049
20
8.54101721258675
30
0
41
1
10
-5.16623380692405
20
8.4658464043282
30
0
41
1
10
-5.02798749993248
20
8.30754690558993
30
0
41
1
10
-4.96306756616258
20
8.22430232171715
30
0
41
1
10
-4.78227303428737
20
7.96913620185182
30
0
41
1
10
-4.67861785228318
20
7.79021273110939
30
0
41
1
10
-4.54045696768523
20
7.51196302988765
30
0
41
1
10
-4.49735015796675
20
7.4175428463376
30
0
41
1
10
-4.41619750727808
20
7.22570350524146
30
0
41
1
10
-4.37807582127729
20
7.12805793071107
30
0
41
1
10
-4.27101040197245
20
6.8329347652097
30
0
41
1
10
-4.20926968038492
20
6.63342457544303
30
0
41
1
10
-4.0452314228167
20
6.02794589486371
30
0
41
1
10
-3.96376841865315
20
5.61509125673697
30
0
41
1
10
-3.86635044633076
20
4.98491154714242
30
0
41
1
10
-3.83813392781771
20
4.77301296087188
30
0
41
1
10
-3.78843459914702
20
4.34583232970297
30
0
41
1
10
-3.76694967433093
20
4.13034331603052
30
0
41
1
10
-3.71092724378032
20
3.48419995481069
30
0
41
1
10
-3.68445814337734
20
3.05221472734811
30
0
41
1
10
-3.64489223558412
20
2.18603867811205
30
0
41
1
10
-3.63184735027673
20
1.75184658678651
30
0
41
1
10
-3.61484709816499
20
0.88137274435141
30
0
41
1
10
-3.61090691638442
20
0.445090670727808
30
0
41
1
10
-3.61081183099837
20
-0.429544754978423
30
0
41
1
10
-3.61465206561212
20
-0.867897875286985
30
0
41
1
10
-3.62742391003748
20
-1.52704012585428
30
0
41
1
10
-3.6328856781081
20
-1.74736793829624
30
0
41
1
10
-3.64660759107323
20
-2.18617039208055
30
0
41
1
10
-3.65486548614162
20
-2.40477290161152
30
0
41
1
10
-3.68476512689929
20
-3.05812562975754
30
0
41
1
10
-3.71139513941525
20
-3.49043386677977
30
0
41
1
10
-3.78588921301478
20
-4.3479397579712
30
0
41
1
10
-3.83363504443875
20
-4.77314633439448
30
0
41
1
10
-3.93125050047647
20
-5.40480591630586
30
0
41
1
10
-3.96825658176709
20
-5.6147159399498
30
0
41
1
10
-4.05334160699206
20
-6.03027097921884
30
0
41
1
10
-4.10133221047873
20
-6.2356468686169
30
0
41
1
10
-4.21147783132868
20
-6.64092561009161
30
0
41
1
10
-4.27380622007676
20
-6.84139160095842
30
0
41
1
10
-4.41651374865074
20
-7.23323112675126
30
0
41
1
10
-4.49649452537749
20
-7.42374327337623
30
0
41
1
10
-4.67945843004416
20
-7.79158187670348
30
0
41
1
10
-4.7823032521182
20
-7.9689701957796
30
0
41
1
10
-4.96134406177452
20
-8.2219726784019
30
0
41
1
10
-5.02519408327927
20
-8.30410886087677
30
0
41
1
10
-5.16353530738408
20
-8.46298659207028
30
0
41
1
10
-5.2378095715431
20
-8.53934452778824
30
0
41
1
10
-5.3955540056559
20
-8.68126590509502
30
0
41
1
10
-5.47938183829518
20
-8.74730497974389
30
0
41
1
10
-5.65962274296652
20
-8.86716765928176
30
0
41
1
10
-5.75457229472995
20
-8.91989407179133
30
0
41
1
10
-5.95304597128592
20
-9.00719334610281
30
0
41
1
10
-6.05703345759315
20
-9.04208374011839
30
0
41
1
10
-6.27602107391631
20
-9.09023480877454
30
0
41
1
10
-6.38714501013285
20
-9.1026150088932
30
0
41
1
10
-6.5000000000954
20
-9.10261500888618
30
0
0
SPLINE
5
2D3
100
AcDbEntity
8
SK1
62
256
6
ByLayer
370
13
48
1
60
0
100
AcDbSpline
70
4
71
3
72
24
73
20
40
0
40
0
40
0
40
0
40
0.125000000000002
40
0.125000000000002
40
0.187500000000003
40
0.187500000000003
40
0.250000000000003
40
0.250000000000003
40
0.312500000000004
40
0.312500000000004
40
0.375000000000005
40
0.375000000000005
40
0.500000000000005
40
0.500000000000005
40
0.625000000000004
40
0.625000000000004
40
0.750000000000004
40
0.750000000000004
40
1
40
1
40
1
40
1
41
1
10
-67.6338131992802
20
-8.29060335030417
30
0
41
1
10
-67.6747713759278
20
-8.25716048388816
30
0
41
1
10
-67.7199880974509
20
-8.22886033900863
30
0
41
1
10
-67.793880519716
20
-8.2008880294116
30
0
41
1
10
-67.8199292648204
20
-8.19393287644073
30
0
41
1
10
-67.8721249133958
20
-8.18635061520672
30
0
41
1
10
-67.8986618314253
20
-8.18559388534683
30
0
41
1
10
-67.9517518593081
20
-8.19047370174488
30
0
41
1
10
-67.9775498144819
20
-8.19599853062289
30
0
41
1
10
-68.0278488578996
20
-8.21240349880759
30
0
41
1
10
-68.0523670478266
20
-8.22336101159533
30
0
41
1
10
-68.1215174396824
20
-8.26159722859708
30
0
41
1
10
-68.1634030389204
20
-8.29487671382614
30
0
41
1
10
-68.2387215873517
20
-8.36859765624112
30
0
41
1
10
-68.2722140942872
20
-8.40893158874499
30
0
41
1
10
-68.3337486824602
20
-8.49414298628952
30
0
41
1
10
-68.3617871625299
20
-8.53918182565536
30
0
41
1
10
-68.4385883635459
20
-8.67748763500578
30
0
41
1
10
-68.4807188690209
20
-8.77475057942746
30
0
41
1
10
-68.5162221138916
20
-8.8730422260673
30
0
0
SPLINE
5
2D4
100
AcDbEntity
8
SK1
62
256
6
ByLayer
370
13
48
1
60
0
100
AcDbSpline
70
4
71
3
72
8
73
4
40
0
40
0
40
0
40
0
40
1
40
1
40
1
40
1
41
1
10
-69
20
-9.10261500888609
30
0
41
1
10
-69.3690731351762
20
-8.29186047254925
30
0
41
1
10
-69.7058190647956
20
-7.46686272672801
30
0
41
1
10
-70
20
-6.62311105146205
30
0
0
SPLINE
5
2D5
100
AcDbEntity
8
SK1
62
256
6
ByLayer
370
13
48
1
60
0
100
AcDbSpline
70
4
71
3
72
8
73
4
40
0
40
0
40
0
40
0
40
1
40
1
40
1
40
1
41
1
10
-68.5999993841625
20
9.10261500888626
30
0
41
1
10
-68.5718317815599
20
9.02620370178852
30
0
41
1
10
-68.5439040453543
20
8.94968036535744
30
0
41
1
10
-68.5162221139001
20
8.8730422260912
30
0
0
SPLINE
5
2D6
100
AcDbEntity
8
1
62
256
6
ByLayer
370
13
48
1
60
0
100
AcDbSpline
70
4
71
3
72
22
73
18
40
0
40
0
40
0
40
0
40
0.250000000000001
40
0.250000000000001
40
0.500000000000001
40
0.500000000000001
40
0.625000000000001
40
0.625000000000001
40
0.656250000000001
40
0.656250000000001
40
0.687500000000001
40
0.687500000000001
40
0.750000000000001
40
0.750000000000001
40
0.875
40
0.875
40
1
40
1
40
1
40
1
41
1
10
12.8692455164991
20
-22.5673983372192
30
0
41
1
10
14.0259226646231
20
-22.2599143670729
30
0
41
1
10
15.1671881801746
20
-21.9170359253637
30
0
41
1
10
17.4186940469786
20
-21.1600264157
30
0
41
1
10
18.5291293811841
20
-20.7458280127249
30
0
41
1
10
20.1702211122313
20
-20.0698014545526
30
0
41
1
10
20.7129725121411
20
-19.8354020257835
30
0
41
1
10
21.3859479936136
20
-19.5308382087388
30
0
41
1
10
21.5202697358625
20
-19.4693468682164
30
0
41
1
10
21.788362949503
20
-19.3451994920475
30
0
41
1
10
21.921953084747
20
-19.282159643004
30
0
41
1
10
22.3230817501354
20
-19.0937983829412
30
0
41
1
10
22.5934970614091
20
-18.9745659241369
30
0
41
1
10
23.4137330542538
20
-18.6358967731406
30
0
41
1
10
23.9725179458134
20
-18.4354335946817
30
0
41
1
10
25.1146396726381
20
-18.0864735171861
30
0
41
1
10
25.6979734427816
20
-17.9379701305586
30
0
41
1
10
26.2943292692446
20
-17.8170290349444
30
0
0
SPLINE
5
2D7
100
AcDbEntity
8
1
62
256
6
ByLayer
370
13
48
1
60
0
100
AcDbSpline
70
4
71
3
72
8
73
4
40
0
40
0
40
0
40
0
40
1
40
1
40
1
40
1
41
1
10
233.412560194403
20
-17.4521386432811
30
0
41
1
10
232.412560194252
20
-17.3924912389393
30
0
41
1
10
231.412560194251
20
-17.3328438321238
30
0
41
1
10
230.412560194403
20
-17.273196422757
30
0
0
SPLINE
5
2D8
100
AcDbEntity
8
1
62
256
6
ByLayer
370
13
48
1
60
0
100
AcDbSpline
70
4
71
3
72
16
73
12
40
0
40
0
40
0
40
0
40
0.25
40
0.25
40
0.5
40
0.5
40
0.75
40
0.75
40
0.875
40
0.875
40
1
40
1
40
1
40
1
41
1
10
226.672239821241
20
6.45367405559387
30
0
41
1
10
226.270720773156
20
6.52156836296868
30
0
41
1
10
225.866727114169
20
6.57982853384098
30
0
41
1
10
225.052800597038
20
6.66653291119906
30
0
41
1
10
224.642857463177
20
6.69473231665444
30
0
41
1
10
223.815727992138
20
6.71440306962612
30
0
41
1
10
223.39851617334
20
6.70568228070258
30
0
41
1
10
222.766468567875
20
6.66859310642116
30
0
41
1
10
222.554602495967
20
6.65231770246527
30
0
41
1
10
222.131660088102
20
6.61413475507754
30
0
41
1
10
221.920219011348
20
6.59222233784215
30
0
41
1
10
221.708688186506
20
6.56869711434791
30
0
0
SPLINE
5
2D9
100
AcDbEntity
8
1
62
256
6
ByLayer
370
13
48
1
60
0
100
AcDbSpline
70
4
71
3
72
16
73
12
40
0
40
0
40
0
40
0
40
0.249999999999999
40
0.249999999999999
40
0.499999999999998
40
0.499999999999998
40
0.624999999999998
40
0.624999999999998
40
0.749999999999999
40
0.749999999999999
40
1
40
1
40
1
40
1
41
1
10
231.083914879998
20
5.91661684137131
30
0
41
1
10
231.054822081687
20
5.96834647527578
30
0
41
1
10
231.030090714516
20
6.02686466176974
30
0
41
1
10
230.98949910711
20
6.15891300917136
30
0
41
1
10
230.974243033907
20
6.23075913367737
30
0
41
1
10
230.959705734812
20
6.34508381729387
30
0
41
1
10
230.956232635762
20
6.38441607869771
30
0
41
1
10
230.952343260813
20
6.46572692896578
30
0
41
1
10
230.951964834041
20
6.50765548343193
30
0
41
1
10
230.955931610868
20
6.63333374360104
30
0
41
1
10
230.965118888769
20
6.71831817201652
30
0
41
1
10
230.982904884015
20
6.80451222242951
30
0
0
SPLINE
5
2DA
100
AcDbEntity
8
1
62
256
6
ByLayer
370
13
48
1
60
0
100
AcDbSpline
70
4
71
3
72
23
73
19
40
0
40
0
40
0
40
0
40
0.124999999999974
40
0.124999999999974
40
0.249999999999947
40
0.249999999999947
40
0.312499999999952
40
0.312499999999952
40
0.374999999999956
40
0.437499999999961
40
0.437499999999961
40
0.499999999999965
40
0.499999999999965
40
0.624999999999974
40
0.624999999999974
40
0.749999999999983
40
0.749999999999983
40
1
40
1
40
1
40
1
41
1
10
230.911555622387
20
5.65553354441411
30
0
41
1
10
230.87061829504
20
5.59060140736881
30
0
41
1
10
230.824186191429
20
5.5282528961672
30
0
41
1
10
230.721247539694
20
5.41397168764877
30
0
41
1
10
230.66529073825
20
5.36244655634488
30
0
41
1
10
230.573537943051
20
5.29516706502022
30
0
41
1
10
230.541402000542
20
5.27430967870453
30
0
41
1
10
230.475979551737
20
5.23736771982075
30
0
41
1
10
230.409202351799
20
5.20497282699043
30
0
41
1
10
230.339718663448
20
5.18185382243749
30
0
41
1
10
230.268855081269
20
5.16353729702851
30
0
41
1
10
230.232447091081
20
5.15676819568949
30
0
41
1
10
230.124086237852
20
5.1442195159579
30
0
41
1
10
230.052574267773
20
5.14589230473351
30
0
41
1
10
229.910726045935
20
5.16570167327413
30
0
41
1
10
229.842023742963
20
5.18361024096217
30
0
41
1
10
229.642693224423
20
5.25277496661389
30
0
41
1
10
229.516995705707
20
5.31953547536483
30
0
41
1
10
229.394033037318
20
5.39216927614774
30
0
0
SPLINE
5
2DB
100
AcDbEntity
8
1
62
256
6
ByLayer
370
13
48
1
60
0
100
AcDbSpline
70
4
71
3
72
10
73
6
40
0
40
0
40
0
40
0
40
0.5
40
0.5
40
1
40
1
40
1
40
1
41
1
10
244.838371678002
20
6.51494895010578
30
0
41
1
10
244.865504477454
20
6.52817827150236
30
0
41
1
10
244.895138014115
20
6.53915501874999
30
0
41
1
10
244.956545785678
20
6.55495272009193
30
0
41
1
10
244.988306093829
20
6.55987668896373
30
0
41
1
10
245.021123485517
20
6.56161439478004
30
0
0
SPLINE
5
2DC
100
AcDbEntity
8
1
62
256
6
ByLayer
370
13
48
1
60
0
100
AcDbSpline
70
4
71
1
72
4
73
2
40
0
40
0
40
1
40
1
41
1
10
30.0100000005726
20
-16.8970184920914
30
0
41
1
10
30.0099999994274
20
-16.9108545293649
30
0
0
SPLINE
5
2DD
100
AcDbEntity
8
1
62
256
6
ByLayer
370
13
48
1
60
0
100
AcDbSpline
70
4
71
3
72
14
73
10
40
0
40
0
40
0
40
0
40
0.5
40
0.5
40
0.624999999999995
40
0.624999999999995
40
0.749999999999991
40
0.749999999999991
40
1
40
1
40
1
40
1
41
1
10
226.193362727555
20
1.26191097411601
30
0
41
1
10
226.832830022334
20
0.876690555269874
30
0
41
1
10
227.50589298126
20
0.574820009188329
30
0
41
1
10
228.391017452927
20
0.306868361192755
30
0
41
1
10
228.57025729545
20
0.258808857804269
30
0
41
1
10
228.93333098026
20
0.174173811305707
30
0
41
1
10
229.116875172845
20
0.137706827306346
30
0
41
1
10
229.668292865164
20
0.0471061604746694
30
0
41
1
10
230.038883044397
20
0.0112050765109473
30
0
41
1
10
230.412560194403
20
0.0006990967164313
30
0
0
SPLINE
5
2DE
100
AcDbEntity
8
1
62
256
6
ByLayer
370
13
48
1
60
0
100
AcDbSpline
70
4
71
3
72
40
73
36
40
0
40
0
40
0
40
0
40
0.125
40
0.125
40
0.1875
40
0.1875
40
0.25
40
0.25
40
0.375
40
0.375
40
0.40625
40
0.40625
40
0.4375
40
0.4375
40
0.5
40
0.5
40
0.53125
40
0.53125
40
0.5625
40
0.5625
40
0.625
40
0.625
40
0.65625
40
0.65625
40
0.6875
40
0.6875
40
0.75
40
0.75
40
0.78125
40
0.78125
40
0.8125
40
0.8125
40
0.875
40
0.875
40
1
40
1
40
1
40
1
41
1
10
5.29909999999997
20
-4.94974746830587
30
0
41
1
10
5.70959073755709
20
-4.66127919719381
30
0
41
1
10
6.09305234988668
20
-4.34361691037199
30
0
41
1
10
6.61998423908665
20
-3.81499753679043
30
0
41
1
10
6.78752754513297
20
-3.6300416019742
30
0
41
1
10
7.10404965868014
20
-3.24007831530116
30
0
41
1
10
7.25078680101107
20
-3.03769479825741
30
0
41
1
10
7.65084962479017
20
-2.41114103294279
30
0
41
1
10
7.8661813107866
20
-1.96624156576806
30
0
41
1
10
8.05502924052789
20
-1.36760063789256
30
0
41
1
10
8.08869368165537
20
-1.24560196900723
30
0
41
1
10
8.14628762405707
20
-1.00163774118113
30
0
41
1
10
8.17040670732762
20
-0.879126079555419
30
0
41
1
10
8.22864999798121
20
-0.509993361919555
30
0
41
1
10
8.24870139837792
20
-0.261779231671397
30
0
41
1
10
8.24958714654005
20
0.113846492184564
30
0
41
1
10
8.24496108151807
20
0.24011768479258
30
0
41
1
10
8.22588295520951
20
0.491195144364497
30
0
41
1
10
8.21150689665257
20
0.615631930618349
30
0
41
1
10
8.15443834576202
20
0.985766452929965
30
0
41
1
10
8.09784498882384
20
1.22829735367651
30
0
41
1
10
7.98659921925403
20
1.5860894545591
30
0
41
1
10
7.94511426435601
20
1.70435040840084
30
0
41
1
10
7.85346770861447
20
1.93889563984553
30
0
41
1
10
7.80349170154686
20
2.05464014961063
30
0
41
1
10
7.64310091562643
20
2.39459103528191
30
0
41
1
10
7.52178001463307
20
2.61280238682858
30
0
41
1
10
7.32046202451487
20
2.9288044556483
30
0
41
1
10
7.25012242282833
20
3.03224631382969
30
0
41
1
10
7.1032410400646
20
3.23550078501879
30
0
41
1
10
7.026484284313
20
3.33556903293024
30
0
41
1
10
6.78908949188681
20
3.62825872573839
30
0
41
1
10
6.62149007669639
20
3.81339680205122
30
0
41
1
10
6.0942175116478
20
4.34262710077326
30
0
41
1
10
5.71029963677034
20
4.66078102534306
30
0
41
1
10
5.29909999999998
20
4.94974746830584
30
0
0
SPLINE
5
2DF
100
AcDbEntity
8
1
62
256
6
ByLayer
370
13
48
1
60
0
100
AcDbSpline
70
4
71
3
72
8
73
4
40
0
40
0
40
0
40
0
40
1
40
1
40
1
40
1
41
1
10
227.683398543363
20
6.24487895827988
30
0
41
1
10
227.700857413104
20
6.29994885113706
30
0
41
1
10
227.717921266858
20
6.35509894797448
30
0
41
1
10
227.73465199096
20
6.41031668340082
30
0
0
SPLINE
5
2E0
100
AcDbEntity
8
1
62
256
6
ByLayer
370
13
48
1
60
0
100
AcDbSpline
70
4
71
3
72
8
73
4
40
0
40
0
40
0
40
0
40
1
40
1
40
1
40
1
41
1
10
225.919807867124
20
1.93039345694865
30
0
41
1
10
225.659741714209
20
2.05325464794711
30
0
41
1
10
225.399870339322
20
2.17693231633464
30
0
41
1
10
225.140189474285
20
2.30140857060908
30
0
0
SPLINE
5
2E1
100
AcDbEntity
8
1
62
256
6
ByLayer
370
13
48
1
60
0
100
AcDbSpline
70
4
71
3
72
10
73
6
40
0
40
0
40
0
40
0
40
0.5
40
0.5
40
1
40
1
40
1
40
1
41
1
10
237.727177139361
20
5.88692325845904
30
0
41
1
10
237.784991364589
20
5.88263577569126
30
0
41
1
10
237.84249371999
20
5.87526518022861
30
0
41
1
10
237.95495763161
20
5.8564930068251
30
0
41
1
10
238.007827418836
20
5.84550243011128
30
0
41
1
10
238.056798085558
20
5.83554883681111
30
0
0
SPLINE
5
2E2
100
AcDbEntity
8
1
62
256
6
ByLayer
370
13
48
1
60
0
100
AcDbSpline
70
4
71
3
72
8
73
4
40
0
40
0
40
0
40
0
40
1
40
1
40
1
40
1
41
1
10
228.353015921608
20
8.51706169866347
30
0
41
1
10
228.479852566027
20
9.73697560947275
30
0
41
1
10
228.602524677182
20
10.954925603195
30
0
41
1
10
228.719871763659
20
12.1713635986699
30
0
0
SPLINE
5
2E3
100
AcDbEntity
8
1
62
256
6
ByLayer
370
13
48
1
60
0
100
AcDbSpline
70
4
71
3
72
8
73
4
40
0
40
0
40
0
40
0
40
1
40
1
40
1
40
1
41
1
10
30.01
20
-16.9108545293949
30
0
41
1
10
29.7387174859795
20
-16.9107894946501
30
0
41
1
10
29.4674349720704
20
-16.910724119278
30
0
41
1
10
29.1961524581057
20
-16.9106589138699
30
0
0
SPLINE
5
2E4
100
AcDbEntity
8
1
62
256
6
ByLayer
370
13
48
1
60
0
100
AcDbSpline
70
4
71
3
72
18
73
14
40
0
40
0
40
0
40
0
40
0.249999999999926
40
0.249999999999926
40
0.374999999999946
40
0.374999999999946
40
0.499999999999966
40
0.499999999999966
40
0.750000000000006
40
0.750000000000006
40
0.875000000000003
40
0.875000000000003
40
1
40
1
40
1
40
1
41
1
10
246.512931960637
20
6.63979680046089
30
0
41
1
10
246.570308303245
20
6.64280376716033
30
0
41
1
10
246.628065127921
20
6.63562918758373
30
0
41
1
10
246.709363428525
20
6.61225302979278
30
0
41
1
10
246.735245900464
20
6.60248182263419
30
0
41
1
10
246.783393433411
20
6.58053740632542
30
0
41
1
10
246.806047914976
20
6.56814613556466
30
0
41
1
10
246.866036333461
20
6.53122194606291
30
0
41
1
10
246.896856556676
20
6.50635398889628
30
0
41
1
10
246.929067329257
20
6.48071429610241
30
0
41
1
10
246.937739973856
20
6.47388876328097
30
0
41
1
10
246.950822972479
20
6.46495230048893
30
0
41
1
10
246.955380098791
20
6.46271005562983
30
0
41
1
10
246.958040787423
20
6.46284949641239
30
0
0
SPLINE
5
2E5
100
AcDbEntity
8
1
62
256
6
ByLayer
370
13
48
1
60
0
100
AcDbSpline
70
4
71
3
72
18
73
14
40
0
40
0
40
0
40
0
40
0.321770762944282
40
0.321770762944282
40
0.482656144416423
40
0.482656144416423
40
0.563098835152493
40
0.563098835152493
40
0.643541525888563
40
0.643541525888563
40
0.965312288832845
40
0.965312288832845
40
1
40
1
40
1
40
1
41
1
10
221.708688186506
20
6.56869711434868
30
0
41
1
10
221.230591931257
20
6.51552603980264
30
0
41
1
10
220.757786411594
20
6.44466247782319
30
0
41
1
10
220.057423411433
20
6.31101891856648
30
0
41
1
10
219.825450657188
20
6.26188964757671
30
0
41
1
10
219.479935695201
20
6.18088397863235
30
0
41
1
10
219.365172375417
20
6.15266043420917
30
0
41
1
10
219.136514748848
20
6.09364889064165
30
0
41
1
10
219.022602000188
20
6.06284650192146
30
0
41
1
10
218.461072982878
20
5.90371865481509
30
0
41
1
10
218.032576659446
20
5.75943238758583
30
0
41
1
10
217.5873128925
20
5.57594066840838
30
0
41
1
10
217.54423928648
20
5.55780212076132
30
0
41
1
10
217.501528705036
20
5.5394105960365
30
0
0
SPLINE
5
2E6
100
AcDbEntity
8
1
62
256
6
ByLayer
370
13
48
1
60
0
100
AcDbSpline
70
4
71
3
72
8
73
4
40
0
40
0
40
0
40
0
40
1
40
1
40
1
40
1
41
1
10
234.984982986136
20
12.351657656124
30
0
41
1
10
234.971838664414
20
12.3231200048814
30
0
41
1
10
234.9568293175
20
12.2971409836598
30
0
41
1
10
234.940780711297
20
12.2736522154109
30
0
0
SPLINE
5
2E7
100
AcDbEntity
8
1
62
256
6
ByLayer
370
13
48
1
60
0
100
AcDbSpline
70
4
71
3
72
8
73
4
40
0
40
0
40
0
40
0
40
1
40
1
40
1
40
1
41
1
10
30.45
20
-16.8971178034193
30
0
41
1
10
30.3033333327352
20
-16.8970867075891
30
0
41
1
10
30.1566666660248
20
-16.8970536232323
30
0
41
1
10
30.01
20
-16.8970184920913
30
0
0
SPLINE
5
2E8
100
AcDbEntity
8
1
62
256
6
ByLayer
370
13
48
1
60
0
100
AcDbSpline
70
4
71
3
72
8
73
4
40
0
40
0
40
0
40
0
40
1
40
1
40
1
40
1
41
1
10
248.415476188041
20
0.325269437713672
30
0
41
1
10
248.413443501876
20
0.38083735470326
30
0
41
1
10
248.413152359749
20
0.435179939185105
30
0
41
1
10
248.41449223535
20
0.486291051322325
30
0
0
SPLINE
5
2E9
100
AcDbEntity
8
1
62
256
6
ByLayer
370
13
48
1
60
0
100
AcDbSpline
70
4
71
3
72
40
73
36
40
0
40
0
40
0
40
0
40
0.124999999999999
40
0.124999999999999
40
0.187499999999999
40
0.187499999999999
40
0.218749999999999
40
0.218749999999999
40
0.249999999999999
40
0.249999999999999
40
0.374999999999999
40
0.374999999999999
40
0.437499999999999
40
0.437499999999999
40
0.499999999999998
40
0.499999999999998
40
0.624999999999998
40
0.624999999999998
40
0.656249999999998
40
0.656249999999998
40
0.687499999999998
40
0.687499999999998
40
0.749999999999998
40
0.749999999999998
40
0.781249999999999
40
0.781249999999999
40
0.812499999999999
40
0.812499999999999
40
0.874999999999999
40
0.874999999999999
40
0.9375
40
0.9375
40
0.96875
40
0.96875
40
1
40
1
40
1
40
1
41
1
10
12.8714577843415
20
-11.0238824899886
30
0
41
1
10
12.374996435776
20
-11.1365071155844
30
0
41
1
10
11.8879025732523
20
-11.2828329729756
30
0
41
1
10
11.1708813934804
20
-11.5517165822039
30
0
41
1
10
10.9341575328041
20
-11.6496286593593
30
0
41
1
10
10.5825682647904
20
-11.809271289985
30
0
41
1
10
10.4659555062515
20
-11.8646181695634
30
0
41
1
10
10.2339212291492
20
-11.9796825778246
30
0
41
1
10
10.11821652871
20
-12.0395588442305
30
0
41
1
10
9.54872228275183
20
-12.3469324440688
30
0
41
1
10
9.11847788485267
20
-12.6196998592594
30
0
41
1
10
8.5126312404816
20
-13.0701497123512
30
0
41
1
10
8.3172944102742
20
-13.2272058191682
30
0
41
1
10
7.94074730766266
20
-13.5559504293137
30
0
41
1
10
7.75866680696058
20
-13.7287202748829
30
0
41
1
10
7.24938313004981
20
-14.2573316779162
30
0
41
1
10
6.95437788827041
20
-14.6260584394716
30
0
41
1
10
6.64849195681157
20
-15.1091129386931
30
0
41
1
10
6.59044728100214
20
-15.2070238353793
30
0
41
1
10
6.48279644632571
20
-15.4020287681819
30
0
41
1
10
6.43299656284704
20
-15.4994976968326
30
0
41
1
10
6.29555751149242
20
-15.7917598880217
30
0
41
1
10
6.21981034089478
20
-15.9864051182807
30
0
41
1
10
6.1307050574753
20
-16.2779631203583
30
0
41
1
10
6.10510545175723
20
-16.3750816407203
30
0
41
1
10
6.06244652229724
20
-16.5691745838736
30
0
41
1
10
6.04534519681027
20
-16.6664903123905
30
0
41
1
10
6.00791035648363
20
-16.9558426501124
30
0
41
1
10
6.00162107787824
20
-17.1429000790276
30
0
41
1
10
6.02578890346172
20
-17.5056320088201
30
0
41
1
10
6.05604772484152
20
-17.6813366629946
30
0
41
1
10
6.12884894798198
20
-17.9363790430941
30
0
41
1
10
6.15782080317217
20
-18.0202126324529
30
0
41
1
10
6.22449529628366
20
-18.1832802734614
30
0
41
1
10
6.26219168953925
20
-18.2626136985086
30
0
41
1
10
6.30423081416262
20
-18.3397773811844
30
0
0
SPLINE
5
2EA
100
AcDbEntity
8
1
62
256
6
ByLayer
370
13
48
1
60
0
100
AcDbSpline
70
4
71
3
72
64
73
60
40
0
40
0
40
0
40
0
40
0.014407461488461
40
0.014407461488461
40
0.0323273258250352
40
0.0323273258250352
40
0.0502471901616096
40
0.0502471901616096
40
0.0681670544981839
40
0.0681670544981839
40
0.0860869188347582
40
0.0860869188347582
40
0.104006783171332
40
0.104006783171332
40
0.121926647507907
40
0.121926647507907
40
0.139846511844481
40
0.139846511844481
40
0.157766376181055
40
0.157766376181055
40
0.17568624051763
40
0.17568624051763
40
0.193606104854204
40
0.193606104854204
40
0.211525969190778
40
0.211525969190778
40
0.247365697863927
40
0.247365697863927
40
0.265285562200501
40
0.265285562200501
40
0.274245494368788
40
0.274245494368788
40
0.283205426537075
40
0.283205426537075
40
0.319045155210221
40
0.319045155210221
40
0.336965019546794
40
0.336965019546794
40
0.354884883883368
40
0.354884883883368
40
0.390724612556514
40
0.390724612556514
40
0.42656434122966
40
0.42656434122966
40
0.462404069902806
40
0.462404069902806
40
0.498243798575952
40
0.498243798575952
40
0.534083527249099
40
0.534083527249099
40
0.569923255922245
40
0.569923255922245
40
0.641602713268537
40
0.641602713268537
40
0.71328217061483
40
0.71328217061483
40
0.856641085307415
40
0.856641085307415
40
1
40
1
40
1
40
1
41
1
10
198.303612254763
20
-14.2997630176478
30
0
41
1
10
197.55657684924
20
-14.4728266309878
30
0
41
1
10
196.809817523248
20
-14.6380097937891
30
0
41
1
10
195.133475781812
20
-14.9884067524936
30
0
41
1
10
194.203368305809
20
-15.1686743137103
30
0
41
1
10
192.33567308445
20
-15.5001269531451
30
0
41
1
10
191.398019726693
20
-15.6527083985364
30
0
41
1
10
189.51157104221
20
-15.9272560405296
30
0
41
1
10
188.562104686332
20
-16.049008004125
30
0
41
1
10
186.656458710216
20
-16.2594095288918
30
0
41
1
10
185.699707225176
20
-16.3494389117626
30
0
41
1
10
183.778553567019
20
-16.5074020077771
30
0
41
1
10
182.814219715175
20
-16.5749181418465
30
0
41
1
10
180.878709622399
20
-16.6915554376754
30
0
41
1
10
179.907531194176
20
-16.7405846506712
30
0
41
1
10
177.958456361172
20
-16.8209190310929
30
0
41
1
10
176.980587245
20
-16.8517843878432
30
0
41
1
10
175.017837264359
20
-16.9001100598804
30
0
41
1
10
174.03285493452
20
-16.917848136629
30
0
41
1
10
172.055526007539
20
-16.9449029298523
30
0
41
1
10
171.064419709854
20
-16.9545072984355
30
0
41
1
10
169.076996669462
20
-16.9668830941018
30
0
41
1
10
168.080677832761
20
-16.9694491337614
30
0
41
1
10
166.082658076565
20
-16.9692589110893
30
0
41
1
10
165.080560950707
20
-16.9665142730977
30
0
41
1
10
162.069485556986
20
-16.9531002690118
30
0
41
1
10
160.055795492226
20
-16.9368634136052
30
0
41
1
10
157.025079861519
20
-16.9137971719033
30
0
41
1
10
156.013014469333
20
-16.905678088719
30
0
41
1
10
154.495260916809
20
-16.9007524381266
30
0
41
1
10
153.989281748902
20
-16.900484653835
30
0
41
1
10
152.977211493039
20
-16.9037388115844
30
0
41
1
10
152.471123079877
20
-16.9068220180198
30
0
41
1
10
149.940532097265
20
-16.916560778766
30
0
41
1
10
147.915605915831
20
-16.9041501297023
30
0
41
1
10
144.877962881869
20
-16.8893725161783
30
0
41
1
10
143.865375964676
20
-16.8854751258419
30
0
41
1
10
141.840165091428
20
-16.8817107883361
30
0
41
1
10
140.827532791482
20
-16.8814475133854
30
0
41
1
10
137.789634782139
20
-16.8839157629755
30
0
41
1
10
135.764383883978
20
-16.8900474304445
30
0
41
1
10
131.713878566381
20
-16.90152762735
30
0
41
1
10
129.688622345031
20
-16.9062334093592
30
0
41
1
10
125.638084621119
20
-16.9072960980174
30
0
41
1
10
123.612803725537
20
-16.9048308732559
30
0
41
1
10
119.562246707968
20
-16.898780063769
30
0
41
1
10
117.536968909885
20
-16.8954521216058
30
0
41
1
10
113.486413727124
20
-16.8909020175103
30
0
41
1
10
111.461136327227
20
-16.8895101437444
30
0
41
1
10
107.410580845309
20
-16.8896475411569
30
0
41
1
10
105.385302796743
20
-16.8908311079004
30
0
41
1
10
99.3094679488889
20
-16.8945671590271
30
0
41
1
10
95.2589104899776
20
-16.8980266305667
30
0
41
1
10
87.1577956497978
20
-16.9017423271811
30
0
41
1
10
83.1072386351193
20
-16.9016882362927
30
0
41
1
10
70.9555680045839
20
-16.8991026967544
30
0
41
1
10
62.8544543820181
20
-16.894184867639
30
0
41
1
10
46.6522270010576
20
-16.8932563590991
30
0
41
1
10
38.5511137621889
20
-16.8968329628133
30
0
41
1
10
30.45
20
-16.8971178193851
30
0
0
SPLINE
5
2EB
100
AcDbEntity
8
1
62
256
6
ByLayer
370
13
48
1
60
0
100
AcDbSpline
70
4
71
3
72
14
73
10
40
0
40
0
40
0
40
0
40
0.25
40
0.25
40
0.5
40
0.5
40
0.75
40
0.75
40
1
40
1
40
1
40
1
41
1
10
230.985900952278
20
8.25571768120292
30
0
41
1
10
230.984093238306
20
8.33400124268601
30
0
41
1
10
230.978011527963
20
8.41229034402053
30
0
41
1
10
230.955835667204
20
8.5688815245739
30
0
41
1
10
230.939796434901
20
8.6463423442531
30
0
41
1
10
230.897479482175
20
8.79713225354271
30
0
41
1
10
230.8711547359
20
8.87080728212501
30
0
41
1
10
230.807357725279
20
9.01444616910564
30
0
41
1
10
230.769670124598
20
9.08464115390507
30
0
41
1
10
230.726935751509
20
9.15147113256506
30
0
0
SPLINE
5
2EC
100
AcDbEntity
8
1
62
256
6
ByLayer
370
13
48
1
60
0
100
AcDbSpline
70
4
71
3
72
8
73
4
40
0
40
0
40
0
40
0
40
1
40
1
40
1
40
1
41
1
10
230.91155562239
20
5.65553354441812
30
0
41
1
10
230.96936288383
20
5.74296458672069
30
0
41
1
10
231.026760728246
20
5.83003289174536
30
0
41
1
10
231.083914879998
20
5.91661684137134
30
0
0
SPLINE
5
2ED
100
AcDbEntity
8
1
62
256
6
ByLayer
370
13
48
1
60
0
100
AcDbSpline
70
4
71
3
72
8
73
4
40
0
40
0
40
0
40
0
40
1
40
1
40
1
40
1
41
1
10
35
20
-17.4895897474794
30
0
41
1
10
33.3333333272015
20
-17.4895865447722
30
0
41
1
10
31.666666634133
20
-17.4895966486932
30
0
41
1
10
30
20
-17.4896265731795
30
0
0
SPLINE
5
2EE
100
AcDbEntity
8
1
62
256
6
ByLayer
370
13
48
1
60
0
100
AcDbSpline
70
4
71
3
72
18
73
14
40
0
40
0
40
0
40
0
40
0.25
40
0.25
40
0.375000000000001
40
0.375000000000001
40
0.500000000000002
40
0.500000000000002
40
0.750000000000002
40
0.750000000000002
40
0.875000000000001
40
0.875000000000001
40
1
40
1
40
1
40
1
41
1
10
238.804288032276
20
6.03552942169222
30
0
41
1
10
238.79896748244
20
6.03525058349075
30
0
41
1
10
238.800231426661
20
6.04550903562333
30
0
41
1
10
238.815496522321
20
6.0739273664891
30
0
41
1
10
238.822855176794
20
6.08543187526408
30
0
41
1
10
238.842797435983
20
6.11093023484369
30
0
41
1
10
238.855648516752
20
6.12517501974031
30
0
41
1
10
238.901731778355
20
6.16764202848876
30
0
41
1
10
238.943919472423
20
6.19633476761612
30
0
41
1
10
239.017208437821
20
6.22752003649634
30
0
41
1
10
239.043720551609
20
6.23619801877328
30
0
41
1
10
239.097865274385
20
6.248679556827
30
0
41
1
10
239.125730597753
20
6.25263437918082
30
0
41
1
10
239.154398942087
20
6.25415238979352
30
0
0
SPLINE
5
2EF
100
AcDbEntity
8
1
62
256
6
ByLayer
370
13
48
1
60
0
100
AcDbSpline
70
4
71
3
72
8
73
4
40
0
40
0
40
0
40
0
40
1
40
1
40
1
40
1
41
1
10
29.1961524581057
20
-16.9106589138817
30
0
41
1
10
29.1961524584822
20
-17.109940606139
30
0
41
1
10
29.1961524588655
20
-17.3092222983941
30
0
41
1
10
29.1961524592554
20
-17.5085039906468
30
0
0
SPLINE
5
2F0
100
AcDbEntity
8
1
62
256
6
ByLayer
370
13
48
1
60
0
100
AcDbSpline
70
4
71
3
72
8
73
4
40
0
40
0
40
0
40
0
40
1
40
1
40
1
40
1
41
1
10
224.062468691243
20
2.58081775186398
30
0
41
1
10
224.424941673973
20
2.47829310170107
30
0
41
1
10
224.784856868955
20
2.38447531457413
30
0
41
1
10
225.140189474285
20
2.30140857060911
30
0
0
SPLINE
5
2F1
100
AcDbEntity
8
1
62
256
6
ByLayer
370
13
48
1
60
0
100
AcDbSpline
70
4
71
3
72
8
73
4
40
0
40
0
40
0
40
0
40
1
40
1
40
1
40
1
41
1
10
227.736061122331
20
6.41468250992153
30
0
41
1
10
227.381422127509
20
6.42852462235058
30
0
41
1
10
227.026816157392
20
6.44152174212124
30
0
41
1
10
226.672239821241
20
6.45367405559387
30
0
0
SPLINE
5
2F2
100
AcDbEntity
8
1
62
256
6
ByLayer
370
13
48
1
60
0
100
AcDbSpline
70
4
71
3
72
12
73
8
40
0
40
0
40
0
40
0
40
0.284058468468598
40
0.284058468468598
40
0.642029234234299
40
0.642029234234299
40
1
40
1
40
1
40
1
41
1
10
30.4500249900565
20
-6.211478832627
30
0
41
1
10
30.4500479854496
20
-6.55499645538447
30
0
41
1
10
30.4500665940571
20
-6.92469204545921
30
0
41
1
10
30.4500968673528
20
-7.78507062079774
30
0
41
1
10
30.4501054552498
20
-8.28191784323332
30
0
41
1
10
30.4501049175109
20
-9.24445248583092
30
0
41
1
10
30.4500957920356
20
-9.70985225083496
30
0
41
1
10
30.4500784107897
20
-10.1287418305359
30
0
0
SPLINE
5
2F3
100
AcDbEntity
8
1
62
256
6
ByLayer
370
13
48
1
60
0
100
AcDbSpline
70
4
71
3
72
36
73
32
40
0
40
0
40
0
40
0
40
0.0412472095496158
40
0.0412472095496158
40
0.0829321134822406
40
0.0829321134822406
40
0.124617017414866
40
0.124617017414866
40
0.16630192134749
40
0.16630192134749
40
0.176723147330647
40
0.176723147330647
40
0.187144373313803
40
0.187144373313803
40
0.207986825280116
40
0.207986825280116
40
0.249671729212741
40
0.249671729212741
40
0.291356633145367
40
0.291356633145367
40
0.333041537077992
40
0.333041537077992
40
0.416411344943243
40
0.416411344943243
40
0.499781152808494
40
0.499781152808494
40
0.583150960673745
40
0.583150960673745
40
0.666520768538996
40
0.666520768538996
40
1
40
1
40
1
40
1
41
1
10
177.860877484779
20
-9.32401360528277
30
0
41
1
10
175.871534709431
20
-9.46938108492452
30
0
41
1
10
173.878371933585
20
-9.59516238358177
30
0
41
1
10
169.86151425463
20
-9.80389959269047
30
0
41
1
10
167.837673040758
20
-9.88618739465733
30
0
41
1
10
163.779877911019
20
-10.0108706198525
30
0
41
1
10
161.745904627708
20
-10.0527174673684
30
0
41
1
10
157.667764940815
20
-10.1050207195201
30
0
41
1
10
155.623485323498
20
-10.1159740217242
30
0
41
1
10
153.061998139368
20
-10.1238608472573
30
0
41
1
10
152.549427336904
20
-10.125158597471
30
0
41
1
10
151.52407200763
20
-10.1273104813876
30
0
41
1
10
151.011302239254
20
-10.1282031703873
30
0
41
1
10
149.472782006662
20
-10.1306231758154
30
0
41
1
10
148.44672136921
20
-10.1317980590438
30
0
41
1
10
145.368543884417
20
-10.1342682298539
30
0
41
1
10
143.316426679156
20
-10.1344731671524
30
0
41
1
10
139.212193432666
20
-10.1334786515877
30
0
41
1
10
137.160077388621
20
-10.1322987601426
30
0
41
1
10
133.055845386891
20
-10.1301198416618
30
0
41
1
10
131.003729395945
20
-10.1292960463002
30
0
41
1
10
124.847380263589
20
-10.1276078745692
30
0
41
1
10
120.743146258812
20
-10.1272609867922
30
0
41
1
10
112.534677684457
20
-10.127985953628
30
0
41
1
10
108.430443254742
20
-10.1289952243068
30
0
41
1
10
100.221975262922
20
-10.1298207786984
30
0
41
1
10
96.1177415278983
20
-10.1297732464277
30
0
41
1
10
87.909274079444
20
-10.1292653572052
30
0
41
1
10
83.8050403412219
20
-10.1287807151056
30
0
41
1
10
63.283871314199
20
-10.1276191785721
30
0
41
1
10
46.8669354493966
20
-10.1291064057752
30
0
41
1
10
30.4500000000001
20
-10.1287418287946
30
0
0
SPLINE
5
2F4
100
AcDbEntity
8
1
62
256
6
ByLayer
370
13
48
1
60
0
100
AcDbSpline
70
4
71
3
72
16
73
12
40
0
40
0
40
0
40
0
40
0.125
40
0.125
40
0.25
40
0.25
40
0.5
40
0.5
40
0.75
40
0.75
40
1
40
1
40
1
40
1
41
1
10
118
20
-17.3060125682648
30
0
41
1
10
114.541666615518
20
-17.3137410818804
30
0
41
1
10
111.083332379165
20
-17.3211191758967
30
0
41
1
10
104.166664133668
20
-17.3359708334594
30
0
41
1
10
100.70833018168
20
-17.3434834726255
30
0
41
1
10
90.3333287748071
20
-17.3662497620286
30
0
41
1
10
83.4166625596357
20
-17.3817076182049
30
0
41
1
10
69.583332701538
20
-17.4127710957052
30
0
41
1
10
62.6666685149408
20
-17.4283663945476
30
0
41
1
10
48.833335123583
20
-17.4591026806944
30
0
41
1
10
41.9166667554574
20
-17.4742324601265
30
0
41
1
10
35
20
-17.4895897474794
30
0
0
SPLINE
5
2F5
100
AcDbEntity
8
1
62
256
6
ByLayer
370
13
48
1
60
0
100
AcDbSpline
70
4
71
3
72
8
73
4
40
0
40
0
40
0
40
0
40
1
40
1
40
1
40
1
41
1
10
230.412560194403
20
0.0006990967164313
30
0
41
1
10
230.446649539871
20
-0.0017558341099573
30
0
41
1
10
230.480729304837
20
-0.0040000389665806
30
0
41
1
10
230.514799481663
20
-0.0060336713484901
30
0
0
SPLINE
5
2F6
100
AcDbEntity
8
1
62
256
6
ByLayer
370
13
48
1
60
0
100
AcDbSpline
70
4
71
3
72
16
73
12
40
0
40
0
40
0
40
0
40
0.25
40
0.25
40
0.5
40
0.5
40
0.625
40
0.625
40
0.75
40
0.75
40
1
40
1
40
1
40
1
41
1
10
233.666792152876
20
5.00798218192034
30
0
41
1
10
234.188640201208
20
4.86101907157914
30
0
41
1
10
234.701947057419
20
4.75744526471712
30
0
41
1
10
235.712155305211
20
4.62034722043867
30
0
41
1
10
236.209027302675
20
4.58700025919171
30
0
41
1
10
236.941028288288
20
4.58206127360947
30
0
41
1
10
237.182798337744
20
4.58796230121644
30
0
41
1
10
237.661573757287
20
4.61385658855414
30
0
41
1
10
237.898157456555
20
4.63385233466317
30
0
41
1
10
238.595307438762
20
4.71277460824149
30
0
41
1
10
239.044914131734
20
4.79069998407812
30
0
41
1
10
239.478350408076
20
4.88906740706318
30
0
0
SPLINE
5
2F7
100
AcDbEntity
8
1
62
256
6
ByLayer
370
13
48
1
60
0
100
AcDbSpline
70
4
71
3
72
8
73
4
40
0
40
0
40
0
40
0
40
1
40
1
40
1
40
1
41
1
10
230.514799481663
20
-0.0060336713480069
30
0
41
1
10
231.480690751333
20
-0.0636872542289098
30
0
41
1
10
232.446611599208
20
-0.121132466930334
30
0
41
1
10
233.412560194403
20
-0.178379660307911
30
0
0
SPLINE
5
2F8
100
AcDbEntity
8
1
62
256
6
ByLayer
370
13
48
1
60
0
100
AcDbSpline
70
4
71
3
72
40
73
36
40
0
40
0
40
0
40
0
40
0.0624999999999998
40
0.0624999999999998
40
0.125
40
0.125
40
0.187499999999999
40
0.187499999999999
40
0.249999999999999
40
0.249999999999999
40
0.281249999999999
40
0.281249999999999
40
0.312499999999999
40
0.312499999999999
40
0.374999999999999
40
0.374999999999999
40
0.437499999999999
40
0.437499999999999
40
0.499999999999999
40
0.499999999999999
40
0.562499999999999
40
0.562499999999999
40
0.624999999999999
40
0.624999999999999
40
0.687499999999999
40
0.687499999999999
40
0.718749999999999
40
0.718749999999999
40
0.75
40
0.75
40
0.875
40
0.875
40
0.9375
40
0.9375
40
1
40
1
40
1
40
1
41
1
10
6.30420344361433
20
-20.8140732042562
30
0
41
1
10
6.22067718366034
20
-20.9559779938594
30
0
41
1
10
6.15483678325954
20
-21.0941571269737
30
0
41
1
10
6.05789412664531
20
-21.3628836174642
30
0
41
1
10
6.02678517207485
20
-21.4934333390283
30
0
41
1
10
6.00147634785078
20
-21.7463841506807
30
0
41
1
10
6.00783810439135
20
-21.8659327749776
30
0
41
1
10
6.05611643681262
20
-22.0905135697669
30
0
41
1
10
6.09794525560208
20
-22.195807822728
30
0
41
1
10
6.18678444840313
20
-22.3434135982884
30
0
41
1
10
6.2209184666183
20
-22.3910405760967
30
0
41
1
10
6.29696662118856
20
-22.4816059185762
30
0
41
1
10
6.33890677294197
20
-22.5246548687498
30
0
41
1
10
6.47606584522738
20
-22.6473833911571
30
0
41
1
10
6.58266343981985
20
-22.7206402452365
30
0
41
1
10
6.82455639171597
20
-22.8511146081393
30
0
41
1
10
6.96077992778062
20
-22.9085302246565
30
0
41
1
10
7.25474487201265
20
-23.0056287332082
30
0
41
1
10
7.41284063099049
20
-23.0456674413682
30
0
41
1
10
7.74986303113874
20
-23.110151094616
30
0
41
1
10
7.92880976635141
20
-23.1345839781097
30
0
41
1
10
8.30705113216099
20
-23.1685905208773
30
0
41
1
10
8.50352580051369
20
-23.177909497705
30
0
41
1
10
8.90942695205564
20
-23.1826316588222
30
0
41
1
10
9.11898080818497
20
-23.1780398606699
30
0
41
1
10
9.44286489714887
20
-23.1613904603872
30
0
41
1
10
9.55242228156929
20
-23.1542093831622
30
0
41
1
10
9.77471384071568
20
-23.1366478520722
30
0
41
1
10
9.88771635961426
20
-23.1262376542675
30
0
41
1
10
10.4570294110166
20
-23.0666729127205
30
0
41
1
10
10.9245838404174
20
-22.9956124562387
30
0
41
1
10
11.6431857083791
20
-22.8578939401979
30
0
41
1
10
11.8856280100097
20
-22.806738706752
30
0
41
1
10
12.3764196836335
20
-22.6940213665471
30
0
41
1
10
12.6237243233818
20
-22.6326771820508
30
0
41
1
10
12.8714775697724
20
-22.5668049327412
30
0
0
SPLINE
5
2F9
100
AcDbEntity
8
1
62
256
6
ByLayer
370
13
48
1
60
0
100
AcDbSpline
70
4
71
3
72
12
73
8
40
0
40
0
40
0
40
0
40
0.286987627910541
40
0.286987627910541
40
0.64349381395527
40
0.64349381395527
40
1
40
1
40
1
40
1
41
1
10
211.100658365175
20
8.10019350411972
30
0
41
1
10
212.733610332143
20
8.20795119883837
30
0
41
1
10
214.366175354049
20
8.29411992934638
30
0
41
1
10
218.027230773999
20
8.43717916118609
30
0
41
1
10
220.056056536656
20
8.4818202316344
30
0
41
1
10
224.11557130905
20
8.49961835990496
30
0
41
1
10
226.144704281378
20
8.47276835415767
30
0
41
1
10
228.17434400494
20
8.40987726524429
30
0
0
SPLINE
5
2FA
100
AcDbEntity
8
1
62
256
6
ByLayer
370
13
48
1
60
0
100
AcDbSpline
70
4
71
3
72
10
73
6
40
0
40
0
40
0
40
0
40
0.5
40
0.5
40
1
40
1
40
1
40
1
41
1
10
229.219787490963
20
8.47968922438525
30
0
41
1
10
229.260884486279
20
8.47901781886335
30
0
41
1
10
229.302193642911
20
8.47675263516905
30
0
41
1
10
229.385518090815
20
8.46691770994002
30
0
41
1
10
229.427104357452
20
8.45948298483884
30
0
41
1
10
229.468253986033
20
8.4472777725021
30
0
0
SPLINE
5
2FB
100
AcDbEntity
8
1
62
256
6
ByLayer
370
13
48
1
60
0
100
AcDbSpline
70
4
71
3
72
14
73
10
40
0
40
0
40
0
40
0
40
0.499999999999958
40
0.499999999999958
40
0.749999999999979
40
0.749999999999979
40
0.87499999999999
40
0.87499999999999
40
1
40
1
40
1
40
1
41
1
10
240.838762199696
20
6.30533829934836
30
0
41
1
10
240.982391664728
20
6.25699195418653
30
0
41
1
10
241.125970066845
20
6.2244166921576
30
0
41
1
10
241.342911036845
20
6.19549391657608
30
0
41
1
10
241.41547670445
20
6.18923416343191
30
0
41
1
10
241.52487366335
20
6.18486292310635
30
0
41
1
10
241.561476706542
20
6.18424535082545
30
0
41
1
10
241.634650103107
20
6.18470341056334
30
0
41
1
10
241.671528869696
20
6.185795146651
30
0
41
1
10
241.707624509874
20
6.18768683899452
30
0
0
SPLINE
5
2FC
100
AcDbEntity
8
1
62
256
6
ByLayer
370
13
48
1
60
0
100
AcDbSpline
70
4
71
3
72
8
73
4
40
0
40
0
40
0
40
0
40
1
40
1
40
1
40
1
41
1
10
238.731580251915
20
5.87162530743947
30
0
41
1
10
238.687136380105
20
5.77926524349132
30
0
41
1
10
238.636643737381
20
5.68921920887854
30
0
41
1
10
238.581015090067
20
5.60378248244481
30
0
0
SPLINE
5
2FD
100
AcDbEntity
8
1
62
256
6
ByLayer
370
13
48
1
60
0
100
AcDbSpline
70
4
71
3
72
16
73
12
40
0
40
0
40
0
40
0
40
0.249999999999999
40
0.249999999999999
40
0.499999999999999
40
0.499999999999999
40
0.624999999999998
40
0.624999999999998
40
0.749999999999998
40
0.749999999999998
40
1
40
1
40
1
40
1
41
1
10
29.1961524581057
20
-16.9106589138699
30
0
41
1
10
28.9310281072054
20
-16.9105951886365
30
0
41
1
10
28.6705528489728
20
-16.931726251294
30
0
41
1
10
28.1582071551023
20
-17.0132169750994
30
0
41
1
10
27.9063406199192
20
-17.0735944180704
30
0
41
1
10
27.5348394203174
20
-17.192875337804
30
0
41
1
10
27.413279072507
20
-17.2370646650293
30
0
41
1
10
27.1760036649841
20
-17.3331027858342
30
0
41
1
10
27.0600141010588
20
-17.3850403650162
30
0
41
1
10
26.7194953838356
20
-17.5518770163271
30
0
41
1
10
26.5023847397577
20
-17.6777534421809
30
0
41
1
10
26.2943292692446
20
-17.8170290349444
30
0
0
SPLINE
5
2FE
100
AcDbEntity
8
1
62
256
6
ByLayer
370
13
48
1
60
0
100
AcDbSpline
70
4
71
3
72
22
73
18
40
0
40
0
40
0
40
0
40
0.101112245037669
40
0.101112245037669
40
0.202224490075338
40
0.202224490075338
40
0.404448980150677
40
0.404448980150677
40
0.505561225188345
40
0.505561225188345
40
0.606673470226013
40
0.606673470226013
40
0.808897960301349
40
0.808897960301349
40
0.910010205339019
40
0.910010205339019
40
1
40
1
40
1
40
1
41
1
10
226.076689747038
20
17.1143545131839
30
0
41
1
10
225.005137441409
20
17.196888721604
30
0
41
1
10
223.933405636351
20
17.2596400437671
30
0
41
1
10
221.789206590639
20
17.3449327789953
30
0
41
1
10
220.718535183724
20
17.3674115001464
30
0
41
1
10
217.508707427283
20
17.3745439662479
30
0
41
1
10
215.371602594083
20
17.2989346514154
30
0
41
1
10
212.163487079494
20
17.0665281823148
30
0
41
1
10
211.093720872178
20
16.9692224690832
30
0
41
1
10
208.952355099639
20
16.7351141278066
30
0
41
1
10
207.879851530087
20
16.5981630574556
30
0
41
1
10
204.667926816388
20
16.1297482249958
30
0
41
1
10
202.532903693248
20
15.7398476906617
30
0
41
1
10
199.326376854412
20
15.0518950092059
30
0
41
1
10
198.256945986708
20
14.8053228632199
30
0
41
1
10
196.22976094729
20
14.3136135280249
30
0
41
1
10
195.272631563559
20
14.0713553460783
30
0
41
1
10
194.311435155413
20
13.8215106548193
30
0
0
SPLINE
5
2FF
100
AcDbEntity
8
1
62
256
6
ByLayer
370
13
48
1
60
0
100
AcDbSpline
70
4
71
3
72
17
73
13
40
0
40
0
40
0
40
0
40
0.125
40
0.125
40
0.25
40
0.375
40
0.375
40
0.5
40
0.5
40
0.75
40
0.75
40
1
40
1
40
1
40
1
41
1
10
118
20
-6.22510576765615
30
0
41
1
10
114.541666006975
20
-6.22377378650205
30
0
41
1
10
111.083341474784
20
-6.21763042282862
30
0
41
1
10
104.16668333498
20
-6.21085733529765
30
0
41
1
10
97.2500185868278
20
-6.20938880779437
30
0
41
1
10
90.3333478914484
20
-6.21296367688518
30
0
41
1
10
83.4166777937353
20
-6.21626331969088
30
0
41
1
10
79.9583429863957
20
-6.21754053416799
30
0
41
1
10
69.5833401636849
20
-6.21889838984526
30
0
41
1
10
62.6666732125533
20
-6.2173939716443
30
0
41
1
10
48.8333378778822
20
-6.21628308362517
30
0
41
1
10
41.9166694090837
20
-6.21664086686323
30
0
41
1
10
35
20
-6.21808020055849
30
0
0
SPLINE
5
300
100
AcDbEntity
8
1
62
256
6
ByLayer
370
13
48
1
60
0
100
AcDbSpline
70
4
71
3
72
14
73
10
40
0
40
0
40
0
40
0
40
0.25
40
0.25
40
0.5
40
0.5
40
0.75
40
0.75
40
1
40
1
40
1
40
1
41
1
10
228.17434400494
20
8.40987726524432
30
0
41
1
10
228.178626356693
20
8.42780542828223
30
0
41
1
10
228.188041293123
20
8.44394689435927
30
0
41
1
10
228.212517948598
20
8.47077297848116
30
0
41
1
10
228.227717599407
20
8.48174236002802
30
0
41
1
10
228.260396365505
20
8.49884851281385
30
0
41
1
10
228.27831737047
20
8.50522700567154
30
0
41
1
10
228.314889407843
20
8.51393540213246
30
0
41
1
10
228.333708699958
20
8.51636640063674
30
0
41
1
10
228.353014681656
20
8.51704977280849
30
0
0
SPLINE
5
301
100
AcDbEntity
8
1
62
256
6
ByLayer
370
13
48
1
60
0
100
AcDbSpline
70
4
71
3
72
8
73
4
40
0
40
0
40
0
40
0
40
1
40
1
40
1
40
1
41
1
10
228.749009304358
20
1.53792472863646
30
0
41
1
10
229.260526212523
20
1.38728563410098
30
0
41
1
10
229.777983915139
20
1.27275958481596
30
0
41
1
10
230.300457997926
20
1.19316093608032
30
0
0
SPLINE
5
302
100
AcDbEntity
8
1
62
256
6
ByLayer
370
13
48
1
60
0
100
AcDbSpline
70
4
71
3
72
44
73
40
40
0
40
0
40
0
40
0
40
0.0326091032067442
40
0.0326091032067442
40
0.0729170572397979
40
0.0729170572397979
40
0.0930710342563248
40
0.0930710342563248
40
0.113225011272852
40
0.113225011272852
40
0.153532965305904
40
0.153532965305904
40
0.193840919338957
40
0.193840919338957
40
0.23414887337201
40
0.23414887337201
40
0.274456827405063
40
0.274456827405063
40
0.355072735471169
40
0.355072735471169
40
0.435688643537274
40
0.435688643537274
40
0.455842620553801
40
0.455842620553801
40
0.475996597570327
40
0.475996597570327
40
0.516304551603379
40
0.516304551603379
40
0.556612505636431
40
0.556612505636431
40
0.596920459669483
40
0.596920459669483
40
0.677536367735586
40
0.677536367735586
40
0.75815227580169
40
0.75815227580169
40
0.838768183867794
40
0.838768183867794
40
1
40
1
40
1
40
1
41
1
10
198.872068079194
20
-14.4331281014525
30
0
41
1
10
198.050632212913
20
-14.6352591902463
30
0
41
1
10
197.229271695201
20
-14.8282359846463
30
0
41
1
10
195.390795929646
20
-15.236792169302
30
0
41
1
10
194.373105442364
20
-15.4466992265778
30
0
41
1
10
192.839296922529
20
-15.7334080276439
30
0
41
1
10
192.326730183832
20
-15.82434828301
30
0
41
1
10
191.30026442556
20
-15.9964158262168
30
0
41
1
10
190.786155020888
20
-16.0775723458614
30
0
41
1
10
189.240300997685
20
-16.3064889371127
30
0
41
1
10
188.204976910699
20
-16.4396115804913
30
0
41
1
10
186.121700431438
20
-16.6705447311718
30
0
41
1
10
185.07408873875
20
-16.7687783495631
30
0
41
1
10
182.968105988777
20
-16.9376485138335
30
0
41
1
10
181.909793829478
20
-17.0083054646535
30
0
41
1
10
179.783358461006
20
-17.1273061726398
30
0
41
1
10
178.715130217492
20
-17.1755620905953
30
0
41
1
10
175.49509356084
20
-17.2927957511054
30
0
41
1
10
173.337572845766
20
-17.3340415885417
30
0
41
1
10
168.996661188316
20
-17.3739012725497
30
0
41
1
10
166.812950738311
20
-17.3726549876903
30
0
41
1
10
164.065090145685
20
-17.3623632531445
30
0
41
1
10
163.514610806807
20
-17.3598515925252
30
0
41
1
10
162.411802644892
20
-17.35429177405
30
0
41
1
10
161.859252704679
20
-17.3512424030837
30
0
41
1
10
160.201239698651
20
-17.3418075848831
30
0
41
1
10
159.094986652615
20
-17.3351564771718
30
0
41
1
10
156.880604682273
20
-17.323330167281
30
0
41
1
10
155.77243606335
20
-17.3182307615303
30
0
41
1
10
153.554554513046
20
-17.3102970538846
30
0
41
1
10
152.444855751019
20
-17.3074234482159
30
0
41
1
10
149.114252969366
20
-17.3014684699693
30
0
41
1
10
146.891738168035
20
-17.3010261453314
30
0
41
1
10
142.446839308373
20
-17.3012386844166
30
0
41
1
10
140.224399878548
20
-17.3017382784003
30
0
41
1
10
135.779525607973
20
-17.3029079119834
30
0
41
1
10
133.557090755964
20
-17.3035815137968
30
0
41
1
10
126.889778458794
20
-17.3052624203833
30
0
41
1
10
122.444895691378
20
-17.3059638285741
30
0
41
1
10
118
20
-17.3060125682646
30
0
0
SPLINE
5
303
100
AcDbEntity
8
1
62
256
6
ByLayer
370
13
48
1
60
0
100
AcDbSpline
70
4
71
3
72
10
73
6
40
0
40
0
40
0
40
0
40
0.44464393323305
40
0.44464393323305
40
1
40
1
40
1
40
1
41
1
10
30.45
20
-16.8971178193851
30
0
41
1
10
30.45
20
-15.8939453767206
30
0
41
1
10
30.45
20
-14.8907729349361
30
0
41
1
10
30.45
20
-12.6346476042464
30
0
41
1
10
30.45
20
-11.3816947158341
30
0
41
1
10
30.45
20
-10.1287418287946
30
0
0
SPLINE
5
304
100
AcDbEntity
8
1
62
256
6
ByLayer
370
13
48
1
60
0
100
AcDbSpline
70
4
71
3
72
10
73
6
40
0
40
0
40
0
40
0
40
0.5
40
0.5
40
1
40
1
40
1
40
1
41
1
10
231.083914879997
20
5.9166168413692
30
0
41
1
10
231.215414993608
20
5.82080488630623
30
0
41
1
10
231.352753880389
20
5.73880185988514
30
0
41
1
10
231.638295706844
20
5.59926614723023
30
0
41
1
10
231.78771417154
20
5.54157949146517
30
0
41
1
10
231.93847547265
20
5.49849077055364
30
0
0
SPLINE
5
305
100
AcDbEntity
8
1
62
256
6
ByLayer
370
13
48
1
60
0
100
AcDbSpline
70
4
71
1
72
4
73
2
40
0
40
0
40
1
40
1
41
1
10
30.45
20
-10.1287418288637
30
0
41
1
10
30.01
20
-10.1287418288637
30
0
0
SPLINE
5
306
100
AcDbEntity
8
1
62
256
6
ByLayer
370
13
48
1
60
0
100
AcDbSpline
70
4
71
3
72
18
73
14
40
0
40
0
40
0
40
0
40
0.179299823739884
40
0.179299823739884
40
0.358599647479767
40
0.358599647479767
40
0.537899471219651
40
0.537899471219651
40
0.717199294959535
40
0.717199294959535
40
0.896499118699419
40
0.896499118699419
40
1
40
1
40
1
40
1
41
1
10
30.01
20
-10.1287418287946
30
0
41
1
10
30.01
20
-9.91742853391816
30
0
41
1
10
30.01
20
-9.69777636883995
30
0
41
1
10
30.01
20
-9.24248954561489
30
0
41
1
10
30.01
20
-9.00500615862353
30
0
41
1
10
30.01
20
-8.5216398533866
30
0
41
1
10
30.01
20
-8.27916525049511
30
0
41
1
10
30.01
20
-7.792674571372
30
0
41
1
10
30.01
20
-7.54613398014274
30
0
41
1
10
30.01
20
-7.06606069165775
30
0
41
1
10
30.01
20
-6.83268574254663
30
0
41
1
10
30.01
20
-6.47499142406724
30
0
41
1
10
30.01
20
-6.34571311976043
30
0
41
1
10
30.01
20
-6.22001782880125
30
0
0
SPLINE
5
307
100
AcDbEntity
8
1
62
256
6
ByLayer
370
13
48
1
60
0
100
AcDbSpline
70
4
71
3
72
9
73
5
40
0
40
0
40
0
40
0
40
0.5
40
1
40
1
40
1
40
1
41
1
10
238.269209470219
20
5.46142658431574
30
0
41
1
10
238.279201906506
20
5.47370648924314
30
0
41
1
10
238.298941953304
20
5.49850477036895
30
0
41
1
10
238.318185121082
20
5.52377691370961
30
0
41
1
10
238.327680645791
20
5.53653073034565
30
0
0
SPLINE
5
308
100
AcDbEntity
8
1
62
256
6
ByLayer
370
13
48
1
60
0
100
AcDbSpline
70
4
71
3
72
14
73
10
40
0
40
0
40
0
40
0
40
0.500000000000001
40
0.500000000000001
40
0.625000000000002
40
0.625000000000002
40
0.750000000000002
40
0.750000000000002
40
1
40
1
40
1
40
1
41
1
10
29.1961524592555
20
-17.508503990647
30
0
41
1
10
28.6866255487023
20
-17.5324372020541
30
0
41
1
10
28.1880096810721
20
-17.5733302987342
30
0
41
1
10
27.5777490069445
20
-17.641025486721
30
0
41
1
10
27.4563556290728
20
-17.6553727089774
30
0
41
1
10
27.2149043284169
20
-17.6854756186077
30
0
41
1
10
27.0948559955081
20
-17.7012367401705
30
0
41
1
10
26.7418797593421
20
-17.7495083131334
30
0
41
1
10
26.5143224216088
20
-17.7832380567283
30
0
41
1
10
26.2943292692446
20
-17.8170290349444
30
0
0
SPLINE
5
309
100
AcDbEntity
8
1
62
256
6
ByLayer
370
13
48
1
60
0
100
AcDbSpline
70
4
71
3
72
8
73
4
40
0
40
0
40
0
40
0
40
1
40
1
40
1
40
1
41
1
10
227.73465199096
20
6.41031668340062
30
0
41
1
10
227.735094869733
20
6.41177835133146
30
0
41
1
10
227.735564827125
20
6.41323356527417
30
0
41
1
10
227.736061122329
20
6.41468250991042
30
0
0
SPLINE
5
30A
100
AcDbEntity
8
1
62
256
6
ByLayer
370
13
48
1
60
0
100
AcDbSpline
70
4
71
3
72
10
73
6
40
0
40
0
40
0
40
0
40
0.5
40
0.5
40
1
40
1
40
1
40
1
41
1
10
230.982904884015
20
6.80451222242948
30
0
41
1
10
231.031782627927
20
7.04138233651344
30
0
41
1
10
231.061853389102
20
7.28209406238716
30
0
41
1
10
231.068593929215
20
7.7744254755988
30
0
41
1
10
231.045022288664
20
8.01758871055799
30
0
41
1
10
230.985900952278
20
8.25571768120349
30
0
0
SPLINE
5
30B
100
AcDbEntity
8
1
62
256
6
ByLayer
370
13
48
1
60
0
100
AcDbSpline
70
4
71
3
72
8
73
4
40
0
40
0
40
0
40
0
40
1
40
1
40
1
40
1
41
1
10
221.708688186506
20
6.56869711434791
30
0
41
1
10
219.47672575704
20
6.59567608549554
30
0
41
1
10
217.245300817817
20
6.58920877905453
30
0
41
1
10
215.013553445973
20
6.55011879669078
30
0
0
SPLINE
5
30C
100
AcDbEntity
8
1
62
256
6
ByLayer
370
13
48
1
60
0
100
AcDbSpline
70
4
71
3
72
8
73
4
40
0
40
0
40
0
40
0
40
1
40
1
40
1
40
1
41
1
10
1.42E-14
20
4.42266887749923
30
0
41
1
10
0.0315947615411005
20
4.59876410270371
30
0
41
1
10
0.0649429983480019
20
4.77445351716128
30
0
41
1
10
0.0999999999999943
20
4.94974746830573
30
0
0
SPLINE
5
30D
100
AcDbEntity
8
1
62
256
6
ByLayer
370
13
48
1
60
0
100
AcDbSpline
70
4
71
3
72
12
73
8
40
0
40
0
40
0
40
0
40
0.383220482350315
40
0.383220482350315
40
0.76644096470063
40
0.76644096470063
40
1
40
1
40
1
40
1
41
1
10
234.940780711297
20
12.2736522154109
30
0
41
1
10
234.920747746211
20
12.2443319324963
30
0
41
1
10
234.902161264429
20
12.215237920468
30
0
41
1
10
234.868032405932
20
12.1581415401317
30
0
41
1
10
234.852509959737
20
12.1301477788366
30
0
41
1
10
234.830988926878
20
12.0881338022276
30
0
41
1
10
234.823522171992
20
12.0726821700472
30
0
41
1
10
234.817204555408
20
12.0586668605739
30
0
0
SPLINE
5
30E
100
AcDbEntity
8
1
62
256
6
ByLayer
370
13
48
1
60
0
100
AcDbSpline
70
4
71
3
72
10
73
6
40
0
40
0
40
0
40
0
40
0.110328507920638
40
0.110328507920638
40
1
40
1
40
1
40
1
41
1
10
212.310371468803
20
7.61196974867462
30
0
41
1
10
212.782847173989
20
7.42836953049684
30
0
41
1
10
213.255361679161
20
7.24306084139474
30
0
41
1
10
217.535925614423
20
5.55004273125471
30
0
41
1
10
221.331608447358
20
3.94638329948097
30
0
41
1
10
225.140189474285
20
2.30140857060914
30
0
0
SPLINE
5
30F
100
AcDbEntity
8
1
62
256
6
ByLayer
370
13
48
1
60
0
100
AcDbSpline
70
4
71
3
72
8
73
4
40
0
40
0
40
0
40
0
40
1
40
1
40
1
40
1
41
1
10
225.75204343402
20
16.5513273697994
30
0
41
1
10
225.861933140493
20
16.7380080467467
30
0
41
1
10
225.970115259285
20
16.925703563013
30
0
41
1
10
226.07668974704
20
17.1143545131967
30
0
0
SPLINE
5
310
100
AcDbEntity
8
1
62
256
6
ByLayer
370
13
48
1
60
0
100
AcDbSpline
70
4
71
3
72
8
73
4
40
0
40
0
40
0
40
0
40
1
40
1
40
1
40
1
41
1
10
0.0999999999999801
20
-4.94974746830573
30
0
41
1
10
0.0649210758567591
20
-4.77434389911281
30
0
41
1
10
0.0315748582919468
20
-4.59865317079695
30
0
41
1
10
0
20
-4.42266887749926
30
0
0
SPLINE
5
311
100
AcDbEntity
8
1
62
256
6
ByLayer
370
13
48
1
60
0
100
AcDbSpline
70
4
71
3
72
20
73
16
40
0
40
0
40
0
40
0
40
0.124999999999985
40
0.124999999999985
40
0.249999999999969
40
0.249999999999969
40
0.49999999999998
40
0.49999999999998
40
0.624999999999985
40
0.624999999999985
40
0.74999999999999
40
0.74999999999999
40
0.874999999999995
40
0.874999999999995
40
1
40
1
40
1
40
1
41
1
10
248.530260712665
20
5.66430905377339
30
0
41
1
10
248.454673426481
20
5.67044342039517
30
0
41
1
10
248.380419723227
20
5.68015938766052
30
0
41
1
10
248.233584116385
20
5.70639886014874
30
0
41
1
10
248.160885289397
20
5.7230003751329
30
0
41
1
10
247.948362872567
20
5.78204458051823
30
0
41
1
10
247.812484931602
20
5.83377446785315
30
0
41
1
10
247.614744288456
20
5.93172888810082
30
0
41
1
10
247.549882439276
20
5.96781175525086
30
0
41
1
10
247.422132312732
20
6.04774481653908
30
0
41
1
10
247.359921854256
20
6.09121630610804
30
0
41
1
10
247.240428568561
20
6.18452304279285
30
0
41
1
10
247.182897452963
20
6.23450524886871
30
0
41
1
10
247.072480943528
20
6.34185024883186
30
0
41
1
10
247.019441098519
20
6.39947563712818
30
0
41
1
10
246.970195310145
20
6.4597777014898
30
0
0
SPLINE
5
312
100
AcDbEntity
8
1
62
256
6
ByLayer
370
13
48
1
60
0
100
AcDbSpline
70
4
71
3
72
14
73
10
40
0
40
0
40
0
40
0
40
0.25
40
0.25
40
0.5
40
0.5
40
0.75
40
0.75
40
1
40
1
40
1
40
1
41
1
10
238.056798085557
20
5.83554883680856
30
0
41
1
10
238.089923676359
20
5.82881585396822
30
0
41
1
10
238.120099066693
20
5.82043776117067
30
0
41
1
10
238.171329797858
20
5.80104440629654
30
0
41
1
10
238.192796409394
20
5.78981843668444
30
0
41
1
10
238.224484841142
20
5.76604934109346
30
0
41
1
10
238.235297216735
20
5.75310841392587
30
0
41
1
10
238.246082090679
20
5.72681029226308
30
0
41
1
10
238.24624058447
20
5.71356240985975
30
0
41
1
10
238.241720899003
20
5.70022619920903
30
0
0
SPLINE
5
313
100
AcDbEntity
8
1
62
256
6
ByLayer
370
13
48
1
60
0
100
AcDbSpline
70
4
71
3
72
8
73
4
40
0
40
0
40
0
40
0
40
1
40
1
40
1
40
1
41
1
10
229.219787490963
20
8.47968922438594
30
0
41
1
10
229.212486310667
20
8.48099623069587
30
0
41
1
10
229.205164625696
20
8.48215149269365
30
0
41
1
10
229.197821530192
20
8.4831483066103
30
0
0
SPLINE
5
314
100
AcDbEntity
8
1
62
256
6
ByLayer
370
13
48
1
60
0
100
AcDbSpline
70
4
71
2
72
12
73
9
40
0
40
0
40
0
40
0.301663650753402
40
0.301663650753402
40
0.603327301506804
40
0.603327301506804
40
0.904990952260206
40
0.904990952260206
40
1
40
1
40
1
41
1
10
29.9999999999992
20
-10.1338819797151
30
0
41
1
10
26.5190926775738
20
-10.753238861457
30
0
41
1
10
23.4293891207422
20
-12.1968169075621
30
0
41
1
10
20.2278954699268
20
-13.6926257656136
30
0
41
1
10
17.7338643198662
20
-15.9286003639204
30
0
41
1
10
15.257129515351
20
-18.1490682636512
30
0
41
1
10
13.7038097406382
20
-20.8958093355579
30
0
41
1
10
13.2380449942596
20
-21.7194228500131
30
0
41
1
10
12.8694950465945
20
-22.5668246305174
30
0
0
SPLINE
5
315
100
AcDbEntity
8
1
62
256
6
ByLayer
370
13
48
1
60
0
100
AcDbSpline
70
2053
71
3
72
95
73
91
40
0
40
0
40
0
40
0
40
0.0312499999999964
40
0.0312499999999964
40
0.0468749999999981
40
0.0468749999999981
40
0.0624999999999997
40
0.0624999999999997
40
0.093750000000003
40
0.093750000000003
40
0.109375000000005
40
0.109375000000005
40
0.125000000000006
40
0.125000000000006
40
0.156250000000005
40
0.156250000000005
40
0.187500000000003
40
0.187500000000003
40
0.203125000000003
40
0.203125000000003
40
0.218750000000002
40
0.218750000000002
40
0.250000000000002
40
0.250000000000002
40
0.265625000000002
40
0.265625000000002
40
0.281250000000002
40
0.281250000000002
40
0.312500000000002
40
0.312500000000002
40
0.328125000000002
40
0.328125000000002
40
0.343750000000002
40
0.343750000000002
40
0.375000000000006
40
0.375000000000006
40
0.406250000000009
40
0.406250000000009
40
0.421875000000014
40
0.421875000000014
40
0.437500000000019
40
0.437500000000019
40
0.468750000000028
40
0.468750000000028
40
0.484375000000029
40
0.484375000000029
40
0.500000000000031
40
0.500000000000031
40
0.531250000000026
40
0.531250000000026
40
0.546875000000024
40
0.546875000000024
40
0.562500000000022
40
0.57812500000002
40
0.57812500000002
40
0.593750000000017
40
0.593750000000017
40
0.625000000000013
40
0.625000000000013
40
0.640625000000011
40
0.640625000000011
40
0.656250000000009
40
0.656250000000009
40
0.687500000000008
40
0.687500000000008
40
0.718750000000008
40
0.718750000000008
40
0.734375000000008
40
0.734375000000008
40
0.750000000000008
40
0.750000000000008
40
0.781250000000008
40
0.781250000000008
40
0.796875000000007
40
0.796875000000007
40
0.812500000000006
40
0.812500000000006
40
0.843750000000003
40
0.843750000000003
40
0.874999999999999
40
0.874999999999999
40
0.906249999999995
40
0.906249999999995
40
0.921874999999996
40
0.921874999999996
40
0.937499999999996
40
0.937499999999996
40
0.968749999999998
40
0.968749999999998
40
1
40
1
40
1
40
1
41
1
10
243.064043108081
20
-1.73333313982991
30
0
41
1
10
243.189645971798
20
-1.73333313982991
30
0
41
1
10
243.313040350068
20
-1.74620457083898
30
0
41
1
10
243.494956795261
20
-1.78400441440309
30
0
41
1
10
243.555062190069
20
-1.79971090227298
30
0
41
1
10
243.674178617962
20
-1.83749206295207
30
0
41
1
10
243.733063341917
20
-1.85957445435938
30
0
41
1
10
243.904035925493
20
-1.93382771616177
30
0
41
1
10
244.011875042969
20
-1.99432956320203
30
0
41
1
10
244.164458712425
20
-2.10145357947144
30
0
41
1
10
244.214013542602
20
-2.14013924145024
30
0
41
1
10
244.308052831634
20
-2.22152179266425
30
0
41
1
10
244.352711052332
20
-2.26429922583336
30
0
41
1
10
244.479808634049
20
-2.39868675987125
30
0
41
1
10
244.555691277514
20
-2.49671253628614
30
0
41
1
10
244.687683521645
20
-2.70735515228896
30
0
41
1
10
244.742270170204
20
-2.81735140333066
30
0
41
1
10
244.807985642541
20
-2.98889019799464
30
0
41
1
10
244.827177057405
20
-3.04716885202089
30
0
41
1
10
244.860064353994
20
-3.1659413687145
30
0
41
1
10
244.873670471499
20
-3.22623190752444
30
0
41
1
10
244.905569038417
20
-3.40676721463461
30
0
41
1
10
244.915349830984
20
-3.52780032784
30
0
41
1
10
244.913182249636
20
-3.7103154228378
30
0
41
1
10
244.909596400333
20
-3.77161248537649
30
0
41
1
10
244.896799800898
20
-3.89292703205112
30
0
41
1
10
244.887634242327
20
-3.95284519881366
30
0
41
1
10
244.852090712846
20
-4.13045812039806
30
0
41
1
10
244.817741296817
20
-4.2460292493146
30
0
41
1
10
244.749870389901
20
-4.4150989173898
30
0
41
1
10
244.724449345737
20
-4.47076335789748
30
0
41
1
10
244.669089426365
20
-4.57841417596723
30
0
41
1
10
244.639044535894
20
-4.63069329200897
30
0
41
1
10
244.541861315659
20
-4.78295458566129
30
0
41
1
10
244.467752191944
20
-4.87840899965735
30
0
41
1
10
244.299408569846
20
-5.0564602019617
30
0
41
1
10
244.207382381551
20
-5.13659618942549
30
0
41
1
10
244.058879390171
20
-5.24233607046014
30
0
41
1
10
244.007552322591
20
-5.27522855506047
30
0
41
1
10
243.901084780101
20
-5.33612642119471
30
0
41
1
10
243.845617653775
20
-5.36427243700606
30
0
41
1
10
243.675478853321
20
-5.43981300022369
30
0
41
1
10
243.558432582578
20
-5.47798373261517
30
0
41
1
10
243.377392991173
20
-5.51694572257054
30
0
41
1
10
243.316128419221
20
-5.52686203117776
30
0
41
1
10
243.191673209318
20
-5.54026310887971
30
0
41
1
10
243.128896547323
20
-5.54366062420416
30
0
41
1
10
242.942460582595
20
-5.54394548346136
30
0
41
1
10
242.819290463645
20
-5.53118994341247
30
0
41
1
10
242.636220080003
20
-5.49254765870145
30
0
41
1
10
242.575522576451
20
-5.47634719497051
30
0
41
1
10
242.457604249667
20
-5.43824046694292
30
0
41
1
10
242.342395946755
20
-5.39428942641749
30
0
41
1
10
242.23242606087
20
-5.3389967276332
30
0
41
1
10
242.125063690299
20
-5.27803141300342
30
0
41
1
10
242.072656402817
20
-5.24464257234297
30
0
41
1
10
241.922572112314
20
-5.13821318051069
30
0
41
1
10
241.830773010215
20
-5.05835493663668
30
0
41
1
10
241.704871807777
20
-4.92566918040984
30
0
41
1
10
241.664731584381
20
-4.87904892264035
30
0
41
1
10
241.589766447119
20
-4.7830850942521
30
0
41
1
10
241.554806181977
20
-4.7336376568874
30
0
41
1
10
241.457221977471
20
-4.58102005707835
30
0
41
1
10
241.40182493445
20
-4.47361451949854
30
0
41
1
10
241.310670403241
20
-4.24713162973512
30
0
41
1
10
241.276210024244
20
-4.13123943091261
30
0
41
1
10
241.240618007853
20
-3.95381854128666
30
0
41
1
10
241.231450169462
20
-3.8940605681253
30
0
41
1
10
241.218622291952
20
-3.77327768237637
30
0
41
1
10
241.214965184806
20
-3.71193300960778
30
0
41
1
10
241.212662823583
20
-3.52856601844866
30
0
41
1
10
241.222467248904
20
-3.40754923370278
30
0
41
1
10
241.254081129467
20
-3.22788022728716
30
0
41
1
10
241.267455525176
20
-3.16830233427217
30
0
41
1
10
241.300095869735
20
-3.04980344195576
30
0
41
1
10
241.319464844792
20
-2.99069653264974
30
0
41
1
10
241.385355420002
20
-2.8182657467469
30
0
41
1
10
241.439839008282
20
-2.70858310835945
30
0
41
1
10
241.570147848707
20
-2.49997721693393
30
0
41
1
10
241.64699212687
20
-2.40021316614624
30
0
41
1
10
241.816663086465
20
-2.22047823756151
30
0
41
1
10
241.909785325762
20
-2.13956883727238
30
0
41
1
10
242.062230340754
20
-2.03207755412905
30
0
41
1
10
242.115483041046
20
-1.99843630557982
30
0
41
1
10
242.224091893172
20
-1.93735945392126
30
0
41
1
10
242.279619619228
20
-1.90976270734004
30
0
41
1
10
242.449805159185
20
-1.83564814806019
30
0
41
1
10
242.568398976494
20
-1.79763773225307
30
0
41
1
10
242.814092333313
20
-1.74622324194195
30
0
41
1
10
242.938440244364
20
-1.73333313982991
30
0
41
1
10
243.064043108081
20
-1.73333313982991
30
0
0
SPLINE
5
316
100
AcDbEntity
8
1
62
256
6
ByLayer
370
13
48
1
60
0
100
AcDbSpline
70
4
71
3
72
38
73
34
40
0
40
0
40
0
40
0
40
0.0505630016162061
40
0.154117716541059
40
0.267641517780152
40
0.391247585114219
40
0.524902028606856
40
0.537033142194309
40
0.549649302977278
40
0.562751805329338
40
0.576341892550953
40
0.590420751033925
40
0.604989503520627
40
0.620049201538411
40
0.635600817074409
40
0.651645233545156
40
0.668183236108168
40
0.685215501357907
40
0.702742586445965
40
0.720764917664426
40
0.739282778531797
40
0.758296297422612
40
0.77780543478437
40
0.797809969989018
40
0.818309487870444
40
0.839303365004351
40
0.860790755792488
40
0.882770578419322
40
0.905241500755888
40
0.928201926292706
40
0.951649980191222
40
0.97558349555121
40
1
40
1
40
1
40
1
41
1
10
27.6961114938154
20
-6.39949770249339
30
0
41
1
10
27.7219296188754
20
-6.46199955466344
30
0
41
1
10
27.8031331577855
20
-6.65410657507951
30
0
41
1
10
27.9568592527808
20
-6.9954537245259
30
0
41
1
10
28.1766979338676
20
-7.4385965953478
30
0
41
1
10
28.4425225283171
20
-7.92501029093583
30
0
41
1
10
28.6537803262959
20
-8.27689189439974
30
0
41
1
10
28.7821459029158
20
-8.48132757988827
30
0
41
1
10
28.8129409200153
20
-8.53011452097886
30
0
41
1
10
28.8450854166691
20
-8.58067875208531
30
0
41
1
10
28.8786061556259
20
-8.63299886553935
30
0
41
1
10
28.9135347656458
20
-8.68704541696087
30
0
41
1
10
28.9499000260689
20
-8.74278773435969
30
0
41
1
10
28.9877297194539
20
-8.80019177792158
30
0
41
1
10
29.0270497603571
20
-8.85922053133939
30
0
41
1
10
29.0678840775232
20
-8.91983367783297
30
0
41
1
10
29.1102542676931
20
-8.98198747871896
30
0
41
1
10
29.1541792980738
20
-9.04563459682066
30
0
41
1
10
29.1996751798694
20
-9.11072393836292
30
0
41
1
10
29.2467546352079
20
-9.17720049385079
30
0
41
1
10
29.2954267518546
20
-9.24500518454744
30
0
41
1
10
29.3456966281402
20
-9.31407471436231
30
0
41
1
10
29.3975650083199
20
-9.38434142713328
30
0
41
1
10
29.4510279098907
20
-9.45573317627037
30
0
41
1
10
29.5060762422499
20
-9.52817318479862
30
0
41
1
10
29.5626954245315
20
-9.60157998668117
30
0
41
1
10
29.6208649787251
20
-9.67586710369929
30
0
41
1
10
29.6805581976571
20
-9.75094380027983
30
0
41
1
10
29.7417415113917
20
-9.82671173839779
30
0
41
1
10
29.8043750136134
20
-9.90307751812156
30
0
41
1
10
29.8684085231169
20
-9.97990405834145
30
0
41
1
10
29.9337948598851
20
-10.057197623799
30
0
41
1
10
29.9777851406998
20
-10.1081508631545
30
0
41
1
10
30
20
-10.1338819797151
30
0
0
SPLINE
5
317
100
AcDbEntity
8
1
62
256
6
ByLayer
370
13
48
1
60
0
100
AcDbSpline
70
4
71
3
72
26
73
22
40
0
40
0
40
0
40
0
40
0.0624999999999959
40
0.0624999999999959
40
0.124999999999992
40
0.124999999999992
40
0.249999999999983
40
0.249999999999983
40
0.374999999999973
40
0.374999999999973
40
0.437499999999975
40
0.437499999999975
40
0.499999999999976
40
0.499999999999976
40
0.749999999999991
40
0.749999999999991
40
0.812499999999993
40
0.812499999999993
40
0.874999999999995
40
0.874999999999995
40
1
40
1
40
1
40
1
41
1
10
229.219787490962
20
8.47968922438497
30
0
41
1
10
229.278983331739
20
8.43040301420157
30
0
41
1
10
229.337029151595
20
8.37944468838026
30
0
41
1
10
229.451064170289
20
8.27452222490453
30
0
41
1
10
229.507063524382
20
8.22053417841198
30
0
41
1
10
229.669636009865
20
8.05728754167896
30
0
41
1
10
229.771852767372
20
7.94595085987186
30
0
41
1
10
229.965168240676
20
7.71899895006632
30
0
41
1
10
230.056192597309
20
7.60329540377876
30
0
41
1
10
230.183968233365
20
7.42585965490397
30
0
41
1
10
230.225097896745
20
7.36606884486821
30
0
41
1
10
230.304413742983
20
7.24517905434533
30
0
41
1
10
230.342694294019
20
7.18390991898693
30
0
41
1
10
230.524465244053
20
6.87828492154247
30
0
41
1
10
230.641679667463
20
6.6342179839481
30
0
41
1
10
230.754588361392
20
6.32804504199976
30
0
41
1
10
230.775426715456
20
6.26672071252293
30
0
41
1
10
230.813424809136
20
6.14373193024937
30
0
41
1
10
230.830619593645
20
6.08188907718389
30
0
41
1
10
230.875895919062
20
5.897618941312
30
0
41
1
10
230.897827525362
20
5.77606419567618
30
0
41
1
10
230.911555622404
20
5.65553354440902
30
0
0
SPLINE
5
318
100
AcDbEntity
8
1
62
256
6
ByLayer
370
13
48
1
60
0
100
AcDbSpline
70
4
71
3
72
48
73
44
40
0
40
0
40
0
40
0
40
0.046345644860023
40
0.046345644860023
40
0.0926912897200461
40
0.0926912897200461
40
0.185382579440092
40
0.185382579440092
40
0.278073869160138
40
0.278073869160138
40
0.324419514020161
40
0.324419514020161
40
0.370765158880184
40
0.370765158880184
40
0.417110803740207
40
0.417110803740207
40
0.46345644860023
40
0.46345644860023
40
0.486629271030241
40
0.486629271030241
40
0.509802093460252
40
0.509802093460252
40
0.556147738320275
40
0.556147738320275
40
0.602493383180298
40
0.602493383180298
40
0.648839028040321
40
0.648839028040321
40
0.695184672900344
40
0.695184672900344
40
0.741530317760367
40
0.741530317760367
40
0.834221607480415
40
0.834221607480415
40
0.880567252340438
40
0.880567252340438
40
0.903740074770451
40
0.903740074770451
40
0.926912897200464
40
0.926912897200464
40
0.97325854206049
40
0.97325854206049
40
1
40
1
40
1
40
1
41
1
10
224.062468691243
20
2.58081775186398
30
0
41
1
10
223.009521686138
20
3.04946366993536
30
0
41
1
10
221.956615101116
20
3.51507256605427
30
0
41
1
10
219.849775270937
20
4.43778813068124
30
0
41
1
10
218.795823492868
20
4.8948901480654
30
0
41
1
10
215.639089095002
20
6.24609736833412
30
0
41
1
10
213.538594432758
20
7.12125685860769
30
0
41
1
10
209.336478054261
20
8.80172160066439
30
0
41
1
10
207.234913811158
20
9.60712252355347
30
0
41
1
10
204.074427275832
20
10.748418878096
30
0
41
1
10
203.021361035931
20
11.117013605584
30
0
41
1
10
200.917807466492
20
11.8276298849943
30
0
41
1
10
199.866900953066
20
12.1698919550891
30
0
41
1
10
197.766117331635
20
12.8271637902914
30
0
41
1
10
196.716368850382
20
13.1423517649932
30
0
41
1
10
194.616482839224
20
13.7431401311387
30
0
41
1
10
193.566207924697
20
14.0285122629426
30
0
41
1
10
191.987961408372
20
14.4311211543226
30
0
41
1
10
191.461426940994
20
14.561115127122
30
0
41
1
10
190.406893921618
20
14.8121051028495
30
0
41
1
10
189.878618211539
20
14.9330897313597
30
0
41
1
10
188.29172366316
20
15.2803933042292
30
0
41
1
10
187.231335932072
20
15.4908697445746
30
0
41
1
10
185.0969758945
20
15.8648556554183
30
0
41
1
10
184.022413838539
20
16.0279726721081
30
0
41
1
10
181.859131284994
20
16.315237911177
30
0
41
1
10
180.770513672968
20
16.4394945578473
30
0
41
1
10
178.580682525584
20
16.6569662798607
30
0
41
1
10
177.479465409799
20
16.750182114765
30
0
41
1
10
175.266431128931
20
16.9120986552015
30
0
41
1
10
174.154829342854
20
16.9808240840526
30
0
41
1
10
170.815006375186
20
17.1570654590638
30
0
41
1
10
168.577914589467
20
17.2334026018788
30
0
41
1
10
165.19637627444
20
17.3058953187236
30
0
41
1
10
164.064945866773
20
17.3232104176215
30
0
41
1
10
162.360500316989
20
17.3420035685531
30
0
41
1
10
161.791129789123
20
17.3470705250188
30
0
41
1
10
160.649823253958
20
17.3553198469587
30
0
41
1
10
160.077665173007
20
17.358508589313
30
0
41
1
10
158.360678000762
20
17.3659896180499
30
0
41
1
10
157.214563341465
20
17.368244629605
30
0
41
1
10
155.405032662419
20
17.3698670735265
30
0
41
1
10
154.742515578485
20
17.3700466146348
30
0
41
1
10
154.079552036334
20
17.3699985485692
30
0
0
SPLINE
5
319
100
AcDbEntity
8
1
62
256
6
ByLayer
370
13
48
1
60
0
100
AcDbSpline
70
4
71
3
72
38
73
34
40
0
40
0
40
0
40
0
40
0.0624999999999812
40
0.0624999999999812
40
0.124999999999962
40
0.124999999999962
40
0.249999999999925
40
0.249999999999925
40
0.312499999999914
40
0.312499999999914
40
0.374999999999902
40
0.374999999999902
40
0.406249999999905
40
0.406249999999905
40
0.437499999999907
40
0.437499999999907
40
0.499999999999912
40
0.499999999999912
40
0.531249999999914
40
0.531249999999914
40
0.562499999999917
40
0.562499999999917
40
0.624999999999921
40
0.624999999999921
40
0.749999999999947
40
0.749999999999947
40
0.81249999999996
40
0.81249999999996
40
0.874999999999974
40
0.874999999999974
40
0.937499999999987
40
0.937499999999987
40
1
40
1
40
1
40
1
41
1
10
238.581015090068
20
5.60378248244504
30
0
41
1
10
238.529695732165
20
5.52496413697656
30
0
41
1
10
238.474631543411
20
5.45079551222034
30
0
41
1
10
238.356983899921
20
5.31086595323976
30
0
41
1
10
238.294360679359
20
5.24521860452694
30
0
41
1
10
238.100449890964
20
5.06514001952368
30
0
41
1
10
237.961647932204
20
4.96507577498042
30
0
41
1
10
237.735871868006
20
4.84141856856922
30
0
41
1
10
237.658921740467
20
4.80538756286256
30
0
41
1
10
237.500463442179
20
4.74304598546539
30
0
41
1
10
237.419000595968
20
4.7167184526991
30
0
41
1
10
237.291082773036
20
4.68455221228743
30
0
41
1
10
237.247468972351
20
4.67505693946774
30
0
41
1
10
237.1575309696
20
4.65866451032386
30
0
41
1
10
237.110838638964
20
4.6517454537655
30
0
41
1
10
236.97032861786
20
4.63582452503033
30
0
41
1
10
236.874956575678
20
4.63136352594762
30
0
41
1
10
236.729360031544
20
4.63402376967863
30
0
41
1
10
236.680789298495
20
4.63648893228412
30
0
41
1
10
236.585689435328
20
4.64423594033372
30
0
41
1
10
236.538787125434
20
4.64952326231563
30
0
41
1
10
236.399502193323
20
4.66940860207293
30
0
41
1
10
236.308268256817
20
4.68806388593694
30
0
41
1
10
236.039440332511
20
4.75960313620479
30
0
41
1
10
235.870410507112
20
4.82657008277988
30
0
41
1
10
235.62797343011
20
4.95775417946564
30
0
41
1
10
235.548798369652
20
5.00689830636654
30
0
41
1
10
235.395690455103
20
5.11606975259238
30
0
41
1
10
235.322740873126
20
5.17534535113973
30
0
41
1
10
235.184146928087
20
5.30392952357397
30
0
41
1
10
235.11839434405
20
5.37334772027893
30
0
41
1
10
234.9952298044
20
5.52325222922366
30
0
41
1
10
234.939360004991
20
5.60185551735827
30
0
41
1
10
234.889339449605
20
5.68417035295374
30
0
0
SPLINE
5
31A
100
AcDbEntity
8
1
62
256
6
ByLayer
370
13
48
1
60
0
100
AcDbSpline
70
4
71
3
72
14
73
10
40
0
40
0
40
0
40
0
40
0.25
40
0.25
40
0.5
40
0.5
40
0.75
40
0.75
40
1
40
1
40
1
40
1
41
1
10
26.2987907900946
20
-6.97049484585344
30
0
41
1
10
26.5192315311558
20
-6.84877967678469
30
0
41
1
10
26.7498636950839
20
-6.73970747975784
30
0
41
1
10
27.2175983848591
20
-6.55347154867994
30
0
41
1
10
27.4557522535047
20
-6.47554208945022
30
0
41
1
10
27.9405976511661
20
-6.34965332096019
30
0
41
1
10
28.1872885273608
20
-6.3016924281398
30
0
41
1
10
28.6895550127676
20
-6.23679008899634
30
0
41
1
10
28.9425969590479
20
-6.22023856624256
30
0
41
1
10
29.1961524620343
20
-6.21975799052512
30
0
0
SPLINE
5
31B
100
AcDbEntity
8
1
62
256
6
ByLayer
370
13
48
1
60
0
100
AcDbSpline
70
4
71
3
72
18
73
14
40
0
40
0
40
0
40
0
40
0.25
40
0.25
40
0.375
40
0.375
40
0.499999999999999
40
0.499999999999999
40
0.749999999999999
40
0.749999999999999
40
0.874999999999999
40
0.874999999999999
40
1
40
1
40
1
40
1
41
1
10
6.30423081416259
20
-18.3397773811844
30
0
41
1
10
6.17444440213681
20
-18.5738286697223
30
0
41
1
10
6.0757493852299
20
-18.8045057687264
30
0
41
1
10
5.97472641797876
20
-19.1449524123722
30
0
41
1
10
5.94894263176937
20
-19.2575983509649
30
0
41
1
10
5.91423021653836
20
-19.4805394145984
30
0
41
1
10
5.90557260959655
20
-19.5890383674229
30
0
41
1
10
5.90545747794145
20
-19.9057963560994
30
0
41
1
10
5.93931362284546
20
-20.1054293713708
30
0
41
1
10
6.04009760067331
20
-20.3877885878303
30
0
41
1
10
6.0821980160259
20
-20.4790206713577
30
0
41
1
10
6.1816261322046
20
-20.6525404937212
30
0
41
1
10
6.23908497010792
20
-20.7352729646445
30
0
41
1
10
6.30420344361433
20
-20.8140732042562
30
0
0
SPLINE
5
31C
100
AcDbEntity
8
1
62
256
6
ByLayer
370
13
48
1
60
0
100
AcDbSpline
70
4
71
3
72
10
73
6
40
0
40
0
40
0
40
0
40
0.5
40
0.5
40
1
40
1
40
1
40
1
41
1
10
228.353071731598
20
8.51705179193652
30
0
41
1
10
228.497258409817
20
8.52215418708201
30
0
41
1
10
228.640340691024
20
8.52205039254187
30
0
41
1
10
228.924214727735
20
8.51078100636539
30
0
41
1
10
229.063265790756
20
8.49963732999709
30
0
41
1
10
229.197821530192
20
8.48314830660999
30
0
0
SPLINE
5
31D
100
AcDbEntity
8
1
62
256
6
ByLayer
370
13
48
1
60
0
100
AcDbSpline
70
4
71
3
72
14
73
10
40
0
40
0
40
0
40
0
40
0.529019318821061
40
0.529019318821061
40
0.793528978231592
40
0.793528978231592
40
0.925783807936857
40
0.925783807936857
40
1
40
1
40
1
40
1
41
1
10
6.30423081416262
20
-18.3397773811844
30
0
41
1
10
6.58029739038173
20
-17.3404739539658
30
0
41
1
10
6.93905203019989
20
-16.3606304030665
30
0
41
1
10
7.60309940954959
20
-14.9194572223303
30
0
41
1
10
7.84560429118507
20
-14.4438733122426
30
0
41
1
10
8.24277279354152
20
-13.7379778290968
30
0
41
1
10
8.38074159430127
20
-13.503926234312
30
0
41
1
10
8.60515061294515
20
-13.1405478643345
30
0
41
1
10
8.68757973295224
20
-13.0104575109784
30
0
41
1
10
8.77159447662052
20
-12.8811294185378
30
0
0
SPLINE
5
31E
100
AcDbEntity
8
1
62
256
6
ByLayer
370
13
48
1
60
0
100
AcDbSpline
70
4
71
3
72
8
73
4
40
0
40
0
40
0
40
0
40
1
40
1
40
1
40
1
41
1
10
30
20
-17.4896265731795
30
0
41
1
10
29.7316528210752
20
-17.4896313912705
30
0
41
1
10
29.4637044517144
20
-17.4959366889691
30
0
41
1
10
29.1961524592555
20
-17.508503990647
30
0
0
SPLINE
5
31F
100
AcDbEntity
8
1
62
256
6
ByLayer
370
13
48
1
60
0
100
AcDbSpline
70
4
71
3
72
14
73
10
40
0
40
0
40
0
40
0
40
0.125
40
0.125
40
0.25
40
0.25
40
0.5
40
0.5
40
1
40
1
40
1
40
1
41
1
10
244.054704309832
20
6.31069207911042
30
0
41
1
10
244.087742521663
20
6.31242353842399
30
0
41
1
10
244.121413290872
20
6.31502914683688
30
0
41
1
10
244.188067960623
20
6.32189916553602
30
0
41
1
10
244.221334155679
20
6.32617842943372
30
0
41
1
10
244.320557694701
20
6.34148300676833
30
0
41
1
10
244.386107875865
20
6.3549811048303
30
0
41
1
10
244.581484355439
20
6.40551252230361
30
0
41
1
10
244.709976378917
20
6.45234639114659
30
0
41
1
10
244.838371678002
20
6.5149489501058
30
0
0
SPLINE
5
320
100
AcDbEntity
8
1
62
256
6
ByLayer
370
13
48
1
60
0
100
AcDbSpline
70
4
71
3
72
8
73
4
40
0
40
0
40
0
40
0
40
1
40
1
40
1
40
1
41
1
10
239.478350408076
20
4.88906740706329
30
0
41
1
10
239.70225628913
20
4.93988236121601
30
0
41
1
10
239.917979880234
20
4.98196257815911
30
0
41
1
10
240.125223923378
20
5.01714471315611
30
0
0
SPLINE
5
321
100
AcDbEntity
8
1
62
256
6
ByLayer
370
13
48
1
60
0
100
AcDbSpline
70
4
71
3
72
8
73
4
40
0
40
0
40
0
40
0
40
1
40
1
40
1
40
1
41
1
10
246.970195310145
20
6.4597777014898
30
0
41
1
10
246.969223846156
20
6.46096727091091
30
0
41
1
10
246.968247116968
20
6.46215237396277
30
0
41
1
10
246.967265187105
20
6.46333292671503
30
0
0
SPLINE
5
322
100
AcDbEntity
8
1
62
256
6
ByLayer
370
13
48
1
60
0
100
AcDbSpline
70
4
71
3
72
8
73
4
40
0
40
0
40
0
40
0
40
1
40
1
40
1
40
1
41
1
10
35
20
-6.21808020055835
30
0
41
1
10
33.3333333224937
20
-6.21829381923922
30
0
41
1
10
31.6666666527959
20
-6.21857088660119
30
0
41
1
10
30
20
-6.21891389786782
30
0
0
SPLINE
5
323
100
AcDbEntity
8
1
62
256
6
ByLayer
370
13
48
1
60
0
100
AcDbSpline
70
4
71
3
72
46
73
42
40
0
40
0
40
0
40
0
40
0.124999999999991
40
0.124999999999991
40
0.249999999999981
40
0.249999999999981
40
0.281249999999979
40
0.281249999999979
40
0.312499999999977
40
0.312499999999977
40
0.374999999999978
40
0.374999999999978
40
0.406249999999978
40
0.406249999999978
40
0.437499999999979
40
0.437499999999979
40
0.49999999999998
40
0.49999999999998
40
0.56249999999998
40
0.56249999999998
40
0.593749999999981
40
0.593749999999981
40
0.624999999999981
40
0.624999999999981
40
0.687499999999982
40
0.687499999999982
40
0.718749999999983
40
0.718749999999983
40
0.749999999999983
40
0.749999999999983
40
0.812499999999986
40
0.812499999999986
40
0.843749999999989
40
0.843749999999989
40
0.874999999999991
40
0.874999999999991
40
0.937499999999996
40
0.937499999999996
40
0.968749999999998
40
0.968749999999998
40
1
40
1
40
1
40
1
41
1
10
230.300457997918
20
1.19316093608171
30
0
41
1
10
230.891301913218
20
1.10314617971173
30
0
41
1
10
231.485964367828
20
1.02877549842356
30
0
41
1
10
232.6862018939
20
0.924741754016424
30
0
41
1
10
233.291728834262
20
0.894881503833517
30
0
41
1
10
234.058310147286
20
0.897183770173939
30
0
41
1
10
234.211745619106
20
0.899658852273774
30
0
41
1
10
234.516839927453
20
0.908874027410008
30
0
41
1
10
234.668786006511
20
0.915613678614534
30
0
41
1
10
235.122709082229
20
0.942625869864372
30
0
41
1
10
235.422778901602
20
0.969663327034368
30
0
41
1
10
235.868505375916
20
1.02574954804083
30
0
41
1
10
236.016349420802
20
1.04703945705239
30
0
41
1
10
236.310452416832
20
1.09524173496629
30
0
41
1
10
236.457112147744
20
1.12225400201984
30
0
41
1
10
236.888362316211
20
1.21115165503087
30
0
41
1
10
237.165917496961
20
1.28107541355686
30
0
41
1
10
237.699636778819
20
1.44384919903484
30
0
41
1
10
237.95582156004
20
1.53667706171004
30
0
41
1
10
238.322092351164
20
1.69521751312573
30
0
41
1
10
238.441510525858
20
1.75146882891434
30
0
41
1
10
238.672321517479
20
1.87019510189927
30
0
41
1
10
238.782637200089
20
1.93208768592831
30
0
41
1
10
239.098308694322
20
2.12535681905408
30
0
41
1
10
239.288471240253
20
2.26428385516616
30
0
41
1
10
239.541903613837
20
2.48848351250166
30
0
41
1
10
239.621417166518
20
2.56627133245718
30
0
41
1
10
239.767340705093
20
2.72517366506597
30
0
41
1
10
239.833684506797
20
2.80610761127196
30
0
41
1
10
240.013461750586
20
3.05322341532917
30
0
41
1
10
240.107737671387
20
3.22369758606448
30
0
41
1
10
240.211298983081
20
3.48788984915083
30
0
41
1
10
240.239542644697
20
3.57776116049567
30
0
41
1
10
240.282574329757
20
3.75736940066315
30
0
41
1
10
240.297509245921
20
3.84732523561655
30
0
41
1
10
240.323568784897
20
4.11762488739032
30
0
41
1
10
240.316030229383
20
4.29839895999982
30
0
41
1
10
240.269521304874
20
4.57037158520694
30
0
41
1
10
240.248068564472
20
4.66118546392141
30
0
41
1
10
240.194526052952
20
4.8404148871173
30
0
41
1
10
240.162390925077
20
4.92917884716493
30
0
41
1
10
240.125223923378
20
5.01714471315546
30
0
0
SPLINE
5
324
100
AcDbEntity
8
1
62
256
6
ByLayer
370
13
48
1
60
0
100
AcDbSpline
70
4
71
3
72
8
73
4
40
0
40
0
40
0
40
0
40
1
40
1
40
1
40
1
41
1
10
248.428619731155
20
0.476441335918793
30
0
41
1
10
248.545254867635
20
0.496540623527096
30
0
41
1
10
248.661243851777
20
0.505969753395419
30
0
41
1
10
248.777498657364
20
0.506233335049757
30
0
0
SPLINE
5
325
100
AcDbEntity
8
1
62
256
6
ByLayer
370
13
48
1
60
0
100
AcDbSpline
70
4
71
3
72
24
73
20
40
0
40
0
40
0
40
0
40
0.184860041223779
40
0.184860041223779
40
0.277290061835668
40
0.277290061835668
40
0.369720082447557
40
0.369720082447557
40
0.554580123671334
40
0.554580123671334
40
0.647010144283223
40
0.647010144283223
40
0.739440164895113
40
0.739440164895113
40
0.831870185507003
40
0.831870185507003
40
0.924300206118892
40
0.924300206118892
40
1
40
1
40
1
40
1
41
1
10
225.752043434026
20
16.551327369796
30
0
41
1
10
223.844972491571
20
16.6988591881044
30
0
41
1
10
221.939618574897
20
16.785921872456
30
0
41
1
10
219.078960140903
20
16.8260584805121
30
0
41
1
10
218.125754826908
20
16.8243116173635
30
0
41
1
10
216.221547218467
20
16.7904450768233
30
0
41
1
10
215.27019134954
20
16.7582843929506
30
0
41
1
10
212.417082163028
20
16.6151466011119
30
0
41
1
10
210.51623921423
20
16.4572553416278
30
0
41
1
10
207.661802792146
20
16.1269866948305
30
0
41
1
10
206.709794079697
20
16.001324259049
30
0
41
1
10
204.803821583747
20
15.718870945811
30
0
41
1
10
203.849712775058
20
15.5621672535087
30
0
41
1
10
201.94431704236
20
15.2229753762107
30
0
41
1
10
200.992312051801
20
15.0403932286869
30
0
41
1
10
199.089065019546
20
14.6527646857889
30
0
41
1
10
198.138156204018
20
14.4487945457441
30
0
41
1
10
196.404816660845
20
14.0558810751917
30
0
41
1
10
195.622743228252
20
13.8702435013875
30
0
41
1
10
194.838469180598
20
13.6789042481133
30
0
0
SPLINE
5
326
100
AcDbEntity
8
1
62
256
6
ByLayer
370
13
48
1
60
0
100
AcDbSpline
70
4
71
3
72
10
73
6
40
0
40
0
40
0
40
0
40
0.5
40
0.5
40
1
40
1
40
1
40
1
41
1
10
229.394033037318
20
5.3921692761478
30
0
41
1
10
229.123770370618
20
5.55181288952505
30
0
41
1
10
228.8450786141
20
5.70150421649564
30
0
41
1
10
228.274035039744
20
5.98475833870717
30
0
41
1
10
227.981662152838
20
6.11829625754868
30
0
41
1
10
227.683398543351
20
6.24487895826547
30
0
0
SPLINE
5
327
100
AcDbEntity
8
1
62
256
6
ByLayer
370
13
48
1
60
0
100
AcDbSpline
70
4
71
3
72
8
73
4
40
0
40
0
40
0
40
0
40
1
40
1
40
1
40
1
41
1
10
227.683398543355
20
6.24487895826235
30
0
41
1
10
227.35110667717
20
6.32684541739346
30
0
41
1
10
227.013932418837
20
6.39589601901142
30
0
41
1
10
226.672239821241
20
6.45367405559401
30
0
0
SPLINE
5
328
100
AcDbEntity
8
1
62
256
6
ByLayer
370
13
48
1
60
0
100
AcDbSpline
70
4
71
3
72
12
73
8
40
0
40
0
40
0
40
0
40
0.25
40
0.25
40
0.5
40
0.5
40
1
40
1
40
1
40
1
41
1
10
248.41449223535
20
0.486291051322325
30
0
41
1
10
248.415770303082
20
0.535044430498118
30
0
41
1
10
248.417818617054
20
0.579516920426812
30
0
41
1
10
248.42347849664
20
0.659773630455391
30
0
41
1
10
248.42699591026
20
0.69400088697958
30
0
41
1
10
248.439391578212
20
0.776627125870363
30
0
41
1
10
248.450002398137
20
0.802722920937498
30
0
41
1
10
248.461169064908
20
0.793404362734861
30
0
0
SPLINE
5
329
100
AcDbEntity
8
1
62
256
6
ByLayer
370
13
48
1
60
0
100
AcDbSpline
70
4
71
3
72
14
73
10
40
0
40
0
40
0
40
0
40
0.25
40
0.25
40
0.5
40
0.5
40
0.75
40
0.75
40
1
40
1
40
1
40
1
41
1
10
226.08741887689
20
1.85464408479618
30
0
41
1
10
226.303943845168
20
1.76114459915081
30
0
41
1
10
226.521513179917
20
1.6863432926898
30
0
41
1
10
226.959323865645
20
1.57044164828341
30
0
41
1
10
227.179557128563
20
1.52938811453879
30
0
41
1
10
227.622846212496
20
1.48061259244574
30
0
41
1
10
227.841225747283
20
1.47348412837616
30
0
41
1
10
228.268608688336
20
1.49098179491446
30
0
41
1
10
228.478131417981
20
1.51557840090265
30
0
41
1
10
228.683168674948
20
1.55551257240381
30
0
0
SPLINE
5
32A
100
AcDbEntity
8
1
62
256
6
ByLayer
370
13
48
1
60
0
100
AcDbSpline
70
4
71
3
72
18
73
14
40
0
40
0
40
0
40
0
40
0.0979851519616477
40
0.0979851519616477
40
0.24832095996804
40
0.24832095996804
40
0.323488863971236
40
0.323488863971236
40
0.398656767974432
40
0.398656767974432
40
0.699328383987216
40
0.699328383987216
40
1
40
1
40
1
40
1
41
1
10
11.8148781173078
20
-11.3260569319338
30
0
41
1
10
11.550043313771
20
-11.591917137572
30
0
41
1
10
11.2926804526868
20
-11.8631992010699
30
0
41
1
10
10.659145566307
20
-12.5642900915102
30
0
41
1
10
10.2930596872597
20
-13.0013815267648
30
0
41
1
10
9.77075661320443
20
-13.6763390226252
30
0
41
1
10
9.60098102688541
20
-13.9047684387425
30
0
41
1
10
9.27127557136836
20
-14.3672848956207
30
0
41
1
10
9.11204212467069
20
-14.6003764207377
30
0
41
1
10
8.34384540805142
20
-15.774903269407
30
0
41
1
10
7.8200901511064
20
-16.7442289269629
30
0
41
1
10
6.93871178601292
20
-18.7386033227683
30
0
41
1
10
6.58036274976259
20
-19.7630674050117
30
0
41
1
10
6.30420344361433
20
-20.8140732042562
30
0
0
SPLINE
5
32B
100
AcDbEntity
8
1
62
256
6
ByLayer
370
13
48
1
60
0
100
AcDbSpline
70
4
71
3
72
12
73
8
40
0
40
0
40
0
40
0
40
0.25
40
0.25
40
0.5
40
0.5
40
1
40
1
40
1
40
1
41
1
10
229.468253986025
20
8.44727777248946
30
0
41
1
10
229.601903406726
20
8.40948046995979
30
0
41
1
10
229.733110029251
20
8.37861527802201
30
0
41
1
10
229.992446516864
20
8.32881793147888
30
0
41
1
10
230.120865302619
20
8.30973200441551
30
0
41
1
10
230.501039665264
20
8.26632150105647
30
0
41
1
10
230.745703776439
20
8.25547306491541
30
0
41
1
10
230.985900952274
20
8.25571768120332
30
0
0
SPLINE
5
32C
100
AcDbEntity
8
1
62
256
6
ByLayer
370
13
48
1
60
0
100
AcDbSpline
70
4
71
3
72
66
73
62
40
0
40
0
40
0
40
0
40
0.03125
40
0.03125
40
0.0625
40
0.0625
40
0.0703125000000003
40
0.0703125000000003
40
0.0781250000000007
40
0.0781250000000007
40
0.0937500000000015
40
0.0937500000000015
40
0.101562500000001
40
0.101562500000001
40
0.109375000000001
40
0.109375000000001
40
0.125000000000001
40
0.125000000000001
40
0.156250000000001
40
0.156250000000001
40
0.187500000000001
40
0.187500000000001
40
0.218750000000001
40
0.218750000000001
40
0.250000000000002
40
0.250000000000002
40
0.281250000000002
40
0.281250000000002
40
0.312500000000002
40
0.312500000000002
40
0.343750000000002
40
0.343750000000002
40
0.375000000000002
40
0.375000000000002
40
0.437500000000002
40
0.437500000000002
40
0.468750000000001
40
0.468750000000001
40
0.500000000000001
40
0.500000000000001
40
0.5625
40
0.5625
40
0.59375
40
0.59375
40
0.625
40
0.625
40
0.65625
40
0.65625
40
0.6875
40
0.6875
40
0.71875
40
0.71875
40
0.75
40
0.75
40
0.8125
40
0.8125
40
0.875
40
0.875
40
0.9375
40
0.9375
40
1
40
1
40
1
40
1
41
1
10
224.232093176766
20
-17.273196422757
30
0
41
1
10
223.094501568717
20
-17.2593334495718
30
0
41
1
10
221.954062281957
20
-17.2463951538394
30
0
41
1
10
219.677225447948
20
-17.2146497641675
30
0
41
1
10
218.541051175023
20
-17.1959846867954
30
0
41
1
10
217.133031546589
20
-17.1553248594
30
0
41
1
10
216.852049092357
20
-17.1462741180504
30
0
41
1
10
216.291625862177
20
-17.1256991853562
30
0
41
1
10
216.01165743879
20
-17.1141492619861
30
0
41
1
10
215.180056950157
20
-17.0748169592604
30
0
41
1
10
214.636222358682
20
-17.0424033470747
30
0
41
1
10
213.840965216779
20
-16.9785664317114
30
0
41
1
10
213.578898151966
20
-16.9548878088543
30
0
41
1
10
213.057164785752
20
-16.9040710888475
30
0
41
1
10
212.797331921223
20
-16.8770274858492
30
0
41
1
10
212.01695899435
20
-16.7930829938713
30
0
41
1
10
211.49622852419
20
-16.7330640274561
30
0
41
1
10
209.933844233739
20
-16.5403664916082
30
0
41
1
10
208.893231861121
20
-16.3941509577682
30
0
41
1
10
206.812748672976
20
-16.0664245461042
30
0
41
1
10
205.772684749225
20
-15.8850349668893
30
0
41
1
10
203.690265591672
20
-15.4895686693756
30
0
41
1
10
202.647670638611
20
-15.2752169783431
30
0
41
1
10
200.561840520883
20
-14.8195318881948
30
0
41
1
10
199.517885982787
20
-14.5782723744088
30
0
41
1
10
197.423419450168
20
-14.0772221531834
30
0
41
1
10
196.372741614504
20
-13.8177148050407
30
0
41
1
10
194.262088676045
20
-13.287794244247
30
0
41
1
10
193.202229960763
20
-13.017219222808
30
0
41
1
10
191.071818800528
20
-12.4712431244084
30
0
41
1
10
190.000788032113
20
-12.1957262579299
30
0
41
1
10
187.852207915441
20
-11.6482380274893
30
0
41
1
10
186.774026103549
20
-11.3761098159259
30
0
41
1
10
183.525559745771
20
-10.5752358084159
30
0
41
1
10
181.34095379395
20
-10.0632840378039
30
0
41
1
10
178.034820003268
20
-9.34943184816836
30
0
41
1
10
176.927453121619
20
-9.12036435735018
30
0
41
1
10
174.707991654497
20
-8.68451624001804
30
0
41
1
10
173.595333667757
20
-8.47760251466323
30
0
41
1
10
170.248155754935
20
-7.89472752147407
30
0
41
1
10
168.004464478109
20
-7.55671444481203
30
0
41
1
10
164.623307794495
20
-7.12076286942087
30
0
41
1
10
163.493145938106
20
-6.98749010165176
30
0
41
1
10
161.231445477139
20
-6.75064361048379
30
0
41
1
10
160.099451704462
20
-6.64706960618591
30
0
41
1
10
157.832905503979
20
-6.47407422512867
30
0
41
1
10
156.698360614121
20
-6.40455708222237
30
0
41
1
10
154.426838387711
20
-6.29851365083891
30
0
41
1
10
153.289902303348
20
-6.26142519442445
30
0
41
1
10
151.014396989828
20
-6.20956247742689
30
0
41
1
10
149.875757423927
20
-6.19445448139754
30
0
41
1
10
147.598901695676
20
-6.17472914763351
30
0
41
1
10
146.460477590216
20
-6.17004091488613
30
0
41
1
10
143.045209589261
20
-6.16192381989353
30
0
41
1
10
140.768371499939
20
-6.16649532696016
30
0
41
1
10
136.214700126088
20
-6.18225465567073
30
0
41
1
10
133.937866580011
20
-6.1930803291616
30
0
41
1
10
129.384195831529
20
-6.20969060468431
30
0
41
1
10
127.107359255565
20
-6.21633882032427
30
0
41
1
10
122.553682531274
20
-6.22471803192096
30
0
41
1
10
120.276842178131
20
-6.22616738123386
30
0
41
1
10
118
20
-6.22510576765615
30
0
0
SPLINE
5
32D
100
AcDbEntity
8
1
62
256
6
ByLayer
370
13
48
1
60
0
100
AcDbSpline
70
4
71
3
72
10
73
6
40
0
40
0
40
0
40
0
40
0.5
40
0.5
40
1
40
1
40
1
40
1
41
1
10
247.732611419457
20
-2.96827141795308
30
0
41
1
10
247.786999048324
20
-3.26407951880691
30
0
41
1
10
247.820323214223
20
-3.55916014482679
30
0
41
1
10
247.847785247999
20
-4.14768192577148
30
0
41
1
10
247.841912744012
20
-4.44112382198193
30
0
41
1
10
247.816668221319
20
-4.73369852587322
30
0
0
SPLINE
5
32E
100
AcDbEntity
8
1
62
256
6
ByLayer
370
13
48
1
60
0
100
AcDbSpline
70
4
71
3
72
10
73
6
40
0
40
0
40
0
40
0
40
0.5
40
0.5
40
1
40
1
40
1
40
1
41
1
10
240.646207417295
20
6.33233479547906
30
0
41
1
10
240.679079927406
20
6.33405757073345
30
0
41
1
10
240.712355978378
20
6.33245848990566
30
0
41
1
10
240.776976510677
20
6.32318067113923
30
0
41
1
10
240.808353512457
20
6.31557400473662
30
0
41
1
10
240.838762199696
20
6.30533829934836
30
0
0
SPLINE
5
32F
100
AcDbEntity
8
1
62
256
6
ByLayer
370
13
48
1
60
0
100
AcDbSpline
70
4
71
3
72
20
73
16
40
0
40
0
40
0
40
0
40
0.124999999999999
40
0.124999999999999
40
0.249999999999998
40
0.249999999999998
40
0.374999999999997
40
0.374999999999997
40
0.499999999999995
40
0.499999999999995
40
0.75
40
0.75
40
0.875
40
0.875
40
1
40
1
40
1
40
1
41
1
10
227.736061122329
20
6.41468250991042
30
0
41
1
10
227.758808842178
20
6.48109497244997
30
0
41
1
10
227.780498330857
20
6.55165443410183
30
0
41
1
10
227.822891618105
20
6.7011747111157
30
0
41
1
10
227.84315522094
20
6.77865835556722
30
0
41
1
10
227.882386229896
20
6.93840813521911
30
0
41
1
10
227.901360325904
20
7.02073673482593
30
0
41
1
10
227.938446215546
20
7.19029684112542
30
0
41
1
10
227.956644449223
20
7.27803813385211
30
0
41
1
10
228.009006674778
20
7.5411134802315
30
0
41
1
10
228.041283256628
20
7.7184672315434
30
0
41
1
10
228.089759413192
20
7.98613328932785
30
0
41
1
10
228.105579362611
20
8.07360083694095
30
0
41
1
10
228.138239292866
20
8.24478455003344
30
0
41
1
10
228.154915247129
20
8.32853832866434
30
0
41
1
10
228.174344004939
20
8.40987726524432
30
0
0
SPLINE
5
330
100
AcDbEntity
8
1
62
256
6
ByLayer
370
13
48
1
60
0
100
AcDbSpline
70
4
71
3
72
8
73
4
40
0
40
0
40
0
40
0
40
1
40
1
40
1
40
1
41
1
10
225.752043434018
20
16.5513273697966
30
0
41
1
10
226.573040018688
20
14.9816924733875
30
0
41
1
10
227.5472006288
20
13.5117722048681
30
0
41
1
10
228.719843454259
20
12.1710701400931
30
0
0
SPLINE
5
331
100
AcDbEntity
8
1
62
256
6
ByLayer
370
13
48
1
60
0
100
AcDbSpline
70
4
71
3
72
8
73
4
40
0
40
0
40
0
40
0
40
1
40
1
40
1
40
1
41
1
10
231.93847547265
20
5.49849077055364
30
0
41
1
10
232.529314474942
20
5.32962451186452
30
0
41
1
10
233.105972993925
20
5.16592035607493
30
0
41
1
10
233.666792152876
20
5.00798218192037
30
0
0
SPLINE
5
332
100
AcDbEntity
8
1
62
256
6
ByLayer
370
13
48
1
60
0
100
AcDbSpline
70
4
71
3
72
18
73
14
40
0
40
0
40
0
40
0
40
0.124999999999988
40
0.124999999999988
40
0.249999999999977
40
0.249999999999977
40
0.374999999999966
40
0.374999999999966
40
0.499999999999955
40
0.499999999999955
40
0.749999999999977
40
0.749999999999977
40
1
40
1
40
1
40
1
41
1
10
237.930351518027
20
5.1657429933507
30
0
41
1
10
237.918866828724
20
5.1529893962732
30
0
41
1
10
237.911743788146
20
5.14418458436805
30
0
41
1
10
237.907314343353
20
5.13483329304029
30
0
41
1
10
237.910014675919
20
5.13424729377027
30
0
41
1
10
237.923664884017
20
5.14024370012297
30
0
41
1
10
237.934737723546
20
5.14687041487082
30
0
41
1
10
237.962417330516
20
5.16564221453237
30
0
41
1
10
237.979233804281
20
5.17791888740274
30
0
41
1
10
238.03561350851
20
5.22198962635969
30
0
41
1
10
238.079799436776
20
5.25993798711059
30
0
41
1
10
238.173965510328
20
5.35160032478879
30
0
41
1
10
238.221819307427
20
5.4031878648608
30
0
41
1
10
238.269209470219
20
5.461426584316
30
0
0
SPLINE
5
333
100
AcDbEntity
8
1
62
256
6
ByLayer
370
13
48
1
60
0
100
AcDbSpline
70
4
71
3
72
8
73
4
40
0
40
0
40
0
40
0
40
1
40
1
40
1
40
1
41
1
10
228.671012661517
20
1.54651056934665
30
0
41
1
10
228.696712346492
20
1.5434389817195
30
0
41
1
10
228.722412031468
20
1.54036739409236
30
0
41
1
10
228.748111716443
20
1.53729580646521
30
0
0
SPLINE
5
334
100
AcDbEntity
8
1
62
256
6
ByLayer
370
13
48
1
60
0
100
AcDbSpline
70
4
71
3
72
8
73
4
40
0
40
0
40
0
40
0
40
1
40
1
40
1
40
1
41
1
10
30
20
-6.21891389786782
30
0
41
1
10
29.7316490962843
20
-6.2189691262983
30
0
41
1
10
29.4637007464398
20
-6.21925089362833
30
0
41
1
10
29.1961524620344
20
-6.21975799052512
30
0
0
SPLINE
5
335
100
AcDbEntity
8
1
62
256
6
ByLayer
370
13
48
1
60
0
100
AcDbSpline
70
4
71
3
72
22
73
18
40
0
40
0
40
0
40
0
40
0.125000000000001
40
0.125000000000001
40
0.187500000000001
40
0.187500000000001
40
0.250000000000001
40
0.312500000000001
40
0.312500000000001
40
0.343750000000001
40
0.343750000000001
40
0.375
40
0.5
40
0.5
40
0.75
40
0.75
40
1
40
1
40
1
40
1
41
1
10
26.2987907900946
20
-6.97049484585344
30
0
41
1
10
25.7168624718975
20
-7.07106217624366
30
0
41
1
10
25.1413601848772
20
-7.19506730415085
30
0
41
1
10
24.2877689953219
20
-7.41631628901195
30
0
41
1
10
24.0046497344609
20
-7.49601197222964
30
0
41
1
10
23.4425261353162
20
-7.66706587180437
30
0
41
1
10
22.8875438314976
20
-7.84884136782756
30
0
41
1
10
22.346561957484
20
-8.0516364340574
30
0
41
1
10
21.9460172555355
20
-8.21152730711279
30
0
41
1
10
21.8128667935077
20
-8.26537141537128
30
0
41
1
10
21.5453414592634
20
-8.3712213614721
30
0
41
1
10
20.8749361388996
20
-8.63345609758153
30
0
41
1
10
20.1966149848657
20
-8.8838063827213
30
0
41
1
10
18.5536508594109
20
-9.4621367656799
30
0
41
1
10
17.4369809480959
20
-9.81806072595057
30
0
41
1
10
15.1754550029834
20
-10.4673836063509
30
0
41
1
10
14.0297164876185
20
-10.7611736115427
30
0
41
1
10
12.8691541864049
20
-11.0244050221474
30
0
0
SPLINE
5
336
100
AcDbEntity
8
1
62
256
6
ByLayer
370
13
48
1
60
0
100
AcDbSpline
70
4
71
2
72
6
73
3
40
0
40
0
40
0
40
1
40
1
40
1
41
1
10
212.330549424935
20
7.60413578602493
30
0
41
1
10
212.221367158683
20
7.64625076899799
30
0
41
1
10
212.112205175761
20
7.69063771648658
30
0
0
SPLINE
5
337
100
AcDbEntity
8
1
62
256
6
ByLayer
370
18
48
1
60
0
100
AcDbSpline
70
4
71
3
72
8
73
4
40
0
40
0
40
0
40
0
40
1
40
1
40
1
40
1
41
1
10
241.462261027061
20
-4.54375871695575
30
0
41
1
10
241.488167970858
20
-4.49035979180678
30
0
41
1
10
241.516485932992
20
-4.43811323750256
30
0
41
1
10
241.54712802422
20
-4.38720894192562
30
0
0
SPLINE
5
338
100
AcDbEntity
8
1
62
256
6
ByLayer
370
13
48
1
60
0
100
AcDbSpline
70
4
71
3
72
17
73
13
40
0
40
0
40
0
40
0
40
0.139707454213644
40
0.279883987839234
40
0.420201767248514
40
0.560330974451519
40
0.633556995747235
40
0.706543853712934
40
0.779809906257701
40
0.853428722412581
40
0.926968449639524
40
1
40
1
40
1
40
1
41
1
10
5.29909999999995
20
-24.75
30
0
41
1
10
6.49528447680291
20
-24.5817900088852
30
0
41
1
10
8.87381523106637
20
-24.1643551920917
30
0
41
1
10
12.3984419817652
20
-23.2930684249767
30
0
41
1
10
15.8580346986873
20
-22.1833768908869
30
0
41
1
10
18.69378787947
20
-21.0471596635577
30
0
41
1
10
20.9437722313301
20
-20.0228463600991
30
0
41
1
10
22.6206815412951
20
-19.1391144337371
30
0
41
1
10
24.3875307486042
20
-18.4346245159505
30
0
41
1
10
26.2240280234974
20
-17.9254756137398
30
0
41
1
10
28.1047944409288
20
-17.6181429423675
30
0
41
1
10
29.3669082452373
20
-17.5501975277334
30
0
41
1
10
30
20
-17.55
30
0
0
SPLINE
5
339
100
AcDbEntity
8
1
62
256
6
ByLayer
370
13
48
1
60
0
100
AcDbSpline
70
4
71
3
72
16
73
12
40
0
40
0
40
0
40
0
40
0.0930350143419807
40
0.186703799955556
40
0.280118792484856
40
0.373038580688609
40
0.466284613700328
40
0.559732567643403
40
0.70673466452454
40
0.853616214262827
40
1
40
1
40
1
40
1
41
1
10
30
20
17.5499999999999
30
0
41
1
10
29.1914035400591
20
17.5505199918789
30
0
41
1
10
27.586010107948
20
17.6604579669481
30
0
41
1
10
25.2100163916321
20
18.1585679901518
30
0
41
1
10
22.926073883257
20
18.9743018575121
30
0
41
1
10
20.7918214185529
20
20.1065310574928
30
0
41
1
10
18.5859202974272
20
21.0874073253054
30
0
41
1
10
15.9096981264455
20
22.1534297938031
30
0
41
1
10
12.7322669677189
20
23.2013652056235
30
0
41
1
10
9.04380744585822
20
24.1323182649898
30
0
41
1
10
6.55255576236381
20
24.5737211306965
30
0
41
1
10
5.29910000000001
20
24.75
30
0
0
SPLINE
5
33A
100
AcDbEntity
8
1
62
256
6
ByLayer
370
13
48
1
60
0
100
AcDbSpline
70
4
71
2
72
6
73
3
40
0
40
0
40
0
40
1
40
1
40
1
41
1
10
249.040455814211
20
5.85113912169572
30
0
41
1
10
249.107097370775
20
5.91975318477003
30
0
41
1
10
249.173188943918
20
5.97509395303467
30
0
0
SPLINE
5
33B
100
AcDbEntity
8
1
62
256
6
ByLayer
370
13
48
1
60
0
100
AcDbSpline
70
4
71
2
72
6
73
3
40
0
40
0
40
0
40
1
40
1
40
1
41
1
10
235.811743805245
20
5.27485028530475
30
0
41
1
10
235.883258007298
20
5.22672113013462
30
0
41
1
10
235.956706617014
20
5.16544888157452
30
0
0
LINE
5
7F
100
AcDbEntity
8
SK1
62
256
6
ByLayer
370
13
48
1
60
0
100
AcDbLine
10
-66.600002
20
9.102615
30
0
11
-6.5
21
9.102615
31
0
39
0
210
0
220
0
230
1
0
LINE
5
81
100
AcDbEntity
8
SK1
62
256
6
ByLayer
370
13
48
1
60
0
100
AcDbLine
10
-1.544243
20
-19.783477
30
0
11
-1.544243
21
19.783477
31
0
39
0
210
0
220
0
230
1
0
LINE
5
82
100
AcDbEntity
8
SK1
62
256
6
ByLayer
370
13
48
1
60
0
100
AcDbLine
10
-0.15
20
-19.746
30
0
11
-0.15
21
19.746
31
0
39
0
210
0
220
0
230
1
0
LINE
5
83
100
AcDbEntity
8
SK1
62
256
6
ByLayer
370
13
48
1
60
0
100
AcDbLine
10
-68.516222
20
19.892544
30
0
11
-68.516222
21
8.873042
31
0
39
0
210
0
220
0
230
1
0
LINE
5
84
100
AcDbEntity
8
SK1
62
256
6
ByLayer
370
13
48
1
60
0
100
AcDbLine
10
-68.516222
20
-8.873042
30
0
11
-68.516222
21
-19.892544
31
0
39
0
210
0
220
0
230
1
0
LINE
5
85
100
AcDbEntity
8
SK1
62
256
6
ByLayer
370
13
48
1
60
0
100
AcDbLine
10
-6.5
20
-9.102615
30
0
11
-6.5
21
9.102615
31
0
39
0
210
0
220
0
230
1
0
LINE
5
86
100
AcDbEntity
8
SK1
62
256
6
ByLayer
370
13
48
1
60
0
100
AcDbLine
10
-68.599999
20
-19.996
30
0
11
-68.599999
21
-9.102615
31
0
39
0
210
0
220
0
230
1
0
LINE
5
87
100
AcDbEntity
8
SK1
62
256
6
ByLayer
370
13
48
1
60
0
100
AcDbLine
10
-68.599999
20
9.102615
30
0
11
-68.599999
21
19.996
31
0
39
0
210
0
220
0
230
1
0
LINE
5
88
100
AcDbEntity
8
SK1
62
256
6
ByLayer
370
13
48
1
60
0
100
AcDbLine
10
-66.600002
20
19.996
30
0
11
-66.600002
21
9.102615
31
0
39
0
210
0
220
0
230
1
0
LINE
5
89
100
AcDbEntity
8
SK1
62
256
6
ByLayer
370
13
48
1
60
0
100
AcDbLine
10
-66.600002
20
-9.102615
30
0
11
-66.600002
21
-19.996
31
0
39
0
210
0
220
0
230
1
0
LINE
5
8A
100
AcDbEntity
8
SK1
62
256
6
ByLayer
370
13
48
1
60
0
100
AcDbLine
10
-70
20
-18.996
30
0
11
-70
21
-6.623111
31
0
39
0
210
0
220
0
230
1
0
LINE
5
8B
100
AcDbEntity
8
SK1
62
256
6
ByLayer
370
13
48
1
60
0
100
AcDbLine
10
-70
20
6.623111
30
0
11
-70
21
18.996
31
0
39
0
210
0
220
0
230
1
0
LINE
5
8C
100
AcDbEntity
8
SK1
62
256
6
ByLayer
370
13
48
1
60
0
100
AcDbLine
10
-1.375195
20
-19.746
30
0
11
-1.375195
21
19.746
31
0
39
0
210
0
220
0
230
1
0
LINE
5
8D
100
AcDbEntity
8
1
62
256
6
ByLayer
370
13
48
1
60
0
100
AcDbLine
10
236.694485
20
11.186697
30
0
11
237.351803
21
16.209253
31
0
39
0
210
0
220
0
230
1
0
LINE
5
8E
100
AcDbEntity
8
1
62
256
6
ByLayer
370
13
48
1
60
0
100
AcDbLine
10
247.757489
20
17.930747
30
0
11
247.900822
21
17.936999
31
0
39
0
210
0
220
0
230
1
0
LINE
5
8F
100
AcDbEntity
8
1
62
256
6
ByLayer
370
13
48
1
60
0
100
AcDbLine
10
234.667448
20
11.378151
30
0
11
234.662367
21
11.280372
31
0
39
0
210
0
220
0
230
1
0
LINE
5
90
100
AcDbEntity
8
1
62
256
6
ByLayer
370
13
48
1
60
0
100
AcDbLine
10
248.062609
20
11.823478
30
0
11
247.405291
21
6.800922
31
0
39
0
210
0
220
0
230
1
0
LINE
5
91
100
AcDbEntity
8
1
62
256
6
ByLayer
370
13
48
1
60
0
100
AcDbLine
10
237.025037
20
10.991338
30
0
11
237.776386
21
6.233822
31
0
39
0
210
0
220
0
230
1
0
LINE
5
92
100
AcDbEntity
8
1
62
256
6
ByLayer
370
13
48
1
60
0
100
AcDbLine
10
236.861021
20
11.168052
30
0
11
236.856409
21
11.16781
31
0
39
0
210
0
220
0
230
1
0
LINE
5
93
100
AcDbEntity
8
1
62
256
6
ByLayer
370
13
48
1
60
0
100
AcDbLine
10
247.381289
20
6.643272
30
0
11
247.376677
21
6.643031
31
0
39
0
210
0
220
0
230
1
0
LINE
5
94
100
AcDbEntity
8
1
62
256
6
ByLayer
370
13
48
1
60
0
100
AcDbLine
10
236.863684
20
10.967181
30
0
11
236.859072
21
10.966939
31
0
39
0
210
0
220
0
230
1
0
LINE
5
95
100
AcDbEntity
8
1
62
256
6
ByLayer
370
13
48
1
60
0
100
AcDbLine
10
247.75349
20
17.930532
30
0
11
247.89621
21
17.936758
31
0
39
0
210
0
220
0
230
1
0
LINE
5
96
100
AcDbEntity
8
1
62
256
6
ByLayer
370
13
48
1
60
0
100
AcDbLine
10
236.859072
20
10.966939
30
0
11
237.644778
21
5.991878
31
0
39
0
210
0
220
0
230
1
0
LINE
5
97
100
AcDbEntity
8
1
62
256
6
ByLayer
370
13
48
1
60
0
100
AcDbLine
10
236.401059
20
17.243338
30
0
11
236.106498
21
17.244467
31
0
39
0
210
0
220
0
230
1
0
LINE
5
98
100
AcDbEntity
8
1
62
256
6
ByLayer
370
13
48
1
60
0
100
AcDbLine
10
234.667448
20
11.378151
30
0
11
234.710669
21
11.78772
31
0
39
0
210
0
220
0
230
1
0
LINE
5
99
100
AcDbEntity
8
1
62
256
6
ByLayer
370
13
48
1
60
0
100
AcDbLine
10
235.081239
20
10.964945
30
0
11
235.91481
21
5.6868
31
0
39
0
210
0
220
0
230
1
0
LINE
5
9A
100
AcDbEntity
8
1
62
256
6
ByLayer
370
13
48
1
60
0
100
AcDbLine
10
234.696421
20
10.825299
30
0
11
234.681148
21
10.922011
31
0
39
0
210
0
220
0
230
1
0
LINE
5
9B
100
AcDbEntity
8
1
62
256
6
ByLayer
370
13
48
1
60
0
100
AcDbLine
10
249.189353
20
6.751754
30
0
11
249.126056
21
6.151947
31
0
39
0
210
0
220
0
230
1
0
LINE
5
9C
100
AcDbEntity
8
1
62
256
6
ByLayer
370
13
48
1
60
0
100
AcDbLine
10
236.868172
20
5.224
30
0
11
237.011506
21
5.230252
31
0
39
0
210
0
220
0
230
1
0
LINE
5
9D
100
AcDbEntity
8
1
62
256
6
ByLayer
370
13
48
1
60
0
100
AcDbLine
10
249.38426
20
7.58477
30
0
11
249.287729
21
6.362208
31
0
39
0
210
0
220
0
230
1
0
LINE
5
9E
100
AcDbEntity
8
1
62
256
6
ByLayer
370
13
48
1
60
0
100
AcDbLine
10
247.363895
20
6.539261
30
0
11
248.729599
21
6.756192
31
0
39
0
210
0
220
0
230
1
0
LINE
5
9F
100
AcDbEntity
8
1
62
256
6
ByLayer
370
13
48
1
60
0
100
AcDbLine
10
247.888922
20
17.786175
30
0
11
247.745589
21
17.779923
31
0
39
0
210
0
220
0
230
1
0
LINE
5
A0
100
AcDbEntity
8
1
62
256
6
ByLayer
370
13
48
1
60
0
100
AcDbLine
10
249.844484
20
11.868758
30
0
11
249.839871
21
11.868516
31
0
39
0
210
0
220
0
230
1
0
LINE
5
A1
100
AcDbEntity
8
1
62
256
6
ByLayer
370
13
48
1
60
0
100
AcDbLine
10
247.796628
20
12.022221
30
0
11
247.045279
21
16.779737
31
0
39
0
210
0
220
0
230
1
0
LINE
5
A2
100
AcDbEntity
8
1
62
256
6
ByLayer
370
13
48
1
60
0
100
AcDbLine
10
235.705765
20
16.097703
30
0
11
237.412703
21
16.368836
31
0
39
0
210
0
220
0
230
1
0
LINE
5
A3
100
AcDbEntity
8
1
62
256
6
ByLayer
370
13
48
1
60
0
100
AcDbLine
10
247.941303
20
17.938329
30
0
11
247.936691
21
17.938088
31
0
39
0
210
0
220
0
230
1
0
LINE
5
A4
100
AcDbEntity
8
1
62
256
6
ByLayer
370
13
48
1
60
0
100
AcDbLine
10
249.088226
20
6.914406
30
0
11
247.381289
21
6.643272
31
0
39
0
210
0
220
0
230
1
0
LINE
5
A5
100
AcDbEntity
8
1
62
256
6
ByLayer
370
13
48
1
60
0
100
AcDbLine
10
247.692178
20
18.016744
30
0
11
247.752007
21
18.030603
31
0
39
0
210
0
220
0
230
1
0
LINE
5
A6
100
AcDbEntity
8
1
62
256
6
ByLayer
370
13
48
1
60
0
100
AcDbLine
10
238.054514
20
16.360439
30
0
11
246.208267
21
16.787759
31
0
39
0
210
0
220
0
230
1
0
LINE
5
A7
100
AcDbEntity
8
1
62
256
6
ByLayer
370
13
48
1
60
0
100
AcDbLine
10
248.729599
20
6.756192
30
0
11
249.099516
21
6.81495
31
0
39
0
210
0
220
0
230
1
0
LINE
5
A8
100
AcDbEntity
8
1
62
256
6
ByLayer
370
13
48
1
60
0
100
AcDbLine
10
237.64939
20
5.992119
30
0
11
237.644778
21
5.991878
31
0
39
0
210
0
220
0
230
1
0
LINE
5
A9
100
AcDbEntity
8
1
62
256
6
ByLayer
370
13
48
1
60
0
100
AcDbLine
10
237.036503
20
5.081362
30
0
11
236.893169
21
5.075109
31
0
39
0
210
0
220
0
230
1
0
LINE
5
AA
100
AcDbEntity
8
1
62
256
6
ByLayer
370
13
48
1
60
0
100
AcDbLine
10
247.148048
20
6.892618
30
0
11
247.79872
21
11.864394
31
0
39
0
210
0
220
0
230
1
0
LINE
5
AB
100
AcDbEntity
8
1
62
256
6
ByLayer
370
13
48
1
60
0
100
AcDbLine
10
249.154969
20
5.963854
30
0
11
249.126056
21
6.151947
31
0
39
0
210
0
220
0
230
1
0
LINE
5
AC
100
AcDbEntity
8
1
62
256
6
ByLayer
370
13
48
1
60
0
100
AcDbLine
10
249.008249
20
17.347774
30
0
11
249.84182
21
12.069629
31
0
39
0
210
0
220
0
230
1
0
LINE
5
AD
100
AcDbEntity
8
1
62
256
6
ByLayer
370
13
48
1
60
0
100
AcDbLine
10
234.853827
20
10.926859
30
0
11
235.687398
21
5.648714
31
0
39
0
210
0
220
0
230
1
0
LINE
5
AE
100
AcDbEntity
8
1
62
256
6
ByLayer
370
13
48
1
60
0
100
AcDbLine
10
235.785743
20
5.664335
30
0
11
234.952171
21
10.94248
31
0
39
0
210
0
220
0
230
1
0
LINE
5
AF
100
AcDbEntity
8
1
62
256
6
ByLayer
370
13
48
1
60
0
100
AcDbLine
10
234.784456
20
11.951525
30
0
11
234.678257
21
11.140057
31
0
39
0
210
0
220
0
230
1
0
LINE
5
B0
100
AcDbEntity
8
1
62
256
6
ByLayer
370
13
48
1
60
0
100
AcDbLine
10
249.088226
20
6.914406
30
0
11
249.083614
21
6.914164
31
0
39
0
210
0
220
0
230
1
0
LINE
5
B1
100
AcDbEntity
8
1
62
256
6
ByLayer
370
13
48
1
60
0
100
AcDbLine
10
235.615685
20
16.897024
30
0
11
235.447584
21
16.870323
31
0
39
0
210
0
220
0
230
1
0
LINE
5
B2
100
AcDbEntity
8
1
62
256
6
ByLayer
370
13
48
1
60
0
100
AcDbLine
10
248.472559
20
5.742626
30
0
11
248.729599
21
6.756192
31
0
39
0
210
0
220
0
230
1
0
LINE
5
B3
100
AcDbEntity
8
1
62
256
6
ByLayer
370
13
48
1
60
0
100
AcDbLine
10
249.003637
20
17.347532
30
0
11
249.837208
21
12.069387
31
0
39
0
210
0
220
0
230
1
0
LINE
5
B4
100
AcDbEntity
8
1
62
256
6
ByLayer
370
13
48
1
60
0
100
AcDbLine
10
247.752007
20
18.030603
30
0
11
247.683735
21
18.016301
31
0
39
0
210
0
220
0
230
1
0
LINE
5
B5
100
AcDbEntity
8
1
62
256
6
ByLayer
370
13
48
1
60
0
100
AcDbLine
10
249.943208
20
11.855683
30
0
11
249.313269
21
7.042326
31
0
39
0
210
0
220
0
230
1
0
LINE
5
B6
100
AcDbEntity
8
1
62
256
6
ByLayer
370
13
48
1
60
0
100
AcDbLine
10
237.101814
20
4.995365
30
0
11
237.041985
21
4.981506
31
0
39
0
210
0
220
0
230
1
0
LINE
5
B7
100
AcDbEntity
8
1
62
256
6
ByLayer
370
13
48
1
60
0
100
AcDbLine
10
234.667448
20
11.378151
30
0
11
234.67116
21
11.681721
31
0
39
0
210
0
220
0
230
1
0
LINE
5
B8
100
AcDbEntity
8
1
62
256
6
ByLayer
370
13
48
1
60
0
100
AcDbLine
10
247.328118
20
17.803341
30
0
11
247.478357
21
17.811214
31
0
39
0
210
0
220
0
230
1
0
LINE
5
B9
100
AcDbEntity
8
1
62
256
6
ByLayer
370
13
48
1
60
0
100
AcDbLine
10
248.753984
20
6.092847
30
0
11
249.126056
21
6.151947
31
0
39
0
210
0
220
0
230
1
0
LINE
5
BA
100
AcDbEntity
8
1
62
256
6
ByLayer
370
13
48
1
60
0
100
AcDbLine
10
237.673616
20
16.120941
30
0
11
237.022945
21
11.149165
31
0
39
0
210
0
220
0
230
1
0
LINE
5
BB
100
AcDbEntity
8
1
62
256
6
ByLayer
370
13
48
1
60
0
100
AcDbLine
10
248.753984
20
6.092847
30
0
11
249.099516
21
6.81495
31
0
39
0
210
0
220
0
230
1
0
LINE
5
BC
100
AcDbEntity
8
1
62
256
6
ByLayer
370
13
48
1
60
0
100
AcDbLine
10
237.511693
20
16.139827
30
0
11
237.527026
21
16.256991
31
0
39
0
210
0
220
0
230
1
0
LINE
5
BD
100
AcDbEntity
8
1
62
256
6
ByLayer
370
13
48
1
60
0
100
AcDbLine
10
235.480722
20
15.969783
30
0
11
235.447644
21
16.263606
31
0
39
0
210
0
220
0
230
1
0
LINE
5
BE
100
AcDbEntity
8
1
62
256
6
ByLayer
370
13
48
1
60
0
100
AcDbLine
10
247.752007
20
18.030603
30
0
11
247.753123
21
18.030651
31
0
39
0
210
0
220
0
230
1
0
LINE
5
BF
100
AcDbEntity
8
1
62
256
6
ByLayer
370
13
48
1
60
0
100
AcDbLine
10
247.277686
20
17.017023
30
0
11
248.059375
21
12.067393
31
0
39
0
210
0
220
0
230
1
0
LINE
5
C0
100
AcDbEntity
8
1
62
256
6
ByLayer
370
13
48
1
60
0
100
AcDbLine
10
237.527026
20
16.256991
30
0
11
237.522414
21
16.256749
31
0
39
0
210
0
220
0
230
1
0
LINE
5
C1
100
AcDbEntity
8
1
62
256
6
ByLayer
370
13
48
1
60
0
100
AcDbLine
10
237.21968
20
5.227653
30
0
11
237.215068
21
5.227412
31
0
39
0
210
0
220
0
230
1
0
LINE
5
C2
100
AcDbEntity
8
1
62
256
6
ByLayer
370
13
48
1
60
0
100
AcDbLine
10
247.405291
20
6.800922
30
0
11
249.046379
21
7.061596
31
0
39
0
210
0
220
0
230
1
0
LINE
5
C3
100
AcDbEntity
8
1
62
256
6
ByLayer
370
13
48
1
60
0
100
AcDbLine
10
249.844484
20
11.868758
30
0
11
249.212915
21
7.042951
31
0
39
0
210
0
220
0
230
1
0
LINE
5
C4
100
AcDbEntity
8
1
62
256
6
ByLayer
370
13
48
1
60
0
100
AcDbLine
10
249.940165
20
12.08525
30
0
11
249.106593
21
17.363395
31
0
39
0
210
0
220
0
230
1
0
LINE
5
C5
100
AcDbEntity
8
1
62
256
6
ByLayer
370
13
48
1
60
0
100
AcDbLine
10
249.675855
20
12.04523
30
0
11
248.842284
21
17.323375
31
0
39
0
210
0
220
0
230
1
0
LINE
5
C6
100
AcDbEntity
8
1
62
256
6
ByLayer
370
13
48
1
60
0
100
AcDbLine
10
235.964997
20
17.412872
30
0
11
235.963881
21
17.412803
31
0
39
0
210
0
220
0
230
1
0
LINE
5
C7
100
AcDbEntity
8
1
62
256
6
ByLayer
370
13
48
1
60
0
100
AcDbLine
10
247.900822
20
17.936999
30
0
11
247.89621
21
17.936758
31
0
39
0
210
0
220
0
230
1
0
LINE
5
C8
100
AcDbEntity
8
1
62
256
6
ByLayer
370
13
48
1
60
0
100
AcDbLine
10
237.351803
20
16.209253
30
0
11
235.710715
21
15.948579
31
0
39
0
210
0
220
0
230
1
0
LINE
5
C9
100
AcDbEntity
8
1
62
256
6
ByLayer
370
13
48
1
60
0
100
AcDbLine
10
237.64939
20
5.992119
30
0
11
237.615033
21
6.209665
31
0
39
0
210
0
220
0
230
1
0
LINE
5
CA
100
AcDbEntity
8
1
62
256
6
ByLayer
370
13
48
1
60
0
100
AcDbLine
10
249.212915
20
7.042951
30
0
11
249.208303
21
7.042709
31
0
39
0
210
0
220
0
230
1
0
LINE
5
CB
100
AcDbEntity
8
1
62
256
6
ByLayer
370
13
48
1
60
0
100
AcDbLine
10
237.479409
20
5.993153
30
0
11
236.697719
21
10.942782
31
0
39
0
210
0
220
0
230
1
0
LINE
5
CC
100
AcDbEntity
8
1
62
256
6
ByLayer
370
13
48
1
60
0
100
AcDbLine
10
235.710715
20
15.948579
30
0
11
235.079146
21
11.122772
31
0
39
0
210
0
220
0
230
1
0
LINE
5
CD
100
AcDbEntity
8
1
62
256
6
ByLayer
370
13
48
1
60
0
100
AcDbLine
10
234.850783
20
11.156425
30
0
11
235.480722
21
15.969783
31
0
39
0
210
0
220
0
230
1
0
LINE
5
CE
100
AcDbEntity
8
1
62
256
6
ByLayer
370
13
48
1
60
0
100
AcDbLine
10
247.683735
20
18.016301
30
0
11
247.692178
21
18.016744
31
0
39
0
210
0
220
0
230
1
0
LINE
5
CF
100
AcDbEntity
8
1
62
256
6
ByLayer
370
13
48
1
60
0
100
AcDbLine
10
249.84182
20
12.069629
30
0
11
249.837208
21
12.069387
31
0
39
0
210
0
220
0
230
1
0
LINE
5
D0
100
AcDbEntity
8
1
62
256
6
ByLayer
370
13
48
1
60
0
100
AcDbLine
10
246.739477
20
6.65167
30
0
11
238.585724
21
6.224349
31
0
39
0
210
0
220
0
230
1
0
LINE
5
D1
100
AcDbEntity
8
1
62
256
6
ByLayer
370
13
48
1
60
0
100
AcDbLine
10
237.430097
20
16.472848
30
0
11
235.694476
21
16.197159
31
0
39
0
210
0
220
0
230
1
0
LINE
5
D2
100
AcDbEntity
8
1
62
256
6
ByLayer
370
13
48
1
60
0
100
AcDbLine
10
234.696421
20
10.825299
30
0
11
235.657367
21
5.647871
31
0
39
0
210
0
220
0
230
1
0
LINE
5
D3
100
AcDbEntity
8
1
62
256
6
ByLayer
370
13
48
1
60
0
100
AcDbLine
10
249.839871
20
11.868516
30
0
11
249.208303
21
7.042709
31
0
39
0
210
0
220
0
230
1
0
LINE
5
D4
100
AcDbEntity
8
1
62
256
6
ByLayer
370
13
48
1
60
0
100
AcDbLine
10
236.861021
20
11.168052
30
0
11
237.511693
21
16.139827
31
0
39
0
210
0
220
0
230
1
0
LINE
5
D5
100
AcDbEntity
8
1
62
256
6
ByLayer
370
13
48
1
60
0
100
AcDbLine
10
249.083614
20
6.914164
30
0
11
247.376677
21
6.643031
31
0
39
0
210
0
220
0
230
1
0
LINE
5
D6
100
AcDbEntity
8
1
62
256
6
ByLayer
370
13
48
1
60
0
100
AcDbLine
10
235.615685
20
16.897024
30
0
11
235.694476
21
16.197159
31
0
39
0
210
0
220
0
230
1
0
LINE
5
D7
100
AcDbEntity
8
1
62
256
6
ByLayer
370
13
48
1
60
0
100
AcDbLine
10
237.041985
20
4.981506
30
0
11
237.040868
21
4.981458
31
0
39
0
210
0
220
0
230
1
0
LINE
5
D8
100
AcDbEntity
8
1
62
256
6
ByLayer
370
13
48
1
60
0
100
AcDbLine
10
249.008249
20
17.347774
30
0
11
249.003637
21
17.347532
31
0
39
0
210
0
220
0
230
1
0
LINE
5
D9
100
AcDbEntity
8
1
62
256
6
ByLayer
370
13
48
1
60
0
100
AcDbLine
10
234.666939
20
10.057714
30
0
11
235.433563
21
6.853681
31
0
39
0
210
0
220
0
230
1
0
LINE
5
DA
100
AcDbEntity
8
1
62
256
6
ByLayer
370
13
48
1
60
0
100
AcDbLine
10
249.046379
20
7.061596
30
0
11
249.677948
21
11.887403
31
0
39
0
210
0
220
0
230
1
0
LINE
5
DB
100
AcDbEntity
8
1
62
256
6
ByLayer
370
13
48
1
60
0
100
AcDbLine
10
237.615033
20
6.209665
30
0
11
236.863684
21
10.967181
31
0
39
0
210
0
220
0
230
1
0
LINE
5
DC
100
AcDbEntity
8
1
62
256
6
ByLayer
370
13
48
1
60
0
100
AcDbLine
10
248.335172
20
17.938241
30
0
11
248.33056
21
17.937999
31
0
39
0
210
0
220
0
230
1
0
LINE
5
DD
100
AcDbEntity
8
1
62
256
6
ByLayer
370
13
48
1
60
0
100
AcDbLine
10
247.28056
20
6.858998
30
0
11
247.266965
21
6.755118
31
0
39
0
210
0
220
0
230
1
0
LINE
5
DE
100
AcDbEntity
8
1
62
256
6
ByLayer
370
13
48
1
60
0
100
AcDbLine
10
237.522414
20
16.256749
30
0
11
236.856409
21
11.16781
31
0
39
0
210
0
220
0
230
1
0
LINE
5
DF
100
AcDbEntity
8
1
62
256
6
ByLayer
370
13
48
1
60
0
100
AcDbLine
10
235.964997
20
17.412872
30
0
11
236.034389
21
17.405785
31
0
39
0
210
0
220
0
230
1
0
LINE
5
E0
100
AcDbEntity
8
1
62
256
6
ByLayer
370
13
48
1
60
0
100
AcDbLine
10
247.144602
20
17.019989
30
0
11
247.176829
21
16.815925
31
0
39
0
210
0
220
0
230
1
0
LINE
5
E1
100
AcDbEntity
8
1
62
256
6
ByLayer
370
13
48
1
60
0
100
AcDbLine
10
234.949508
20
11.143351
30
0
11
235.581076
21
15.969158
31
0
39
0
210
0
220
0
230
1
0
LINE
5
E2
100
AcDbEntity
8
1
62
256
6
ByLayer
370
13
48
1
60
0
100
AcDbLine
10
237.620293
20
5.904609
30
0
11
237.61568
21
5.904367
31
0
39
0
210
0
220
0
230
1
0
LINE
5
E3
100
AcDbEntity
8
1
62
256
6
ByLayer
370
13
48
1
60
0
100
AcDbLine
10
247.757489
20
17.930747
30
0
11
247.752877
21
17.930505
31
0
39
0
210
0
220
0
230
1
0
LINE
5
E4
100
AcDbEntity
8
SK1
62
256
6
ByLayer
370
13
48
1
60
0
100
AcDbLine
10
-69
20
-19.996
30
0
11
-69
21
-9.102615
31
0
39
0
210
0
220
0
230
1
0
LINE
5
E5
100
AcDbEntity
8
SK1
62
256
6
ByLayer
370
13
48
1
60
0
100
AcDbLine
10
-69
20
9.102615
30
0
11
-69
21
19.996
31
0
39
0
210
0
220
0
230
1
0
LINE
5
E6
100
AcDbEntity
8
1
62
256
6
ByLayer
370
18
48
1
60
0
100
AcDbLine
10
248.699525
20
-10.748417
30
0
11
248.601348
21
-10.776404
31
0
39
0
210
0
220
0
230
1
0
LINE
5
E7
100
AcDbEntity
8
1
62
256
6
ByLayer
370
18
48
1
60
0
100
AcDbLine
10
248.758329
20
0.113622
30
0
11
248.786481
21
0.016022
31
0
39
0
210
0
220
0
230
1
0
LINE
5
E8
100
AcDbEntity
8
1
62
256
6
ByLayer
370
18
48
1
60
0
100
AcDbLine
10
248.807623
20
-0.07878
30
0
11
249.617968
21
-5.165011
31
0
39
0
210
0
220
0
230
1
0
LINE
5
E9
100
AcDbEntity
8
1
62
256
6
ByLayer
370
18
48
1
60
0
100
AcDbLine
10
249.620973
20
-5.39323
30
0
11
248.950058
21
-10.45937
31
0
39
0
210
0
220
0
230
1
0
LINE
5
EA
100
AcDbEntity
8
1
62
256
6
ByLayer
370
18
48
1
60
0
100
AcDbLine
10
248.414939
20
0.36957
30
0
11
248.467572
21
0.362681
31
0
39
0
210
0
220
0
230
1
0
LINE
5
EB
100
AcDbEntity
8
1
62
256
6
ByLayer
370
18
48
1
60
0
100
AcDbLine
10
243.559393
20
11.890911
30
0
11
243.444417
21
11.884886
31
0
39
0
210
0
220
0
230
1
0
LINE
5
EC
100
AcDbEntity
8
1
62
256
6
ByLayer
370
18
48
1
60
0
100
AcDbLine
10
243.310067
20
10.686468
30
0
11
243.195091
21
10.680443
31
0
39
0
210
0
220
0
230
1
0
LINE
5
ED
100
AcDbEntity
8
1
62
256
6
ByLayer
370
18
48
1
60
0
100
AcDbLine
10
243.593254
20
11.244809
30
0
11
243.478277
21
11.238784
31
0
39
0
210
0
220
0
230
1
0
LINE
5
EE
100
AcDbEntity
8
1
62
256
6
ByLayer
370
18
48
1
60
0
100
AcDbLine
10
242.021767
20
10.278167
30
0
11
242.031688
21
10.295533
31
0
39
0
210
0
220
0
230
1
0
LINE
5
EF
100
AcDbEntity
8
1
62
256
6
ByLayer
370
18
48
1
60
0
100
AcDbLine
10
243.219395
20
12.416593
30
0
11
243.104419
21
12.410567
31
0
39
0
210
0
220
0
230
1
0
LINE
5
F0
100
AcDbEntity
8
1
62
256
6
ByLayer
370
18
48
1
60
0
100
AcDbLine
10
241.213662
20
11.121098
30
0
11
241.151163
21
11.117822
31
0
39
0
210
0
220
0
230
1
0
LINE
5
F1
100
AcDbEntity
8
1
62
256
6
ByLayer
370
18
48
1
60
0
100
AcDbLine
10
242.146664
20
10.301558
30
0
11
242.031688
21
10.295533
31
0
39
0
210
0
220
0
230
1
0
LINE
5
F2
100
AcDbEntity
8
1
62
256
6
ByLayer
370
18
48
1
60
0
100
AcDbLine
10
243.478277
20
11.238784
30
0
11
243.498112
21
11.240821
31
0
39
0
210
0
220
0
230
1
0
LINE
5
F3
100
AcDbEntity
8
1
62
256
6
ByLayer
370
18
48
1
60
0
100
AcDbLine
10
242.011464
20
12.694072
30
0
11
241.895473
21
12.687993
31
0
39
0
210
0
220
0
230
1
0
LINE
5
F4
100
AcDbEntity
8
1
62
256
6
ByLayer
370
18
48
1
60
0
100
AcDbLine
10
241.907155
20
12.671759
30
0
11
241.895473
21
12.687993
31
0
39
0
210
0
220
0
230
1
0
LINE
5
F5
100
AcDbEntity
8
1
62
256
6
ByLayer
370
18
48
1
60
0
100
AcDbLine
10
241.179905
20
11.76521
30
0
11
241.115072
21
11.761812
31
0
39
0
210
0
220
0
230
1
0
LINE
5
F6
100
AcDbEntity
8
1
62
256
6
ByLayer
370
18
48
1
60
0
100
AcDbLine
10
243.228563
20
12.434916
30
0
11
243.112572
21
12.428837
31
0
39
0
210
0
220
0
230
1
0
LINE
5
F7
100
AcDbEntity
8
1
62
256
6
ByLayer
370
18
48
1
60
0
100
AcDbLine
10
243.464356
20
11.884933
30
0
11
243.444417
21
11.884886
31
0
39
0
210
0
220
0
230
1
0
LINE
5
F8
100
AcDbEntity
8
1
62
256
6
ByLayer
370
18
48
1
60
0
100
AcDbLine
10
242.137757
20
10.284246
30
0
11
242.021767
21
10.278167
31
0
39
0
210
0
220
0
230
1
0
LINE
5
F9
100
AcDbEntity
8
1
62
256
6
ByLayer
370
18
48
1
60
0
100
AcDbLine
10
243.3211
20
10.669203
30
0
11
243.205109
21
10.663125
31
0
39
0
210
0
220
0
230
1
0
LINE
5
FA
100
AcDbEntity
8
1
62
256
6
ByLayer
370
18
48
1
60
0
100
AcDbLine
10
242.022131
20
12.677785
30
0
11
241.907155
21
12.671759
31
0
39
0
210
0
220
0
230
1
0
LINE
5
FB
100
AcDbEntity
8
1
62
256
6
ByLayer
370
18
48
1
60
0
100
AcDbLine
10
243.205109
20
10.663125
30
0
11
243.195091
21
10.680443
31
0
39
0
210
0
220
0
230
1
0
LINE
5
FC
100
AcDbEntity
8
1
62
256
6
ByLayer
370
18
48
1
60
0
100
AcDbLine
10
243.104419
20
12.410567
30
0
11
243.112572
21
12.428837
31
0
39
0
210
0
220
0
230
1
0
LINE
5
FD
100
AcDbEntity
8
SK1
62
256
6
ByLayer
370
13
48
1
60
0
100
AcDbLine
10
-6.5
20
-9.102615
30
0
11
-66.600002
21
-9.102615
31
0
39
0
210
0
220
0
230
1
0
LINE
5
FE
100
AcDbEntity
8
SK1
62
256
6
ByLayer
370
13
48
1
60
0
100
AcDbLine
10
-67.633813
20
19.639667
30
0
11
-67.633813
21
8.290603
31
0
39
0
210
0
220
0
230
1
0
LINE
5
FF
100
AcDbEntity
8
SK1
62
256
6
ByLayer
370
13
48
1
60
0
100
AcDbLine
10
-67.633813
20
-8.290603
30
0
11
-67.633813
21
-19.639667
31
0
39
0
210
0
220
0
230
1
0
LINE
5
100
100
AcDbEntity
8
SK1
62
256
6
ByLayer
370
13
48
1
60
0
100
AcDbLine
10
-2
20
-19.996
30
0
11
-2
21
19.996
31
0
39
0
210
0
220
0
230
1
0
LINE
5
101
100
AcDbEntity
8
SK1
62
256
6
ByLayer
370
13
48
1
60
0
100
AcDbLine
10
-68.599999
20
-9.102615
30
0
11
-69
21
-9.102615
31
0
39
0
210
0
220
0
230
1
0
LINE
5
102
100
AcDbEntity
8
SK1
62
256
6
ByLayer
370
13
48
1
60
0
100
AcDbLine
10
-69
20
9.102615
30
0
11
-68.599999
21
9.102615
31
0
39
0
210
0
220
0
230
1
0
LINE
5
103
100
AcDbEntity
8
SK1
62
256
6
ByLayer
370
13
48
1
60
0
100
AcDbLine
10
-70
20
6.623111
30
0
11
-70
21
-6.623111
31
0
39
0
210
0
220
0
230
1
0
LINE
5
104
100
AcDbEntity
8
1
62
256
6
ByLayer
370
13
48
1
60
0
100
AcDbLine
10
240.581276
20
6.128657
30
0
11
238.813512
21
6.036013
31
0
39
0
210
0
220
0
230
1
0
LINE
5
105
100
AcDbEntity
8
1
62
256
6
ByLayer
370
13
48
1
60
0
100
AcDbLine
10
248.485013
20
-0.387233
30
0
11
247.211218
21
0.914167
31
0
39
0
210
0
220
0
230
1
0
LINE
5
106
100
AcDbEntity
8
1
62
256
6
ByLayer
370
13
48
1
60
0
100
AcDbLine
10
248.844964
20
-11.689065
30
0
11
248.501876
21
-11.396558
31
0
39
0
210
0
220
0
230
1
0
LINE
5
107
100
AcDbEntity
8
1
62
256
6
ByLayer
370
13
48
1
60
0
100
AcDbLine
10
0.1
20
24.75
30
0
11
0.1
21
4.949747
31
0
39
0
210
0
220
0
230
1
0
LINE
5
108
100
AcDbEntity
8
1
62
256
6
ByLayer
370
13
48
1
60
0
100
AcDbLine
10
238.76995
20
5.955845
30
0
11
238.570934
21
5.945415
31
0
39
0
210
0
220
0
230
1
0
LINE
5
109
100
AcDbEntity
8
1
62
256
6
ByLayer
370
13
48
1
60
0
100
AcDbLine
10
5.2991
20
24.75
30
0
11
5.2991
21
4.949747
31
0
39
0
210
0
220
0
230
1
0
LINE
5
10A
100
AcDbEntity
8
1
62
256
6
ByLayer
370
13
48
1
60
0
100
AcDbLine
10
247.211218
20
0.914167
30
0
11
247.276145
21
-0.393587
31
0
39
0
210
0
220
0
230
1
0
LINE
5
10B
100
AcDbEntity
8
1
62
256
6
ByLayer
370
13
48
1
60
0
100
AcDbLine
10
35
20
-17.48959
30
0
11
35
21
-17.55
31
0
39
0
210
0
220
0
230
1
0
LINE
5
10C
100
AcDbEntity
8
1
62
256
6
ByLayer
370
13
48
1
60
0
100
AcDbLine
10
5.2991
20
-4.949747
30
0
11
5.2991
21
-24.75
31
0
39
0
210
0
220
0
230
1
0
LINE
5
10D
100
AcDbEntity
8
1
62
256
6
ByLayer
370
13
48
1
60
0
100
AcDbLine
10
248.950396
20
4.780564
30
0
11
248.91452
21
4.778683
31
0
39
0
210
0
220
0
230
1
0
LINE
5
10E
100
AcDbEntity
8
1
62
256
6
ByLayer
370
13
48
1
60
0
100
AcDbLine
10
248.485013
20
-0.387233
30
0
11
249.122458
21
-4.388239
31
0
39
0
210
0
220
0
230
1
0
LINE
5
10F
100
AcDbEntity
8
1
62
256
6
ByLayer
370
13
48
1
60
0
100
AcDbLine
10
248.796875
20
0.519883
30
0
11
248.785672
21
0.521349
31
0
39
0
210
0
220
0
230
1
0
LINE
5
110
100
AcDbEntity
8
1
62
256
6
ByLayer
370
13
48
1
60
0
100
AcDbLine
10
248.081753
20
-17.452139
30
0
11
233.41256
21
-17.452139
31
0
39
0
210
0
220
0
230
1
0
LINE
5
111
100
AcDbEntity
8
1
62
256
6
ByLayer
370
13
48
1
60
0
100
AcDbLine
10
248.804639
20
0.510876
30
0
11
248.780712
21
0.514008
31
0
39
0
210
0
220
0
230
1
0
LINE
5
112
100
AcDbEntity
8
1
62
256
6
ByLayer
370
13
48
1
60
0
100
AcDbLine
10
238.529526
20
5.86039
30
0
11
238.076401
21
5.836643
31
0
39
0
210
0
220
0
230
1
0
LINE
5
113
100
AcDbEntity
8
1
62
256
6
ByLayer
370
13
48
1
60
0
100
AcDbLine
10
229.197822
20
8.483148
30
0
11
229.197822
21
11.527357
31
0
39
0
210
0
220
0
230
1
0
LINE
5
114
100
AcDbEntity
8
1
62
256
6
ByLayer
370
13
48
1
60
0
100
AcDbLine
10
118
20
-17.306013
30
0
11
118
21
-17.37
31
0
39
0
210
0
220
0
230
1
0
LINE
5
115
100
AcDbEntity
8
1
62
256
6
ByLayer
370
13
48
1
60
0
100
AcDbLine
10
30.01
20
-10.128742
30
0
11
30.01
21
-16.897018
31
0
39
0
210
0
220
0
230
1
0
LINE
5
116
100
AcDbEntity
8
1
62
256
6
ByLayer
370
13
48
1
60
0
100
AcDbLine
10
230.41256
20
-17.273196
30
0
11
224.232093
21
-17.273196
31
0
39
0
210
0
220
0
230
1
0
LINE
5
117
100
AcDbEntity
8
1
62
256
6
ByLayer
370
13
48
1
60
0
100
AcDbLine
10
5.2991
20
-4.949747
30
0
11
0.1
21
-4.949747
31
0
39
0
210
0
220
0
230
1
0
LINE
5
118
100
AcDbEntity
8
1
62
256
6
ByLayer
370
13
48
1
60
0
100
AcDbLine
10
248.896614
20
1.023217
30
0
11
248.874344
21
1.026132
31
0
39
0
210
0
220
0
230
1
0
LINE
5
119
100
AcDbEntity
8
1
62
256
6
ByLayer
370
13
48
1
60
0
100
AcDbLine
10
247.702395
20
5.500487
30
0
11
247.239342
21
1.686909
31
0
39
0
210
0
220
0
230
1
0
LINE
5
11A
100
AcDbEntity
8
1
62
256
6
ByLayer
370
13
48
1
60
0
100
AcDbLine
10
239.154399
20
6.254152
30
0
11
240.646207
21
6.332335
31
0
39
0
210
0
220
0
230
1
0
LINE
5
11B
100
AcDbEntity
8
1
62
256
6
ByLayer
370
13
48
1
60
0
100
AcDbLine
10
0
20
-4.422669
30
0
11
0
21
4.422669
31
0
39
0
210
0
220
0
230
1
0
LINE
5
11C
100
AcDbEntity
8
1
62
256
6
ByLayer
370
13
48
1
60
0
100
AcDbLine
10
230.41256
20
17.37
30
0
11
230.41256
21
17.179251
31
0
39
0
210
0
220
0
230
1
0
LINE
5
11D
100
AcDbEntity
8
1
62
256
6
ByLayer
370
13
48
1
60
0
100
AcDbLine
10
30
20
-17.489627
30
0
11
30
21
-17.55
31
0
39
0
210
0
220
0
230
1
0
LINE
5
11E
100
AcDbEntity
8
1
62
256
6
ByLayer
370
13
48
1
60
0
100
AcDbLine
10
240.725856
20
5.134862
30
0
11
241.412152
21
5.170829
31
0
39
0
210
0
220
0
230
1
0
LINE
5
11F
100
AcDbEntity
8
1
62
256
6
ByLayer
370
13
48
1
60
0
100
AcDbLine
10
248.858996
20
5.391032
30
0
11
249.026467
21
5.068334
31
0
39
0
210
0
220
0
230
1
0
LINE
5
120
100
AcDbEntity
8
1
62
256
6
ByLayer
370
13
48
1
60
0
100
AcDbLine
10
0
20
-24.65
30
0
11
0
21
-4.422669
31
0
39
0
210
0
220
0
230
1
0
LINE
5
121
100
AcDbEntity
8
1
62
256
6
ByLayer
370
13
48
1
60
0
100
AcDbLine
10
249.144878
20
-6.090693
30
0
11
247.816668
21
-4.733699
31
0
39
0
210
0
220
0
230
1
0
LINE
5
122
100
AcDbEntity
8
1
62
256
6
ByLayer
370
13
48
1
60
0
100
AcDbLine
10
234.944995
20
8.297036
30
0
11
234.578269
21
10.619133
31
0
39
0
210
0
220
0
230
1
0
LINE
5
123
100
AcDbEntity
8
1
62
256
6
ByLayer
370
13
48
1
60
0
100
AcDbLine
10
240.581276
20
6.128657
30
0
11
246.967265
21
6.463333
31
0
39
0
210
0
220
0
230
1
0
LINE
5
124
100
AcDbEntity
8
1
62
256
6
ByLayer
370
13
48
1
60
0
100
AcDbLine
10
30
20
17.55
30
0
11
30
21
-6.218914
31
0
39
0
210
0
220
0
230
1
0
LINE
5
125
100
AcDbEntity
8
1
62
256
6
ByLayer
370
13
48
1
60
0
100
AcDbLine
10
241.412152
20
5.170829
30
0
11
247.702395
21
5.500487
31
0
39
0
210
0
220
0
230
1
0
LINE
5
126
100
AcDbEntity
8
1
62
256
6
ByLayer
370
13
48
1
60
0
100
AcDbLine
10
230.982905
20
6.804512
30
0
11
233.752853
21
5.953475
31
0
39
0
210
0
220
0
230
1
0
LINE
5
127
100
AcDbEntity
8
1
62
256
6
ByLayer
370
13
48
1
60
0
100
AcDbLine
10
235.454364
20
16.922116
30
0
11
235.428075
21
17.423747
31
0
39
0
210
0
220
0
230
1
0
LINE
5
128
100
AcDbEntity
8
1
62
256
6
ByLayer
370
13
48
1
60
0
100
AcDbLine
10
248.081753
20
-17.452139
30
0
11
248.844964
21
-11.689065
31
0
39
0
210
0
220
0
230
1
0
LINE
5
129
100
AcDbEntity
8
1
62
256
6
ByLayer
370
13
48
1
60
0
100
AcDbLine
10
249.026467
20
5.068334
30
0
11
248.950396
21
4.780564
31
0
39
0
210
0
220
0
230
1
0
LINE
5
12A
100
AcDbEntity
8
1
62
256
6
ByLayer
370
13
48
1
60
0
100
AcDbLine
10
229.468254
20
8.447278
30
0
11
230.726936
21
9.151471
31
0
39
0
210
0
220
0
230
1
0
LINE
5
12B
100
AcDbEntity
8
1
62
256
6
ByLayer
370
13
48
1
60
0
100
AcDbLine
10
235.45816
20
15.9672
30
0
11
234.984983
21
12.351658
31
0
39
0
210
0
220
0
230
1
0
LINE
5
12C
100
AcDbEntity
8
1
62
256
6
ByLayer
370
13
48
1
60
0
100
AcDbLine
10
248.896614
20
1.023217
30
0
11
249.029954
21
0.868548
31
0
39
0
210
0
220
0
230
1
0
LINE
5
12D
100
AcDbEntity
8
1
62
256
6
ByLayer
370
13
48
1
60
0
100
AcDbLine
10
35
20
17.55
30
0
11
35
21
-6.21808
31
0
39
0
210
0
220
0
230
1
0
LINE
5
12E
100
AcDbEntity
8
1
62
256
6
ByLayer
370
13
48
1
60
0
100
AcDbLine
10
247.239342
20
1.686909
30
0
11
248.414492
21
0.486291
31
0
39
0
210
0
220
0
230
1
0
LINE
5
12F
100
AcDbEntity
8
1
62
256
6
ByLayer
370
13
48
1
60
0
100
AcDbLine
10
118
20
17.37
30
0
11
118
21
-6.225106
31
0
39
0
210
0
220
0
230
1
0
LINE
5
130
100
AcDbEntity
8
1
62
256
6
ByLayer
370
13
48
1
60
0
100
AcDbLine
10
230.41256
20
-17.273196
30
0
11
230.41256
21
0.000699
31
0
39
0
210
0
220
0
230
1
0
LINE
5
131
100
AcDbEntity
8
1
62
256
6
ByLayer
370
13
48
1
60
0
100
AcDbLine
10
0.1
20
-24.75
30
0
11
0.1
21
-4.949747
31
0
39
0
210
0
220
0
230
1
0
LINE
5
132
100
AcDbEntity
8
1
62
256
6
ByLayer
370
13
48
1
60
0
100
AcDbLine
10
226.087419
20
1.854644
30
0
11
226.193363
21
1.261911
31
0
39
0
210
0
220
0
230
1
0
LINE
5
133
100
AcDbEntity
8
1
62
256
6
ByLayer
370
13
48
1
60
0
100
AcDbLine
10
244.838372
20
6.514949
30
0
11
244.690731
21
6.507211
31
0
39
0
210
0
220
0
230
1
0
LINE
5
134
100
AcDbEntity
8
1
62
256
6
ByLayer
370
13
48
1
60
0
100
AcDbLine
10
230.300458
20
1.193161
30
0
11
230.514799
21
-0.006034
31
0
39
0
210
0
220
0
230
1
0
LINE
5
135
100
AcDbEntity
8
1
62
256
6
ByLayer
370
13
48
1
60
0
100
AcDbLine
10
234.795382
20
9.520896
30
0
11
234.980108
21
8.351212
31
0
39
0
210
0
220
0
230
1
0
LINE
5
136
100
AcDbEntity
8
1
62
256
6
ByLayer
370
13
48
1
60
0
100
AcDbLine
10
0.1
20
4.949747
30
0
11
5.2991
21
4.949747
31
0
39
0
210
0
220
0
230
1
0
LINE
5
137
100
AcDbEntity
8
1
62
256
6
ByLayer
370
13
48
1
60
0
100
AcDbLine
10
249.144878
20
-6.090693
30
0
11
248.516334
21
-10.836881
31
0
39
0
210
0
220
0
230
1
0
LINE
5
138
100
AcDbEntity
8
1
62
256
6
ByLayer
370
13
48
1
60
0
100
AcDbLine
10
238.856258
20
4.856465
30
0
11
239.47835
21
4.889067
31
0
39
0
210
0
220
0
230
1
0
LINE
5
139
100
AcDbEntity
8
1
62
256
6
ByLayer
370
13
48
1
60
0
100
AcDbLine
10
249.029954
20
0.868548
30
0
11
248.821524
21
0.78383
31
0
39
0
210
0
220
0
230
1
0
LINE
5
13A
100
AcDbEntity
8
1
62
256
6
ByLayer
370
13
48
1
60
0
100
AcDbLine
10
238.804288
20
6.035529
30
0
11
238.813512
21
6.036013
31
0
39
0
210
0
220
0
230
1
0
LINE
5
13B
100
AcDbEntity
8
1
62
256
6
ByLayer
370
13
48
1
60
0
100
AcDbLine
10
249.026467
20
5.068334
30
0
11
249.029954
21
0.868548
31
0
39
0
210
0
220
0
230
1
0
LINE
5
13C
100
AcDbEntity
8
1
62
256
6
ByLayer
370
13
48
1
60
0
100
AcDbLine
10
234.810416
20
12.001721
30
0
11
235.454364
21
16.922116
31
0
39
0
210
0
220
0
230
1
0
LINE
5
13D
100
AcDbEntity
8
1
62
256
6
ByLayer
370
13
48
1
60
0
100
AcDbLine
10
245.021124
20
6.561614
30
0
11
246.512932
21
6.639797
31
0
39
0
210
0
220
0
230
1
0
LINE
5
13E
100
AcDbEntity
8
1
62
256
6
ByLayer
370
13
48
1
60
0
100
AcDbLine
10
247.732611
20
-2.968271
30
0
11
249.122458
21
-4.388239
31
0
39
0
210
0
220
0
230
1
0
LINE
5
13F
100
AcDbEntity
8
1
62
256
6
ByLayer
370
13
48
1
60
0
100
AcDbLine
10
0
20
24.65
30
0
11
0
21
4.422669
31
0
39
0
210
0
220
0
230
1
0
LINE
5
140
100
AcDbEntity
8
1
62
256
6
ByLayer
370
13
48
1
60
0
100
AcDbLine
10
248.796875
20
0.519883
30
0
11
248.804639
21
0.510876
31
0
39
0
210
0
220
0
230
1
0
LINE
5
141
100
AcDbEntity
8
1
62
256
6
ByLayer
370
13
48
1
60
0
100
AcDbLine
10
248.877275
20
5.075978
30
0
11
248.843364
21
5.66042
31
0
39
0
210
0
220
0
230
1
0
LINE
5
142
100
AcDbEntity
8
1
62
256
6
ByLayer
370
13
48
1
60
0
100
AcDbLine
10
233.41256
20
-17.452139
30
0
11
233.41256
21
-0.17838
31
0
39
0
210
0
220
0
230
1
0
LINE
5
143
100
AcDbEntity
8
1
62
256
6
ByLayer
370
13
48
1
60
0
100
AcDbLine
10
230.726936
20
9.151471
30
0
11
229.197822
21
11.527357
31
0
39
0
210
0
220
0
230
1
0
LINE
5
144
100
AcDbEntity
8
1
62
256
6
ByLayer
370
13
48
1
60
0
100
AcDbLine
10
248.843364
20
5.66042
30
0
11
248.688653
21
5.652312
31
0
39
0
210
0
220
0
230
1
0
LINE
5
145
100
AcDbEntity
8
1
62
256
6
ByLayer
370
13
48
1
60
0
100
AcDbLine
10
247.702395
20
5.500487
30
0
11
248.482764
21
5.541385
31
0
39
0
210
0
220
0
230
1
0
LINE
5
146
100
AcDbEntity
8
1
62
256
6
ByLayer
370
13
48
1
60
0
100
AcDbLine
10
233.41256
20
17.55
30
0
11
233.41256
21
17.400197
31
0
39
0
210
0
220
0
230
1
0
LINE
5
147
100
AcDbEntity
8
4
62
256
6
ByLayer
370
18
48
0.05
60
0
100
AcDbLine
10
250
20
0
30
0
11
0
21
0
31
0
39
0
210
0
220
0
230
1
0
LINE
5
149
100
AcDbEntity
8
SK4
62
256
6
ByLayer
370
13
48
0.05
60
0
100
AcDbLine
10
250
20
0
30
0
11
-70
21
0
31
0
39
0
210
0
220
0
230
1
0
LINE
5
14B
100
AcDbEntity
8
SK1
62
256
6
ByLayer
370
13
48
1
60
0
100
AcDbLine
10
-68.599999
20
19.996
30
0
11
-69
21
19.996
31
0
39
0
210
0
220
0
230
1
0
LINE
5
14C
100
AcDbEntity
8
SK1
62
256
6
ByLayer
370
13
48
1
60
0
100
AcDbLine
10
-69
20
-19.996
30
0
11
-68.599999
21
-19.996
31
0
39
0
210
0
220
0
230
1
0
LINE
5
14D
100
AcDbEntity
8
SK1
62
256
6
ByLayer
370
13
48
1
60
0
100
AcDbLine
10
-67.633813
20
-19.639667
30
0
11
-66.600002
21
-19.996
31
0
39
0
210
0
220
0
230
1
0
LINE
5
14E
100
AcDbEntity
8
SK1
62
256
6
ByLayer
370
13
48
1
60
0
100
AcDbLine
10
-66.600002
20
19.996
30
0
11
-67.633813
21
19.639667
31
0
39
0
210
0
220
0
230
1
0
LINE
5
14F
100
AcDbEntity
8
SK1
62
256
6
ByLayer
370
13
48
1
60
0
100
AcDbLine
10
-68.516222
20
19.892544
30
0
11
-68.599999
21
19.996
31
0
39
0
210
0
220
0
230
1
0
LINE
5
150
100
AcDbEntity
8
SK1
62
256
6
ByLayer
370
13
48
1
60
0
100
AcDbLine
10
-68.599999
20
-19.996
30
0
11
-68.516222
21
-19.892544
31
0
39
0
210
0
220
0
230
1
0
LINE
5
151
100
AcDbEntity
8
SK1
62
256
6
ByLayer
370
13
48
1
60
0
100
AcDbLine
10
-70
20
-18.996
30
0
11
-69
21
-19.996
31
0
39
0
210
0
220
0
230
1
0
LINE
5
152
100
AcDbEntity
8
SK1
62
256
6
ByLayer
370
13
48
1
60
0
100
AcDbLine
10
-69
20
19.996
30
0
11
-70
21
18.996
31
0
39
0
210
0
220
0
230
1
0
LINE
5
153
100
AcDbEntity
8
SK1
62
256
6
ByLayer
370
13
48
1
60
0
100
AcDbLine
10
-0.15
20
19.746
30
0
11
-1.375195
21
19.746
31
0
39
0
210
0
220
0
230
1
0
LINE
5
154
100
AcDbEntity
8
SK1
62
256
6
ByLayer
370
13
48
1
60
0
100
AcDbLine
10
-1.375195
20
-19.746
30
0
11
-0.15
21
-19.746
31
0
39
0
210
0
220
0
230
1
0
LINE
5
155
100
AcDbEntity
8
SK1
62
256
6
ByLayer
370
13
48
1
60
0
100
AcDbLine
10
-1.544243
20
19.783477
30
0
11
-2
21
19.996
31
0
39
0
210
0
220
0
230
1
0
LINE
5
156
100
AcDbEntity
8
SK1
62
256
6
ByLayer
370
13
48
1
60
0
100
AcDbLine
10
-2
20
-19.996
30
0
11
-1.544243
21
-19.783477
31
0
39
0
210
0
220
0
230
1
0
LINE
5
157
100
AcDbEntity
8
SK1
62
256
6
ByLayer
370
13
48
1
60
0
100
AcDbLine
10
-2
20
19.996
30
0
11
-66.600002
21
19.996
31
0
39
0
210
0
220
0
230
1
0
LINE
5
158
100
AcDbEntity
8
SK1
62
256
6
ByLayer
370
13
48
1
60
0
100
AcDbLine
10
-66.600002
20
-19.996
30
0
11
-2
21
-19.996
31
0
39
0
210
0
220
0
230
1
0
LINE
5
159
100
AcDbEntity
8
1
62
256
6
ByLayer
370
18
48
1
60
0
100
AcDbLine
10
242.224784
20
12.572904
30
0
11
242.331456
21
12.578494
31
0
39
0
210
0
220
0
230
1
0
LINE
5
15A
100
AcDbEntity
8
1
62
256
6
ByLayer
370
18
48
1
60
0
100
AcDbLine
10
242.443916
20
10.432639
30
0
11
242.337243
21
10.427048
31
0
39
0
210
0
220
0
230
1
0
LINE
5
15B
100
AcDbEntity
8
1
62
256
6
ByLayer
370
18
48
1
60
0
100
AcDbLine
10
242.44813
20
9.105441
30
0
11
242.524887
21
9.109463
31
0
39
0
210
0
220
0
230
1
0
LINE
5
15C
100
AcDbEntity
8
1
62
256
6
ByLayer
370
18
48
1
60
0
100
AcDbLine
10
242.273675
20
13.902885
30
0
11
242.196917
21
13.898862
31
0
39
0
210
0
220
0
230
1
0
LINE
5
15D
100
AcDbEntity
8
1
62
256
6
ByLayer
370
13
48
1
60
0
100
AcDbLine
10
30
20
-17.55
30
0
11
35
21
-17.55
31
0
39
0
210
0
220
0
230
1
0
LINE
5
15E
100
AcDbEntity
8
1
62
256
6
ByLayer
370
13
48
1
60
0
100
AcDbLine
10
35
20
-17.55
30
0
11
118
21
-17.37
31
0
39
0
210
0
220
0
230
1
0
LINE
5
15F
100
AcDbEntity
8
1
62
256
6
ByLayer
370
13
48
1
60
0
100
AcDbLine
10
235.226257
20
17.55
30
0
11
233.41256
21
17.55
31
0
39
0
210
0
220
0
230
1
0
LINE
5
160
100
AcDbEntity
8
1
62
256
6
ByLayer
370
13
48
1
60
0
100
AcDbLine
10
233.41256
20
17.55
30
0
11
230.41256
21
17.37
31
0
39
0
210
0
220
0
230
1
0
LINE
5
161
100
AcDbEntity
8
1
62
256
6
ByLayer
370
13
48
1
60
0
100
AcDbLine
10
118
20
-17.37
30
0
11
167.239016
21
-17.37
31
0
39
0
210
0
220
0
230
1
0
LINE
5
162
100
AcDbEntity
8
1
62
256
6
ByLayer
370
13
48
1
60
0
100
AcDbLine
10
230.41256
20
17.37
30
0
11
219.458524
21
17.37
31
0
39
0
210
0
220
0
230
1
0
LINE
5
163
100
AcDbEntity
8
1
62
256
6
ByLayer
370
13
48
1
60
0
100
AcDbLine
10
154.057289
20
17.37
30
0
11
118
21
17.37
31
0
39
0
210
0
220
0
230
1
0
LINE
5
164
100
AcDbEntity
8
1
62
256
6
ByLayer
370
13
48
1
60
0
100
AcDbLine
10
118
20
17.37
30
0
11
35
21
17.55
31
0
39
0
210
0
220
0
230
1
0
LINE
5
165
100
AcDbEntity
8
1
62
256
6
ByLayer
370
13
48
1
60
0
100
AcDbLine
10
35
20
17.55
30
0
11
30
21
17.55
31
0
39
0
210
0
220
0
230
1
0
LINE
5
166
100
AcDbEntity
8
1
62
256
6
ByLayer
370
13
48
1
60
0
100
AcDbLine
10
5.2991
20
24.75
30
0
11
0.1
21
24.75
31
0
39
0
210
0
220
0
230
1
0
LINE
5
167
100
AcDbEntity
8
1
62
256
6
ByLayer
370
13
48
1
60
0
100
AcDbLine
10
0.1
20
24.75
30
0
11
0
21
24.65
31
0
39
0
210
0
220
0
230
1
0
LINE
5
168
100
AcDbEntity
8
1
62
256
6
ByLayer
370
13
48
1
60
0
100
AcDbLine
10
0.1
20
-24.75
30
0
11
5.2991
21
-24.75
31
0
39
0
210
0
220
0
230
1
0
LINE
5
169
100
AcDbEntity
8
1
62
256
6
ByLayer
370
13
48
1
60
0
100
AcDbLine
10
0
20
-24.65
30
0
11
0.1
21
-24.75
31
0
39
0
210
0
220
0
230
1
0
LINE
5
16A
100
AcDbEntity
8
1
62
256
6
ByLayer
370
13
48
1
60
0
100
AcDbLine
10
248.943176
20
6.237279
30
0
11
249.288707
21
6.959382
31
0
39
0
210
0
220
0
230
1
0
LINE
5
16B
100
AcDbEntity
8
1
62
256
6
ByLayer
370
13
48
1
60
0
100
AcDbLine
10
247.930955
20
12.044895
30
0
11
247.179606
21
16.802411
31
0
39
0
210
0
220
0
230
1
0
LINE
5
16C
100
AcDbEntity
8
1
62
256
6
ByLayer
370
13
48
1
60
0
100
AcDbLine
10
247.282944
20
6.872428
30
0
11
247.933615
21
11.844204
31
0
39
0
210
0
220
0
230
1
0
LINE
5
16D
100
AcDbEntity
8
81
62
256
6
ByLayer
370
18
48
1
60
0
100
AcDbLine
10
250
20
0
30
0
11
257
21
0
31
0
39
0
210
0
220
0
230
1
0
LINE
5
16E
100
AcDbEntity
8
80
62
256
6
ByLayer
370
18
48
1
60
0
100
AcDbLine
10
0
20
0
30
0
11
-7
21
0
31
0
39
0
210
0
220
0
230
1
0
LINE
5
16F
100
AcDbEntity
8
SK2
62
256
6
ByLayer
370
13
48
1
60
0
100
AcDbLine
10
-90.725
20
20
30
0
11
-90.725
21
-20
31
0
39
0
210
0
220
0
230
1
0
LINE
5
171
100
AcDbEntity
8
SK2
62
256
6
ByLayer
370
13
48
1
60
0
100
AcDbLine
10
-71.5875
20
-20
30
0
11
-93.9
21
-20
31
0
39
0
210
0
220
0
230
1
0
LINE
5
172
100
AcDbEntity
8
SK2
62
256
6
ByLayer
370
13
48
1
60
0
100
AcDbLine
10
-71.5875
20
20
30
0
11
-93.9
21
20
31
0
39
0
210
0
220
0
230
1
0
LINE
5
173
100
AcDbEntity
8
1
62
256
6
ByLayer
370
18
48
1
60
1
100
AcDbLine
10
-90.725
20
-20
30
0
11
-91.650575
21
-15.825003
31
0
39
0
210
0
220
0
230
1
0
LINE
5
174
100
AcDbEntity
8
1
62
256
6
ByLayer
370
18
48
1
60
1
100
AcDbLine
10
-91.650575
20
-15.825003
30
0
11
-89.799425
21
-15.824997
31
0
39
0
210
0
220
0
230
1
0
LINE
5
175
100
AcDbEntity
8
1
62
256
6
ByLayer
370
18
48
1
60
1
100
AcDbLine
10
-89.799425
20
-15.824997
30
0
11
-90.725
21
-20
31
0
39
0
210
0
220
0
230
1
0
LINE
5
176
100
AcDbEntity
8
1
62
256
6
ByLayer
370
18
48
1
60
1
100
AcDbLine
10
-90.725
20
20
30
0
11
-89.799425
21
15.825003
31
0
39
0
210
0
220
0
230
1
0
LINE
5
177
100
AcDbEntity
8
1
62
256
6
ByLayer
370
18
48
1
60
1
100
AcDbLine
10
-89.799425
20
15.825003
30
0
11
-91.650575
21
15.824997
31
0
39
0
210
0
220
0
230
1
0
LINE
5
178
100
AcDbEntity
8
1
62
256
6
ByLayer
370
18
48
1
60
1
100
AcDbLine
10
-91.650575
20
15.824997
30
0
11
-90.725
21
20
31
0
39
0
210
0
220
0
230
1
0
LINE
5
179
100
AcDbEntity
8
SK2
62
256
6
ByLayer
370
13
48
1
60
0
100
AcDbLine
10
-100.725
20
-24.75
30
0
11
-100.725
21
24.75
31
0
39
0
210
0
220
0
230
1
0
LINE
5
17A
100
AcDbEntity
8
SK2
62
256
6
ByLayer
370
13
48
1
60
0
100
AcDbLine
10
-1.5875
20
24.75
30
0
11
-103.9
21
24.75
31
0
39
0
210
0
220
0
230
1
0
LINE
5
17B
100
AcDbEntity
8
SK2
62
256
6
ByLayer
370
13
48
1
60
0
100
AcDbLine
10
-1.5875
20
-24.75
30
0
11
-103.9
21
-24.75
31
0
39
0
210
0
220
0
230
1
0
LINE
5
17C
100
AcDbEntity
8
1
62
256
6
ByLayer
370
18
48
1
60
1
100
AcDbLine
10
-100.725
20
24.75
30
0
11
-99.799425
21
20.575003
31
0
39
0
210
0
220
0
230
1
0
LINE
5
17D
100
AcDbEntity
8
1
62
256
6
ByLayer
370
18
48
1
60
1
100
AcDbLine
10
-99.799425
20
20.575003
30
0
11
-101.650575
21
20.574997
31
0
39
0
210
0
220
0
230
1
0
LINE
5
17E
100
AcDbEntity
8
1
62
256
6
ByLayer
370
18
48
1
60
1
100
AcDbLine
10
-101.650575
20
20.574997
30
0
11
-100.725
21
24.75
31
0
39
0
210
0
220
0
230
1
0
LINE
5
17F
100
AcDbEntity
8
1
62
256
6
ByLayer
370
18
48
1
60
1
100
AcDbLine
10
-100.725
20
-24.75
30
0
11
-101.650575
21
-20.575003
31
0
39
0
210
0
220
0
230
1
0
LINE
5
180
100
AcDbEntity
8
1
62
256
6
ByLayer
370
18
48
1
60
1
100
AcDbLine
10
-101.650575
20
-20.575003
30
0
11
-99.799425
21
-20.574997
31
0
39
0
210
0
220
0
230
1
0
LINE
5
181
100
AcDbEntity
8
1
62
256
6
ByLayer
370
18
48
1
60
1
100
AcDbLine
10
-99.799425
20
-20.574997
30
0
11
-100.725
21
-24.75
31
0
39
0
210
0
220
0
230
1
0
LINE
5
182
100
AcDbEntity
8
2
62
256
6
ByLayer
370
13
48
1
60
0
100
AcDbLine
10
276.975
20
18
30
0
11
276.975
21
-18
31
0
39
0
210
0
220
0
230
1
0
LINE
5
184
100
AcDbEntity
8
2
62
256
6
ByLayer
370
13
48
1
60
0
100
AcDbLine
10
251.5875
20
-18
30
0
11
280.15
21
-18
31
0
39
0
210
0
220
0
230
1
0
LINE
5
185
100
AcDbEntity
8
2
62
256
6
ByLayer
370
13
48
1
60
0
100
AcDbLine
10
251.5875
20
18
30
0
11
280.15
21
18
31
0
39
0
210
0
220
0
230
1
0
LINE
5
186
100
AcDbEntity
8
1
62
256
6
ByLayer
370
18
48
1
60
1
100
AcDbLine
10
276.975
20
-18
30
0
11
276.049425
21
-13.825003
31
0
39
0
210
0
220
0
230
1
0
LINE
5
187
100
AcDbEntity
8
1
62
256
6
ByLayer
370
18
48
1
60
1
100
AcDbLine
10
276.049425
20
-13.825003
30
0
11
277.900575
21
-13.824997
31
0
39
0
210
0
220
0
230
1
0
LINE
5
188
100
AcDbEntity
8
1
62
256
6
ByLayer
370
18
48
1
60
1
100
AcDbLine
10
277.900575
20
-13.824997
30
0
11
276.975
21
-18
31
0
39
0
210
0
220
0
230
1
0
LINE
5
189
100
AcDbEntity
8
1
62
256
6
ByLayer
370
18
48
1
60
1
100
AcDbLine
10
276.975
20
18
30
0
11
277.900575
21
13.825003
31
0
39
0
210
0
220
0
230
1
0
LINE
5
18A
100
AcDbEntity
8
1
62
256
6
ByLayer
370
18
48
1
60
1
100
AcDbLine
10
277.900575
20
13.825003
30
0
11
276.049425
21
13.824997
31
0
39
0
210
0
220
0
230
1
0
LINE
5
18B
100
AcDbEntity
8
1
62
256
6
ByLayer
370
18
48
1
60
1
100
AcDbLine
10
276.049425
20
13.824997
30
0
11
276.975
21
18
31
0
39
0
210
0
220
0
230
1
0
LINE
5
340
100
AcDbEntity
8
1
62
256
6
ByLayer
370
18
48
1
60
1
100
AcDbLine
10
-90.725
20
-20
30
0
11
-91.650575
21
-15.825003
31
0
39
0
210
0
220
0
230
1
0
LINE
5
341
100
AcDbEntity
8
1
62
256
6
ByLayer
370
18
48
1
60
1
100
AcDbLine
10
-91.650575
20
-15.825003
30
0
11
-89.799425
21
-15.824997
31
0
39
0
210
0
220
0
230
1
0
LINE
5
342
100
AcDbEntity
8
1
62
256
6
ByLayer
370
18
48
1
60
1
100
AcDbLine
10
-89.799425
20
-15.824997
30
0
11
-90.725
21
-20
31
0
39
0
210
0
220
0
230
1
0
LINE
5
344
100
AcDbEntity
8
1
62
256
6
ByLayer
370
18
48
1
60
1
100
AcDbLine
10
-90.725
20
20
30
0
11
-89.799425
21
15.825003
31
0
39
0
210
0
220
0
230
1
0
LINE
5
345
100
AcDbEntity
8
1
62
256
6
ByLayer
370
18
48
1
60
1
100
AcDbLine
10
-89.799425
20
15.825003
30
0
11
-91.650575
21
15.824997
31
0
39
0
210
0
220
0
230
1
0
LINE
5
346
100
AcDbEntity
8
1
62
256
6
ByLayer
370
18
48
1
60
1
100
AcDbLine
10
-91.650575
20
15.824997
30
0
11
-90.725
21
20
31
0
39
0
210
0
220
0
230
1
0
LINE
5
34A
100
AcDbEntity
8
1
62
256
6
ByLayer
370
18
48
1
60
1
100
AcDbLine
10
-100.725
20
24.75
30
0
11
-99.799425
21
20.575003
31
0
39
0
210
0
220
0
230
1
0
LINE
5
34B
100
AcDbEntity
8
1
62
256
6
ByLayer
370
18
48
1
60
1
100
AcDbLine
10
-99.799425
20
20.575003
30
0
11
-101.650575
21
20.574997
31
0
39
0
210
0
220
0
230
1
0
LINE
5
34C
100
AcDbEntity
8
1
62
256
6
ByLayer
370
18
48
1
60
1
100
AcDbLine
10
-101.650575
20
20.574997
30
0
11
-100.725
21
24.75
31
0
39
0
210
0
220
0
230
1
0
LINE
5
34E
100
AcDbEntity
8
1
62
256
6
ByLayer
370
18
48
1
60
1
100
AcDbLine
10
-100.725
20
-24.75
30
0
11
-101.650575
21
-20.575003
31
0
39
0
210
0
220
0
230
1
0
LINE
5
34F
100
AcDbEntity
8
1
62
256
6
ByLayer
370
18
48
1
60
1
100
AcDbLine
10
-101.650575
20
-20.575003
30
0
11
-99.799425
21
-20.574997
31
0
39
0
210
0
220
0
230
1
0
LINE
5
350
100
AcDbEntity
8
1
62
256
6
ByLayer
370
18
48
1
60
1
100
AcDbLine
10
-99.799425
20
-20.574997
30
0
11
-100.725
21
-24.75
31
0
39
0
210
0
220
0
230
1
0
LINE
5
354
100
AcDbEntity
8
1
62
256
6
ByLayer
370
18
48
1
60
1
100
AcDbLine
10
276.975
20
-18
30
0
11
276.049425
21
-13.825003
31
0
39
0
210
0
220
0
230
1
0
LINE
5
355
100
AcDbEntity
8
1
62
256
6
ByLayer
370
18
48
1
60
1
100
AcDbLine
10
276.049425
20
-13.825003
30
0
11
277.900575
21
-13.824997
31
0
39
0
210
0
220
0
230
1
0
LINE
5
356
100
AcDbEntity
8
1
62
256
6
ByLayer
370
18
48
1
60
1
100
AcDbLine
10
277.900575
20
-13.824997
30
0
11
276.975
21
-18
31
0
39
0
210
0
220
0
230
1
0
LINE
5
358
100
AcDbEntity
8
1
62
256
6
ByLayer
370
18
48
1
60
1
100
AcDbLine
10
276.975
20
18
30
0
11
277.900575
21
13.825003
31
0
39
0
210
0
220
0
230
1
0
LINE
5
359
100
AcDbEntity
8
1
62
256
6
ByLayer
370
18
48
1
60
1
100
AcDbLine
10
277.900575
20
13.825003
30
0
11
276.049425
21
13.824997
31
0
39
0
210
0
220
0
230
1
0
LINE
5
35A
100
AcDbEntity
8
1
62
256
6
ByLayer
370
18
48
1
60
1
100
AcDbLine
10
276.049425
20
13.824997
30
0
11
276.975
21
18
31
0
39
0
210
0
220
0
230
1
0
MTEXT
5
33C
100
AcDbEntity
8
SK2
62
256
6
ByLayer
370
18
48
1
60
0
100
AcDbMText
10
-92.736672
20
-7.186314
30
0
210
0
220
0
230
1
1
%%c
40
4.5
41
0
44
1.084337
50
90
71
7
72
5
7
iso_b_vert
0
MTEXT
5
33F
100
AcDbEntity
8
SK2
62
256
6
ByLayer
370
18
48
1
60
0
100
AcDbMText
10
-92.736672
20
4.02853
30
0
210
0
220
0
230
1
1
\W0.7361;40
40
4.5
41
0
44
1.084337
50
90
71
7
72
5
7
iso_b_vert
0
MTEXT
5
348
100
AcDbEntity
8
SK2
62
256
6
ByLayer
370
18
48
1
60
0
100
AcDbMText
10
-102.736672
20
-9.778569
30
0
210
0
220
0
230
1
1
%%c
40
4.5
41
0
44
1.084337
50
90
71
7
72
5
7
iso_b_vert
0
MTEXT
5
349
100
AcDbEntity
8
SK2
62
256
6
ByLayer
370
18
48
1
60
0
100
AcDbMText
10
-102.736672
20
1.436275
30
0
210
0
220
0
230
1
1
\W0.7640;49.5
40
4.5
41
0
44
1.084337
50
90
71
7
72
5
7
iso_b_vert
0
MTEXT
5
352
100
AcDbEntity
8
2
62
256
6
ByLayer
370
18
48
1
60
0
100
AcDbMText
10
274.963328
20
-6.949399
30
0
210
0
220
0
230
1
1
%%c
40
4.5
41
0
44
1.084337
50
90
71
7
72
5
7
iso_b_vert
0
MTEXT
5
353
100
AcDbEntity
8
2
62
256
6
ByLayer
370
18
48
1
60
0
100
AcDbMText
10
274.963328
20
4.265444
30
0
210
0
220
0
230
1
1
\W0.6740;36
40
4.5
41
0
44
1.084337
50
90
71
7
72
5
7
iso_b_vert
0
MTEXT
5
35C
100
AcDbEntity
8
SK6
62
256
6
ByLayer
370
18
48
1
60
0
100
AcDbMText
10
9.308916
20
-94.592562
30
0
210
0
220
0
230
1
1
\W0.7723;DS20-D3600L40-06
40
3.5
41
0
44
1.084337
50
0
71
7
72
5
7
iso_b_vert
0
HATCH
5
343
100
AcDbEntity
8
SK2
62
256
6
ByLayer
370
13
48
1
60
0
100
AcDbHatch
10
0
20
0
30
0
210
0
220
0
230
1
2
ANSI31
70
0
71
0
91
1
92
5
93
3
72
1
10
-90.725
20
-19.9999999999999
11
-91.650575216528
21
-15.8250033998275
72
1
10
-91.650575216528
20
-15.8250033998275
11
-89.799424783472
21
-15.8249966001723
72
1
10
-89.799424783472
20
-15.8249966001723
11
-90.725
21
-19.9999999999999
97
0
75
0
76
1
52
0
41
0.0062
77
0
78
1
53
45
43
0
44
0
45
-0.0139193969876572
46
0.0139193969876572
79
0
47
0
98
1
10
0
20
0
0
HATCH
5
347
100
AcDbEntity
8
SK2
62
256
6
ByLayer
370
13
48
1
60
0
100
AcDbHatch
10
0
20
0
30
0
210
0
220
0
230
1
2
ANSI31
70
0
71
0
91
1
92
5
93
3
72
1
10
-90.725
20
20.0000000000001
11
-89.799424783472
21
15.8250033998277
72
1
10
-89.799424783472
20
15.8250033998277
11
-91.650575216528
21
15.8249966001724
72
1
10
-91.650575216528
20
15.8249966001724
11
-90.725
21
20.0000000000001
97
0
75
0
76
1
52
0
41
0.0062
77
0
78
1
53
45
43
0
44
0
45
-0.0139193969876572
46
0.0139193969876572
79
0
47
0
98
1
10
0
20
0
0
HATCH
5
34D
100
AcDbEntity
8
SK2
62
256
6
ByLayer
370
13
48
1
60
0
100
AcDbHatch
10
0
20
0
30
0
210
0
220
0
230
1
2
ANSI31
70
0
71
0
91
1
92
5
93
3
72
1
10
-100.725
20
24.75
11
-99.799424783472
21
20.5750033998276
72
1
10
-99.799424783472
20
20.5750033998276
11
-101.650575216528
21
20.5749966001724
72
1
10
-101.650575216528
20
20.5749966001724
11
-100.725
21
24.75
97
0
75
0
76
1
52
0
41
0.0062
77
0
78
1
53
45
43
0
44
0
45
-0.0139193969876572
46
0.0139193969876572
79
0
47
0
98
1
10
0
20
0
0
HATCH
5
351
100
AcDbEntity
8
SK2
62
256
6
ByLayer
370
13
48
1
60
0
100
AcDbHatch
10
0
20
0
30
0
210
0
220
0
230
1
2
ANSI31
70
0
71
0
91
1
92
5
93
3
72
1
10
-100.725
20
-24.75
11
-101.650575216528
21
-20.5750033998276
72
1
10
-101.650575216528
20
-20.5750033998276
11
-99.799424783472
21
-20.5749966001724
72
1
10
-99.799424783472
20
-20.5749966001724
11
-100.725
21
-24.75
97
0
75
0
76
1
52
0
41
0.0062
77
0
78
1
53
45
43
0
44
0
45
-0.0139193969876572
46
0.0139193969876572
79
0
47
0
98
1
10
0
20
0
0
HATCH
5
357
100
AcDbEntity
8
2
62
256
6
ByLayer
370
13
48
1
60
0
100
AcDbHatch
10
0
20
0
30
0
210
0
220
0
230
1
2
ANSI31
70
0
71
0
91
1
92
5
93
3
72
1
10
276.975
20
-18.0000000000003
11
276.049424783472
21
-13.8250033998279
72
1
10
276.049424783472
20
-13.8250033998279
11
277.900575216528
21
-13.8249966001726
72
1
10
277.900575216528
20
-13.8249966001726
11
276.975
21
-18.0000000000003
97
0
75
0
76
1
52
0
41
0.0062
77
0
78
1
53
45
43
0
44
0
45
-0.0139193969876572
46
0.0139193969876572
79
0
47
0
98
1
10
0
20
0
0
HATCH
5
35B
100
AcDbEntity
8
2
62
256
6
ByLayer
370
13
48
1
60
0
100
AcDbHatch
10
0
20
0
30
0
210
0
220
0
230
1
2
ANSI31
70
0
71
0
91
1
92
5
93
3
72
1
10
276.975
20
17.9999999999997
11
277.900575216528
21
13.8250033998273
72
1
10
277.900575216528
20
13.8250033998273
11
276.049424783472
21
13.8249966001721
72
1
10
276.049424783472
20
13.8249966001721
11
276.975
21
17.9999999999997
97
0
75
0
76
1
52
0
41
0.0062
77
0
78
1
53
45
43
0
44
0
45
-0.0139193969876572
46
0.0139193969876572
79
0
47
0
98
1
10
0
20
0
0
DIMENSION
5
35F
100
AcDbEntity
8
2
62
256
6
ByLayer
370
18
48
1
60
0
100
AcDbDimension
2
_U0
10
250
20
-73.611691
30
0
11
125
21
-73.611691
31
0
70
32
71
1
72
1
41
1
210
0
220
0
230
1
3
Standard
100
AcDbAlignedDimension
13
0
23
-24.75
33
0
14
250
24
-18
34
0
50
0
100
AcDbRotatedDimension
1001
ACAD
1000
DSTYLE
1002
{
1070
   371
1070
    13
1070
   372
1070
    13
1070
   170
1070
     0
1070
   144
1040
1.0
1070
   277
1070
     2
1070
   284
1070
     8
1070
   278
1070
    46
1070
   146
1040
0.777778
1070
   345
1005
16
1070
   347
1005
16
1070
   346
1005
16
1070
   344
1005
0
1070
   343
1005
0
1070
   172
1070
     1
1070
    76
1070
     0
1070
    75
1070
     0
1070
   282
1070
     0
1070
   281
1070
     0
1070
    71
1070
     0
1070
    74
1070
     0
1070
   279
1070
     0
1070
   173
1070
     1
1070
   340
1005
33D
1070
   271
1070
     1
1070
   272
1070
     2
1070
    77
1070
     1
1070
    73
1070
     1
1070
   171
1070
     3
1070
   274
1070
     4
1070
   177
1070
   150
1070
   176
1070
     9
1070
   178
1070
    43
1070
    78
1070
     8
1070
    48
1040
-0.1
1070
    41
1040
4.175
1070
   147
1040
2.25
1070
    42
1040
1.5875
1070
    44
1040
3.175
1070
   140
1040
4.5
1002
}
1001
ACAD_DSTYLE_DIM_LINETYPE
1070
   380
1005
16
1001
ACAD_DSTYLE_DIM_EXT1_LINETYPE
1070
   381
1005
16
1001
ACAD_DSTYLE_DIM_EXT2_LINETYPE
1070
   382
1005
16
0
DIMENSION
5
378
100
AcDbEntity
8
SK2
62
256
6
ByLayer
370
18
48
1
60
0
100
AcDbDimension
2
_U1
10
0
20
-73.611691
30
0
11
-35
21
-73.611691
31
0
70
32
71
1
72
1
41
1
210
0
220
0
230
1
3
Standard
100
AcDbAlignedDimension
13
-70
23
-20
33
0
14
0
24
-24.75
34
0
50
0
100
AcDbRotatedDimension
1001
ACAD
1000
DSTYLE
1002
{
1070
   371
1070
    13
1070
   372
1070
    13
1070
   170
1070
     0
1070
   144
1040
1.0
1070
   277
1070
     2
1070
   284
1070
     8
1070
   278
1070
    46
1070
   146
1040
0.777778
1070
   345
1005
16
1070
   347
1005
16
1070
   346
1005
16
1070
   344
1005
0
1070
   343
1005
0
1070
   172
1070
     1
1070
    76
1070
     0
1070
    75
1070
     0
1070
   282
1070
     0
1070
   281
1070
     0
1070
    71
1070
     0
1070
    74
1070
     0
1070
   279
1070
     0
1070
   173
1070
     1
1070
   340
1005
33D
1070
   271
1070
     1
1070
   272
1070
     2
1070
    77
1070
     1
1070
    73
1070
     1
1070
   171
1070
     3
1070
   274
1070
     4
1070
   177
1070
   150
1070
   176
1070
     9
1070
   178
1070
    43
1070
    78
1070
     8
1070
    48
1040
-0.1
1070
    41
1040
4.175
1070
   147
1040
2.25
1070
    42
1040
1.5875
1070
    44
1040
3.175
1070
   140
1040
4.5
1002
}
1001
ACAD_DSTYLE_DIM_LINETYPE
1070
   380
1005
16
1001
ACAD_DSTYLE_DIM_EXT1_LINETYPE
1070
   381
1005
16
1001
ACAD_DSTYLE_DIM_EXT2_LINETYPE
1070
   382
1005
16
0
DIMENSION
5
390
100
AcDbEntity
8
SK2
62
256
6
ByLayer
370
18
48
1
60
0
100
AcDbDimension
2
_U2
10
5.7991
20
-63.611691
30
0
11
127.89955
21
-63.611691
31
0
70
32
71
1
72
1
41
1
210
0
220
0
230
1
3
Standard
100
AcDbAlignedDimension
13
250
23
-18
33
0
14
5.7991
24
-24.75
34
0
50
0
100
AcDbRotatedDimension
1001
ACAD
1000
DSTYLE
1002
{
1070
   371
1070
    13
1070
   372
1070
    13
1070
   170
1070
     0
1070
   144
1040
1.0
1070
   277
1070
     2
1070
   284
1070
     8
1070
   278
1070
    46
1070
   146
1040
0.777778
1070
   345
1005
16
1070
   347
1005
16
1070
   346
1005
16
1070
   344
1005
0
1070
   343
1005
0
1070
   172
1070
     1
1070
    76
1070
     0
1070
    75
1070
     0
1070
   282
1070
     0
1070
   281
1070
     0
1070
    71
1070
     0
1070
    74
1070
     0
1070
   279
1070
     0
1070
   173
1070
     1
1070
   340
1005
33D
1070
   271
1070
     1
1070
   272
1070
     2
1070
    77
1070
     1
1070
    73
1070
     1
1070
   171
1070
     3
1070
   274
1070
     4
1070
   177
1070
   150
1070
   176
1070
     9
1070
   178
1070
    43
1070
    78
1070
     8
1070
    48
1040
-0.1
1070
    41
1040
4.175
1070
   147
1040
2.25
1070
    42
1040
1.5875
1070
    44
1040
3.175
1070
   140
1040
4.5
1002
}
1001
ACAD_DSTYLE_DIM_LINETYPE
1070
   380
1005
16
1001
ACAD_DSTYLE_DIM_EXT1_LINETYPE
1070
   381
1005
16
1001
ACAD_DSTYLE_DIM_EXT2_LINETYPE
1070
   382
1005
16
0
DIMENSION
5
3A8
100
AcDbEntity
8
SK2
62
256
6
ByLayer
370
18
48
1
60
0
100
AcDbDimension
2
_U3
10
250
20
-53.611691
30
0
11
140
21
-53.611691
31
0
70
32
71
1
72
1
41
1
210
0
220
0
230
1
3
Standard
100
AcDbAlignedDimension
13
30
23
-18
33
0
14
250
24
-18
34
0
50
0
100
AcDbRotatedDimension
1001
ACAD
1000
DSTYLE
1002
{
1070
   371
1070
    13
1070
   372
1070
    13
1070
   170
1070
     0
1070
   144
1040
1.0
1070
   277
1070
     2
1070
   284
1070
     8
1070
   278
1070
    46
1070
   146
1040
0.777778
1070
   345
1005
16
1070
   347
1005
16
1070
   346
1005
16
1070
   344
1005
0
1070
   343
1005
0
1070
   172
1070
     1
1070
    76
1070
     0
1070
    75
1070
     0
1070
   282
1070
     0
1070
   281
1070
     0
1070
    71
1070
     0
1070
    74
1070
     0
1070
   279
1070
     0
1070
   173
1070
     1
1070
   340
1005
33D
1070
   271
1070
     1
1070
   272
1070
     2
1070
    77
1070
     1
1070
    73
1070
     1
1070
   171
1070
     3
1070
   274
1070
     4
1070
   177
1070
   150
1070
   176
1070
     9
1070
   178
1070
    43
1070
    78
1070
     8
1070
    48
1040
-0.1
1070
    41
1040
4.175
1070
   147
1040
2.25
1070
    42
1040
1.5875
1070
    44
1040
3.175
1070
   140
1040
4.5
1002
}
1001
ACAD_DSTYLE_DIM_LINETYPE
1070
   380
1005
16
1001
ACAD_DSTYLE_DIM_EXT1_LINETYPE
1070
   381
1005
16
1001
ACAD_DSTYLE_DIM_EXT2_LINETYPE
1070
   382
1005
16
0
DIMENSION
5
3C0
100
AcDbEntity
8
2
62
256
6
ByLayer
370
18
48
1
60
0
100
AcDbDimension
2
_U4
10
250
20
-43.611691
30
0
11
266.029464
21
-43.611691
31
0
70
32
71
1
72
1
41
1
210
0
220
0
230
1
3
Standard
100
AcDbAlignedDimension
13
248.9982
23
-9
33
0
14
250
24
0
34
0
50
0
100
AcDbRotatedDimension
1001
ACAD
1000
DSTYLE
1002
{
1070
   371
1070
    13
1070
   372
1070
    13
1070
   170
1070
     0
1070
   144
1040
1.0
1070
   277
1070
     2
1070
   284
1070
     8
1070
   278
1070
    46
1070
   146
1040
0.777778
1070
   345
1005
16
1070
   347
1005
16
1070
   346
1005
16
1070
   344
1005
0
1070
   343
1005
0
1070
   172
1070
     1
1070
    76
1070
     0
1070
    75
1070
     0
1070
   282
1070
     0
1070
   281
1070
     0
1070
    71
1070
     0
1070
    74
1070
     0
1070
   279
1070
     0
1070
   173
1070
     1
1070
   340
1005
33D
1070
   271
1070
     2
1070
   272
1070
     2
1070
    77
1070
     1
1070
    73
1070
     1
1070
   171
1070
     3
1070
   274
1070
     4
1070
   177
1070
   150
1070
   176
1070
     9
1070
   178
1070
    43
1070
    78
1070
     8
1070
    48
1040
-0.1
1070
    41
1040
4.175
1070
   147
1040
2.25
1070
    42
1040
1.5875
1070
    44
1040
3.175
1070
   140
1040
4.5
1002
}
1001
ACAD_DSTYLE_DIM_LINETYPE
1070
   380
1005
16
1001
ACAD_DSTYLE_DIM_EXT1_LINETYPE
1070
   381
1005
16
1001
ACAD_DSTYLE_DIM_EXT2_LINETYPE
1070
   382
1005
16
0
ENDSEC
0
SECTION
2
OBJECTS
0
DICTIONARY
5
44a
330
0
100
AcDbDictionary
280
0
281
1
3
ACAD_GROUP
350
44b
3
ACAD_MLINESTYLE
350
44c
0
DICTIONARY
5
44b
330
0
100
AcDbDictionary
280
0
281
1
0
DICTIONARY
5
44c
330
0
100
AcDbDictionary
280
0
281
1
3
Standard
350
18
0
MLINESTYLE
5
18
330
44c
100
AcDbMlineStyle
2
Standard
70
0
3

62
256
51
90
52
90
71
2
49
-0.5
62
256
6
ByLayer
49
0.5
62
256
6
ByLayer
0
RASTERVARIABLES
5
438
330

100
AcDbRasterVariables
90
0
70
1
71
1
72
1
0
ENDSEC
0
EOF
