0
SECTION
2
HEADER
9
$ACADVER
1
AC1015
9
$DWGCODEPAGE
3
ANSI_1252
9
$HANDSEED
5
450
9
$ANGBASE
50
0
9
$ANGDIR
70
0
9
$ATTMODE
70
1
9
$AUNITS
70
0
9
$AUPREC
70
0
9
$CECOLOR
62
256
9
$CELTSCALE
40
1
9
$CELTYPE
6
ByLayer
9
$CELWEIGHT
370
18
9
$CLAYER
8
0
9
$CMLJUST
70
0
9
$CMLSCALE
40
1
9
$CMLSTYLE
2
Standard
9
$DIMSTYLE
2
Standard
9
$TEXTSIZE
40
0.2
9
$TEXTSTYLE
7
Standard
9
$LUNITS
70
2
9
$LUPREC
70
4
9
$EXTNAMES
290
1
9
$INSUNITS
70
4
9
$LTSCALE
40
1
9
$LWDISPLAY
290
1
9
$PDMODE
70
0
9
$PDSIZE
40
0
9
$PLINEGEN
70
0
0
ENDSEC
0
SECTION
2
CLASSES
0
CLASS
1
RASTERVARIABLES
2
AcDbRasterVariables
3
ISM
90
0
280
0
281
0
0
ENDSEC
0
SECTION
2
TABLES
0
TABLE
2
VPORT
5
446
100
AcDbSymbolTable
0
VPORT
5
1
100
AcDbSymbolTableRecord
100
AcDbViewportTableRecord
2
*Active
70
0
10
0
20
0
11
1
21
1
12
-1
22
1
13
0
23
0
14
0.5
24
0.5
15
10
25
10
16
0
26
0
36
1
17
0
27
0
37
0
0
ENDTAB
0
TABLE
2
LTYPE
5
447
100
AcDbSymbolTable
0
LTYPE
5
14
100
AcDbSymbolTableRecord
100
AcDbLinetypeTableRecord
70
0
2
ByBlock
3

72
65
73
0
40
0
0
LTYPE
5
15
100
AcDbSymbolTableRecord
100
AcDbLinetypeTableRecord
70
0
2
ByLayer
3

72
65
73
0
40
0
0
LTYPE
5
16
100
AcDbSymbolTableRecord
100
AcDbLinetypeTableRecord
70
0
2
Continuous
3
Solid line
72
65
73
0
40
0
0
LTYPE
5
6E
100
AcDbSymbolTableRecord
100
AcDbLinetypeTableRecord
70
0
2
CENTER
3
____ _ ____ _ ____ _ ____
72
65
73
4
40
47.5
49
22
74
0
49
-8.5
74
0
49
8.5
74
0
49
-8.5
74
0
0
LTYPE
5
6F
100
AcDbSymbolTableRecord
100
AcDbLinetypeTableRecord
70
0
2
DASHED
3
__ __ __ __ __ __ __ __ __
72
65
73
2
40
25.72
49
12.86
74
0
49
-12.86
74
0
0
ENDTAB
0
TABLE
2
LAYER
5
448
100
AcDbSymbolTable
0
LAYER
5
10
100
AcDbSymbolTableRecord
100
AcDbLayerTableRecord
2
0
70
0
62
7
6
Continuous
290
1
370
-3
390
0
0
LAYER
5
71
100
AcDbSymbolTableRecord
100
AcDbLayerTableRecord
2
1
70
0
62
4
6
Continuous
290
1
370
-3
390
0
0
LAYER
5
73
100
AcDbSymbolTableRecord
100
AcDbLayerTableRecord
2
80
70
0
62
-6
6
Continuous
290
1
370
-3
390
0
0
LAYER
5
75
100
AcDbSymbolTableRecord
100
AcDbLayerTableRecord
2
81
70
0
62
-3
6
Continuous
290
1
370
-3
390
0
0
LAYER
5
148
100
AcDbSymbolTableRecord
100
AcDbLayerTableRecord
2
4
70
0
62
-2
6
CENTER
290
1
370
-3
390
0
0
LAYER
5
182
100
AcDbSymbolTableRecord
100
AcDbLayerTableRecord
2
2
70
0
62
7
6
Continuous
290
1
370
-3
390
0
0
LAYER
5
35B
100
AcDbSymbolTableRecord
100
AcDbLayerTableRecord
2
Defpoints
70
0
62
7
6
Continuous
290
0
370
-3
390
0
0
LAYER
5
432
100
AcDbSymbolTableRecord
100
AcDbLayerTableRecord
2
SK1
70
0
62
4
6
Continuous
290
1
370
-3
390
0
0
LAYER
5
433
100
AcDbSymbolTableRecord
100
AcDbLayerTableRecord
2
SK4
70
0
62
2
6
CENTER
290
1
370
-3
390
0
0
LAYER
5
434
100
AcDbSymbolTableRecord
100
AcDbLayerTableRecord
2
SK2
70
0
62
7
6
Continuous
290
1
370
-3
390
0
0
LAYER
5
435
100
AcDbSymbolTableRecord
100
AcDbLayerTableRecord
2
SK6
70
0
62
5
6
Continuous
290
1
370
-3
390
0
0
ENDTAB
0
TABLE
2
STYLE
5
449
100
AcDbSymbolTable
0
STYLE
5
11
100
AcDbSymbolTableRecord
100
AcDbTextStyleTableRecord
2
Standard
3
txt
70
0
71
0
40
0
41
1
42
0
50
0
0
STYLE
5
336
100
AcDbSymbolTableRecord
100
AcDbTextStyleTableRecord
2
iso_b_vert
3
simplex.shx
70
0
71
0
40
0
41
1
42
0
50
0
0
STYLE
5
337
100
AcDbSymbolTableRecord
100
AcDbTextStyleTableRecord
2
DWGDirectTextStyle
3
simplex
70
0
71
0
40
0
41
1
42
0
50
0
0
ENDTAB
0
TABLE
2
DIMSTYLE
5
44a
100
AcDbSymbolTable
100
AcDbDimStyleTable
0
DIMSTYLE
105
27
100
AcDbSymbolTableRecord
100
AcDbDimStyleTableRecord
2
Standard
70
0
3
<>
41
0.18
42
0.0625
44
0.18
140
0.18
147
0.09
73
0
74
0
77
1
271
2
275
0
278
52
280
0
340
11
0
ENDTAB
0
TABLE
2
VIEW
5
44b
100
AcDbSymbolTable
0
ENDTAB
0
TABLE
2
UCS
5
44c
100
AcDbSymbolTable
0
ENDTAB
0
TABLE
2
APPID
5
44d
100
AcDbSymbolTable
0
APPID
5
12
100
AcDbSymbolTableRecord
100
AcDbRegAppTableRecord
2
ACAD
70
0
0
APPID
5
357
100
AcDbSymbolTableRecord
100
AcDbRegAppTableRecord
2
ACAD_DSTYLE_DIMBREAK
70
0
0
APPID
5
3F1
100
AcDbSymbolTableRecord
100
AcDbRegAppTableRecord
2
ACAD_DSTYLE_DIM_LINETYPE
70
0
0
APPID
5
3F2
100
AcDbSymbolTableRecord
100
AcDbRegAppTableRecord
2
ACAD_DSTYLE_DIM_EXT1_LINETYPE
70
0
0
APPID
5
3F3
100
AcDbSymbolTableRecord
100
AcDbRegAppTableRecord
2
ACAD_DSTYLE_DIM_EXT2_LINETYPE
70
0
0
APPID
5
42E
100
AcDbSymbolTableRecord
100
AcDbRegAppTableRecord
2
ACAD_MLEADERVER
70
0
0
ENDTAB
0
TABLE
2
BLOCK_RECORD
5
44e
100
AcDbSymbolTable
0
BLOCK_RECORD
5
1F
100
AcDbSymbolTableRecord
100
AcDbBlockTableRecord
2
*Model_Space
340
0
70
0
0
BLOCK_RECORD
5
1B
100
AcDbSymbolTableRecord
100
AcDbBlockTableRecord
2
*Paper_Space
340
0
70
0
0
BLOCK_RECORD
5
23
100
AcDbSymbolTableRecord
100
AcDbBlockTableRecord
2
*Paper_Space0
340
0
70
0
0
BLOCK_RECORD
5
35C
100
AcDbSymbolTableRecord
100
AcDbBlockTableRecord
2
*D1
340
0
70
0
0
BLOCK_RECORD
5
368
100
AcDbSymbolTableRecord
100
AcDbBlockTableRecord
2
_U0
340
0
70
0
0
BLOCK_RECORD
5
374
100
AcDbSymbolTableRecord
100
AcDbBlockTableRecord
2
*D3
340
0
70
0
0
BLOCK_RECORD
5
380
100
AcDbSymbolTableRecord
100
AcDbBlockTableRecord
2
_U1
340
0
70
0
0
BLOCK_RECORD
5
38C
100
AcDbSymbolTableRecord
100
AcDbBlockTableRecord
2
*D5
340
0
70
0
0
BLOCK_RECORD
5
398
100
AcDbSymbolTableRecord
100
AcDbBlockTableRecord
2
_U2
340
0
70
0
0
BLOCK_RECORD
5
3A4
100
AcDbSymbolTableRecord
100
AcDbBlockTableRecord
2
*D7
340
0
70
0
0
BLOCK_RECORD
5
3B0
100
AcDbSymbolTableRecord
100
AcDbBlockTableRecord
2
_U3
340
0
70
0
0
BLOCK_RECORD
5
3BC
100
AcDbSymbolTableRecord
100
AcDbBlockTableRecord
2
*D9
340
0
70
0
0
BLOCK_RECORD
5
3CA
100
AcDbSymbolTableRecord
100
AcDbBlockTableRecord
2
_U4
340
0
70
0
0
ENDTAB
0
ENDSEC
0
SECTION
2
BLOCKS
0
BLOCK
5
20
100
AcDbEntity
8
0
100
AcDbBlockBegin
2
*Model_Space
70
0
10
0
20
0
30
0
3
*Model_Space
0
ENDBLK
5
21
100
AcDbEntity
8
0
100
AcDbBlockEnd
0
BLOCK
5
1C
100
AcDbEntity
8
0
100
AcDbBlockBegin
2
*Paper_Space
70
0
10
0
20
0
30
0
3
*Paper_Space
0
ENDBLK
5
1D
100
AcDbEntity
8
0
100
AcDbBlockEnd
0
BLOCK
5
24
100
AcDbEntity
8
0
100
AcDbBlockBegin
2
*Paper_Space0
70
0
10
0
20
0
30
0
3
*Paper_Space0
0
ENDBLK
5
25
100
AcDbEntity
8
0
100
AcDbBlockEnd
0
BLOCK
5
35D
100
AcDbEntity
8
0
100
AcDbBlockBegin
2
*D1
70
1
10
0
20
0
30
0
3
*D1
0
LINE
5
35F
100
AcDbEntity
8
0
62
256
6
ByLayer
370
-2
48
1
60
0
100
AcDbLine
10
0
20
-26.3375
30
0
11
0
21
-76.787006
31
0
39
0
210
0
220
0
230
1
0
LINE
5
360
100
AcDbEntity
8
0
62
256
6
ByLayer
370
-2
48
1
60
0
100
AcDbLine
10
170
20
-18.5875
30
0
11
170
21
-76.787006
31
0
39
0
210
0
220
0
230
1
0
LINE
5
361
100
AcDbEntity
8
0
62
256
6
ByLayer
370
-2
48
1
60
0
100
AcDbLine
10
4.175
20
-73.612006
30
0
11
165.825
21
-73.612006
31
0
39
0
210
0
220
0
230
1
0
SOLID
5
362
100
AcDbEntity
8
0
62
256
6
ByLayer
370
-1
48
1
60
0
100
AcDbTrace
10
4.175
20
-72.916173
30
0
11
4.175
21
-74.30784
31
0
12
0
22
-73.612006
32
0
13
0
23
-73.612006
33
0
39
0
210
0
220
0
230
1
0
SOLID
5
363
100
AcDbEntity
8
0
62
256
6
ByLayer
370
-1
48
1
60
0
100
AcDbTrace
10
165.825
20
-74.30784
30
0
11
165.825
21
-72.916173
31
0
12
170
22
-73.612006
32
0
13
170
23
-73.612006
33
0
39
0
210
0
220
0
230
1
0
MTEXT
5
364
100
AcDbEntity
8
0
62
256
6
ByLayer
370
18
48
1
60
0
100
AcDbMText
10
85
20
-64.218256
30
0
210
0
220
0
230
1
1
\A1;170
40
4.5
41
0
44
1
50
0
71
5
72
5
7
iso_b_vert
0
POINT
5
365
100
AcDbEntity
8
Defpoints
62
0
6
ByLayer
370
-1
48
1
60
0
100
AcDbPoint
10
0
20
-24.75
30
0
39
0
210
0
220
0
230
1
50
360
0
POINT
5
366
100
AcDbEntity
8
Defpoints
62
0
6
ByLayer
370
-1
48
1
60
0
100
AcDbPoint
10
170
20
-17
30
0
39
0
210
0
220
0
230
1
50
360
0
POINT
5
367
100
AcDbEntity
8
Defpoints
62
0
6
ByLayer
370
-1
48
1
60
0
100
AcDbPoint
10
170
20
-73.612006
30
0
39
0
210
0
220
0
230
1
50
360
0
ENDBLK
5
35E
100
AcDbEntity
8
0
100
AcDbBlockEnd
0
BLOCK
5
36F
100
AcDbEntity
8
0
100
AcDbBlockBegin
2
_U0
70
0
10
0
20
0
30
0
3
_U0
0
MTEXT
5
369
100
AcDbEntity
8
2
62
256
6
ByLayer
370
18
48
1
60
0
100
AcDbMText
10
81.431801
20
-72.284335
30
0
210
0
220
0
230
1
1
\W0.6217;170
40
4.5
41
0
44
1.084337
50
0
71
7
72
5
7
iso_b_vert
0
LINE
5
36A
100
AcDbEntity
8
2
62
256
6
ByLayer
370
13
48
1
60
0
100
AcDbLine
10
0
20
-26.3375
30
0
11
0
21
-76.787006
31
0
39
0
210
0
220
0
230
1
0
LINE
5
36B
100
AcDbEntity
8
2
62
256
6
ByLayer
370
13
48
1
60
0
100
AcDbLine
10
170
20
-18.5875
30
0
11
170
21
-76.787006
31
0
39
0
210
0
220
0
230
1
0
LINE
5
36C
100
AcDbEntity
8
2
62
256
6
ByLayer
370
13
48
1
60
0
100
AcDbLine
10
0
20
-73.612006
30
0
11
170
21
-73.612006
31
0
39
0
210
0
220
0
230
1
0
SOLID
5
36D
100
AcDbEntity
8
2
62
256
6
ByLayer
370
18
48
1
60
0
100
AcDbTrace
10
0
20
-73.612006
30
0
11
4.174997
21
-72.686431
31
0
12
4.175003
22
-74.537582
32
0
13
4.175003
23
-74.537582
33
0
39
0
210
0
220
0
230
1
0
SOLID
5
36E
100
AcDbEntity
8
2
62
256
6
ByLayer
370
18
48
1
60
0
100
AcDbTrace
10
170
20
-73.612006
30
0
11
165.825003
21
-74.537582
31
0
12
165.824997
22
-72.686431
32
0
13
165.824997
23
-72.686431
33
0
39
0
210
0
220
0
230
1
0
ENDBLK
5
370
100
AcDbEntity
8
0
100
AcDbBlockEnd
0
BLOCK
5
375
100
AcDbEntity
8
0
100
AcDbBlockBegin
2
*D3
70
1
10
0
20
0
30
0
3
*D3
0
LINE
5
377
100
AcDbEntity
8
0
62
256
6
ByLayer
370
-2
48
1
60
0
100
AcDbLine
10
-70
20
-21.5875
30
0
11
-70
21
-76.787006
31
0
39
0
210
0
220
0
230
1
0
LINE
5
378
100
AcDbEntity
8
0
62
256
6
ByLayer
370
-2
48
1
60
0
100
AcDbLine
10
0
20
-26.3375
30
0
11
0
21
-76.787006
31
0
39
0
210
0
220
0
230
1
0
LINE
5
379
100
AcDbEntity
8
0
62
256
6
ByLayer
370
-2
48
1
60
0
100
AcDbLine
10
-65.825
20
-73.612006
30
0
11
-4.175
21
-73.612006
31
0
39
0
210
0
220
0
230
1
0
SOLID
5
37A
100
AcDbEntity
8
0
62
256
6
ByLayer
370
-1
48
1
60
0
100
AcDbTrace
10
-65.825
20
-72.916173
30
0
11
-65.825
21
-74.30784
31
0
12
-70
22
-73.612006
32
0
13
-70
23
-73.612006
33
0
39
0
210
0
220
0
230
1
0
SOLID
5
37B
100
AcDbEntity
8
0
62
256
6
ByLayer
370
-1
48
1
60
0
100
AcDbTrace
10
-4.175
20
-74.30784
30
0
11
-4.175
21
-72.916173
31
0
12
0
22
-73.612006
32
0
13
0
23
-73.612006
33
0
39
0
210
0
220
0
230
1
0
MTEXT
5
37C
100
AcDbEntity
8
0
62
256
6
ByLayer
370
18
48
1
60
0
100
AcDbMText
10
-35
20
-64.218256
30
0
210
0
220
0
230
1
1
\A1;70
40
4.5
41
0
44
1
50
0
71
5
72
5
7
iso_b_vert
0
POINT
5
37D
100
AcDbEntity
8
Defpoints
62
0
6
ByLayer
370
-1
48
1
60
0
100
AcDbPoint
10
-70
20
-20
30
0
39
0
210
0
220
0
230
1
50
360
0
POINT
5
37E
100
AcDbEntity
8
Defpoints
62
0
6
ByLayer
370
-1
48
1
60
0
100
AcDbPoint
10
0
20
-24.75
30
0
39
0
210
0
220
0
230
1
50
360
0
POINT
5
37F
100
AcDbEntity
8
Defpoints
62
0
6
ByLayer
370
-1
48
1
60
0
100
AcDbPoint
10
0
20
-73.612006
30
0
39
0
210
0
220
0
230
1
50
360
0
ENDBLK
5
376
100
AcDbEntity
8
0
100
AcDbBlockEnd
0
BLOCK
5
387
100
AcDbEntity
8
0
100
AcDbBlockBegin
2
_U1
70
0
10
0
20
0
30
0
3
_U1
0
MTEXT
5
381
100
AcDbEntity
8
SK2
62
256
6
ByLayer
370
18
48
1
60
0
100
AcDbMText
10
-37.449242
20
-72.284335
30
0
210
0
220
0
230
1
1
\W0.6740;70
40
4.5
41
0
44
1.084337
50
0
71
7
72
5
7
iso_b_vert
0
LINE
5
382
100
AcDbEntity
8
SK2
62
256
6
ByLayer
370
13
48
1
60
0
100
AcDbLine
10
-70
20
-21.5875
30
0
11
-70
21
-76.787006
31
0
39
0
210
0
220
0
230
1
0
LINE
5
383
100
AcDbEntity
8
SK2
62
256
6
ByLayer
370
13
48
1
60
0
100
AcDbLine
10
0
20
-26.3375
30
0
11
0
21
-76.787006
31
0
39
0
210
0
220
0
230
1
0
LINE
5
384
100
AcDbEntity
8
SK2
62
256
6
ByLayer
370
13
48
1
60
0
100
AcDbLine
10
-70
20
-73.612006
30
0
11
0
21
-73.612006
31
0
39
0
210
0
220
0
230
1
0
SOLID
5
385
100
AcDbEntity
8
SK2
62
256
6
ByLayer
370
18
48
1
60
0
100
AcDbTrace
10
-70
20
-73.612006
30
0
11
-65.825003
21
-72.686431
31
0
12
-65.824997
22
-74.537582
32
0
13
-65.824997
23
-74.537582
33
0
39
0
210
0
220
0
230
1
0
SOLID
5
386
100
AcDbEntity
8
SK2
62
256
6
ByLayer
370
18
48
1
60
0
100
AcDbTrace
10
0
20
-73.612006
30
0
11
-4.174997
21
-74.537582
31
0
12
-4.175003
22
-72.686431
32
0
13
-4.175003
23
-72.686431
33
0
39
0
210
0
220
0
230
1
0
ENDBLK
5
388
100
AcDbEntity
8
0
100
AcDbBlockEnd
0
BLOCK
5
38D
100
AcDbEntity
8
0
100
AcDbBlockBegin
2
*D5
70
1
10
0
20
0
30
0
3
*D5
0
LINE
5
38F
100
AcDbEntity
8
0
62
256
6
ByLayer
370
-2
48
1
60
0
100
AcDbLine
10
170
20
-18.5875
30
0
11
170
21
-66.787006
31
0
39
0
210
0
220
0
230
1
0
LINE
5
390
100
AcDbEntity
8
0
62
256
6
ByLayer
370
-2
48
1
60
0
100
AcDbLine
10
5.6431
20
-26.3375
30
0
11
5.6431
21
-66.787006
31
0
39
0
210
0
220
0
230
1
0
LINE
5
391
100
AcDbEntity
8
0
62
256
6
ByLayer
370
-2
48
1
60
0
100
AcDbLine
10
165.825
20
-63.612006
30
0
11
9.8181
21
-63.612006
31
0
39
0
210
0
220
0
230
1
0
SOLID
5
392
100
AcDbEntity
8
0
62
256
6
ByLayer
370
-1
48
1
60
0
100
AcDbTrace
10
165.825
20
-64.30784
30
0
11
165.825
21
-62.916173
31
0
12
170
22
-63.612006
32
0
13
170
23
-63.612006
33
0
39
0
210
0
220
0
230
1
0
SOLID
5
393
100
AcDbEntity
8
0
62
256
6
ByLayer
370
-1
48
1
60
0
100
AcDbTrace
10
9.8181
20
-62.916173
30
0
11
9.8181
21
-64.30784
31
0
12
5.6431
22
-63.612006
32
0
13
5.6431
23
-63.612006
33
0
39
0
210
0
220
0
230
1
0
MTEXT
5
394
100
AcDbEntity
8
0
62
256
6
ByLayer
370
18
48
1
60
0
100
AcDbMText
10
87.82155
20
-54.218256
30
0
210
0
220
0
230
1
1
\A1;164.4
40
4.5
41
0
44
1
50
0
71
5
72
5
7
iso_b_vert
0
POINT
5
395
100
AcDbEntity
8
Defpoints
62
0
6
ByLayer
370
-1
48
1
60
0
100
AcDbPoint
10
170
20
-17
30
0
39
0
210
0
220
0
230
1
50
360
0
POINT
5
396
100
AcDbEntity
8
Defpoints
62
0
6
ByLayer
370
-1
48
1
60
0
100
AcDbPoint
10
5.6431
20
-24.75
30
0
39
0
210
0
220
0
230
1
50
360
0
POINT
5
397
100
AcDbEntity
8
Defpoints
62
0
6
ByLayer
370
-1
48
1
60
0
100
AcDbPoint
10
5.6431
20
-63.612006
30
0
39
0
210
0
220
0
230
1
50
360
0
ENDBLK
5
38E
100
AcDbEntity
8
0
100
AcDbBlockEnd
0
BLOCK
5
39F
100
AcDbEntity
8
0
100
AcDbBlockBegin
2
_U2
70
0
10
0
20
0
30
0
3
_U2
0
MTEXT
5
399
100
AcDbEntity
8
SK2
62
256
6
ByLayer
370
18
48
1
60
0
100
AcDbMText
10
81.18658
20
-62.284335
30
0
210
0
220
0
230
1
1
\W0.7271;164.4
40
4.5
41
0
44
1.084337
50
0
71
7
72
5
7
iso_b_vert
0
LINE
5
39A
100
AcDbEntity
8
SK2
62
256
6
ByLayer
370
13
48
1
60
0
100
AcDbLine
10
170
20
-18.5875
30
0
11
170
21
-66.787006
31
0
39
0
210
0
220
0
230
1
0
LINE
5
39B
100
AcDbEntity
8
SK2
62
256
6
ByLayer
370
13
48
1
60
0
100
AcDbLine
10
5.6431
20
-26.3375
30
0
11
5.6431
21
-66.787006
31
0
39
0
210
0
220
0
230
1
0
LINE
5
39C
100
AcDbEntity
8
SK2
62
256
6
ByLayer
370
13
48
1
60
0
100
AcDbLine
10
170
20
-63.612006
30
0
11
5.6431
21
-63.612006
31
0
39
0
210
0
220
0
230
1
0
SOLID
5
39D
100
AcDbEntity
8
SK2
62
256
6
ByLayer
370
18
48
1
60
0
100
AcDbTrace
10
170
20
-63.612006
30
0
11
165.825003
21
-64.537582
31
0
12
165.824997
22
-62.686431
32
0
13
165.824997
23
-62.686431
33
0
39
0
210
0
220
0
230
1
0
SOLID
5
39E
100
AcDbEntity
8
SK2
62
256
6
ByLayer
370
18
48
1
60
0
100
AcDbTrace
10
5.6431
20
-63.612006
30
0
11
9.818097
21
-62.686431
31
0
12
9.818103
22
-64.537582
32
0
13
9.818103
23
-64.537582
33
0
39
0
210
0
220
0
230
1
0
ENDBLK
5
3A0
100
AcDbEntity
8
0
100
AcDbBlockEnd
0
BLOCK
5
3A5
100
AcDbEntity
8
0
100
AcDbBlockBegin
2
*D7
70
1
10
0
20
0
30
0
3
*D7
0
LINE
5
3A7
100
AcDbEntity
8
0
62
256
6
ByLayer
370
-2
48
1
60
0
100
AcDbLine
10
30
20
-18.5875
30
0
11
30
21
-56.787006
31
0
39
0
210
0
220
0
230
1
0
LINE
5
3A8
100
AcDbEntity
8
0
62
256
6
ByLayer
370
-2
48
1
60
0
100
AcDbLine
10
170
20
-18.5875
30
0
11
170
21
-56.787006
31
0
39
0
210
0
220
0
230
1
0
LINE
5
3A9
100
AcDbEntity
8
0
62
256
6
ByLayer
370
-2
48
1
60
0
100
AcDbLine
10
34.175
20
-53.612006
30
0
11
165.825
21
-53.612006
31
0
39
0
210
0
220
0
230
1
0
SOLID
5
3AA
100
AcDbEntity
8
0
62
256
6
ByLayer
370
-1
48
1
60
0
100
AcDbTrace
10
34.175
20
-52.916173
30
0
11
34.175
21
-54.30784
31
0
12
30
22
-53.612006
32
0
13
30
23
-53.612006
33
0
39
0
210
0
220
0
230
1
0
SOLID
5
3AB
100
AcDbEntity
8
0
62
256
6
ByLayer
370
-1
48
1
60
0
100
AcDbTrace
10
165.825
20
-54.30784
30
0
11
165.825
21
-52.916173
31
0
12
170
22
-53.612006
32
0
13
170
23
-53.612006
33
0
39
0
210
0
220
0
230
1
0
MTEXT
5
3AC
100
AcDbEntity
8
0
62
256
6
ByLayer
370
18
48
1
60
0
100
AcDbMText
10
100
20
-44.218256
30
0
210
0
220
0
230
1
1
\A1;140
40
4.5
41
0
44
1
50
0
71
5
72
5
7
iso_b_vert
0
POINT
5
3AD
100
AcDbEntity
8
Defpoints
62
0
6
ByLayer
370
-1
48
1
60
0
100
AcDbPoint
10
30
20
-17
30
0
39
0
210
0
220
0
230
1
50
360
0
POINT
5
3AE
100
AcDbEntity
8
Defpoints
62
0
6
ByLayer
370
-1
48
1
60
0
100
AcDbPoint
10
170
20
-17
30
0
39
0
210
0
220
0
230
1
50
360
0
POINT
5
3AF
100
AcDbEntity
8
Defpoints
62
0
6
ByLayer
370
-1
48
1
60
0
100
AcDbPoint
10
170
20
-53.612006
30
0
39
0
210
0
220
0
230
1
50
360
0
ENDBLK
5
3A6
100
AcDbEntity
8
0
100
AcDbBlockEnd
0
BLOCK
5
3B7
100
AcDbEntity
8
0
100
AcDbBlockBegin
2
_U3
70
0
10
0
20
0
30
0
3
_U3
0
MTEXT
5
3B1
100
AcDbEntity
8
SK2
62
256
6
ByLayer
370
18
48
1
60
0
100
AcDbMText
10
96.194886
20
-52.284335
30
0
210
0
220
0
230
1
1
\W0.6620;140
40
4.5
41
0
44
1.084337
50
0
71
7
72
5
7
iso_b_vert
0
LINE
5
3B2
100
AcDbEntity
8
SK2
62
256
6
ByLayer
370
13
48
1
60
0
100
AcDbLine
10
30
20
-18.5875
30
0
11
30
21
-56.787006
31
0
39
0
210
0
220
0
230
1
0
LINE
5
3B3
100
AcDbEntity
8
SK2
62
256
6
ByLayer
370
13
48
1
60
0
100
AcDbLine
10
170
20
-18.5875
30
0
11
170
21
-56.787006
31
0
39
0
210
0
220
0
230
1
0
LINE
5
3B4
100
AcDbEntity
8
SK2
62
256
6
ByLayer
370
13
48
1
60
0
100
AcDbLine
10
30
20
-53.612006
30
0
11
170
21
-53.612006
31
0
39
0
210
0
220
0
230
1
0
SOLID
5
3B5
100
AcDbEntity
8
SK2
62
256
6
ByLayer
370
18
48
1
60
0
100
AcDbTrace
10
30
20
-53.612006
30
0
11
34.174997
21
-52.686431
31
0
12
34.175003
22
-54.537582
32
0
13
34.175003
23
-54.537582
33
0
39
0
210
0
220
0
230
1
0
SOLID
5
3B6
100
AcDbEntity
8
SK2
62
256
6
ByLayer
370
18
48
1
60
0
100
AcDbTrace
10
170
20
-53.612006
30
0
11
165.825003
21
-54.537582
31
0
12
165.824997
22
-52.686431
32
0
13
165.824997
23
-52.686431
33
0
39
0
210
0
220
0
230
1
0
ENDBLK
5
3B8
100
AcDbEntity
8
0
100
AcDbBlockEnd
0
BLOCK
5
3BD
100
AcDbEntity
8
0
100
AcDbBlockBegin
2
*D9
70
1
10
0
20
0
30
0
3
*D9
0
LINE
5
3BF
100
AcDbEntity
8
0
62
256
6
ByLayer
370
-2
48
1
60
0
100
AcDbLine
10
168.9982
20
-10.0875
30
0
11
168.9982
21
-46.787006
31
0
39
0
210
0
220
0
230
1
0
LINE
5
3C0
100
AcDbEntity
8
0
62
256
6
ByLayer
370
-2
48
1
60
0
100
AcDbLine
10
170
20
-1.5875
30
0
11
170
21
-46.787006
31
0
39
0
210
0
220
0
230
1
0
LINE
5
3C1
100
AcDbEntity
8
0
62
256
6
ByLayer
370
-2
48
1
60
0
100
AcDbLine
10
170
20
-43.612006
30
0
11
193.708929
21
-43.612006
31
0
39
0
210
0
220
0
230
1
0
LINE
5
3C2
100
AcDbEntity
8
0
62
256
6
ByLayer
370
-2
48
1
60
0
100
AcDbLine
10
164.8232
20
-43.612006
30
0
11
160.6482
21
-43.612006
31
0
39
0
210
0
220
0
230
1
0
LINE
5
3C3
100
AcDbEntity
8
0
62
256
6
ByLayer
370
-2
48
1
60
0
100
AcDbLine
10
174.175
20
-43.612006
30
0
11
178.35
21
-43.612006
31
0
39
0
210
0
220
0
230
1
0
SOLID
5
3C4
100
AcDbEntity
8
0
62
256
6
ByLayer
370
-1
48
1
60
0
100
AcDbTrace
10
164.8232
20
-44.30784
30
0
11
164.8232
21
-42.916173
31
0
12
168.9982
22
-43.612006
32
0
13
168.9982
23
-43.612006
33
0
39
0
210
0
220
0
230
1
0
SOLID
5
3C5
100
AcDbEntity
8
0
62
256
6
ByLayer
370
-1
48
1
60
0
100
AcDbTrace
10
174.175
20
-42.916173
30
0
11
174.175
21
-44.30784
31
0
12
170
22
-43.612006
32
0
13
170
23
-43.612006
33
0
39
0
210
0
220
0
230
1
0
MTEXT
5
3C6
100
AcDbEntity
8
0
62
256
6
ByLayer
370
18
48
1
60
0
100
AcDbMText
10
186.029464
20
-34.218256
30
0
210
0
220
0
230
1
1
\A1;1
40
4.5
41
0
44
1
50
0
71
5
72
5
7
iso_b_vert
0
POINT
5
3C7
100
AcDbEntity
8
Defpoints
62
0
6
ByLayer
370
-1
48
1
60
0
100
AcDbPoint
10
168.9982
20
-8.5
30
0
39
0
210
0
220
0
230
1
50
360
0
POINT
5
3C8
100
AcDbEntity
8
Defpoints
62
0
6
ByLayer
370
-1
48
1
60
0
100
AcDbPoint
10
170
20
0
30
0
39
0
210
0
220
0
230
1
50
360
0
POINT
5
3C9
100
AcDbEntity
8
Defpoints
62
0
6
ByLayer
370
-1
48
1
60
0
100
AcDbPoint
10
170
20
-43.612006
30
0
39
0
210
0
220
0
230
1
50
360
0
ENDBLK
5
3BE
100
AcDbEntity
8
0
100
AcDbBlockEnd
0
BLOCK
5
3D1
100
AcDbEntity
8
0
100
AcDbBlockBegin
2
_U4
70
0
10
0
20
0
30
0
3
_U4
0
MTEXT
5
3CB
100
AcDbEntity
8
2
62
256
6
ByLayer
370
18
48
1
60
0
100
AcDbMText
10
182.351
20
-42.284335
30
0
210
0
220
0
230
1
1
\W0.3580;1
40
4.5
41
0
44
1.084337
50
0
71
7
72
5
7
iso_b_vert
0
LINE
5
3CC
100
AcDbEntity
8
2
62
256
6
ByLayer
370
13
48
1
60
0
100
AcDbLine
10
168.9982
20
-10.0875
30
0
11
168.9982
21
-46.787006
31
0
39
0
210
0
220
0
230
1
0
LINE
5
3CD
100
AcDbEntity
8
2
62
256
6
ByLayer
370
13
48
1
60
0
100
AcDbLine
10
170
20
-1.5875
30
0
11
170
21
-46.787006
31
0
39
0
210
0
220
0
230
1
0
LINE
5
3CE
100
AcDbEntity
8
2
62
256
6
ByLayer
370
13
48
1
60
0
100
AcDbLine
10
183.000414
20
-43.612006
30
0
11
157.7482
21
-43.612006
31
0
39
0
210
0
220
0
230
1
0
SOLID
5
3CF
100
AcDbEntity
8
2
62
256
6
ByLayer
370
18
48
1
60
0
100
AcDbTrace
10
168.9982
20
-43.612006
30
0
11
164.823203
21
-44.537582
31
0
12
164.823197
22
-42.686431
32
0
13
164.823197
23
-42.686431
33
0
39
0
210
0
220
0
230
1
0
SOLID
5
3D0
100
AcDbEntity
8
2
62
256
6
ByLayer
370
18
48
1
60
0
100
AcDbTrace
10
170
20
-43.612006
30
0
11
174.174997
21
-42.686431
31
0
12
174.175003
22
-44.537582
32
0
13
174.175003
23
-44.537582
33
0
39
0
210
0
220
0
230
1
0
ENDBLK
5
3D2
100
AcDbEntity
8
0
100
AcDbBlockEnd
0
ENDSEC
0
SECTION
2
ENTITIES
0
ARC
5
18B
100
AcDbEntity
8
SK1
62
256
6
ByLayer
370
13
48
1
60
0
100
AcDbCircle
39
0
10
-67.894505
20
-20.396
30
0
40
0.799999999999993
210
0
220
0
230
1
100
AcDbArc
50
70.982
51
141
0
ARC
5
18C
100
AcDbEntity
8
SK1
62
256
6
ByLayer
370
13
48
1
60
0
100
AcDbCircle
39
0
10
-67.894505
20
20.396
30
0
40
0.799999999999993
210
0
220
0
230
1
100
AcDbArc
50
219
51
289.018
0
ARC
5
18D
100
AcDbEntity
8
SK1
62
256
6
ByLayer
370
13
48
1
60
0
100
AcDbCircle
39
0
10
-0.15
20
20.146
30
0
40
0.399999999999999
210
0
220
0
230
1
100
AcDbArc
50
270
51
292.024313
0
ARC
5
18E
100
AcDbEntity
8
SK1
62
256
6
ByLayer
370
13
48
1
60
0
100
AcDbCircle
39
0
10
-0.15
20
-20.146
30
0
40
0.399999999999999
210
0
220
0
230
1
100
AcDbArc
50
67.975687
51
90
0
ARC
5
18F
100
AcDbEntity
8
SK1
62
256
6
ByLayer
370
13
48
1
60
0
100
AcDbCircle
39
0
10
-1.375195
20
20.146
30
0
40
0.400000000000004
210
0
220
0
230
1
100
AcDbArc
50
245
51
270
0
ARC
5
190
100
AcDbEntity
8
SK1
62
256
6
ByLayer
370
13
48
1
60
0
100
AcDbCircle
39
0
10
-1.375195
20
-20.146
30
0
40
0.400000000000004
210
0
220
0
230
1
100
AcDbArc
50
90
51
115
0
ARC
5
191
100
AcDbEntity
8
1
62
256
6
ByLayer
370
13
48
1
60
0
100
AcDbCircle
39
0
10
167.031442
20
15.767146
30
0
40
0.15
210
0
220
0
230
1
100
AcDbArc
50
8.974534
51
93
0
ARC
5
192
100
AcDbEntity
8
1
62
256
6
ByLayer
370
13
48
1
60
0
100
AcDbCircle
39
0
10
167.134212
20
5.880027
30
0
40
0.15
210
0
220
0
230
1
100
AcDbArc
50
273
51
352.543899
0
ARC
5
193
100
AcDbEntity
8
1
62
256
6
ByLayer
370
13
48
1
60
0
100
AcDbCircle
39
0
10
157.65978
20
15.108349
30
0
40
0.15
210
0
220
0
230
1
100
AcDbArc
50
78.801932
51
93
0
ARC
5
194
100
AcDbEntity
8
1
62
256
6
ByLayer
370
13
48
1
60
0
100
AcDbCircle
39
0
10
157.76255
20
5.221231
30
0
40
0.15
210
0
220
0
230
1
100
AcDbArc
50
273
51
302.717373
0
ELLIPSE
5
195
100
AcDbEntity
8
1
62
256
6
ByLayer
370
18
48
1
60
0
100
AcDbEllipse
10
162.281014
20
10.48811
30
0
11
0.0562297513874178
21
-1.07292757214031
31
0
210
0
220
0
230
1
40
0.995725
41
2.09439510239318
42
3.14159265358979
0
ELLIPSE
5
196
100
AcDbEntity
8
1
62
256
6
ByLayer
370
18
48
1
60
0
100
AcDbEllipse
10
162.405543
20
10.494636
30
0
11
0.0737779975156767
21
-1.40776805514352
31
0
210
0
220
0
230
1
40
0.995725
41
-1.5707963267949
42
-0.523598775598286
0
ELLIPSE
5
197
100
AcDbEntity
8
1
62
256
6
ByLayer
370
18
48
1
60
0
100
AcDbEllipse
10
162.405543
20
10.494636
30
0
11
0.0737779975156767
21
-1.40776805514352
31
0
210
0
220
0
230
1
40
0.995725
41
-2.61799387799148
42
-1.5707963267949
0
ELLIPSE
5
198
100
AcDbEntity
8
1
62
256
6
ByLayer
370
18
48
1
60
0
100
AcDbEllipse
10
162.216012
20
11.728408
30
0
11
-0.327939958371948
21
-0.0171866049565158
31
0
210
0
220
0
230
1
40
0.510369
41
0.317077564754386
42
1.5707963267949
0
ELLIPSE
5
199
100
AcDbEntity
8
1
62
256
6
ByLayer
370
18
48
1
60
0
100
AcDbEllipse
10
162.399281
20
10.494308
30
0
11
-0.125606294983066
21
2.39671088341098
31
0
210
0
220
0
230
1
40
0.995725
41
0
42
6.28318530717959
0
ELLIPSE
5
19A
100
AcDbEntity
8
1
62
256
6
ByLayer
370
18
48
1
60
0
100
AcDbEllipse
10
162.281014
20
10.48811
30
0
11
0.0562297513874178
21
-1.07292757214031
31
0
210
0
220
0
230
1
40
0.995725
41
1.04719755119658
42
2.09439510239321
0
ELLIPSE
5
19B
100
AcDbEntity
8
1
62
256
6
ByLayer
370
18
48
1
60
0
100
AcDbEllipse
10
162.405543
20
10.494636
30
0
11
0.0737779975156767
21
-1.40776805514352
31
0
210
0
220
0
230
1
40
0.995725
41
2.61799387799148
42
-2.61799387799148
0
ELLIPSE
5
19C
100
AcDbEntity
8
1
62
256
6
ByLayer
370
18
48
1
60
0
100
AcDbEllipse
10
162.405543
20
10.494636
30
0
11
0.0737779975156767
21
-1.40776805514352
31
0
210
0
220
0
230
1
40
0.995725
41
-0.523598775598286
42
0.523598775598312
0
ELLIPSE
5
19D
100
AcDbEntity
8
1
62
256
6
ByLayer
370
18
48
1
60
0
100
AcDbEllipse
10
163.383051
20
9.924013
30
0
11
-0.14864488664564
21
-0.294008917978744
31
0
210
0
220
0
230
1
40
0.507093
41
-1.57332920185202
42
-0.319610439797614
0
ELLIPSE
5
19E
100
AcDbEntity
8
1
62
256
6
ByLayer
370
18
48
1
60
0
100
AcDbEllipse
10
163.31805
20
11.164311
30
0
11
-0.178562894791952
21
0.276860684797226
31
0
210
0
220
0
230
1
40
0.507093
41
1.57332920185178
42
2.82704796387863
0
ELLIPSE
5
19F
100
AcDbEntity
8
1
62
256
6
ByLayer
370
18
48
1
60
0
100
AcDbEllipse
10
162.405543
20
10.494636
30
0
11
0.0737779975156767
21
-1.40776805514352
31
0
210
0
220
0
230
1
40
0.995725
41
1.5707963267949
42
2.61799387799148
0
ELLIPSE
5
1A0
100
AcDbEntity
8
1
62
256
6
ByLayer
370
18
48
1
60
0
100
AcDbEllipse
10
163.383051
20
9.924013
30
0
11
-0.148644886650226
21
-0.294008917978485
31
0
210
0
220
0
230
1
40
0.507093
41
-2.8270479638735
42
-1.57332920182526
0
ELLIPSE
5
1A1
100
AcDbEntity
8
1
62
256
6
ByLayer
370
18
48
1
60
0
100
AcDbEllipse
10
162.405543
20
10.494636
30
0
11
0.0737779975156767
21
-1.40776805514352
31
0
210
0
220
0
230
1
40
0.995725
41
0.523598775598312
42
1.5707963267949
0
ELLIPSE
5
1A2
100
AcDbEntity
8
1
62
256
6
ByLayer
370
18
48
1
60
0
100
AcDbEllipse
10
163.31805
20
11.164311
30
0
11
-0.178562894794226
21
0.27686068479353
31
0
210
0
220
0
230
1
40
0.507093
41
0.319610439793384
42
1.57332920182565
0
ELLIPSE
5
1A3
100
AcDbEntity
8
1
62
256
6
ByLayer
370
18
48
1
60
0
100
AcDbEllipse
10
162.346015
20
9.247812
30
0
11
-0.327939958373264
21
-0.0171866049557171
31
0
210
0
220
0
230
1
40
0.510369
41
-1.5707963267949
42
-0.317077564754253
0
ELLIPSE
5
1A4
100
AcDbEntity
8
1
62
256
6
ByLayer
370
18
48
1
60
0
100
AcDbEllipse
10
162.405543
20
10.494636
30
0
11
-0.0785039343644161
21
1.49794430213186
31
0
210
0
220
0
230
1
40
0.995725
41
0
42
6.28318530717959
0
ELLIPSE
5
1A5
100
AcDbEntity
8
1
62
256
6
ByLayer
370
13
48
1
60
0
100
AcDbEllipse
10
169.691784
20
10.876262
30
0
11
0.148731686424787
21
-0.0194649801756591
31
0
210
0
220
0
230
1
40
0.016833
41
-1.66175841710532
42
-0.0909620903119791
0
ELLIPSE
5
1A6
100
AcDbEntity
8
1
62
256
6
ByLayer
370
13
48
1
60
0
100
AcDbEllipse
10
169.060216
20
6.050455
30
0
11
0.00785039343644135
21
-0.149794430213184
31
0
210
0
220
0
230
1
40
0.995725
41
0.104719755118722
42
1.38753675533548
0
ELLIPSE
5
1A7
100
AcDbEntity
8
1
62
256
6
ByLayer
370
13
48
1
60
0
100
AcDbEllipse
10
157.551046
20
4.964632
30
0
11
0.00523359562429342
21
-0.0998629534754406
31
0
210
0
220
0
230
1
40
0.995725
41
0.716438162266006
42
1.67551608191478
0
ELLIPSE
5
1A8
100
AcDbEntity
8
1
62
256
6
ByLayer
370
13
48
1
60
0
100
AcDbEllipse
10
157.428302
20
15.258199
30
0
11
0.00523359562429516
21
-0.0998629534754736
31
0
210
0
220
0
230
1
40
0.995725
41
1.38753675533609
42
-3.0368728984701
0
ELLIPSE
5
1A9
100
AcDbEntity
8
1
62
256
6
ByLayer
370
13
48
1
60
0
100
AcDbEllipse
10
162.64847
20
5.695773
30
0
11
0.00785039343644145
21
-0.149794430213186
31
0
210
0
220
0
230
1
40
0.092371
41
0
42
1.5707963267949
0
ELLIPSE
5
1AA
100
AcDbEntity
8
1
62
256
6
ByLayer
370
13
48
1
60
0
100
AcDbEllipse
10
157.56593
20
10.065389
30
0
11
-0.0287847759336193
21
0.549246244115016
31
0
210
0
220
0
230
1
40
0.995725
41
1.38753675533548
42
1.67551608191458
0
ELLIPSE
5
1AB
100
AcDbEntity
8
1
62
256
6
ByLayer
370
13
48
1
60
0
100
AcDbEllipse
10
157.036618
20
4.266838
30
0
11
0.0152182918358263
21
-0.290382306673144
31
0
210
0
220
0
230
1
40
0.995725
41
0.174532925199714
42
1.24776550800987
0
ELLIPSE
5
1AC
100
AcDbEntity
8
1
62
256
6
ByLayer
370
13
48
1
60
0
100
AcDbEllipse
10
156.213964
20
16.116574
30
0
11
-0.357961887355609
21
0.220366838116918
31
0
210
0
220
0
230
1
40
0.479615
41
-1.8087684414065
42
-0.78175878888726
0
ELLIPSE
5
1AD
100
AcDbEntity
8
1
62
256
6
ByLayer
370
13
48
1
60
0
100
AcDbEllipse
10
169.064828
20
6.050697
30
0
11
0.00785039343644135
21
-0.149794430213184
31
0
210
0
220
0
230
1
40
0.995725
41
0.10471975511835
42
1.38753675533548
0
ELLIPSE
5
1AE
100
AcDbEntity
8
1
62
256
6
ByLayer
370
13
48
1
60
0
100
AcDbEllipse
10
167.134212
20
5.880027
30
0
11
0.0291301903380949
21
0.147144255786172
31
0
210
0
220
0
230
1
40
0.089572
41
-3.11893454753932
42
-1.54813822074548
0
ELLIPSE
5
1AF
100
AcDbEntity
8
1
62
256
6
ByLayer
370
13
48
1
60
0
100
AcDbEllipse
10
156.708322
20
10.175556
30
0
11
-0.148731686424787
21
0.0194649801756605
31
0
210
0
220
0
230
1
40
0.016833
41
1.47983423648447
42
3.0506305632771
0
ELLIPSE
5
1B0
100
AcDbEntity
8
1
62
256
6
ByLayer
370
13
48
1
60
0
100
AcDbEllipse
10
167.747771
20
16.718104
30
0
11
-0.00261679781214725
21
0.0499314767377296
31
0
210
0
220
0
230
1
40
0.995725
41
-0.00872664625980459
42
1.24776550800937
0
ELLIPSE
5
1B1
100
AcDbEntity
8
1
62
256
6
ByLayer
370
13
48
1
60
0
100
AcDbEllipse
10
158.658995
20
3.814402
30
0
11
-0.073270338740122
21
1.39808134865641
31
0
210
0
220
0
230
1
40
0.995725
41
0
42
1.24776550800939
0
ELLIPSE
5
1B2
100
AcDbEntity
8
1
62
256
6
ByLayer
370
13
48
1
60
0
100
AcDbEllipse
10
162.410832
20
10.494914
30
0
11
0.141252064642858
21
-2.69524995287424
31
0
210
0
220
0
230
1
40
0.995725
41
0
42
6.28318530717959
0
ELLIPSE
5
1B3
100
AcDbEntity
8
1
62
256
6
ByLayer
370
13
48
1
60
0
100
AcDbEllipse
10
168.327274
20
16.776173
30
0
11
0.003381177947986
21
0.149961887277015
31
0
210
0
220
0
230
1
40
0.092114
41
0.00691241886450697
42
1.57770874566026
0
ELLIPSE
5
1B4
100
AcDbEntity
8
1
62
256
6
ByLayer
370
13
48
1
60
0
100
AcDbEllipse
10
168.140226
20
8.028721
30
0
11
0.465790010562193
21
-8.8878028593157
31
0
210
0
220
0
230
1
40
0.995725
41
3.0670087244116
42
3.11145682764813
0
ELLIPSE
5
1B5
100
AcDbEntity
8
1
62
256
6
ByLayer
370
13
48
1
60
0
100
AcDbEllipse
10
167.223449
20
10.922746
30
0
11
0.0444855628065016
21
-0.848835104541388
31
0
210
0
220
0
230
1
40
0.995725
41
1.38753675533551
42
1.67551608191454
0
ELLIPSE
5
1B6
100
AcDbEntity
8
1
62
256
6
ByLayer
370
13
48
1
60
0
100
AcDbEllipse
10
157.981244
20
16.746655
30
0
11
-0.073270338740122
21
1.39808134865641
31
0
210
0
220
0
230
1
40
0.995725
41
2.68254628766473
42
-3.14159265358963
0
ELLIPSE
5
1B7
100
AcDbEntity
8
1
62
256
6
ByLayer
370
13
48
1
60
0
100
AcDbEllipse
10
155.640581
20
10.039962
30
0
11
0.0366351693700601
21
-0.699040674328201
31
0
210
0
220
0
230
1
40
0.995725
41
-1.75405589825431
42
-1.4660765716752
0
ELLIPSE
5
1B8
100
AcDbEntity
8
1
62
256
6
ByLayer
370
13
48
1
60
0
100
AcDbEllipse
10
158.658995
20
3.814402
30
0
11
-0.0785039343644169
21
1.49794430213187
31
0
210
0
220
0
230
1
40
0.995725
41
0.716438162265911
42
1.24776550800935
0
ELLIPSE
5
1B9
100
AcDbEntity
8
1
62
256
6
ByLayer
370
13
48
1
60
0
100
AcDbEllipse
10
156.791773
20
5.960465
30
0
11
-0.091587923425152
21
1.74760168582051
31
0
210
0
220
0
230
1
40
0.995725
41
3.11145682764817
42
3.13286600732981
0
ELLIPSE
5
1BA
100
AcDbEntity
8
1
62
256
6
ByLayer
370
13
48
1
60
0
100
AcDbEllipse
10
157.071136
20
4.255684
30
0
11
-0.144590276080072
21
0.0399205719283759
31
0
210
0
220
0
230
1
40
0.029322
41
1.48305313748087
42
3.05384946427699
0
ELLIPSE
5
1BB
100
AcDbEntity
8
1
62
256
6
ByLayer
370
13
48
1
60
0
100
AcDbEllipse
10
169.060216
20
6.050455
30
0
11
-0.0235312926467612
21
0.148142763125211
31
0
210
0
220
0
230
1
40
0.091865
41
1.56109981834751
42
3.13189614514052
0
ELLIPSE
5
1BC
100
AcDbEntity
8
1
62
256
6
ByLayer
370
13
48
1
60
0
100
AcDbEllipse
10
155.72775
20
14.926584
30
0
11
-0.0435800209768697
21
-0.258371691311082
31
0
210
0
220
0
230
1
40
0.950251
41
-2.83208175222744
42
-1.53189750451977
0
ELLIPSE
5
1BD
100
AcDbEntity
8
1
62
256
6
ByLayer
370
13
48
1
60
0
100
AcDbEllipse
10
157.65978
20
15.108349
30
0
11
0.148731686424787
21
-0.0194649801756591
31
0
210
0
220
0
230
1
40
0.016833
41
1.47983423648278
42
3.05063056327851
0
ELLIPSE
5
1BE
100
AcDbEntity
8
1
62
256
6
ByLayer
370
13
48
1
60
0
100
AcDbEllipse
10
157.009108
20
10.136574
30
0
11
-0.148731686424787
21
0.0194649801756605
31
0
210
0
220
0
230
1
40
0.016833
41
-1.6617584171057
42
-0.0909620903112785
0
ELLIPSE
5
1BF
100
AcDbEntity
8
1
62
256
6
ByLayer
370
13
48
1
60
0
100
AcDbEllipse
10
167.979158
20
15.026704
30
0
11
0.0994383168615918
21
-1.89739611603369
31
0
210
0
220
0
230
1
40
0.995725
41
3.11145682764821
42
3.13286600732985
0
ELLIPSE
5
1C0
100
AcDbEntity
8
1
62
256
6
ByLayer
370
13
48
1
60
0
100
AcDbEllipse
10
156.810222
20
5.961431
30
0
11
0.0994383168615918
21
-1.89739611603369
31
0
210
0
220
0
230
1
40
0.995725
41
-0.0301358259414827
42
-0.00872664625985592
0
ELLIPSE
5
1C1
100
AcDbEntity
8
1
62
256
6
ByLayer
370
13
48
1
60
0
100
AcDbEllipse
10
168.301391
20
16.225593
30
0
11
-0.028784775933619
21
0.549246244115011
31
0
210
0
220
0
230
1
40
0.995725
41
-1.46607657167527
42
-0.0745839291780655
0
ELLIPSE
5
1C2
100
AcDbEntity
8
1
62
256
6
ByLayer
370
13
48
1
60
0
100
AcDbEllipse
10
157.027771
20
4.269305
30
0
11
0.0104671912485887
21
-0.199725906950916
31
0
210
0
220
0
230
1
40
0.995725
41
-0.00872664625998422
42
1.24776550800937
0
ELLIPSE
5
1C3
100
AcDbEntity
8
1
62
256
6
ByLayer
370
13
48
1
60
0
100
AcDbEllipse
10
166.079182
20
17.171049
30
0
11
-1.24768607642113
21
-1.08630162053504
31
0
210
0
220
0
230
1
40
0.736455
41
1.21411528372099
42
2.00283442580423
0
ELLIPSE
5
1C4
100
AcDbEntity
8
1
62
256
6
ByLayer
370
13
48
1
60
0
100
AcDbEllipse
10
157.365639
20
15.198112
30
0
11
-0.157381426408183
21
-0.046672370163287
31
0
210
0
220
0
230
1
40
0.019797
41
-3.05943361682759
42
-1.48863729007578
0
ELLIPSE
5
1C5
100
AcDbEntity
8
1
62
256
6
ByLayer
370
13
48
1
60
0
100
AcDbEllipse
10
169.153411
20
10.948414
30
0
11
0.0366351693700601
21
-0.699040674328201
31
0
210
0
220
0
230
1
40
0.995725
41
1.38753675533523
42
1.67551608191439
0
ELLIPSE
5
1C6
100
AcDbEntity
8
1
62
256
6
ByLayer
370
13
48
1
60
0
100
AcDbEllipse
10
158.654383
20
3.81416
30
0
11
-0.0785039343644169
21
1.49794430213187
31
0
210
0
220
0
230
1
40
0.995725
41
0.716438162265794
42
1.24776550800925
0
ELLIPSE
5
1C7
100
AcDbEntity
8
1
62
256
6
ByLayer
370
13
48
1
60
0
100
AcDbEllipse
10
166.134997
20
17.173975
30
0
11
-0.073270338740122
21
1.39808134865641
31
0
210
0
220
0
230
1
40
0.995725
41
3.14159265358963
42
-1.89382714558062
0
ELLIPSE
5
1C8
100
AcDbEntity
8
1
62
256
6
ByLayer
370
13
48
1
60
0
100
AcDbEllipse
10
167.965321
20
15.025978
30
0
11
-0.091587923425152
21
1.74760168582051
31
0
210
0
220
0
230
1
40
0.995725
41
-0.0301358259415884
42
-0.00872664625997129
0
ELLIPSE
5
1C9
100
AcDbEntity
8
1
62
256
6
ByLayer
370
13
48
1
60
0
100
AcDbEllipse
10
167.031442
20
15.767146
30
0
11
-0.0810743178596431
21
0.126202040330549
31
0
210
0
220
0
230
1
40
0.080306
41
-1.61660247828198
42
-0.0458061514903524
0
ELLIPSE
5
1CA
100
AcDbEntity
8
1
62
256
6
ByLayer
370
13
48
1
60
0
100
AcDbEllipse
10
167.534135
20
16.709839
30
0
11
-0.332966327740249
21
-0.256576851515657
31
0
210
0
220
0
230
1
40
0.479615
41
-2.35983386470095
42
-1.33282421218702
0
ELLIPSE
5
1CB
100
AcDbEntity
8
1
62
256
6
ByLayer
370
13
48
1
60
0
100
AcDbEllipse
10
157.011201
20
9.978747
30
0
11
-0.148163665863162
21
-0.0233993187505382
31
0
210
0
220
0
230
1
40
0.009655
41
0.0919985744748214
42
1.66279490126838
0
ELLIPSE
5
1CC
100
AcDbEntity
8
1
62
256
6
ByLayer
370
13
48
1
60
0
100
AcDbEllipse
10
167.757374
20
16.721538
30
0
11
0.0152182918358263
21
-0.290382306673144
31
0
210
0
220
0
230
1
40
0.995725
41
-2.96705972839048
42
-1.89382714558013
0
ELLIPSE
5
1CD
100
AcDbEntity
8
1
62
256
6
ByLayer
370
13
48
1
60
0
100
AcDbEllipse
10
169.148799
20
10.948173
30
0
11
0.0366351693700601
21
-0.699040674328201
31
0
210
0
220
0
230
1
40
0.995725
41
1.38753675533535
42
1.67551608191451
0
ELLIPSE
5
1CE
100
AcDbEntity
8
1
62
256
6
ByLayer
370
13
48
1
60
0
100
AcDbEllipse
10
166.116548
20
17.173008
30
0
11
0.0863543278008567
21
-1.64773873234506
31
0
210
0
220
0
230
1
40
0.995725
41
0.732285237848084
42
1.24776550800924
0
ELLIPSE
5
1CF
100
AcDbEntity
8
1
62
256
6
ByLayer
370
13
48
1
60
0
100
AcDbEllipse
10
167.76622
20
16.719071
30
0
11
0.0104671912485887
21
-0.199725906950916
31
0
210
0
220
0
230
1
40
0.995725
41
3.13286600732981
42
-1.89382714558058
0
ELLIPSE
5
1D0
100
AcDbEntity
8
1
62
256
6
ByLayer
370
13
48
1
60
0
100
AcDbEllipse
10
157.365639
20
15.198112
30
0
11
-0.0427993177787128
21
-0.158580925159544
31
0
210
0
220
0
230
1
40
0.080206
41
-3.11537766647623
42
-1.5445813397164
0
ELLIPSE
5
1D1
100
AcDbEntity
8
1
62
256
6
ByLayer
370
13
48
1
60
0
100
AcDbEllipse
10
168.135614
20
8.028479
30
0
11
0.465790010562193
21
-8.8878028593157
31
0
210
0
220
0
230
1
40
0.995725
41
3.06700872441171
42
3.11145682764823
0
ELLIPSE
5
1D2
100
AcDbEntity
8
1
62
256
6
ByLayer
370
13
48
1
60
0
100
AcDbEllipse
10
156.653766
20
12.959656
30
0
11
0.465790010562193
21
-8.8878028593157
31
0
210
0
220
0
230
1
40
0.995725
41
-0.0745839291779769
42
-0.0301358259414514
0
ELLIPSE
5
1D3
100
AcDbEntity
8
1
62
256
6
ByLayer
370
13
48
1
60
0
100
AcDbEllipse
10
169.689692
20
11.034089
30
0
11
0.148163665863163
21
0.0233993187505335
31
0
210
0
220
0
230
1
40
0.009655
41
0.0919985744748214
42
1.66279490126875
0
ELLIPSE
5
1D4
100
AcDbEntity
8
1
62
256
6
ByLayer
370
13
48
1
60
0
100
AcDbEllipse
10
156.635317
20
12.958689
30
0
11
-0.45793961712576
21
8.73800842910252
31
0
210
0
220
0
230
1
40
0.995725
41
3.06700872441171
42
3.11145682764823
0
ELLIPSE
5
1D5
100
AcDbEntity
8
1
62
256
6
ByLayer
370
13
48
1
60
0
100
AcDbEllipse
10
156.474152
20
4.761817
30
0
11
0.0366351693700599
21
-0.699040674328197
31
0
210
0
220
0
230
1
40
0.995725
41
-1.46607657167516
42
-0.07458392917799
0
ELLIPSE
5
1D6
100
AcDbEntity
8
1
62
256
6
ByLayer
370
13
48
1
60
0
100
AcDbEllipse
10
169.134962
20
10.947447
30
0
11
-0.0287847759336192
21
0.549246244115015
31
0
210
0
220
0
230
1
40
0.995725
41
-1.75405589825442
42
-1.46607657167532
0
ELLIPSE
5
1D7
100
AcDbEntity
8
1
62
256
6
ByLayer
370
13
48
1
60
0
100
AcDbEllipse
10
168.315227
20
16.226318
30
0
11
0.0366351693700599
21
-0.699040674328197
31
0
210
0
220
0
230
1
40
0.995725
41
1.67551608191451
42
3.06700872441176
0
ELLIPSE
5
1D8
100
AcDbEntity
8
1
62
256
6
ByLayer
370
13
48
1
60
0
100
AcDbEllipse
10
167.419128
20
5.789781
30
0
11
-0.0427993177744188
21
-0.158580925144781
31
0
210
0
220
0
230
1
40
0.080206
41
-1.54458133974545
42
0.0262149871175678
0
ELLIPSE
5
1D9
100
AcDbEntity
8
1
62
256
6
ByLayer
370
13
48
1
60
0
100
AcDbEllipse
10
157.009323
20
4.268339
30
0
11
-0.00261679781214725
21
0.0499314767377296
31
0
210
0
220
0
230
1
40
0.995725
41
3.13286600733052
42
-1.89382714558043
0
ELLIPSE
5
1DA
100
AcDbEntity
8
1
62
256
6
ByLayer
370
13
48
1
60
0
100
AcDbEllipse
10
165.710674
20
17.151737
30
0
11
0.0732703387401206
21
-1.39808134865641
31
0
210
0
220
0
230
1
40
0.995725
41
0
42
0.459046365925102
0
ELLIPSE
5
1DB
100
AcDbEntity
8
1
62
256
6
ByLayer
370
13
48
1
60
0
100
AcDbEllipse
10
167.242946
20
16.023745
30
0
11
0.00523359562429342
21
-0.0998629534754406
31
0
210
0
220
0
230
1
40
0.995725
41
-2.42515449132471
42
-1.4660765716753
0
ELLIPSE
5
1DC
100
AcDbEntity
8
1
62
256
6
ByLayer
370
13
48
1
60
0
100
AcDbEllipse
10
167.902759
20
16.775035
30
0
11
-0.00653729335064158
21
0.149857478277354
31
0
210
0
220
0
230
1
40
0.092367
41
0.000809536043732892
42
1.57160586284002
0
ELLIPSE
5
1DD
100
AcDbEntity
8
1
62
256
6
ByLayer
370
13
48
1
60
0
100
AcDbEllipse
10
157.547482
20
10.064422
30
0
11
-0.0366351693700609
21
0.699040674328202
31
0
210
0
220
0
230
1
40
0.995725
41
1.38753675533548
42
1.67551608191455
0
ELLIPSE
5
1DE
100
AcDbEntity
8
1
62
256
6
ByLayer
370
13
48
1
60
0
100
AcDbEllipse
10
162.334355
20
10.490905
30
0
11
0.132450797150179
21
-2.52731176482117
31
0
210
0
220
0
230
1
40
0.995725
41
0
42
6.28318530717959
0
ELLIPSE
5
1DF
100
AcDbEntity
8
1
62
256
6
ByLayer
370
13
48
1
60
0
100
AcDbEllipse
10
155.729163
20
14.93768
30
0
11
0.00785039343644135
21
-0.149794430213184
31
0
210
0
220
0
230
1
40
0.995725
41
-3.03687289847108
42
-1.75405589825413
0
ELLIPSE
5
1E0
100
AcDbEntity
8
1
62
256
6
ByLayer
370
13
48
1
60
0
100
AcDbEllipse
10
156.882009
20
4.212859
30
0
11
0.00653729335064122
21
-0.149857478277354
31
0
210
0
220
0
230
1
40
0.092367
41
-1.56998679074977
42
0.000809536045656042
0
ELLIPSE
5
1E1
100
AcDbEntity
8
1
62
256
6
ByLayer
370
13
48
1
60
0
100
AcDbEllipse
10
156.160577
20
16.113777
30
0
11
-0.28130805197278
21
0.197301749373768
31
0
210
0
220
0
230
1
40
0.736453
41
-2.00283069185443
42
-1.95660761786612
0
ELLIPSE
5
1E2
100
AcDbEntity
8
1
62
256
6
ByLayer
370
13
48
1
60
0
100
AcDbEllipse
10
157.546434
20
4.96439
30
0
11
0.00523359562429342
21
-0.0998629534754406
31
0
210
0
220
0
230
1
40
0.995725
41
0.716438162265979
42
1.67551608191478
0
ELLIPSE
5
1E3
100
AcDbEntity
8
1
62
256
6
ByLayer
370
13
48
1
60
0
100
AcDbEllipse
10
167.587522
20
16.712637
30
0
11
-0.259144306564324
21
-0.225625534678796
31
0
210
0
220
0
230
1
40
0.736454
41
-1.18498294545686
42
-1.13875994790543
0
ELLIPSE
5
1E4
100
AcDbEntity
8
1
62
256
6
ByLayer
370
13
48
1
60
0
100
AcDbEllipse
10
166.134997
20
17.173975
30
0
11
-0.0785039343644169
21
1.49794430213187
31
0
210
0
220
0
230
1
40
0.995725
41
-2.42515449132411
42
-1.89382714558067
0
ELLIPSE
5
1E5
100
AcDbEntity
8
1
62
256
6
ByLayer
370
13
48
1
60
0
100
AcDbEllipse
10
157.76255
20
5.221231
30
0
11
0.148163665863163
21
0.0233993187505335
31
0
210
0
220
0
230
1
40
0.009655
41
-3.04959407911989
42
-1.47879775232072
0
ELLIPSE
5
1E6
100
AcDbEntity
8
1
62
256
6
ByLayer
370
13
48
1
60
0
100
AcDbEllipse
10
167.713631
20
16.732209
30
0
11
0.144590276080072
21
-0.0399205719283745
31
0
210
0
220
0
230
1
40
0.029322
41
3.05384946427354
42
-1.65853951610911
0
ELLIPSE
5
1E7
100
AcDbEntity
8
1
62
256
6
ByLayer
370
13
48
1
60
0
100
AcDbEllipse
10
167.759425
20
16.768782
30
0
11
-0.00653729335064158
21
0.149857478277354
31
0
210
0
220
0
230
1
40
0.092367
41
0.000809536045784252
42
1.57160586284002
0
ELLIPSE
5
1E8
100
AcDbEntity
8
1
62
256
6
ByLayer
370
13
48
1
60
0
100
AcDbEllipse
10
169.066242
20
6.061792
30
0
11
-0.0435800209848178
21
-0.258371691308733
31
0
210
0
220
0
230
1
40
0.950251
41
0.309510901391253
42
1.60969514910338
0
ELLIPSE
5
1E9
100
AcDbEntity
8
1
62
256
6
ByLayer
370
13
48
1
60
0
100
AcDbEllipse
10
162.145522
20
15.292603
30
0
11
0.00785039343644145
21
-0.149794430213186
31
0
210
0
220
0
230
1
40
0.092371
41
1.5707963267949
42
-3.14159265358774
0
ELLIPSE
5
1EA
100
AcDbEntity
8
1
62
256
6
ByLayer
370
13
48
1
60
0
100
AcDbEllipse
10
158.640546
20
3.813435
30
0
11
0.0863543278008567
21
-1.64773873234506
31
0
210
0
220
0
230
1
40
0.995725
41
-2.4093074157417
42
-1.89382714558055
0
ELLIPSE
5
1EB
100
AcDbEntity
8
1
62
256
6
ByLayer
370
13
48
1
60
0
100
AcDbEllipse
10
168.85612
20
16.312234
30
0
11
0.148163665863163
21
0.0233993187505335
31
0
210
0
220
0
230
1
40
0.009655
41
0.0919985744735827
42
1.66279490126864
0
ELLIPSE
5
1EC
100
AcDbEntity
8
1
62
256
6
ByLayer
370
13
48
1
60
0
100
AcDbEllipse
10
169.060216
20
6.050455
30
0
11
0.148731686424787
21
-0.0194649801756591
31
0
210
0
220
0
230
1
40
0.016833
41
-1.66175841710491
42
-0.0909620903126969
0
ELLIPSE
5
1ED
100
AcDbEntity
8
1
62
256
6
ByLayer
370
13
48
1
60
0
100
AcDbEllipse
10
166.812748
20
4.241722
30
0
11
-0.073270338740122
21
1.39808134865641
31
0
210
0
220
0
230
1
40
0.995725
41
-0.459046365925282
42
-8.02792515734876E-14
0
ELLIPSE
5
1EE
100
AcDbEntity
8
1
62
256
6
ByLayer
370
13
48
1
60
0
100
AcDbEllipse
10
168.121777
20
8.027754
30
0
11
-0.45793961712576
21
8.73800842910252
31
0
210
0
220
0
230
1
40
0.995725
41
-0.0745839291780822
42
-0.0301358259415558
0
ELLIPSE
5
1EF
100
AcDbEntity
8
1
62
256
6
ByLayer
370
13
48
1
60
0
100
AcDbEllipse
10
156.455703
20
4.76085
30
0
11
-0.028784775933619
21
0.549246244115011
31
0
210
0
220
0
230
1
40
0.995725
41
1.67551608191453
42
3.06700872441173
0
ELLIPSE
5
1F0
100
AcDbEntity
8
1
62
256
6
ByLayer
370
13
48
1
60
0
100
AcDbEllipse
10
156.711556
20
9.931642
30
0
11
-0.148163665863162
21
-0.0233993187505382
31
0
210
0
220
0
230
1
40
0.009655
41
-3.04959407911497
42
-1.47879775232123
0
ELLIPSE
5
1F1
100
AcDbEntity
8
1
62
256
6
ByLayer
370
13
48
1
60
0
100
AcDbEllipse
10
157.533645
20
10.063697
30
0
11
0.0444855628065016
21
-0.848835104541388
31
0
210
0
220
0
230
1
40
0.995725
41
-1.75405589825428
42
-1.46607657167525
0
ELLIPSE
5
1F2
100
AcDbEntity
8
1
62
256
6
ByLayer
370
13
48
1
60
0
100
AcDbEllipse
10
157.65978
20
15.108349
30
0
11
-0.0291301903380881
21
-0.147144255786173
31
0
210
0
220
0
230
1
40
0.089572
41
1.59345443284451
42
-3.1189345475415
0
ELLIPSE
5
1F3
100
AcDbEntity
8
1
62
256
6
ByLayer
370
13
48
1
60
0
100
AcDbEllipse
10
167.36569
20
5.730178
30
0
11
0.00523359562429516
21
-0.0998629534754736
31
0
210
0
220
0
230
1
40
0.995725
41
-1.75405589825399
42
0.104719755119696
0
ELLIPSE
5
1F4
100
AcDbEntity
8
1
62
256
6
ByLayer
370
13
48
1
60
0
100
AcDbEllipse
10
167.255734
20
10.924438
30
0
11
-0.0287847759336193
21
0.549246244115016
31
0
210
0
220
0
230
1
40
0.995725
41
-1.75405589825431
42
-1.46607657167522
0
ELLIPSE
5
1F5
100
AcDbEntity
8
1
62
256
6
ByLayer
370
13
48
1
60
0
100
AcDbEllipse
10
167.241898
20
10.923713
30
0
11
0.0366351693700602
21
-0.699040674328202
31
0
210
0
220
0
230
1
40
0.995725
41
1.38753675533548
42
1.67551608191455
0
ELLIPSE
5
1F6
100
AcDbEntity
8
1
62
256
6
ByLayer
370
13
48
1
60
0
100
AcDbEllipse
10
157.612737
20
16.727342
30
0
11
-1.35440056059021
21
0.949932038389186
31
0
210
0
220
0
230
1
40
0.736455
41
1.13875822778621
42
1.92747736986742
0
ELLIPSE
5
1F7
100
AcDbEntity
8
1
62
256
6
ByLayer
370
13
48
1
60
0
100
AcDbEllipse
10
168.319839
20
16.226559
30
0
11
0.0366351693700599
21
-0.699040674328197
31
0
210
0
220
0
230
1
40
0.995725
41
1.67551608191439
42
3.06700872441156
0
ELLIPSE
5
1F8
100
AcDbEntity
8
1
62
256
6
ByLayer
370
13
48
1
60
0
100
AcDbEllipse
10
167.940044
20
16.77626
30
0
11
-0.00331394097836111
21
0.149963388182556
31
0
210
0
220
0
230
1
40
0.092329
41
0.00279518564066857
42
1.57359151243404
0
ELLIPSE
5
1F9
100
AcDbEntity
8
1
62
256
6
ByLayer
370
13
48
1
60
0
100
AcDbEllipse
10
157.552094
20
10.064663
30
0
11
0.0366351693700602
21
-0.699040674328202
31
0
210
0
220
0
230
1
40
0.995725
41
-1.75405589825431
42
-1.46607657167524
0
ELLIPSE
5
1FA
100
AcDbEntity
8
1
62
256
6
ByLayer
370
13
48
1
60
0
100
AcDbEllipse
10
155.622132
20
10.038996
30
0
11
-0.0287847759336192
21
0.549246244115015
31
0
210
0
220
0
230
1
40
0.995725
41
1.38753675533537
42
1.67551608191447
0
ELLIPSE
5
1FB
100
AcDbEntity
8
1
62
256
6
ByLayer
370
13
48
1
60
0
100
AcDbEllipse
10
167.98377
20
15.026945
30
0
11
0.0994383168615918
21
-1.89739611603369
31
0
210
0
220
0
230
1
40
0.995725
41
3.11145682764809
42
3.13286600732973
0
ELLIPSE
5
1FC
100
AcDbEntity
8
1
62
256
6
ByLayer
370
13
48
1
60
0
100
AcDbEllipse
10
1965.881161
20
4.7E-05
30
0
11
-3480.64959314082
21
14.0591915410065
31
0
210
0
220
0
230
1
40
0.002523
41
1.02310409695437
42
1.02779077689673
0
ELLIPSE
5
1FD
100
AcDbEntity
8
1
62
256
6
ByLayer
370
13
48
1
60
0
100
AcDbEllipse
10
164.887204
20
5.042044
30
0
11
-0.318392777193637
21
-0.395166526988834
31
0
210
0
220
0
230
1
40
0.966608
41
-2.1573141777942
42
-2.04054285814278
0
ELLIPSE
5
1FE
100
AcDbEntity
8
1
62
256
6
ByLayer
370
13
48
1
60
0
100
AcDbEllipse
10
178.539005
20
2.9E-05
30
0
11
-178.92022431577
21
0.0811643131953768
31
0
210
0
220
0
230
1
40
0.092638
41
-1.44121330560947
42
-1.42985477250636
0
ELLIPSE
5
1FF
100
AcDbEntity
8
1
62
256
6
ByLayer
370
13
48
1
60
0
100
AcDbEllipse
10
155.21712
20
4.535256
30
0
11
-3.96879667018244
21
-0.704906651909801
31
0
210
0
220
0
230
1
40
0.015321
41
-3.01817314087757
42
-2.7481667107788
0
ELLIPSE
5
200
100
AcDbEntity
8
1
62
256
6
ByLayer
370
13
48
1
60
0
100
AcDbEllipse
10
168.569942
20
-10.849834
30
0
11
-0.0633110473008096
21
-0.51583219455564
31
0
210
0
220
0
230
1
40
0.114665
41
-1.65508871416371
42
-0.0842923873614508
0
ELLIPSE
5
201
100
AcDbEntity
8
1
62
256
6
ByLayer
370
13
48
1
60
0
100
AcDbEllipse
10
168.475911
20
5.530532
30
0
11
-0.0204412336118732
21
1.00029546636447
31
0
210
0
220
0
230
1
40
0.104711
41
-3.13824836625896
42
-2.64643689764315
0
ELLIPSE
5
202
100
AcDbEntity
8
1
62
256
6
ByLayer
370
13
48
1
60
0
100
AcDbEllipse
10
161.156972
20
-5.868133
30
0
11
0.575695518672373
21
-10.9849248823003
31
0
210
0
220
0
230
1
40
0.995725
41
-3.14159265358978
42
-2.97089193967392
0
ELLIPSE
5
203
100
AcDbEntity
8
1
62
256
6
ByLayer
370
13
48
1
60
0
100
AcDbEllipse
10
168.737526
20
0
30
0
11
-2.83297169736682
21
16.573317141888
31
0
210
0
220
0
230
1
40
0.08337
41
1.57190072171054
42
1.73359414467856
0
ELLIPSE
5
204
100
AcDbEntity
8
1
62
256
6
ByLayer
370
13
48
1
60
0
100
AcDbEllipse
10
154.453274
20
7.207064
30
0
11
-0.026167978121472
21
0.499314767377286
31
0
210
0
220
0
230
1
40
0.995725
41
-2.1634499345267
42
-1.46607657167526
0
ELLIPSE
5
205
100
AcDbEntity
8
1
62
256
6
ByLayer
370
13
48
1
60
0
100
AcDbEllipse
10
159.02048
20
4.734582
30
0
11
-0.318392676542159
21
-0.395166625698476
31
0
210
0
220
0
230
1
40
0.966608
41
-2.15731445317288
42
-1.31761740183279
0
ELLIPSE
5
206
100
AcDbEntity
8
1
62
256
6
ByLayer
370
13
48
1
60
0
100
AcDbEllipse
10
155.690163
20
13.511979
30
0
11
-8.13988516997293
21
7.00795576885217
31
0
210
0
220
0
230
1
40
0.863077
41
2.55696714693392
42
2.59760729667255
0
ELLIPSE
5
207
100
AcDbEntity
8
1
62
256
6
ByLayer
370
13
48
1
60
0
100
AcDbEllipse
10
368.439694
20
-0.085372
30
0
11
-310.450880273068
21
0.140356298637094
31
0
210
0
220
0
230
1
40
0.073285
41
-0.805636319035828
42
-0.792151350317623
0
ELLIPSE
5
208
100
AcDbEntity
8
1
62
256
6
ByLayer
370
13
48
1
60
0
100
AcDbEllipse
10
173.407091
20
1.723914
30
0
11
-5.9022732711683
21
-1.86942633150784
31
0
210
0
220
0
230
1
40
0.800352
41
-0.369113698163113
42
-0.221561628748541
0
ELLIPSE
5
209
100
AcDbEntity
8
1
62
256
6
ByLayer
370
13
48
1
60
0
100
AcDbEllipse
10
161.083845
20
4.842718
30
0
11
-3.96879667346505
21
-0.704906652504606
31
0
210
0
220
0
230
1
40
0.015321
41
-3.01817314110491
42
-2.74816671094409
0
ELLIPSE
5
20A
100
AcDbEntity
8
1
62
256
6
ByLayer
370
13
48
1
60
0
100
AcDbEllipse
10
165.113971
20
0
30
0
11
-34.8648531148461
21
14.9404413708935
31
0
210
0
220
0
230
1
40
0.194336
41
0.921782152198674
42
1.0780728468038
0
ELLIPSE
5
20B
100
AcDbEntity
8
1
62
256
6
ByLayer
370
13
48
1
60
0
100
AcDbEllipse
10
156.759118
20
5.817716
30
0
11
0.115139103734475
21
-2.19698497646006
31
0
210
0
220
0
230
1
40
0.995725
41
-2.1634499345269
42
-1.07532345372506
0
ELLIPSE
5
20C
100
AcDbEntity
8
1
62
256
6
ByLayer
370
13
48
1
60
0
100
AcDbEllipse
10
178.539034
20
6E-06
30
0
11
-177.085267195385
21
0.080334610957034
31
0
210
0
220
0
230
1
40
0.092638
41
-1.4112486833844
42
-1.38756820171175
0
ELLIPSE
5
20D
100
AcDbEntity
8
1
62
256
6
ByLayer
370
13
48
1
60
0
100
AcDbEllipse
10
158.616962
20
4.815389
30
0
11
0.240875810252392
21
-0.970555945855391
31
0
210
0
220
0
230
1
40
0.090706
41
-1.36102782571427
42
-0.0175282834723948
0
ELLIPSE
5
20E
100
AcDbEntity
8
1
62
256
6
ByLayer
370
13
48
1
60
0
100
AcDbEllipse
10
168.889983
20
-1.790777
30
0
11
-1.90917852502848
21
3.22155177423489
31
0
210
0
220
0
230
1
40
0.339333
41
-0.999623263042571
42
-0.85460359511486
0
ELLIPSE
5
20F
100
AcDbEntity
8
1
62
256
6
ByLayer
370
13
48
1
60
0
100
AcDbEllipse
10
156.043137
20
5.780193
30
0
11
-1.94064156494483
21
1.56360892382048
31
0
210
0
220
0
230
1
40
0.775936
41
3.09899461951671
42
-2.86439260881606
0
ELLIPSE
5
210
100
AcDbEntity
8
1
62
256
6
ByLayer
370
13
48
1
60
0
100
AcDbEllipse
10
153.996666
20
7.183134
30
0
11
0.052335956242943
21
-0.998629534754573
31
0
210
0
220
0
230
1
40
0.995725
41
0.978142719063096
42
1.67551608191453
0
ELLIPSE
5
211
100
AcDbEntity
8
1
62
256
6
ByLayer
370
13
48
1
60
0
100
AcDbEllipse
10
168.936553
20
4.238463
30
0
11
-0.0102206168099698
21
0.500147733269181
31
0
210
0
220
0
230
1
40
0.104711
41
1.9232064645232
42
-2.78918251585987
0
ELLIPSE
5
212
100
AcDbEntity
8
1
62
256
6
ByLayer
370
13
48
1
60
0
100
AcDbEllipse
10
156.371057
20
13.547663
30
0
11
-0.471023606186497
21
8.98766581279117
31
0
210
0
220
0
230
1
40
0.995725
41
2.79252680319579
42
2.92290545858141
0
ELLIPSE
5
213
100
AcDbEntity
8
1
62
256
6
ByLayer
370
13
48
1
60
0
100
AcDbEllipse
10
156.741842
20
9.950933
30
0
11
0.115139103734475
21
-2.19698497646006
31
0
210
0
220
0
230
1
40
0.995725
41
-2.11476638941933
42
-1.46607657167526
0
ELLIPSE
5
214
100
AcDbEntity
8
1
62
256
6
ByLayer
370
13
48
1
60
0
100
AcDbEllipse
10
163.162889
20
-5.285445
30
0
11
-6.03300408982254
21
-0.0230866320607256
31
0
210
0
220
0
230
1
40
0.987552
41
3.0076211525107
42
-2.98914081033824
0
ELLIPSE
5
215
100
AcDbEntity
8
1
62
256
6
ByLayer
370
13
48
1
60
0
100
AcDbEllipse
10
159.226957
20
4.745403
30
0
11
-0.0261679781214721
21
0.499314767377288
31
0
210
0
220
0
230
1
40
0.995725
41
0.927295218001724
42
1.11024233511362
0
ELLIPSE
5
216
100
AcDbEntity
8
1
62
256
6
ByLayer
370
13
48
1
60
0
100
AcDbEllipse
10
174.444582
20
0.566217
30
0
11
-6.03300414460072
21
-0.0230868553866989
31
0
210
0
220
0
230
1
40
0.987552
41
0.0323709285045162
42
0.152451806025916
0
ELLIPSE
5
217
100
AcDbEntity
8
1
62
256
6
ByLayer
370
13
48
1
60
0
100
AcDbEllipse
10
147.5
20
4.949778
30
0
11
-2
21
2.02127811016473E-15
31
0
210
0
220
0
230
1
40
0.757154
41
-3.12875065589899
42
-1.70405997854597
0
ELLIPSE
5
218
100
AcDbEntity
8
1
62
256
6
ByLayer
370
13
48
1
60
0
100
AcDbEllipse
10
156.759118
20
5.817716
30
0
11
0.115139103734475
21
-2.19698497646006
31
0
210
0
220
0
230
1
40
0.995725
41
1.06813311206809
42
1.11024233511357
0
ELLIPSE
5
219
100
AcDbEntity
8
1
62
256
6
ByLayer
370
13
48
1
60
0
100
AcDbEllipse
10
168.612303
20
6.839464
30
0
11
-0.0699800549734603
21
2.19922139953497
31
0
210
0
220
0
230
1
40
0.529125
41
3.02261729067814
42
-3.13071789901177
0
ELLIPSE
5
21A
100
AcDbEntity
8
1
62
256
6
ByLayer
370
13
48
1
60
0
100
AcDbEllipse
10
168.801281
20
0.00627
30
0
11
-0.0113508176957694
21
0.505676495347073
31
0
210
0
220
0
230
1
40
0.101971
41
-0.133125221620731
42
0.250570631501484
0
ELLIPSE
5
21B
100
AcDbEntity
8
1
62
256
6
ByLayer
370
13
48
1
60
0
100
AcDbEllipse
10
147.5
20
4.171869
30
0
11
-0.296037181754443
21
8.47652848722216
31
0
210
0
220
0
230
1
40
0.352191
41
-0.538545612086494
42
-0.42036916868332
0
ELLIPSE
5
21C
100
AcDbEntity
8
1
62
256
6
ByLayer
370
13
48
1
60
0
100
AcDbEllipse
10
156.592929
20
5.809006
30
0
11
-1.4009277807257
21
-1.73873315120016
31
0
210
0
220
0
230
1
40
0.966608
41
1.61034581936761
42
1.82397525361007
0
ELLIPSE
5
21D
100
AcDbEntity
8
1
62
256
6
ByLayer
370
13
48
1
60
0
100
AcDbEllipse
10
168.905426
20
-0.002344
30
0
11
-0.0227016353783813
21
1.01135299018051
31
0
210
0
220
0
230
1
40
0.101971
41
-0.133125221654118
42
1.05111337682183
0
ELLIPSE
5
21E
100
AcDbEntity
8
1
62
256
6
ByLayer
370
13
48
1
60
0
100
AcDbEllipse
10
170.381237
20
0
30
0
11
-1.98914741284889
21
-16.5733344299428
31
0
210
0
220
0
230
1
40
0.118126
41
-1.26954407983998
42
-0.0976519697246531
0
ELLIPSE
5
21F
100
AcDbEntity
8
1
62
256
6
ByLayer
370
13
48
1
60
0
100
AcDbEllipse
10
163.359289
20
-5.752715
30
0
11
-8.13988529384996
21
7.00795515834992
31
0
210
0
220
0
230
1
40
0.863077
41
-0.734097034586852
42
-0.543985407725178
0
ELLIPSE
5
220
100
AcDbEntity
8
1
62
256
6
ByLayer
370
13
48
1
60
0
100
AcDbEllipse
10
158.180982
20
4.487768
30
0
11
0.999824179054042
21
0.0187512926976706
31
0
210
0
220
0
230
1
40
0.340558
41
1.66919827215444
42
1.68893406295642
0
ELLIPSE
5
221
100
AcDbEntity
8
1
62
256
6
ByLayer
370
13
48
1
60
0
100
AcDbEllipse
10
161.249216
20
-5.863299
30
0
11
-0.523359562429441
21
9.98629534754575
31
0
210
0
220
0
230
1
40
0.995725
41
0
42
0.190111626873128
0
ELLIPSE
5
222
100
AcDbEntity
8
1
62
256
6
ByLayer
370
13
48
1
60
0
100
AcDbEllipse
10
168.092843
20
-10.609154
30
0
11
-0.233698104116009
21
-1.98864451079294
31
0
210
0
220
0
230
1
40
0.119115
41
0
42
6.28318530717959
0
ELLIPSE
5
223
100
AcDbEntity
8
1
62
256
6
ByLayer
370
13
48
1
60
0
100
AcDbEllipse
10
160.67352
20
5.121626
30
0
11
0.0523359562429431
21
-0.998629534754574
31
0
210
0
220
0
230
1
40
0.092371
41
-1.57079632679492
42
0
0
ELLIPSE
5
224
100
AcDbEntity
8
1
62
256
6
ByLayer
370
13
48
1
60
0
100
AcDbEllipse
10
163.826247
20
7.489872
30
0
11
-1.40092777688019
21
-1.73873315294765
31
0
210
0
220
0
230
1
40
0.966608
41
0.713732916722464
42
1.10104951760963
0
ELLIPSE
5
225
100
AcDbEntity
8
1
62
256
6
ByLayer
370
13
48
1
60
0
100
AcDbEllipse
10
168.720711
20
5.339689
30
0
11
-0.0435800209888241
21
-0.258371691307628
31
0
210
0
220
0
230
1
40
0.950251
41
0.309510901406506
42
1.2777626379764
0
ELLIPSE
5
226
100
AcDbEntity
8
1
62
256
6
ByLayer
370
13
48
1
60
0
100
AcDbEllipse
10
168.073212
20
11.056252
30
0
11
0.148163665863163
21
0.0233993187505335
31
0
210
0
220
0
230
1
40
0.009655
41
1.66279490126857
42
2.86108759533226
0
ELLIPSE
5
227
100
AcDbEntity
8
1
62
256
6
ByLayer
370
13
48
1
60
0
100
AcDbEllipse
10
168.076445
20
10.812337
30
0
11
0.148731686424787
21
-0.0194649801756591
31
0
210
0
220
0
230
1
40
0.016833
41
-2.86301658541922
42
-1.6617584171057
0
ELLIPSE
5
228
100
AcDbEntity
8
1
62
256
6
ByLayer
370
13
48
1
60
0
100
AcDbEllipse
10
167.419128
20
5.789781
30
0
11
-0.157381426407953
21
-0.0466723701630157
31
0
210
0
220
0
230
1
40
0.019797
41
-1.48863729001224
42
0.0821590367453457
0
ELLIPSE
5
229
100
AcDbEntity
8
1
62
256
6
ByLayer
370
13
48
1
60
0
100
AcDbEllipse
10
166.44424
20
4.22241
30
0
11
-1.09994055601087
21
-1.17548008837897
31
0
210
0
220
0
230
1
40
0.728398
41
2.64204419163807
42
-2.95274918125068
0
ELLIPSE
5
22A
100
AcDbEntity
8
1
62
256
6
ByLayer
370
13
48
1
60
0
100
AcDbEllipse
10
166.388425
20
4.219484
30
0
11
0.0732703387401206
21
-1.39808134865641
31
0
210
0
220
0
230
1
40
0.995725
41
2.10922258806162
42
2.76708731380229
0
ELLIPSE
5
22B
100
AcDbEntity
8
1
62
256
6
ByLayer
370
13
48
1
60
0
100
AcDbEllipse
10
167.782791
20
11.00963
30
0
11
0.148163665863163
21
0.0233993187505335
31
0
210
0
220
0
230
1
40
0.009655
41
-1.47879775232104
42
-0.000215754751796641
0
ELLIPSE
5
22C
100
AcDbEntity
8
1
62
256
6
ByLayer
370
13
48
1
60
0
100
AcDbEllipse
10
167.031442
20
15.767146
30
0
11
-0.148163665863162
21
-0.0233993187505382
31
0
210
0
220
0
230
1
40
0.009655
41
1.66279490126838
42
3.14137689880488
0
ELLIPSE
5
22D
100
AcDbEntity
8
1
62
256
6
ByLayer
370
13
48
1
60
0
100
AcDbEllipse
10
167.784884
20
10.851803
30
0
11
0.148731686424787
21
-0.0194649801756591
31
0
210
0
220
0
230
1
40
0.016833
41
5.34640121230725E-05
42
1.47983423648428
0
ELLIPSE
5
22E
100
AcDbEntity
8
1
62
256
6
ByLayer
370
13
48
1
60
0
100
AcDbEllipse
10
167.134212
20
5.880027
30
0
11
-0.148731686424787
21
0.0194649801756605
31
0
210
0
220
0
230
1
40
0.016833
41
-3.14153918952104
42
-1.66175841710453
0
ELLIPSE
5
22F
100
AcDbEntity
8
1
62
256
6
ByLayer
370
13
48
1
60
0
100
AcDbEllipse
10
162.362431
20
10.492377
30
0
11
0.139331774436747
21
-2.65860863297132
31
0
210
0
220
0
230
1
40
0.995725
41
-0.853733347690236
42
0
0
ELLIPSE
5
230
100
AcDbEntity
8
1
62
256
6
ByLayer
370
13
48
1
60
0
100
AcDbEllipse
10
162.362431
20
10.492377
30
0
11
0.139331774436747
21
-2.65860863297132
31
0
210
0
220
0
230
1
40
0.995725
41
0
42
-2.28787036705996
0
ELLIPSE
5
231
100
AcDbEntity
8
1
62
256
6
ByLayer
370
13
48
1
60
0
100
AcDbEllipse
10
157.423689
20
15.257957
30
0
11
0.00523359562429516
21
-0.0998629534754736
31
0
210
0
220
0
230
1
40
0.995725
41
1.3875367553358
42
3.11837220864421
0
ELLIPSE
5
232
100
AcDbEntity
8
1
62
256
6
ByLayer
370
13
48
1
60
0
100
AcDbEllipse
10
157.025342
20
4.219111
30
0
11
0.00653729335064122
21
-0.149857478277354
31
0
210
0
220
0
230
1
40
0.092367
41
-1.56998679074977
42
-0.0232440763761651
0
ELLIPSE
5
233
100
AcDbEntity
8
1
62
256
6
ByLayer
370
13
48
1
60
0
100
AcDbEllipse
10
157.023159
20
4.269064
30
0
11
0.0104671912485887
21
-0.199725906950916
31
0
210
0
220
0
230
1
40
0.995725
41
0.0113951578215181
42
1.24776550800922
0
ELLIPSE
5
234
100
AcDbEntity
8
1
62
256
6
ByLayer
370
13
48
1
60
0
100
AcDbEllipse
10
156.844724
20
4.211634
30
0
11
0.00331394097836056
21
-0.149963388182556
31
0
210
0
220
0
230
1
40
0.092329
41
-1.56800114115575
42
-0.0435131345148173
0
ELLIPSE
5
235
100
AcDbEntity
8
1
62
256
6
ByLayer
370
13
48
1
60
0
100
AcDbEllipse
10
155.724551
20
14.937438
30
0
11
0.0235312926467696
21
-0.14814276312521
31
0
210
0
220
0
230
1
40
0.091865
41
-3.05123893758123
42
-1.5804928352455
0
ELLIPSE
5
236
100
AcDbEntity
8
1
62
256
6
ByLayer
370
13
48
1
60
0
100
AcDbEllipse
10
156.457493
20
4.211721
30
0
11
-0.00338117794798652
21
-0.149961887277015
31
0
210
0
220
0
230
1
40
0.092114
41
-1.56388390792972
42
-0.070486070950249
0
ELLIPSE
5
237
100
AcDbEntity
8
1
62
256
6
ByLayer
370
13
48
1
60
0
100
AcDbEllipse
10
155.648959
20
15.62645
30
0
11
-0.0435800209914906
21
-0.25837169130674
31
0
210
0
220
0
230
1
40
0.950251
41
-2.83208175217307
42
-1.94230769999056
0
ELLIPSE
5
238
100
AcDbEntity
8
1
62
256
6
ByLayer
370
13
48
1
60
0
100
AcDbEllipse
10
155.724551
20
14.937438
30
0
11
-0.148731686424787
21
0.0194649801756605
31
0
210
0
220
0
230
1
40
0.016833
41
-0.0909620903112785
42
1.47983423648334
0
ELLIPSE
5
239
100
AcDbEntity
8
1
62
256
6
ByLayer
370
13
48
1
60
0
100
AcDbEllipse
10
155.928647
20
4.675659
30
0
11
-0.148163665863162
21
-0.0233993187505382
31
0
210
0
220
0
230
1
40
0.009655
41
-1.4787977523211
42
0.0919985744705118
0
ELLIPSE
5
23A
100
AcDbEntity
8
1
62
256
6
ByLayer
370
13
48
1
60
0
100
AcDbEllipse
10
155.092983
20
10.111631
30
0
11
-0.148731686424787
21
0.0194649801756605
31
0
210
0
220
0
230
1
40
0.016833
41
-0.0909620903091594
42
1.47983423648428
0
ELLIPSE
5
23B
100
AcDbEntity
8
1
62
256
6
ByLayer
370
13
48
1
60
0
100
AcDbEllipse
10
155.095075
20
9.953804
30
0
11
-0.148163665863162
21
-0.0233993187505382
31
0
210
0
220
0
230
1
40
0.009655
41
-1.47879775232085
42
-0.264819008248768
0
ELLIPSE
5
23C
100
AcDbEntity
8
1
62
256
6
ByLayer
370
13
48
1
60
0
100
AcDbEllipse
10
167.031442
20
15.767146
30
0
11
0.00785039343644145
21
-0.149794430213186
31
0
210
0
220
0
230
1
40
0.995725
41
-3.14159196048048
42
-2.6247692123051
0
ELLIPSE
5
23D
100
AcDbEntity
8
1
62
256
6
ByLayer
370
13
48
1
60
0
100
AcDbEllipse
10
167.134212
20
5.880027
30
0
11
0.00785039343644145
21
-0.149794430213186
31
0
210
0
220
0
230
1
40
0.995725
41
-0.246786176442338
42
2.11287832042798E-05
0
ELLIPSE
5
23E
100
AcDbEntity
8
1
62
256
6
ByLayer
370
13
48
1
60
0
100
AcDbEllipse
10
157.76255
20
5.221231
30
0
11
0.00785039343644145
21
-0.149794430213186
31
0
210
0
220
0
230
1
40
0.995725
41
-1.46607657167513
42
-2.19467190791232E-06
0
ELLIPSE
5
23F
100
AcDbEntity
8
1
62
256
6
ByLayer
370
13
48
1
60
0
100
AcDbEllipse
10
157.65978
20
15.108349
30
0
11
0.00785039343644145
21
-0.149794430213186
31
0
210
0
220
0
230
1
40
0.995725
41
-3.14156978910928
42
-1.75405589825431
0
ELLIPSE
5
240
100
AcDbEntity
8
1
62
256
6
ByLayer
370
13
48
1
60
0
100
AcDbEllipse
10
157.76255
20
5.221231
30
0
11
0.0810743178596398
21
-0.126202040330551
31
0
210
0
220
0
230
1
40
0.080306
41
2.25336897180643E-05
42
1.52499017530706
0
ELLIPSE
5
241
100
AcDbEntity
8
1
62
256
6
ByLayer
370
18
48
1
60
0
100
AcDbEllipse
10
162.281014
20
10.48811
30
0
11
0.0562297513874178
21
-1.07292757214031
31
0
210
0
220
0
230
1
40
0.995725
41
3.14159265358979
42
-2.35220199832176
0
ELLIPSE
5
242
100
AcDbEntity
8
1
62
256
6
ByLayer
370
18
48
1
60
0
100
AcDbEllipse
10
162.281014
20
10.48811
30
0
11
0.0562297513874178
21
-1.07292757214031
31
0
210
0
220
0
230
1
40
0.995725
41
-0.771932135407412
42
0
0
ELLIPSE
5
243
100
AcDbEntity
8
1
62
256
6
ByLayer
370
18
48
1
60
0
100
AcDbEllipse
10
162.281014
20
10.48811
30
0
11
-0.0562297513874191
21
1.07292757214031
31
0
210
0
220
0
230
1
40
0.995725
41
-3.03423855710069
42
-2.09439510239321
0
ELLIPSE
5
244
100
AcDbEntity
8
1
62
256
6
ByLayer
370
18
48
1
60
0
100
AcDbEllipse
10
162.281014
20
10.48811
30
0
11
0.0562297513874178
21
-1.07292757214031
31
0
210
0
220
0
230
1
40
0.995725
41
-1.89465892456944
42
-1.23067011332414
0
ELLIPSE
5
245
100
AcDbEntity
8
1
62
256
6
ByLayer
370
18
48
1
60
0
100
AcDbEllipse
10
163.516108
20
10.552839
30
0
11
-0.0172603983689335
21
0.329348020562063
31
0
210
0
220
0
230
1
40
0.506014
41
-2.93072041300222
42
-0.438969405994223
0
ELLIPSE
5
246
100
AcDbEntity
8
1
62
256
6
ByLayer
370
18
48
1
60
0
100
AcDbEllipse
10
162.954858
20
9.446258
30
0
11
-0.275141261392254
21
-0.179916130671718
31
0
210
0
220
0
230
1
40
0.509271
41
0.674876380105764
42
-2.93332695348111
0
ELLIPSE
5
247
100
AcDbEntity
8
1
62
256
6
ByLayer
370
18
48
1
60
0
100
AcDbEllipse
10
162.842264
20
11.59469
30
0
11
-0.292440365430025
21
0.150170438048099
31
0
210
0
220
0
230
1
40
0.509271
41
2.93332695348082
42
-0.622097124196459
0
ELLIPSE
5
248
100
AcDbEntity
8
1
62
256
6
ByLayer
370
18
48
1
60
0
100
AcDbEllipse
10
161.719764
20
9.38153
30
0
11
-0.292440365430031
21
0.150170438048094
31
0
210
0
220
0
230
1
40
0.509271
41
2.51949454501536
42
-2.92822425255374
0
ELLIPSE
5
249
100
AcDbEntity
8
1
62
256
6
ByLayer
370
18
48
1
60
0
100
AcDbEllipse
10
161.607169
20
11.529962
30
0
11
-0.275141261392241
21
-0.179916130671716
31
0
210
0
220
0
230
1
40
0.509271
41
2.9282242525539
42
-2.46671532346121
0
ELLIPSE
5
24A
100
AcDbEntity
8
1
62
256
6
ByLayer
370
18
48
1
60
0
100
AcDbEllipse
10
162.322523
20
10.490285
30
0
11
-0.125606294983066
21
2.39671088341098
31
0
210
0
220
0
230
1
40
0.995725
41
9.24722979011893E-05
42
3.14158700123306
0
ELLIPSE
5
24B
100
AcDbEntity
8
1
62
256
6
ByLayer
370
18
48
1
60
0
100
AcDbEllipse
10
163.265781
20
-5.232219
30
0
11
-2.00000000000001
21
2.02127811016474E-15
31
0
210
0
220
0
230
1
40
0.992991
41
-0.544477215302414
42
-0.404283655771116
0
ELLIPSE
5
24C
100
AcDbEntity
8
1
62
256
6
ByLayer
370
18
48
1
60
0
100
AcDbEllipse
10
163.265781
20
-4.522217
30
0
11
-1.35
21
1.36436272436119E-15
31
0
210
0
220
0
230
1
40
0.992991
41
-3.1415922994415
42
0
0
ELLIPSE
5
24D
100
AcDbEntity
8
1
62
256
6
ByLayer
370
18
48
1
60
0
100
AcDbEllipse
10
163.265781
20
-4.522217
30
0
11
-1.35
21
1.36436272436119E-15
31
0
210
0
220
0
230
1
40
0.992991
41
0
42
0.595626096137522
0
ELLIPSE
5
24E
100
AcDbEntity
8
1
62
256
6
ByLayer
370
18
48
1
60
0
100
AcDbEllipse
10
163.265781
20
-4.522217
30
0
11
-1.35
21
1.36436272436119E-15
31
0
210
0
220
0
230
1
40
0.992991
41
3.06727456783236
42
-3.1415922994415
0
ELLIPSE
5
24F
100
AcDbEntity
8
1
62
256
6
ByLayer
370
18
48
1
60
0
100
AcDbEllipse
10
163.265781
20
-4.569492
30
0
11
1.75
21
0
31
0
210
0
220
0
230
1
40
0.992991
41
0.403105421492007
42
3.14159245358963
0
ELLIPSE
5
250
100
AcDbEntity
8
1
62
256
6
ByLayer
370
13
48
1
60
0
100
AcDbEllipse
10
158.067586
20
5.294806
30
0
11
0.0261679781214715
21
-0.499314767377287
31
0
210
0
220
0
230
1
40
0.092371
41
-1.10449593319132
42
-0.349065850397296
0
ELLIPSE
5
251
100
AcDbEntity
8
1
62
256
6
ByLayer
370
13
48
1
60
0
100
AcDbEllipse
10
155.02623
20
7.341763
30
0
11
0.493878886210542
21
0.077997729168445
31
0
210
0
220
0
230
1
40
0.009655
41
1.66279490126863
42
1.74990113868087
0
ELLIPSE
5
252
100
AcDbEntity
8
1
62
256
6
ByLayer
370
13
48
1
60
0
100
AcDbEllipse
10
156.30251
20
5.793786
30
0
11
-0.0889711256130048
21
1.69767020908278
31
0
210
0
220
0
230
1
40
0.995725
41
0.978142719062832
42
2.78013392635894
0
ELLIPSE
5
253
100
AcDbEntity
8
1
62
256
6
ByLayer
370
13
48
1
60
0
100
AcDbEllipse
10
156.30251
20
5.793786
30
0
11
-0.0889711256130048
21
1.69767020908278
31
0
210
0
220
0
230
1
40
0.995725
41
-2.41025799285398
42
-2.22913047554157
0
ELLIPSE
5
254
100
AcDbEntity
8
1
62
256
6
ByLayer
370
13
48
1
60
0
100
AcDbEllipse
10
154.896804
20
6.670978
30
0
11
0.429288093870937
21
-0.256342997682124
31
0
210
0
220
0
230
1
40
0.051595
41
-1.85925558562597
42
-1.64759180831567
0
ELLIPSE
5
255
100
AcDbEntity
8
1
62
256
6
ByLayer
370
13
48
1
60
0
100
AcDbEllipse
10
155.586792
20
13.169723
30
0
11
-0.143594274776506
21
2.73994198458101
31
0
210
0
220
0
230
1
40
0.016833
41
0.320049800270447
42
0.860095363358582
0
ELLIPSE
5
256
100
AcDbEntity
8
1
62
256
6
ByLayer
370
13
48
1
60
0
100
AcDbEllipse
10
156.096699
20
0
30
0
11
-0.876188607851174
21
16.5748012330967
31
0
210
0
220
0
230
1
40
0.092638
41
-0.129583140900328
42
-0.00489731751958048
0
ELLIPSE
5
257
100
AcDbEntity
8
1
62
256
6
ByLayer
370
13
48
1
60
0
100
AcDbEllipse
10
124.877018
20
0
30
0
11
-178.920384165057
21
0.0811682487861231
31
0
210
0
220
0
230
1
40
0.092638
41
-1.80657073051871
42
-1.74722067937821
0
ELLIPSE
5
258
100
AcDbEntity
8
1
62
256
6
ByLayer
370
13
48
1
60
0
100
AcDbEllipse
10
156.348632
20
5.796203
30
0
11
0.115139103734475
21
-2.19698497646006
31
0
210
0
220
0
230
1
40
0.995725
41
0.0487088772621524
42
0.990932961428714
0
ELLIPSE
5
259
100
AcDbEntity
8
1
62
256
6
ByLayer
370
13
48
1
60
0
100
AcDbEllipse
10
153.845097
20
4.946443
30
0
11
-0.29369042064903
21
-0.95590058940195
31
0
210
0
220
0
230
1
40
0.0868
41
-1.53907871771949
42
-1.39194541407068E-05
0
ELLIPSE
5
25A
100
AcDbEntity
8
1
62
256
6
ByLayer
370
13
48
1
60
0
100
AcDbEllipse
10
156.4633
20
13.552497
30
0
11
0.523359562429431
21
-9.98629534754574
31
0
210
0
220
0
230
1
40
0.995725
41
-7.44766574424804E-06
42
0.190111626873139
0
ELLIPSE
5
25B
100
AcDbEntity
8
1
62
256
6
ByLayer
370
13
48
1
60
0
100
AcDbEllipse
10
163.064043
20
-4.993995
30
0
11
1.75
21
0
31
0
210
0
220
0
230
1
40
0.992991
41
2.56511026628624
42
2.81692863613506
0
ELLIPSE
5
25C
100
AcDbEntity
8
1
62
256
6
ByLayer
370
13
48
1
60
0
100
AcDbEllipse
10
163.064043
20
-4.320322
30
0
11
1.75
21
0
31
0
210
0
220
0
230
1
40
0.992991
41
0.0589051206853697
42
3.04577437161131
0
ELLIPSE
5
25D
100
AcDbEntity
8
1
62
256
6
ByLayer
370
13
48
1
60
0
100
AcDbEllipse
10
163.064043
20
-4.320322
30
0
11
-1.85
21
1.86968225190237E-15
31
0
210
0
220
0
230
1
40
0.992991
41
-2.94259247606153
42
-0.190753773067975
0
POINT
5
70
100
AcDbEntity
8
1
62
256
6
ByLayer
370
18
48
1
60
0
100
AcDbPoint
10
0
20
0
30
0
39
0
210
0
220
0
230
1
50
360
0
POINT
5
72
100
AcDbEntity
8
80
62
256
6
ByLayer
370
18
48
1
60
0
100
AcDbPoint
10
0
20
0
30
0
39
0
210
0
220
0
230
1
50
360
0
POINT
5
74
100
AcDbEntity
8
81
62
256
6
ByLayer
370
18
48
1
60
0
100
AcDbPoint
10
170
20
0
30
0
39
0
210
0
220
0
230
1
50
360
0
POINT
5
76
100
AcDbEntity
8
1
62
256
6
ByLayer
370
18
48
1
60
1
100
AcDbPoint
10
0
20
-24.75
30
0
39
0
210
0
220
0
230
1
50
360
0
POINT
5
77
100
AcDbEntity
8
1
62
256
6
ByLayer
370
18
48
1
60
1
100
AcDbPoint
10
170
20
-17
30
0
39
0
210
0
220
0
230
1
50
360
0
POINT
5
78
100
AcDbEntity
8
1
62
256
6
ByLayer
370
18
48
1
60
1
100
AcDbPoint
10
-70
20
-20
30
0
39
0
210
0
220
0
230
1
50
360
0
POINT
5
79
100
AcDbEntity
8
1
62
256
6
ByLayer
370
18
48
1
60
1
100
AcDbPoint
10
0
20
-24.75
30
0
39
0
210
0
220
0
230
1
50
360
0
POINT
5
7A
100
AcDbEntity
8
1
62
256
6
ByLayer
370
18
48
1
60
1
100
AcDbPoint
10
170
20
-17
30
0
39
0
210
0
220
0
230
1
50
360
0
POINT
5
7B
100
AcDbEntity
8
1
62
256
6
ByLayer
370
18
48
1
60
1
100
AcDbPoint
10
5.6431
20
-24.75
30
0
39
0
210
0
220
0
230
1
50
360
0
POINT
5
7C
100
AcDbEntity
8
1
62
256
6
ByLayer
370
18
48
1
60
1
100
AcDbPoint
10
30
20
-17
30
0
39
0
210
0
220
0
230
1
50
360
0
POINT
5
7D
100
AcDbEntity
8
1
62
256
6
ByLayer
370
18
48
1
60
1
100
AcDbPoint
10
170
20
-17
30
0
39
0
210
0
220
0
230
1
50
360
0
POINT
5
7E
100
AcDbEntity
8
1
62
256
6
ByLayer
370
18
48
1
60
1
100
AcDbPoint
10
168.9982
20
-8.5
30
0
39
0
210
0
220
0
230
1
50
360
0
SPLINE
5
25E
100
AcDbEntity
8
SK1
62
256
6
ByLayer
370
13
48
1
60
0
100
AcDbSpline
70
4
71
3
72
8
73
4
40
0
40
0
40
0
40
0
40
1
40
1
40
1
40
1
41
1
10
-68.5162221138915
20
-8.8730422260673
30
0
41
1
10
-68.5438911763826
20
-8.94964473727831
30
0
41
1
10
-68.5718187810779
20
-9.02616843489534
30
0
41
1
10
-68.5999993841625
20
-9.10261500888609
30
0
0
SPLINE
5
25F
100
AcDbEntity
8
SK1
62
256
6
ByLayer
370
13
48
1
60
0
100
AcDbSpline
70
4
71
3
72
22
73
18
40
0
40
0
40
0
40
0
40
0.249999999999984
40
0.249999999999984
40
0.499999999999968
40
0.499999999999968
40
0.624999999999959
40
0.624999999999959
40
0.749999999999951
40
0.749999999999951
40
0.812499999999963
40
0.812499999999963
40
0.874999999999976
40
0.874999999999976
40
0.937499999999988
40
0.937499999999988
40
1
40
1
40
1
40
1
41
1
10
-68.5162221139001
20
8.8730422260912
30
0
41
1
10
-68.4806148031928
20
8.77446247050247
30
0
41
1
10
-68.439030376807
20
8.67849216034347
30
0
41
1
10
-68.3371998535552
20
8.49469871558048
30
0
41
1
10
-68.2767685878681
20
8.40593562609388
30
0
41
1
10
-68.1637425351441
20
8.2951603566016
30
0
41
1
10
-68.1227917757747
20
8.26245866462776
30
0
41
1
10
-68.0301397358031
20
8.2109172856386
30
0
41
1
10
-67.979238160389
20
8.19317027456333
30
0
41
1
10
-67.8997825758302
20
8.18561435729944
30
0
41
1
10
-67.8728381623004
20
8.18629209054791
30
0
41
1
10
-67.8203470589832
20
8.19382805997071
30
0
41
1
10
-67.7948393210407
20
8.20058148467908
30
0
41
1
10
-67.7451106763606
20
8.21929528168133
30
0
41
1
10
-67.7210452240317
20
8.23125325856924
30
0
41
1
10
-67.6758001698851
20
8.25847389471045
30
0
41
1
10
-67.6543432159221
20
8.27384033348378
30
0
41
1
10
-67.6338131992796
20
8.29060335030459
30
0
0
SPLINE
5
260
100
AcDbEntity
8
1
62
256
6
ByLayer
370
18
48
1
60
0
100
AcDbSpline
70
4
71
3
72
8
73
4
40
0
40
0
40
0
40
0
40
1
40
1
40
1
40
1
41
1
10
161.565445832107
20
9.56532750204875
30
0
41
1
10
161.567824685692
20
9.57139874552996
30
0
41
1
10
161.570204240279
20
9.57747111224722
30
0
41
1
10
161.572584528921
20
9.58354465435627
30
0
0
SPLINE
5
261
100
AcDbEntity
8
1
62
256
6
ByLayer
370
18
48
1
60
0
100
AcDbSpline
70
4
71
3
72
16
73
12
40
0
40
0
40
0
40
0
40
0.125
40
0.125
40
0.25
40
0.25
40
0.5
40
0.5
40
0.75
40
0.75
40
1
40
1
40
1
40
1
41
1
10
162.137757198728
20
9.27238017482884
30
0
41
1
10
162.137437328475
20
9.25591909181819
30
0
41
1
10
162.132996722864
20
9.24008474580535
30
0
41
1
10
162.114999410956
20
9.21296739962665
30
0
41
1
10
162.101725099023
20
9.20219443470714
30
0
41
1
10
162.056373503825
20
9.17923722085979
30
0
41
1
10
162.018981052456
20
9.17516888284078
30
0
41
1
10
161.945543983384
20
9.17843862517518
30
0
41
1
10
161.908665764799
20
9.18576820344879
30
0
41
1
10
161.837041127478
20
9.20727156485421
30
0
41
1
10
161.802139299334
20
9.22155493834876
30
0
41
1
10
161.768561870303
20
9.23874211767699
30
0
0
SPLINE
5
262
100
AcDbEntity
8
1
62
256
6
ByLayer
370
18
48
1
60
0
100
AcDbSpline
70
4
71
3
72
18
73
14
40
0
40
0
40
0
40
0
40
0.125
40
0.125
40
0.25
40
0.25
40
0.5
40
0.5
40
0.75
40
0.75
40
0.875
40
0.875
40
1
40
1
40
1
40
1
41
1
10
162.022130896236
20
11.6659190730625
30
0
41
1
10
162.036270897874
20
11.6443323043341
30
0
41
1
10
162.057035614827
20
11.6276531718336
30
0
41
1
10
162.103888842225
20
11.600827017751
30
0
41
1
10
162.130022667882
20
11.5908170927768
30
0
41
1
10
162.211947408537
20
11.5684504896645
30
0
41
1
10
162.271612538979
20
11.5634810970862
30
0
41
1
10
162.391527719007
20
11.5697869230095
30
0
41
1
10
162.4515671554
20
11.5809983696012
30
0
41
1
10
162.53502420198
20
11.6120897441504
30
0
41
1
10
162.561740339117
20
11.6249054725445
30
0
41
1
10
162.609559976314
20
11.6566470905414
30
0
41
1
10
162.630809640338
20
11.6754712863874
30
0
41
1
10
162.645315634403
20
11.6985788012729
30
0
0
SPLINE
5
263
100
AcDbEntity
8
1
62
256
6
ByLayer
370
18
48
1
60
0
100
AcDbSpline
70
4
71
3
72
16
73
12
40
0
40
0
40
0
40
0
40
0.250000000000033
40
0.250000000000033
40
0.500000000000066
40
0.500000000000066
40
0.750000000000099
40
0.750000000000099
40
0.87500000000005
40
0.87500000000005
40
1
40
1
40
1
40
1
41
1
10
161.003793539303
20
10.421173728913
30
0
41
1
10
161.001812598927
20
10.4589723229948
30
0
41
1
10
161.002963676329
20
10.4969465793658
30
0
41
1
10
161.012346705512
20
10.5718888975871
30
0
41
1
10
161.020519976257
20
10.6089163681679
30
0
41
1
10
161.046832965692
20
10.6784040493393
30
0
41
1
10
161.065071754901
20
10.7114517845307
30
0
41
1
10
161.103910813756
20
10.7455729130821
30
0
41
1
10
161.118775759771
20
10.7538757235562
30
0
41
1
10
161.149556924767
20
10.7605963879261
30
0
41
1
10
161.165287507758
20
10.7590045946694
30
0
41
1
10
161.179905250713
20
10.7533442476167
30
0
0
SPLINE
5
264
100
AcDbEntity
8
1
62
256
6
ByLayer
370
18
48
1
60
0
100
AcDbSpline
70
4
71
3
72
8
73
4
40
0
40
0
40
0
40
0
40
1
40
1
40
1
40
1
41
1
10
163.58034660126
20
10.8791460480981
30
0
41
1
10
163.573363001565
20
10.8791124923036
30
0
41
1
10
163.566378392258
20
10.8790789443377
30
0
41
1
10
163.559392727005
20
10.8790454045908
30
0
0
SPLINE
5
265
100
AcDbEntity
8
1
62
256
6
ByLayer
370
18
48
1
60
0
100
AcDbSpline
70
4
71
3
72
16
73
12
40
0
40
0
40
0
40
0
40
0.125
40
0.125
40
0.25
40
0.25
40
0.5
40
0.5
40
0.75
40
0.75
40
1
40
1
40
1
40
1
41
1
10
161.472908751193
20
11.3310401916555
30
0
41
1
10
161.460143372283
20
11.3403833647304
30
0
41
1
10
161.449995574837
20
11.3530087914735
30
0
41
1
10
161.437987895067
20
11.3837858769681
30
0
41
1
10
161.436385074697
20
11.4014095404944
30
0
41
1
10
161.441850084709
20
11.4540382099245
30
0
41
1
10
161.458111785199
20
11.4893046653741
30
0
41
1
10
161.499160647608
20
11.5525420883081
30
0
41
1
10
161.524365734755
20
11.581248037288
30
0
41
1
10
161.579291034525
20
11.6331712359254
30
0
41
1
10
161.609177691206
20
11.6564650912393
30
0
41
1
10
161.640774630125
20
11.677067914458
30
0
0
SPLINE
5
266
100
AcDbEntity
8
1
62
256
6
ByLayer
370
18
48
1
60
0
100
AcDbSpline
70
4
71
3
72
18
73
14
40
0
40
0
40
0
40
0
40
0.12499999999998
40
0.12499999999998
40
0.24999999999996
40
0.24999999999996
40
0.499999999999946
40
0.499999999999946
40
0.749999999999931
40
0.749999999999931
40
0.874999999999965
40
0.874999999999965
40
1
40
1
40
1
40
1
41
1
10
161.572584528921
20
9.58354465435625
30
0
41
1
10
161.582047570052
20
9.60769054061024
30
0
41
1
10
161.584190859539
20
9.63502986494586
30
0
41
1
10
161.580673834783
20
9.69082272647563
30
0
41
1
10
161.574883096994
20
9.71924181794182
30
0
41
1
10
161.549932876174
20
9.80332869243657
30
0
41
1
10
161.523248053602
20
9.85827407130208
30
0
41
1
10
161.457808981779
20
9.95941521341061
30
0
41
1
10
161.419208450992
20
10.0054630732496
30
0
41
1
10
161.353886599457
20
10.0608501872886
30
0
41
1
10
161.33081604406
20
10.0769922163743
30
0
41
1
10
161.282715471627
20
10.1010856253712
30
0
41
1
10
161.257693306302
20
10.1092183667838
30
0
41
1
10
161.232586563027
20
10.1092258656891
30
0
0
SPLINE
5
267
100
AcDbEntity
8
1
62
256
6
ByLayer
370
18
48
1
60
0
100
AcDbSpline
70
4
71
3
72
18
73
14
40
0
40
0
40
0
40
0
40
0.125000000000002
40
0.125000000000002
40
0.250000000000003
40
0.250000000000003
40
0.500000000000007
40
0.500000000000007
40
0.75000000000001
40
0.75000000000001
40
0.875000000000005
40
0.875000000000005
40
1
40
1
40
1
40
1
41
1
10
161.198725780142
20
10.7553280922788
30
0
41
1
10
161.223672445042
20
10.7579576260565
30
0
41
1
10
161.247777046616
20
10.7686805287853
30
0
41
1
10
161.293187284957
20
10.7977559318376
30
0
41
1
10
161.314401035381
20
10.8162107278207
30
0
41
1
10
161.373474289366
20
10.8780409891991
30
0
41
1
10
161.407175645149
20
10.9280547640063
30
0
41
1
10
161.46164993306
20
11.0355016366406
30
0
41
1
10
161.482370281516
20
11.0927232850868
30
0
41
1
10
161.498402399755
20
11.1790915560899
30
0
41
1
10
161.501174891648
20
11.2080035568697
30
0
41
1
10
161.498823562792
20
11.2637300791316
30
0
41
1
10
161.493858095592
20
11.2906244956966
30
0
41
1
10
161.481912552415
20
11.3136690318221
30
0
0
SPLINE
5
268
100
AcDbEntity
8
1
62
256
6
ByLayer
370
18
48
1
60
0
100
AcDbSpline
70
4
71
3
72
16
73
12
40
0
40
0
40
0
40
0
40
0.124999999999939
40
0.124999999999939
40
0.249999999999879
40
0.249999999999879
40
0.499999999999919
40
0.499999999999919
40
0.74999999999996
40
0.74999999999996
40
1
40
1
40
1
40
1
41
1
10
162.656251168726
20
11.7159974348928
30
0
41
1
10
162.658317321844
20
11.7325500367104
30
0
41
1
10
162.664529443242
20
11.7484772239316
30
0
41
1
10
162.685806558896
20
11.7757664573411
30
0
41
1
10
162.700531849536
20
11.7866154648323
30
0
41
1
10
162.749463981165
20
11.8097603266427
30
0
41
1
10
162.788352949528
20
11.813907093794
30
0
41
1
10
162.86390656228
20
11.8107482748137
30
0
41
1
10
162.90141688084
20
11.803451823496
30
0
41
1
10
162.973863128898
20
11.7819915208847
30
0
41
1
10
163.008946622915
20
11.7677176680952
30
0
41
1
10
163.042524051946
20
11.750530488767
30
0
0
SPLINE
5
269
100
AcDbEntity
8
1
62
256
6
ByLayer
370
18
48
1
60
0
100
AcDbSpline
70
4
71
3
72
16
73
12
40
0
40
0
40
0
40
0
40
0.250000000000039
40
0.250000000000039
40
0.500000000000077
40
0.500000000000077
40
0.750000000000116
40
0.750000000000116
40
0.875000000000058
40
0.875000000000058
40
1
40
1
40
1
40
1
41
1
10
161.640774630125
20
11.677067914458
30
0
41
1
10
161.672378752589
20
11.6976754217164
30
0
41
1
10
161.705660254325
20
11.7155652236385
30
0
41
1
10
161.774794039427
20
11.7444772542442
30
0
41
1
10
161.81067038241
20
11.7555845226989
30
0
41
1
10
161.883278447975
20
11.7664682977742
30
0
41
1
10
161.920569013608
20
11.7664573435348
30
0
41
1
10
161.968603716401
20
11.74810077738
30
0
41
1
10
161.982870233777
20
11.7386667887694
30
0
41
1
10
162.00333031443
20
11.7137984250213
30
0
41
1
10
162.009426642713
20
11.6985285176159
30
0
41
1
10
162.011463602333
20
11.6822055504288
30
0
0
SPLINE
5
26A
100
AcDbEntity
8
1
62
256
6
ByLayer
370
18
48
1
60
0
100
AcDbSpline
70
4
71
3
72
8
73
4
40
0
40
0
40
0
40
0
40
1
40
1
40
1
40
1
41
1
10
163.228562535347
20
11.4230501076728
30
0
41
1
10
163.225506906876
20
11.4169433959227
30
0
41
1
10
163.222450986474
20
11.4108355823752
30
0
41
1
10
163.219394761111
20
11.4047266159236
30
0
0
SPLINE
5
26B
100
AcDbEntity
8
1
62
256
6
ByLayer
370
18
48
1
60
0
100
AcDbSpline
70
4
71
3
72
16
73
12
40
0
40
0
40
0
40
0
40
0.124999999999994
40
0.124999999999994
40
0.249999999999987
40
0.249999999999987
40
0.499999999999992
40
0.499999999999992
40
0.749999999999996
40
0.749999999999996
40
1
40
1
40
1
40
1
41
1
10
163.321099616261
20
9.65733741806611
30
0
41
1
10
163.335611278037
20
9.64808576379818
30
0
41
1
10
163.34753059127
20
9.63555317826348
30
0
41
1
10
163.362818074785
20
9.60494797999962
30
0
41
1
10
163.365871873861
20
9.58740035904512
30
0
41
1
10
163.36398740028
20
9.53495933757796
30
0
41
1
10
163.349222216785
20
9.4997713112607
30
0
41
1
10
163.310289898056
20
9.43664481168071
30
0
41
1
10
163.285716910884
20
9.40797198965683
30
0
41
1
10
163.231613221851
20
9.35609184981357
30
0
41
1
10
163.201908231043
20
9.33280751520462
30
0
41
1
10
163.170311292124
20
9.31220469198593
30
0
0
SPLINE
5
26C
100
AcDbEntity
8
1
62
256
6
ByLayer
370
18
48
1
60
0
100
AcDbSpline
70
4
71
3
72
8
73
4
40
0
40
0
40
0
40
0
40
1
40
1
40
1
40
1
41
1
10
162.645315634403
20
11.6985788012729
30
0
41
1
10
162.648961224102
20
11.7043860915447
30
0
41
1
10
162.652606396201
20
11.7101922865681
30
0
41
1
10
162.656251168726
20
11.7159974348928
30
0
0
SPLINE
5
26D
100
AcDbEntity
8
1
62
256
6
ByLayer
370
18
48
1
60
0
100
AcDbSpline
70
4
71
3
72
8
73
4
40
0
40
0
40
0
40
0
40
1
40
1
40
1
40
1
41
1
10
162.011463602333
20
11.6822055504288
30
0
41
1
10
162.01501843676
20
11.6767777175163
30
0
41
1
10
162.018574187054
20
11.6713489068441
30
0
41
1
10
162.022130896236
20
11.6659190730625
30
0
0
SPLINE
5
26E
100
AcDbEntity
8
1
62
256
6
ByLayer
370
18
48
1
60
0
100
AcDbSpline
70
4
71
3
72
16
73
12
40
0
40
0
40
0
40
0
40
0.249999999999963
40
0.249999999999963
40
0.499999999999926
40
0.499999999999926
40
0.749999999999889
40
0.749999999999889
40
0.874999999999945
40
0.874999999999945
40
1
40
1
40
1
40
1
41
1
10
163.807292382946
20
10.5680988775309
30
0
41
1
10
163.805313104656
20
10.6058657571273
30
0
41
1
10
163.80001621758
20
10.6435292956264
30
0
41
1
10
163.782026673953
20
10.7170380765219
30
0
41
1
10
163.769394747455
20
10.7529757223016
30
0
41
1
10
163.733846132485
20
10.8192225134216
30
0
41
1
10
163.710781106611
20
10.8501061743936
30
0
41
1
10
163.664961159954
20
10.8797913782549
30
0
41
1
10
163.647850180022
20
10.8864186572841
30
0
41
1
10
163.613286805469
20
10.8897150526372
30
0
41
1
10
163.596037523658
20
10.8863948835779
30
0
41
1
10
163.58034660126
20
10.8791460480981
30
0
0
SPLINE
5
26F
100
AcDbEntity
8
1
62
256
6
ByLayer
370
18
48
1
60
0
100
AcDbSpline
70
4
71
3
72
8
73
4
40
0
40
0
40
0
40
0
40
1
40
1
40
1
40
1
41
1
10
163.310066737617
20
9.67460223845779
30
0
41
1
10
163.313744781533
20
9.66884620010427
30
0
41
1
10
163.317422401648
20
9.66309127646187
30
0
41
1
10
163.321099616261
20
9.65733741806608
30
0
0
SPLINE
5
270
100
AcDbEntity
8
1
62
256
6
ByLayer
370
18
48
1
60
0
100
AcDbSpline
70
4
71
3
72
18
73
14
40
0
40
0
40
0
40
0
40
0.124999999999997
40
0.124999999999997
40
0.249999999999995
40
0.249999999999995
40
0.374999999999992
40
0.374999999999992
40
0.499999999999989
40
0.499999999999989
40
0.749999999999995
40
0.749999999999995
40
1
40
1
40
1
40
1
41
1
10
163.614103116741
20
10.2350333621048
30
0
41
1
10
163.630470957144
20
10.2294626266591
30
0
41
1
10
163.648055644868
20
10.2279520726113
30
0
41
1
10
163.682237319649
20
10.2349367807508
30
0
41
1
10
163.698531989647
20
10.2433987877564
30
0
41
1
10
163.726491689581
20
10.266004747394
30
0
41
1
10
163.738630939953
20
10.280281517042
30
0
41
1
10
163.759200886997
20
10.3114053213428
30
0
41
1
10
163.767671580786
20
10.3282133085073
30
0
41
1
10
163.788973565328
20
10.3804320560291
30
0
41
1
10
163.797769351378
20
10.4175186699318
30
0
41
1
10
163.807947145081
20
10.4924483103123
30
0
41
1
10
163.809271588952
20
10.5303333771886
30
0
41
1
10
163.807292382946
20
10.5680988775309
30
0
0
SPLINE
5
271
100
AcDbEntity
8
1
62
256
6
ByLayer
370
18
48
1
60
0
100
AcDbSpline
70
4
71
3
72
8
73
4
40
0
40
0
40
0
40
0
40
1
40
1
40
1
40
1
41
1
10
163.59325350989
20
10.2329431780011
30
0
41
1
10
163.600204412797
20
10.2336400228422
30
0
41
1
10
163.6071542664
20
10.2343367491329
30
0
41
1
10
163.614103116741
20
10.2350333621048
30
0
0
SPLINE
5
272
100
AcDbEntity
8
1
62
256
6
ByLayer
370
18
48
1
60
0
100
AcDbSpline
70
4
71
3
72
16
73
12
40
0
40
0
40
0
40
0
40
0.250000000000003
40
0.250000000000003
40
0.500000000000006
40
0.500000000000006
40
0.750000000000008
40
0.750000000000008
40
0.875000000000004
40
0.875000000000004
40
1
40
1
40
1
40
1
41
1
10
163.042524051946
20
11.750530488767
30
0
41
1
10
163.076109114787
20
11.7333394019436
30
0
41
1
10
163.108148597537
20
11.7132501814483
30
0
41
1
10
163.16748702892
20
11.6671982848193
30
0
41
1
10
163.194873542337
20
11.6412614925484
30
0
41
1
10
163.240110420985
20
11.5826021286723
30
0
41
1
10
163.258426327686
20
11.5495048739435
30
0
41
1
10
163.265808635262
20
11.4969321463054
30
0
41
1
10
163.264480497957
20
11.47915710481
30
0
41
1
10
163.252535449498
20
11.4474829683391
30
0
41
1
10
163.242015684922
20
11.4337584465847
30
0
41
1
10
163.228562535347
20
11.4230501076728
30
0
0
SPLINE
5
273
100
AcDbEntity
8
1
62
256
6
ByLayer
370
18
48
1
60
0
100
AcDbSpline
70
4
71
3
72
18
73
14
40
0
40
0
40
0
40
0
40
0.12499999999997
40
0.12499999999997
40
0.249999999999941
40
0.249999999999941
40
0.499999999999993
40
0.499999999999993
40
0.750000000000046
40
0.750000000000046
40
0.875000000000023
40
0.875000000000023
40
1
40
1
40
1
40
1
41
1
10
162.769848393795
20
9.32235219721738
30
0
41
1
10
162.753021147894
20
9.34379813344151
30
0
41
1
10
162.729863240674
20
9.36035184415476
30
0
41
1
10
162.678861941878
20
9.38696060702702
30
0
41
1
10
162.650986791108
20
9.3968792730191
30
0
41
1
10
162.564864582155
20
9.41902589613926
30
0
41
1
10
162.503757355884
20
9.42391971167768
30
0
41
1
10
162.383845816445
20
9.41761407654954
30
0
41
1
10
162.325243494352
20
9.40647794592687
30
0
41
1
10
162.245992601384
20
9.3756070065478
30
0
41
1
10
162.221022643942
20
9.36288279155366
30
0
41
1
10
162.177343793985
20
9.33135818302057
30
0
41
1
10
162.158480061758
20
9.31265902856163
30
0
41
1
10
162.146663655628
20
9.28969246900698
30
0
0
SPLINE
5
274
100
AcDbEntity
8
1
62
256
6
ByLayer
370
18
48
1
60
0
100
AcDbSpline
70
4
71
3
72
16
73
12
40
0
40
0
40
0
40
0
40
0.250000000000042
40
0.250000000000042
40
0.500000000000083
40
0.500000000000083
40
0.750000000000125
40
0.750000000000125
40
0.875000000000062
40
0.875000000000062
40
1
40
1
40
1
40
1
41
1
10
163.170311292124
20
9.31220469198593
30
0
41
1
10
163.13870716966
20
9.29159718472752
30
0
41
1
10
163.105243784759
20
9.27369785071264
30
0
41
1
10
163.035285350581
20
9.24474260208029
30
0
41
1
10
162.998775889959
20
9.23360215333605
30
0
41
1
10
162.924051429427
20
9.22260746270044
30
0
41
1
10
162.88528912435
20
9.22254128634393
30
0
41
1
10
162.833627748831
20
9.240707786635
30
0
41
1
10
162.817901814125
20
9.25006529042423
30
0
41
1
10
162.79419380524
20
9.27476343746642
30
0
41
1
10
162.78632645722
20
9.28994052966036
30
0
41
1
10
162.782544765121
20
9.30617205929281
30
0
0
SPLINE
5
275
100
AcDbEntity
8
1
62
256
6
ByLayer
370
18
48
1
60
0
100
AcDbSpline
70
4
71
3
72
8
73
4
40
0
40
0
40
0
40
0
40
1
40
1
40
1
40
1
41
1
10
162.146663655628
20
9.28969246900698
30
0
41
1
10
162.143694002652
20
9.28392060307775
30
0
41
1
10
162.140725196367
20
9.27814985488459
30
0
41
1
10
162.137757198728
20
9.27238017482884
30
0
0
SPLINE
5
276
100
AcDbEntity
8
1
62
256
6
ByLayer
370
18
48
1
60
0
100
AcDbSpline
70
4
71
3
72
8
73
4
40
0
40
0
40
0
40
0
40
1
40
1
40
1
40
1
41
1
10
162.782544765121
20
9.30617205929281
30
0
41
1
10
162.778313155808
20
9.31156442393649
30
0
41
1
10
162.774081039699
20
9.31695778777825
30
0
41
1
10
162.769848393795
20
9.32235219721741
30
0
0
SPLINE
5
277
100
AcDbEntity
8
1
62
256
6
ByLayer
370
18
48
1
60
0
100
AcDbSpline
70
4
71
3
72
16
73
12
40
0
40
0
40
0
40
0
40
0.125
40
0.125
40
0.25
40
0.25
40
0.5
40
0.5
40
0.75
40
0.75
40
1
40
1
40
1
40
1
41
1
10
161.213661766194
20
10.1092315616235
30
0
41
1
10
161.199703375598
20
10.1020678922843
30
0
41
1
10
161.184229214648
20
10.0988125524103
30
0
41
1
10
161.152584321097
20
10.1023863481109
30
0
41
1
10
161.136981699441
20
10.1091990254318
30
0
41
1
10
161.095304846039
20
10.1387766570331
30
0
41
1
10
161.073425836663
20
10.1699355598974
30
0
41
1
10
161.03997935816
20
10.2363872634889
30
0
41
1
10
161.027990176734
20
10.2724062272644
30
0
41
1
10
161.010880033815
20
10.3458112579101
30
0
41
1
10
161.005774029415
20
10.3833837263661
30
0
41
1
10
161.003793539303
20
10.421173728913
30
0
0
SPLINE
5
278
100
AcDbEntity
8
1
62
256
6
ByLayer
370
18
48
1
60
0
100
AcDbSpline
70
4
71
3
72
16
73
12
40
0
40
0
40
0
40
0
40
0.250000000000003
40
0.250000000000003
40
0.500000000000005
40
0.500000000000005
40
0.750000000000008
40
0.750000000000008
40
0.875000000000004
40
0.875000000000004
40
1
40
1
40
1
40
1
41
1
10
161.768561870303
20
9.23874211767699
30
0
41
1
10
161.734976807462
20
9.25593320450031
30
0
41
1
10
161.702755441546
20
9.27601289290291
30
0
41
1
10
161.642592361089
20
9.32202157150516
30
0
41
1
10
161.614572730032
20
9.34792518348647
30
0
41
1
10
161.567219456417
20
9.40647363180236
30
0
41
1
10
161.547431810272
20
9.43949375593519
30
0
41
1
10
161.536422829971
20
9.49187641770956
30
0
41
1
10
161.536291549945
20
9.50957497438361
30
0
41
1
10
161.544988670172
20
9.54107889414863
30
0
41
1
10
161.553737415012
20
9.55471060069161
30
0
41
1
10
161.565445832107
20
9.56532750204875
30
0
0
SPLINE
5
279
100
AcDbEntity
8
1
62
256
6
ByLayer
370
18
48
1
60
0
100
AcDbSpline
70
4
71
3
72
8
73
4
40
0
40
0
40
0
40
0
40
1
40
1
40
1
40
1
41
1
10
161.179905250713
20
10.7533442476167
30
0
41
1
10
161.186177326168
20
10.7540053923199
30
0
41
1
10
161.192450813956
20
10.7546666717801
30
0
41
1
10
161.198725780142
20
10.7553280922788
30
0
0
SPLINE
5
27A
100
AcDbEntity
8
1
62
256
6
ByLayer
370
18
48
1
60
0
100
AcDbSpline
70
4
71
3
72
8
73
4
40
0
40
0
40
0
40
0
40
1
40
1
40
1
40
1
41
1
10
161.481912552415
20
11.3136690318221
30
0
41
1
10
161.47891044522
20
11.3194604945181
30
0
41
1
10
161.47590919092
20
11.3252508649909
30
0
41
1
10
161.472908751193
20
11.3310401916555
30
0
0
SPLINE
5
27B
100
AcDbEntity
8
1
62
256
6
ByLayer
370
18
48
1
60
0
100
AcDbSpline
70
4
71
3
72
8
73
4
40
0
40
0
40
0
40
0
40
1
40
1
40
1
40
1
41
1
10
161.232586563027
20
10.1092258656891
30
0
41
1
10
161.226276834495
20
10.1092277502847
30
0
41
1
10
161.219968591004
20
10.1092296491491
30
0
41
1
10
161.213661766194
20
10.1092315616235
30
0
0
SPLINE
5
27C
100
AcDbEntity
8
1
62
256
6
ByLayer
370
18
48
1
60
0
100
AcDbSpline
70
4
71
3
72
20
73
16
40
0
40
0
40
0
40
0
40
0.124999999999987
40
0.124999999999987
40
0.249999999999974
40
0.249999999999974
40
0.374999999999961
40
0.374999999999961
40
0.499999999999948
40
0.499999999999948
40
0.749999999999974
40
0.749999999999974
40
0.874999999999987
40
0.874999999999987
40
1
40
1
40
1
40
1
41
1
10
163.310066737615
20
9.67460223846132
30
0
41
1
10
163.295372565773
20
9.69759821638596
30
0
41
1
10
163.287997664234
20
9.72459622563721
30
0
41
1
10
163.281573273688
20
9.78030197863646
30
0
41
1
10
163.28264534432
20
9.80892027094492
30
0
41
1
10
163.290516552412
20
9.86607921752307
30
0
41
1
10
163.297462640124
20
9.89495904515817
30
0
41
1
10
163.315772724976
20
9.95096775409922
30
0
41
1
10
163.327182974343
20
9.9784110121324
30
0
41
1
10
163.368049045775
20
10.0591345541878
30
0
41
1
10
163.403088201812
20
10.1091564198271
30
0
41
1
10
163.466534085556
20
10.1714297983546
30
0
41
1
10
163.489564706744
20
10.1900303848818
30
0
41
1
10
163.539091152606
20
10.2193083876116
30
0
41
1
10
163.565551897965
20
10.2301660243534
30
0
41
1
10
163.59325350989
20
10.2329431780011
30
0
0
SPLINE
5
27D
100
AcDbEntity
8
1
62
256
6
ByLayer
370
18
48
1
60
0
100
AcDbSpline
70
4
71
3
72
18
73
14
40
0
40
0
40
0
40
0
40
0.124999999999972
40
0.124999999999972
40
0.249999999999943
40
0.249999999999943
40
0.499999999999971
40
0.499999999999971
40
0.749999999999999
40
0.749999999999999
40
0.874999999999999
40
0.874999999999999
40
1
40
1
40
1
40
1
41
1
10
163.559392727005
20
10.8790454045908
30
0
41
1
10
163.531589130092
20
10.8789119132809
30
0
41
1
10
163.504072093343
20
10.8869485727859
30
0
41
1
10
163.451669155478
20
10.9109473743975
30
0
41
1
10
163.426879064885
20
10.9270212561665
30
0
41
1
10
163.357411699812
20
10.9822139069051
30
0
41
1
10
163.317198866256
20
11.0284343080657
30
0
41
1
10
163.251794023128
20
11.1297512626619
30
0
41
1
10
163.226864469548
20
11.1842122947352
30
0
41
1
10
163.206136902793
20
11.2684091735598
30
0
41
1
10
163.202099849004
20
11.29688280163
30
0
41
1
10
163.202680245446
20
11.3526097826855
30
0
41
1
10
163.207168277642
20
11.3802875878888
30
0
41
1
10
163.219394761111
20
11.4047266159236
30
0
0
SPLINE
5
27E
100
AcDbEntity
8
1
62
256
6
ByLayer
370
18
48
1
60
0
100
AcDbSpline
70
4
71
1
72
4
73
2
40
0
40
0
40
1
40
1
41
1
10
169.914180020837
20
-6.312042002369
30
0
41
1
10
169.964485269878
20
-5.93261380460206
30
0
0
SPLINE
5
27F
100
AcDbEntity
8
1
62
256
6
ByLayer
370
18
48
1
60
0
100
AcDbSpline
70
4
71
2
72
12
73
9
40
0
40
0
40
0
40
0.25
40
0.5
40
0.5
40
0.75
40
0.75
40
0.875
40
1
40
1
40
1
41
1
10
168.758329320371
20
0.13389465040828
30
0
41
1
10
168.744426722638
20
0.182038955320024
30
0
41
1
10
168.690014745015
20
0.267168070141679
30
0
41
1
10
168.650579805086
20
0.301193436973193
30
0
41
1
10
168.612865621997
20
0.33373409550282
30
0
41
1
10
168.56525462021
20
0.355149633135255
30
0
41
1
10
168.543143251003
20
0.36509537763942
30
0
41
1
10
168.493526905157
20
0.379278252976803
30
0
41
1
10
168.467571894074
20
0.382671345666182
30
0
0
SPLINE
5
280
100
AcDbEntity
8
1
62
256
6
ByLayer
370
18
48
1
60
0
100
AcDbSpline
70
4
71
1
72
4
73
2
40
0
40
0
40
1
40
1
41
1
10
168.786481281599
20
0.0364052005114957
30
0
41
1
10
169.146740592108
20
-0.238817414965155
30
0
0
SPLINE
5
281
100
AcDbEntity
8
1
62
256
6
ByLayer
370
18
48
1
60
0
100
AcDbSpline
70
4
71
1
72
4
73
2
40
0
40
0
40
1
40
1
41
1
10
169.957479007861
20
-5.28369779019258
30
0
41
1
10
169.899135926561
20
-4.91791585784702
30
0
0
SPLINE
5
282
100
AcDbEntity
8
1
62
256
6
ByLayer
370
18
48
1
60
0
100
AcDbSpline
70
4
71
1
72
4
73
2
40
0
40
0
40
1
40
1
41
1
10
169.283737555384
20
-11.0671650366655
30
0
41
1
10
169.828500278491
20
-6.95828291843839
30
0
0
SPLINE
5
283
100
AcDbEntity
8
1
62
256
6
ByLayer
370
18
48
1
60
0
100
AcDbSpline
70
4
71
3
72
12
73
8
40
0
40
0
40
0
40
0
40
0.250321626292993
40
0.250321626292993
40
0.50064324490458
40
0.50064324490458
40
1
40
1
40
1
40
1
41
1
10
169.14674059228
20
-0.238817415558856
30
0
41
1
10
169.148988577498
20
-0.246602412095939
30
0
41
1
10
169.151116957181
20
-0.254422500567301
30
0
41
1
10
169.155131540754
20
-0.270121913600292
30
0
41
1
10
169.157018213552
20
-0.278003071683344
30
0
41
1
10
169.162302147533
20
-0.301678236632284
30
0
41
1
10
169.165338574491
20
-0.317560513359155
30
0
41
1
10
169.167883876172
20
-0.333512856984726
30
0
0
SPLINE
5
284
100
AcDbEntity
8
1
62
256
6
ByLayer
370
18
48
1
60
0
100
AcDbSpline
70
4
71
3
72
8
73
4
40
0
40
0
40
0
40
0
40
1
40
1
40
1
40
1
41
1
10
169.999923986323
20
-5.60234720544582
30
0
41
1
10
170.000427318117
20
-5.64052724099255
30
0
41
1
10
169.998397760599
20
-5.67859459962295
30
0
41
1
10
169.994822598712
20
-5.71659009869009
30
0
0
SPLINE
5
285
100
AcDbEntity
8
1
62
256
6
ByLayer
370
18
48
1
60
0
100
AcDbSpline
70
4
71
1
72
4
73
2
40
0
40
0
40
1
40
1
41
1
10
169.033204928442
20
-11.3558846039317
30
0
41
1
10
168.699525063072
20
-10.715817993263
30
0
0
SPLINE
5
286
100
AcDbEntity
8
1
62
256
6
ByLayer
370
18
48
1
60
0
100
AcDbSpline
70
4
71
3
72
12
73
8
40
0
40
0
40
0
40
0
40
0.499999999999922
40
0.499999999999922
40
0.749999999999961
40
0.749999999999961
40
1
40
1
40
1
40
1
41
1
10
168.755088951844
20
0.359478971220455
30
0
41
1
10
168.822187071585
20
0.350629071887425
30
0
41
1
10
168.886407354773
20
0.321809704661604
30
0
41
1
10
168.963425585597
20
0.256125474327433
30
0
41
1
10
168.985882665583
20
0.230450438519625
30
0
41
1
10
169.02229431078
20
0.173837813938235
30
0
41
1
10
169.035708957654
20
0.142799739704088
30
0
41
1
10
169.04584642284
20
0.110701636221421
30
0
0
SPLINE
5
287
100
AcDbEntity
8
1
62
256
6
ByLayer
370
18
48
1
60
0
100
AcDbSpline
70
4
71
3
72
10
73
6
40
0
40
0
40
0
40
0
40
0.382673987167631
40
0.382673987167631
40
1
40
1
40
1
40
1
41
1
10
169.035299681915
20
-11.35522482265
30
0
41
1
10
168.990133430487
20
-11.3680847703209
30
0
41
1
10
168.944967281261
20
-11.3809454294281
30
0
41
1
10
168.826939321037
20
-11.4145513062157
30
0
41
1
10
168.754077005267
20
-11.4352930031725
30
0
41
1
10
168.681215073258
20
-11.4560373767326
30
0
0
SPLINE
5
288
100
AcDbEntity
8
1
62
256
6
ByLayer
370
18
48
1
60
0
100
AcDbSpline
70
4
71
2
72
12
73
9
40
0
40
0
40
0
40
0.25
40
0.5
40
0.5
40
0.75
40
0.75
40
0.875
40
1
40
1
40
1
41
1
10
168.699525063072
20
-10.7158179932629
30
0
41
1
10
168.74800918322
20
-10.7020128359776
30
0
41
1
10
168.833739161843
20
-10.6479822207178
30
0
41
1
10
168.868004688705
20
-10.6088236721808
30
0
41
1
10
168.900775027811
20
-10.5713738200424
30
0
41
1
10
168.922341721966
20
-10.5240965139858
30
0
41
1
10
168.932357666164
20
-10.5021401188188
30
0
41
1
10
168.946640647985
20
-10.4528715237446
30
0
41
1
10
168.95005769002
20
-10.4270984259969
30
0
0
SPLINE
5
289
100
AcDbEntity
8
1
62
256
6
ByLayer
370
18
48
1
60
0
100
AcDbSpline
70
4
71
1
72
4
73
2
40
0
40
0
40
1
40
1
41
1
10
169.045846286976
20
0.110671030801058
30
0
41
1
10
168.758329320371
20
0.13389465040828
30
0
0
SPLINE
5
28A
100
AcDbEntity
8
1
62
256
6
ByLayer
370
18
48
1
60
0
100
AcDbSpline
70
4
71
3
72
10
73
6
40
0
40
0
40
0
40
0
40
0.380743542073264
40
0.380743542073264
40
1
40
1
40
1
40
1
41
1
10
169.04582150731
20
0.110673032330084
30
0
41
1
10
169.058629870788
20
0.0663174304786196
30
0
41
1
10
169.07143856048
20
0.0219615947974319
30
0
41
1
10
169.105079096736
20
-0.094535824350686
30
0
41
1
10
169.125909173185
20
-0.166676138225
30
0
41
1
10
169.146740592108
20
-0.238817414965467
30
0
0
SPLINE
5
28B
100
AcDbEntity
8
1
62
256
6
ByLayer
370
18
48
1
60
0
100
AcDbSpline
70
4
71
2
72
6
73
3
40
0
40
0
40
0
40
1
40
1
40
1
41
1
10
168.50598519433
20
-10.7647657837459
30
0
41
1
10
168.554312879772
20
-10.7571650781245
30
0
41
1
10
168.601347506951
20
-10.7437726431562
30
0
0
SPLINE
5
28C
100
AcDbEntity
8
1
62
256
6
ByLayer
370
18
48
1
60
0
100
AcDbSpline
70
4
71
1
72
4
73
2
40
0
40
0
40
1
40
1
41
1
10
169.99314668414
20
-5.71643459932844
30
0
41
1
10
169.620973078503
20
-5.36670768035071
30
0
0
SPLINE
5
28D
100
AcDbEntity
8
1
62
256
6
ByLayer
370
18
48
1
60
0
100
AcDbSpline
70
4
71
1
72
4
73
2
40
0
40
0
40
1
40
1
41
1
10
168.95005769002
20
-10.4270984259965
30
0
41
1
10
169.283737555384
20
-11.0671650366655
30
0
0
SPLINE
5
28E
100
AcDbEntity
8
1
62
256
6
ByLayer
370
18
48
1
60
0
100
AcDbSpline
70
4
71
1
72
4
73
2
40
0
40
0
40
1
40
1
41
1
10
169.167916848345
20
-0.333538045787577
30
0
41
1
10
168.807622597314
20
-0.0582887372623304
30
0
0
SPLINE
5
28F
100
AcDbEntity
8
1
62
256
6
ByLayer
370
18
48
1
60
0
100
AcDbSpline
70
4
71
1
72
4
73
2
40
0
40
0
40
1
40
1
41
1
10
168.601347506951
20
-10.7437726431562
30
0
41
1
10
168.681215073258
20
-11.4560373767326
30
0
0
SPLINE
5
290
100
AcDbEntity
8
1
62
256
6
ByLayer
370
18
48
1
60
0
100
AcDbSpline
70
4
71
1
72
4
73
2
40
0
40
0
40
1
40
1
41
1
10
169.964485269878
20
-5.93261380460206
30
0
41
1
10
169.99314668414
20
-5.71643459932847
30
0
0
SPLINE
5
291
100
AcDbEntity
8
1
62
256
6
ByLayer
370
18
48
1
60
0
100
AcDbSpline
70
4
71
1
72
4
73
2
40
0
40
0
40
1
40
1
41
1
10
169.828500278491
20
-6.95828291843839
30
0
41
1
10
169.914180020837
20
-6.312042002369
30
0
0
SPLINE
5
292
100
AcDbEntity
8
1
62
256
6
ByLayer
370
18
48
1
60
0
100
AcDbSpline
70
4
71
1
72
4
73
2
40
0
40
0
40
1
40
1
41
1
10
169.899135926561
20
-4.91791585784702
30
0
41
1
10
169.799747926977
20
-4.29480282147847
30
0
0
SPLINE
5
293
100
AcDbEntity
8
1
62
256
6
ByLayer
370
18
48
1
60
0
100
AcDbSpline
70
4
71
3
72
8
73
4
40
0
40
0
40
0
40
0
40
1
40
1
40
1
40
1
41
1
10
169.99168490156
20
-5.48828854707384
30
0
41
1
10
169.996327870119
20
-5.52617260805482
30
0
41
1
10
169.999420678461
20
-5.56416898524921
30
0
41
1
10
169.999923986323
20
-5.60234720544582
30
0
0
SPLINE
5
294
100
AcDbEntity
8
1
62
256
6
ByLayer
370
18
48
1
60
0
100
AcDbSpline
70
4
71
2
72
6
73
3
40
0
40
0
40
0
40
1
40
1
40
1
41
1
10
168.807622597314
20
-0.0582887372622736
30
0
41
1
10
168.799968243882
20
-0.0102997705267001
30
0
41
1
10
168.786481281599
20
0.0364052005114388
30
0
0
SPLINE
5
295
100
AcDbEntity
8
1
62
256
6
ByLayer
370
18
48
1
60
0
100
AcDbSpline
70
4
71
1
72
4
73
2
40
0
40
0
40
1
40
1
41
1
10
168.467571894074
20
0.382671345666239
30
0
41
1
10
168.755088860669
20
0.359447726058761
30
0
0
SPLINE
5
296
100
AcDbEntity
8
1
62
256
6
ByLayer
370
18
48
1
60
0
100
AcDbSpline
70
4
71
1
72
4
73
2
40
0
40
0
40
1
40
1
41
1
10
169.990141467518
20
-5.48847507213125
30
0
41
1
10
169.957479007861
20
-5.28369779019258
30
0
0
SPLINE
5
297
100
AcDbEntity
8
1
62
256
6
ByLayer
370
18
48
1
60
0
100
AcDbSpline
70
4
71
2
72
7
73
4
40
0
40
0
40
0
40
0.5
40
1
40
1
40
1
41
1
10
169.620973078503
20
-5.36670768035069
30
0
41
1
10
169.628465218213
20
-5.31019808898924
30
0
41
1
10
169.627039169167
20
-5.19562071168673
30
0
41
1
10
169.617967861884
20
-5.13874815315353
30
0
0
SPLINE
5
298
100
AcDbEntity
8
1
62
256
6
ByLayer
370
18
48
1
60
0
100
AcDbSpline
70
4
71
1
72
4
73
2
40
0
40
0
40
1
40
1
41
1
10
169.617967861884
20
-5.1387481531535
30
0
41
1
10
169.990141467518
20
-5.48847507213125
30
0
0
SPLINE
5
299
100
AcDbEntity
8
1
62
256
6
ByLayer
370
18
48
1
60
0
100
AcDbSpline
70
4
71
1
72
4
73
2
40
0
40
0
40
1
40
1
41
1
10
169.799747926977
20
-4.29480282147847
30
0
41
1
10
169.167916848345
20
-0.333538045787577
30
0
0
SPLINE
5
29A
100
AcDbEntity
8
1
62
256
6
ByLayer
370
18
48
1
60
0
100
AcDbSpline
70
4
71
3
72
12
73
8
40
0
40
0
40
0
40
0
40
0.5
40
0.5
40
0.75
40
0.75
40
1
40
1
40
1
40
1
41
1
10
169.283738251702
20
-11.0671345734775
30
0
41
1
10
169.274825846712
20
-11.1337623758475
30
0
41
1
10
169.245805572008
20
-11.197535041933
30
0
41
1
10
169.179655252924
20
-11.2740110130455
30
0
41
1
10
169.153799033997
20
-11.2963107337771
30
0
41
1
10
169.096786993318
20
-11.3324673468133
30
0
41
1
10
169.065529745197
20
-11.3457878749229
30
0
41
1
10
169.033204978215
20
-11.3558541828467
30
0
0
SPLINE
5
29B
100
AcDbEntity
8
1
62
256
6
ByLayer
370
13
48
1
60
0
100
AcDbSpline
70
4
71
3
72
8
73
4
40
0
40
0
40
0
40
0
40
1
40
1
40
1
40
1
41
1
10
168.47255903405
20
4.73075950932494
30
0
41
1
10
168.405320771609
20
4.72690461111043
30
0
41
1
10
168.340077938369
20
4.7249730007677
30
0
41
1
10
168.276549905512
20
4.72413761353479
30
0
0
SPLINE
5
29C
100
AcDbEntity
8
1
62
256
6
ByLayer
370
13
48
1
60
0
100
AcDbSpline
70
4
71
1
72
4
73
2
40
0
40
0
40
1
40
1
41
1
10
155.687398411918
20
4.63684768605418
30
0
41
1
10
155.657367232796
20
4.6360046406586
30
0
0
SPLINE
5
29D
100
AcDbEntity
8
1
62
256
6
ByLayer
370
13
48
1
60
0
100
AcDbSpline
70
4
71
3
72
10
73
6
40
0
40
0
40
0
40
0
40
0.5
40
0.5
40
1
40
1
40
1
40
1
41
1
10
155.914411382891
20
16.2326356379706
30
0
41
1
10
155.947527227349
20
16.2336512334969
30
0
41
1
10
155.978980038625
20
16.2331166707206
30
0
41
1
10
156.042685886784
20
16.2328147830655
30
0
41
1
10
156.074610570375
20
16.232723695345
30
0
41
1
10
156.106497853551
20
16.2326013888297
30
0
0
SPLINE
5
29E
100
AcDbEntity
8
1
62
256
6
ByLayer
370
13
48
1
60
0
100
AcDbSpline
70
4
71
3
72
10
73
6
40
0
40
0
40
0
40
0
40
0.5
40
0.5
40
1
40
1
40
1
40
1
41
1
10
167.169086805869
20
16.0953922021141
30
0
41
1
10
167.165408838195
20
16.0951994479961
30
0
41
1
10
167.175161273637
20
16.0849596206678
30
0
41
1
10
167.215268419897
20
16.0513236482829
30
0
41
1
10
167.245713379716
20
16.027983542453
30
0
41
1
10
167.277685540842
20
16.0051564918966
30
0
0
SPLINE
5
29F
100
AcDbEntity
8
1
62
256
6
ByLayer
370
13
48
1
60
0
100
AcDbSpline
70
4
71
3
72
24
73
20
40
0
40
0
40
0
40
0
40
0.03125
40
0.03125
40
0.0625
40
0.0625
40
0.125
40
0.125
40
0.1875
40
0.1875
40
0.25
40
0.25
40
0.375
40
0.375
40
0.5
40
0.5
40
0.75
40
0.75
40
1
40
1
40
1
40
1
41
1
10
155.657367232796
20
4.63600464065857
30
0
41
1
10
155.659832372879
20
4.62234553016222
30
0
41
1
10
155.662615927514
20
4.60784111307555
30
0
41
1
10
155.668686224666
20
4.57878874706694
30
0
41
1
10
155.672020841802
20
4.56408888032666
30
0
41
1
10
155.681785286486
20
4.52402235438086
30
0
41
1
10
155.687972426812
20
4.50201796534213
30
0
41
1
10
155.699140117812
20
4.4651598655386
30
0
41
1
10
155.70424016362
20
4.44994003464066
30
0
41
1
10
155.713756226992
20
4.42323237727629
30
0
41
1
10
155.718187322192
20
4.41173300461639
30
0
41
1
10
155.730897474054
20
4.38054255013006
30
0
41
1
10
155.738561476491
20
4.3642006326447
30
0
41
1
10
155.752991958197
20
4.33610231698756
30
0
41
1
10
155.759702843192
20
4.3245662968813
30
0
41
1
10
155.778831892337
20
4.29495907011463
30
0
41
1
10
155.790265772267
20
4.28179241996165
30
0
41
1
10
155.8116718425
20
4.26274252338112
30
0
41
1
10
155.82162194386
20
4.25698916510908
30
0
41
1
10
155.831039307224
20
4.25371051034202
30
0
0
SPLINE
5
2A0
100
AcDbEntity
8
1
62
256
6
ByLayer
370
13
48
1
60
0
100
AcDbSpline
70
4
71
1
72
4
73
2
40
0
40
0
40
1
40
1
41
1
10
154.671872996418
20
10.0190672420333
30
0
41
1
10
154.844062250779
20
10.0296696115502
30
0
0
SPLINE
5
2A1
100
AcDbEntity
8
1
62
256
6
ByLayer
370
13
48
1
60
0
100
AcDbSpline
70
4
71
2
72
6
73
3
40
0
40
0
40
0
40
1
40
1
40
1
41
1
10
154.681147682917
20
9.91014536236617
30
0
41
0.997409491337352
10
154.672599494719
20
9.96427219030504
30
0
41
1
10
154.671872996418
20
10.0190672420333
30
0
0
SPLINE
5
2A2
100
AcDbEntity
8
1
62
256
6
ByLayer
370
13
48
1
60
0
100
AcDbSpline
70
4
71
1
72
4
73
2
40
0
40
0
40
1
40
1
41
1
10
156.106497853551
20
16.2326013888297
30
0
41
1
10
155.963881443428
20
16.4009372226141
30
0
0
SPLINE
5
2A3
100
AcDbEntity
8
1
62
256
6
ByLayer
370
13
48
1
60
0
100
AcDbSpline
70
4
71
2
72
6
73
3
40
0
40
0
40
0
40
1
40
1
40
1
41
1
10
169.949929394373
20
10.9587071217926
30
0
41
0.997409491337352
10
169.950694277018
20
10.9010169881045
30
0
41
1
10
169.943208381914
20
10.8438173509549
30
0
0
SPLINE
5
2A4
100
AcDbEntity
8
1
62
256
6
ByLayer
370
13
48
1
60
0
100
AcDbSpline
70
4
71
3
72
22
73
18
40
0
40
0
40
0
40
0
40
0.0312499999999926
40
0.0312499999999926
40
0.0624999999999851
40
0.0624999999999851
40
0.12499999999997
40
0.12499999999997
40
0.156249999999963
40
0.156249999999963
40
0.187499999999955
40
0.187499999999955
40
0.249999999999958
40
0.249999999999958
40
0.499999999999966
40
0.499999999999966
40
1
40
1
40
1
40
1
41
1
10
166.950916787459
20
15.8935136237539
30
0
41
1
10
166.908423059482
20
15.8662149366639
30
0
41
1
10
166.864116938858
20
15.8407979008383
30
0
41
1
10
166.773578942476
20
15.794789398745
30
0
41
1
10
166.72748372704
20
15.7742342347296
30
0
41
1
10
166.586799852679
20
15.7196776105596
30
0
41
1
10
166.489842332577
20
15.6926979684889
30
0
41
1
10
166.339423891074
20
15.6669967117173
30
0
41
1
10
166.288868840445
20
15.6608803225902
30
0
41
1
10
166.187701608082
20
15.6541113023584
30
0
41
1
10
166.137045567545
20
15.6520067342485
30
0
41
1
10
165.985172346599
20
15.6440158683871
30
0
41
1
10
165.883921073912
20
15.6387320770272
30
0
41
1
10
165.377670292651
20
15.6122144675044
30
0
41
1
10
164.972671716047
20
15.5909641788157
30
0
41
1
10
163.757671538138
20
15.5272919231213
30
0
41
1
10
162.947671176675
20
15.4848480135054
30
0
41
1
10
162.137671159392
20
15.4423977113803
30
0
0
SPLINE
5
2A5
100
AcDbEntity
8
1
62
256
6
ByLayer
370
13
48
1
60
0
100
AcDbSpline
70
4
71
3
72
10
73
6
40
0
40
0
40
0
40
0
40
0.5
40
0.5
40
1
40
1
40
1
40
1
41
1
10
157.615680439606
20
4.89250110092647
30
0
41
1
10
157.612002471932
20
4.89230834680839
30
0
41
1
10
157.595055055253
20
4.90217110114804
30
0
41
1
10
157.544770273907
20
4.93527368627971
30
0
41
1
10
157.51138066673
20
4.95845946968086
30
0
41
1
10
157.479408505603
20
4.98128652023715
30
0
0
SPLINE
5
2A6
100
AcDbEntity
8
1
62
256
6
ByLayer
370
13
48
1
60
0
100
AcDbSpline
70
4
71
1
72
4
73
2
40
0
40
0
40
1
40
1
41
1
10
155.778155188844
20
16.3891115406844
30
0
41
1
10
155.914411382891
20
16.2326356379706
30
0
0
SPLINE
5
2A7
100
AcDbEntity
8
1
62
256
6
ByLayer
370
13
48
1
60
0
100
AcDbSpline
70
4
71
3
72
26
73
22
40
0
40
0
40
0
40
0
40
0.249999999999905
40
0.249999999999905
40
0.499999999999811
40
0.499999999999811
40
0.624999999999798
40
0.624999999999798
40
0.687499999999832
40
0.687499999999832
40
0.749999999999866
40
0.749999999999866
40
0.812499999999901
40
0.812499999999901
40
0.843749999999917
40
0.843749999999917
40
0.874999999999934
40
0.874999999999934
40
0.937499999999967
40
0.937499999999967
40
1
40
1
40
1
40
1
41
1
10
169.154968516383
20
4.95198805151952
30
0
41
1
10
169.121374482193
20
4.92727264224931
30
0
41
1
10
169.084657810023
20
4.90243615368502
30
0
41
1
10
169.000898372689
20
4.85305017618182
30
0
41
1
10
168.953312106089
20
4.82808957131545
30
0
41
1
10
168.866797853666
20
4.79265459850586
30
0
41
1
10
168.835651142835
20
4.78118710725877
30
0
41
1
10
168.783192853606
20
4.76609569926583
30
0
41
1
10
168.764821442186
20
4.76148406517987
30
0
41
1
10
168.727466177809
20
4.75380491372007
30
0
41
1
10
168.708189937782
20
4.7507006090857
30
0
41
1
10
168.670994268832
20
4.74605288122589
30
0
41
1
10
168.65270875126
20
4.74447093555409
30
0
41
1
10
168.626203457561
20
4.74289273627701
30
0
41
1
10
168.617166631725
20
4.74218001765519
30
0
41
1
10
168.598594506848
20
4.74029335962101
30
0
41
1
10
168.589188875964
20
4.73923939787113
30
0
41
1
10
168.561725652657
20
4.73677485796964
30
0
41
1
10
168.543837441418
20
4.73552100263384
30
0
41
1
10
168.50797224554
20
4.73293115286646
30
0
41
1
10
168.490184218736
20
4.73176999488052
30
0
41
1
10
168.47255903405
20
4.73075950932494
30
0
0
SPLINE
5
2A8
100
AcDbEntity
8
1
62
256
6
ByLayer
370
13
48
1
60
0
100
AcDbSpline
70
4
71
3
72
24
73
20
40
0
40
0
40
0
40
0
40
0.125000000000008
40
0.125000000000008
40
0.250000000000016
40
0.250000000000016
40
0.375000000000025
40
0.375000000000025
40
0.500000000000033
40
0.500000000000033
40
0.625000000000041
40
0.625000000000041
40
0.750000000000049
40
0.750000000000049
40
0.812500000000053
40
0.812500000000053
40
0.875000000000056
40
0.875000000000056
40
1
40
1
40
1
40
1
41
1
10
169.106593233234
20
16.3515290472887
30
0
41
1
10
169.098378217692
20
16.406063313081
30
0
41
1
10
169.084924318314
20
16.4590751950217
30
0
41
1
10
169.046492789504
20
16.5617502416774
30
0
41
1
10
169.021508530664
20
16.6110990855217
30
0
41
1
10
168.963129941369
20
16.7027463132534
30
0
41
1
10
168.929265073893
20
16.7457460309983
30
0
41
1
10
168.852360713473
20
16.8242340370306
30
0
41
1
10
168.810534441195
20
16.8589254115884
30
0
41
1
10
168.720536207716
20
16.919745986521
30
0
41
1
10
168.671603773937
20
16.9458262480036
30
0
41
1
10
168.57078167885
20
16.9868805550464
30
0
41
1
10
168.518814685858
20
17.0023790506891
30
0
41
1
10
168.438392420834
20
17.017638266303
30
0
41
1
10
168.411055906968
20
17.0213284900235
30
0
41
1
10
168.35653437745
20
17.0260794794307
30
0
41
1
10
168.329248349238
20
17.0266709089831
30
0
41
1
10
168.247383387402
20
17.0279595412404
30
0
41
1
10
168.19280365494
20
17.0286003310222
30
0
41
1
10
168.138215030586
20
17.0286131895244
30
0
0
SPLINE
5
2A9
100
AcDbEntity
8
1
62
256
6
ByLayer
370
13
48
1
60
0
100
AcDbSpline
70
4
71
2
72
6
73
3
40
0
40
0
40
0
40
1
40
1
40
1
41
0.998811969635695
10
154.674189840503
20
10.0894532553175
30
0
41
0.998332076502118
10
154.667747964911
20
10.1241080430834
30
0
41
1
10
154.664528346529
20
10.1592115105039
30
0
0
SPLINE
5
2AA
100
AcDbEntity
8
1
62
256
6
ByLayer
370
13
48
1
60
0
100
AcDbSpline
70
4
71
3
72
20
73
16
40
0
40
0
40
0
40
0
40
0.0625000000000244
40
0.0625000000000244
40
0.125000000000048
40
0.125000000000048
40
0.15625000000006
40
0.15625000000006
40
0.187500000000072
40
0.187500000000072
40
0.25000000000008
40
0.25000000000008
40
0.500000000000059
40
0.500000000000059
40
1
40
1
40
1
40
1
41
1
10
167.045278589438
20
15.7678709748719
30
0
41
1
10
166.957022767318
20
15.7111739471788
30
0
41
1
10
166.864731394227
20
15.6636085661931
30
0
41
1
10
166.672361695829
20
15.5860981234945
30
0
41
1
10
166.571166513747
20
15.555959143757
30
0
41
1
10
166.418727406221
20
15.5259533757879
30
0
41
1
10
166.367745127447
20
15.5183657574233
30
0
41
1
10
166.265446766018
20
15.5079523392839
30
0
41
1
10
166.214080566639
20
15.5058414705491
30
0
41
1
10
166.060104422329
20
15.4977620214966
30
0
41
1
10
165.957453660136
20
15.492375712429
30
0
41
1
10
165.444195777298
20
15.4655022536367
30
0
41
1
10
165.03359313258
20
15.4439512533887
30
0
41
1
10
163.801778273952
20
15.3793970324873
30
0
41
1
10
162.980568012474
20
15.3363662117153
30
0
41
1
10
162.159358152344
20
15.2933284266205
30
0
0
SPLINE
5
2AB
100
AcDbEntity
8
1
62
256
6
ByLayer
370
13
48
1
60
0
100
AcDbSpline
70
4
71
3
72
24
73
20
40
0
40
0
40
0
40
0
40
0.0312500000000011
40
0.0312500000000011
40
0.062500000000002
40
0.062500000000002
40
0.125000000000003
40
0.125000000000003
40
0.187500000000003
40
0.187500000000003
40
0.250000000000004
40
0.250000000000004
40
0.375000000000005
40
0.375000000000005
40
0.500000000000006
40
0.500000000000006
40
0.750000000000003
40
0.750000000000003
40
1
40
1
40
1
40
1
41
1
10
169.287728579055
20
5.35034160964142
30
0
41
1
10
169.286704709096
20
5.33649964787674
30
0
41
1
10
169.285452527494
20
5.32178372681648
30
0
41
1
10
169.282452283238
20
5.29225599387561
30
0
41
1
10
169.280672487964
20
5.27728809213835
30
0
41
1
10
169.275149626316
20
5.23642039241653
30
0
41
1
10
169.271296464763
20
5.21388981345308
30
0
41
1
10
169.264042672075
20
5.17606628459856
30
0
41
1
10
169.260561470385
20
5.16039672957581
30
0
41
1
10
169.253889247387
20
5.13284068007229
30
0
41
1
10
169.250684437942
20
5.12094112660733
30
0
41
1
10
169.241304203898
20
5.08859296405211
30
0
41
1
10
169.23539038119
20
5.07153946290325
30
0
41
1
10
169.223976024929
20
5.04208667668226
30
0
41
1
10
169.218507745318
20
5.02991237360547
30
0
41
1
10
169.202578285021
20
4.99846780821397
30
0
41
1
10
169.192583330788
20
4.98417812044983
30
0
41
1
10
169.173285781663
20
4.96299503757001
30
0
41
1
10
169.163991577698
20
4.95623312799205
30
0
41
1
10
169.154968516381
20
4.95198805151841
30
0
0
SPLINE
5
2AC
100
AcDbEntity
8
1
62
256
6
ByLayer
370
13
48
1
60
0
100
AcDbSpline
70
4
71
3
72
17
73
13
40
0
40
0
40
0
40
0
40
0.500000000000028
40
0.750000000000032
40
0.750000000000032
40
0.875000000000025
40
0.875000000000025
40
0.906250000000014
40
0.906250000000014
40
0.937500000000004
40
0.937500000000004
40
1
40
1
40
1
40
1
41
1
10
162.662306691838
20
5.6964985976291
30
0
41
1
10
163.409629469572
20
5.73566412481779
30
0
41
1
10
164.530613636174
20
5.79441241560079
30
0
41
1
10
165.651597802775
20
5.85316070638382
30
0
41
1
10
166.212089886075
20
5.88253485177532
30
0
41
1
10
166.398920509634
20
5.89232822585149
30
0
41
1
10
166.632458978841
20
5.90456460935772
30
0
41
1
10
166.679166084338
20
5.9070284242199
30
0
41
1
10
166.772580096849
20
5.91196163315073
30
0
41
1
10
166.819334673543
20
5.91309105175481
30
0
41
1
10
166.959843290114
20
5.90959564722442
30
0
41
1
10
167.053795094328
20
5.89941174826572
30
0
41
1
10
167.148048413274
20
5.88075239179835
30
0
0
SPLINE
5
2AD
100
AcDbEntity
8
1
62
256
6
ByLayer
370
13
48
1
60
0
100
AcDbSpline
70
4
71
3
72
8
73
4
40
0
40
0
40
0
40
0
40
1
40
1
40
1
40
1
41
1
10
168.138215030586
20
17.0286131895244
30
0
41
1
10
168.07184321227
20
17.0286288235907
30
0
41
1
10
168.005460690658
20
17.0278886078775
30
0
41
1
10
167.939068109188
20
17.026437980894
30
0
0
SPLINE
5
2AE
100
AcDbEntity
8
1
62
256
6
ByLayer
370
13
48
1
60
0
100
AcDbSpline
70
4
71
3
72
17
73
13
40
0
40
0
40
0
40
0
40
0.499999999999981
40
0.749999999999963
40
0.749999999999963
40
0.874999999999954
40
0.874999999999954
40
0.906249999999961
40
0.906249999999961
40
0.937499999999967
40
0.937499999999967
40
1
40
1
40
1
40
1
41
1
10
162.65632048576
20
5.54597902196249
30
0
41
1
10
163.398099980675
20
5.5848540380087
30
0
41
1
10
164.510769223048
20
5.64316656207799
30
0
41
1
10
165.62343846542
20
5.70147908614729
30
0
41
1
10
166.179773086607
20
5.73063534818195
30
0
41
1
10
166.36521798506
20
5.74035481435689
30
0
41
1
10
166.597024043885
20
5.7525022966629
30
0
41
1
10
166.643384617347
20
5.75491340730963
30
0
41
1
10
166.736108095054
20
5.75980276497919
30
0
41
1
10
166.782465904267
20
5.76213425359765
30
0
41
1
10
166.921241939427
20
5.76056256290045
30
0
41
1
10
167.013465752049
20
5.75105946061214
30
0
41
1
10
167.105387709052
20
5.73286164453449
30
0
0
SPLINE
5
2AF
100
AcDbEntity
8
1
62
256
6
ByLayer
370
13
48
1
60
0
100
AcDbSpline
70
4
71
1
72
4
73
2
40
0
40
0
40
1
40
1
41
1
10
154.850783263238
20
10.144559382388
30
0
41
1
10
154.678256726214
20
10.1281914636914
30
0
0
SPLINE
5
2B0
100
AcDbEntity
8
1
62
256
6
ByLayer
370
13
48
1
60
0
100
AcDbSpline
70
4
71
3
72
22
73
18
40
0
40
0
40
0
40
0
40
0.0312500000000006
40
0.0312500000000006
40
0.0625000000000012
40
0.0625000000000012
40
0.124999999999986
40
0.124999999999986
40
0.156249999999979
40
0.156249999999979
40
0.187499999999972
40
0.187499999999972
40
0.249999999999974
40
0.249999999999974
40
0.499999999999983
40
0.499999999999983
40
1
40
1
40
1
40
1
41
1
10
157.843074857694
20
5.0948631095896
30
0
41
1
10
157.885568585671
20
5.12216179667959
30
0
41
1
10
157.929874706295
20
5.14757883250522
30
0
41
1
10
158.020412702677
20
5.19358733459848
30
0
41
1
10
158.066507918112
20
5.21414249861382
30
0
41
1
10
158.207191792473
20
5.26869912278369
30
0
41
1
10
158.304149312577
20
5.29567876485439
30
0
41
1
10
158.45456775408
20
5.32138002162586
30
0
41
1
10
158.505122804709
20
5.32749641075284
30
0
41
1
10
158.606290037072
20
5.33426543098454
30
0
41
1
10
158.656946077609
20
5.33636999909444
30
0
41
1
10
158.808819298555
20
5.34436086495589
30
0
41
1
10
158.910070571243
20
5.34964465631586
30
0
41
1
10
159.416321352504
20
5.37616226583864
30
0
41
1
10
159.821319929109
20
5.39741255452731
30
0
41
1
10
161.036320107019
20
5.46108481022182
30
0
41
1
10
161.846320468475
20
5.50352871983742
30
0
41
1
10
162.65632048576
20
5.54597902196252
30
0
0
SPLINE
5
2B1
100
AcDbEntity
8
1
62
256
6
ByLayer
370
13
48
1
60
0
100
AcDbSpline
70
4
71
3
72
22
73
18
40
0
40
0
40
0
40
0
40
0.124999999999987
40
0.124999999999987
40
0.249999999999974
40
0.249999999999974
40
0.37499999999996
40
0.37499999999996
40
0.499999999999947
40
0.499999999999947
40
0.624999999999934
40
0.624999999999934
40
0.687499999999954
40
0.687499999999954
40
0.749999999999974
40
0.749999999999974
40
1
40
1
40
1
40
1
41
1
10
155.687398411918
20
4.63684768605418
30
0
41
1
10
155.696861960295
20
4.57402520448434
30
0
41
1
10
155.713308019716
20
4.51323179292072
30
0
41
1
10
155.761568032344
20
4.39611077473745
30
0
41
1
10
155.792729708941
20
4.34115629379028
30
0
41
1
10
155.866352742652
20
4.23986072590336
30
0
41
1
10
155.910090808482
20
4.1930428748928
30
0
41
1
10
156.005676618732
20
4.11206222703311
30
0
41
1
10
156.057707463858
20
4.07716902486152
30
0
41
1
10
156.170825615199
20
4.02009203669846
30
0
41
1
10
156.229599511334
20
3.99871161773245
30
0
41
1
10
156.320886900294
20
3.97674566484091
30
0
41
1
10
156.351971541121
20
3.97115419897293
30
0
41
1
10
156.41475130598
20
3.96370066945047
30
0
41
1
10
156.446171868519
20
3.96214048541518
30
0
41
1
10
156.603341667878
20
3.95907005716029
30
0
41
1
10
156.729113987874
20
3.95918991031613
30
0
41
1
10
156.854923535964
20
3.96193875244885
30
0
0
SPLINE
5
2B2
100
AcDbEntity
8
1
62
256
6
ByLayer
370
13
48
1
60
0
100
AcDbSpline
70
4
71
3
72
17
73
13
40
0
40
0
40
0
40
0
40
0.500000000000018
40
0.750000000000028
40
0.750000000000028
40
0.875000000000041
40
0.875000000000041
40
0.906250000000036
40
0.906250000000036
40
0.93750000000003
40
0.93750000000003
40
1
40
1
40
1
40
1
41
1
10
162.159358152344
20
15.2933284266206
30
0
41
1
10
161.41203537461
20
15.2541628994319
30
0
41
1
10
160.291051208008
20
15.1954146086489
30
0
41
1
10
159.170067041407
20
15.1366663178659
30
0
41
1
10
158.609574958107
20
15.1072921724744
30
0
41
1
10
158.422744334548
20
15.0974987983982
30
0
41
1
10
158.189205865341
20
15.085262414892
30
0
41
1
10
158.142498759844
20
15.0827986000298
30
0
41
1
10
158.049084747333
20
15.0778653910989
30
0
41
1
10
158.002330170638
20
15.0767359724949
30
0
41
1
10
157.861821554068
20
15.0802313770253
30
0
41
1
10
157.767869749854
20
15.090415275984
30
0
41
1
10
157.673616430907
20
15.1090746324513
30
0
0
SPLINE
5
2B3
100
AcDbEntity
8
1
62
256
6
ByLayer
370
13
48
1
60
0
100
AcDbSpline
70
4
71
2
72
6
73
3
40
0
40
0
40
0
40
1
40
1
40
1
41
1
10
154.844062250779
20
10.0296696115503
30
0
41
0.997409491337352
10
154.843297368135
20
10.0873597452383
30
0
41
1
10
154.850783263238
20
10.144559382388
30
0
0
SPLINE
5
2B4
100
AcDbEntity
8
1
62
256
6
ByLayer
370
13
48
1
60
0
100
AcDbSpline
70
4
71
2
72
6
73
3
40
0
40
0
40
0
40
1
40
1
40
1
41
0.998811969635695
10
154.674189840503
20
10.0894532553171
30
0
41
0.998332076502117
10
154.67140566589
20
10.0543149507482
30
0
41
1
10
154.671872996418
20
10.0190672420333
30
0
0
SPLINE
5
2B5
100
AcDbEntity
8
1
62
256
6
ByLayer
370
13
48
1
60
0
100
AcDbSpline
70
4
71
3
72
20
73
16
40
0
40
0
40
0
40
0
40
0.0625000000000094
40
0.0625000000000094
40
0.125000000000019
40
0.125000000000019
40
0.156250000000024
40
0.156250000000024
40
0.187500000000028
40
0.187500000000028
40
0.250000000000021
40
0.250000000000021
40
0.500000000000008
40
0.500000000000008
40
1
40
1
40
1
40
1
41
1
10
157.776386254744
20
5.22195604937784
30
0
41
1
10
157.864642076864
20
5.27865307707086
30
0
41
1
10
157.956933449955
20
5.32621845805664
30
0
41
1
10
158.149303148353
20
5.40372890075523
30
0
41
1
10
158.250498330435
20
5.43386788049267
30
0
41
1
10
158.402937437961
20
5.4638736484618
30
0
41
1
10
158.453919716735
20
5.47146126682634
30
0
41
1
10
158.556218078164
20
5.48187468496579
30
0
41
1
10
158.607584277543
20
5.48398555370056
30
0
41
1
10
158.761560421853
20
5.49206500275315
30
0
41
1
10
158.864211184046
20
5.49745131182073
30
0
41
1
10
159.377469066884
20
5.52432477061302
30
0
41
1
10
159.788071711602
20
5.54587577086099
30
0
41
1
10
161.01988657023
20
5.61042999176235
30
0
41
1
10
161.841096831708
20
5.65346081253435
30
0
41
1
10
162.662306691838
20
5.69649859762913
30
0
0
SPLINE
5
2B6
100
AcDbEntity
8
1
62
256
6
ByLayer
370
13
48
1
60
0
100
AcDbSpline
70
4
71
3
72
11
73
7
40
0
40
0
40
0
40
0
40
0.25
40
0.5
40
0.75
40
1
40
1
40
1
40
1
41
1
10
155.778155188844
20
16.3891115406844
30
0
41
1
10
155.793611087492
20
16.3903914986211
30
0
41
1
10
155.824559680175
20
16.3924732686942
30
0
41
1
10
155.871003624843
20
16.395237436537
30
0
41
1
10
155.917442076374
20
16.3980951227751
30
0
41
1
10
155.948401654339
20
16.3999898559968
30
0
41
1
10
155.963881443428
20
16.4009372226141
30
0
0
SPLINE
5
2B7
100
AcDbEntity
8
1
62
256
6
ByLayer
370
13
48
1
60
0
100
AcDbSpline
70
4
71
2
72
6
73
3
40
0
40
0
40
0
40
1
40
1
40
1
41
1
10
154.844062250779
20
10.0296696115503
30
0
41
0.997409491337352
10
154.844827133424
20
9.9719794778608
30
0
41
1
10
154.853826962868
20
9.91499287338868
30
0
0
SPLINE
5
2B8
100
AcDbEntity
8
1
62
256
6
ByLayer
370
13
48
1
60
0
100
AcDbSpline
70
4
71
3
72
17
73
13
40
0
40
0
40
0
40
0
40
0.5
40
0.749999999999991
40
0.749999999999991
40
0.874999999999986
40
0.874999999999986
40
0.906249999999994
40
0.906249999999994
40
0.937500000000002
40
0.937500000000002
40
1
40
1
40
1
40
1
41
1
10
162.137671159392
20
15.4423977113803
30
0
41
1
10
161.395891664477
20
15.4035226953342
30
0
41
1
10
160.283222422104
20
15.3452101712648
30
0
41
1
10
159.170553179732
20
15.2868976471956
30
0
41
1
10
158.614218558545
20
15.2577413851609
30
0
41
1
10
158.428773660092
20
15.248021918986
30
0
41
1
10
158.196967601267
20
15.23587443668
30
0
41
1
10
158.150607027805
20
15.2334633260333
30
0
41
1
10
158.057883550098
20
15.2285739683637
30
0
41
1
10
158.011525740885
20
15.2262424797452
30
0
41
1
10
157.872749705725
20
15.2278141704424
30
0
41
1
10
157.780525893103
20
15.2373172727306
30
0
41
1
10
157.6886039361
20
15.2555150888084
30
0
0
SPLINE
5
2B9
100
AcDbEntity
8
1
62
256
6
ByLayer
370
13
48
1
60
0
100
AcDbSpline
70
4
71
2
72
6
73
3
40
0
40
0
40
0
40
1
40
1
40
1
41
1
10
169.949929394373
20
10.9587071217926
30
0
41
0.997409491337352
10
169.949164511728
20
11.0163972554821
30
0
41
1
10
169.940164682284
20
11.0733838599542
30
0
0
SPLINE
5
2BA
100
AcDbEntity
8
1
62
256
6
ByLayer
370
13
48
1
60
0
100
AcDbSpline
70
4
71
3
72
10
73
6
40
0
40
0
40
0
40
0
40
0.5
40
0.5
40
1
40
1
40
1
40
1
41
1
10
157.644777860096
20
4.98001167642343
30
0
41
1
10
157.641098456484
20
4.97981884705101
30
0
41
1
10
157.620775971729
20
4.97988408344284
30
0
41
1
10
157.55955053743
20
4.98039559940023
30
0
41
1
10
157.518639913175
20
4.98083099037353
30
0
41
1
10
157.479408505603
20
4.98128652023715
30
0
0
SPLINE
5
2BB
100
AcDbEntity
8
1
62
256
6
ByLayer
370
13
48
1
60
0
100
AcDbSpline
70
4
71
2
72
6
73
3
40
0
40
0
40
0
40
1
40
1
40
1
41
1
10
154.662366788626
20
10.2685061734446
30
0
41
0.997409491337352
10
154.659523222444
20
10.2137823289565
30
0
41
1
10
154.664528346529
20
10.1592115105039
30
0
0
SPLINE
5
2BC
100
AcDbEntity
8
1
62
256
6
ByLayer
370
13
48
1
60
0
100
AcDbSpline
70
4
71
3
72
11
73
7
40
0
40
0
40
0
40
0
40
0.25
40
0.5
40
0.75
40
1
40
1
40
1
40
1
41
1
10
156.854923535964
20
3.96193875244882
30
0
41
1
10
156.870428557618
20
3.96228138758966
30
0
41
1
10
156.901425214899
20
3.96344603050434
30
0
41
1
10
156.947903668995
20
3.96555171922645
30
0
41
1
10
156.994386435381
20
3.96756382766759
30
0
41
1
10
157.02537446709
20
3.96891563110091
30
0
41
1
10
157.040868483051
20
3.96959153282219
30
0
0
SPLINE
5
2BD
100
AcDbEntity
8
1
62
256
6
ByLayer
370
13
48
1
60
0
100
AcDbSpline
70
4
71
3
72
11
73
7
40
0
40
0
40
0
40
0
40
0.25
40
0.5
40
0.75
40
1
40
1
40
1
40
1
41
1
10
167.939068109188
20
17.026437980894
30
0
41
1
10
167.923563087534
20
17.0260953457532
30
0
41
1
10
167.892566430253
20
17.0249307028385
30
0
41
1
10
167.846087976157
20
17.0228250141164
30
0
41
1
10
167.799605209771
20
17.0208129056753
30
0
41
1
10
167.768617178062
20
17.019461102242
30
0
41
1
10
167.753123162101
20
17.0187852005207
30
0
0
SPLINE
5
2BE
100
AcDbEntity
8
1
62
256
6
ByLayer
370
13
48
1
60
0
100
AcDbSpline
70
4
71
2
72
6
73
3
40
0
40
0
40
0
40
1
40
1
40
1
41
1
10
154.678256726214
20
10.1281914636914
30
0
41
0.999077414835235
10
154.675728713195
20
10.1088749457016
30
0
41
0.998811969635695
10
154.674189840503
20
10.0894532553171
30
0
0
SPLINE
5
2BF
100
AcDbEntity
8
1
62
256
6
ByLayer
370
13
48
1
60
0
100
AcDbSpline
70
4
71
1
72
4
73
2
40
0
40
0
40
1
40
1
41
1
10
154.853826962868
20
9.91499287338868
30
0
41
1
10
154.681147682917
20
9.91014536236617
30
0
0
SPLINE
5
2C0
100
AcDbEntity
8
SK1
62
256
6
ByLayer
370
13
48
1
60
0
100
AcDbSpline
70
4
71
3
72
8
73
4
40
0
40
0
40
0
40
0
40
1
40
1
40
1
40
1
41
1
10
-67.6338131992796
20
8.29060335030476
30
0
41
1
10
-67.2944948862475
20
8.56766102093468
30
0
41
1
10
-66.9495650728325
20
8.83793743673166
30
0
41
1
10
-66.6000022063887
20
9.10261500888626
30
0
0
SPLINE
5
2C1
100
AcDbEntity
8
SK1
62
256
6
ByLayer
370
13
48
1
60
0
100
AcDbSpline
70
4
71
3
72
70
73
66
40
0
40
0
40
0
40
0
40
0.015625
40
0.015625
40
0.0312500000000001
40
0.0312500000000001
40
0.0468750000000001
40
0.0468750000000001
40
0.0625000000000002
40
0.0625000000000002
40
0.0781250000000002
40
0.0781250000000002
40
0.0937500000000002
40
0.0937500000000002
40
0.125
40
0.125
40
0.140625
40
0.140625
40
0.15625
40
0.15625
40
0.1875
40
0.1875
40
0.25
40
0.25
40
0.28125
40
0.28125
40
0.3125
40
0.3125
40
0.375
40
0.375
40
0.4375
40
0.4375
40
0.5
40
0.5
40
0.5625
40
0.5625
40
0.59375
40
0.59375
40
0.625
40
0.625
40
0.6875
40
0.6875
40
0.75
40
0.75
40
0.78125
40
0.78125
40
0.8125
40
0.8125
40
0.84375
40
0.84375
40
0.875
40
0.875
40
0.90625
40
0.90625
40
0.921875
40
0.921875
40
0.9375
40
0.9375
40
0.953125
40
0.953125
40
0.96875
40
0.96875
40
0.984375
40
0.984375
40
1
40
1
40
1
40
1
41
1
10
-6.50000000009538
20
9.10261500888618
30
0
41
1
10
-6.38737485512922
20
9.1026150088932
30
0
41
1
10
-6.27721440025223
20
9.09029369099659
30
0
41
1
10
-6.0613636277516
20
9.04323422380682
30
0
41
1
10
-5.95503984638168
20
9.0079756276379
30
0
41
1
10
-5.7551214099729
20
8.92022913512542
30
0
41
1
10
-5.66004837762688
20
8.86741358852154
30
0
41
1
10
-5.47992014745202
20
8.74769988825136
30
0
41
1
10
-5.39641097128506
20
8.68193245792781
30
0
41
1
10
-5.23955455947049
20
8.54101721258675
30
0
41
1
10
-5.16623380692405
20
8.4658464043282
30
0
41
1
10
-5.02798749993249
20
8.30754690558993
30
0
41
1
10
-4.96306756616258
20
8.22430232171715
30
0
41
1
10
-4.78227303428739
20
7.96913620185182
30
0
41
1
10
-4.6786178522832
20
7.79021273110939
30
0
41
1
10
-4.54045696768523
20
7.51196302988765
30
0
41
1
10
-4.49735015796676
20
7.4175428463376
30
0
41
1
10
-4.41619750727807
20
7.22570350524146
30
0
41
1
10
-4.37807582127729
20
7.12805793071107
30
0
41
1
10
-4.27101040197243
20
6.8329347652097
30
0
41
1
10
-4.20926968038492
20
6.63342457544303
30
0
41
1
10
-4.0452314228167
20
6.02794589486371
30
0
41
1
10
-3.96376841865313
20
5.61509125673697
30
0
41
1
10
-3.86635044633076
20
4.98491154714242
30
0
41
1
10
-3.83813392781772
20
4.77301296087188
30
0
41
1
10
-3.78843459914702
20
4.34583232970297
30
0
41
1
10
-3.76694967433093
20
4.13034331603052
30
0
41
1
10
-3.71092724378033
20
3.48419995481069
30
0
41
1
10
-3.68445814337733
20
3.05221472734811
30
0
41
1
10
-3.64489223558414
20
2.18603867811205
30
0
41
1
10
-3.63184735027673
20
1.75184658678651
30
0
41
1
10
-3.61484709816497
20
0.88137274435141
30
0
41
1
10
-3.61090691638444
20
0.445090670727808
30
0
41
1
10
-3.61081183099836
20
-0.429544754978423
30
0
41
1
10
-3.61465206561212
20
-0.867897875286985
30
0
41
1
10
-3.62742391003746
20
-1.52704012585428
30
0
41
1
10
-3.6328856781081
20
-1.74736793829624
30
0
41
1
10
-3.64660759107323
20
-2.18617039208055
30
0
41
1
10
-3.65486548614163
20
-2.40477290161152
30
0
41
1
10
-3.68476512689929
20
-3.05812562975754
30
0
41
1
10
-3.71139513941523
20
-3.49043386677977
30
0
41
1
10
-3.7858892130148
20
-4.3479397579712
30
0
41
1
10
-3.83363504443875
20
-4.77314633439445
30
0
41
1
10
-3.93125050047647
20
-5.40480591630586
30
0
41
1
10
-3.96825658176709
20
-5.6147159399498
30
0
41
1
10
-4.05334160699206
20
-6.03027097921884
30
0
41
1
10
-4.10133221047874
20
-6.2356468686169
30
0
41
1
10
-4.21147783132869
20
-6.64092561009161
30
0
41
1
10
-4.27380622007675
20
-6.84139160095842
30
0
41
1
10
-4.41651374865074
20
-7.23323112675126
30
0
41
1
10
-4.4964945253775
20
-7.42374327337623
30
0
41
1
10
-4.67945843004418
20
-7.79158187670348
30
0
41
1
10
-4.7823032521182
20
-7.9689701957796
30
0
41
1
10
-4.96134406177452
20
-8.2219726784019
30
0
41
1
10
-5.02519408327927
20
-8.30410886087677
30
0
41
1
10
-5.16353530738408
20
-8.46298659207028
30
0
41
1
10
-5.2378095715431
20
-8.53934452778824
30
0
41
1
10
-5.3955540056559
20
-8.68126590509502
30
0
41
1
10
-5.47938183829518
20
-8.74730497974389
30
0
41
1
10
-5.65962274296652
20
-8.86716765928176
30
0
41
1
10
-5.75457229472994
20
-8.91989407179133
30
0
41
1
10
-5.95304597128592
20
-9.00719334610281
30
0
41
1
10
-6.05703345759315
20
-9.04208374011839
30
0
41
1
10
-6.27602107391633
20
-9.09023480877454
30
0
41
1
10
-6.38714501013285
20
-9.1026150088932
30
0
41
1
10
-6.50000000009538
20
-9.10261500888618
30
0
0
SPLINE
5
2C2
100
AcDbEntity
8
SK1
62
256
6
ByLayer
370
13
48
1
60
0
100
AcDbSpline
70
4
71
3
72
24
73
20
40
0
40
0
40
0
40
0
40
0.125000000000002
40
0.125000000000002
40
0.187500000000003
40
0.187500000000003
40
0.250000000000003
40
0.250000000000003
40
0.312500000000004
40
0.312500000000004
40
0.375000000000005
40
0.375000000000005
40
0.500000000000005
40
0.500000000000005
40
0.625000000000004
40
0.625000000000004
40
0.750000000000004
40
0.750000000000004
40
1
40
1
40
1
40
1
41
1
10
-67.6338131992802
20
-8.29060335030417
30
0
41
1
10
-67.6747713759278
20
-8.25716048388816
30
0
41
1
10
-67.7199880974509
20
-8.22886033900863
30
0
41
1
10
-67.793880519716
20
-8.2008880294116
30
0
41
1
10
-67.8199292648204
20
-8.1939328764407
30
0
41
1
10
-67.8721249133958
20
-8.18635061520672
30
0
41
1
10
-67.8986618314253
20
-8.18559388534683
30
0
41
1
10
-67.9517518593081
20
-8.19047370174488
30
0
41
1
10
-67.9775498144819
20
-8.19599853062289
30
0
41
1
10
-68.0278488578996
20
-8.21240349880759
30
0
41
1
10
-68.0523670478266
20
-8.22336101159533
30
0
41
1
10
-68.1215174396824
20
-8.26159722859708
30
0
41
1
10
-68.1634030389204
20
-8.29487671382614
30
0
41
1
10
-68.2387215873517
20
-8.36859765624112
30
0
41
1
10
-68.2722140942872
20
-8.40893158874499
30
0
41
1
10
-68.3337486824602
20
-8.49414298628952
30
0
41
1
10
-68.3617871625299
20
-8.53918182565536
30
0
41
1
10
-68.4385883635459
20
-8.67748763500578
30
0
41
1
10
-68.4807188690209
20
-8.77475057942746
30
0
41
1
10
-68.5162221138916
20
-8.8730422260673
30
0
0
SPLINE
5
2C3
100
AcDbEntity
8
SK1
62
256
6
ByLayer
370
13
48
1
60
0
100
AcDbSpline
70
4
71
3
72
8
73
4
40
0
40
0
40
0
40
0
40
1
40
1
40
1
40
1
41
1
10
-68.5999993841625
20
9.10261500888626
30
0
41
1
10
-68.5718317815599
20
9.02620370178852
30
0
41
1
10
-68.5439040453543
20
8.94968036535744
30
0
41
1
10
-68.5162221139001
20
8.8730422260912
30
0
0
SPLINE
5
2C4
100
AcDbEntity
8
SK1
62
256
6
ByLayer
370
13
48
1
60
0
100
AcDbSpline
70
4
71
3
72
8
73
4
40
0
40
0
40
0
40
0
40
1
40
1
40
1
40
1
41
1
10
-69
20
-9.10261500888609
30
0
41
1
10
-69.3690731351762
20
-8.29186047254925
30
0
41
1
10
-69.7058190647956
20
-7.46686272672801
30
0
41
1
10
-70
20
-6.62311105146205
30
0
0
SPLINE
5
2C5
100
AcDbEntity
8
SK1
62
256
6
ByLayer
370
13
48
1
60
0
100
AcDbSpline
70
4
71
3
72
8
73
4
40
0
40
0
40
0
40
0
40
1
40
1
40
1
40
1
41
1
10
-66.6000022063888
20
-9.10261500888609
30
0
41
1
10
-66.9491342178767
20
-8.83826366601562
30
0
41
1
10
-67.2940480150733
20
-8.56802589686919
30
0
41
1
10
-67.6338131992802
20
-8.29060335030417
30
0
0
SPLINE
5
2C6
100
AcDbEntity
8
SK1
62
256
6
ByLayer
370
13
48
1
60
0
100
AcDbSpline
70
4
71
3
72
10
73
6
40
0
40
0
40
0
40
0
40
0.5
40
0.5
40
1
40
1
40
1
40
1
41
1
10
-70
20
6.62311105146222
30
0
41
1
10
-69.8530506944621
20
7.04458201673972
30
0
41
1
10
-69.694319575278
20
7.46427372903668
30
0
41
1
10
-69.3597590551627
20
8.29110810010306
30
0
41
1
10
-69.18366079479
20
8.69916157830215
30
0
41
1
10
-69
20
9.10261500888626
30
0
0
SPLINE
5
2C7
100
AcDbEntity
8
1
62
256
6
ByLayer
370
13
48
1
60
0
100
AcDbSpline
70
4
71
3
72
8
73
4
40
0
40
0
40
0
40
0
40
1
40
1
40
1
40
1
41
1
10
148.505108617159
20
1.41548782002619
30
0
41
1
10
149.046865360698
20
1.27371978166079
30
0
41
1
10
149.593566030934
20
1.17167079853655
30
0
41
1
10
150.144300703841
20
1.10771028324803
30
0
0
SPLINE
5
2C8
100
AcDbEntity
8
1
62
256
6
ByLayer
370
13
48
1
60
0
100
AcDbSpline
70
4
71
3
72
10
73
6
40
0
40
0
40
0
40
0
40
0.5
40
0.5
40
1
40
1
40
1
40
1
41
1
10
148.094859191649
20
7.52144925249698
30
0
41
1
10
148.193424995836
20
7.52342195060754
30
0
41
1
10
148.291830797622
20
7.52179642134703
30
0
41
1
10
148.483810605002
20
7.51133947914502
30
0
41
1
10
148.577866023198
20
7.50253887855985
30
0
41
1
10
148.670012105207
20
7.49014440823524
30
0
0
SPLINE
5
2C9
100
AcDbEntity
8
1
62
256
6
ByLayer
370
13
48
1
60
0
100
AcDbSpline
70
4
71
3
72
14
73
10
40
0
40
0
40
0
40
0
40
0.125
40
0.125
40
0.250000000000001
40
0.250000000000001
40
0.500000000000001
40
0.500000000000001
40
1
40
1
40
1
40
1
41
1
10
164.054704309831
20
5.29882606204814
30
0
41
1
10
164.087742521645
20
5.30055752136076
30
0
41
1
10
164.121413290871
20
5.30316312977462
30
0
41
1
10
164.188067960622
20
5.31003314847376
30
0
41
1
10
164.221334155679
20
5.31431241237146
30
0
41
1
10
164.320557694701
20
5.32961698970607
30
0
41
1
10
164.386107875865
20
5.34311508776804
30
0
41
1
10
164.581484355439
20
5.39364650524138
30
0
41
1
10
164.709976378917
20
5.4404803740843
30
0
41
1
10
164.838371678002
20
5.50308293304349
30
0
0
SPLINE
5
2CA
100
AcDbEntity
8
1
62
256
6
ByLayer
370
13
48
1
60
0
100
AcDbSpline
70
4
71
3
72
8
73
4
40
0
40
0
40
0
40
0
40
1
40
1
40
1
40
1
41
1
10
147.765739118384
20
6.45065981474866
30
0
41
1
10
147.76604652836
20
6.45206225291466
30
0
41
1
10
147.766399043402
20
6.45345888928696
30
0
41
1
10
147.766795625197
20
6.45484987074357
30
0
0
SPLINE
5
2CB
100
AcDbEntity
8
1
62
256
6
ByLayer
370
13
48
1
60
0
100
AcDbSpline
70
4
71
3
72
16
73
12
40
0
40
0
40
0
40
0
40
0.249999999999999
40
0.249999999999999
40
0.499999999999998
40
0.499999999999998
40
0.624999999999998
40
0.624999999999998
40
0.749999999999998
40
0.749999999999998
40
1
40
1
40
1
40
1
41
1
10
150.613874895968
20
5.90602679496223
30
0
41
1
10
150.68005552162
20
6.0582863611198
30
0
41
1
10
150.739201093421
20
6.21381044531091
30
0
41
1
10
150.83968830418
20
6.53312027892716
30
0
41
1
10
150.880957494207
20
6.69712938987567
30
0
41
1
10
150.923555695799
20
6.94465309116688
30
0
41
1
10
150.934597949807
20
7.02764437626234
30
0
41
1
10
150.949301686302
20
7.19475700226261
30
0
41
1
10
150.952956140906
20
7.27932976781045
30
0
41
1
10
150.950625516516
20
7.53140639467085
30
0
41
1
10
150.931823739137
20
7.69660124833882
30
0
41
1
10
150.889937190315
20
7.8579733207327
30
0
0
SPLINE
5
2CC
100
AcDbEntity
8
1
62
256
6
ByLayer
370
13
48
1
60
0
100
AcDbSpline
70
4
71
3
72
20
73
16
40
0
40
0
40
0
40
0
40
0.125
40
0.125
40
0.25
40
0.25
40
0.375
40
0.375
40
0.5
40
0.5
40
0.75
40
0.75
40
0.875
40
0.875
40
1
40
1
40
1
40
1
41
1
10
150.222385528506
20
5.16018826154755
30
0
41
1
10
150.201769448165
20
5.12998293814249
30
0
41
1
10
150.179473169098
20
5.10129097135004
30
0
41
1
10
150.131042689704
20
5.04738863824147
30
0
41
1
10
150.104681184634
20
5.02198586791755
30
0
41
1
10
150.048350556745
20
4.97642183132379
30
0
41
1
10
150.0186757708
20
4.95643703761124
30
0
41
1
10
149.955892326592
20
4.92291644466783
30
0
41
1
10
149.922513862112
20
4.90941558379964
30
0
41
1
10
149.82201810194
20
4.88190727809766
30
0
41
1
10
149.751624363842
20
4.88061398965652
30
0
41
1
10
149.652494453457
20
4.900936177522
30
0
41
1
10
149.620009592391
20
4.91132237334028
30
0
41
1
10
149.558173466419
20
4.93694252280775
30
0
41
1
10
149.528548089774
20
4.95219777195663
30
0
41
1
10
149.499835085362
20
4.96922399692093
30
0
0
SPLINE
5
2CD
100
AcDbEntity
8
1
62
256
6
ByLayer
370
13
48
1
60
0
100
AcDbSpline
70
4
71
3
72
18
73
14
40
0
40
0
40
0
40
0
40
0.250000000000008
40
0.250000000000008
40
0.375000000000012
40
0.375000000000012
40
0.500000000000016
40
0.500000000000016
40
0.62500000000002
40
0.62500000000002
40
0.750000000000024
40
0.750000000000024
40
1
40
1
40
1
40
1
41
1
10
146.347360080864
20
1.64962073233593
30
0
41
1
10
146.529081346495
20
1.56978952776276
30
0
41
1
10
146.713325189882
20
1.50611892491369
30
0
41
1
10
146.993636391851
20
1.43301580630643
30
0
41
1
10
147.088262453606
20
1.41233871345969
30
0
41
1
10
147.275354434133
20
1.37909097854708
30
0
41
1
10
147.367977482549
20
1.36642813073749
30
0
41
1
10
147.551543706851
20
1.3484765145366
30
0
41
1
10
147.642485934818
20
1.34319018415385
30
0
41
1
10
147.822761859632
20
1.33966747869513
30
0
41
1
10
147.912467990732
20
1.3414629221916
30
0
41
1
10
148.175952496934
20
1.35693992501325
30
0
41
1
10
148.344029911364
20
1.38047230113111
30
0
41
1
10
148.505108617159
20
1.41548782002619
30
0
0
SPLINE
5
2CE
100
AcDbEntity
8
1
62
256
6
ByLayer
370
13
48
1
60
0
100
AcDbSpline
70
2053
71
3
72
94
73
90
40
0
40
0
40
0
40
0
40
0.0312500000000203
40
0.0312500000000203
40
0.0468750000000271
40
0.0468750000000271
40
0.0625000000000338
40
0.0625000000000338
40
0.093750000000041
40
0.093750000000041
40
0.109375000000045
40
0.109375000000045
40
0.125000000000048
40
0.140625000000052
40
0.140625000000052
40
0.156250000000055
40
0.156250000000055
40
0.187500000000059
40
0.187500000000059
40
0.218750000000062
40
0.218750000000062
40
0.250000000000066
40
0.250000000000066
40
0.265625000000067
40
0.265625000000067
40
0.281250000000069
40
0.281250000000069
40
0.312500000000074
40
0.312500000000074
40
0.328125000000077
40
0.328125000000077
40
0.343750000000081
40
0.343750000000081
40
0.375000000000084
40
0.375000000000084
40
0.406250000000087
40
0.406250000000087
40
0.421875000000089
40
0.421875000000089
40
0.43750000000009
40
0.43750000000009
40
0.468750000000087
40
0.468750000000087
40
0.484375000000086
40
0.484375000000086
40
0.500000000000084
40
0.500000000000084
40
0.531250000000074
40
0.531250000000074
40
0.546875000000069
40
0.546875000000069
40
0.562500000000064
40
0.578125000000059
40
0.578125000000059
40
0.593750000000054
40
0.593750000000054
40
0.625000000000049
40
0.625000000000049
40
0.640625000000049
40
0.640625000000049
40
0.65625000000005
40
0.65625000000005
40
0.687500000000046
40
0.687500000000046
40
0.718750000000043
40
0.718750000000043
40
0.734375000000042
40
0.734375000000042
40
0.75000000000004
40
0.75000000000004
40
0.781250000000038
40
0.781250000000038
40
0.796875000000037
40
0.796875000000037
40
0.812500000000035
40
0.812500000000035
40
0.843750000000032
40
0.843750000000032
40
0.875000000000029
40
0.875000000000029
40
0.906250000000026
40
0.906250000000026
40
0.921875000000022
40
0.921875000000022
40
0.937500000000017
40
0.937500000000017
40
0.968750000000009
40
0.968750000000009
40
1
40
1
40
1
40
1
41
1
10
163.064043108074
20
-1.68135558858577
30
0
41
1
10
163.190104977524
20
-1.68135558858577
30
0
41
1
10
163.313935519717
20
-1.69435218423391
30
0
41
1
10
163.496473617497
20
-1.73251691700048
30
0
41
1
10
163.556780713003
20
-1.74837500883191
30
0
41
1
10
163.676288774448
20
-1.78652291805963
30
0
41
1
10
163.735314005453
20
-1.80880304666223
30
0
41
1
10
163.906682791309
20
-1.88371486557819
30
0
41
1
10
164.014733629161
20
-1.94474329309563
30
0
41
1
10
164.167550440357
20
-2.05279245073524
30
0
41
1
10
164.21714383357
20
-2.09179459157295
30
0
41
1
10
164.311151454343
20
-2.17375814241868
30
0
41
1
10
164.400413059157
20
-2.25991248586047
30
0
41
1
10
164.4804541738
20
-2.35417897200151
30
0
41
1
10
164.55588962151
20
-2.45248257209525
30
0
41
1
10
164.591448224521
20
-2.50389068042958
30
0
41
1
10
164.689991466562
20
-2.66260631401102
30
0
41
1
10
164.744276568476
20
-2.77309292396276
30
0
41
1
10
164.831287180239
20
-3.00278486769128
30
0
41
1
10
164.864094112148
20
-3.12319759601138
30
0
41
1
10
164.905988396227
20
-3.36438463001082
30
0
41
1
10
164.915510223351
20
-3.48565950852193
30
0
41
1
10
164.913038298524
20
-3.66854143493515
30
0
41
1
10
164.909361533524
20
-3.72996456236396
30
0
41
1
10
164.89645071115
20
-3.85131577046616
30
0
41
1
10
164.887252128658
20
-3.91126647349276
30
0
41
1
10
164.851671762316
20
-4.08901681131309
30
0
41
1
10
164.817380312418
20
-4.20473203679967
30
0
41
1
10
164.749696473542
20
-4.37409778862465
30
0
41
1
10
164.724383543868
20
-4.42981011962632
30
0
41
1
10
164.669265861873
20
-4.53761416497576
30
0
41
1
10
164.639354462603
20
-4.58999495506453
30
0
41
1
10
164.542594015674
20
-4.7426301633667
30
0
41
1
10
164.468797550176
20
-4.83842543469117
30
0
41
1
10
164.301052972617
20
-5.01732226984223
30
0
41
1
10
164.209284877825
20
-5.09796902257972
30
0
41
1
10
164.061077906389
20
-5.20450610638568
30
0
41
1
10
164.009832561831
20
-5.23767199092396
30
0
41
1
10
163.903481188192
20
-5.29912161712841
30
0
41
1
10
163.848081454704
20
-5.32753493803034
30
0
41
1
10
163.677698480424
20
-5.40399732860015
30
0
41
1
10
163.560437907781
20
-5.44267019204256
30
0
41
1
10
163.378984134395
20
-5.4821848943871
30
0
41
1
10
163.317565943044
20
-5.4922516953412
30
0
41
1
10
163.192768123718
20
-5.50587572115808
30
0
41
1
10
163.129675081259
20
-5.50935096152327
30
0
41
1
10
162.942480982427
20
-5.5096949298763
30
0
41
1
10
162.818873553789
20
-5.49678110869024
30
0
41
1
10
162.63524382601
20
-5.45766133510017
30
0
41
1
10
162.574381574228
20
-5.44126142924043
30
0
41
1
10
162.456204009872
20
-5.40270790551014
30
0
41
1
10
162.340794732352
20
-5.35825834522262
30
0
41
1
10
162.230721890216
20
-5.30239152855083
30
0
41
1
10
162.123298500186
20
-5.24082515510338
30
0
41
1
10
162.070967238621
20
-5.20717498981779
30
0
41
1
10
161.921126114009
20
-5.09997651219484
30
0
41
1
10
161.829513057132
20
-5.01960549402057
30
0
41
1
10
161.703890300119
20
-4.88616476553705
30
0
41
1
10
161.663891360731
20
-4.83934541418171
30
0
41
1
10
161.589259296327
20
-4.74311461045212
30
0
41
1
10
161.554442400433
20
-4.69353519204032
30
0
41
1
10
161.457224985442
20
-4.54051957847457
30
0
41
1
10
161.401911014903
20
-4.43265154757245
30
0
41
1
10
161.311093538541
20
-4.20600122805681
30
0
41
1
10
161.276706716931
20
-4.09010536702573
30
0
41
1
10
161.241040234465
20
-3.91247934567286
30
0
41
1
10
161.231823071376
20
-3.85263631240466
30
0
41
1
10
161.218857672262
20
-3.73164614268401
30
0
41
1
10
161.215114460362
20
-3.6701764019659
30
0
41
1
10
161.212502092252
20
-3.4866549731122
30
0
41
1
10
161.222016572052
20
-3.36543116367258
30
0
41
1
10
161.253154153081
20
-3.18530830736597
30
0
41
1
10
161.266362583593
20
-3.12555510316471
30
0
41
1
10
161.298668804044
20
-3.00665813916845
30
0
41
1
10
161.317866731935
20
-2.94733604074682
30
0
41
1
10
161.383257109633
20
-2.77422672951755
30
0
41
1
10
161.437428985175
20
-2.66402531562807
30
0
41
1
10
161.567222828018
20
-2.45429117526416
30
0
41
1
10
161.643887448502
20
-2.35387429251895
30
0
41
1
10
161.813423263175
20
-2.17282928144496
30
0
41
1
10
161.906550652661
20
-2.09129380902212
30
0
41
1
10
162.059124987987
20
-1.98292705092444
30
0
41
1
10
162.112459193056
20
-1.94899093647515
30
0
41
1
10
162.221317006138
20
-1.88734654180203
30
0
41
1
10
162.276983259344
20
-1.85949226619178
30
0
41
1
10
162.447624727951
20
-1.78468140491779
30
0
41
1
10
162.566543960368
20
-1.74631270098271
30
0
41
1
10
162.813140284108
20
-1.69437610514862
30
0
41
1
10
162.937981238624
20
-1.68135558858577
30
0
41
1
10
163.064043108074
20
-1.68135558858577
30
0
0
SPLINE
5
2CF
100
AcDbEntity
8
1
62
256
6
ByLayer
370
13
48
1
60
0
100
AcDbSpline
70
4
71
3
72
12
73
8
40
0
40
0
40
0
40
0
40
0.249999999999992
40
0.249999999999992
40
0.499999999999984
40
0.499999999999984
40
1
40
1
40
1
40
1
41
1
10
149.131218076117
20
7.56627981200131
30
0
41
1
10
149.288243372833
20
7.57508715668013
30
0
41
1
10
149.440829679773
20
7.59006840045683
30
0
41
1
10
149.740806002045
20
7.62787837518204
30
0
41
1
10
149.888144675086
20
7.65074320267661
30
0
41
1
10
150.324930217645
20
7.72757192628279
30
0
41
1
10
150.609263820545
20
7.78960393019756
30
0
41
1
10
150.889937190314
20
7.85797332073292
30
0
0
SPLINE
5
2D0
100
AcDbEntity
8
1
62
256
6
ByLayer
370
13
48
1
60
0
100
AcDbSpline
70
4
71
3
72
18
73
14
40
0
40
0
40
0
40
0
40
0.25
40
0.25
40
0.375000000000001
40
0.375000000000001
40
0.500000000000002
40
0.500000000000002
40
0.750000000000001
40
0.750000000000001
40
0.875000000000001
40
0.875000000000001
40
1
40
1
40
1
40
1
41
1
10
6.05499576551961
20
-18.4923088065477
30
0
41
1
10
5.95175347117504
20
-18.7002778535844
30
0
41
1
10
5.8731860469168
20
-18.9050224886234
30
0
41
1
10
5.79299637378261
20
-19.2070333777299
30
0
41
1
10
5.77258714951256
20
-19.3068505445562
30
0
41
1
10
5.74510611491931
20
-19.504701194011
30
0
41
1
10
5.73822762675607
20
-19.6015496146577
30
0
41
1
10
5.73818256336358
20
-19.8843108423073
30
0
41
1
10
5.76510844380081
20
-20.063261908512
30
0
41
1
10
5.8446561666307
20
-20.3176948170047
30
0
41
1
10
5.87785846968791
20
-20.4003910573444
30
0
41
1
10
5.95713020719163
20
-20.5599318097928
30
0
41
1
10
6.00297953956073
20
-20.6364352304322
30
0
41
1
10
6.05491936047471
20
-20.7097584715901
30
0
0
SPLINE
5
2D1
100
AcDbEntity
8
1
62
256
6
ByLayer
370
13
48
1
60
0
100
AcDbSpline
70
4
71
3
72
8
73
4
40
0
40
0
40
0
40
0
40
1
40
1
40
1
40
1
41
1
10
145.973165896085
20
15.598188205026
30
0
41
1
10
146.677270507395
20
14.3040571675287
30
0
41
1
10
147.49276359334
20
13.0825296683143
30
0
41
1
10
148.448513328235
20
11.9524221208937
30
0
0
SPLINE
5
2D2
100
AcDbEntity
8
1
62
256
6
ByLayer
370
13
48
1
60
0
100
AcDbSpline
70
4
71
3
72
14
73
10
40
0
40
0
40
0
40
0
40
0.5
40
0.5
40
0.625000000000001
40
0.625000000000001
40
0.750000000000002
40
0.750000000000002
40
1
40
1
40
1
40
1
41
1
10
29.1961536012778
20
-16.5384491897455
30
0
41
1
10
28.6762142796989
20
-16.5652016481114
30
0
41
1
10
28.1679011947442
20
-16.6118859075855
30
0
41
1
10
27.5463078431659
20
-16.6899116049176
30
0
41
1
10
27.4226878314308
20
-16.7064779950375
30
0
41
1
10
27.1768623172946
20
-16.7413019416698
30
0
41
1
10
27.054961116477
20
-16.7595227476325
30
0
41
1
10
26.6965810309462
20
-16.81542636426
30
0
41
1
10
26.4657192574469
20
-16.8546041070785
30
0
41
1
10
26.2427097536581
20
-16.8940046072284
30
0
0
SPLINE
5
2D3
100
AcDbEntity
8
1
62
256
6
ByLayer
370
13
48
1
60
0
100
AcDbSpline
70
4
71
3
72
8
73
4
40
0
40
0
40
0
40
0
40
1
40
1
40
1
40
1
41
1
10
145.91379251877
20
1.84444552299433
30
0
41
1
10
144.886507765186
20
2.31687500129649
30
0
41
1
10
143.862455272669
20
2.80091226076743
30
0
41
1
10
142.841354488425
20
3.29554977281583
30
0
0
SPLINE
5
2D4
100
AcDbEntity
8
1
62
256
6
ByLayer
370
13
48
1
60
0
100
AcDbSpline
70
4
71
3
72
8
73
4
40
0
40
0
40
0
40
0
40
1
40
1
40
1
40
1
41
1
10
145.973165896081
20
15.5981882050206
30
0
41
1
10
146.077290885053
20
15.7794810424067
30
0
41
1
10
146.1797342224
20
15.9617161378077
30
0
41
1
10
146.280600655594
20
16.1448347994323
30
0
0
SPLINE
5
2D5
100
AcDbEntity
8
1
62
256
6
ByLayer
370
13
48
1
60
0
100
AcDbSpline
70
4
71
3
72
8
73
4
40
0
40
0
40
0
40
0
40
1
40
1
40
1
40
1
41
1
10
147.629440350991
20
5.87013284131939
30
0
41
1
10
147.678453978424
20
6.06312870501063
30
0
41
1
10
147.723230700655
20
6.2567317319249
30
0
41
1
10
147.765739118384
20
6.45065981474861
30
0
0
SPLINE
5
2D6
100
AcDbEntity
8
1
62
256
6
ByLayer
370
13
48
1
60
0
100
AcDbSpline
70
4
71
3
72
26
73
22
40
0
40
0
40
0
40
0
40
0.249999999999988
40
0.249999999999988
40
0.312499999999987
40
0.312499999999987
40
0.374999999999986
40
0.374999999999986
40
0.499999999999993
40
0.499999999999993
40
0.562499999999997
40
0.562499999999997
40
0.625
40
0.625
40
0.750000000000007
40
0.750000000000007
40
0.875000000000013
40
0.875000000000013
40
0.937500000000007
40
0.937500000000007
40
1
40
1
40
1
40
1
41
1
10
150.222385528506
20
5.16018826154769
30
0
41
1
10
150.222856324443
20
5.37121465179573
30
0
41
1
10
150.186153870855
20
5.58158606279136
30
0
41
1
10
150.0954854834
20
5.84583649271733
30
0
41
1
10
150.075052401334
20
5.89879618901853
30
0
41
1
10
150.030342238299
20
6.00348612623506
30
0
41
1
10
150.006006044147
20
6.05541118207495
30
0
41
1
10
149.927337639327
20
6.21021514498392
30
0
41
1
10
149.867436175724
20
6.31218924035292
30
0
41
1
10
149.766468742836
20
6.46389505321741
30
0
41
1
10
149.730937972451
20
6.51423792110705
30
0
41
1
10
149.655923292669
20
6.61442783174039
30
0
41
1
10
149.616395346819
20
6.66429510626548
30
0
41
1
10
149.493592091133
20
6.81069508236746
30
0
41
1
10
149.405515738313
20
6.90480540058164
30
0
41
1
10
149.217112552015
20
7.08657410629738
30
0
41
1
10
149.116917014288
20
7.17444798594704
30
0
41
1
10
148.956061023938
20
7.30010240064433
30
0
41
1
10
148.900361478248
20
7.34107802285035
30
0
41
1
10
148.786930196656
20
7.41873239434679
30
0
41
1
10
148.729069635959
20
7.45552416666331
30
0
41
1
10
148.670012105205
20
7.49014440823387
30
0
0
SPLINE
5
2D7
100
AcDbEntity
8
1
62
256
6
ByLayer
370
13
48
1
60
0
100
AcDbSpline
70
4
71
3
72
10
73
6
40
0
40
0
40
0
40
0
40
0.5
40
0.5
40
1
40
1
40
1
40
1
41
1
10
157.72717713936
20
4.87505724139578
30
0
41
1
10
157.784991364585
20
4.87076975862828
30
0
41
1
10
157.842493719981
20
4.86339916316646
30
0
41
1
10
157.954957631594
20
4.84462698976472
30
0
41
1
10
158.007827418817
20
4.83363641305201
30
0
41
1
10
158.056798085537
20
4.82368281975215
30
0
0
SPLINE
5
2D8
100
AcDbEntity
8
1
62
256
6
ByLayer
370
13
48
1
60
0
100
AcDbSpline
70
4
71
3
72
8
73
4
40
0
40
0
40
0
40
0
40
1
40
1
40
1
40
1
41
1
10
148.777019525219
20
7.50650853063638
30
0
41
1
10
148.742906932237
20
7.49704490127692
30
0
41
1
10
148.706780325467
20
7.49178183245286
30
0
41
1
10
148.670012105208
20
7.49014440823632
30
0
0
SPLINE
5
2D9
100
AcDbEntity
8
1
62
256
6
ByLayer
370
13
48
1
60
0
100
AcDbSpline
70
4
71
3
72
8
73
4
40
0
40
0
40
0
40
0
40
1
40
1
40
1
40
1
41
1
10
30.45
20
-15.9321107839772
30
0
41
1
10
30.3033333092946
20
-15.9322829233349
30
0
41
1
10
30.1566666402602
20
-15.9324692745716
30
0
41
1
10
30.01
20
-15.9326705319022
30
0
0
SPLINE
5
2DA
100
AcDbEntity
8
1
62
256
6
ByLayer
370
13
48
1
60
0
100
AcDbSpline
70
4
71
3
72
8
73
4
40
0
40
0
40
0
40
0
40
1
40
1
40
1
40
1
41
1
10
151.785868594972
20
4.53351161452707
30
0
41
1
10
152.442533160456
20
4.34640704383051
30
0
41
1
10
153.077123886887
20
4.16724295821288
30
0
41
1
10
153.686500387111
20
3.99714902964797
30
0
0
SPLINE
5
2DB
100
AcDbEntity
8
1
62
256
6
ByLayer
370
13
48
1
60
0
100
AcDbSpline
70
4
71
3
72
8
73
4
40
0
40
0
40
0
40
0
40
1
40
1
40
1
40
1
41
1
10
166.970195310145
20
5.4479116844276
30
0
41
1
10
166.969223846156
20
5.44910125384868
30
0
41
1
10
166.968247116968
20
5.45028635690051
30
0
41
1
10
166.967265187105
20
5.45146690965274
30
0
0
SPLINE
5
2DC
100
AcDbEntity
8
1
62
256
6
ByLayer
370
13
48
1
60
0
100
AcDbSpline
70
4
71
3
72
18
73
14
40
0
40
0
40
0
40
0
40
0.125
40
0.125
40
0.250000000000001
40
0.250000000000001
40
0.375000000000001
40
0.375000000000001
40
0.500000000000001
40
0.500000000000001
40
0.750000000000001
40
0.750000000000001
40
1
40
1
40
1
40
1
41
1
10
157.930351518026
20
4.15387697628771
30
0
41
1
10
157.918866828724
20
4.14112337921017
30
0
41
1
10
157.911743788145
20
4.13231856730502
30
0
41
1
10
157.907314343352
20
4.12296727597723
30
0
41
1
10
157.910014675918
20
4.12238127670725
30
0
41
1
10
157.923664884016
20
4.12837768305997
30
0
41
1
10
157.934737723545
20
4.13500439780785
30
0
41
1
10
157.962417330516
20
4.15377619746945
30
0
41
1
10
157.97923380428
20
4.16605287033985
30
0
41
1
10
158.03561350851
20
4.21012360929686
30
0
41
1
10
158.079799436775
20
4.24807197004787
30
0
41
1
10
158.173965510327
20
4.33973430772622
30
0
41
1
10
158.221819307426
20
4.39132184779831
30
0
41
1
10
158.269209470218
20
4.44956056725363
30
0
0
SPLINE
5
2DD
100
AcDbEntity
8
1
62
256
6
ByLayer
370
13
48
1
60
0
100
AcDbSpline
70
4
71
3
72
12
73
8
40
0
40
0
40
0
40
0
40
0.499999999999984
40
0.499999999999984
40
0.749999999999992
40
0.749999999999992
40
1
40
1
40
1
40
1
41
1
10
150.889937190314
20
7.85797332073278
30
0
41
1
10
150.891149070665
20
7.96305809287085
30
0
41
1
10
150.880754281046
20
8.06720346842189
30
0
41
1
10
150.841613199789
20
8.2215155799669
30
0
41
1
10
150.824593934461
20
8.27229748186298
30
0
41
1
10
150.783065663049
20
8.36956235637143
30
0
41
1
10
150.758463924948
20
8.416456185247
30
0
41
1
10
150.729877678215
20
8.46154485053873
30
0
0
SPLINE
5
2DE
100
AcDbEntity
8
1
62
256
6
ByLayer
370
13
48
1
60
0
100
AcDbSpline
70
4
71
3
72
10
73
6
40
0
40
0
40
0
40
0
40
0.5
40
0.5
40
1
40
1
40
1
40
1
41
1
10
150.498290103971
20
5.53533016746007
30
0
41
1
10
150.510048427111
20
5.59479768996638
30
0
41
1
10
150.525314334563
20
5.65599462825253
30
0
41
1
10
150.564063604685
20
5.78161406792825
30
0
41
1
10
150.586954887622
20
5.84409282635303
30
0
41
1
10
150.613874895968
20
5.90602679496209
30
0
0
SPLINE
5
2DF
100
AcDbEntity
8
1
62
256
6
ByLayer
370
13
48
1
60
0
100
AcDbSpline
70
4
71
3
72
14
73
10
40
0
40
0
40
0
40
0
40
0.500000000000018
40
0.500000000000018
40
0.625000000000013
40
0.625000000000013
40
0.750000000000009
40
0.750000000000009
40
1
40
1
40
1
40
1
41
1
10
146.063859652816
20
1.09770543579367
30
0
41
1
10
146.724821953178
20
0.729019633544993
30
0
41
1
10
147.416787745305
20
0.446054647449984
30
0
41
1
10
148.321179776789
20
0.201999361983923
30
0
41
1
10
148.504053223139
20
0.158734284150626
30
0
41
1
10
148.873914052147
20
0.0836505444887337
30
0
41
1
10
149.061003182072
20
0.0518581970530931
30
0
41
1
10
149.622450011412
20
-0.0249666190604216
30
0
41
1
10
149.998972352398
20
-0.0519895032661566
30
0
41
1
10
150.377784068639
20
-0.0541123190650978
30
0
0
SPLINE
5
2E0
100
AcDbEntity
8
1
62
256
6
ByLayer
370
13
48
1
60
0
100
AcDbSpline
70
4
71
3
72
8
73
4
40
0
40
0
40
0
40
0
40
1
40
1
40
1
40
1
41
1
10
158.731580251915
20
4.85975929037716
30
0
41
1
10
158.687136380105
20
4.76739922642901
30
0
41
1
10
158.636643737381
20
4.67735319181625
30
0
41
1
10
158.581015090067
20
4.59191646538252
30
0
0
SPLINE
5
2E1
100
AcDbEntity
8
1
62
256
6
ByLayer
370
13
48
1
60
0
100
AcDbSpline
70
4
71
3
72
8
73
4
40
0
40
0
40
0
40
0
40
1
40
1
40
1
40
1
41
1
10
0.0999999999999659
20
-4.94974746830573
30
0
41
1
10
0.0649210758567733
20
-4.77434389911281
30
0
41
1
10
0.0315748582919468
20
-4.59865317079695
30
0
41
1
10
0
20
-4.42266887749926
30
0
0
SPLINE
5
2E2
100
AcDbEntity
8
1
62
256
6
ByLayer
370
13
48
1
60
0
100
AcDbSpline
70
4
71
3
72
10
73
6
40
0
40
0
40
0
40
0
40
0.5
40
0.5
40
1
40
1
40
1
40
1
41
1
10
164.838371678002
20
5.50308293304349
30
0
41
1
10
164.865504477455
20
5.51631225444089
30
0
41
1
10
164.895138014119
20
5.52728900168907
30
0
41
1
10
164.956545785687
20
5.54308670303129
30
0
41
1
10
164.988306093839
20
5.5480106719028
30
0
41
1
10
165.021123485529
20
5.54974837771837
30
0
0
SPLINE
5
2E3
100
AcDbEntity
8
1
62
256
6
ByLayer
370
13
48
1
60
0
100
AcDbSpline
70
4
71
3
72
20
73
16
40
0
40
0
40
0
40
0
40
0.125000000000004
40
0.125000000000004
40
0.250000000000009
40
0.250000000000009
40
0.375000000000013
40
0.375000000000013
40
0.500000000000018
40
0.500000000000018
40
0.750000000000026
40
0.750000000000026
40
0.875000000000013
40
0.875000000000013
40
1
40
1
40
1
40
1
41
1
10
150.498290103972
20
5.53533016746019
30
0
41
1
10
150.528674950504
20
5.46634286479781
30
0
41
1
10
150.565556062628
20
5.40127118573517
30
0
41
1
10
150.646982158337
20
5.27958959611317
30
0
41
1
10
150.691482639604
20
5.22296311381947
30
0
41
1
10
150.786320596337
20
5.1162242406721
30
0
41
1
10
150.836856424088
20
5.06598472872273
30
0
41
1
10
150.942215593904
20
4.97183446668359
30
0
41
1
10
150.996614249016
20
4.92827152316281
30
0
41
1
10
151.164244368825
20
4.80654123068598
30
0
41
1
10
151.281846125763
20
4.73720958714921
30
0
41
1
10
151.466156653119
20
4.64862233493878
30
0
41
1
10
151.529174955183
20
4.62161543468613
30
0
41
1
10
151.656567220617
20
4.57332275528009
30
0
41
1
10
151.720894931337
20
4.55202467291312
30
0
41
1
10
151.785868594972
20
4.53351161452707
30
0
0
SPLINE
5
2E4
100
AcDbEntity
8
1
62
256
6
ByLayer
370
13
48
1
60
0
100
AcDbSpline
70
4
71
3
72
18
73
14
40
0
40
0
40
0
40
0
40
0.249999999999967
40
0.249999999999967
40
0.374999999999951
40
0.374999999999951
40
0.499999999999935
40
0.499999999999935
40
0.74999999999999
40
0.74999999999999
40
0.874999999999995
40
0.874999999999995
40
1
40
1
40
1
40
1
41
1
10
166.512931960637
20
5.62793078339857
30
0
41
1
10
166.570308303245
20
5.63093775009801
30
0
41
1
10
166.628065127921
20
5.62376317052141
30
0
41
1
10
166.709363428525
20
5.60038701273044
30
0
41
1
10
166.735245900464
20
5.59061580557187
30
0
41
1
10
166.783393433411
20
5.5686713892631
30
0
41
1
10
166.806047914976
20
5.55628011850237
30
0
41
1
10
166.866036333461
20
5.5193559290006
30
0
41
1
10
166.896856556676
20
5.49448797183399
30
0
41
1
10
166.929067329257
20
5.46884827904009
30
0
41
1
10
166.937739973856
20
5.46202274621868
30
0
41
1
10
166.950822972479
20
5.45308628342662
30
0
41
1
10
166.955380098791
20
5.45084403856754
30
0
41
1
10
166.958040787423
20
5.4509834793501
30
0
0
SPLINE
5
2E5
100
AcDbEntity
8
1
62
256
6
ByLayer
370
13
48
1
60
0
100
AcDbSpline
70
4
71
2
72
12
73
9
40
0
40
0
40
0
40
0.298770365780964
40
0.298770365780964
40
0.597540731561928
40
0.597540731561928
40
0.896311097342892
40
0.896311097342892
40
1
40
1
40
1
41
1
10
29.9999999999992
20
-9.73009808365498
30
0
41
1
10
26.4761224777809
20
-10.3157226722135
30
0
41
1
10
23.344999110314
20
-11.7524701638825
30
0
41
1
10
20.0953378415429
20
-13.2436099653964
30
0
41
1
10
17.5721551910408
20
-15.5007621918134
30
0
41
1
10
15.0670210348558
20
-17.741768857336
30
0
41
1
10
13.5156419742453
20
-20.5240147277375
30
0
41
1
10
13.0040758002377
20
-21.441458382359
30
0
41
1
10
12.614163887645
20
-22.3877206378496
30
0
0
SPLINE
5
2E6
100
AcDbEntity
8
1
62
256
6
ByLayer
370
13
48
1
60
0
100
AcDbSpline
70
4
71
3
72
8
73
4
40
0
40
0
40
0
40
0
40
1
40
1
40
1
40
1
41
1
10
30.01
20
-15.9457593556569
30
0
41
1
10
29.7387178525917
20
-15.9461318733421
30
0
41
1
10
29.4674357098881
20
-15.9465069041257
30
0
41
1
10
29.1961535649286
20
-15.9468807297581
30
0
0
SPLINE
5
2E7
100
AcDbEntity
8
1
62
256
6
ByLayer
370
13
48
1
60
0
100
AcDbSpline
70
4
71
3
72
19
73
15
40
0
40
0
40
0
40
0
40
0.0920043876206126
40
0.175178479487842
40
0.2495218983453
40
0.379134137390866
40
0.499433966648333
40
0.630865120061439
40
0.749560008681344
40
0.80787478658272
40
0.862059571514564
40
0.912128826191507
40
0.958100989213614
40
1
40
1
40
1
40
1
41
1
10
147.766795625197
20
6.45484987074354
30
0
41
1
10
147.773742858934
20
6.48010870069035
30
0
41
1
10
147.786970552462
20
6.52820209643107
30
0
41
1
10
147.804869302703
20
6.60321799039184
30
0
41
1
10
147.824770697448
20
6.69349399557495
30
0
41
1
10
147.846238246014
20
6.80123745257293
30
0
41
1
10
147.869968127273
20
6.93338542413156
30
0
41
1
10
147.891732187472
20
7.06489856614618
30
0
41
1
10
147.909146143529
20
7.17474971621971
30
0
41
1
10
147.922215623422
20
7.25610605013293
30
0
41
1
10
147.931578486681
20
7.31266120873084
30
0
41
1
10
147.940593926959
20
7.36410651426638
30
0
41
1
10
147.949295644194
20
7.41057501697912
30
0
41
1
10
147.955496037464
20
7.43936613988805
30
0
41
1
10
147.958452528577
20
7.45309441409938
30
0
0
SPLINE
5
2E8
100
AcDbEntity
8
1
62
256
6
ByLayer
370
13
48
1
60
0
100
AcDbSpline
70
4
71
3
72
8
73
4
40
0
40
0
40
0
40
0
40
1
40
1
40
1
40
1
41
1
10
168.415476188023
20
0.350312608774573
30
0
41
1
10
168.413443330578
20
0.405822142093285
30
0
41
1
10
168.413152232259
20
0.460005269453831
30
0
41
1
10
168.414492235331
20
0.510891136160524
30
0
0
SPLINE
5
2E9
100
AcDbEntity
8
1
62
256
6
ByLayer
370
13
48
1
60
0
100
AcDbSpline
70
4
71
3
72
10
73
6
40
0
40
0
40
0
40
0
40
0.5
40
0.5
40
1
40
1
40
1
40
1
41
1
10
160.646207417295
20
5.32046877841671
30
0
41
1
10
160.679079927406
20
5.3221915536711
30
0
41
1
10
160.712355978378
20
5.32059247284332
30
0
41
1
10
160.776976510677
20
5.31131465407688
30
0
41
1
10
160.808353512457
20
5.3037079876743
30
0
41
1
10
160.838762199696
20
5.29347228228602
30
0
0
SPLINE
5
2EA
100
AcDbEntity
8
1
62
256
6
ByLayer
370
13
48
1
60
0
100
AcDbSpline
70
4
71
3
72
16
73
12
40
0
40
0
40
0
40
0
40
0.124999999999999
40
0.124999999999999
40
0.249999999999998
40
0.249999999999998
40
0.499999999999998
40
0.499999999999998
40
0.749999999999999
40
0.749999999999999
40
1
40
1
40
1
40
1
41
1
10
26.2163239376016
20
-6.66880303789475
30
0
41
1
10
26.3289637001057
20
-6.60443583789154
30
0
41
1
10
26.4439466135124
20
-6.54353318739348
30
0
41
1
10
26.6787016350357
20
-6.42881430113889
30
0
41
1
10
26.7980095528012
20
-6.37525350761669
30
0
41
1
10
27.1584182245455
20
-6.22722647711501
30
0
41
1
10
27.4032751342421
20
-6.14472445792552
30
0
41
1
10
27.9021372355037
20
-6.01154908255626
30
0
41
1
10
28.1561417451194
20
-5.96087467554634
30
0
41
1
10
28.6737024173866
20
-5.89248401721571
30
0
41
1
10
28.9346632177722
20
-5.87518729639001
30
0
41
1
10
29.1961537488745
20
-5.8750092740072
30
0
0
SPLINE
5
2EB
100
AcDbEntity
8
1
62
256
6
ByLayer
370
13
48
1
60
0
100
AcDbSpline
70
4
71
3
72
46
73
42
40
0
40
0
40
0
40
0
40
0.062500000000001
40
0.062500000000001
40
0.125000000000002
40
0.125000000000002
40
0.156250000000003
40
0.156250000000003
40
0.187500000000003
40
0.187500000000003
40
0.250000000000004
40
0.250000000000004
40
0.281250000000005
40
0.281250000000005
40
0.312500000000005
40
0.312500000000005
40
0.375000000000005
40
0.375000000000005
40
0.406250000000005
40
0.406250000000005
40
0.437500000000005
40
0.437500000000005
40
0.500000000000005
40
0.500000000000005
40
0.562500000000004
40
0.562500000000004
40
0.593750000000004
40
0.593750000000004
40
0.625000000000004
40
0.625000000000004
40
0.750000000000003
40
0.750000000000003
40
0.781250000000003
40
0.781250000000003
40
0.812500000000002
40
0.812500000000002
40
0.875000000000002
40
0.875000000000002
40
0.937500000000001
40
0.937500000000001
40
1
40
1
40
1
40
1
41
1
10
6.05491936047471
20
-20.7097584715901
30
0
41
1
10
5.98217225297975
20
-20.8508852127961
30
0
41
1
10
5.92634612018182
20
-20.9880120504612
30
0
41
1
10
5.84809603630285
20
-21.2542182408368
30
0
41
1
10
5.82566556864745
20
-21.3832995246614
30
0
41
1
10
5.81867324054204
20
-21.5705567914372
30
0
41
1
10
5.82087967952572
20
-21.6317098268128
30
0
41
1
10
5.83400078855766
20
-21.7498863354971
30
0
41
1
10
5.84490063707449
20
-21.8071586372672
30
0
41
1
10
5.89018365302996
20
-21.9736850334777
30
0
41
1
10
5.93708501432641
20
-22.0776706275981
30
0
41
1
10
6.03203536901901
20
-22.2232990155364
30
0
41
1
10
6.06789917230233
20
-22.2702184842315
30
0
41
1
10
6.14754424965776
20
-22.3600793794954
30
0
41
1
10
6.19106787959765
20
-22.4027644984983
30
0
41
1
10
6.33234012961998
20
-22.5243693112802
30
0
41
1
10
6.44079183303242
20
-22.5968471926808
30
0
41
1
10
6.62351855503496
20
-22.6935380220796
30
0
41
1
10
6.68778998216007
20
-22.7237540487771
30
0
41
1
10
6.82299454697144
20
-22.780217483741
30
0
41
1
10
6.89413313637451
20
-22.8065193971717
30
0
41
1
10
7.11494876087755
20
-22.8787223786541
30
0
41
1
10
7.27249504184809
20
-22.918227398583
30
0
41
1
10
7.60679112639315
20
-22.9814254214495
30
0
41
1
10
7.78356010609846
20
-23.0051058959767
30
0
41
1
10
8.06262452963333
20
-23.0293317855009
30
0
41
1
10
8.15822959609108
20
-23.0355257588992
30
0
41
1
10
8.35239449951246
20
-23.0441148701577
30
0
41
1
10
8.45100737205277
20
-23.0465274395738
30
0
41
1
10
8.95143588666124
20
-23.0496153355131
30
0
41
1
10
9.37509909217258
20
-23.0236842222594
30
0
41
1
10
9.93193292909916
20
-22.959155638643
30
0
41
1
10
10.0448225596876
20
-22.9445981359866
30
0
41
1
10
10.2712856821894
20
-22.9125735069594
30
0
41
1
10
10.3850933338767
20
-22.8950820725466
30
0
41
1
10
10.7282001954433
20
-22.8383290987432
30
0
41
1
10
10.9591775426441
20
-22.7948027950488
30
0
41
1
10
11.4255133247948
20
-22.6968582909836
30
0
41
1
10
11.6608641060695
20
-22.6424483893071
30
0
41
1
10
12.1358963158606
20
-22.5229498138677
30
0
41
1
10
12.3761068727826
20
-22.4576913749233
30
0
41
1
10
12.6165113941826
20
-22.3876490236978
30
0
0
SPLINE
5
2EC
100
AcDbEntity
8
1
62
256
6
ByLayer
370
13
48
1
60
0
100
AcDbSpline
70
4
71
3
72
22
73
18
40
0
40
0
40
0
40
0
40
0.249999999999999
40
0.249999999999999
40
0.499999999999998
40
0.499999999999998
40
0.624999999999998
40
0.624999999999998
40
0.656249999999998
40
0.656249999999998
40
0.687499999999998
40
0.687499999999998
40
0.749999999999998
40
0.749999999999998
40
0.874999999999999
40
0.874999999999999
40
1
40
1
40
1
40
1
41
1
10
12.6138771792291
20
-22.3884164225483
30
0
41
1
10
13.8020380195997
20
-22.0423193321519
30
0
41
1
10
14.9692688343383
20
-21.6515183781491
30
0
41
1
10
17.2615883762269
20
-20.7799063493369
30
0
41
1
10
18.3877541177643
20
-20.2985088841951
30
0
41
1
10
20.0368216901659
20
-19.5101807332795
30
0
41
1
10
20.5800494019706
20
-19.2362766438341
30
0
41
1
10
21.2508370712841
20
-18.8796934974079
30
0
41
1
10
21.3845819314466
20
-18.8076661563662
30
0
41
1
10
21.6512406909016
20
-18.6621803831821
30
0
41
1
10
21.7836931430261
20
-18.587927241013
30
0
41
1
10
22.1846946692942
20
-18.3714438490248
30
0
41
1
10
22.4561504652899
20
-18.2342195915736
30
0
41
1
10
23.2829154749406
20
-17.8438981567708
30
0
41
1
10
23.8505732151118
20
-17.6120677646992
30
0
41
1
10
25.020179343627
20
-17.2074627594655
30
0
41
1
10
25.6221164423258
20
-17.0346687031368
30
0
41
1
10
26.242709753658
20
-16.8940046072284
30
0
0
SPLINE
5
2ED
100
AcDbEntity
8
1
62
256
6
ByLayer
370
13
48
1
60
0
100
AcDbSpline
70
4
71
1
72
4
73
2
40
0
40
0
40
1
40
1
41
1
10
30.45
20
-9.72478773973137
30
0
41
1
10
30
20
-9.72478773973137
30
0
0
SPLINE
5
2EE
100
AcDbEntity
8
1
62
256
6
ByLayer
370
13
48
1
60
0
100
AcDbSpline
70
4
71
3
72
8
73
4
40
0
40
0
40
0
40
0
40
1
40
1
40
1
40
1
41
1
10
35
20
-5.87792668629714
30
0
41
1
10
33.3333328093203
20
-5.87786125137299
30
0
41
1
10
31.6666660187038
20
-5.87715325665579
30
0
41
1
10
30
20
-5.87520521353071
30
0
0
SPLINE
5
2EF
100
AcDbEntity
8
1
62
256
6
ByLayer
370
13
48
1
60
0
100
AcDbSpline
70
4
71
3
72
10
73
6
40
0
40
0
40
0
40
0
40
0.5
40
0.5
40
1
40
1
40
1
40
1
41
1
10
167.833243870948
20
-2.91925987308093
30
0
41
1
10
167.888314196117
20
-3.21683669156221
30
0
41
1
10
167.922232527506
20
-3.51351877033619
30
0
41
1
10
167.950984776599
20
-4.10488361928981
30
0
41
1
10
167.945806283413
20
-4.39956729669149
30
0
41
1
10
167.92144946123
20
-4.69319010890607
30
0
0
SPLINE
5
2F0
100
AcDbEntity
8
1
62
256
6
ByLayer
370
13
48
1
60
0
100
AcDbSpline
70
4
71
3
72
24
73
20
40
0
40
0
40
0
40
0
40
0.125
40
0.125
40
0.187499999999999
40
0.187499999999999
40
0.249999999999999
40
0.249999999999999
40
0.312499999999999
40
0.312499999999999
40
0.374999999999999
40
0.374999999999999
40
0.499999999999999
40
0.499999999999999
40
0.624999999999999
40
0.624999999999999
40
0.749999999999999
40
0.749999999999999
40
1
40
1
40
1
40
1
41
1
10
86
20
-6.45489348001925
30
0
41
1
10
83.8859643985137
20
-6.24111338589549
30
0
41
1
10
81.7668235687245
20
-6.09233477650764
30
0
41
1
10
78.5818645459877
20
-5.95189089696333
30
0
41
1
10
77.518935132158
20
-5.91870855678107
30
0
41
1
10
75.3932171675365
20
-5.87390785396735
30
0
41
1
10
74.3303039527474
20
-5.86194918853465
30
0
41
1
10
72.20441580654
20
-5.85001359828655
30
0
41
1
10
71.1414408317077
20
-5.85003756893914
30
0
41
1
10
69.0154753219848
20
-5.85310914995827
30
0
41
1
10
67.9524864338965
20
-5.85583533808125
30
0
41
1
10
64.7635152540122
20
-5.8648890416514
30
0
41
1
10
62.6375314242478
20
-5.8719550688551
30
0
41
1
10
58.3855980811818
20
-5.87749913273856
30
0
41
1
10
56.2596350975802
20
-5.87713953679835
30
0
41
1
10
52.0077100499822
20
-5.87562994468553
30
0
41
1
10
49.8817479176971
20
-5.87453788781912
30
0
41
1
10
43.5038589732877
20
-5.87342233391715
30
0
41
1
10
39.2519272653131
20
-5.87757218249632
30
0
41
1
10
35
20
-5.87792668629714
30
0
0
SPLINE
5
2F1
100
AcDbEntity
8
1
62
256
6
ByLayer
370
13
48
1
60
0
100
AcDbSpline
70
4
71
3
72
8
73
4
40
0
40
0
40
0
40
0
40
1
40
1
40
1
40
1
41
1
10
29.1961535649286
20
-15.9468807297581
30
0
41
1
10
29.1961535768392
20
-16.1440702165851
30
0
41
1
10
29.1961535889556
20
-16.3412597032454
30
0
41
1
10
29.1961536012778
20
-16.538449189739
30
0
0
SPLINE
5
2F2
100
AcDbEntity
8
1
62
256
6
ByLayer
370
13
48
1
60
0
100
AcDbSpline
70
4
71
3
72
14
73
10
40
0
40
0
40
0
40
0
40
0.25
40
0.25
40
0.5
40
0.5
40
0.75
40
0.75
40
1
40
1
40
1
40
1
41
1
10
29.1961535649285
20
-15.9468807297581
30
0
41
1
10
28.9253228277945
20
-15.9472539333524
30
0
41
1
10
28.6593928650378
20
-15.9697328718169
30
0
41
1
10
28.1365904308578
20
-16.0555460272357
30
0
41
1
10
27.8797222675437
20
-16.1188996766133
30
0
41
1
10
27.3748328090714
20
-16.2855122039768
30
0
41
1
10
27.1341820826791
20
-16.3862910706589
30
0
41
1
10
26.673453115479
20
-16.6180616397644
30
0
41
1
10
26.4532504657094
20
-16.7491791972656
30
0
41
1
10
26.242709753658
20
-16.8940046072284
30
0
0
SPLINE
5
2F3
100
AcDbEntity
8
1
62
256
6
ByLayer
370
13
48
1
60
0
100
AcDbSpline
70
4
71
3
72
16
73
12
40
0
40
0
40
0
40
0
40
0.249999999999999
40
0.249999999999999
40
0.499999999999997
40
0.499999999999997
40
0.624999999999996
40
0.624999999999996
40
0.749999999999995
40
0.749999999999995
40
1
40
1
40
1
40
1
41
1
10
153.686500387111
20
3.99714902964786
30
0
41
1
10
154.193404359725
20
3.85565803340163
30
0
41
1
10
154.689448558509
20
3.75547236591007
30
0
41
1
10
155.658938035678
20
3.62006339368671
30
0
41
1
10
156.132378134679
20
3.58502535749355
30
0
41
1
10
156.822747834096
20
3.57210993676503
30
0
41
1
10
157.049551110195
20
3.57443523696065
30
0
41
1
10
157.495733053184
20
3.59090878250021
30
0
41
1
10
157.715095332424
20
3.60508780267446
30
0
41
1
10
158.355589245135
20
3.66249841175758
30
0
41
1
10
158.761190012976
20
3.72077789697943
30
0
41
1
10
159.140129835902
20
3.79071402368859
30
0
0
SPLINE
5
2F4
100
AcDbEntity
8
1
62
256
6
ByLayer
370
13
48
1
60
0
100
AcDbSpline
70
4
71
3
72
40
73
36
40
0
40
0
40
0
40
0
40
0.125000000000008
40
0.125000000000008
40
0.250000000000017
40
0.250000000000017
40
0.312500000000021
40
0.312500000000021
40
0.375000000000025
40
0.375000000000025
40
0.437500000000029
40
0.437500000000029
40
0.468750000000031
40
0.468750000000031
40
0.500000000000034
40
0.500000000000034
40
0.625000000000023
40
0.625000000000023
40
0.656250000000023
40
0.656250000000023
40
0.687500000000023
40
0.687500000000023
40
0.750000000000018
40
0.750000000000018
40
0.781250000000016
40
0.781250000000016
40
0.812500000000013
40
0.812500000000013
40
0.875000000000009
40
0.875000000000009
40
0.906250000000006
40
0.906250000000006
40
0.937500000000004
40
0.937500000000004
40
1
40
1
40
1
40
1
41
1
10
150.144300703828
20
1.1077102832497
30
0
41
1
10
150.64311931849
20
1.04977912837748
30
0
41
1
10
151.144128643316
20
1.00174132053797
30
0
41
1
10
152.152394239457
20
0.933877200168382
30
0
41
1
10
152.659630598757
20
0.913960964077461
30
0
41
1
10
153.427067999237
20
0.91381511290146
30
0
41
1
10
153.685026294903
20
0.918820848047943
30
0
41
1
10
154.196137062903
20
0.940481048119409
30
0
41
1
10
154.449674713766
20
0.957087821849626
30
0
41
1
10
154.952159573452
20
1.00344358583274
30
0
41
1
10
155.201110373678
20
1.0331822940687
30
0
41
1
10
155.570542061739
20
1.08922645447205
30
0
41
1
10
155.693385009761
20
1.10988930458555
30
0
41
1
10
155.935793054481
20
1.15503747571134
30
0
41
1
10
156.055018845459
20
1.17944577823431
30
0
41
1
10
156.640927509706
20
1.31096354858658
30
0
41
1
10
157.077499342152
20
1.44599198599525
30
0
41
1
10
157.573261186164
20
1.66109392557684
30
0
41
1
10
157.670187584484
20
1.70665744583562
30
0
41
1
10
157.855001091957
20
1.800987129986
30
0
41
1
10
157.943306631379
20
1.84990972496641
30
0
41
1
10
158.195853779696
20
2.00197898163407
30
0
41
1
10
158.347783892327
20
2.11040226791712
30
0
41
1
10
158.549816813958
20
2.28412158280941
30
0
41
1
10
158.613034071979
20
2.3441342964507
30
0
41
1
10
158.728441046729
20
2.46576125271619
30
0
41
1
10
158.780900911299
20
2.52756351376394
30
0
41
1
10
158.923013612488
20
2.71584915434104
30
0
41
1
10
158.997464085712
20
2.84519922313339
30
0
41
1
10
159.079291033323
20
3.04485286735576
30
0
41
1
10
159.101614906151
20
3.11260873293946
30
0
41
1
10
159.13575998014
20
3.2479177116702
30
0
41
1
10
159.147690226796
20
3.31563289227068
30
0
41
1
10
159.168866274807
20
3.51895092213619
30
0
41
1
10
159.163554262395
20
3.65472558816756
30
0
41
1
10
159.140129835902
20
3.79071402368859
30
0
0
SPLINE
5
2F5
100
AcDbEntity
8
1
62
256
6
ByLayer
370
13
48
1
60
0
100
AcDbSpline
70
4
71
3
72
10
73
6
40
0
40
0
40
0
40
0
40
0.5
40
0.5
40
1
40
1
40
1
40
1
41
1
10
149.499835085362
20
4.96922399692093
30
0
41
1
10
149.20572490924
20
5.14362532222307
30
0
41
1
10
148.901239627439
20
5.30374956335208
30
0
41
1
10
148.276527580298
20
5.60233633994019
30
0
41
1
10
147.956252581922
20
5.74073250237817
30
0
41
1
10
147.629440350991
20
5.87013284131939
30
0
0
SPLINE
5
2F6
100
AcDbEntity
8
1
62
256
6
ByLayer
370
13
48
1
60
0
100
AcDbSpline
70
4
71
3
72
54
73
50
40
0
40
0
40
0
40
0
40
0.0312500000000035
40
0.0312500000000035
40
0.062500000000007
40
0.062500000000007
40
0.0937500000000105
40
0.0937500000000105
40
0.109375000000012
40
0.109375000000012
40
0.125000000000013
40
0.125000000000013
40
0.132812500000013
40
0.132812500000013
40
0.140625000000014
40
0.140625000000014
40
0.156250000000013
40
0.156250000000013
40
0.187500000000013
40
0.187500000000013
40
0.218750000000013
40
0.218750000000013
40
0.250000000000012
40
0.250000000000012
40
0.31250000000001
40
0.31250000000001
40
0.375000000000008
40
0.375000000000008
40
0.406250000000007
40
0.406250000000007
40
0.437500000000006
40
0.437500000000006
40
0.500000000000005
40
0.500000000000005
40
0.531250000000004
40
0.531250000000004
40
0.562500000000004
40
0.562500000000004
40
0.625000000000003
40
0.625000000000003
40
0.750000000000002
40
0.750000000000002
40
0.812500000000001
40
0.812500000000001
40
0.875000000000001
40
0.875000000000001
40
0.937500000000001
40
0.937500000000001
40
1
40
1
40
1
40
1
41
1
10
143.442497552392
20
-16.3026552267318
30
0
41
1
10
142.824946296134
20
-16.295147276907
30
0
41
1
10
142.206932026908
20
-16.2875383523657
30
0
41
1
10
140.972662183208
20
-16.2703301843226
30
0
41
1
10
140.35647742288
20
-16.2607025383219
30
0
41
1
10
139.129395134684
20
-16.2361894713698
30
0
41
1
10
138.518478971159
20
-16.2213533341271
30
0
41
1
10
137.608739362578
20
-16.1914364241801
30
0
41
1
10
137.30661081321
20
-16.1801613127059
30
0
41
1
10
136.705116953735
20
-16.1540275932954
30
0
41
1
10
136.40570102058
20
-16.1392237351219
30
0
41
1
10
135.959271417812
20
-16.1131586803561
30
0
41
1
10
135.810924784526
20
-16.1038102519714
30
0
41
1
10
135.515364747335
20
-16.0834312350073
30
0
41
1
10
135.368076815211
20
-16.0723524184292
30
0
41
1
10
134.928197087096
20
-16.0368651964308
30
0
41
1
10
134.638247040772
20
-16.0104389756535
30
0
41
1
10
133.770477153985
20
-15.9258599124716
30
0
41
1
10
133.19671070325
20
-15.8613181586555
30
0
41
1
10
132.044678975216
20
-15.7231990351608
30
0
41
1
10
131.467411251697
20
-15.6493000876967
30
0
41
1
10
130.313820747018
20
-15.489761468109
30
0
41
1
10
129.737315437505
20
-15.404186376332
30
0
41
1
10
128.007876970944
20
-15.1304204865771
30
0
41
1
10
126.854595456425
20
-14.9250264395857
30
0
41
1
10
124.550764695354
20
-14.473532031802
30
0
41
1
10
123.399828053441
20
-14.2268687368557
30
0
41
1
10
121.670211406996
20
-13.8322972319872
30
0
41
1
10
121.09303017918
20
-13.6968362709364
30
0
41
1
10
119.936186889955
20
-13.4201717012863
30
0
41
1
10
119.356469752271
20
-13.2790560548885
30
0
41
1
10
117.612866346705
20
-12.8492383596269
30
0
41
1
10
116.444580710139
20
-12.5539813911932
30
0
41
1
10
114.681853268554
20
-12.1047085789436
30
0
41
1
10
114.092557810227
20
-11.9538946499926
30
0
41
1
10
112.910254877162
20
-11.6513674618793
30
0
41
1
10
112.316972088504
20
-11.4995844844603
30
0
41
1
10
110.533625462896
20
-11.0454210152659
30
0
41
1
10
109.340028869292
20
-10.7442768861869
30
0
41
1
10
105.742196300588
20
-9.86077409728722
30
0
41
1
10
103.32127240652
20
-9.29755502196241
30
0
41
1
10
99.6498622111557
20
-8.53746096878172
30
0
41
1
10
98.4192707812727
20
-8.29786765362886
30
0
41
1
10
95.9531985894892
20
-7.8478420397517
30
0
41
1
10
94.7167971522563
20
-7.63719311875613
30
0
41
1
10
92.2377742963245
20
-7.24427439812314
30
0
41
1
10
90.9951419438775
20
-7.06204129441377
30
0
41
1
10
88.5030646254713
20
-6.73094900032498
30
0
41
1
10
87.2536382151335
20
-6.58198208197348
30
0
41
1
10
86
20
-6.45489348001925
30
0
0
SPLINE
5
2F7
100
AcDbEntity
8
1
62
256
6
ByLayer
370
13
48
1
60
0
100
AcDbSpline
70
4
71
3
72
8
73
4
40
0
40
0
40
0
40
0
40
1
40
1
40
1
40
1
41
1
10
146.347038237161
20
1.64976213838503
30
0
41
1
10
146.20164034136
20
1.71365276253269
30
0
41
1
10
146.057202654674
20
1.77849382318379
30
0
41
1
10
145.91379251877
20
1.84444552299422
30
0
0
SPLINE
5
2F8
100
AcDbEntity
8
1
62
256
6
ByLayer
370
13
48
1
60
0
100
AcDbSpline
70
4
71
2
72
6
73
3
40
0
40
0
40
0
40
1
40
1
40
1
41
0.492760857870311
10
150.377784068636
20
-0.0541123190647442
30
0
41
0.507239142129689
10
150.395172055148
20
-0.054209759272887
30
0
41
0.492760857870311
10
150.412560194403
20
-0.0543071996154765
30
0
0
SPLINE
5
2F9
100
AcDbEntity
8
1
62
256
6
ByLayer
370
13
48
1
60
0
100
AcDbSpline
70
4
71
3
72
26
73
22
40
0
40
0
40
0
40
0
40
0.0625
40
0.0625
40
0.125
40
0.125
40
0.1875
40
0.1875
40
0.25
40
0.25
40
0.3125
40
0.3125
40
0.375
40
0.375
40
0.5
40
0.5
40
0.75
40
0.75
40
0.875
40
0.875
40
1
40
1
40
1
40
1
41
1
10
86
20
-16.3885965916304
30
0
41
1
10
84.9439407203024
20
-16.3863991756722
30
0
41
1
10
83.8864558919888
20
-16.3835966750698
30
0
41
1
10
81.7685754305576
20
-16.3791230889615
30
0
41
1
10
80.7082111959168
20
-16.3774332338377
30
0
41
1
10
78.5849537240388
20
-16.3762438882962
30
0
41
1
10
77.5217677870776
20
-16.3767242378679
30
0
41
1
10
75.3957180426188
20
-16.3797611583227
30
0
41
1
10
74.3326826241999
20
-16.3823139992268
30
0
41
1
10
72.2066006370554
20
-16.3886365030681
30
0
41
1
10
71.1435541848365
20
-16.3923807166687
30
0
41
1
10
69.0174582786959
20
-16.4001863298295
30
0
41
1
10
67.954409217522
20
-16.4042038704788
30
0
41
1
10
64.7652645507092
20
-16.4159816702142
30
0
41
1
10
62.6391696607821
20
-16.4236598789028
30
0
41
1
10
56.260892938142
20
-16.4458713572253
30
0
41
1
10
52.0087180150791
20
-16.4596946550489
30
0
41
1
10
45.6304485288058
20
-16.4811595918889
30
0
41
1
10
43.5043568844662
20
-16.4884624267745
30
0
41
1
10
39.2521785211123
20
-16.5032232931378
30
0
41
1
10
37.1260904050005
20
-16.5106544520355
30
0
41
1
10
35
20
-16.5179731991874
30
0
0
SPLINE
5
2FA
100
AcDbEntity
8
1
62
256
6
ByLayer
370
13
48
1
60
0
100
AcDbSpline
70
4
71
3
72
38
73
34
40
0
40
0
40
0
40
0
40
0.0624999999999929
40
0.0624999999999929
40
0.124999999999986
40
0.124999999999986
40
0.249999999999972
40
0.249999999999972
40
0.312499999999964
40
0.312499999999964
40
0.374999999999957
40
0.374999999999957
40
0.406249999999962
40
0.406249999999962
40
0.437499999999967
40
0.437499999999967
40
0.499999999999976
40
0.499999999999976
40
0.53124999999998
40
0.53124999999998
40
0.562499999999985
40
0.562499999999985
40
0.624999999999994
40
0.624999999999994
40
0.749999999999996
40
0.749999999999996
40
0.812499999999997
40
0.812499999999997
40
0.874999999999998
40
0.874999999999998
40
0.937499999999999
40
0.937499999999999
40
1
40
1
40
1
40
1
41
1
10
158.581015090067
20
4.59191646538278
30
0
41
1
10
158.529695732165
20
4.51309811991428
30
0
41
1
10
158.474631543411
20
4.43892949515808
30
0
41
1
10
158.356983899921
20
4.29899993617747
30
0
41
1
10
158.294360679359
20
4.23335258746465
30
0
41
1
10
158.100449890964
20
4.05327400246139
30
0
41
1
10
157.961647932204
20
3.95320975791813
30
0
41
1
10
157.735871868006
20
3.82955255150694
30
0
41
1
10
157.658921740467
20
3.79352154580027
30
0
41
1
10
157.500463442179
20
3.7311799684031
30
0
41
1
10
157.419000595968
20
3.70485243563681
30
0
41
1
10
157.291082773036
20
3.67268619522517
30
0
41
1
10
157.247468972351
20
3.66319092240548
30
0
41
1
10
157.1575309696
20
3.64679849326157
30
0
41
1
10
157.110838638964
20
3.63987943670321
30
0
41
1
10
156.97032861786
20
3.62395850796804
30
0
41
1
10
156.874956575678
20
3.61949750888533
30
0
41
1
10
156.729360031544
20
3.62215775261635
30
0
41
1
10
156.680789298495
20
3.62462291522184
30
0
41
1
10
156.585689435328
20
3.63236992327146
30
0
41
1
10
156.538787125434
20
3.63765724525334
30
0
41
1
10
156.399502193323
20
3.65754258501065
30
0
41
1
10
156.308268256817
20
3.67619786887465
30
0
41
1
10
156.039440332511
20
3.7477371191425
30
0
41
1
10
155.870410507112
20
3.81470406571759
30
0
41
1
10
155.627973430109
20
3.94588816240335
30
0
41
1
10
155.548798369652
20
3.99503228930425
30
0
41
1
10
155.395690455103
20
4.10420373553009
30
0
41
1
10
155.322740873126
20
4.16347933407744
30
0
41
1
10
155.184146928087
20
4.29206350651168
30
0
41
1
10
155.11839434405
20
4.36148170321664
30
0
41
1
10
154.9952298044
20
4.51138621216137
30
0
41
1
10
154.939360004991
20
4.58998950029599
30
0
41
1
10
154.889339449605
20
4.67230433589143
30
0
0
SPLINE
5
2FB
100
AcDbEntity
8
1
62
256
6
ByLayer
370
13
48
1
60
0
100
AcDbSpline
70
4
71
3
72
10
73
6
40
0
40
0
40
0
40
0
40
0.415623232849147
40
0.415623232849147
40
1
40
1
40
1
40
1
41
1
10
30.45
20
-15.9321103651279
30
0
41
1
10
30.45
20
-15.0721411534929
30
0
41
1
10
30.45
20
-14.2121719609079
30
0
41
1
10
30.45
20
-12.1430644003072
30
0
41
1
10
30.45
20
-10.9339260509851
30
0
41
1
10
30.45
20
-9.72478773973137
30
0
0
SPLINE
5
2FC
100
AcDbEntity
8
1
62
256
6
ByLayer
370
13
48
1
60
0
100
AcDbSpline
70
4
71
3
72
8
73
4
40
0
40
0
40
0
40
0
40
1
40
1
40
1
40
1
41
1
10
154.984982986136
20
11.3397916390611
30
0
41
1
10
154.971838664414
20
11.3112539878188
30
0
41
1
10
154.9568293175
20
11.2852749665974
30
0
41
1
10
154.940780711297
20
11.2617861983486
30
0
0
SPLINE
5
2FD
100
AcDbEntity
8
1
62
256
6
ByLayer
370
13
48
1
60
0
100
AcDbSpline
70
4
71
3
72
8
73
4
40
0
40
0
40
0
40
0
40
1
40
1
40
1
40
1
41
1
10
141.728477776593
20
3.63212651758389
30
0
41
1
10
142.10299968966
20
3.51090110285097
30
0
41
1
10
142.474522286557
20
3.39800394650285
30
0
41
1
10
142.841354488425
20
3.2955497728158
30
0
0
SPLINE
5
2FE
100
AcDbEntity
8
1
62
256
6
ByLayer
370
13
48
1
60
0
100
AcDbSpline
70
4
71
3
72
38
73
34
40
0
40
0
40
0
40
0
40
0.0624999999999997
40
0.0624999999999997
40
0.124999999999999
40
0.124999999999999
40
0.249999999999999
40
0.249999999999999
40
0.312499999999999
40
0.312499999999999
40
0.374999999999999
40
0.374999999999999
40
0.437499999999998
40
0.437499999999998
40
0.499999999999998
40
0.499999999999998
40
0.562499999999998
40
0.562499999999998
40
0.593749999999998
40
0.593749999999998
40
0.624999999999998
40
0.624999999999998
40
0.687499999999998
40
0.687499999999998
40
0.749999999999999
40
0.749999999999999
40
0.812499999999999
40
0.812499999999999
40
0.874999999999999
40
0.874999999999999
40
0.9375
40
0.9375
40
1
40
1
40
1
40
1
41
1
10
141.728477776593
20
3.63212651758389
30
0
41
1
10
140.590712446341
20
4.13138741880519
30
0
41
1
10
139.451566933947
20
4.62566057863964
30
0
41
1
10
137.176374004723
20
5.59776023425999
30
0
41
1
10
136.040259148758
20
6.07562433333572
30
0
41
1
10
132.633998328308
20
7.47989039606895
30
0
41
1
10
130.366004326578
20
8.37707351415642
30
0
41
1
10
126.958470921937
20
9.64489944936773
30
0
41
1
10
125.821663935347
20
10.054449583371
30
0
41
1
10
123.544369149487
20
10.8440953934125
30
0
41
1
10
122.407376747163
20
11.2230829599191
30
0
41
1
10
120.136165311618
20
11.9477086438847
30
0
41
1
10
119.001970046318
20
12.2935123302998
30
0
41
1
10
116.735035320363
20
12.9496253428003
30
0
41
1
10
115.60201241564
20
13.2593822356011
30
0
41
1
10
113.330233958006
20
13.8341794854065
30
0
41
1
10
112.191526719504
20
14.099243151088
30
0
41
1
10
110.473307291172
20
14.4588662838475
30
0
41
1
10
109.898484735136
20
14.5724096282305
30
0
41
1
10
108.745367493037
20
14.7855236848477
30
0
41
1
10
108.167156276027
20
14.8849982432184
30
0
41
1
10
106.426055142382
20
15.1624592541781
30
0
41
1
10
105.257066472695
20
15.3200502380854
30
0
41
1
10
102.902418619486
20
15.5911282746449
30
0
41
1
10
101.716941979095
20
15.7048821760868
30
0
41
1
10
99.3331215550531
20
15.8999402330757
30
0
41
1
10
98.1342166093013
20
15.9813227755196
30
0
41
1
10
95.7310525730156
20
16.1191252488696
30
0
41
1
10
94.5263826957745
20
16.1751332266057
30
0
41
1
10
92.1082198382873
20
16.2650144004689
30
0
41
1
10
90.8947015402377
20
16.2988893543424
30
0
41
1
10
88.45607025055
20
16.3496886720613
30
0
41
1
10
87.2310689041142
20
16.3667411401178
30
0
41
1
10
86
20
16.3784709621888
30
0
0
SPLINE
5
2FF
100
AcDbEntity
8
1
62
256
6
ByLayer
370
13
48
1
60
0
100
AcDbSpline
70
4
71
3
72
8
73
4
40
0
40
0
40
0
40
0
40
1
40
1
40
1
40
1
41
1
10
35
20
-16.5179731991876
30
0
41
1
10
33.3333329168971
20
-16.5180176894955
30
0
41
1
10
31.666666134838
20
-16.5179937835737
30
0
41
1
10
30
20
-16.5178222056665
30
0
0
SPLINE
5
300
100
AcDbEntity
8
1
62
256
6
ByLayer
370
13
48
1
60
0
100
AcDbSpline
70
4
71
3
72
8
73
4
40
0
40
0
40
0
40
0
40
1
40
1
40
1
40
1
41
1
10
150.222385528506
20
5.1601882615476
30
0
41
1
10
150.315733260667
20
5.28542736235764
30
0
41
1
10
150.407521606036
20
5.4106201944029
30
0
41
1
10
150.498290103971
20
5.53533016745999
30
0
0
SPLINE
5
301
100
AcDbEntity
8
1
62
256
6
ByLayer
370
13
48
1
60
0
100
AcDbSpline
70
4
71
3
72
8
73
4
40
0
40
0
40
0
40
0
40
1
40
1
40
1
40
1
41
1
10
153.412560194403
20
-16.4714674877519
30
0
41
1
10
152.412560193673
20
-16.4151967468791
30
0
41
1
10
151.412560193665
20
-16.3589259933384
30
0
41
1
10
150.412560194403
20
-16.3026552267318
30
0
0
SPLINE
5
302
100
AcDbEntity
8
1
62
256
6
ByLayer
370
13
48
1
60
0
100
AcDbSpline
70
4
71
3
72
8
73
4
40
0
40
0
40
0
40
0
40
1
40
1
40
1
40
1
41
1
10
30
20
-16.5178222056665
30
0
41
1
10
29.7316885998967
20
-16.5177945838726
30
0
41
1
10
29.4637403714157
20
-16.5246810371357
30
0
41
1
10
29.1961536012781
20
-16.5384491897455
30
0
0
SPLINE
5
303
100
AcDbEntity
8
1
62
256
6
ByLayer
370
13
48
1
60
0
100
AcDbSpline
70
4
71
3
72
10
73
6
40
0
40
0
40
0
40
0
40
0.5
40
0.5
40
1
40
1
40
1
40
1
41
1
10
148.777019525208
20
7.50650853065886
30
0
41
1
10
148.834617675188
20
7.5209660573104
30
0
41
1
10
148.892657350195
20
7.5340817923699
30
0
41
1
10
149.01035500227
20
7.55539525334589
30
0
41
1
10
149.070295947659
20
7.56393477047485
30
0
41
1
10
149.131218076117
20
7.5662798120014
30
0
0
SPLINE
5
304
100
AcDbEntity
8
1
62
256
6
ByLayer
370
13
48
1
60
0
100
AcDbSpline
70
4
71
3
72
8
73
4
40
0
40
0
40
0
40
0
40
1
40
1
40
1
40
1
41
1
10
30
20
-5.87520521353071
30
0
41
1
10
29.7316773105867
20
-5.87489159090654
30
0
41
1
10
29.4637291819158
20
-5.87482710903242
30
0
41
1
10
29.1961537488745
20
-5.8750092740072
30
0
0
SPLINE
5
305
100
AcDbEntity
8
1
62
256
6
ByLayer
370
13
48
1
60
0
100
AcDbSpline
70
4
71
3
72
20
73
16
40
0
40
0
40
0
40
0
40
0.125000000000006
40
0.125000000000006
40
0.250000000000011
40
0.250000000000011
40
0.499999999999981
40
0.499999999999981
40
0.624999999999986
40
0.624999999999986
40
0.749999999999991
40
0.749999999999991
40
0.874999999999995
40
0.874999999999995
40
1
40
1
40
1
40
1
41
1
10
168.543667217038
20
4.65139405785592
30
0
41
1
10
168.467418958931
20
4.65713795366977
30
0
41
1
10
168.392503479072
20
4.66653753292277
30
0
41
1
10
168.244340456749
20
4.69226493793829
30
0
41
1
10
168.170980705261
20
4.70867127732609
30
0
41
1
10
167.956597543699
20
4.76727115798033
30
0
41
1
10
167.819560847838
20
4.8188929474978
30
0
41
1
10
167.620084538095
20
4.91698864420874
30
0
41
1
10
167.55464639657
20
4.95317050975018
30
0
41
1
10
167.425740307204
20
5.03342865156034
30
0
41
1
10
167.363106359668
20
5.07702117789336
30
0
41
1
10
167.242642270405
20
5.1707778373123
30
0
41
1
10
167.184626555487
20
5.22105003654616
30
0
41
1
10
167.073248479272
20
5.32914827502174
30
0
41
1
10
167.019795764685
20
5.38717532705007
30
0
41
1
10
166.970195310145
20
5.44791168442754
30
0
0
SPLINE
5
306
100
AcDbEntity
8
1
62
256
6
ByLayer
370
13
48
1
60
0
100
AcDbSpline
70
4
71
3
72
8
73
4
40
0
40
0
40
0
40
0
40
1
40
1
40
1
40
1
41
1
10
150.412560194403
20
-0.0543071996154652
30
0
41
1
10
151.412548020351
20
-0.0952324907749187
30
0
41
1
10
152.412548229287
20
-0.136063724240785
30
0
41
1
10
153.412560194403
20
-0.176804984277425
30
0
0
SPLINE
5
307
100
AcDbEntity
8
1
62
256
6
ByLayer
370
13
48
1
60
0
100
AcDbSpline
70
4
71
3
72
18
73
14
40
0
40
0
40
0
40
0
40
0.249999999999967
40
0.249999999999967
40
0.374999999999951
40
0.374999999999951
40
0.499999999999935
40
0.499999999999935
40
0.749999999999968
40
0.749999999999968
40
0.874999999999984
40
0.874999999999984
40
1
40
1
40
1
40
1
41
1
10
158.804288032276
20
5.02366340462993
30
0
41
1
10
158.79896748244
20
5.02338456642843
30
0
41
1
10
158.800231426661
20
5.03364301856146
30
0
41
1
10
158.815496522321
20
5.06206134942818
30
0
41
1
10
158.822855176795
20
5.07356585820361
30
0
41
1
10
158.842797435985
20
5.09906421778396
30
0
41
1
10
158.855648516755
20
5.11330900268095
30
0
41
1
10
158.90173177836
20
5.15577601143031
30
0
41
1
10
158.94391947243
20
5.18446875055784
30
0
41
1
10
159.01720843783
20
5.21565401943738
30
0
41
1
10
159.043720551619
20
5.22433200171395
30
0
41
1
10
159.097865274396
20
5.2368135397667
30
0
41
1
10
159.125730597765
20
5.24076836211992
30
0
41
1
10
159.1543989421
20
5.24228637273191
30
0
0
SPLINE
5
308
100
AcDbEntity
8
1
62
256
6
ByLayer
370
13
48
1
60
0
100
AcDbSpline
70
4
71
3
72
12
73
8
40
0
40
0
40
0
40
0
40
0.249999999999892
40
0.249999999999892
40
0.499999999999783
40
0.499999999999783
40
1
40
1
40
1
40
1
41
1
10
147.958452528572
20
7.45309441408654
30
0
41
1
10
147.961348515084
20
7.46602367406066
30
0
41
1
10
147.969418850163
20
7.47738480429578
30
0
41
1
10
147.989389472629
20
7.49490940465242
30
0
41
1
10
148.001391476581
20
7.50152214495518
30
0
41
1
10
148.038977304542
20
7.5166186635727
30
0
41
1
10
148.066763497719
20
7.52088661019283
30
0
41
1
10
148.094810281082
20
7.52144827330847
30
0
0
SPLINE
5
309
100
AcDbEntity
8
1
62
256
6
ByLayer
370
13
48
1
60
0
100
AcDbSpline
70
4
71
3
72
25
73
21
40
0
40
0
40
0
40
0
40
0.0625000000000001
40
0.0625000000000001
40
0.125
40
0.125
40
0.25
40
0.25
40
0.312499999999999
40
0.312499999999999
40
0.343749999999999
40
0.343749999999999
40
0.374999999999999
40
0.499999999999999
40
0.499999999999999
40
0.624999999999999
40
0.624999999999999
40
0.749999999999999
40
0.749999999999999
40
1
40
1
40
1
40
1
41
1
10
26.216323937599
20
-6.66880303788847
30
0
41
1
10
25.9127151416689
20
-6.72795078150097
30
0
41
1
10
25.6108222267447
20
-6.7942232319202
30
0
41
1
10
25.0104919454312
20
-6.94111631313027
30
0
41
1
10
24.7119103209816
20
-7.0218415739437
30
0
41
1
10
23.8330400164949
20
-7.28210151836487
30
0
41
1
10
23.2655240087866
20
-7.48055770151026
30
0
41
1
10
22.4404764050307
20
-7.81380855580312
30
0
41
1
10
22.169845270484
20
-7.93083846931179
30
0
41
1
10
21.7704217100193
20
-8.11522960734425
30
0
41
1
10
21.6384770310972
20
-8.17831594763186
30
0
41
1
10
21.3727053453219
20
-8.30193593526315
30
0
41
1
10
20.7060841465676
20
-8.60801327518155
30
0
41
1
10
20.0285786059881
20
-8.89932996573862
30
0
41
1
10
18.9308617652961
20
-9.34684678922292
30
0
41
1
10
18.3746893107843
20
-9.56147098879708
30
0
41
1
10
17.2514471361372
20
-9.97129658151951
30
0
41
1
10
16.6844070086721
20
-10.166511880791
30
0
41
1
10
14.967250201782
20
-10.7234602277831
30
0
41
1
10
13.8011341741848
20
-11.0565620736145
30
0
41
1
10
12.6137794971213
20
-11.3516568672725
30
0
0
SPLINE
5
30A
100
AcDbEntity
8
1
62
256
6
ByLayer
370
13
48
1
60
0
100
AcDbSpline
70
4
71
3
72
14
73
10
40
0
40
0
40
0
40
0
40
0.500000000000042
40
0.500000000000042
40
0.750000000000021
40
0.750000000000021
40
0.875000000000011
40
0.875000000000011
40
1
40
1
40
1
40
1
41
1
10
160.838762199696
20
5.29347228228602
30
0
41
1
10
160.982391664728
20
5.24512593712421
30
0
41
1
10
161.125970066845
20
5.21255067509529
30
0
41
1
10
161.342911036845
20
5.18362789951377
30
0
41
1
10
161.41547670445
20
5.17736814636959
30
0
41
1
10
161.52487366335
20
5.17299690604403
30
0
41
1
10
161.561476706542
20
5.17237933376313
30
0
41
1
10
161.634650103107
20
5.17283739350103
30
0
41
1
10
161.671528869695
20
5.17392912958869
30
0
41
1
10
161.707624509873
20
5.17582082193221
30
0
0
SPLINE
5
30B
100
AcDbEntity
8
1
62
256
6
ByLayer
370
13
48
1
60
0
100
AcDbSpline
70
4
71
3
72
40
73
36
40
0
40
0
40
0
40
0
40
0.125000000000001
40
0.125000000000001
40
0.187500000000002
40
0.187500000000002
40
0.218750000000002
40
0.218750000000002
40
0.250000000000002
40
0.250000000000002
40
0.375000000000002
40
0.375000000000002
40
0.437500000000002
40
0.437500000000002
40
0.468750000000003
40
0.468750000000003
40
0.500000000000003
40
0.500000000000003
40
0.625000000000004
40
0.625000000000004
40
0.656250000000004
40
0.656250000000004
40
0.687500000000004
40
0.687500000000004
40
0.750000000000003
40
0.750000000000003
40
0.812500000000002
40
0.812500000000002
40
0.843750000000002
40
0.843750000000002
40
0.875000000000001
40
0.875000000000001
40
0.937500000000001
40
0.937500000000001
40
1
40
1
40
1
40
1
41
1
10
12.6164851068113
20
-11.3509843634987
30
0
41
1
10
12.1348125553191
20
-11.4707229289847
30
0
41
1
10
11.6612191581428
20
-11.6203310112376
30
0
41
1
10
10.9629399004503
20
-11.889663034502
30
0
41
1
10
10.7322094735559
20
-11.9869703418238
30
0
41
1
10
10.3892633800367
20
-12.1446667807897
30
0
41
1
10
10.2754737302863
20
-12.1991913383664
30
0
41
1
10
10.0489739539472
20
-12.3122742025165
30
0
41
1
10
9.93597754723515
20
-12.3709861113236
30
0
41
1
10
9.37731836271263
20
-12.6731166233212
30
0
41
1
10
8.95486794618603
20
-12.9394085077305
30
0
41
1
10
8.35920917734936
20
-13.3766947340446
30
0
41
1
10
8.1670362547128
20
-13.5288075951115
30
0
41
1
10
7.88899303589028
20
-13.7670915026664
30
0
41
1
10
7.79801592846252
20
-13.8482060896446
30
0
41
1
10
7.61964981208337
20
-14.0139788318802
30
0
41
1
10
7.5320734682123
20
-14.0988531715478
30
0
41
1
10
7.10943225496408
20
-14.5266480687177
30
0
41
1
10
6.81512176685027
20
-14.8833751599739
30
0
41
1
10
6.50758929261781
20
-15.3486886012931
30
0
41
1
10
6.4490004234078
20
-15.442985646346
30
0
41
1
10
6.33893327969796
20
-15.6325191633186
30
0
41
1
10
6.2877766852759
20
-15.7271719815757
30
0
41
1
10
6.14601145645594
20
-16.0107901766592
30
0
41
1
10
6.06695363030909
20
-16.199402841011
30
0
41
1
10
5.94005749349986
20
-16.5755632863469
30
0
41
1
10
5.89220374284989
20
-16.7631112282886
30
0
41
1
10
5.84565997842063
20
-17.0435703606251
30
0
41
1
10
5.83443932972764
20
-17.1367990946014
30
0
41
1
10
5.82101727622359
20
-17.3195556843866
30
0
41
1
10
5.81873462789972
20
-17.4095133125218
30
0
41
1
10
5.82515683066634
20
-17.6751655811646
30
0
41
1
10
5.84695904823053
20
-17.846674193527
30
0
41
1
10
5.92500112795554
20
-18.1786364433124
30
0
41
1
10
5.98170876239786
20
-18.3398184125869
30
0
41
1
10
6.05499576551961
20
-18.4923088065477
30
0
0
SPLINE
5
30C
100
AcDbEntity
8
1
62
256
6
ByLayer
370
13
48
1
60
0
100
AcDbSpline
70
4
71
3
72
40
73
36
40
0
40
0
40
0
40
0
40
0.125
40
0.125
40
0.1875
40
0.1875
40
0.21875
40
0.21875
40
0.25
40
0.25
40
0.375000000000001
40
0.375000000000001
40
0.406250000000001
40
0.406250000000001
40
0.437500000000001
40
0.437500000000001
40
0.500000000000001
40
0.500000000000001
40
0.531250000000001
40
0.531250000000001
40
0.562500000000001
40
0.562500000000001
40
0.625000000000001
40
0.625000000000001
40
0.687500000000001
40
0.687500000000001
40
0.718750000000001
40
0.718750000000001
40
0.75
40
0.75
40
0.8125
40
0.8125
40
0.875
40
0.875
40
1
40
1
40
1
40
1
41
1
10
5.1431
20
-4.94974746830596
30
0
41
1
10
5.55099072301729
20
-4.66310633147623
30
0
41
1
10
5.92914621407232
20
-4.34497455728877
30
0
41
1
10
6.44544921506994
20
-3.81384001798412
30
0
41
1
10
6.60900138397182
20
-3.62774166388678
30
0
41
1
10
6.83991144954874
20
-3.33332477404929
30
0
41
1
10
6.91409148837292
20
-3.2330866620444
30
0
41
1
10
7.05566256102219
20
-3.02977728855865
30
0
41
1
10
7.12322449358933
20
-2.92649067136208
30
0
41
1
10
7.4445522283377
20
-2.40171370616665
30
0
41
1
10
7.64965287082484
20
-1.95558690712923
30
0
41
1
10
7.8283405019487
20
-1.35859922792042
30
0
41
1
10
7.86011648563255
20
-1.23707504457244
30
0
41
1
10
7.9143636583448
20
-0.994506022210061
30
0
41
1
10
7.93701910130068
20
-0.872903945140649
30
0
41
1
10
7.99166778139275
20
-0.507151184113667
30
0
41
1
10
8.01038199150125
20
-0.262056715314145
30
0
41
1
10
8.01152843891921
20
0.10749862824423
30
0
41
1
10
8.00741358210595
20
0.231003360010021
30
0
41
1
10
7.99001107699007
20
0.478664764496898
30
0
41
1
10
7.9766418459335
20
0.60333592513868
30
0
41
1
10
7.92299502950468
20
0.97436452218534
30
0
41
1
10
7.86959671209169
20
1.21646993282414
30
0
41
1
10
7.7300289045192
20
1.69092958349324
30
0
41
1
10
7.64384869311564
20
1.92328063338201
30
0
41
1
10
7.49087789140577
20
2.2647550508002
30
0
41
1
10
7.43584955598058
20
2.37748717794452
30
0
41
1
10
7.31954998587523
20
2.59777596536677
30
0
41
1
10
7.25812149394508
20
2.70571145440957
30
0
41
1
10
7.06452109458453
20
3.02324234432763
30
0
41
1
10
6.92306400146688
20
3.22658220276577
30
0
41
1
10
6.61728994327356
20
3.61786094609573
30
0
41
1
10
6.45217362154017
20
3.80653535029486
30
0
41
1
10
5.93200487388972
20
4.34279005456492
30
0
41
1
10
5.55186710277823
20
4.66249046434126
30
0
41
1
10
5.1431
20
4.94974746830596
30
0
0
SPLINE
5
30D
100
AcDbEntity
8
1
62
256
6
ByLayer
370
13
48
1
60
0
100
AcDbSpline
70
4
71
3
72
14
73
10
40
0
40
0
40
0
40
0
40
0.25
40
0.25
40
0.5
40
0.5
40
0.75
40
0.75
40
1
40
1
40
1
40
1
41
1
10
158.056798085537
20
4.82368281975045
30
0
41
1
10
158.089923676341
20
4.81694983691045
30
0
41
1
10
158.120099066678
20
4.80857174411295
30
0
41
1
10
158.171329797848
20
4.78917838923871
30
0
41
1
10
158.192796409387
20
4.77795241962627
30
0
41
1
10
158.224484841138
20
4.75418332403441
30
0
41
1
10
158.235297216733
20
4.74124239686628
30
0
41
1
10
158.246082090679
20
4.71494427520216
30
0
41
1
10
158.24624058447
20
4.70169639279814
30
0
41
1
10
158.241720899003
20
4.68836018214671
30
0
0
SPLINE
5
30E
100
AcDbEntity
8
1
62
256
6
ByLayer
370
13
48
1
60
0
100
AcDbSpline
70
4
71
3
72
8
73
4
40
0
40
0
40
0
40
0
40
1
40
1
40
1
40
1
41
1
10
0
20
4.42266887749923
30
0
41
1
10
0.0315947615411005
20
4.59876410270371
30
0
41
1
10
0.0649429983480161
20
4.77445351716128
30
0
41
1
10
0.0999999999999943
20
4.94974746830573
30
0
0
SPLINE
5
30F
100
AcDbEntity
8
1
62
256
6
ByLayer
370
13
48
1
60
0
100
AcDbSpline
70
4
71
3
72
9
73
5
40
0
40
0
40
0
40
0
40
0.5
40
1
40
1
40
1
40
1
41
1
10
158.269209470219
20
4.44956056725343
30
0
41
1
10
158.279201906505
20
4.46184047218082
30
0
41
1
10
158.298941953304
20
4.48663875330666
30
0
41
1
10
158.318185121082
20
4.51191089664735
30
0
41
1
10
158.327680645791
20
4.52466471328339
30
0
0
SPLINE
5
310
100
AcDbEntity
8
1
62
256
6
ByLayer
370
13
48
1
60
0
100
AcDbSpline
70
4
71
1
72
4
73
2
40
0
40
0
40
1
40
1
41
1
10
30.01
20
-15.9416712991131
30
0
41
1
10
30.01
20
-9.73009808365507
30
0
0
SPLINE
5
311
100
AcDbEntity
8
1
62
256
6
ByLayer
370
13
48
1
60
0
100
AcDbSpline
70
4
71
3
72
8
73
4
40
0
40
0
40
0
40
0
40
1
40
1
40
1
40
1
41
1
10
148.095128613442
20
7.52526595959495
30
0
41
1
10
148.218371215354
20
9.0033325469052
30
0
41
1
10
148.336796479701
20
10.4788915503915
30
0
41
1
10
148.448530378457
20
11.9526470104209
30
0
0
SPLINE
5
312
100
AcDbEntity
8
1
62
256
6
ByLayer
370
13
48
1
60
0
100
AcDbSpline
70
4
71
3
72
12
73
8
40
0
40
0
40
0
40
0
40
0.25
40
0.25
40
0.499999999999999
40
0.499999999999999
40
1
40
1
40
1
40
1
41
1
10
168.414492235331
20
0.510891136160524
30
0
41
1
10
168.415770384152
20
0.559428122284174
30
0
41
1
10
168.417818747754
20
0.603612977373473
30
0
41
1
10
168.423477672856
20
0.683155422595405
30
0
41
1
10
168.426995616668
20
0.716983333590093
30
0
41
1
10
168.439389529385
20
0.798246495674249
30
0
41
1
10
168.449998225664
20
0.823283961846926
30
0
41
1
10
168.461169064887
20
0.812905587914088
30
0
0
SPLINE
5
313
100
AcDbEntity
8
1
62
256
6
ByLayer
370
13
48
1
60
0
100
AcDbSpline
70
4
71
3
72
16
73
12
40
0
40
0
40
0
40
0
40
0.151967420908105
40
0.151967420908105
40
0.236770678817294
40
0.236770678817294
40
0.321573936726484
40
0.321573936726484
40
0.660786968363242
40
0.660786968363242
40
1
40
1
40
1
40
1
41
1
10
10.6815175560612
20
-12.0365880835728
30
0
41
1
10
10.3365605023193
20
-12.4239539928872
30
0
41
1
10
10.0061260662526
20
-12.8220198727639
30
0
41
1
10
9.51445924449885
20
-13.4591937810918
30
0
41
1
10
9.34270770668564
20
-13.6912233265205
30
0
41
1
10
9.01012569924583
20
-14.160248028044
30
0
41
1
10
8.84967054770098
20
-14.3966740084774
30
0
41
1
10
8.07645326479005
20
-15.5882614201304
30
0
41
1
10
7.55219535168575
20
-16.5725732723225
30
0
41
1
10
6.67562611299871
20
-18.5990750455381
30
0
41
1
10
6.32260830453737
20
-19.6406597837486
30
0
41
1
10
6.05491936047474
20
-20.70975847159
30
0
0
SPLINE
5
314
100
AcDbEntity
8
1
62
256
6
ByLayer
370
13
48
1
60
0
100
AcDbSpline
70
4
71
3
72
8
73
4
40
0
40
0
40
0
40
0
40
1
40
1
40
1
40
1
41
1
10
155.429165584909
20
16.3533280378068
30
0
41
1
10
155.54522925291
20
16.3674845571331
30
0
41
1
10
155.661557443315
20
16.3794264364467
30
0
41
1
10
155.778155188844
20
16.3891115406844
30
0
0
SPLINE
5
315
100
AcDbEntity
8
1
62
256
6
ByLayer
370
13
48
1
60
0
100
AcDbSpline
70
4
71
1
72
4
73
2
40
0
40
0
40
1
40
1
41
1
10
154.597008074596
20
10.0443945323515
30
0
41
1
10
154.672144386993
20
10.0505250751687
30
0
0
SPLINE
5
316
100
AcDbEntity
8
1
62
256
6
ByLayer
370
13
48
1
60
0
100
AcDbSpline
70
4
71
1
72
4
73
2
40
0
40
0
40
1
40
1
41
1
10
154.606530433926
20
10.266510709152
30
0
41
1
10
154.662366788626
20
10.2685061734446
30
0
0
SPLINE
5
317
100
AcDbEntity
8
1
62
256
6
ByLayer
370
18
48
1
60
0
100
AcDbSpline
70
4
71
1
72
4
73
2
40
0
40
0
40
1
40
1
41
1
10
168.755088860669
20
0.359447726058761
30
0
41
1
10
168.43084681538
20
0.401835814807271
30
0
0
SPLINE
5
318
100
AcDbEntity
8
1
62
256
6
ByLayer
370
13
48
1
60
0
100
AcDbSpline
70
4
71
3
72
16
73
12
40
0
40
0
40
0
40
0
40
0.127164964743118
40
0.127164964743118
40
0.199901217681177
40
0.199901217681177
40
0.272637470619237
40
0.272637470619237
40
0.418109976495355
40
0.418109976495355
40
1
40
1
40
1
40
1
41
1
10
155.4353453391
20
16.2010154697362
30
0
41
1
10
155.455506805453
20
16.2046639705788
30
0
41
1
10
155.47637967557
20
16.2074176796687
30
0
41
1
10
155.508770531395
20
16.2105940054152
30
0
41
1
10
155.520537023101
20
16.2114224103999
30
0
41
1
10
155.543803241923
20
16.2127995262877
30
0
41
1
10
155.555632623932
20
16.2138325936463
30
0
41
1
10
155.591488324984
20
16.2175769502559
30
0
41
1
10
155.614951231722
20
16.2192993045289
30
0
41
1
10
155.732195931417
20
16.2277884991407
30
0
41
1
10
155.824275637261
20
16.2311503040945
30
0
41
1
10
155.914411382891
20
16.2326356379706
30
0
0
SPLINE
5
319
100
AcDbEntity
8
1
62
256
6
ByLayer
370
18
48
1
60
0
100
AcDbSpline
70
4
71
3
72
12
73
8
40
0
40
0
40
0
40
0
40
0.36622032012688
40
0.36622032012688
40
0.732440629016518
40
0.732440629016518
40
1
40
1
40
1
40
1
41
1
10
168.681215073293
20
-11.4560373767227
30
0
41
1
10
168.673375022918
20
-11.4582695016364
30
0
41
1
10
168.665499686974
20
-11.4603829129815
30
0
41
1
10
168.649689486896
20
-11.4643693823663
30
0
41
1
10
168.64175277634
20
-11.4662429060664
30
0
41
1
10
168.627974476843
20
-11.4692753682911
30
0
41
1
10
168.622143547225
20
-11.470491048316
30
0
41
1
10
168.616299418292
20
-11.4716420641188
30
0
0
SPLINE
5
31A
100
AcDbEntity
8
1
62
256
6
ByLayer
370
13
48
1
60
0
100
AcDbSpline
70
4
71
3
72
10
73
6
40
0
40
0
40
0
40
0
40
0.381095285607097
40
0.381095285607097
40
1
40
1
40
1
40
1
41
1
10
167.142942063928
20
16.0075584527415
30
0
41
1
10
167.148228585998
20
16.0073370613507
30
0
41
1
10
167.159245229474
20
16.0070457597195
30
0
41
1
10
167.200488326412
20
16.0062017440737
30
0
41
1
10
167.238454133271
20
16.0056120217603
30
0
41
1
10
167.277685540842
20
16.0051564918966
30
0
0
SPLINE
5
31B
100
AcDbEntity
8
1
62
256
6
ByLayer
370
18
48
1
60
0
100
AcDbSpline
70
4
71
1
72
4
73
2
40
0
40
0
40
1
40
1
41
1
10
168.585860506762
20
-11.4770995978266
30
0
41
1
10
168.513424840278
20
-10.8311130844642
30
0
0
SPLINE
5
31C
100
AcDbEntity
8
1
62
256
6
ByLayer
370
18
48
1
60
0
100
AcDbSpline
70
4
71
3
72
28
73
24
40
0
40
0
40
0
40
0
40
0.0009790445969011
40
0.0162770495719629
40
0.0315750545470248
40
0.0621710644971486
40
0.123363084397396
40
0.245747124197891
40
0.368131163998386
40
0.48286620131135
40
0.490515203798881
40
0.505813208773943
40
0.521111213749005
40
0.551707223699129
40
0.612899243599376
40
0.735283283399871
40
0.857667323200366
40
0.918859343100614
40
0.949455353050737
40
0.964753358025799
40
0.980051363000861
40
0.995349367975923
40
1
40
1
40
1
40
1
41
1
10
168.523232089473
20
-10.5679009085589
30
0
41
1
10
168.527250353019
20
-10.56617228324
30
0
41
1
10
168.59376163818
20
-10.5363188169314
30
0
41
1
10
168.71179266096
20
-10.4405668966553
30
0
41
1
10
168.821936784233
20
-10.1852232521705
30
0
41
1
10
168.833882560948
20
-9.78361345186966
30
0
41
1
10
168.959188952033
20
-9.02808807064108
30
0
41
1
10
169.091172593013
20
-7.9330645699537
30
0
41
1
10
169.2654322269
20
-6.65180230772563
30
0
41
1
10
169.382965001542
20
-5.77855820846059
30
0
41
1
10
169.449109375504
20
-5.27597520797968
30
0
41
1
10
169.43961173077
20
-5.11836366783979
30
0
41
1
10
169.384790556041
20
-4.89693693557092
30
0
41
1
10
169.336850292674
20
-4.52070728050029
30
0
41
1
10
169.207416376269
20
-3.75789840811268
30
0
41
1
10
169.039038428937
20
-2.67059737949287
30
0
41
1
10
168.861078991418
20
-1.58437166238224
30
0
41
1
10
168.746057863242
20
-0.820009166481555
30
0
41
1
10
168.675670951906
20
-0.446027797227089
30
0
41
1
10
168.657333745685
20
-0.224450915576654
30
0
41
1
10
168.621292184752
20
-0.0242782043390832
30
0
41
1
10
168.513651679467
20
0.106554172435637
30
0
41
1
10
168.437793951415
20
0.155569985858676
30
0
41
1
10
168.419605176067
20
0.165809975937833
30
0
0
SPLINE
5
31D
100
AcDbEntity
8
1
62
256
6
ByLayer
370
18
48
1
60
0
100
AcDbSpline
70
4
71
3
72
25
73
21
40
0
40
0
40
0
40
0
40
0.0119395523542566
40
0.0436936499555858
40
0.107201845158244
40
0.234218235563561
40
0.361234625968878
40
0.480312491973863
40
0.488251016374195
40
0.504128065174859
40
0.520005113975524
40
0.551759211576853
40
0.615267406779512
40
0.742283797184828
40
0.869300187590145
40
0.932808382792804
40
0.964562480394133
40
0.980439529194798
40
0.996316577995462
40
1
40
1
40
1
40
1
41
1
10
168.604762657872
20
-10.2976116723334
30
0
41
1
10
168.624107648475
20
-10.2642502053321
30
0
41
1
10
168.678327615087
20
-10.1269362385303
30
0
41
1
10
168.689343226209
20
-9.75659804383454
30
0
41
1
10
168.815706583015
20
-8.99469976795626
30
0
41
1
10
168.947440630288
20
-7.90174706158999
30
0
41
1
10
169.121833521989
20
-6.6195050072933
30
0
41
1
10
169.239325118552
20
-5.74656685260328
30
0
41
1
10
169.303655794011
20
-5.25776482820115
30
0
41
1
10
169.295768217062
20
-5.12687204522621
30
0
41
1
10
169.242096574733
20
-4.91008835835396
30
0
41
1
10
169.193480966321
20
-4.52855867330146
30
0
41
1
10
169.064368700203
20
-3.76764542224231
30
0
41
1
10
168.895928520409
20
-2.6799425273378
30
0
41
1
10
168.717919637592
20
-1.59341500688112
30
0
41
1
10
168.603150010621
20
-0.830723839469727
30
0
41
1
10
168.531879122667
20
-0.452045705154262
30
0
41
1
10
168.513495296596
20
-0.229905494459672
30
0
41
1
10
168.492507746033
20
-0.113341872083964
30
0
41
1
10
168.46431329918
20
-0.0597731148374692
30
0
41
1
10
168.458436108717
20
-0.0500841449139671
30
0
0
SPLINE
5
31E
100
AcDbEntity
8
1
62
256
6
ByLayer
370
18
48
1
60
0
100
AcDbSpline
70
4
71
3
72
10
73
6
40
0
40
0
40
0
40
0
40
0.520234208896791
40
0.881506374964671
40
1
40
1
40
1
40
1
41
1
10
169.192491265945
20
-5.13251170245942
30
0
41
1
10
169.196027820248
20
-5.16661867856465
30
0
41
1
10
169.197104158711
20
-5.22306318039986
30
0
41
1
10
169.187412095942
20
-5.29670611774702
30
0
41
1
10
169.182743524556
20
-5.33211103109119
30
0
41
1
10
169.181589354357
20
-5.34085980592812
30
0
0
SPLINE
5
31F
100
AcDbEntity
8
1
62
256
6
ByLayer
370
13
48
1
60
0
100
AcDbSpline
70
4
71
3
72
18
73
14
40
0
40
0
40
0
40
0
40
0.182207452205613
40
0.182207452205613
40
0.364414904411225
40
0.364414904411225
40
0.546622356616838
40
0.546622356616838
40
0.72882980882245
40
0.72882980882245
40
0.911037261028062
40
0.911037261028062
40
1
40
1
40
1
40
1
41
1
10
30.01
20
-9.72478773973137
30
0
41
1
10
30.01
20
-9.51346980784743
30
0
41
1
10
30.01
20
-9.29381396905333
30
0
41
1
10
30.01
20
-8.83852164403996
30
0
41
1
10
30.01
20
-8.60103648182468
30
0
41
1
10
30.01
20
-8.11766828966731
30
0
41
1
10
30.01
20
-7.87519370638168
30
0
41
1
10
30.01
20
-7.38870494335868
30
0
41
1
10
30.01
20
-7.14216630086804
30
0
41
1
10
30.01
20
-6.6620982845694
30
0
41
1
10
30.01
20
-6.42872683694043
30
0
41
1
10
30.01
20
-6.09122285358876
30
0
41
1
10
30.01
20
-5.98166612605692
30
0
41
1
10
30.01
20
-5.8744577397222
30
0
0
SPLINE
5
320
100
AcDbEntity
8
1
62
256
6
ByLayer
370
13
48
1
60
0
100
AcDbSpline
70
4
71
3
72
12
73
8
40
0
40
0
40
0
40
0
40
0.271974418725526
40
0.271974418725526
40
0.635987209362763
40
0.635987209362763
40
1
40
1
40
1
40
1
41
1
10
30.4498097827783
20
-5.86801475335346
30
0
41
1
10
30.4497486622007
20
-6.19428373707797
30
0
41
1
10
30.4497114388806
20
-6.54297445218967
30
0
41
1
10
30.4496842205273
20
-7.38110018059749
30
0
41
1
10
30.4497144800633
20
-7.87794540067179
30
0
41
1
10
30.4498626908878
20
-8.84048359859449
30
0
41
1
10
30.449980597884
20
-9.30588892430279
30
0
41
1
10
30.4501345433422
20
-9.72478769535013
30
0
0
SPLINE
5
321
100
AcDbEntity
8
1
62
256
6
ByLayer
370
13
48
1
60
0
100
AcDbSpline
70
4
71
3
72
12
73
8
40
0
40
0
40
0
40
0
40
0.383220482350766
40
0.383220482350766
40
0.766440964701531
40
0.766440964701531
40
1
40
1
40
1
40
1
41
1
10
154.940780711297
20
11.2617861983486
30
0
41
1
10
154.920747746211
20
11.232465915434
30
0
41
1
10
154.902161264429
20
11.2033719034057
30
0
41
1
10
154.868032405932
20
11.1462755230695
30
0
41
1
10
154.852509959737
20
11.1182817617744
30
0
41
1
10
154.830988926878
20
11.0762677851655
30
0
41
1
10
154.823522171992
20
11.0608161529852
30
0
41
1
10
154.817204555408
20
11.0468008435119
30
0
0
SPLINE
5
322
100
AcDbEntity
8
1
62
256
6
ByLayer
370
13
48
1
60
0
100
AcDbSpline
70
4
71
3
72
28
73
24
40
0
40
0
40
0
40
0
40
0.0251661060844981
40
0.0251661060844981
40
0.0764731531326827
40
0.0764731531326827
40
0.127780200180867
40
0.127780200180867
40
0.179087247229052
40
0.179087247229052
40
0.28170134132542
40
0.28170134132542
40
0.384315435421789
40
0.384315435421789
40
0.486929529518157
40
0.486929529518157
40
0.589543623614526
40
0.589543623614526
40
0.692157717710895
40
0.692157717710895
40
0.794771811807263
40
0.794771811807263
40
1
40
1
40
1
40
1
41
1
10
101.528548895697
20
-8.93756671043329
30
0
41
1
10
100.940460376765
20
-8.98096507899248
30
0
41
1
10
100.351843476332
20
-9.0222229319296
30
0
41
1
10
98.5616523114161
20
-9.14232574865778
30
0
41
1
10
97.3584878365842
20
-9.2157079128782
30
0
41
1
10
94.9474819278511
20
-9.34682804215473
30
0
41
1
10
93.7396356105666
20
-9.40454322588235
30
0
41
1
10
91.3187069861876
20
-9.50317246483164
30
0
41
1
10
90.105212233468
20
-9.54394820812342
30
0
41
1
10
86.4590503973943
20
-9.64260839719839
30
0
41
1
10
84.0270421889143
20
-9.67725569583357
30
0
41
1
10
79.1603039054208
20
-9.71889591903914
30
0
41
1
10
76.7256046208452
20
-9.72574629867432
30
0
41
1
10
71.8550501149317
20
-9.7288304626554
30
0
41
1
10
69.4192115794089
20
-9.72582621874278
30
0
41
1
10
64.5478011075372
20
-9.72365936538944
30
0
41
1
10
62.1121880478664
20
-9.72298146107732
30
0
41
1
10
57.2410569748351
20
-9.72343950266978
30
0
41
1
10
54.8055159604858
20
-9.72434870626012
30
0
41
1
10
49.9344131208272
20
-9.72550528253601
30
0
41
1
10
47.4988615415657
20
-9.72583422030851
30
0
41
1
10
40.1922064950703
20
-9.72531982544447
30
0
41
1
10
35.3211027436681
20
-9.72318089519891
30
0
41
1
10
30.45
20
-9.72478773973137
30
0
0
SPLINE
5
323
100
AcDbEntity
8
1
62
256
6
ByLayer
370
13
48
1
60
0
100
AcDbSpline
70
4
71
3
72
50
73
46
40
0
40
0
40
0
40
0
40
0.0137096620790707
40
0.0137096620790707
40
0.0334354688374891
40
0.0334354688374891
40
0.0531612755959075
40
0.0531612755959075
40
0.0926128891127444
40
0.0926128891127444
40
0.132064502629581
40
0.132064502629581
40
0.171516116146418
40
0.171516116146418
40
0.210967729663255
40
0.210967729663255
40
0.250419343180092
40
0.250419343180092
40
0.289870956696929
40
0.289870956696929
40
0.309596763455347
40
0.309596763455347
40
0.329322570213766
40
0.329322570213766
40
0.368774183730603
40
0.368774183730603
40
0.408225797247441
40
0.408225797247441
40
0.447677410764278
40
0.447677410764278
40
0.487129024281115
40
0.487129024281115
40
0.526580637797952
40
0.526580637797952
40
0.56603225131479
40
0.56603225131479
40
0.605483864831627
40
0.605483864831627
40
0.684387091865302
40
0.684387091865302
40
0.763290318898976
40
0.763290318898976
40
0.842193545932651
40
0.842193545932651
40
1
40
1
40
1
40
1
41
1
10
120.191098829844
20
-13.476023720319
30
0
41
1
10
119.808029291187
20
-13.5649558169712
30
0
41
1
10
119.42498212399
20
-13.6517429886497
30
0
41
1
10
118.490690892432
20
-13.8579277723078
30
0
41
1
10
117.939366793538
20
-13.9746587093932
30
0
41
1
10
116.835818431316
20
-14.1964052741281
30
0
41
1
10
116.283624305153
20
-14.3012300033632
30
0
41
1
10
114.62424953908
20
-14.5967890598946
30
0
41
1
10
113.513988276819
20
-14.7685830057636
30
0
41
1
10
111.276852714803
20
-15.0785662960207
30
0
41
1
10
110.150382648188
20
-15.2160990846236
30
0
41
1
10
107.879700560789
20
-15.4482069625375
30
0
41
1
10
106.738926687092
20
-15.5439139727937
30
0
41
1
10
104.448674205083
20
-15.7026087978224
30
0
41
1
10
103.298853520085
20
-15.7654933770231
30
0
41
1
10
100.989747586568
20
-15.8650833899254
30
0
41
1
10
99.8304641595048
20
-15.9017788736622
30
0
41
1
10
97.5022916887094
20
-15.9560739187754
30
0
41
1
10
96.3333748571005
20
-15.9737277054973
30
0
41
1
10
94.5721915908906
20
-15.9903758670784
30
0
41
1
10
93.9838295099559
20
-15.9942791420014
30
0
41
1
10
92.8044106939981
20
-15.9994391509956
30
0
41
1
10
92.2133515618754
20
-16.0006945634904
30
0
41
1
10
90.4393840874921
20
-16.0013771128682
30
0
41
1
10
89.2545774098915
20
-15.9977610864308
30
0
41
1
10
86.8803404353358
20
-15.9866281093591
30
0
41
1
10
85.6909147538958
20
-15.9789978253432
30
0
41
1
10
83.3071592234471
20
-15.9626415909486
30
0
41
1
10
82.1127874432931
20
-15.953711129286
30
0
41
1
10
79.7192452363815
20
-15.9435620247031
30
0
41
1
10
78.5200922361682
20
-15.9405147331705
30
0
41
1
10
76.1182848505333
20
-15.9352105897958
30
0
41
1
10
74.9159935089578
20
-15.9327906281098
30
0
41
1
10
72.512441257414
20
-15.9299078530874
30
0
41
1
10
71.3106561857471
20
-15.9299629712817
30
0
41
1
10
68.907080756688
20
-15.9327546151163
30
0
41
1
10
67.7052906815808
20
-15.9359577519825
30
0
41
1
10
64.0999269880941
20
-15.9396349805535
30
0
41
1
10
61.6963570150841
20
-15.935538356534
30
0
41
1
10
56.8892228238542
20
-15.9303338468991
30
0
41
1
10
54.4856579474002
20
-15.9282790839198
30
0
41
1
10
49.6785265235849
20
-15.9291889415471
30
0
41
1
10
47.2749611411994
20
-15.932156957092
30
0
41
1
10
40.0642640534761
20
-15.9358773006863
30
0
41
1
10
35.2571316277357
20
-15.9327711109835
30
0
41
1
10
30.45
20
-15.9321103651279
30
0
0
SPLINE
5
324
100
AcDbEntity
8
1
62
256
6
ByLayer
370
13
48
1
60
0
100
AcDbSpline
70
4
71
3
72
24
73
20
40
0
40
0
40
0
40
0
40
0.0814679883655842
40
0.0814679883655842
40
0.183527100769407
40
0.183527100769407
40
0.234556656971319
40
0.234556656971319
40
0.285586213173231
40
0.285586213173231
40
0.387645325577055
40
0.387645325577055
40
0.591763550384703
40
0.591763550384703
40
0.693822662788527
40
0.693822662788527
40
0.795881775192351
40
0.795881775192351
40
1
40
1
40
1
40
1
41
1
10
120.748204727087
20
-13.6114959926805
30
0
41
1
10
119.844475167125
20
-13.8347032857549
30
0
41
1
10
118.940922291031
20
-14.0457865561451
30
0
41
1
10
116.90225006823
20
-14.489930259295
30
0
41
1
10
115.766160938222
20
-14.7148104342947
30
0
41
1
10
114.052179990828
20
-15.0151818067283
30
0
41
1
10
113.479186899059
20
-15.1091637354221
30
0
41
1
10
112.328910951915
20
-15.284765234063
30
0
41
1
10
111.751414372889
20
-15.3664541190902
30
0
41
1
10
110.015156435258
20
-15.5933524462681
30
0
41
1
10
108.851464451732
20
-15.7202355693516
30
0
41
1
10
105.339827671267
20
-16.0404168890878
30
0
41
1
10
102.972123423417
20
-16.1746384720716
30
0
41
1
10
99.3812536123672
20
-16.3039996063074
30
0
41
1
10
98.1777197587778
20
-16.3349721810845
30
0
41
1
10
95.7648868722968
20
-16.3788273772253
30
0
41
1
10
94.5546039959888
20
-16.391727678687
30
0
41
1
10
90.9111574682379
20
-16.4122617522248
30
0
41
1
10
88.4654170275229
20
-16.4020651942695
30
0
41
1
10
86
20
-16.3885965916304
30
0
0
SPLINE
5
325
100
AcDbEntity
8
1
62
256
6
ByLayer
370
13
48
1
60
0
100
AcDbSpline
70
4
71
3
72
24
73
20
40
0
40
0
40
0
40
0
40
0.12230172285073
40
0.12230172285073
40
0.244603445701461
40
0.244603445701461
40
0.489206891402924
40
0.489206891402924
40
0.611508614253655
40
0.611508614253655
40
0.672659475679021
40
0.672659475679021
40
0.733810337104387
40
0.733810337104387
40
0.856112059955118
40
0.856112059955118
40
0.97841378280585
40
0.97841378280585
40
1
40
1
40
1
40
1
41
1
10
146.280600655589
20
16.1448347994243
30
0
41
1
10
145.052292565962
20
16.2430474240634
30
0
41
1
10
143.824228856341
20
16.3137150638594
30
0
41
1
10
141.36621857063
20
16.399037311907
30
0
41
1
10
140.138447756954
20
16.4135958755066
30
0
41
1
10
136.459847821168
20
16.3732984452552
30
0
41
1
10
134.011623235569
20
16.2346253211247
30
0
41
1
10
130.334343605062
20
15.8620326496838
30
0
41
1
10
129.10781960005
20
15.7103831659888
30
0
41
1
10
127.265689607296
20
15.4418190071852
30
0
41
1
10
126.65166429629
20
15.3454862150144
30
0
41
1
10
125.424948180976
20
15.1399016476401
30
0
41
1
10
124.811985393473
20
15.0306121516466
30
0
41
1
10
122.973511349029
20
14.6840768124027
30
0
41
1
10
121.748407434118
20
14.428124861257
30
0
41
1
10
119.295445591718
20
13.8717323012698
30
0
41
1
10
118.06735801674
20
13.5713774233296
30
0
41
1
10
116.615150064052
20
13.2011532140999
30
0
41
1
10
116.39710227808
20
13.1451600917334
30
0
41
1
10
116.178861736189
20
13.0887408855256
30
0
0
SPLINE
5
326
100
AcDbEntity
8
1
62
256
6
ByLayer
370
13
48
1
60
0
100
AcDbSpline
70
4
71
3
72
28
73
24
40
0
40
0
40
0
40
0
40
0.117226424267529
40
0.117226424267529
40
0.234452848535058
40
0.234452848535058
40
0.468905697070114
40
0.468905697070114
40
0.586132121337641
40
0.586132121337641
40
0.703358545605169
40
0.703358545605169
40
0.761971757738933
40
0.761971757738933
40
0.820584969872697
40
0.820584969872697
40
0.879198182006461
40
0.879198182006461
40
0.937811394140225
40
0.937811394140225
40
0.996424606273989
40
0.996424606273989
40
1
40
1
40
1
40
1
41
1
10
145.973165896069
20
15.5981882050274
30
0
41
1
10
144.830539744982
20
15.6896799223226
30
0
41
1
10
143.68866205105
20
15.7579660312902
30
0
41
1
10
141.404802555647
20
15.8485521256127
30
0
41
1
10
140.262457655305
20
15.8708542053235
30
0
41
1
10
136.835229631871
20
15.8686111232188
30
0
41
1
10
134.55737943967
20
15.7754368862124
30
0
41
1
10
131.14133637653
20
15.494933665161
30
0
41
1
10
130.00276959807
20
15.3778199045938
30
0
41
1
10
127.724009510441
20
15.0954911055191
30
0
41
1
10
126.583773039259
20
14.9296322441714
30
0
41
1
10
124.870868096881
20
14.648172425576
30
0
41
1
10
124.299260650257
20
14.5489658155718
30
0
41
1
10
123.156907165975
20
14.3411742928028
30
0
41
1
10
122.586019679014
20
14.2325704766265
30
0
41
1
10
121.444659374948
20
14.0067873535174
30
0
41
1
10
120.874190329316
20
13.8895558550857
30
0
41
1
10
119.733532577652
20
13.6474083626984
30
0
41
1
10
119.163495871928
20
13.5232923786728
30
0
41
1
10
118.022303570221
20
13.2669673666522
30
0
41
1
10
117.451027869599
20
13.1342990551493
30
0
41
1
10
116.842747261151
20
12.9872774470035
30
0
41
1
10
116.80776850319
20
12.9788045488614
30
0
41
1
10
116.772783061903
20
12.9703127713852
30
0
0
SPLINE
5
327
100
AcDbEntity
8
1
62
256
6
ByLayer
370
13
48
1
60
0
100
AcDbSpline
70
4
71
3
72
12
73
8
40
0
40
0
40
0
40
0
40
0.0079364984259083
40
0.0079364984259083
40
0.503968249212954
40
0.503968249212954
40
1
40
1
40
1
40
1
41
1
10
133.327982610055
20
7.20847734404651
30
0
41
1
10
133.366677918468
20
7.21070285092216
30
0
41
1
10
133.405373060977
20
7.21291618191455
30
0
41
1
10
135.862507530857
20
7.35268901396006
30
0
41
1
10
138.28032598521
20
7.44277435151005
30
0
41
1
10
143.118848890302
20
7.52353669161516
30
0
41
1
10
145.538578722306
20
7.51412790865507
30
0
41
1
10
147.958452528577
20
7.45309441409935
30
0
0
SPLINE
5
328
100
AcDbEntity
8
1
62
256
6
ByLayer
370
13
48
1
60
0
100
AcDbSpline
70
4
71
3
72
8
73
4
40
0
40
0
40
0
40
0
40
1
40
1
40
1
40
1
41
1
10
147.766795625197
20
6.45484987074354
30
0
41
1
10
143.597544486739
20
6.57793059394302
30
0
41
1
10
139.434368692548
20
6.56785867280476
30
0
41
1
10
135.269179065511
20
6.43263481785831
30
0
0
SPLINE
5
329
100
AcDbEntity
8
1
62
256
6
ByLayer
370
13
48
1
60
0
100
AcDbSpline
70
4
71
3
72
38
73
34
40
0
40
0
40
0
40
0
40
0.0323927845867359
40
0.137803232421635
40
0.253460332589892
40
0.379476582033804
40
0.515815571567859
40
0.528173132309505
40
0.541025546170583
40
0.554374115588328
40
0.568220091452587
40
0.582564667279691
40
0.597408972465863
40
0.612754064702504
40
0.628600921620023
40
0.644950431715938
40
0.661803384615439
40
0.67916046070783
40
0.69702222019962
40
0.715389091624146
40
0.734261359848116
40
0.753639153617171
40
0.773522432685289
40
0.793910974576472
40
0.814804361031545
40
0.836201964197958
40
0.858102932626277
40
0.880506177143265
40
0.903410356678364
40
0.926813864127709
40
0.950714812347544
40
0.975111020377156
40
1
40
1
40
1
40
1
41
1
10
27.7586595892929
20
-6.04903942673118
30
0
41
1
10
27.7749576172318
20
-6.08867462162488
30
0
41
1
10
27.8456569377008
20
-6.25812947231361
30
0
41
1
10
27.9860699974218
20
-6.57598758896029
30
0
41
1
10
28.2022478142695
20
-7.02039903367381
30
0
41
1
10
28.4641032477552
20
-7.50884588230542
30
0
41
1
10
28.6724124974614
20
-7.86253907616077
30
0
41
1
10
28.7990247870721
20
-8.06810583668803
30
0
41
1
10
28.8293649403376
20
-8.11710962149039
30
0
41
1
10
28.8610368176392
20
-8.16790369606966
30
0
41
1
10
28.8940670149036
20
-8.22046683848376
30
0
41
1
10
28.9284870395915
20
-8.27476981449396
30
0
41
1
10
28.9643255449631
20
-8.33078213256999
30
0
41
1
10
29.0016101985077
20
-8.38846991507663
30
0
41
1
10
29.040366807659
20
-8.44779628247863
30
0
41
1
10
29.0806192043443
20
-8.50872102725134
30
0
41
1
10
29.1223888996534
20
-8.57120048877164
30
0
41
1
10
29.1656947876381
20
-8.63518737332456
30
0
41
1
10
29.2105528200828
20
-8.70063059236023
30
0
41
1
10
29.2569756747379
20
-8.76747509964898
30
0
41
1
10
29.3049724113623
20
-8.83566173391495
30
0
41
1
10
29.3545481180143
20
-8.90512706678004
30
0
41
1
10
29.4057035478024
20
-8.97580325600157
30
0
41
1
10
29.4584347476275
20
-9.04761791100151
30
0
41
1
10
29.5127326782874
20
-9.12049394866034
30
0
41
1
10
29.5685828338195
20
-9.19434953056339
30
0
41
1
10
29.6259648360317
20
-9.26909773484547
30
0
41
1
10
29.684852104405
20
-9.34464730949637
30
0
41
1
10
29.7452112225748
20
-9.4208993119384
30
0
41
1
10
29.8070024720669
20
-9.49775968783911
30
0
41
1
10
29.8701758731235
20
-9.57509048203329
30
0
41
1
10
29.934684548608
20
-9.65289750334509
30
0
41
1
10
29.9780835431193
20
-9.70419359775664
30
0
41
1
10
30
20
-9.73009808365498
30
0
0
SPLINE
5
32A
100
AcDbEntity
8
1
62
256
6
ByLayer
370
13
48
1
60
0
100
AcDbSpline
70
4
71
3
72
28
73
24
40
0
40
0
40
0
40
0
40
0.111995303039334
40
0.111995303039334
40
0.223990606078668
40
0.223990606078668
40
0.335985909118003
40
0.335985909118003
40
0.39198356063767
40
0.39198356063767
40
0.447981212157337
40
0.447981212157337
40
0.671971818236005
40
0.671971818236005
40
0.727969469755676
40
0.727969469755676
40
0.783967121275348
40
0.783967121275348
40
0.895962424314682
40
0.895962424314682
40
0.951960075834349
40
0.951960075834349
40
1
40
1
40
1
40
1
41
1
10
147.629440350991
20
5.87013284131959
30
0
41
1
10
147.289646476227
20
5.94660919049787
30
0
41
1
10
146.946653336656
20
6.00887116734165
30
0
41
1
10
146.254907142396
20
6.10969432321224
30
0
41
1
10
145.906145011043
20
6.14821024167463
30
0
41
1
10
145.20282570202
20
6.20373228326764
30
0
41
1
10
144.848265892201
20
6.22071898752699
30
0
41
1
10
144.311696794351
20
6.23061155621181
30
0
41
1
10
144.132048665197
20
6.23130123031535
30
0
41
1
10
143.771062088766
20
6.22745065554145
30
0
41
1
10
143.589351931538
20
6.22289386217054
30
0
41
1
10
142.680938169541
20
6.1870320830821
30
0
41
1
10
141.959242464686
20
6.11744053108995
30
0
41
1
10
141.063547698055
20
5.97884781700839
30
0
41
1
10
140.884734706
20
5.9485113825146
30
0
41
1
10
140.527787220161
20
5.88240478315373
30
0
41
1
10
140.349147602204
20
5.84652386632797
30
0
41
1
10
139.818052982949
20
5.73107493077595
30
0
41
1
10
139.472345702854
20
5.64428012907629
30
0
41
1
10
138.968063904473
20
5.49837325821807
30
0
41
1
10
138.802361450233
20
5.44710199314017
30
0
41
1
10
138.499424409842
20
5.34651205067169
30
0
41
1
10
138.361040698289
20
5.29778119086706
30
0
41
1
10
138.22571046558
20
5.2470143285104
30
0
0
SPLINE
5
32B
100
AcDbEntity
8
1
62
256
6
ByLayer
370
13
48
1
60
0
100
AcDbSpline
70
4
71
3
72
10
73
6
40
0
40
0
40
0
40
0
40
0.295774670406907
40
0.295774670406907
40
1
40
1
40
1
40
1
41
1
10
133.385357885211
20
7.16606313103534
30
0
41
1
10
134.318372787055
20
6.80363396848168
30
0
41
1
10
135.25071058872
20
6.43458319844538
30
0
41
1
10
138.401996980192
20
5.16727166874691
30
0
41
1
10
140.619742600207
20
4.24204553224601
30
0
41
1
10
142.841354488425
20
3.29554977281583
30
0
0
SPLINE
5
32C
100
AcDbEntity
8
1
62
256
6
ByLayer
370
13
48
1
60
0
100
AcDbSpline
70
4
71
3
72
12
73
8
40
0
40
0
40
0
40
0
40
0.40193333928817
40
0.40193333928817
40
0.80386667857634
40
0.80386667857634
40
1
40
1
40
1
40
1
41
1
10
86
20
16.3784709621889
30
0
41
1
10
84.9491755167454
20
16.3918902920053
30
0
41
1
10
83.896103760581
20
16.4014765945789
30
0
41
1
10
81.7852327027396
20
16.416229576615
30
0
41
1
10
80.727430428201
20
16.4214120066341
30
0
41
1
10
79.1501136965587
20
16.4277298956957
30
0
41
1
10
78.6321737507406
20
16.429578116153
30
0
41
1
10
78.1139014391659
20
16.4312928036345
30
0
0
SPLINE
5
32D
100
AcDbEntity
8
1
62
256
6
ByLayer
370
13
48
1
60
0
100
AcDbSpline
70
4
71
3
72
14
73
10
40
0
40
0
40
0
40
0
40
0.0108648624454291
40
0.0108648624454291
40
0.499267635014131
40
0.499267635014131
40
0.987670407582833
40
0.987670407582833
40
1
40
1
40
1
40
1
41
1
10
169.042275495434
20
4.84115488159338
30
0
41
1
10
169.041316959932
20
4.84014216880405
30
0
41
1
10
169.040356072921
20
4.83913232977372
30
0
41
1
10
168.996094163716
20
4.79286116252516
30
0
41
1
10
168.947995681806
20
4.75272040468249
30
0
41
1
10
168.841463373394
20
4.68413202370527
30
0
41
1
10
168.78524630915
20
4.65672518386813
30
0
41
1
10
168.724762858099
20
4.63527176609293
30
0
41
1
10
168.723271443927
20
4.63474772861716
30
0
41
1
10
168.721777949802
20
4.63422792560411
30
0
0
SPLINE
5
32E
100
AcDbEntity
8
1
62
256
6
ByLayer
370
13
48
1
60
0
100
AcDbSpline
70
4
71
3
72
8
73
4
40
0
40
0
40
0
40
0
40
1
40
1
40
1
40
1
41
1
10
168.443682658934
20
0.47005447371626
30
0
41
1
10
168.555244014907
20
0.487958800072846
30
0
41
1
10
168.666249624888
20
0.496116488747845
30
0
41
1
10
168.777498657342
20
0.495867800963708
30
0
0
SPLINE
5
32F
100
AcDbEntity
8
1
62
256
6
ByLayer
370
13
48
1
60
0
100
AcDbSpline
70
4
71
3
72
12
73
8
40
0
40
0
40
0
40
0
40
0.6069802505847
40
0.6069802505847
40
0.91047037587705
40
0.91047037587705
40
1
40
1
40
1
40
1
41
1
10
6.05499576551961
20
-18.4923088065477
30
0
41
1
10
6.32248088589952
20
-17.4745047056679
30
0
41
1
10
6.67559188462627
20
-16.4768792622383
30
0
41
1
10
7.33496879906187
20
-15.0096753832325
30
0
41
1
10
7.57656206231394
20
-14.5255251774478
30
0
41
1
10
7.91911311462914
20
-13.905125383923
30
0
41
1
10
7.99914456457898
20
-13.7642413988423
30
0
41
1
10
8.08121637281567
20
-13.6238072145995
30
0
0
SPLINE
5
330
100
AcDbEntity
8
1
62
256
6
ByLayer
370
13
48
1
60
0
100
AcDbSpline
70
4
71
2
72
6
73
3
40
0
40
0
40
0
40
1
40
1
40
1
41
1
10
133.382756455262
20
7.16707639515394
30
0
41
1
10
133.281691011329
20
7.20609126786522
30
0
41
1
10
133.180641861995
20
7.24716239670727
30
0
0
SPLINE
5
331
100
AcDbEntity
8
1
62
256
6
ByLayer
370
13
48
1
60
0
100
AcDbSpline
70
4
71
2
72
6
73
3
40
0
40
0
40
0
40
1
40
1
40
1
41
1
10
169.040455814211
20
4.83927310463369
30
0
41
1
10
169.107097370775
20
4.90788716770797
30
0
41
1
10
169.173188943918
20
4.96322793597272
30
0
0
SPLINE
5
332
100
AcDbEntity
8
1
62
256
6
ByLayer
370
13
48
1
60
0
100
AcDbSpline
70
4
71
2
72
6
73
3
40
0
40
0
40
0
40
1
40
1
40
1
41
1
10
155.811743805245
20
4.26298426824269
30
0
41
1
10
155.883258007298
20
4.21485511307245
30
0
41
1
10
155.956706617014
20
4.15358286451243
30
0
0
SPLINE
5
333
100
AcDbEntity
8
1
62
256
6
ByLayer
370
13
48
1
60
0
100
AcDbSpline
70
4
71
3
72
17
73
13
40
0
40
0
40
0
40
0
40
0.139573521799241
40
0.279834557989196
40
0.420293255046969
40
0.560455611528506
40
0.633606828481312
40
0.706442481819692
40
0.779752165858449
40
0.85347580820287
40
0.927070759361109
40
1
40
1
40
1
40
1
41
1
10
5.14309999999998
20
-24.75
30
0
41
1
10
6.36235415345791
20
-24.5784644865675
30
0
41
1
10
8.78287272695187
20
-24.1347803924134
30
0
41
1
10
12.357464673272
20
-23.1643600130373
30
0
41
1
10
15.8416535239288
20
-21.8980087939728
30
0
41
1
10
18.6690100527552
20
-20.5870177536344
30
0
41
1
10
20.8872934313474
20
-19.3947200347159
30
0
41
1
10
22.5297025170573
20
-18.378340411289
30
0
41
1
10
24.3003742820342
20
-17.5838997450978
30
0
41
1
10
26.1565200927697
20
-17.0026264153566
30
0
41
1
10
28.0694561007431
20
-16.6526914015661
30
0
41
1
10
29.3548370250228
20
-16.5752808874906
30
0
41
1
10
30
20
-16.575
30
0
0
SPLINE
5
334
100
AcDbEntity
8
1
62
256
6
ByLayer
370
13
48
1
60
0
100
AcDbSpline
70
4
71
3
72
17
73
13
40
0
40
0
40
0
40
0
40
0.0795940006719831
40
0.15992243163191
40
0.240286227945077
40
0.319984488042813
40
0.399579141226895
40
0.479508735920001
40
0.559649647647163
40
0.706786305438236
40
0.853757683516641
40
1
40
1
40
1
40
1
41
1
10
30
20
16.5749999999999
30
0
41
1
10
29.2951800530547
20
16.575398475845
30
0
41
1
10
27.8928299789461
20
16.6670936534316
30
0
41
1
10
25.8124178558144
20
17.0856526546824
30
0
41
1
10
23.8029769610158
20
17.7674589027664
30
0
41
1
10
21.9236867119323
20
18.7347754680646
30
0
41
1
10
20.1251255741444
20
19.8284596060615
30
0
41
1
10
18.2419474347365
20
20.7811779446749
30
0
41
1
10
15.7829870540418
20
21.9043604556887
30
0
41
1
10
12.6952379433126
20
23.0609243093905
30
0
41
1
10
8.95602620031704
20
24.1003394723524
30
0
41
1
10
6.42088201771008
20
24.5702019058858
30
0
41
1
10
5.14310000000003
20
24.75
30
0
0
LINE
5
7F
100
AcDbEntity
8
1
62
256
6
ByLayer
370
18
48
1
60
0
100
AcDbLine
10
162.021767
20
9.266301
30
0
11
162.031688
21
9.283667
31
0
39
0
210
0
220
0
230
1
0
LINE
5
80
100
AcDbEntity
8
1
62
256
6
ByLayer
370
18
48
1
60
0
100
AcDbLine
10
162.146664
20
9.289692
30
0
11
162.031688
21
9.283667
31
0
39
0
210
0
220
0
230
1
0
LINE
5
81
100
AcDbEntity
8
1
62
256
6
ByLayer
370
18
48
1
60
0
100
AcDbLine
10
161.907155
20
11.659893
30
0
11
161.895473
21
11.676127
31
0
39
0
210
0
220
0
230
1
0
LINE
5
82
100
AcDbEntity
8
1
62
256
6
ByLayer
370
18
48
1
60
0
100
AcDbLine
10
163.3211
20
9.657337
30
0
11
163.205109
21
9.651259
31
0
39
0
210
0
220
0
230
1
0
LINE
5
83
100
AcDbEntity
8
1
62
256
6
ByLayer
370
18
48
1
60
0
100
AcDbLine
10
163.464356
20
10.873067
30
0
11
163.444417
21
10.87302
31
0
39
0
210
0
220
0
230
1
0
LINE
5
84
100
AcDbEntity
8
1
62
256
6
ByLayer
370
18
48
1
60
0
100
AcDbLine
10
162.011464
20
11.682206
30
0
11
161.895473
21
11.676127
31
0
39
0
210
0
220
0
230
1
0
LINE
5
85
100
AcDbEntity
8
1
62
256
6
ByLayer
370
18
48
1
60
0
100
AcDbLine
10
163.593254
20
10.232943
30
0
11
163.478277
21
10.226918
31
0
39
0
210
0
220
0
230
1
0
LINE
5
86
100
AcDbEntity
8
1
62
256
6
ByLayer
370
18
48
1
60
0
100
AcDbLine
10
162.137757
20
9.27238
30
0
11
162.021767
21
9.266301
31
0
39
0
210
0
220
0
230
1
0
LINE
5
87
100
AcDbEntity
8
1
62
256
6
ByLayer
370
18
48
1
60
0
100
AcDbLine
10
163.104419
20
11.398701
30
0
11
163.112572
21
11.416971
31
0
39
0
210
0
220
0
230
1
0
LINE
5
88
100
AcDbEntity
8
1
62
256
6
ByLayer
370
18
48
1
60
0
100
AcDbLine
10
163.219395
20
11.404727
30
0
11
163.104419
21
11.398701
31
0
39
0
210
0
220
0
230
1
0
LINE
5
89
100
AcDbEntity
8
1
62
256
6
ByLayer
370
18
48
1
60
0
100
AcDbLine
10
163.559393
20
10.879045
30
0
11
163.444417
21
10.87302
31
0
39
0
210
0
220
0
230
1
0
LINE
5
8A
100
AcDbEntity
8
1
62
256
6
ByLayer
370
18
48
1
60
0
100
AcDbLine
10
163.228563
20
11.42305
30
0
11
163.112572
21
11.416971
31
0
39
0
210
0
220
0
230
1
0
LINE
5
8B
100
AcDbEntity
8
1
62
256
6
ByLayer
370
18
48
1
60
0
100
AcDbLine
10
162.022131
20
11.665919
30
0
11
161.907155
21
11.659893
31
0
39
0
210
0
220
0
230
1
0
LINE
5
8C
100
AcDbEntity
8
1
62
256
6
ByLayer
370
18
48
1
60
0
100
AcDbLine
10
163.478277
20
10.226918
30
0
11
163.498112
21
10.228955
31
0
39
0
210
0
220
0
230
1
0
LINE
5
8D
100
AcDbEntity
8
1
62
256
6
ByLayer
370
18
48
1
60
0
100
AcDbLine
10
163.310067
20
9.674602
30
0
11
163.195091
21
9.668577
31
0
39
0
210
0
220
0
230
1
0
LINE
5
8E
100
AcDbEntity
8
1
62
256
6
ByLayer
370
18
48
1
60
0
100
AcDbLine
10
163.205109
20
9.651259
30
0
11
163.195091
21
9.668577
31
0
39
0
210
0
220
0
230
1
0
LINE
5
8F
100
AcDbEntity
8
1
62
256
6
ByLayer
370
18
48
1
60
0
100
AcDbLine
10
168.807623
20
-0.058289
30
0
11
169.617968
21
-5.138748
31
0
39
0
210
0
220
0
230
1
0
LINE
5
90
100
AcDbEntity
8
1
62
256
6
ByLayer
370
18
48
1
60
0
100
AcDbLine
10
168.699525
20
-10.715818
30
0
11
168.601348
21
-10.743773
31
0
39
0
210
0
220
0
230
1
0
LINE
5
91
100
AcDbEntity
8
1
62
256
6
ByLayer
370
18
48
1
60
0
100
AcDbLine
10
169.620973
20
-5.366708
30
0
11
168.950058
21
-10.427098
31
0
39
0
210
0
220
0
230
1
0
LINE
5
92
100
AcDbEntity
8
1
62
256
6
ByLayer
370
18
48
1
60
0
100
AcDbLine
10
168.758329
20
0.133895
30
0
11
168.786481
21
0.036405
31
0
39
0
210
0
220
0
230
1
0
LINE
5
93
100
AcDbEntity
8
1
62
256
6
ByLayer
370
13
48
1
60
0
100
AcDbLine
10
169.839871
20
10.85665
30
0
11
169.208303
21
6.030843
31
0
39
0
210
0
220
0
230
1
0
LINE
5
94
100
AcDbEntity
8
1
62
256
6
ByLayer
370
13
48
1
60
0
100
AcDbLine
10
157.511693
20
15.127961
30
0
11
157.527026
21
15.245125
31
0
39
0
210
0
220
0
230
1
0
LINE
5
95
100
AcDbEntity
8
1
62
256
6
ByLayer
370
13
48
1
60
0
100
AcDbLine
10
156.861021
20
10.156186
30
0
11
157.511693
21
15.127961
31
0
39
0
210
0
220
0
230
1
0
LINE
5
96
100
AcDbEntity
8
1
62
256
6
ByLayer
370
13
48
1
60
0
100
AcDbLine
10
157.036503
20
4.069496
30
0
11
156.893169
21
4.063243
31
0
39
0
210
0
220
0
230
1
0
LINE
5
97
100
AcDbEntity
8
1
62
256
6
ByLayer
370
13
48
1
60
0
100
AcDbLine
10
157.101814
20
3.983499
30
0
11
157.041985
21
3.96964
31
0
39
0
210
0
220
0
230
1
0
LINE
5
98
100
AcDbEntity
8
1
62
256
6
ByLayer
370
13
48
1
60
0
100
AcDbLine
10
155.705765
20
15.085837
30
0
11
157.412703
21
15.35697
31
0
39
0
210
0
220
0
230
1
0
LINE
5
99
100
AcDbEntity
8
1
62
256
6
ByLayer
370
13
48
1
60
0
100
AcDbLine
10
167.757489
20
16.918881
30
0
11
167.752877
21
16.918639
31
0
39
0
210
0
220
0
230
1
0
LINE
5
9A
100
AcDbEntity
8
1
62
256
6
ByLayer
370
13
48
1
60
0
100
AcDbLine
10
158.054514
20
15.348573
30
0
11
166.208267
21
15.775893
31
0
39
0
210
0
220
0
230
1
0
LINE
5
9B
100
AcDbEntity
8
1
62
256
6
ByLayer
370
13
48
1
60
0
100
AcDbLine
10
157.620293
20
4.892743
30
0
11
157.61568
21
4.892501
31
0
39
0
210
0
220
0
230
1
0
LINE
5
9C
100
AcDbEntity
8
1
62
256
6
ByLayer
370
13
48
1
60
0
100
AcDbLine
10
157.615033
20
5.197799
30
0
11
156.863684
21
9.955315
31
0
39
0
210
0
220
0
230
1
0
LINE
5
9D
100
AcDbEntity
8
1
62
256
6
ByLayer
370
13
48
1
60
0
100
AcDbLine
10
156.694485
20
10.174831
30
0
11
157.351803
21
15.197387
31
0
39
0
210
0
220
0
230
1
0
LINE
5
9E
100
AcDbEntity
8
1
62
256
6
ByLayer
370
13
48
1
60
0
100
AcDbLine
10
169.940165
20
11.073384
30
0
11
169.106593
21
16.351529
31
0
39
0
210
0
220
0
230
1
0
LINE
5
9F
100
AcDbEntity
8
1
62
256
6
ByLayer
370
13
48
1
60
0
100
AcDbLine
10
167.900822
20
16.925133
30
0
11
167.89621
21
16.924892
31
0
39
0
210
0
220
0
230
1
0
LINE
5
A0
100
AcDbEntity
8
1
62
256
6
ByLayer
370
13
48
1
60
0
100
AcDbLine
10
167.381289
20
5.631406
30
0
11
167.376677
21
5.631165
31
0
39
0
210
0
220
0
230
1
0
LINE
5
A1
100
AcDbEntity
8
1
62
256
6
ByLayer
370
13
48
1
60
0
100
AcDbLine
10
168.753984
20
5.080981
30
0
11
169.099516
21
5.803084
31
0
39
0
210
0
220
0
230
1
0
LINE
5
A2
100
AcDbEntity
8
1
62
256
6
ByLayer
370
13
48
1
60
0
100
AcDbLine
10
169.844484
20
10.856892
30
0
11
169.212915
21
6.031085
31
0
39
0
210
0
220
0
230
1
0
LINE
5
A3
100
AcDbEntity
8
1
62
256
6
ByLayer
370
13
48
1
60
0
100
AcDbLine
10
166.739477
20
5.639804
30
0
11
158.585724
21
5.212483
31
0
39
0
210
0
220
0
230
1
0
LINE
5
A4
100
AcDbEntity
8
1
62
256
6
ByLayer
370
13
48
1
60
0
100
AcDbLine
10
167.757489
20
16.918881
30
0
11
167.900822
21
16.925133
31
0
39
0
210
0
220
0
230
1
0
LINE
5
A5
100
AcDbEntity
8
1
62
256
6
ByLayer
370
13
48
1
60
0
100
AcDbLine
10
156.401059
20
16.231472
30
0
11
156.106498
21
16.232601
31
0
39
0
210
0
220
0
230
1
0
LINE
5
A6
100
AcDbEntity
8
1
62
256
6
ByLayer
370
13
48
1
60
0
100
AcDbLine
10
157.64939
20
4.980253
30
0
11
157.644778
21
4.980012
31
0
39
0
210
0
220
0
230
1
0
LINE
5
A7
100
AcDbEntity
8
1
62
256
6
ByLayer
370
13
48
1
60
0
100
AcDbLine
10
167.752007
20
17.018736
30
0
11
167.753123
21
17.018785
31
0
39
0
210
0
220
0
230
1
0
LINE
5
A8
100
AcDbEntity
8
1
62
256
6
ByLayer
370
13
48
1
60
0
100
AcDbLine
10
157.025037
20
9.979472
30
0
11
157.776386
21
5.221956
31
0
39
0
210
0
220
0
230
1
0
LINE
5
A9
100
AcDbEntity
8
1
62
256
6
ByLayer
370
13
48
1
60
0
100
AcDbLine
10
154.696421
20
9.813433
30
0
11
154.681148
21
9.910145
31
0
39
0
210
0
220
0
230
1
0
LINE
5
AA
100
AcDbEntity
8
1
62
256
6
ByLayer
370
13
48
1
60
0
100
AcDbLine
10
167.796628
20
11.010355
30
0
11
167.045279
21
15.767871
31
0
39
0
210
0
220
0
230
1
0
LINE
5
AB
100
AcDbEntity
8
1
62
256
6
ByLayer
370
13
48
1
60
0
100
AcDbLine
10
157.527026
20
15.245125
30
0
11
157.522414
21
15.244883
31
0
39
0
210
0
220
0
230
1
0
LINE
5
AC
100
AcDbEntity
8
1
62
256
6
ByLayer
370
13
48
1
60
0
100
AcDbLine
10
155.964997
20
16.401005
30
0
11
156.034389
21
16.393919
31
0
39
0
210
0
220
0
230
1
0
LINE
5
AD
100
AcDbEntity
8
1
62
256
6
ByLayer
370
13
48
1
60
0
100
AcDbLine
10
167.405291
20
5.789056
30
0
11
169.046379
21
6.04973
31
0
39
0
210
0
220
0
230
1
0
LINE
5
AE
100
AcDbEntity
8
1
62
256
6
ByLayer
370
13
48
1
60
0
100
AcDbLine
10
169.212915
20
6.031085
30
0
11
169.208303
21
6.030843
31
0
39
0
210
0
220
0
230
1
0
LINE
5
AF
100
AcDbEntity
8
1
62
256
6
ByLayer
370
13
48
1
60
0
100
AcDbLine
10
156.859072
20
9.955073
30
0
11
157.644778
21
4.980012
31
0
39
0
210
0
220
0
230
1
0
LINE
5
B0
100
AcDbEntity
8
1
62
256
6
ByLayer
370
13
48
1
60
0
100
AcDbLine
10
157.430097
20
15.460982
30
0
11
155.694476
21
15.185293
31
0
39
0
210
0
220
0
230
1
0
LINE
5
B1
100
AcDbEntity
8
1
62
256
6
ByLayer
370
13
48
1
60
0
100
AcDbLine
10
155.710715
20
14.936713
30
0
11
155.079146
21
10.110906
31
0
39
0
210
0
220
0
230
1
0
LINE
5
B2
100
AcDbEntity
8
1
62
256
6
ByLayer
370
13
48
1
60
0
100
AcDbLine
10
169.154969
20
4.951988
30
0
11
169.126056
21
5.140081
31
0
39
0
210
0
220
0
230
1
0
LINE
5
B3
100
AcDbEntity
8
1
62
256
6
ByLayer
370
13
48
1
60
0
100
AcDbLine
10
169.84182
20
11.057763
30
0
11
169.837208
21
11.057521
31
0
39
0
210
0
220
0
230
1
0
LINE
5
B4
100
AcDbEntity
8
1
62
256
6
ByLayer
370
13
48
1
60
0
100
AcDbLine
10
167.888922
20
16.774309
30
0
11
167.745589
21
16.768057
31
0
39
0
210
0
220
0
230
1
0
LINE
5
B5
100
AcDbEntity
8
1
62
256
6
ByLayer
370
13
48
1
60
0
100
AcDbLine
10
168.335172
20
16.926375
30
0
11
168.33056
21
16.926133
31
0
39
0
210
0
220
0
230
1
0
LINE
5
B6
100
AcDbEntity
8
1
62
256
6
ByLayer
370
13
48
1
60
0
100
AcDbLine
10
169.844484
20
10.856892
30
0
11
169.839871
21
10.85665
31
0
39
0
210
0
220
0
230
1
0
LINE
5
B7
100
AcDbEntity
8
1
62
256
6
ByLayer
370
13
48
1
60
0
100
AcDbLine
10
169.088226
20
5.90254
30
0
11
169.083614
21
5.902298
31
0
39
0
210
0
220
0
230
1
0
LINE
5
B8
100
AcDbEntity
8
1
62
256
6
ByLayer
370
13
48
1
60
0
100
AcDbLine
10
154.667448
20
10.366285
30
0
11
154.662367
21
10.268506
31
0
39
0
210
0
220
0
230
1
0
LINE
5
B9
100
AcDbEntity
8
1
62
256
6
ByLayer
370
13
48
1
60
0
100
AcDbLine
10
157.21968
20
4.215787
30
0
11
157.215068
21
4.215546
31
0
39
0
210
0
220
0
230
1
0
LINE
5
BA
100
AcDbEntity
8
1
62
256
6
ByLayer
370
13
48
1
60
0
100
AcDbLine
10
167.941303
20
16.926463
30
0
11
167.936691
21
16.926222
31
0
39
0
210
0
220
0
230
1
0
LINE
5
BB
100
AcDbEntity
8
1
62
256
6
ByLayer
370
13
48
1
60
0
100
AcDbLine
10
157.522414
20
15.244883
30
0
11
156.856409
21
10.155944
31
0
39
0
210
0
220
0
230
1
0
LINE
5
BC
100
AcDbEntity
8
1
62
256
6
ByLayer
370
13
48
1
60
0
100
AcDbLine
10
169.675855
20
11.033364
30
0
11
168.842284
21
16.311509
31
0
39
0
210
0
220
0
230
1
0
LINE
5
BD
100
AcDbEntity
8
1
62
256
6
ByLayer
370
13
48
1
60
0
100
AcDbLine
10
157.673616
20
15.109075
30
0
11
157.022945
21
10.137299
31
0
39
0
210
0
220
0
230
1
0
LINE
5
BE
100
AcDbEntity
8
1
62
256
6
ByLayer
370
13
48
1
60
0
100
AcDbLine
10
169.008249
20
16.335908
30
0
11
169.003637
21
16.335666
31
0
39
0
210
0
220
0
230
1
0
LINE
5
BF
100
AcDbEntity
8
1
62
256
6
ByLayer
370
13
48
1
60
0
100
AcDbLine
10
169.083614
20
5.902298
30
0
11
167.376677
21
5.631165
31
0
39
0
210
0
220
0
230
1
0
LINE
5
C0
100
AcDbEntity
8
1
62
256
6
ByLayer
370
13
48
1
60
0
100
AcDbLine
10
168.729599
20
5.744326
30
0
11
169.099516
21
5.803084
31
0
39
0
210
0
220
0
230
1
0
LINE
5
C1
100
AcDbEntity
8
1
62
256
6
ByLayer
370
13
48
1
60
0
100
AcDbLine
10
167.148048
20
5.880752
30
0
11
167.79872
21
10.852528
31
0
39
0
210
0
220
0
230
1
0
LINE
5
C2
100
AcDbEntity
8
1
62
256
6
ByLayer
370
13
48
1
60
0
100
AcDbLine
10
154.850783
20
10.144559
30
0
11
155.480722
21
14.957917
31
0
39
0
210
0
220
0
230
1
0
LINE
5
C3
100
AcDbEntity
8
1
62
256
6
ByLayer
370
13
48
1
60
0
100
AcDbLine
10
157.479409
20
4.981287
30
0
11
156.697719
21
9.930916
31
0
39
0
210
0
220
0
230
1
0
LINE
5
C4
100
AcDbEntity
8
1
62
256
6
ByLayer
370
13
48
1
60
0
100
AcDbLine
10
154.696421
20
9.813433
30
0
11
155.657367
21
4.636005
31
0
39
0
210
0
220
0
230
1
0
LINE
5
C5
100
AcDbEntity
8
1
62
256
6
ByLayer
370
13
48
1
60
0
100
AcDbLine
10
169.008249
20
16.335908
30
0
11
169.84182
21
11.057763
31
0
39
0
210
0
220
0
230
1
0
LINE
5
C6
100
AcDbEntity
8
1
62
256
6
ByLayer
370
13
48
1
60
0
100
AcDbLine
10
156.861021
20
10.156186
30
0
11
156.856409
21
10.155944
31
0
39
0
210
0
220
0
230
1
0
LINE
5
C7
100
AcDbEntity
8
1
62
256
6
ByLayer
370
13
48
1
60
0
100
AcDbLine
10
157.351803
20
15.197387
30
0
11
155.710715
21
14.936713
31
0
39
0
210
0
220
0
230
1
0
LINE
5
C8
100
AcDbEntity
8
1
62
256
6
ByLayer
370
13
48
1
60
0
100
AcDbLine
10
168.472559
20
4.73076
30
0
11
168.729599
21
5.744326
31
0
39
0
210
0
220
0
230
1
0
LINE
5
C9
100
AcDbEntity
8
1
62
256
6
ByLayer
370
13
48
1
60
0
100
AcDbLine
10
154.949508
20
10.131485
30
0
11
155.581076
21
14.957292
31
0
39
0
210
0
220
0
230
1
0
LINE
5
CA
100
AcDbEntity
8
1
62
256
6
ByLayer
370
13
48
1
60
0
100
AcDbLine
10
155.964997
20
16.401005
30
0
11
155.963881
21
16.400937
31
0
39
0
210
0
220
0
230
1
0
LINE
5
CB
100
AcDbEntity
8
1
62
256
6
ByLayer
370
13
48
1
60
0
100
AcDbLine
10
157.041985
20
3.96964
30
0
11
157.040868
21
3.969592
31
0
39
0
210
0
220
0
230
1
0
LINE
5
CC
100
AcDbEntity
8
1
62
256
6
ByLayer
370
13
48
1
60
0
100
AcDbLine
10
169.088226
20
5.90254
30
0
11
167.381289
21
5.631406
31
0
39
0
210
0
220
0
230
1
0
LINE
5
CD
100
AcDbEntity
8
1
62
256
6
ByLayer
370
13
48
1
60
0
100
AcDbLine
10
167.328118
20
16.791475
30
0
11
167.478357
21
16.799348
31
0
39
0
210
0
220
0
230
1
0
LINE
5
CE
100
AcDbEntity
8
1
62
256
6
ByLayer
370
13
48
1
60
0
100
AcDbLine
10
167.692178
20
17.004878
30
0
11
167.752007
21
17.018736
31
0
39
0
210
0
220
0
230
1
0
LINE
5
CF
100
AcDbEntity
8
1
62
256
6
ByLayer
370
13
48
1
60
0
100
AcDbLine
10
167.277686
20
16.005156
30
0
11
168.059375
21
11.055527
31
0
39
0
210
0
220
0
230
1
0
LINE
5
D0
100
AcDbEntity
8
1
62
256
6
ByLayer
370
13
48
1
60
0
100
AcDbLine
10
155.785743
20
4.652469
30
0
11
154.952171
21
9.930614
31
0
39
0
210
0
220
0
230
1
0
LINE
5
D1
100
AcDbEntity
8
1
62
256
6
ByLayer
370
13
48
1
60
0
100
AcDbLine
10
168.062609
20
10.811612
30
0
11
167.405291
21
5.789056
31
0
39
0
210
0
220
0
230
1
0
LINE
5
D2
100
AcDbEntity
8
1
62
256
6
ByLayer
370
13
48
1
60
0
100
AcDbLine
10
157.64939
20
4.980253
30
0
11
157.615033
21
5.197799
31
0
39
0
210
0
220
0
230
1
0
LINE
5
D3
100
AcDbEntity
8
1
62
256
6
ByLayer
370
13
48
1
60
0
100
AcDbLine
10
155.615685
20
15.885158
30
0
11
155.694476
21
15.185293
31
0
39
0
210
0
220
0
230
1
0
LINE
5
D4
100
AcDbEntity
8
1
62
256
6
ByLayer
370
13
48
1
60
0
100
AcDbLine
10
168.753984
20
5.080981
30
0
11
169.126056
21
5.140081
31
0
39
0
210
0
220
0
230
1
0
LINE
5
D5
100
AcDbEntity
8
1
62
256
6
ByLayer
370
13
48
1
60
0
100
AcDbLine
10
167.363895
20
5.527395
30
0
11
168.729599
21
5.744326
31
0
39
0
210
0
220
0
230
1
0
LINE
5
D6
100
AcDbEntity
8
1
62
256
6
ByLayer
370
13
48
1
60
0
100
AcDbLine
10
156.868172
20
4.212134
30
0
11
157.011506
21
4.218386
31
0
39
0
210
0
220
0
230
1
0
LINE
5
D7
100
AcDbEntity
8
1
62
256
6
ByLayer
370
13
48
1
60
0
100
AcDbLine
10
156.863684
20
9.955315
30
0
11
156.859072
21
9.955073
31
0
39
0
210
0
220
0
230
1
0
LINE
5
D8
100
AcDbEntity
8
1
62
256
6
ByLayer
370
13
48
1
60
0
100
AcDbLine
10
155.081239
20
9.953079
30
0
11
155.91481
21
4.674934
31
0
39
0
210
0
220
0
230
1
0
LINE
5
D9
100
AcDbEntity
8
1
62
256
6
ByLayer
370
13
48
1
60
0
100
AcDbLine
10
167.752007
20
17.018736
30
0
11
167.683735
21
17.004435
31
0
39
0
210
0
220
0
230
1
0
LINE
5
DA
100
AcDbEntity
8
1
62
256
6
ByLayer
370
13
48
1
60
0
100
AcDbLine
10
169.943208
20
10.843817
30
0
11
169.313269
21
6.03046
31
0
39
0
210
0
220
0
230
1
0
LINE
5
DB
100
AcDbEntity
8
1
62
256
6
ByLayer
370
13
48
1
60
0
100
AcDbLine
10
167.683735
20
17.004435
30
0
11
167.692178
21
17.004878
31
0
39
0
210
0
220
0
230
1
0
LINE
5
DC
100
AcDbEntity
8
1
62
256
6
ByLayer
370
13
48
1
60
0
100
AcDbLine
10
169.046379
20
6.04973
30
0
11
169.677948
21
10.875537
31
0
39
0
210
0
220
0
230
1
0
LINE
5
DD
100
AcDbEntity
8
1
62
256
6
ByLayer
370
13
48
1
60
0
100
AcDbLine
10
154.853827
20
9.914993
30
0
11
155.687398
21
4.636848
31
0
39
0
210
0
220
0
230
1
0
LINE
5
DE
100
AcDbEntity
8
1
62
256
6
ByLayer
370
13
48
1
60
0
100
AcDbLine
10
169.003637
20
16.335666
30
0
11
169.837208
21
11.057521
31
0
39
0
210
0
220
0
230
1
0
LINE
5
DF
100
AcDbEntity
8
SK1
62
256
6
ByLayer
370
13
48
1
60
0
100
AcDbLine
10
-6.5
20
-9.102615
30
0
11
-66.600002
21
-9.102615
31
0
39
0
210
0
220
0
230
1
0
LINE
5
E1
100
AcDbEntity
8
SK1
62
256
6
ByLayer
370
13
48
1
60
0
100
AcDbLine
10
-66.600002
20
9.102615
30
0
11
-6.5
21
9.102615
31
0
39
0
210
0
220
0
230
1
0
LINE
5
E2
100
AcDbEntity
8
SK1
62
256
6
ByLayer
370
13
48
1
60
0
100
AcDbLine
10
-6.5
20
-9.102615
30
0
11
-6.5
21
9.102615
31
0
39
0
210
0
220
0
230
1
0
LINE
5
E3
100
AcDbEntity
8
SK1
62
256
6
ByLayer
370
13
48
1
60
0
100
AcDbLine
10
-69
20
9.102615
30
0
11
-68.599999
21
9.102615
31
0
39
0
210
0
220
0
230
1
0
LINE
5
E4
100
AcDbEntity
8
SK1
62
256
6
ByLayer
370
13
48
1
60
0
100
AcDbLine
10
-68.599999
20
-9.102615
30
0
11
-69
21
-9.102615
31
0
39
0
210
0
220
0
230
1
0
LINE
5
E5
100
AcDbEntity
8
SK1
62
256
6
ByLayer
370
13
48
1
60
0
100
AcDbLine
10
-70
20
6.623111
30
0
11
-70
21
-6.623111
31
0
39
0
210
0
220
0
230
1
0
LINE
5
E6
100
AcDbEntity
8
1
62
256
6
ByLayer
370
13
48
1
60
0
100
AcDbLine
10
150.144301
20
1.10771
30
0
11
150.377784
21
-0.054112
31
0
39
0
210
0
220
0
230
1
0
LINE
5
E7
100
AcDbEntity
8
1
62
256
6
ByLayer
370
13
48
1
60
0
100
AcDbLine
10
158.804288
20
5.023663
30
0
11
158.813512
21
5.024147
31
0
39
0
210
0
220
0
230
1
0
LINE
5
E8
100
AcDbEntity
8
1
62
256
6
ByLayer
370
13
48
1
60
0
100
AcDbLine
10
167.320301
20
0.938277
30
0
11
167.358937
21
-0.254488
31
0
39
0
210
0
220
0
230
1
0
LINE
5
E9
100
AcDbEntity
8
1
62
256
6
ByLayer
370
13
48
1
60
0
100
AcDbLine
10
160.725856
20
4.122996
30
0
11
161.367875
21
4.156643
31
0
39
0
210
0
220
0
230
1
0
LINE
5
EA
100
AcDbEntity
8
1
62
256
6
ByLayer
370
13
48
1
60
0
100
AcDbLine
10
148.77702
20
7.506509
30
0
11
148.77702
21
11.502066
31
0
39
0
210
0
220
0
230
1
0
LINE
5
EB
100
AcDbEntity
8
1
62
256
6
ByLayer
370
13
48
1
60
0
100
AcDbLine
10
159.154399
20
5.242286
30
0
11
160.646207
21
5.320469
31
0
39
0
210
0
220
0
230
1
0
LINE
5
EC
100
AcDbEntity
8
1
62
256
6
ByLayer
370
13
48
1
60
0
100
AcDbLine
10
168.485013
20
-0.361382
30
0
11
167.320301
21
0.938277
31
0
39
0
210
0
220
0
230
1
0
LINE
5
ED
100
AcDbEntity
8
1
62
256
6
ByLayer
370
13
48
1
60
0
100
AcDbLine
10
168.896614
20
1.000368
30
0
11
169.040154
21
0.820386
31
0
39
0
210
0
220
0
230
1
0
LINE
5
EE
100
AcDbEntity
8
1
62
256
6
ByLayer
370
13
48
1
60
0
100
AcDbLine
10
169.035216
20
4.039609
30
0
11
169.040154
21
0.820386
31
0
39
0
210
0
220
0
230
1
0
LINE
5
EF
100
AcDbEntity
8
1
62
256
6
ByLayer
370
13
48
1
60
0
100
AcDbLine
10
150.41256
20
-16.302655
30
0
11
150.41256
21
-0.054307
31
0
39
0
210
0
220
0
230
1
0
LINE
5
F0
100
AcDbEntity
8
1
62
256
6
ByLayer
370
13
48
1
60
0
100
AcDbLine
10
165.021124
20
5.549748
30
0
11
166.512932
21
5.627931
31
0
39
0
210
0
220
0
230
1
0
LINE
5
F1
100
AcDbEntity
8
1
62
256
6
ByLayer
370
13
48
1
60
0
100
AcDbLine
10
0
20
-4.422669
30
0
11
0
21
4.422669
31
0
39
0
210
0
220
0
230
1
0
LINE
5
F2
100
AcDbEntity
8
1
62
256
6
ByLayer
370
13
48
1
60
0
100
AcDbLine
10
167.768178
20
4.492069
30
0
11
167.362539
21
1.684727
31
0
39
0
210
0
220
0
230
1
0
LINE
5
F3
100
AcDbEntity
8
1
62
256
6
ByLayer
370
13
48
1
60
0
100
AcDbLine
10
158.76995
20
4.943979
30
0
11
158.570934
21
4.933549
31
0
39
0
210
0
220
0
230
1
0
LINE
5
F4
100
AcDbEntity
8
1
62
256
6
ByLayer
370
13
48
1
60
0
100
AcDbLine
10
167.362539
20
1.684727
30
0
11
168.414492
21
0.510891
31
0
39
0
210
0
220
0
230
1
0
LINE
5
F5
100
AcDbEntity
8
1
62
256
6
ByLayer
370
13
48
1
60
0
100
AcDbLine
10
169.144878
20
-6.058369
30
0
11
167.921449
21
-4.69319
31
0
39
0
210
0
220
0
230
1
0
LINE
5
F6
100
AcDbEntity
8
1
62
256
6
ByLayer
370
13
48
1
60
0
100
AcDbLine
10
160.581276
20
5.116791
30
0
11
158.813512
21
5.024147
31
0
39
0
210
0
220
0
230
1
0
LINE
5
F7
100
AcDbEntity
8
1
62
256
6
ByLayer
370
13
48
1
60
0
100
AcDbLine
10
168.844964
20
-11.687467
30
0
11
168.501876
21
-11.363223
31
0
39
0
210
0
220
0
230
1
0
LINE
5
F8
100
AcDbEntity
8
1
62
256
6
ByLayer
370
13
48
1
60
0
100
AcDbLine
10
169.035216
20
4.039609
30
0
11
168.964221
21
3.769422
31
0
39
0
210
0
220
0
230
1
0
LINE
5
F9
100
AcDbEntity
8
1
62
256
6
ByLayer
370
13
48
1
60
0
100
AcDbLine
10
154.944995
20
7.28517
30
0
11
154.578269
21
9.607267
31
0
39
0
210
0
220
0
230
1
0
LINE
5
FA
100
AcDbEntity
8
1
62
256
6
ByLayer
370
13
48
1
60
0
100
AcDbLine
10
160.581276
20
5.116791
30
0
11
166.967265
21
5.451467
31
0
39
0
210
0
220
0
230
1
0
LINE
5
FB
100
AcDbEntity
8
1
62
256
6
ByLayer
370
13
48
1
60
0
100
AcDbLine
10
168.890928
20
4.064827
30
0
11
168.856453
21
4.64924
31
0
39
0
210
0
220
0
230
1
0
LINE
5
FC
100
AcDbEntity
8
1
62
256
6
ByLayer
370
13
48
1
60
0
100
AcDbLine
10
155.45816
20
14.955334
30
0
11
154.984983
21
11.339792
31
0
39
0
210
0
220
0
230
1
0
LINE
5
FD
100
AcDbEntity
8
1
62
256
6
ByLayer
370
13
48
1
60
0
100
AcDbLine
10
167.768178
20
4.492069
30
0
11
168.496702
21
4.530249
31
0
39
0
210
0
220
0
230
1
0
LINE
5
FE
100
AcDbEntity
8
1
62
256
6
ByLayer
370
13
48
1
60
0
100
AcDbLine
10
168.796875
20
0.507626
30
0
11
168.804639
21
0.49789
31
0
39
0
210
0
220
0
230
1
0
LINE
5
FF
100
AcDbEntity
8
1
62
256
6
ByLayer
370
13
48
1
60
0
100
AcDbLine
10
164.838372
20
5.503083
30
0
11
164.690731
21
5.495345
31
0
39
0
210
0
220
0
230
1
0
LINE
5
100
100
AcDbEntity
8
1
62
256
6
ByLayer
370
13
48
1
60
0
100
AcDbLine
10
150.729878
20
8.461545
30
0
11
148.77702
21
11.502066
31
0
39
0
210
0
220
0
230
1
0
LINE
5
101
100
AcDbEntity
8
1
62
256
6
ByLayer
370
13
48
1
60
0
100
AcDbLine
10
169.144878
20
-6.058369
30
0
11
168.516334
21
-10.799171
31
0
39
0
210
0
220
0
230
1
0
LINE
5
102
100
AcDbEntity
8
1
62
256
6
ByLayer
370
13
48
1
60
0
100
AcDbLine
10
153.41256
20
-16.471467
30
0
11
153.41256
21
-0.176805
31
0
39
0
210
0
220
0
230
1
0
LINE
5
103
100
AcDbEntity
8
1
62
256
6
ByLayer
370
13
48
1
60
0
100
AcDbLine
10
155.454364
20
15.91025
30
0
11
155.426269
21
16.446324
31
0
39
0
210
0
220
0
230
1
0
LINE
5
104
100
AcDbEntity
8
1
62
256
6
ByLayer
370
13
48
1
60
0
100
AcDbLine
10
150.613875
20
5.906027
30
0
11
153.752853
21
4.941609
31
0
39
0
210
0
220
0
230
1
0
LINE
5
105
100
AcDbEntity
8
1
62
256
6
ByLayer
370
13
48
1
60
0
100
AcDbLine
10
167.833244
20
-2.91926
30
0
11
169.122458
21
-4.357847
31
0
39
0
210
0
220
0
230
1
0
LINE
5
106
100
AcDbEntity
8
1
62
256
6
ByLayer
370
13
48
1
60
0
100
AcDbLine
10
0.1
20
4.949747
30
0
11
5.1431
21
4.949747
31
0
39
0
210
0
220
0
230
1
0
LINE
5
107
100
AcDbEntity
8
1
62
256
6
ByLayer
370
13
48
1
60
0
100
AcDbLine
10
145.913793
20
1.844446
30
0
11
146.06386
21
1.097705
31
0
39
0
210
0
220
0
230
1
0
LINE
5
108
100
AcDbEntity
8
1
62
256
6
ByLayer
370
13
48
1
60
0
100
AcDbLine
10
158.856258
20
3.844599
30
0
11
159.524726
21
3.879632
31
0
39
0
210
0
220
0
230
1
0
LINE
5
109
100
AcDbEntity
8
1
62
256
6
ByLayer
370
13
48
1
60
0
100
AcDbLine
10
168.210693
20
-16.471467
30
0
11
168.844964
21
-11.687467
31
0
39
0
210
0
220
0
230
1
0
LINE
5
10A
100
AcDbEntity
8
1
62
256
6
ByLayer
370
13
48
1
60
0
100
AcDbLine
10
161.367875
20
4.156643
30
0
11
167.768178
21
4.492069
31
0
39
0
210
0
220
0
230
1
0
LINE
5
10B
100
AcDbEntity
8
1
62
256
6
ByLayer
370
13
48
1
60
0
100
AcDbLine
10
168.856453
20
4.64924
30
0
11
168.694933
21
4.640775
31
0
39
0
210
0
220
0
230
1
0
LINE
5
10C
100
AcDbEntity
8
1
62
256
6
ByLayer
370
13
48
1
60
0
100
AcDbLine
10
168.210693
20
-16.471467
30
0
11
153.41256
21
-16.471467
31
0
39
0
210
0
220
0
230
1
0
LINE
5
10D
100
AcDbEntity
8
1
62
256
6
ByLayer
370
13
48
1
60
0
100
AcDbLine
10
86
20
-6.454893
30
0
11
86
21
16.378471
31
0
39
0
210
0
220
0
230
1
0
LINE
5
10E
100
AcDbEntity
8
1
62
256
6
ByLayer
370
13
48
1
60
0
100
AcDbLine
10
168.485013
20
-0.361382
30
0
11
169.122458
21
-4.357847
31
0
39
0
210
0
220
0
230
1
0
LINE
5
10F
100
AcDbEntity
8
1
62
256
6
ByLayer
370
13
48
1
60
0
100
AcDbLine
10
150.41256
20
-16.302655
30
0
11
143.442498
21
-16.302655
31
0
39
0
210
0
220
0
230
1
0
LINE
5
110
100
AcDbEntity
8
1
62
256
6
ByLayer
370
13
48
1
60
0
100
AcDbLine
10
5.1431
20
-4.949747
30
0
11
0.1
21
-4.949747
31
0
39
0
210
0
220
0
230
1
0
LINE
5
111
100
AcDbEntity
8
1
62
256
6
ByLayer
370
13
48
1
60
0
100
AcDbLine
10
149.131218
20
7.56628
30
0
11
150.729878
21
8.461545
31
0
39
0
210
0
220
0
230
1
0
LINE
5
112
100
AcDbEntity
8
1
62
256
6
ByLayer
370
13
48
1
60
0
100
AcDbLine
10
154.810416
20
10.989855
30
0
11
155.454364
21
15.91025
31
0
39
0
210
0
220
0
230
1
0
LINE
5
113
100
AcDbEntity
8
1
62
256
6
ByLayer
370
13
48
1
60
0
100
AcDbLine
10
169.189353
20
5.739888
30
0
11
169.126056
21
5.140081
31
0
39
0
210
0
220
0
230
1
0
LINE
5
114
100
AcDbEntity
8
1
62
256
6
ByLayer
370
13
48
1
60
0
100
AcDbLine
10
154.666939
20
9.045848
30
0
11
155.433563
21
5.841815
31
0
39
0
210
0
220
0
230
1
0
LINE
5
115
100
AcDbEntity
8
1
62
256
6
ByLayer
370
13
48
1
60
0
100
AcDbLine
10
154.667448
20
10.366285
30
0
11
154.67116
21
10.669855
31
0
39
0
210
0
220
0
230
1
0
LINE
5
116
100
AcDbEntity
8
1
62
256
6
ByLayer
370
13
48
1
60
0
100
AcDbLine
10
154.667448
20
10.366285
30
0
11
154.710669
21
10.775854
31
0
39
0
210
0
220
0
230
1
0
LINE
5
117
100
AcDbEntity
8
1
62
256
6
ByLayer
370
13
48
1
60
0
100
AcDbLine
10
167.75349
20
16.918666
30
0
11
167.89621
21
16.924892
31
0
39
0
210
0
220
0
230
1
0
LINE
5
118
100
AcDbEntity
8
1
62
256
6
ByLayer
370
13
48
1
60
0
100
AcDbLine
10
167.368613
20
5.63022
30
0
11
167.376677
21
5.631165
31
0
39
0
210
0
220
0
230
1
0
LINE
5
119
100
AcDbEntity
8
1
62
256
6
ByLayer
370
13
48
1
60
0
100
AcDbLine
10
155.615685
20
15.885158
30
0
11
155.447584
21
15.858457
31
0
39
0
210
0
220
0
230
1
0
LINE
5
11A
100
AcDbEntity
8
1
62
256
6
ByLayer
370
13
48
1
60
0
100
AcDbLine
10
155.480722
20
14.957917
30
0
11
155.447644
21
15.25174
31
0
39
0
210
0
220
0
230
1
0
LINE
5
11B
100
AcDbEntity
8
1
62
256
6
ByLayer
370
13
48
1
60
0
100
AcDbLine
10
154.784456
20
10.939659
30
0
11
154.678257
21
10.128191
31
0
39
0
210
0
220
0
230
1
0
LINE
5
11C
100
AcDbEntity
8
1
62
256
6
ByLayer
370
13
48
1
60
0
100
AcDbLine
10
167.144602
20
16.008123
30
0
11
167.176829
21
15.804059
31
0
39
0
210
0
220
0
230
1
0
LINE
5
11D
100
AcDbEntity
8
1
62
256
6
ByLayer
370
13
48
1
60
0
100
AcDbLine
10
167.28056
20
5.847132
30
0
11
167.266965
21
5.743252
31
0
39
0
210
0
220
0
230
1
0
LINE
5
11E
100
AcDbEntity
8
1
62
256
6
ByLayer
370
18
48
1
60
0
100
AcDbLine
10
161.213662
20
10.109232
30
0
11
161.151163
21
10.105956
31
0
39
0
210
0
220
0
230
1
0
LINE
5
11F
100
AcDbEntity
8
1
62
256
6
ByLayer
370
18
48
1
60
0
100
AcDbLine
10
161.179905
20
10.753344
30
0
11
161.115072
21
10.749946
31
0
39
0
210
0
220
0
230
1
0
LINE
5
120
100
AcDbEntity
8
1
62
256
6
ByLayer
370
18
48
1
60
0
100
AcDbLine
10
168.415018
20
0.389542
30
0
11
168.467572
21
0.382671
31
0
39
0
210
0
220
0
230
1
0
LINE
5
121
100
AcDbEntity
8
1
62
256
6
ByLayer
370
13
48
1
60
0
100
AcDbLine
10
168.874105
20
4.350053
30
0
11
169.035216
21
4.039609
31
0
39
0
210
0
220
0
230
1
0
LINE
5
122
100
AcDbEntity
8
1
62
256
6
ByLayer
370
13
48
1
60
0
100
AcDbLine
10
154.795382
20
8.50903
30
0
11
154.980108
21
7.339346
31
0
39
0
210
0
220
0
230
1
0
LINE
5
123
100
AcDbEntity
8
1
62
256
6
ByLayer
370
13
48
1
60
0
100
AcDbLine
10
168.964221
20
3.769422
30
0
11
168.928416
21
3.767546
31
0
39
0
210
0
220
0
230
1
0
LINE
5
124
100
AcDbEntity
8
1
62
256
6
ByLayer
370
13
48
1
60
0
100
AcDbLine
10
169.040154
20
0.820386
30
0
11
168.817071
21
0.718843
31
0
39
0
210
0
220
0
230
1
0
LINE
5
125
100
AcDbEntity
8
1
62
256
6
ByLayer
370
13
48
1
60
0
100
AcDbLine
10
158.529526
20
4.848524
30
0
11
158.076401
21
4.824777
31
0
39
0
210
0
220
0
230
1
0
LINE
5
126
100
AcDbEntity
8
1
62
256
6
ByLayer
370
13
48
1
60
0
100
AcDbLine
10
168.896614
20
1.000368
30
0
11
168.872294
21
1.003547
31
0
39
0
210
0
220
0
230
1
0
LINE
5
127
100
AcDbEntity
8
1
62
256
6
ByLayer
370
13
48
1
60
0
100
AcDbLine
10
35
20
-16.517973
30
0
11
35
21
-16.575
31
0
39
0
210
0
220
0
230
1
0
LINE
5
128
100
AcDbEntity
8
1
62
256
6
ByLayer
370
13
48
1
60
0
100
AcDbLine
10
153.41256
20
16.575
30
0
11
153.41256
21
16.42185
31
0
39
0
210
0
220
0
230
1
0
LINE
5
129
100
AcDbEntity
8
1
62
256
6
ByLayer
370
13
48
1
60
0
100
AcDbLine
10
168.796875
20
0.507626
30
0
11
168.784739
21
0.509212
31
0
39
0
210
0
220
0
230
1
0
LINE
5
12A
100
AcDbEntity
8
1
62
256
6
ByLayer
370
13
48
1
60
0
100
AcDbLine
10
168.804639
20
0.49789
30
0
11
168.779613
21
0.501162
31
0
39
0
210
0
220
0
230
1
0
LINE
5
12B
100
AcDbEntity
8
1
62
256
6
ByLayer
370
13
48
1
60
0
100
AcDbLine
10
169.38426
20
6.572904
30
0
11
169.287729
21
5.350342
31
0
39
0
210
0
220
0
230
1
0
LINE
5
12C
100
AcDbEntity
8
1
62
256
6
ByLayer
370
13
48
1
60
0
100
AcDbLine
10
86
20
-16.388597
30
0
11
86
21
-16.405
31
0
39
0
210
0
220
0
230
1
0
LINE
5
12D
100
AcDbEntity
8
1
62
256
6
ByLayer
370
13
48
1
60
0
100
AcDbLine
10
150.41256
20
16.405
30
0
11
150.41256
21
16.209213
31
0
39
0
210
0
220
0
230
1
0
LINE
5
12E
100
AcDbEntity
8
1
62
256
6
ByLayer
370
13
48
1
60
0
100
AcDbLine
10
35
20
16.575
30
0
11
35
21
-5.877927
31
0
39
0
210
0
220
0
230
1
0
LINE
5
12F
100
AcDbEntity
8
SK1
62
256
6
ByLayer
370
13
48
1
60
0
100
AcDbLine
10
-68.599999
20
-19.996
30
0
11
-68.599999
21
-9.102615
31
0
39
0
210
0
220
0
230
1
0
LINE
5
130
100
AcDbEntity
8
SK1
62
256
6
ByLayer
370
13
48
1
60
0
100
AcDbLine
10
-68.599999
20
9.102615
30
0
11
-68.599999
21
19.996
31
0
39
0
210
0
220
0
230
1
0
LINE
5
131
100
AcDbEntity
8
SK1
62
256
6
ByLayer
370
13
48
1
60
0
100
AcDbLine
10
-69
20
-19.996
30
0
11
-69
21
-9.102615
31
0
39
0
210
0
220
0
230
1
0
LINE
5
132
100
AcDbEntity
8
SK1
62
256
6
ByLayer
370
13
48
1
60
0
100
AcDbLine
10
-69
20
9.102615
30
0
11
-69
21
19.996
31
0
39
0
210
0
220
0
230
1
0
LINE
5
133
100
AcDbEntity
8
SK1
62
256
6
ByLayer
370
13
48
1
60
0
100
AcDbLine
10
-70
20
-18.996
30
0
11
-70
21
-6.623111
31
0
39
0
210
0
220
0
230
1
0
LINE
5
134
100
AcDbEntity
8
SK1
62
256
6
ByLayer
370
13
48
1
60
0
100
AcDbLine
10
-70
20
6.623111
30
0
11
-70
21
18.996
31
0
39
0
210
0
220
0
230
1
0
LINE
5
135
100
AcDbEntity
8
SK1
62
256
6
ByLayer
370
13
48
1
60
0
100
AcDbLine
10
-68.516222
20
19.892544
30
0
11
-68.516222
21
8.873042
31
0
39
0
210
0
220
0
230
1
0
LINE
5
136
100
AcDbEntity
8
SK1
62
256
6
ByLayer
370
13
48
1
60
0
100
AcDbLine
10
-68.516222
20
-8.873042
30
0
11
-68.516222
21
-19.892544
31
0
39
0
210
0
220
0
230
1
0
LINE
5
137
100
AcDbEntity
8
SK1
62
256
6
ByLayer
370
13
48
1
60
0
100
AcDbLine
10
-67.633813
20
19.639667
30
0
11
-67.633813
21
8.290603
31
0
39
0
210
0
220
0
230
1
0
LINE
5
138
100
AcDbEntity
8
SK1
62
256
6
ByLayer
370
13
48
1
60
0
100
AcDbLine
10
-67.633813
20
-8.290603
30
0
11
-67.633813
21
-19.639667
31
0
39
0
210
0
220
0
230
1
0
LINE
5
139
100
AcDbEntity
8
SK1
62
256
6
ByLayer
370
13
48
1
60
0
100
AcDbLine
10
-1.375195
20
-19.746
30
0
11
-1.375195
21
19.746
31
0
39
0
210
0
220
0
230
1
0
LINE
5
13A
100
AcDbEntity
8
SK1
62
256
6
ByLayer
370
13
48
1
60
0
100
AcDbLine
10
-1.544243
20
-19.783477
30
0
11
-1.544243
21
19.783477
31
0
39
0
210
0
220
0
230
1
0
LINE
5
13B
100
AcDbEntity
8
SK1
62
256
6
ByLayer
370
13
48
1
60
0
100
AcDbLine
10
-2
20
-19.996
30
0
11
-2
21
19.996
31
0
39
0
210
0
220
0
230
1
0
LINE
5
13C
100
AcDbEntity
8
SK1
62
256
6
ByLayer
370
13
48
1
60
0
100
AcDbLine
10
-66.600002
20
19.996
30
0
11
-66.600002
21
9.102615
31
0
39
0
210
0
220
0
230
1
0
LINE
5
13D
100
AcDbEntity
8
SK1
62
256
6
ByLayer
370
13
48
1
60
0
100
AcDbLine
10
-66.600002
20
-9.102615
30
0
11
-66.600002
21
-19.996
31
0
39
0
210
0
220
0
230
1
0
LINE
5
13E
100
AcDbEntity
8
SK1
62
256
6
ByLayer
370
13
48
1
60
0
100
AcDbLine
10
-0.15
20
-19.746
30
0
11
-0.15
21
19.746
31
0
39
0
210
0
220
0
230
1
0
LINE
5
13F
100
AcDbEntity
8
1
62
256
6
ByLayer
370
13
48
1
60
0
100
AcDbLine
10
0
20
24.65
30
0
11
0
21
4.422669
31
0
39
0
210
0
220
0
230
1
0
LINE
5
140
100
AcDbEntity
8
1
62
256
6
ByLayer
370
13
48
1
60
0
100
AcDbLine
10
0
20
-24.65
30
0
11
0
21
-4.422669
31
0
39
0
210
0
220
0
230
1
0
LINE
5
141
100
AcDbEntity
8
1
62
256
6
ByLayer
370
13
48
1
60
0
100
AcDbLine
10
0.1
20
-24.75
30
0
11
0.1
21
-4.949747
31
0
39
0
210
0
220
0
230
1
0
LINE
5
142
100
AcDbEntity
8
1
62
256
6
ByLayer
370
13
48
1
60
0
100
AcDbLine
10
0.1
20
24.75
30
0
11
0.1
21
4.949747
31
0
39
0
210
0
220
0
230
1
0
LINE
5
143
100
AcDbEntity
8
1
62
256
6
ByLayer
370
13
48
1
60
0
100
AcDbLine
10
5.1431
20
24.75
30
0
11
5.1431
21
4.949747
31
0
39
0
210
0
220
0
230
1
0
LINE
5
144
100
AcDbEntity
8
1
62
256
6
ByLayer
370
13
48
1
60
0
100
AcDbLine
10
5.1431
20
-4.949747
30
0
11
5.1431
21
-24.75
31
0
39
0
210
0
220
0
230
1
0
LINE
5
145
100
AcDbEntity
8
1
62
256
6
ByLayer
370
13
48
1
60
0
100
AcDbLine
10
30
20
16.575
30
0
11
30
21
-5.875205
31
0
39
0
210
0
220
0
230
1
0
LINE
5
146
100
AcDbEntity
8
1
62
256
6
ByLayer
370
13
48
1
60
0
100
AcDbLine
10
30
20
-16.517822
30
0
11
30
21
-16.575
31
0
39
0
210
0
220
0
230
1
0
LINE
5
147
100
AcDbEntity
8
4
62
256
6
ByLayer
370
18
48
0.05
60
0
100
AcDbLine
10
170
20
0
30
0
11
0
21
0
31
0
39
0
210
0
220
0
230
1
0
LINE
5
149
100
AcDbEntity
8
SK4
62
256
6
ByLayer
370
13
48
0.05
60
0
100
AcDbLine
10
170
20
0
30
0
11
-70
21
0
31
0
39
0
210
0
220
0
230
1
0
LINE
5
14B
100
AcDbEntity
8
SK1
62
256
6
ByLayer
370
13
48
1
60
0
100
AcDbLine
10
-67.633813
20
-19.639667
30
0
11
-66.600002
21
-19.996
31
0
39
0
210
0
220
0
230
1
0
LINE
5
14C
100
AcDbEntity
8
SK1
62
256
6
ByLayer
370
13
48
1
60
0
100
AcDbLine
10
-66.600002
20
19.996
30
0
11
-67.633813
21
19.639667
31
0
39
0
210
0
220
0
230
1
0
LINE
5
14D
100
AcDbEntity
8
SK1
62
256
6
ByLayer
370
13
48
1
60
0
100
AcDbLine
10
-70
20
-18.996
30
0
11
-69
21
-19.996
31
0
39
0
210
0
220
0
230
1
0
LINE
5
14E
100
AcDbEntity
8
SK1
62
256
6
ByLayer
370
13
48
1
60
0
100
AcDbLine
10
-69
20
19.996
30
0
11
-70
21
18.996
31
0
39
0
210
0
220
0
230
1
0
LINE
5
14F
100
AcDbEntity
8
SK1
62
256
6
ByLayer
370
13
48
1
60
0
100
AcDbLine
10
-68.516222
20
19.892544
30
0
11
-68.599999
21
19.996
31
0
39
0
210
0
220
0
230
1
0
LINE
5
150
100
AcDbEntity
8
SK1
62
256
6
ByLayer
370
13
48
1
60
0
100
AcDbLine
10
-68.599999
20
-19.996
30
0
11
-68.516222
21
-19.892544
31
0
39
0
210
0
220
0
230
1
0
LINE
5
151
100
AcDbEntity
8
SK1
62
256
6
ByLayer
370
13
48
1
60
0
100
AcDbLine
10
-68.599999
20
19.996
30
0
11
-69
21
19.996
31
0
39
0
210
0
220
0
230
1
0
LINE
5
152
100
AcDbEntity
8
SK1
62
256
6
ByLayer
370
13
48
1
60
0
100
AcDbLine
10
-69
20
-19.996
30
0
11
-68.599999
21
-19.996
31
0
39
0
210
0
220
0
230
1
0
LINE
5
153
100
AcDbEntity
8
SK1
62
256
6
ByLayer
370
13
48
1
60
0
100
AcDbLine
10
-0.15
20
19.746
30
0
11
-1.375195
21
19.746
31
0
39
0
210
0
220
0
230
1
0
LINE
5
154
100
AcDbEntity
8
SK1
62
256
6
ByLayer
370
13
48
1
60
0
100
AcDbLine
10
-1.375195
20
-19.746
30
0
11
-0.15
21
-19.746
31
0
39
0
210
0
220
0
230
1
0
LINE
5
155
100
AcDbEntity
8
SK1
62
256
6
ByLayer
370
13
48
1
60
0
100
AcDbLine
10
-1.544243
20
19.783477
30
0
11
-2
21
19.996
31
0
39
0
210
0
220
0
230
1
0
LINE
5
156
100
AcDbEntity
8
SK1
62
256
6
ByLayer
370
13
48
1
60
0
100
AcDbLine
10
-2
20
-19.996
30
0
11
-1.544243
21
-19.783477
31
0
39
0
210
0
220
0
230
1
0
LINE
5
157
100
AcDbEntity
8
SK1
62
256
6
ByLayer
370
13
48
1
60
0
100
AcDbLine
10
-2
20
19.996
30
0
11
-66.600002
21
19.996
31
0
39
0
210
0
220
0
230
1
0
LINE
5
158
100
AcDbEntity
8
SK1
62
256
6
ByLayer
370
13
48
1
60
0
100
AcDbLine
10
-66.600002
20
-19.996
30
0
11
-2
21
-19.996
31
0
39
0
210
0
220
0
230
1
0
LINE
5
159
100
AcDbEntity
8
1
62
256
6
ByLayer
370
13
48
1
60
0
100
AcDbLine
10
168.943176
20
5.225413
30
0
11
169.288707
21
5.947516
31
0
39
0
210
0
220
0
230
1
0
LINE
5
15A
100
AcDbEntity
8
1
62
256
6
ByLayer
370
13
48
1
60
0
100
AcDbLine
10
167.930955
20
11.033029
30
0
11
167.179606
21
15.790545
31
0
39
0
210
0
220
0
230
1
0
LINE
5
15B
100
AcDbEntity
8
1
62
256
6
ByLayer
370
13
48
1
60
0
100
AcDbLine
10
167.282944
20
5.860562
30
0
11
167.933615
21
10.832338
31
0
39
0
210
0
220
0
230
1
0
LINE
5
15C
100
AcDbEntity
8
1
62
256
6
ByLayer
370
18
48
1
60
0
100
AcDbLine
10
162.443916
20
9.420773
30
0
11
162.337243
21
9.415182
31
0
39
0
210
0
220
0
230
1
0
LINE
5
15D
100
AcDbEntity
8
1
62
256
6
ByLayer
370
18
48
1
60
0
100
AcDbLine
10
162.224784
20
11.561038
30
0
11
162.331456
21
11.566628
31
0
39
0
210
0
220
0
230
1
0
LINE
5
15E
100
AcDbEntity
8
1
62
256
6
ByLayer
370
18
48
1
60
0
100
AcDbLine
10
162.44813
20
8.093575
30
0
11
162.524887
21
8.097597
31
0
39
0
210
0
220
0
230
1
0
LINE
5
15F
100
AcDbEntity
8
1
62
256
6
ByLayer
370
18
48
1
60
0
100
AcDbLine
10
162.273675
20
12.891019
30
0
11
162.196917
21
12.886996
31
0
39
0
210
0
220
0
230
1
0
LINE
5
160
100
AcDbEntity
8
1
62
256
6
ByLayer
370
13
48
1
60
0
100
AcDbLine
10
30
20
-16.575
30
0
11
35
21
-16.575
31
0
39
0
210
0
220
0
230
1
0
LINE
5
161
100
AcDbEntity
8
1
62
256
6
ByLayer
370
13
48
1
60
0
100
AcDbLine
10
35
20
-16.575
30
0
11
86
21
-16.405
31
0
39
0
210
0
220
0
230
1
0
LINE
5
162
100
AcDbEntity
8
1
62
256
6
ByLayer
370
13
48
1
60
0
100
AcDbLine
10
155.22804
20
16.575
30
0
11
153.41256
21
16.575
31
0
39
0
210
0
220
0
230
1
0
LINE
5
163
100
AcDbEntity
8
1
62
256
6
ByLayer
370
13
48
1
60
0
100
AcDbLine
10
153.41256
20
16.575
30
0
11
150.41256
21
16.405
31
0
39
0
210
0
220
0
230
1
0
LINE
5
164
100
AcDbEntity
8
1
62
256
6
ByLayer
370
13
48
1
60
0
100
AcDbLine
10
86
20
-16.405
30
0
11
90.824921
21
-16.405
31
0
39
0
210
0
220
0
230
1
0
LINE
5
165
100
AcDbEntity
8
1
62
256
6
ByLayer
370
13
48
1
60
0
100
AcDbLine
10
150.41256
20
16.405
30
0
11
139.794894
21
16.405
31
0
39
0
210
0
220
0
230
1
0
LINE
5
166
100
AcDbEntity
8
1
62
256
6
ByLayer
370
13
48
1
60
0
100
AcDbLine
10
78.117643
20
16.431275
30
0
11
35
21
16.575
31
0
39
0
210
0
220
0
230
1
0
LINE
5
167
100
AcDbEntity
8
1
62
256
6
ByLayer
370
13
48
1
60
0
100
AcDbLine
10
35
20
16.575
30
0
11
30
21
16.575
31
0
39
0
210
0
220
0
230
1
0
LINE
5
168
100
AcDbEntity
8
1
62
256
6
ByLayer
370
13
48
1
60
0
100
AcDbLine
10
0.1
20
24.75
30
0
11
0
21
24.65
31
0
39
0
210
0
220
0
230
1
0
LINE
5
169
100
AcDbEntity
8
1
62
256
6
ByLayer
370
13
48
1
60
0
100
AcDbLine
10
0.1
20
-24.75
30
0
11
5.1431
21
-24.75
31
0
39
0
210
0
220
0
230
1
0
LINE
5
16A
100
AcDbEntity
8
1
62
256
6
ByLayer
370
13
48
1
60
0
100
AcDbLine
10
0
20
-24.65
30
0
11
0.1
21
-24.75
31
0
39
0
210
0
220
0
230
1
0
LINE
5
16B
100
AcDbEntity
8
1
62
256
6
ByLayer
370
13
48
1
60
0
100
AcDbLine
10
5.1431
20
24.75
30
0
11
0.1
21
24.75
31
0
39
0
210
0
220
0
230
1
0
LINE
5
16C
100
AcDbEntity
8
81
62
256
6
ByLayer
370
18
48
1
60
0
100
AcDbLine
10
170
20
0
30
0
11
177
21
0
31
0
39
0
210
0
220
0
230
1
0
LINE
5
16D
100
AcDbEntity
8
80
62
256
6
ByLayer
370
18
48
1
60
0
100
AcDbLine
10
0
20
0
30
0
11
-7
21
0
31
0
39
0
210
0
220
0
230
1
0
LINE
5
16E
100
AcDbEntity
8
SK2
62
256
6
ByLayer
370
13
48
1
60
0
100
AcDbLine
10
-90.725
20
20
30
0
11
-90.725
21
-20
31
0
39
0
210
0
220
0
230
1
0
LINE
5
170
100
AcDbEntity
8
SK2
62
256
6
ByLayer
370
13
48
1
60
0
100
AcDbLine
10
-71.5875
20
-20
30
0
11
-93.9
21
-20
31
0
39
0
210
0
220
0
230
1
0
LINE
5
171
100
AcDbEntity
8
SK2
62
256
6
ByLayer
370
13
48
1
60
0
100
AcDbLine
10
-71.5875
20
20
30
0
11
-93.9
21
20
31
0
39
0
210
0
220
0
230
1
0
LINE
5
172
100
AcDbEntity
8
1
62
256
6
ByLayer
370
18
48
1
60
1
100
AcDbLine
10
-90.725
20
-20
30
0
11
-91.650575
21
-15.825003
31
0
39
0
210
0
220
0
230
1
0
LINE
5
173
100
AcDbEntity
8
1
62
256
6
ByLayer
370
18
48
1
60
1
100
AcDbLine
10
-91.650575
20
-15.825003
30
0
11
-89.799425
21
-15.824997
31
0
39
0
210
0
220
0
230
1
0
LINE
5
174
100
AcDbEntity
8
1
62
256
6
ByLayer
370
18
48
1
60
1
100
AcDbLine
10
-89.799425
20
-15.824997
30
0
11
-90.725
21
-20
31
0
39
0
210
0
220
0
230
1
0
LINE
5
175
100
AcDbEntity
8
1
62
256
6
ByLayer
370
18
48
1
60
1
100
AcDbLine
10
-90.725
20
20
30
0
11
-89.799425
21
15.825003
31
0
39
0
210
0
220
0
230
1
0
LINE
5
176
100
AcDbEntity
8
1
62
256
6
ByLayer
370
18
48
1
60
1
100
AcDbLine
10
-89.799425
20
15.825003
30
0
11
-91.650575
21
15.824997
31
0
39
0
210
0
220
0
230
1
0
LINE
5
177
100
AcDbEntity
8
1
62
256
6
ByLayer
370
18
48
1
60
1
100
AcDbLine
10
-91.650575
20
15.824997
30
0
11
-90.725
21
20
31
0
39
0
210
0
220
0
230
1
0
LINE
5
178
100
AcDbEntity
8
SK2
62
256
6
ByLayer
370
13
48
1
60
0
100
AcDbLine
10
-100.725
20
-24.75
30
0
11
-100.725
21
24.75
31
0
39
0
210
0
220
0
230
1
0
LINE
5
179
100
AcDbEntity
8
SK2
62
256
6
ByLayer
370
13
48
1
60
0
100
AcDbLine
10
-1.5875
20
24.75
30
0
11
-103.9
21
24.75
31
0
39
0
210
0
220
0
230
1
0
LINE
5
17A
100
AcDbEntity
8
SK2
62
256
6
ByLayer
370
13
48
1
60
0
100
AcDbLine
10
-1.5875
20
-24.75
30
0
11
-103.9
21
-24.75
31
0
39
0
210
0
220
0
230
1
0
LINE
5
17B
100
AcDbEntity
8
1
62
256
6
ByLayer
370
18
48
1
60
1
100
AcDbLine
10
-100.725
20
24.75
30
0
11
-99.799425
21
20.575003
31
0
39
0
210
0
220
0
230
1
0
LINE
5
17C
100
AcDbEntity
8
1
62
256
6
ByLayer
370
18
48
1
60
1
100
AcDbLine
10
-99.799425
20
20.575003
30
0
11
-101.650575
21
20.574997
31
0
39
0
210
0
220
0
230
1
0
LINE
5
17D
100
AcDbEntity
8
1
62
256
6
ByLayer
370
18
48
1
60
1
100
AcDbLine
10
-101.650575
20
20.574997
30
0
11
-100.725
21
24.75
31
0
39
0
210
0
220
0
230
1
0
LINE
5
17E
100
AcDbEntity
8
1
62
256
6
ByLayer
370
18
48
1
60
1
100
AcDbLine
10
-100.725
20
-24.75
30
0
11
-101.650575
21
-20.575003
31
0
39
0
210
0
220
0
230
1
0
LINE
5
17F
100
AcDbEntity
8
1
62
256
6
ByLayer
370
18
48
1
60
1
100
AcDbLine
10
-101.650575
20
-20.575003
30
0
11
-99.799425
21
-20.574997
31
0
39
0
210
0
220
0
230
1
0
LINE
5
180
100
AcDbEntity
8
1
62
256
6
ByLayer
370
18
48
1
60
1
100
AcDbLine
10
-99.799425
20
-20.574997
30
0
11
-100.725
21
-24.75
31
0
39
0
210
0
220
0
230
1
0
LINE
5
181
100
AcDbEntity
8
2
62
256
6
ByLayer
370
13
48
1
60
0
100
AcDbLine
10
196.975
20
17
30
0
11
196.975
21
-17
31
0
39
0
210
0
220
0
230
1
0
LINE
5
183
100
AcDbEntity
8
2
62
256
6
ByLayer
370
13
48
1
60
0
100
AcDbLine
10
171.5875
20
-17
30
0
11
200.15
21
-17
31
0
39
0
210
0
220
0
230
1
0
LINE
5
184
100
AcDbEntity
8
2
62
256
6
ByLayer
370
13
48
1
60
0
100
AcDbLine
10
171.5875
20
17
30
0
11
200.15
21
17
31
0
39
0
210
0
220
0
230
1
0
LINE
5
185
100
AcDbEntity
8
1
62
256
6
ByLayer
370
18
48
1
60
1
100
AcDbLine
10
196.975
20
-17
30
0
11
196.049425
21
-12.825003
31
0
39
0
210
0
220
0
230
1
0
LINE
5
186
100
AcDbEntity
8
1
62
256
6
ByLayer
370
18
48
1
60
1
100
AcDbLine
10
196.049425
20
-12.825003
30
0
11
197.900575
21
-12.824997
31
0
39
0
210
0
220
0
230
1
0
LINE
5
187
100
AcDbEntity
8
1
62
256
6
ByLayer
370
18
48
1
60
1
100
AcDbLine
10
197.900575
20
-12.824997
30
0
11
196.975
21
-17
31
0
39
0
210
0
220
0
230
1
0
LINE
5
188
100
AcDbEntity
8
1
62
256
6
ByLayer
370
18
48
1
60
1
100
AcDbLine
10
196.975
20
17
30
0
11
197.900575
21
12.825003
31
0
39
0
210
0
220
0
230
1
0
LINE
5
189
100
AcDbEntity
8
1
62
256
6
ByLayer
370
18
48
1
60
1
100
AcDbLine
10
197.900575
20
12.825003
30
0
11
196.049425
21
12.824997
31
0
39
0
210
0
220
0
230
1
0
LINE
5
18A
100
AcDbEntity
8
1
62
256
6
ByLayer
370
18
48
1
60
1
100
AcDbLine
10
196.049425
20
12.824997
30
0
11
196.975
21
17
31
0
39
0
210
0
220
0
230
1
0
LINE
5
339
100
AcDbEntity
8
1
62
256
6
ByLayer
370
18
48
1
60
1
100
AcDbLine
10
-90.725
20
-20
30
0
11
-91.650575
21
-15.825003
31
0
39
0
210
0
220
0
230
1
0
LINE
5
33A
100
AcDbEntity
8
1
62
256
6
ByLayer
370
18
48
1
60
1
100
AcDbLine
10
-91.650575
20
-15.825003
30
0
11
-89.799425
21
-15.824997
31
0
39
0
210
0
220
0
230
1
0
LINE
5
33B
100
AcDbEntity
8
1
62
256
6
ByLayer
370
18
48
1
60
1
100
AcDbLine
10
-89.799425
20
-15.824997
30
0
11
-90.725
21
-20
31
0
39
0
210
0
220
0
230
1
0
LINE
5
33D
100
AcDbEntity
8
1
62
256
6
ByLayer
370
18
48
1
60
1
100
AcDbLine
10
-90.725
20
20
30
0
11
-89.799425
21
15.825003
31
0
39
0
210
0
220
0
230
1
0
LINE
5
33E
100
AcDbEntity
8
1
62
256
6
ByLayer
370
18
48
1
60
1
100
AcDbLine
10
-89.799425
20
15.825003
30
0
11
-91.650575
21
15.824997
31
0
39
0
210
0
220
0
230
1
0
LINE
5
33F
100
AcDbEntity
8
1
62
256
6
ByLayer
370
18
48
1
60
1
100
AcDbLine
10
-91.650575
20
15.824997
30
0
11
-90.725
21
20
31
0
39
0
210
0
220
0
230
1
0
LINE
5
343
100
AcDbEntity
8
1
62
256
6
ByLayer
370
18
48
1
60
1
100
AcDbLine
10
-100.725
20
24.75
30
0
11
-99.799425
21
20.575003
31
0
39
0
210
0
220
0
230
1
0
LINE
5
344
100
AcDbEntity
8
1
62
256
6
ByLayer
370
18
48
1
60
1
100
AcDbLine
10
-99.799425
20
20.575003
30
0
11
-101.650575
21
20.574997
31
0
39
0
210
0
220
0
230
1
0
LINE
5
345
100
AcDbEntity
8
1
62
256
6
ByLayer
370
18
48
1
60
1
100
AcDbLine
10
-101.650575
20
20.574997
30
0
11
-100.725
21
24.75
31
0
39
0
210
0
220
0
230
1
0
LINE
5
347
100
AcDbEntity
8
1
62
256
6
ByLayer
370
18
48
1
60
1
100
AcDbLine
10
-100.725
20
-24.75
30
0
11
-101.650575
21
-20.575003
31
0
39
0
210
0
220
0
230
1
0
LINE
5
348
100
AcDbEntity
8
1
62
256
6
ByLayer
370
18
48
1
60
1
100
AcDbLine
10
-101.650575
20
-20.575003
30
0
11
-99.799425
21
-20.574997
31
0
39
0
210
0
220
0
230
1
0
LINE
5
349
100
AcDbEntity
8
1
62
256
6
ByLayer
370
18
48
1
60
1
100
AcDbLine
10
-99.799425
20
-20.574997
30
0
11
-100.725
21
-24.75
31
0
39
0
210
0
220
0
230
1
0
LINE
5
34D
100
AcDbEntity
8
1
62
256
6
ByLayer
370
18
48
1
60
1
100
AcDbLine
10
196.975
20
-17
30
0
11
196.049425
21
-12.825003
31
0
39
0
210
0
220
0
230
1
0
LINE
5
34E
100
AcDbEntity
8
1
62
256
6
ByLayer
370
18
48
1
60
1
100
AcDbLine
10
196.049425
20
-12.825003
30
0
11
197.900575
21
-12.824997
31
0
39
0
210
0
220
0
230
1
0
LINE
5
34F
100
AcDbEntity
8
1
62
256
6
ByLayer
370
18
48
1
60
1
100
AcDbLine
10
197.900575
20
-12.824997
30
0
11
196.975
21
-17
31
0
39
0
210
0
220
0
230
1
0
LINE
5
351
100
AcDbEntity
8
1
62
256
6
ByLayer
370
18
48
1
60
1
100
AcDbLine
10
196.975
20
17
30
0
11
197.900575
21
12.825003
31
0
39
0
210
0
220
0
230
1
0
LINE
5
352
100
AcDbEntity
8
1
62
256
6
ByLayer
370
18
48
1
60
1
100
AcDbLine
10
197.900575
20
12.825003
30
0
11
196.049425
21
12.824997
31
0
39
0
210
0
220
0
230
1
0
LINE
5
353
100
AcDbEntity
8
1
62
256
6
ByLayer
370
18
48
1
60
1
100
AcDbLine
10
196.049425
20
12.824997
30
0
11
196.975
21
17
31
0
39
0
210
0
220
0
230
1
0
MTEXT
5
335
100
AcDbEntity
8
SK2
62
256
6
ByLayer
370
18
48
1
60
0
100
AcDbMText
10
-92.736672
20
-7.186314
30
0
210
0
220
0
230
1
1
%%c
40
4.5
41
0
44
1.084337
50
90
71
7
72
5
7
iso_b_vert
0
MTEXT
5
338
100
AcDbEntity
8
SK2
62
256
6
ByLayer
370
18
48
1
60
0
100
AcDbMText
10
-92.736672
20
4.02853
30
0
210
0
220
0
230
1
1
\W0.7361;40
40
4.5
41
0
44
1.084337
50
90
71
7
72
5
7
iso_b_vert
0
MTEXT
5
341
100
AcDbEntity
8
SK2
62
256
6
ByLayer
370
18
48
1
60
0
100
AcDbMText
10
-102.736672
20
-9.778569
30
0
210
0
220
0
230
1
1
%%c
40
4.5
41
0
44
1.084337
50
90
71
7
72
5
7
iso_b_vert
0
MTEXT
5
342
100
AcDbEntity
8
SK2
62
256
6
ByLayer
370
18
48
1
60
0
100
AcDbMText
10
-102.736672
20
1.436275
30
0
210
0
220
0
230
1
1
\W0.7640;49.5
40
4.5
41
0
44
1.084337
50
90
71
7
72
5
7
iso_b_vert
0
MTEXT
5
34B
100
AcDbEntity
8
2
62
256
6
ByLayer
370
18
48
1
60
0
100
AcDbMText
10
194.963328
20
-7.186314
30
0
210
0
220
0
230
1
1
%%c
40
4.5
41
0
44
1.084337
50
90
71
7
72
5
7
iso_b_vert
0
MTEXT
5
34C
100
AcDbEntity
8
2
62
256
6
ByLayer
370
18
48
1
60
0
100
AcDbMText
10
194.963328
20
4.02853
30
0
210
0
220
0
230
1
1
\W0.7167;34
40
4.5
41
0
44
1.084337
50
90
71
7
72
5
7
iso_b_vert
0
MTEXT
5
355
100
AcDbEntity
8
SK6
62
256
6
ByLayer
370
18
48
1
60
0
100
AcDbMText
10
9.308916
20
-94.592562
30
0
210
0
220
0
230
1
1
\W0.7839;DS20-D3400L40-04
40
3.5
41
0
44
1.084337
50
0
71
7
72
5
7
iso_b_vert
0
HATCH
5
33C
100
AcDbEntity
8
SK2
62
256
6
ByLayer
370
13
48
1
60
0
100
AcDbHatch
10
0
20
0
30
0
210
0
220
0
230
1
2
ANSI31
70
0
71
0
91
1
92
5
93
3
72
1
10
-90.725
20
-19.9999999999999
11
-91.650575216528
21
-15.8250033998275
72
1
10
-91.650575216528
20
-15.8250033998275
11
-89.799424783472
21
-15.8249966001723
72
1
10
-89.799424783472
20
-15.8249966001723
11
-90.725
21
-19.9999999999999
97
0
75
0
76
1
52
0
41
0.0062
77
0
78
1
53
45
43
0
44
0
45
-0.0139193969876572
46
0.0139193969876572
79
0
47
0
98
1
10
0
20
0
0
HATCH
5
340
100
AcDbEntity
8
SK2
62
256
6
ByLayer
370
13
48
1
60
0
100
AcDbHatch
10
0
20
0
30
0
210
0
220
0
230
1
2
ANSI31
70
0
71
0
91
1
92
5
93
3
72
1
10
-90.725
20
20.0000000000001
11
-89.799424783472
21
15.8250033998277
72
1
10
-89.799424783472
20
15.8250033998277
11
-91.650575216528
21
15.8249966001724
72
1
10
-91.650575216528
20
15.8249966001724
11
-90.725
21
20.0000000000001
97
0
75
0
76
1
52
0
41
0.0062
77
0
78
1
53
45
43
0
44
0
45
-0.0139193969876572
46
0.0139193969876572
79
0
47
0
98
1
10
0
20
0
0
HATCH
5
346
100
AcDbEntity
8
SK2
62
256
6
ByLayer
370
13
48
1
60
0
100
AcDbHatch
10
0
20
0
30
0
210
0
220
0
230
1
2
ANSI31
70
0
71
0
91
1
92
5
93
3
72
1
10
-100.725
20
24.75
11
-99.799424783472
21
20.5750033998276
72
1
10
-99.799424783472
20
20.5750033998276
11
-101.650575216528
21
20.5749966001724
72
1
10
-101.650575216528
20
20.5749966001724
11
-100.725
21
24.75
97
0
75
0
76
1
52
0
41
0.0062
77
0
78
1
53
45
43
0
44
0
45
-0.0139193969876572
46
0.0139193969876572
79
0
47
0
98
1
10
0
20
0
0
HATCH
5
34A
100
AcDbEntity
8
SK2
62
256
6
ByLayer
370
13
48
1
60
0
100
AcDbHatch
10
0
20
0
30
0
210
0
220
0
230
1
2
ANSI31
70
0
71
0
91
1
92
5
93
3
72
1
10
-100.725
20
-24.75
11
-101.650575216528
21
-20.5750033998276
72
1
10
-101.650575216528
20
-20.5750033998276
11
-99.799424783472
21
-20.5749966001724
72
1
10
-99.799424783472
20
-20.5749966001724
11
-100.725
21
-24.75
97
0
75
0
76
1
52
0
41
0.0062
77
0
78
1
53
45
43
0
44
0
45
-0.0139193969876572
46
0.0139193969876572
79
0
47
0
98
1
10
0
20
0
0
HATCH
5
350
100
AcDbEntity
8
2
62
256
6
ByLayer
370
13
48
1
60
0
100
AcDbHatch
10
0
20
0
30
0
210
0
220
0
230
1
2
ANSI31
70
0
71
0
91
1
92
5
93
3
72
1
10
196.975
20
-17.0000000000002
11
196.049424783472
21
-12.8250033998278
72
1
10
196.049424783472
20
-12.8250033998278
11
197.900575216528
21
-12.8249966001726
72
1
10
197.900575216528
20
-12.8249966001726
11
196.975
21
-17.0000000000002
97
0
75
0
76
1
52
0
41
0.0062
77
0
78
1
53
45
43
0
44
0
45
-0.0139193969876572
46
0.0139193969876572
79
0
47
0
98
1
10
0
20
0
0
HATCH
5
354
100
AcDbEntity
8
2
62
256
6
ByLayer
370
13
48
1
60
0
100
AcDbHatch
10
0
20
0
30
0
210
0
220
0
230
1
2
ANSI31
70
0
71
0
91
1
92
5
93
3
72
1
10
196.975
20
16.9999999999998
11
197.900575216528
21
12.8250033998274
72
1
10
197.900575216528
20
12.8250033998274
11
196.049424783472
21
12.8249966001722
72
1
10
196.049424783472
20
12.8249966001722
11
196.975
21
16.9999999999998
97
0
75
0
76
1
52
0
41
0.0062
77
0
78
1
53
45
43
0
44
0
45
-0.0139193969876572
46
0.0139193969876572
79
0
47
0
98
1
10
0
20
0
0
DIMENSION
5
358
100
AcDbEntity
8
2
62
256
6
ByLayer
370
18
48
1
60
0
100
AcDbDimension
2
_U0
10
170
20
-73.612006
30
0
11
85
21
-73.612006
31
0
70
32
71
1
72
1
41
1
210
0
220
0
230
1
3
Standard
100
AcDbAlignedDimension
13
0
23
-24.75
33
0
14
170
24
-17
34
0
50
0
100
AcDbRotatedDimension
1001
ACAD
1000
DSTYLE
1002
{
1070
   371
1070
    13
1070
   372
1070
    13
1070
   170
1070
     0
1070
   144
1040
1.0
1070
   277
1070
     2
1070
   284
1070
     8
1070
   278
1070
    46
1070
   146
1040
0.777778
1070
   345
1005
16
1070
   347
1005
16
1070
   346
1005
16
1070
   344
1005
0
1070
   343
1005
0
1070
   172
1070
     1
1070
    76
1070
     0
1070
    75
1070
     0
1070
   282
1070
     0
1070
   281
1070
     0
1070
    71
1070
     0
1070
    74
1070
     0
1070
   279
1070
     0
1070
   173
1070
     1
1070
   340
1005
336
1070
   271
1070
     1
1070
   272
1070
     2
1070
    77
1070
     1
1070
    73
1070
     1
1070
   171
1070
     3
1070
   274
1070
     4
1070
   177
1070
   150
1070
   176
1070
     9
1070
   178
1070
    43
1070
    78
1070
     8
1070
    48
1040
-0.1
1070
    41
1040
4.175
1070
   147
1040
2.25
1070
    42
1040
1.5875
1070
    44
1040
3.175
1070
   140
1040
4.5
1002
}
1001
ACAD_DSTYLE_DIM_LINETYPE
1070
   380
1005
16
1001
ACAD_DSTYLE_DIM_EXT1_LINETYPE
1070
   381
1005
16
1001
ACAD_DSTYLE_DIM_EXT2_LINETYPE
1070
   382
1005
16
0
DIMENSION
5
371
100
AcDbEntity
8
SK2
62
256
6
ByLayer
370
18
48
1
60
0
100
AcDbDimension
2
_U1
10
0
20
-73.612006
30
0
11
-35
21
-73.612006
31
0
70
32
71
1
72
1
41
1
210
0
220
0
230
1
3
Standard
100
AcDbAlignedDimension
13
-70
23
-20
33
0
14
0
24
-24.75
34
0
50
0
100
AcDbRotatedDimension
1001
ACAD
1000
DSTYLE
1002
{
1070
   371
1070
    13
1070
   372
1070
    13
1070
   170
1070
     0
1070
   144
1040
1.0
1070
   277
1070
     2
1070
   284
1070
     8
1070
   278
1070
    46
1070
   146
1040
0.777778
1070
   345
1005
16
1070
   347
1005
16
1070
   346
1005
16
1070
   344
1005
0
1070
   343
1005
0
1070
   172
1070
     1
1070
    76
1070
     0
1070
    75
1070
     0
1070
   282
1070
     0
1070
   281
1070
     0
1070
    71
1070
     0
1070
    74
1070
     0
1070
   279
1070
     0
1070
   173
1070
     1
1070
   340
1005
336
1070
   271
1070
     1
1070
   272
1070
     2
1070
    77
1070
     1
1070
    73
1070
     1
1070
   171
1070
     3
1070
   274
1070
     4
1070
   177
1070
   150
1070
   176
1070
     9
1070
   178
1070
    43
1070
    78
1070
     8
1070
    48
1040
-0.1
1070
    41
1040
4.175
1070
   147
1040
2.25
1070
    42
1040
1.5875
1070
    44
1040
3.175
1070
   140
1040
4.5
1002
}
1001
ACAD_DSTYLE_DIM_LINETYPE
1070
   380
1005
16
1001
ACAD_DSTYLE_DIM_EXT1_LINETYPE
1070
   381
1005
16
1001
ACAD_DSTYLE_DIM_EXT2_LINETYPE
1070
   382
1005
16
0
DIMENSION
5
389
100
AcDbEntity
8
SK2
62
256
6
ByLayer
370
18
48
1
60
0
100
AcDbDimension
2
_U2
10
5.6431
20
-63.612006
30
0
11
87.82155
21
-63.612006
31
0
70
32
71
1
72
1
41
1
210
0
220
0
230
1
3
Standard
100
AcDbAlignedDimension
13
170
23
-17
33
0
14
5.6431
24
-24.75
34
0
50
0
100
AcDbRotatedDimension
1001
ACAD
1000
DSTYLE
1002
{
1070
   371
1070
    13
1070
   372
1070
    13
1070
   170
1070
     0
1070
   144
1040
1.0
1070
   277
1070
     2
1070
   284
1070
     8
1070
   278
1070
    46
1070
   146
1040
0.777778
1070
   345
1005
16
1070
   347
1005
16
1070
   346
1005
16
1070
   344
1005
0
1070
   343
1005
0
1070
   172
1070
     1
1070
    76
1070
     0
1070
    75
1070
     0
1070
   282
1070
     0
1070
   281
1070
     0
1070
    71
1070
     0
1070
    74
1070
     0
1070
   279
1070
     0
1070
   173
1070
     1
1070
   340
1005
336
1070
   271
1070
     1
1070
   272
1070
     2
1070
    77
1070
     1
1070
    73
1070
     1
1070
   171
1070
     3
1070
   274
1070
     4
1070
   177
1070
   150
1070
   176
1070
     9
1070
   178
1070
    43
1070
    78
1070
     8
1070
    48
1040
-0.1
1070
    41
1040
4.175
1070
   147
1040
2.25
1070
    42
1040
1.5875
1070
    44
1040
3.175
1070
   140
1040
4.5
1002
}
1001
ACAD_DSTYLE_DIM_LINETYPE
1070
   380
1005
16
1001
ACAD_DSTYLE_DIM_EXT1_LINETYPE
1070
   381
1005
16
1001
ACAD_DSTYLE_DIM_EXT2_LINETYPE
1070
   382
1005
16
0
DIMENSION
5
3A1
100
AcDbEntity
8
SK2
62
256
6
ByLayer
370
18
48
1
60
0
100
AcDbDimension
2
_U3
10
170
20
-53.612006
30
0
11
100
21
-53.612006
31
0
70
32
71
1
72
1
41
1
210
0
220
0
230
1
3
Standard
100
AcDbAlignedDimension
13
30
23
-17
33
0
14
170
24
-17
34
0
50
0
100
AcDbRotatedDimension
1001
ACAD
1000
DSTYLE
1002
{
1070
   371
1070
    13
1070
   372
1070
    13
1070
   170
1070
     0
1070
   144
1040
1.0
1070
   277
1070
     2
1070
   284
1070
     8
1070
   278
1070
    46
1070
   146
1040
0.777778
1070
   345
1005
16
1070
   347
1005
16
1070
   346
1005
16
1070
   344
1005
0
1070
   343
1005
0
1070
   172
1070
     1
1070
    76
1070
     0
1070
    75
1070
     0
1070
   282
1070
     0
1070
   281
1070
     0
1070
    71
1070
     0
1070
    74
1070
     0
1070
   279
1070
     0
1070
   173
1070
     1
1070
   340
1005
336
1070
   271
1070
     1
1070
   272
1070
     2
1070
    77
1070
     1
1070
    73
1070
     1
1070
   171
1070
     3
1070
   274
1070
     4
1070
   177
1070
   150
1070
   176
1070
     9
1070
   178
1070
    43
1070
    78
1070
     8
1070
    48
1040
-0.1
1070
    41
1040
4.175
1070
   147
1040
2.25
1070
    42
1040
1.5875
1070
    44
1040
3.175
1070
   140
1040
4.5
1002
}
1001
ACAD_DSTYLE_DIM_LINETYPE
1070
   380
1005
16
1001
ACAD_DSTYLE_DIM_EXT1_LINETYPE
1070
   381
1005
16
1001
ACAD_DSTYLE_DIM_EXT2_LINETYPE
1070
   382
1005
16
0
DIMENSION
5
3B9
100
AcDbEntity
8
2
62
256
6
ByLayer
370
18
48
1
60
0
100
AcDbDimension
2
_U4
10
170
20
-43.612006
30
0
11
186.029464
21
-43.612006
31
0
70
32
71
1
72
1
41
1
210
0
220
0
230
1
3
Standard
100
AcDbAlignedDimension
13
168.9982
23
-8.5
33
0
14
170
24
0
34
0
50
0
100
AcDbRotatedDimension
1001
ACAD
1000
DSTYLE
1002
{
1070
   371
1070
    13
1070
   372
1070
    13
1070
   170
1070
     0
1070
   144
1040
1.0
1070
   277
1070
     2
1070
   284
1070
     8
1070
   278
1070
    46
1070
   146
1040
0.777778
1070
   345
1005
16
1070
   347
1005
16
1070
   346
1005
16
1070
   344
1005
0
1070
   343
1005
0
1070
   172
1070
     1
1070
    76
1070
     0
1070
    75
1070
     0
1070
   282
1070
     0
1070
   281
1070
     0
1070
    71
1070
     0
1070
    74
1070
     0
1070
   279
1070
     0
1070
   173
1070
     1
1070
   340
1005
336
1070
   271
1070
     2
1070
   272
1070
     2
1070
    77
1070
     1
1070
    73
1070
     1
1070
   171
1070
     3
1070
   274
1070
     4
1070
   177
1070
   150
1070
   176
1070
     9
1070
   178
1070
    43
1070
    78
1070
     8
1070
    48
1040
-0.1
1070
    41
1040
4.175
1070
   147
1040
2.25
1070
    42
1040
1.5875
1070
    44
1040
3.175
1070
   140
1040
4.5
1002
}
1001
ACAD_DSTYLE_DIM_LINETYPE
1070
   380
1005
16
1001
ACAD_DSTYLE_DIM_EXT1_LINETYPE
1070
   381
1005
16
1001
ACAD_DSTYLE_DIM_EXT2_LINETYPE
1070
   382
1005
16
0
ENDSEC
0
SECTION
2
OBJECTS
0
DICTIONARY
5
443
330
0
100
AcDbDictionary
280
0
281
1
3
ACAD_GROUP
350
444
3
ACAD_MLINESTYLE
350
445
0
DICTIONARY
5
444
330
0
100
AcDbDictionary
280
0
281
1
0
DICTIONARY
5
445
330
0
100
AcDbDictionary
280
0
281
1
3
Standard
350
18
0
MLINESTYLE
5
18
330
445
100
AcDbMlineStyle
2
Standard
70
0
3

62
256
51
90
52
90
71
2
49
-0.5
62
256
6
ByLayer
49
0.5
62
256
6
ByLayer
0
RASTERVARIABLES
5
431
330

100
AcDbRasterVariables
90
0
70
1
71
1
72
1
0
ENDSEC
0
EOF
