0
SECTION
2
HEADER
9
$ACADVER
1
AC1015
9
$DWGCODEPAGE
3
ANSI_1252
9
$HANDSEED
5
458
9
$ANGBASE
50
0
9
$ANGDIR
70
0
9
$ATTMODE
70
1
9
$AUNITS
70
0
9
$AUPREC
70
0
9
$CECOLOR
62
256
9
$CELTSCALE
40
1
9
$CELTYPE
6
ByLayer
9
$CELWEIGHT
370
18
9
$CLAYER
8
0
9
$CMLJUST
70
0
9
$CMLSCALE
40
1
9
$CMLSTYLE
2
Standard
9
$DIMSTYLE
2
Standard
9
$TEXTSIZE
40
0.2
9
$TEXTSTYLE
7
Standard
9
$LUNITS
70
2
9
$LUPREC
70
4
9
$EXTNAMES
290
1
9
$INSUNITS
70
4
9
$LTSCALE
40
1
9
$LWDISPLAY
290
1
9
$PDMODE
70
0
9
$PDSIZE
40
0
9
$PLINEGEN
70
0
0
ENDSEC
0
SECTION
2
CLASSES
0
CLASS
1
RASTERVARIABLES
2
AcDbRasterVariables
3
ISM
90
0
280
0
281
0
0
ENDSEC
0
SECTION
2
TABLES
0
TABLE
2
VPORT
5
44e
100
AcDbSymbolTable
0
VPORT
5
1
100
AcDbSymbolTableRecord
100
AcDbViewportTableRecord
2
*Active
70
0
10
0
20
0
11
1
21
1
12
-1
22
1
13
0
23
0
14
0.5
24
0.5
15
10
25
10
16
0
26
0
36
1
17
0
27
0
37
0
0
ENDTAB
0
TABLE
2
LTYPE
5
44f
100
AcDbSymbolTable
0
LTYPE
5
14
100
AcDbSymbolTableRecord
100
AcDbLinetypeTableRecord
70
0
2
ByBlock
3

72
65
73
0
40
0
0
LTYPE
5
15
100
AcDbSymbolTableRecord
100
AcDbLinetypeTableRecord
70
0
2
ByLayer
3

72
65
73
0
40
0
0
LTYPE
5
16
100
AcDbSymbolTableRecord
100
AcDbLinetypeTableRecord
70
0
2
Continuous
3
Solid line
72
65
73
0
40
0
0
LTYPE
5
6E
100
AcDbSymbolTableRecord
100
AcDbLinetypeTableRecord
70
0
2
CENTER
3
____ _ ____ _ ____ _ ____
72
65
73
4
40
47.5
49
22
74
0
49
-8.5
74
0
49
8.5
74
0
49
-8.5
74
0
0
LTYPE
5
6F
100
AcDbSymbolTableRecord
100
AcDbLinetypeTableRecord
70
0
2
DASHED
3
__ __ __ __ __ __ __ __ __
72
65
73
2
40
25.72
49
12.86
74
0
49
-12.86
74
0
0
ENDTAB
0
TABLE
2
LAYER
5
450
100
AcDbSymbolTable
0
LAYER
5
10
100
AcDbSymbolTableRecord
100
AcDbLayerTableRecord
2
0
70
0
62
7
6
Continuous
290
1
370
-3
390
0
0
LAYER
5
71
100
AcDbSymbolTableRecord
100
AcDbLayerTableRecord
2
1
70
0
62
4
6
Continuous
290
1
370
-3
390
0
0
LAYER
5
73
100
AcDbSymbolTableRecord
100
AcDbLayerTableRecord
2
80
70
0
62
-6
6
Continuous
290
1
370
-3
390
0
0
LAYER
5
75
100
AcDbSymbolTableRecord
100
AcDbLayerTableRecord
2
81
70
0
62
-3
6
Continuous
290
1
370
-3
390
0
0
LAYER
5
143
100
AcDbSymbolTableRecord
100
AcDbLayerTableRecord
2
4
70
0
62
-2
6
CENTER
290
1
370
-3
390
0
0
LAYER
5
17F
100
AcDbSymbolTableRecord
100
AcDbLayerTableRecord
2
2
70
0
62
7
6
Continuous
290
1
370
-3
390
0
0
LAYER
5
363
100
AcDbSymbolTableRecord
100
AcDbLayerTableRecord
2
Defpoints
70
0
62
7
6
Continuous
290
0
370
-3
390
0
0
LAYER
5
43a
100
AcDbSymbolTableRecord
100
AcDbLayerTableRecord
2
SK1
70
0
62
4
6
Continuous
290
1
370
-3
390
0
0
LAYER
5
43b
100
AcDbSymbolTableRecord
100
AcDbLayerTableRecord
2
SK4
70
0
62
2
6
CENTER
290
1
370
-3
390
0
0
LAYER
5
43c
100
AcDbSymbolTableRecord
100
AcDbLayerTableRecord
2
SK2
70
0
62
7
6
Continuous
290
1
370
-3
390
0
0
LAYER
5
43d
100
AcDbSymbolTableRecord
100
AcDbLayerTableRecord
2
SK6
70
0
62
5
6
Continuous
290
1
370
-3
390
0
0
ENDTAB
0
TABLE
2
STYLE
5
451
100
AcDbSymbolTable
0
STYLE
5
11
100
AcDbSymbolTableRecord
100
AcDbTextStyleTableRecord
2
Standard
3
txt
70
0
71
0
40
0
41
1
42
0
50
0
0
STYLE
5
33E
100
AcDbSymbolTableRecord
100
AcDbTextStyleTableRecord
2
iso_b_vert
3
simplex.shx
70
0
71
0
40
0
41
1
42
0
50
0
0
STYLE
5
33F
100
AcDbSymbolTableRecord
100
AcDbTextStyleTableRecord
2
DWGDirectTextStyle
3
simplex
70
0
71
0
40
0
41
1
42
0
50
0
0
ENDTAB
0
TABLE
2
DIMSTYLE
5
452
100
AcDbSymbolTable
100
AcDbDimStyleTable
0
DIMSTYLE
105
27
100
AcDbSymbolTableRecord
100
AcDbDimStyleTableRecord
2
Standard
70
0
3
<>
41
0.18
42
0.0625
44
0.18
140
0.18
147
0.09
73
0
74
0
77
1
271
2
275
0
278
52
280
0
340
11
0
ENDTAB
0
TABLE
2
VIEW
5
453
100
AcDbSymbolTable
0
ENDTAB
0
TABLE
2
UCS
5
454
100
AcDbSymbolTable
0
ENDTAB
0
TABLE
2
APPID
5
455
100
AcDbSymbolTable
0
APPID
5
12
100
AcDbSymbolTableRecord
100
AcDbRegAppTableRecord
2
ACAD
70
0
0
APPID
5
35F
100
AcDbSymbolTableRecord
100
AcDbRegAppTableRecord
2
ACAD_DSTYLE_DIMBREAK
70
0
0
APPID
5
3F9
100
AcDbSymbolTableRecord
100
AcDbRegAppTableRecord
2
ACAD_DSTYLE_DIM_LINETYPE
70
0
0
APPID
5
3FA
100
AcDbSymbolTableRecord
100
AcDbRegAppTableRecord
2
ACAD_DSTYLE_DIM_EXT1_LINETYPE
70
0
0
APPID
5
3FB
100
AcDbSymbolTableRecord
100
AcDbRegAppTableRecord
2
ACAD_DSTYLE_DIM_EXT2_LINETYPE
70
0
0
APPID
5
436
100
AcDbSymbolTableRecord
100
AcDbRegAppTableRecord
2
ACAD_MLEADERVER
70
0
0
ENDTAB
0
TABLE
2
BLOCK_RECORD
5
456
100
AcDbSymbolTable
0
BLOCK_RECORD
5
1F
100
AcDbSymbolTableRecord
100
AcDbBlockTableRecord
2
*Model_Space
340
0
70
0
0
BLOCK_RECORD
5
1B
100
AcDbSymbolTableRecord
100
AcDbBlockTableRecord
2
*Paper_Space
340
0
70
0
0
BLOCK_RECORD
5
23
100
AcDbSymbolTableRecord
100
AcDbBlockTableRecord
2
*Paper_Space0
340
0
70
0
0
BLOCK_RECORD
5
364
100
AcDbSymbolTableRecord
100
AcDbBlockTableRecord
2
*D1
340
0
70
0
0
BLOCK_RECORD
5
370
100
AcDbSymbolTableRecord
100
AcDbBlockTableRecord
2
_U0
340
0
70
0
0
BLOCK_RECORD
5
37C
100
AcDbSymbolTableRecord
100
AcDbBlockTableRecord
2
*D3
340
0
70
0
0
BLOCK_RECORD
5
388
100
AcDbSymbolTableRecord
100
AcDbBlockTableRecord
2
_U1
340
0
70
0
0
BLOCK_RECORD
5
394
100
AcDbSymbolTableRecord
100
AcDbBlockTableRecord
2
*D5
340
0
70
0
0
BLOCK_RECORD
5
3A0
100
AcDbSymbolTableRecord
100
AcDbBlockTableRecord
2
_U2
340
0
70
0
0
BLOCK_RECORD
5
3AC
100
AcDbSymbolTableRecord
100
AcDbBlockTableRecord
2
*D7
340
0
70
0
0
BLOCK_RECORD
5
3B8
100
AcDbSymbolTableRecord
100
AcDbBlockTableRecord
2
_U3
340
0
70
0
0
BLOCK_RECORD
5
3C4
100
AcDbSymbolTableRecord
100
AcDbBlockTableRecord
2
*D9
340
0
70
0
0
BLOCK_RECORD
5
3D2
100
AcDbSymbolTableRecord
100
AcDbBlockTableRecord
2
_U4
340
0
70
0
0
ENDTAB
0
ENDSEC
0
SECTION
2
BLOCKS
0
BLOCK
5
20
100
AcDbEntity
8
0
100
AcDbBlockBegin
2
*Model_Space
70
0
10
0
20
0
30
0
3
*Model_Space
0
ENDBLK
5
21
100
AcDbEntity
8
0
100
AcDbBlockEnd
0
BLOCK
5
1C
100
AcDbEntity
8
0
100
AcDbBlockBegin
2
*Paper_Space
70
0
10
0
20
0
30
0
3
*Paper_Space
0
ENDBLK
5
1D
100
AcDbEntity
8
0
100
AcDbBlockEnd
0
BLOCK
5
24
100
AcDbEntity
8
0
100
AcDbBlockBegin
2
*Paper_Space0
70
0
10
0
20
0
30
0
3
*Paper_Space0
0
ENDBLK
5
25
100
AcDbEntity
8
0
100
AcDbBlockEnd
0
BLOCK
5
365
100
AcDbEntity
8
0
100
AcDbBlockBegin
2
*D1
70
1
10
0
20
0
30
0
3
*D1
0
LINE
5
367
100
AcDbEntity
8
0
62
256
6
ByLayer
370
-2
48
1
60
0
100
AcDbLine
10
0
20
-21.3375
30
0
11
0
21
-71.786325
31
0
39
0
210
0
220
0
230
1
0
LINE
5
368
100
AcDbEntity
8
0
62
256
6
ByLayer
370
-2
48
1
60
0
100
AcDbLine
10
137
20
-15.0875
30
0
11
137
21
-71.786325
31
0
39
0
210
0
220
0
230
1
0
LINE
5
369
100
AcDbEntity
8
0
62
256
6
ByLayer
370
-2
48
1
60
0
100
AcDbLine
10
4.175
20
-68.611325
30
0
11
132.825
21
-68.611325
31
0
39
0
210
0
220
0
230
1
0
SOLID
5
36A
100
AcDbEntity
8
0
62
256
6
ByLayer
370
-1
48
1
60
0
100
AcDbTrace
10
4.175
20
-67.915492
30
0
11
4.175
21
-69.307159
31
0
12
0
22
-68.611325
32
0
13
0
23
-68.611325
33
0
39
0
210
0
220
0
230
1
0
SOLID
5
36B
100
AcDbEntity
8
0
62
256
6
ByLayer
370
-1
48
1
60
0
100
AcDbTrace
10
132.825
20
-69.307159
30
0
11
132.825
21
-67.915492
31
0
12
137
22
-68.611325
32
0
13
137
23
-68.611325
33
0
39
0
210
0
220
0
230
1
0
MTEXT
5
36C
100
AcDbEntity
8
0
62
256
6
ByLayer
370
18
48
1
60
0
100
AcDbMText
10
68.5
20
-59.217575
30
0
210
0
220
0
230
1
1
\A1;137
40
4.5
41
0
44
1
50
0
71
5
72
5
7
iso_b_vert
0
POINT
5
36D
100
AcDbEntity
8
Defpoints
62
0
6
ByLayer
370
-1
48
1
60
0
100
AcDbPoint
10
0
20
-19.75
30
0
39
0
210
0
220
0
230
1
50
360
0
POINT
5
36E
100
AcDbEntity
8
Defpoints
62
0
6
ByLayer
370
-1
48
1
60
0
100
AcDbPoint
10
137
20
-13.5
30
0
39
0
210
0
220
0
230
1
50
360
0
POINT
5
36F
100
AcDbEntity
8
Defpoints
62
0
6
ByLayer
370
-1
48
1
60
0
100
AcDbPoint
10
137
20
-68.611325
30
0
39
0
210
0
220
0
230
1
50
360
0
ENDBLK
5
366
100
AcDbEntity
8
0
100
AcDbBlockEnd
0
BLOCK
5
377
100
AcDbEntity
8
0
100
AcDbBlockBegin
2
_U0
70
0
10
0
20
0
30
0
3
_U0
0
MTEXT
5
371
100
AcDbEntity
8
2
62
256
6
ByLayer
370
18
48
1
60
0
100
AcDbMText
10
64.931801
20
-67.283654
30
0
210
0
220
0
230
1
1
\W0.6217;137
40
4.5
41
0
44
1.084337
50
0
71
7
72
5
7
iso_b_vert
0
LINE
5
372
100
AcDbEntity
8
2
62
256
6
ByLayer
370
13
48
1
60
0
100
AcDbLine
10
0
20
-21.3375
30
0
11
0
21
-71.786325
31
0
39
0
210
0
220
0
230
1
0
LINE
5
373
100
AcDbEntity
8
2
62
256
6
ByLayer
370
13
48
1
60
0
100
AcDbLine
10
137
20
-15.0875
30
0
11
137
21
-71.786325
31
0
39
0
210
0
220
0
230
1
0
LINE
5
374
100
AcDbEntity
8
2
62
256
6
ByLayer
370
13
48
1
60
0
100
AcDbLine
10
0
20
-68.611325
30
0
11
137
21
-68.611325
31
0
39
0
210
0
220
0
230
1
0
SOLID
5
375
100
AcDbEntity
8
2
62
256
6
ByLayer
370
18
48
1
60
0
100
AcDbTrace
10
0
20
-68.611325
30
0
11
4.174997
21
-67.68575
31
0
12
4.175003
22
-69.536901
32
0
13
4.175003
23
-69.536901
33
0
39
0
210
0
220
0
230
1
0
SOLID
5
376
100
AcDbEntity
8
2
62
256
6
ByLayer
370
18
48
1
60
0
100
AcDbTrace
10
137
20
-68.611325
30
0
11
132.825003
21
-69.536901
31
0
12
132.824997
22
-67.68575
32
0
13
132.824997
23
-67.68575
33
0
39
0
210
0
220
0
230
1
0
ENDBLK
5
378
100
AcDbEntity
8
0
100
AcDbBlockEnd
0
BLOCK
5
37D
100
AcDbEntity
8
0
100
AcDbBlockBegin
2
*D3
70
1
10
0
20
0
30
0
3
*D3
0
LINE
5
37F
100
AcDbEntity
8
0
62
256
6
ByLayer
370
-2
48
1
60
0
100
AcDbLine
10
-60
20
-17.5875
30
0
11
-60
21
-71.786325
31
0
39
0
210
0
220
0
230
1
0
LINE
5
380
100
AcDbEntity
8
0
62
256
6
ByLayer
370
-2
48
1
60
0
100
AcDbLine
10
0
20
-21.3375
30
0
11
0
21
-71.786325
31
0
39
0
210
0
220
0
230
1
0
LINE
5
381
100
AcDbEntity
8
0
62
256
6
ByLayer
370
-2
48
1
60
0
100
AcDbLine
10
-55.825
20
-68.611325
30
0
11
-4.175
21
-68.611325
31
0
39
0
210
0
220
0
230
1
0
SOLID
5
382
100
AcDbEntity
8
0
62
256
6
ByLayer
370
-1
48
1
60
0
100
AcDbTrace
10
-55.825
20
-67.915492
30
0
11
-55.825
21
-69.307159
31
0
12
-60
22
-68.611325
32
0
13
-60
23
-68.611325
33
0
39
0
210
0
220
0
230
1
0
SOLID
5
383
100
AcDbEntity
8
0
62
256
6
ByLayer
370
-1
48
1
60
0
100
AcDbTrace
10
-4.175
20
-69.307159
30
0
11
-4.175
21
-67.915492
31
0
12
0
22
-68.611325
32
0
13
0
23
-68.611325
33
0
39
0
210
0
220
0
230
1
0
MTEXT
5
384
100
AcDbEntity
8
0
62
256
6
ByLayer
370
18
48
1
60
0
100
AcDbMText
10
-30
20
-59.217575
30
0
210
0
220
0
230
1
1
\A1;60
40
4.5
41
0
44
1
50
0
71
5
72
5
7
iso_b_vert
0
POINT
5
385
100
AcDbEntity
8
Defpoints
62
0
6
ByLayer
370
-1
48
1
60
0
100
AcDbPoint
10
-60
20
-16
30
0
39
0
210
0
220
0
230
1
50
360
0
POINT
5
386
100
AcDbEntity
8
Defpoints
62
0
6
ByLayer
370
-1
48
1
60
0
100
AcDbPoint
10
0
20
-19.75
30
0
39
0
210
0
220
0
230
1
50
360
0
POINT
5
387
100
AcDbEntity
8
Defpoints
62
0
6
ByLayer
370
-1
48
1
60
0
100
AcDbPoint
10
0
20
-68.611325
30
0
39
0
210
0
220
0
230
1
50
360
0
ENDBLK
5
37E
100
AcDbEntity
8
0
100
AcDbBlockEnd
0
BLOCK
5
38F
100
AcDbEntity
8
0
100
AcDbBlockBegin
2
_U1
70
0
10
0
20
0
30
0
3
_U1
0
MTEXT
5
389
100
AcDbEntity
8
SK2
62
256
6
ByLayer
370
18
48
1
60
0
100
AcDbMText
10
-32.449242
20
-67.283654
30
0
210
0
220
0
230
1
1
\W0.6740;60
40
4.5
41
0
44
1.084337
50
0
71
7
72
5
7
iso_b_vert
0
LINE
5
38A
100
AcDbEntity
8
SK2
62
256
6
ByLayer
370
13
48
1
60
0
100
AcDbLine
10
-60
20
-17.5875
30
0
11
-60
21
-71.786325
31
0
39
0
210
0
220
0
230
1
0
LINE
5
38B
100
AcDbEntity
8
SK2
62
256
6
ByLayer
370
13
48
1
60
0
100
AcDbLine
10
0
20
-21.3375
30
0
11
0
21
-71.786325
31
0
39
0
210
0
220
0
230
1
0
LINE
5
38C
100
AcDbEntity
8
SK2
62
256
6
ByLayer
370
13
48
1
60
0
100
AcDbLine
10
-60
20
-68.611325
30
0
11
0
21
-68.611325
31
0
39
0
210
0
220
0
230
1
0
SOLID
5
38D
100
AcDbEntity
8
SK2
62
256
6
ByLayer
370
18
48
1
60
0
100
AcDbTrace
10
-60
20
-68.611325
30
0
11
-55.825003
21
-67.68575
31
0
12
-55.824997
22
-69.536901
32
0
13
-55.824997
23
-69.536901
33
0
39
0
210
0
220
0
230
1
0
SOLID
5
38E
100
AcDbEntity
8
SK2
62
256
6
ByLayer
370
18
48
1
60
0
100
AcDbTrace
10
0
20
-68.611325
30
0
11
-4.174997
21
-69.536901
31
0
12
-4.175003
22
-67.68575
32
0
13
-4.175003
23
-67.68575
33
0
39
0
210
0
220
0
230
1
0
ENDBLK
5
390
100
AcDbEntity
8
0
100
AcDbBlockEnd
0
BLOCK
5
395
100
AcDbEntity
8
0
100
AcDbBlockBegin
2
*D5
70
1
10
0
20
0
30
0
3
*D5
0
LINE
5
397
100
AcDbEntity
8
0
62
256
6
ByLayer
370
-2
48
1
60
0
100
AcDbLine
10
137
20
-15.0875
30
0
11
137
21
-61.786325
31
0
39
0
210
0
220
0
230
1
0
LINE
5
398
100
AcDbEntity
8
0
62
256
6
ByLayer
370
-2
48
1
60
0
100
AcDbLine
10
5.5534
20
-21.3375
30
0
11
5.5534
21
-61.786325
31
0
39
0
210
0
220
0
230
1
0
LINE
5
399
100
AcDbEntity
8
0
62
256
6
ByLayer
370
-2
48
1
60
0
100
AcDbLine
10
132.825
20
-58.611325
30
0
11
9.7284
21
-58.611325
31
0
39
0
210
0
220
0
230
1
0
SOLID
5
39A
100
AcDbEntity
8
0
62
256
6
ByLayer
370
-1
48
1
60
0
100
AcDbTrace
10
132.825
20
-59.307159
30
0
11
132.825
21
-57.915492
31
0
12
137
22
-58.611325
32
0
13
137
23
-58.611325
33
0
39
0
210
0
220
0
230
1
0
SOLID
5
39B
100
AcDbEntity
8
0
62
256
6
ByLayer
370
-1
48
1
60
0
100
AcDbTrace
10
9.7284
20
-57.915492
30
0
11
9.7284
21
-59.307159
31
0
12
5.5534
22
-58.611325
32
0
13
5.5534
23
-58.611325
33
0
39
0
210
0
220
0
230
1
0
MTEXT
5
39C
100
AcDbEntity
8
0
62
256
6
ByLayer
370
18
48
1
60
0
100
AcDbMText
10
71.2767
20
-49.217575
30
0
210
0
220
0
230
1
1
\A1;131.4
40
4.5
41
0
44
1
50
0
71
5
72
5
7
iso_b_vert
0
POINT
5
39D
100
AcDbEntity
8
Defpoints
62
0
6
ByLayer
370
-1
48
1
60
0
100
AcDbPoint
10
137
20
-13.5
30
0
39
0
210
0
220
0
230
1
50
360
0
POINT
5
39E
100
AcDbEntity
8
Defpoints
62
0
6
ByLayer
370
-1
48
1
60
0
100
AcDbPoint
10
5.5534
20
-19.75
30
0
39
0
210
0
220
0
230
1
50
360
0
POINT
5
39F
100
AcDbEntity
8
Defpoints
62
0
6
ByLayer
370
-1
48
1
60
0
100
AcDbPoint
10
5.5534
20
-58.611325
30
0
39
0
210
0
220
0
230
1
50
360
0
ENDBLK
5
396
100
AcDbEntity
8
0
100
AcDbBlockEnd
0
BLOCK
5
3A7
100
AcDbEntity
8
0
100
AcDbBlockBegin
2
_U2
70
0
10
0
20
0
30
0
3
_U2
0
MTEXT
5
3A1
100
AcDbEntity
8
SK2
62
256
6
ByLayer
370
18
48
1
60
0
100
AcDbMText
10
65.441058
20
-57.283654
30
0
210
0
220
0
230
1
1
\W0.6413;131.4
40
4.5
41
0
44
1.084337
50
0
71
7
72
5
7
iso_b_vert
0
LINE
5
3A2
100
AcDbEntity
8
SK2
62
256
6
ByLayer
370
13
48
1
60
0
100
AcDbLine
10
137
20
-15.0875
30
0
11
137
21
-61.786325
31
0
39
0
210
0
220
0
230
1
0
LINE
5
3A3
100
AcDbEntity
8
SK2
62
256
6
ByLayer
370
13
48
1
60
0
100
AcDbLine
10
5.5534
20
-21.3375
30
0
11
5.5534
21
-61.786325
31
0
39
0
210
0
220
0
230
1
0
LINE
5
3A4
100
AcDbEntity
8
SK2
62
256
6
ByLayer
370
13
48
1
60
0
100
AcDbLine
10
137
20
-58.611325
30
0
11
5.5534
21
-58.611325
31
0
39
0
210
0
220
0
230
1
0
SOLID
5
3A5
100
AcDbEntity
8
SK2
62
256
6
ByLayer
370
18
48
1
60
0
100
AcDbTrace
10
137
20
-58.611325
30
0
11
132.825003
21
-59.536901
31
0
12
132.824997
22
-57.68575
32
0
13
132.824997
23
-57.68575
33
0
39
0
210
0
220
0
230
1
0
SOLID
5
3A6
100
AcDbEntity
8
SK2
62
256
6
ByLayer
370
18
48
1
60
0
100
AcDbTrace
10
5.5534
20
-58.611325
30
0
11
9.728397
21
-57.68575
31
0
12
9.728403
22
-59.536901
32
0
13
9.728403
23
-59.536901
33
0
39
0
210
0
220
0
230
1
0
ENDBLK
5
3A8
100
AcDbEntity
8
0
100
AcDbBlockEnd
0
BLOCK
5
3AD
100
AcDbEntity
8
0
100
AcDbBlockBegin
2
*D7
70
1
10
0
20
0
30
0
3
*D7
0
LINE
5
3AF
100
AcDbEntity
8
0
62
256
6
ByLayer
370
-2
48
1
60
0
100
AcDbLine
10
25
20
-15.0875
30
0
11
25
21
-51.786325
31
0
39
0
210
0
220
0
230
1
0
LINE
5
3B0
100
AcDbEntity
8
0
62
256
6
ByLayer
370
-2
48
1
60
0
100
AcDbLine
10
137
20
-15.0875
30
0
11
137
21
-51.786325
31
0
39
0
210
0
220
0
230
1
0
LINE
5
3B1
100
AcDbEntity
8
0
62
256
6
ByLayer
370
-2
48
1
60
0
100
AcDbLine
10
29.175
20
-48.611325
30
0
11
132.825
21
-48.611325
31
0
39
0
210
0
220
0
230
1
0
SOLID
5
3B2
100
AcDbEntity
8
0
62
256
6
ByLayer
370
-1
48
1
60
0
100
AcDbTrace
10
29.175
20
-47.915492
30
0
11
29.175
21
-49.307159
31
0
12
25
22
-48.611325
32
0
13
25
23
-48.611325
33
0
39
0
210
0
220
0
230
1
0
SOLID
5
3B3
100
AcDbEntity
8
0
62
256
6
ByLayer
370
-1
48
1
60
0
100
AcDbTrace
10
132.825
20
-49.307159
30
0
11
132.825
21
-47.915492
31
0
12
137
22
-48.611325
32
0
13
137
23
-48.611325
33
0
39
0
210
0
220
0
230
1
0
MTEXT
5
3B4
100
AcDbEntity
8
0
62
256
6
ByLayer
370
18
48
1
60
0
100
AcDbMText
10
81
20
-39.217575
30
0
210
0
220
0
230
1
1
\A1;112
40
4.5
41
0
44
1
50
0
71
5
72
5
7
iso_b_vert
0
POINT
5
3B5
100
AcDbEntity
8
Defpoints
62
0
6
ByLayer
370
-1
48
1
60
0
100
AcDbPoint
10
25
20
-13.5
30
0
39
0
210
0
220
0
230
1
50
360
0
POINT
5
3B6
100
AcDbEntity
8
Defpoints
62
0
6
ByLayer
370
-1
48
1
60
0
100
AcDbPoint
10
137
20
-13.5
30
0
39
0
210
0
220
0
230
1
50
360
0
POINT
5
3B7
100
AcDbEntity
8
Defpoints
62
0
6
ByLayer
370
-1
48
1
60
0
100
AcDbPoint
10
137
20
-48.611325
30
0
39
0
210
0
220
0
230
1
50
360
0
ENDBLK
5
3AE
100
AcDbEntity
8
0
100
AcDbBlockEnd
0
BLOCK
5
3BF
100
AcDbEntity
8
0
100
AcDbBlockBegin
2
_U3
70
0
10
0
20
0
30
0
3
_U3
0
MTEXT
5
3B9
100
AcDbEntity
8
SK2
62
256
6
ByLayer
370
18
48
1
60
0
100
AcDbMText
10
77.994215
20
-47.283654
30
0
210
0
220
0
230
1
1
\W0.5296;112
40
4.5
41
0
44
1.084337
50
0
71
7
72
5
7
iso_b_vert
0
LINE
5
3BA
100
AcDbEntity
8
SK2
62
256
6
ByLayer
370
13
48
1
60
0
100
AcDbLine
10
25
20
-15.0875
30
0
11
25
21
-51.786325
31
0
39
0
210
0
220
0
230
1
0
LINE
5
3BB
100
AcDbEntity
8
SK2
62
256
6
ByLayer
370
13
48
1
60
0
100
AcDbLine
10
137
20
-15.0875
30
0
11
137
21
-51.786325
31
0
39
0
210
0
220
0
230
1
0
LINE
5
3BC
100
AcDbEntity
8
SK2
62
256
6
ByLayer
370
13
48
1
60
0
100
AcDbLine
10
25
20
-48.611325
30
0
11
137
21
-48.611325
31
0
39
0
210
0
220
0
230
1
0
SOLID
5
3BD
100
AcDbEntity
8
SK2
62
256
6
ByLayer
370
18
48
1
60
0
100
AcDbTrace
10
25
20
-48.611325
30
0
11
29.174997
21
-47.68575
31
0
12
29.175003
22
-49.536901
32
0
13
29.175003
23
-49.536901
33
0
39
0
210
0
220
0
230
1
0
SOLID
5
3BE
100
AcDbEntity
8
SK2
62
256
6
ByLayer
370
18
48
1
60
0
100
AcDbTrace
10
137
20
-48.611325
30
0
11
132.825003
21
-49.536901
31
0
12
132.824997
22
-47.68575
32
0
13
132.824997
23
-47.68575
33
0
39
0
210
0
220
0
230
1
0
ENDBLK
5
3C0
100
AcDbEntity
8
0
100
AcDbBlockEnd
0
BLOCK
5
3C5
100
AcDbEntity
8
0
100
AcDbBlockBegin
2
*D9
70
1
10
0
20
0
30
0
3
*D9
0
LINE
5
3C7
100
AcDbEntity
8
0
62
256
6
ByLayer
370
-2
48
1
60
0
100
AcDbLine
10
136.335
20
-8.3375
30
0
11
136.335
21
-41.786325
31
0
39
0
210
0
220
0
230
1
0
LINE
5
3C8
100
AcDbEntity
8
0
62
256
6
ByLayer
370
-2
48
1
60
0
100
AcDbLine
10
137
20
-1.5875
30
0
11
137
21
-41.786325
31
0
39
0
210
0
220
0
230
1
0
LINE
5
3C9
100
AcDbEntity
8
0
62
256
6
ByLayer
370
-2
48
1
60
0
100
AcDbLine
10
137
20
-38.611325
30
0
11
173.351786
21
-38.611325
31
0
39
0
210
0
220
0
230
1
0
LINE
5
3CA
100
AcDbEntity
8
0
62
256
6
ByLayer
370
-2
48
1
60
0
100
AcDbLine
10
132.16
20
-38.611325
30
0
11
127.985
21
-38.611325
31
0
39
0
210
0
220
0
230
1
0
LINE
5
3CB
100
AcDbEntity
8
0
62
256
6
ByLayer
370
-2
48
1
60
0
100
AcDbLine
10
141.175
20
-38.611325
30
0
11
145.35
21
-38.611325
31
0
39
0
210
0
220
0
230
1
0
SOLID
5
3CC
100
AcDbEntity
8
0
62
256
6
ByLayer
370
-1
48
1
60
0
100
AcDbTrace
10
132.16
20
-39.307159
30
0
11
132.16
21
-37.915492
31
0
12
136.335
22
-38.611325
32
0
13
136.335
23
-38.611325
33
0
39
0
210
0
220
0
230
1
0
SOLID
5
3CD
100
AcDbEntity
8
0
62
256
6
ByLayer
370
-1
48
1
60
0
100
AcDbTrace
10
141.175
20
-37.915492
30
0
11
141.175
21
-39.307159
31
0
12
137
22
-38.611325
32
0
13
137
23
-38.611325
33
0
39
0
210
0
220
0
230
1
0
MTEXT
5
3CE
100
AcDbEntity
8
0
62
256
6
ByLayer
370
18
48
1
60
0
100
AcDbMText
10
159.350893
20
-29.217575
30
0
210
0
220
0
230
1
1
\A1;0.67
40
4.5
41
0
44
1
50
0
71
5
72
5
7
iso_b_vert
0
POINT
5
3CF
100
AcDbEntity
8
Defpoints
62
0
6
ByLayer
370
-1
48
1
60
0
100
AcDbPoint
10
136.335
20
-6.75
30
0
39
0
210
0
220
0
230
1
50
360
0
POINT
5
3D0
100
AcDbEntity
8
Defpoints
62
0
6
ByLayer
370
-1
48
1
60
0
100
AcDbPoint
10
137
20
0
30
0
39
0
210
0
220
0
230
1
50
360
0
POINT
5
3D1
100
AcDbEntity
8
Defpoints
62
0
6
ByLayer
370
-1
48
1
60
0
100
AcDbPoint
10
137
20
-38.611325
30
0
39
0
210
0
220
0
230
1
50
360
0
ENDBLK
5
3C6
100
AcDbEntity
8
0
100
AcDbBlockEnd
0
BLOCK
5
3D9
100
AcDbEntity
8
0
100
AcDbBlockBegin
2
_U4
70
0
10
0
20
0
30
0
3
_U4
0
MTEXT
5
3D3
100
AcDbEntity
8
2
62
256
6
ByLayer
370
18
48
1
60
0
100
AcDbMText
10
149.351
20
-37.283654
30
0
210
0
220
0
230
1
1
\W0.7346;0.66
40
4.5
41
0
44
1.084337
50
0
71
7
72
5
7
iso_b_vert
0
LINE
5
3D4
100
AcDbEntity
8
2
62
256
6
ByLayer
370
13
48
1
60
0
100
AcDbLine
10
136.335
20
-8.3375
30
0
11
136.335
21
-41.786325
31
0
39
0
210
0
220
0
230
1
0
LINE
5
3D5
100
AcDbEntity
8
2
62
256
6
ByLayer
370
13
48
1
60
0
100
AcDbLine
10
137
20
-1.5875
30
0
11
137
21
-41.786325
31
0
39
0
210
0
220
0
230
1
0
LINE
5
3D6
100
AcDbEntity
8
2
62
256
6
ByLayer
370
13
48
1
60
0
100
AcDbLine
10
159.673869
20
-38.611325
30
0
11
125.085
21
-38.611325
31
0
39
0
210
0
220
0
230
1
0
SOLID
5
3D7
100
AcDbEntity
8
2
62
256
6
ByLayer
370
18
48
1
60
0
100
AcDbTrace
10
136.335
20
-38.611325
30
0
11
132.160003
21
-39.536901
31
0
12
132.159997
22
-37.68575
32
0
13
132.159997
23
-37.68575
33
0
39
0
210
0
220
0
230
1
0
SOLID
5
3D8
100
AcDbEntity
8
2
62
256
6
ByLayer
370
18
48
1
60
0
100
AcDbTrace
10
137
20
-38.611325
30
0
11
141.174997
21
-37.68575
31
0
12
141.175003
22
-39.536901
32
0
13
141.175003
23
-39.536901
33
0
39
0
210
0
220
0
230
1
0
ENDBLK
5
3DA
100
AcDbEntity
8
0
100
AcDbBlockEnd
0
ENDSEC
0
SECTION
2
ENTITIES
0
ARC
5
188
100
AcDbEntity
8
SK1
62
256
6
ByLayer
370
13
48
1
60
0
100
AcDbCircle
39
0
10
-57.894505
20
-16.396
30
0
40
0.800000000000005
210
0
220
0
230
1
100
AcDbArc
50
70.982
51
141
0
ARC
5
189
100
AcDbEntity
8
SK1
62
256
6
ByLayer
370
13
48
1
60
0
100
AcDbCircle
39
0
10
-57.894505
20
16.396
30
0
40
0.800000000000005
210
0
220
0
230
1
100
AcDbArc
50
219
51
289.018
0
ARC
5
18A
100
AcDbEntity
8
SK1
62
256
6
ByLayer
370
13
48
1
60
0
100
AcDbCircle
39
0
10
-0.15
20
16.146
30
0
40
0.4
210
0
220
0
230
1
100
AcDbArc
50
270
51
292.024313
0
ARC
5
18B
100
AcDbEntity
8
SK1
62
256
6
ByLayer
370
13
48
1
60
0
100
AcDbCircle
39
0
10
-0.15
20
-16.146
30
0
40
0.4
210
0
220
0
230
1
100
AcDbArc
50
67.975687
51
90
0
ARC
5
18C
100
AcDbEntity
8
SK1
62
256
6
ByLayer
370
13
48
1
60
0
100
AcDbCircle
39
0
10
-1.375195
20
16.146
30
0
40
0.399999999999999
210
0
220
0
230
1
100
AcDbArc
50
245
51
270
0
ARC
5
18D
100
AcDbEntity
8
SK1
62
256
6
ByLayer
370
13
48
1
60
0
100
AcDbCircle
39
0
10
-1.375195
20
-16.146
30
0
40
0.399999999999999
210
0
220
0
230
1
100
AcDbArc
50
90
51
115
0
ARC
5
18E
100
AcDbEntity
8
1
62
256
6
ByLayer
370
13
48
1
60
0
100
AcDbCircle
39
0
10
134.782471
20
12.665936
30
0
40
0.075
210
0
220
0
230
1
100
AcDbArc
50
8.974534
51
93
0
ARC
5
18F
100
AcDbEntity
8
1
62
256
6
ByLayer
370
13
48
1
60
0
100
AcDbCircle
39
0
10
134.84032
20
6.28115
30
0
40
0.075
210
0
220
0
230
1
100
AcDbArc
50
273
51
352.543899
0
ARC
5
190
100
AcDbEntity
8
1
62
256
6
ByLayer
370
13
48
1
60
0
100
AcDbCircle
39
0
10
127.832227
20
12.165362
30
0
40
0.075
210
0
220
0
230
1
100
AcDbArc
50
72.361587
51
93
0
ARC
5
191
100
AcDbEntity
8
1
62
256
6
ByLayer
370
13
48
1
60
0
100
AcDbCircle
39
0
10
127.890075
20
5.780576
30
0
40
0.075
210
0
220
0
230
1
100
AcDbArc
50
273
51
304.780012
0
ELLIPSE
5
192
100
AcDbEntity
8
1
62
256
6
ByLayer
370
18
48
1
60
0
100
AcDbEllipse
10
132.00652
20
9.715534
30
0
11
-0.130868635434986
21
0.202898866257775
31
0
210
0
220
0
230
1
40
0.503053
41
1.57329528829094
42
2.92839590873278
0
ELLIPSE
5
193
100
AcDbEntity
8
1
62
256
6
ByLayer
370
18
48
1
60
0
100
AcDbEllipse
10
131.336392
20
9.223262
30
0
11
0.0541703315092572
21
-1.03363149994772
31
0
210
0
220
0
230
1
40
0.995725
41
2.61799387799152
42
-2.61799387799147
0
ELLIPSE
5
194
100
AcDbEntity
8
1
62
256
6
ByLayer
370
18
48
1
60
0
100
AcDbEllipse
10
132.054305
20
8.803735
30
0
11
-0.108943016673569
21
-0.215466862391728
31
0
210
0
220
0
230
1
40
0.503053
41
-1.57329528825347
42
-0.218194667825189
0
ELLIPSE
5
195
100
AcDbEntity
8
1
62
256
6
ByLayer
370
18
48
1
60
0
100
AcDbEllipse
10
131.336392
20
9.223262
30
0
11
0.0541703315092572
21
-1.03363149994772
31
0
210
0
220
0
230
1
40
0.995725
41
0.523598775598286
42
1.5707963267949
0
ELLIPSE
5
196
100
AcDbEntity
8
1
62
256
6
ByLayer
370
18
48
1
60
0
100
AcDbEllipse
10
131.244148
20
9.218428
30
0
11
0.0414082085794159
21
-0.790115687897819
31
0
210
0
220
0
230
1
40
0.995725
41
1.0471975511966
42
2.0943951023932
0
ELLIPSE
5
197
100
AcDbEntity
8
1
62
256
6
ByLayer
370
18
48
1
60
0
100
AcDbEllipse
10
131.336392
20
9.223262
30
0
11
0.0541703315092572
21
-1.03363149994772
31
0
210
0
220
0
230
1
40
0.995725
41
-2.61799387799147
42
-1.5707963267949
0
ELLIPSE
5
198
100
AcDbEntity
8
1
62
256
6
ByLayer
370
18
48
1
60
0
100
AcDbEllipse
10
131.291933
20
8.306629
30
0
11
-0.240336834258039
21
-0.0125955197636753
31
0
210
0
220
0
230
1
40
0.506302
41
-1.5707963267949
42
-0.215695706344757
0
ELLIPSE
5
199
100
AcDbEntity
8
1
62
256
6
ByLayer
370
18
48
1
60
0
100
AcDbEllipse
10
131.318797
20
9.22234
30
0
11
0.0902795245190752
21
-1.72263594745164
31
0
210
0
220
0
230
1
40
0.995725
41
0
42
6.28318530717959
0
ELLIPSE
5
19A
100
AcDbEntity
8
1
62
256
6
ByLayer
370
18
48
1
60
0
100
AcDbEllipse
10
131.336392
20
9.223262
30
0
11
0.0541703315092572
21
-1.03363149994772
31
0
210
0
220
0
230
1
40
0.995725
41
-1.5707963267949
42
-0.523598775598271
0
ELLIPSE
5
19B
100
AcDbEntity
8
1
62
256
6
ByLayer
370
18
48
1
60
0
100
AcDbEllipse
10
131.244148
20
9.218428
30
0
11
0.0414082085794159
21
-0.790115687897819
31
0
210
0
220
0
230
1
40
0.995725
41
2.0943951023932
42
3.14159265358979
0
ELLIPSE
5
19C
100
AcDbEntity
8
1
62
256
6
ByLayer
370
18
48
1
60
0
100
AcDbEllipse
10
131.336392
20
9.223262
30
0
11
0.0541703315092572
21
-1.03363149994772
31
0
210
0
220
0
230
1
40
0.995725
41
-0.523598775598271
42
0.523598775598286
0
ELLIPSE
5
19D
100
AcDbEntity
8
1
62
256
6
ByLayer
370
18
48
1
60
0
100
AcDbEllipse
10
131.196362
20
10.130227
30
0
11
-0.240336834257771
21
-0.0125955197628847
31
0
210
0
220
0
230
1
40
0.506302
41
0.215695706344668
42
1.5707963267949
0
ELLIPSE
5
19E
100
AcDbEntity
8
1
62
256
6
ByLayer
370
18
48
1
60
0
100
AcDbEllipse
10
131.336392
20
9.223262
30
0
11
0.0654199453036778
21
-1.24828691844322
31
0
210
0
220
0
230
1
40
0.995725
41
0
42
6.28318530717959
0
ELLIPSE
5
19F
100
AcDbEntity
8
1
62
256
6
ByLayer
370
18
48
1
60
0
100
AcDbEllipse
10
131.336392
20
9.223262
30
0
11
0.0541703315092572
21
-1.03363149994772
31
0
210
0
220
0
230
1
40
0.995725
41
1.5707963267949
42
2.61799387799152
0
ELLIPSE
5
1A0
100
AcDbEntity
8
1
62
256
6
ByLayer
370
18
48
1
60
0
100
AcDbEllipse
10
132.00652
20
9.715534
30
0
11
-0.130868635437161
21
0.202898866256656
31
0
210
0
220
0
230
1
40
0.503053
41
0.218194667828238
42
1.57329528826904
0
ELLIPSE
5
1A1
100
AcDbEntity
8
1
62
256
6
ByLayer
370
18
48
1
60
0
100
AcDbEllipse
10
132.054305
20
8.803735
30
0
11
-0.10894301666849
21
-0.215466862389154
31
0
210
0
220
0
230
1
40
0.503053
41
-2.92839590873185
42
-1.57329528828401
0
ELLIPSE
5
1A2
100
AcDbEntity
8
1
62
256
6
ByLayer
370
13
48
1
60
0
100
AcDbEllipse
10
135.385102
20
13.264421
30
0
11
-0.00653729335064154
21
0.149857478277354
31
0
210
0
220
0
230
1
40
0.092367
41
0.000809536047707403
42
1.57160586284002
0
ELLIPSE
5
1A3
100
AcDbEntity
8
1
62
256
6
ByLayer
370
13
48
1
60
0
100
AcDbEllipse
10
127.262201
20
5.230836
30
0
11
-0.00261679781214659
21
0.0499314767377297
31
0
210
0
220
0
230
1
40
0.995725
41
3.13286600732909
42
-2.088476360157
0
ELLIPSE
5
1A4
100
AcDbEntity
8
1
62
256
6
ByLayer
370
13
48
1
60
0
100
AcDbEllipse
10
135.552261
20
11.519927
30
0
11
-0.0915879234251291
21
1.74760168582051
31
0
210
0
220
0
230
1
40
0.995725
41
-0.0356924391917293
42
-0.008726646259956
0
ELLIPSE
5
1A5
100
AcDbEntity
8
1
62
256
6
ByLayer
370
13
48
1
60
0
100
AcDbEllipse
10
135.827088
20
13.27033
30
0
11
0.00254430870317409
21
0.149978420091768
31
0
210
0
220
0
230
1
40
0.092151
41
0.00639829920945343
42
1.5771946260066
0
ELLIPSE
5
1A6
100
AcDbEntity
8
1
62
256
6
ByLayer
370
13
48
1
60
0
100
AcDbEllipse
10
136.293992
20
6.453077
30
0
11
-0.0435995590969952
21
-0.257560367417412
31
0
210
0
220
0
230
1
40
0.953152
41
0.302534642224915
42
1.61019614909273
0
ELLIPSE
5
1A7
100
AcDbEntity
8
1
62
256
6
ByLayer
370
13
48
1
60
0
100
AcDbEllipse
10
134.649175
20
9.564548
30
0
11
-0.0327099726518318
21
0.62414345922161
31
0
210
0
220
0
230
1
40
0.995725
41
-1.75405589825431
42
-1.46607657167523
0
ELLIPSE
5
1A8
100
AcDbEntity
8
1
62
256
6
ByLayer
370
13
48
1
60
0
100
AcDbEllipse
10
135.536665
20
13.270395
30
0
11
-0.00247703513348025
21
0.149979546261974
31
0
210
0
220
0
230
1
40
0.092312
41
0.00331037239983202
42
1.5741066991944
0
ELLIPSE
5
1A9
100
AcDbEntity
8
1
62
256
6
ByLayer
370
13
48
1
60
0
100
AcDbEllipse
10
128.011841
20
8.881361
30
0
11
0.0444855628065009
21
-0.848835104541388
31
0
210
0
220
0
230
1
40
0.995725
41
-1.7540558982543
42
-1.46607657167525
0
ELLIPSE
5
1AA
100
AcDbEntity
8
1
62
256
6
ByLayer
370
13
48
1
60
0
100
AcDbEllipse
10
127.595363
20
13.648538
30
0
11
-1.7234525684419
21
1.06098377616229
31
0
210
0
220
0
230
1
40
0.479615
41
1.48125045273457
42
1.5293412548869
0
ELLIPSE
5
1AB
100
AcDbEntity
8
1
62
256
6
ByLayer
370
13
48
1
60
0
100
AcDbEllipse
10
134.362012
20
4.760495
30
0
11
-0.0732703387401034
21
1.39808134865641
31
0
210
0
220
0
230
1
40
0.995725
41
-0.538500757696163
42
3.255769647147E-13
0
ELLIPSE
5
1AC
100
AcDbEntity
8
1
62
256
6
ByLayer
370
13
48
1
60
0
100
AcDbEllipse
10
136.288059
20
6.442451
30
0
11
-0.0222321776353341
21
0.14834328524605
31
0
210
0
220
0
230
1
40
0.091945
41
1.56190521945488
42
3.1327015462504
0
ELLIPSE
5
1AD
100
AcDbEntity
8
1
62
256
6
ByLayer
370
13
48
1
60
0
100
AcDbEllipse
10
135.57071
20
11.520894
30
0
11
0.0994383168615901
21
-1.89739611603369
31
0
210
0
220
0
230
1
40
0.995725
41
3.10590021439836
42
3.13286600733016
0
ELLIPSE
5
1AE
100
AcDbEntity
8
1
62
256
6
ByLayer
370
13
48
1
60
0
100
AcDbEllipse
10
136.292672
20
6.442693
30
0
11
0.00785039343644127
21
-0.149794430213185
31
0
210
0
220
0
230
1
40
0.995725
41
0.0959931088599015
42
1.38753675533586
0
ELLIPSE
5
1AF
100
AcDbEntity
8
1
62
256
6
ByLayer
370
13
48
1
60
0
100
AcDbEllipse
10
136.165562
20
12.975059
30
0
11
0.148163665863162
21
0.0233993187505386
31
0
210
0
220
0
230
1
40
0.009655
41
0.0919985744735827
42
1.66279490126875
0
ELLIPSE
5
1B0
100
AcDbEntity
8
1
62
256
6
ByLayer
370
13
48
1
60
0
100
AcDbEllipse
10
135.688443
20
4.521922
30
0
11
0.465790010562185
21
-8.88780285931571
31
0
210
0
220
0
230
1
40
0.995725
41
3.07256533766223
42
3.10590021439836
0
ELLIPSE
5
1B1
100
AcDbEntity
8
1
62
256
6
ByLayer
370
13
48
1
60
0
100
AcDbEllipse
10
133.71983
20
13.969507
30
0
11
0.0732703387401194
21
-1.39808134865641
31
0
210
0
220
0
230
1
40
0.995725
41
1.00502546446208
42
1.00572917046054
0
ELLIPSE
5
1B2
100
AcDbEntity
8
1
62
256
6
ByLayer
370
13
48
1
60
0
100
AcDbEllipse
10
128.037208
20
8.88269
30
0
11
-0.0327099726518318
21
0.62414345922161
31
0
210
0
220
0
230
1
40
0.995725
41
1.38753675533553
42
1.67551608191456
0
ELLIPSE
5
1B3
100
AcDbEntity
8
1
62
256
6
ByLayer
370
13
48
1
60
0
100
AcDbEllipse
10
135.669994
20
4.520956
30
0
11
-0.457939617125644
21
8.73800842910253
31
0
210
0
220
0
230
1
40
0.995725
41
-0.0690273159278816
42
-0.0356924391917564
0
ELLIPSE
5
1B4
100
AcDbEntity
8
1
62
256
6
ByLayer
370
13
48
1
60
0
100
AcDbEllipse
10
134.84032
20
6.28115
30
0
11
0.0227256651739998
21
0.0714740802137338
31
0
210
0
220
0
230
1
40
0.086488
41
-3.1090291182927
42
-1.53823279150072
0
ELLIPSE
5
1B5
100
AcDbEntity
8
1
62
256
6
ByLayer
370
13
48
1
60
0
100
AcDbEllipse
10
135.566098
20
11.520653
30
0
11
0.0994383168615901
21
-1.89739611603369
31
0
210
0
220
0
230
1
40
0.995725
41
3.10590021439805
42
3.13286600732983
0
ELLIPSE
5
1B6
100
AcDbEntity
8
1
62
256
6
ByLayer
370
13
48
1
60
0
100
AcDbEllipse
10
136.347946
20
9.586044
30
0
11
0.0261679781214702
21
-0.49931476737727
31
0
210
0
220
0
230
1
40
0.995725
41
1.38753675533547
42
1.67551608191453
0
ELLIPSE
5
1B7
100
AcDbEntity
8
1
62
256
6
ByLayer
370
13
48
1
60
0
100
AcDbEllipse
10
127.832227
20
12.165362
30
0
11
0.0743658432123938
21
-0.00973249008782803
31
0
210
0
220
0
230
1
40
0.016833
41
1.47983423648605
42
3.05063056328133
0
ELLIPSE
5
1B8
100
AcDbEntity
8
1
62
256
6
ByLayer
370
13
48
1
60
0
100
AcDbEllipse
10
134.623808
20
9.563218
30
0
11
0.0444855628065009
21
-0.848835104541388
31
0
210
0
220
0
230
1
40
0.995725
41
1.38753675533548
42
1.67551608191454
0
ELLIPSE
5
1B9
100
AcDbEntity
8
1
62
256
6
ByLayer
370
13
48
1
60
0
100
AcDbEllipse
10
126.846577
20
5.525887
30
0
11
0.0261679781214717
21
-0.499314767377299
31
0
210
0
220
0
230
1
40
0.995725
41
-1.46607657167564
42
-0.0690273159282364
0
ELLIPSE
5
1BA
100
AcDbEntity
8
1
62
256
6
ByLayer
370
13
48
1
60
0
100
AcDbEllipse
10
134.940235
20
12.784064
30
0
11
0.00523359562429421
21
-0.0998629534754572
31
0
210
0
220
0
230
1
40
0.995725
41
-2.46515190128371
42
-1.46607657167503
0
ELLIPSE
5
1BB
100
AcDbEntity
8
1
62
256
6
ByLayer
370
13
48
1
60
0
100
AcDbEllipse
10
134.782471
20
12.665936
30
0
11
-0.0427820306099735
21
0.0616011189580781
31
0
210
0
220
0
230
1
40
0.078615
41
-1.61946336257609
42
-0.048667035783769
0
ELLIPSE
5
1BC
100
AcDbEntity
8
1
62
256
6
ByLayer
370
13
48
1
60
0
100
AcDbEllipse
10
126.30154
20
8.85926
30
0
11
-0.0183175846850249
21
0.349520337164084
31
0
210
0
220
0
230
1
40
0.995725
41
1.38753675533551
42
1.67551608191456
0
ELLIPSE
5
1BD
100
AcDbEntity
8
1
62
256
6
ByLayer
370
13
48
1
60
0
100
AcDbEllipse
10
128.025677
20
8.882086
30
0
11
-0.0366351693700516
21
0.699040674328203
31
0
210
0
220
0
230
1
40
0.995725
41
1.38753675533548
42
1.67551608191453
0
ELLIPSE
5
1BE
100
AcDbEntity
8
1
62
256
6
ByLayer
370
13
48
1
60
0
100
AcDbEllipse
10
133.878951
20
13.977846
30
0
11
-0.0785039343643966
21
1.49794430213187
31
0
210
0
220
0
230
1
40
0.995725
41
-2.46515190128415
42
-2.08847636015685
0
ELLIPSE
5
1BF
100
AcDbEntity
8
1
62
256
6
ByLayer
370
13
48
1
60
0
100
AcDbEllipse
10
126.772562
20
12.741762
30
0
11
-0.422044512749895
21
0.259817086969438
31
0
210
0
220
0
230
1
40
0.479615
41
-1.66034215711878
42
-0.958391421166936
0
ELLIPSE
5
1C0
100
AcDbEntity
8
1
62
256
6
ByLayer
370
13
48
1
60
0
100
AcDbEllipse
10
127.604605
20
12.18782
30
0
11
-0.157303252988025
21
-0.0460731444183184
31
0
210
0
220
0
230
1
40
0.019548
41
-3.05924451050123
42
-1.48844818370253
0
ELLIPSE
5
1C1
100
AcDbEntity
8
1
62
256
6
ByLayer
370
13
48
1
60
0
100
AcDbEllipse
10
135.82597
20
12.920626
30
0
11
0.0261679781214717
21
-0.499314767377299
31
0
210
0
220
0
230
1
40
0.995725
41
1.67551608191481
42
3.07256533766216
0
ELLIPSE
5
1C2
100
AcDbEntity
8
1
62
256
6
ByLayer
370
13
48
1
60
0
100
AcDbEllipse
10
126.319988
20
8.860227
30
0
11
0.0261679781214702
21
-0.49931476737727
31
0
210
0
220
0
230
1
40
0.995725
41
-1.75405589825461
42
-1.46607657167555
0
ELLIPSE
5
1C3
100
AcDbEntity
8
1
62
256
6
ByLayer
370
13
48
1
60
0
100
AcDbEllipse
10
127.604605
20
12.18782
30
0
11
-0.043585206516655
21
-0.158111345863747
31
0
210
0
220
0
230
1
40
0.080185
41
-3.11490714533111
42
-1.54411081853732
0
ELLIPSE
5
1C4
100
AcDbEntity
8
1
62
256
6
ByLayer
370
13
48
1
60
0
100
AcDbEllipse
10
127.947819
20
13.667008
30
0
11
-1.35879251419911
21
0.956161859106796
31
0
210
0
220
0
230
1
40
0.728886
41
1.38754242661522
42
1.85477083936121
0
ELLIPSE
5
1C5
100
AcDbEntity
8
1
62
256
6
ByLayer
370
13
48
1
60
0
100
AcDbEllipse
10
136.692151
20
9.640718
30
0
11
0.148163665863162
21
0.0233993187505386
31
0
210
0
220
0
230
1
40
0.009655
41
0.0919985744760602
42
1.66279490126838
0
ELLIPSE
5
1C6
100
AcDbEntity
8
1
62
256
6
ByLayer
370
13
48
1
60
0
100
AcDbEllipse
10
135.188959
20
13.182847
30
0
11
-0.392574227910747
21
-0.30250944612043
31
0
210
0
220
0
230
1
40
0.479615
41
-2.18320123242396
42
-1.48125049645545
0
ELLIPSE
5
1C7
100
AcDbEntity
8
1
62
256
6
ByLayer
370
13
48
1
60
0
100
AcDbEllipse
10
136.288059
20
6.442451
30
0
11
0.00785039343644127
21
-0.149794430213185
31
0
210
0
220
0
230
1
40
0.995725
41
0.0959931088593451
42
1.38753675533548
0
ELLIPSE
5
1C8
100
AcDbEntity
8
1
62
256
6
ByLayer
370
13
48
1
60
0
100
AcDbEllipse
10
127.320536
20
5.209116
30
0
11
-0.134175336908002
21
0.0670595180837449
31
0
210
0
220
0
230
1
40
0.045711
41
1.49035839035119
42
3.06115471714428
0
ELLIPSE
5
1C9
100
AcDbEntity
8
1
62
256
6
ByLayer
370
13
48
1
60
0
100
AcDbEllipse
10
135.489699
20
13.268984
30
0
11
-0.00653729335064154
21
0.149857478277354
31
0
210
0
220
0
230
1
40
0.092367
41
0.000809536043604682
42
1.57160586284002
0
ELLIPSE
5
1CA
100
AcDbEntity
8
1
62
256
6
ByLayer
370
13
48
1
60
0
100
AcDbEllipse
10
135.391897
20
13.21471
30
0
11
0.0104671912485885
21
-0.199725906950916
31
0
210
0
220
0
230
1
40
0.995725
41
3.13286600732952
42
-2.08847636015683
0
ELLIPSE
5
1CB
100
AcDbEntity
8
1
62
256
6
ByLayer
370
13
48
1
60
0
100
AcDbEllipse
10
135.821357
20
12.920384
30
0
11
0.0261679781214717
21
-0.499314767377299
31
0
210
0
220
0
230
1
40
0.995725
41
1.67551608191447
42
3.07256533766193
0
ELLIPSE
5
1CC
100
AcDbEntity
8
1
62
256
6
ByLayer
370
13
48
1
60
0
100
AcDbEllipse
10
136.334109
20
9.585319
30
0
11
-0.0183175846850249
21
0.349520337164084
31
0
210
0
220
0
230
1
40
0.995725
41
-1.75405589825432
42
-1.46607657167523
0
ELLIPSE
5
1CD
100
AcDbEntity
8
1
62
256
6
ByLayer
370
13
48
1
60
0
100
AcDbEllipse
10
133.560709
20
13.961167
30
0
11
0.0732703387401194
21
-1.39808134865641
31
0
210
0
220
0
230
1
40
0.995725
41
0
42
0.538500757696779
0
ELLIPSE
5
1CE
100
AcDbEntity
8
1
62
256
6
ByLayer
370
13
48
1
60
0
100
AcDbEllipse
10
136.288059
20
6.442451
30
0
11
0.148731686424788
21
-0.0194649801756561
31
0
210
0
220
0
230
1
40
0.016833
41
-1.66175841710567
42
-0.0909620903109282
0
ELLIPSE
5
1CF
100
AcDbEntity
8
1
62
256
6
ByLayer
370
13
48
1
60
0
100
AcDbEllipse
10
133.999296
20
4.741486
30
0
11
-1.11484466978387
21
-1.17454029851537
31
0
210
0
220
0
230
1
40
0.721129
41
2.78578457530721
42
-3.03017231910466
0
ELLIPSE
5
1D0
100
AcDbEntity
8
1
62
256
6
ByLayer
370
13
48
1
60
0
100
AcDbEllipse
10
128.793595
20
4.468667
30
0
11
-0.0785039343643966
21
1.49794430213187
31
0
210
0
220
0
230
1
40
0.995725
41
0.676440752305037
42
1.05311629343231
0
ELLIPSE
5
1D1
100
AcDbEntity
8
1
62
256
6
ByLayer
370
13
48
1
60
0
100
AcDbEllipse
10
131.494328
20
6.207395
30
0
11
0.00392519671822066
21
-0.074897215106593
31
0
210
0
220
0
230
1
40
0.092371
41
0
42
1.5707963267949
0
ELLIPSE
5
1D2
100
AcDbEntity
8
1
62
256
6
ByLayer
370
13
48
1
60
0
100
AcDbEllipse
10
127.101837
20
6.925618
30
0
11
0.0994383168615901
21
-1.89739611603369
31
0
210
0
220
0
230
1
40
0.995725
41
-0.0356924391920553
42
-0.00872664626026757
0
ELLIPSE
5
1D3
100
AcDbEntity
8
1
62
256
6
ByLayer
370
13
48
1
60
0
100
AcDbEllipse
10
136.352558
20
9.586286
30
0
11
0.0261679781214702
21
-0.49931476737727
31
0
210
0
220
0
230
1
40
0.995725
41
1.38753675533582
42
1.67551608191488
0
ELLIPSE
5
1D4
100
AcDbEntity
8
1
62
256
6
ByLayer
370
13
48
1
60
0
100
AcDbEllipse
10
135.43002
20
13.195481
30
0
11
0.0179426826979034
21
-0.342366781103242
31
0
210
0
220
0
230
1
40
0.995725
41
-2.79042709610983
42
-2.08847636015652
0
ELLIPSE
5
1D5
100
AcDbEntity
8
1
62
256
6
ByLayer
370
13
48
1
60
0
100
AcDbEllipse
10
128.03029
20
8.882328
30
0
11
0.0366351693700595
21
-0.699040674328202
31
0
210
0
220
0
230
1
40
0.995725
41
-1.75405589825429
42
-1.46607657167524
0
ELLIPSE
5
1D6
100
AcDbEntity
8
1
62
256
6
ByLayer
370
13
48
1
60
0
100
AcDbEllipse
10
128.775147
20
4.4677
30
0
11
0.0863543278008547
21
-1.64773873234505
31
0
210
0
220
0
230
1
40
0.995725
41
-2.44852577650097
42
-2.08847636015717
0
ELLIPSE
5
1D7
100
AcDbEntity
8
1
62
256
6
ByLayer
370
13
48
1
60
0
100
AcDbEllipse
10
136.693482
20
9.540283
30
0
11
0.148731686424788
21
-0.0194649801756561
31
0
210
0
220
0
230
1
40
0.016833
41
-1.66175841710551
42
-0.0909620903126969
0
ELLIPSE
5
1D8
100
AcDbEntity
8
1
62
256
6
ByLayer
370
13
48
1
60
0
100
AcDbEllipse
10
127.415638
20
8.784695
30
0
11
-0.074081832931581
21
-0.0116996593752688
31
0
210
0
220
0
230
1
40
0.009655
41
0.0919985744711225
42
1.66279490126845
0
ELLIPSE
5
1D9
100
AcDbEntity
8
1
62
256
6
ByLayer
370
13
48
1
60
0
100
AcDbEllipse
10
127.667188
20
12.247306
30
0
11
0.00523359562429507
21
-0.0998629534754736
31
0
210
0
220
0
230
1
40
0.995725
41
1.3875367553358
42
-3.04559954473078
0
ELLIPSE
5
1DA
100
AcDbEntity
8
1
62
256
6
ByLayer
370
13
48
1
60
0
100
AcDbEllipse
10
126.965655
20
13.923623
30
0
11
-0.457939617125644
21
8.73800842910253
31
0
210
0
220
0
230
1
40
0.995725
41
3.07256533766191
42
3.10590021439803
0
ELLIPSE
5
1DB
100
AcDbEntity
8
1
62
256
6
ByLayer
370
13
48
1
60
0
100
AcDbEllipse
10
127.727699
20
5.662207
30
0
11
0.00523359562429421
21
-0.0998629534754572
31
0
210
0
220
0
230
1
40
0.995725
41
0.676440752306769
42
1.67551608191562
0
ELLIPSE
5
1DC
100
AcDbEntity
8
1
62
256
6
ByLayer
370
13
48
1
60
0
100
AcDbEllipse
10
126.984103
20
13.92459
30
0
11
0.465790010562185
21
-8.88780285931571
31
0
210
0
220
0
230
1
40
0.995725
41
-0.069027315928208
42
-0.0356924391920864
0
ELLIPSE
5
1DD
100
AcDbEntity
8
1
62
256
6
ByLayer
370
13
48
1
60
0
100
AcDbEllipse
10
135.005358
20
6.199207
30
0
11
0.00523359562429507
21
-0.0998629534754736
31
0
210
0
220
0
230
1
40
0.995725
41
-1.75405589825342
42
0.0959931088599163
0
ELLIPSE
5
1DE
100
AcDbEntity
8
1
62
256
6
ByLayer
370
13
48
1
60
0
100
AcDbEllipse
10
127.890075
20
5.780576
30
0
11
0.074081832931581
21
0.0116996593752693
31
0
210
0
220
0
230
1
40
0.009655
41
-3.04959407911989
42
-1.47879775232047
0
ELLIPSE
5
1DF
100
AcDbEntity
8
1
62
256
6
ByLayer
370
13
48
1
60
0
100
AcDbEllipse
10
127.186517
20
8.99322
30
0
11
-0.148731686424787
21
0.0194649801756605
31
0
210
0
220
0
230
1
40
0.016833
41
1.47983423648428
42
3.05063056327992
0
ELLIPSE
5
1E0
100
AcDbEntity
8
1
62
256
6
ByLayer
370
13
48
1
60
0
100
AcDbEllipse
10
134.642257
20
9.564185
30
0
11
0.0366351693700595
21
-0.699040674328202
31
0
210
0
220
0
230
1
40
0.995725
41
1.38753675533548
42
1.67551608191455
0
ELLIPSE
5
1E1
100
AcDbEntity
8
1
62
256
6
ByLayer
370
13
48
1
60
0
100
AcDbEllipse
10
131.343192
20
9.223619
30
0
11
0.100225027559621
21
-1.91240745039652
31
0
210
0
220
0
230
1
40
0.995725
41
0
42
6.28318530717959
0
ELLIPSE
5
1E2
100
AcDbEntity
8
1
62
256
6
ByLayer
370
13
48
1
60
0
100
AcDbEllipse
10
126.378554
20
11.993435
30
0
11
-0.0435995590922259
21
-0.257560367418738
31
0
210
0
220
0
230
1
40
0.953152
41
-2.83905801138201
42
-1.53139650451668
0
ELLIPSE
5
1E3
100
AcDbEntity
8
1
62
256
6
ByLayer
370
13
48
1
60
0
100
AcDbEllipse
10
131.178219
20
12.239117
30
0
11
0.00392519671822066
21
-0.074897215106593
31
0
210
0
220
0
230
1
40
0.092371
41
1.5707963267949
42
3.14159265358979
0
ELLIPSE
5
1E4
100
AcDbEntity
8
1
62
256
6
ByLayer
370
13
48
1
60
0
100
AcDbEllipse
10
127.832227
20
12.165362
30
0
11
-0.0227256651740031
21
-0.0714740802137328
31
0
210
0
220
0
230
1
40
0.086488
41
1.6033598620887
42
-3.10902911829708
0
ELLIPSE
5
1E5
100
AcDbEntity
8
1
62
256
6
ByLayer
370
13
48
1
60
0
100
AcDbEllipse
10
128.310535
20
13.686017
30
0
11
-0.0732703387401034
21
1.39808134865641
31
0
210
0
220
0
230
1
40
0.995725
41
2.60309189589298
42
3.14159265358945
0
ELLIPSE
5
1E6
100
AcDbEntity
8
1
62
256
6
ByLayer
370
13
48
1
60
0
100
AcDbEllipse
10
126.379875
20
12.00382
30
0
11
0.00785039343644127
21
-0.149794430213185
31
0
210
0
220
0
230
1
40
0.995725
41
-3.04559954473074
42
-1.7540558982547
0
ELLIPSE
5
1E7
100
AcDbEntity
8
1
62
256
6
ByLayer
370
13
48
1
60
0
100
AcDbEllipse
10
127.242527
20
5.251032
30
0
11
0.0179426826979034
21
-0.342366781103242
31
0
210
0
220
0
230
1
40
0.995725
41
0.351165557479346
42
1.05311629343265
0
ELLIPSE
5
1E8
100
AcDbEntity
8
1
62
256
6
ByLayer
370
13
48
1
60
0
100
AcDbEllipse
10
134.275883
20
13.998647
30
0
11
-1.60310590082757
21
-1.23531988050304
31
0
210
0
220
0
230
1
40
0.479614
41
1.61225121742651
42
1.6603420873547
0
ELLIPSE
5
1E9
100
AcDbEntity
8
1
62
256
6
ByLayer
370
13
48
1
60
0
100
AcDbEllipse
10
127.41326
20
8.964044
30
0
11
-0.0743658432123935
21
0.00973249008783023
31
0
210
0
220
0
230
1
40
0.016833
41
-1.66175841710488
42
-0.0909620903112785
0
ELLIPSE
5
1EA
100
AcDbEntity
8
1
62
256
6
ByLayer
370
13
48
1
60
0
100
AcDbEllipse
10
126.828128
20
5.52492
30
0
11
-0.0183175846850264
21
0.349520337164114
31
0
210
0
220
0
230
1
40
0.995725
41
1.67551608191447
42
3.07256533766197
0
ELLIPSE
5
1EB
100
AcDbEntity
8
1
62
256
6
ByLayer
370
13
48
1
60
0
100
AcDbEllipse
10
128.788983
20
4.468425
30
0
11
-0.0785039343643966
21
1.49794430213187
31
0
210
0
220
0
230
1
40
0.995725
41
0.676440752305343
42
1.05311629343262
0
ELLIPSE
5
1EC
100
AcDbEntity
8
1
62
256
6
ByLayer
370
13
48
1
60
0
100
AcDbEllipse
10
135.683831
20
4.521681
30
0
11
0.465790010562185
21
-8.88780285931571
31
0
210
0
220
0
230
1
40
0.995725
41
3.07256533766191
42
3.10590021439804
0
ELLIPSE
5
1ED
100
AcDbEntity
8
1
62
256
6
ByLayer
370
13
48
1
60
0
100
AcDbEllipse
10
133.923425
20
13.980177
30
0
11
-1.25140277684071
21
-1.092956397767
31
0
210
0
220
0
230
1
40
0.728886
41
1.28682181423177
42
1.75405022699051
0
ELLIPSE
5
1EE
100
AcDbEntity
8
1
62
256
6
ByLayer
370
13
48
1
60
0
100
AcDbEllipse
10
135.807521
20
12.919659
30
0
11
-0.0183175846850264
21
0.349520337164114
31
0
210
0
220
0
230
1
40
0.995725
41
-1.46607657167532
42
-0.0690273159279406
0
ELLIPSE
5
1EF
100
AcDbEntity
8
1
62
256
6
ByLayer
370
13
48
1
60
0
100
AcDbEllipse
10
133.878951
20
13.977846
30
0
11
-0.0732703387401034
21
1.39808134865641
31
0
210
0
220
0
230
1
40
0.995725
41
-3.14159265358947
42
-2.08847636015688
0
ELLIPSE
5
1F0
100
AcDbEntity
8
1
62
256
6
ByLayer
370
13
48
1
60
0
100
AcDbEllipse
10
127.189751
20
8.749306
30
0
11
-0.148163665863162
21
-0.0233993187505375
31
0
210
0
220
0
230
1
40
0.009655
41
-3.04959407911743
42
-1.47879775232085
0
ELLIPSE
5
1F1
100
AcDbEntity
8
1
62
256
6
ByLayer
370
13
48
1
60
0
100
AcDbEllipse
10
127.732311
20
5.662449
30
0
11
0.00523359562429421
21
-0.0998629534754572
31
0
210
0
220
0
230
1
40
0.995725
41
0.676440752305601
42
1.67551608191419
0
ELLIPSE
5
1F2
100
AcDbEntity
8
1
62
256
6
ByLayer
370
13
48
1
60
0
100
AcDbEllipse
10
133.860502
20
13.976879
30
0
11
0.0863543278008547
21
-1.64773873234505
31
0
210
0
220
0
230
1
40
0.995725
41
0.69306687708887
42
1.05311629343263
0
ELLIPSE
5
1F3
100
AcDbEntity
8
1
62
256
6
ByLayer
370
13
48
1
60
0
100
AcDbEllipse
10
127.083388
20
6.924651
30
0
11
-0.0915879234251291
21
1.74760168582051
31
0
210
0
220
0
230
1
40
0.995725
41
3.10590021439806
42
3.13286600732984
0
ELLIPSE
5
1F4
100
AcDbEntity
8
1
62
256
6
ByLayer
370
13
48
1
60
0
100
AcDbEllipse
10
128.793595
20
4.468667
30
0
11
-0.0732703387401034
21
1.39808134865641
31
0
210
0
220
0
230
1
40
0.995725
41
0
42
1.05311629343225
0
ELLIPSE
5
1F5
100
AcDbEntity
8
1
62
256
6
ByLayer
370
13
48
1
60
0
100
AcDbEllipse
10
135.373448
20
13.213743
30
0
11
-0.00261679781214659
21
0.0499314767377297
31
0
210
0
220
0
230
1
40
0.995725
41
-0.00872664626041112
42
1.05311629343314
0
ELLIPSE
5
1F6
100
AcDbEntity
8
1
62
256
6
ByLayer
370
13
48
1
60
0
100
AcDbEllipse
10
135.058717
20
6.25821
30
0
11
-0.0435852065163462
21
-0.158111345862887
31
0
210
0
220
0
230
1
40
0.080185
41
-1.54411081854324
42
0.0266855082577534
0
ELLIPSE
5
1F7
100
AcDbEntity
8
1
62
256
6
ByLayer
370
13
48
1
60
0
100
AcDbEllipse
10
127.28065
20
5.231803
30
0
11
0.0104671912485885
21
-0.199725906950916
31
0
210
0
220
0
230
1
40
0.995725
41
-0.00872664626084112
42
1.05311629343231
0
ELLIPSE
5
1F8
100
AcDbEntity
8
1
62
256
6
ByLayer
370
13
48
1
60
0
100
AcDbEllipse
10
127.017792
20
6.178071
30
0
11
-1.01885656880118
21
-1.26453320012837
31
0
210
0
220
0
230
1
40
0.966608
41
1.64275761458795
42
1.84161820199883
0
ELLIPSE
5
1F9
100
AcDbEntity
8
1
62
256
6
ByLayer
370
13
48
1
60
0
100
AcDbEllipse
10
139.805062
20
0.410908
30
0
11
-4.02198705054634
21
-0.0190746003848496
31
0
210
0
220
0
230
1
40
0.989944
41
0.0195451794056192
42
0.151536059915926
0
ELLIPSE
5
1FA
100
AcDbEntity
8
1
62
256
6
ByLayer
370
13
48
1
60
0
100
AcDbEllipse
10
129.279443
20
5.395364
30
0
11
-3.96879668437436
21
-0.704906654481455
31
0
210
0
220
0
230
1
40
0.015321
41
-3.01817314125658
42
-2.81830214119674
0
ELLIPSE
5
1FB
100
AcDbEntity
8
1
62
256
6
ByLayer
370
13
48
1
60
0
100
AcDbEllipse
10
126.608044
20
6.156597
30
0
11
-1.41137568375639
21
1.13717012648339
31
0
210
0
220
0
230
1
40
0.775936
41
3.10057582079999
42
-2.86962746626209
0
ELLIPSE
5
1FC
100
AcDbEntity
8
1
62
256
6
ByLayer
370
13
48
1
60
0
100
AcDbEllipse
10
139.358778
20
0
30
0
11
-25.9755975140176
21
10.6388541619684
31
0
210
0
220
0
230
1
40
0.289452
41
0.783013282809958
42
0.852897485989599
0
ELLIPSE
5
1FD
100
AcDbEntity
8
1
62
256
6
ByLayer
370
13
48
1
60
0
100
AcDbEllipse
10
122
20
3.534438
30
0
11
-2
21
2.02127811016473E-15
31
0
210
0
220
0
230
1
40
0.75483
41
-3.03671425602929
42
-1.69088752218515
0
ELLIPSE
5
1FE
100
AcDbEntity
8
1
62
256
6
ByLayer
370
13
48
1
60
0
100
AcDbEllipse
10
133.147374
20
5.598074
30
0
11
-0.318392673998258
21
-0.395166628178246
31
0
210
0
220
0
230
1
40
0.966608
41
-2.22744988990052
42
-1.98788378919352
0
ELLIPSE
5
1FF
100
AcDbEntity
8
1
62
256
6
ByLayer
370
13
48
1
60
0
100
AcDbEllipse
10
127.129482
20
6.183925
30
0
11
0.0837375299887076
21
-1.59780725560732
31
0
210
0
220
0
230
1
40
0.995725
41
-2.00229017063665
42
-1.25237984428104
0
ELLIPSE
5
200
100
AcDbEntity
8
1
62
256
6
ByLayer
370
13
48
1
60
0
100
AcDbEllipse
10
132.222344
20
7.452202
30
0
11
-1.0188565654595
21
-1.26453320169874
31
0
210
0
220
0
230
1
40
0.966608
41
0.71373291710838
42
1.15370887190943
0
ELLIPSE
5
201
100
AcDbEntity
8
1
62
256
6
ByLayer
370
13
48
1
60
0
100
AcDbEllipse
10
126.756281
20
12.514351
30
0
11
-0.366351693700515
21
6.99040674328202
31
0
210
0
220
0
230
1
40
0.995725
41
2.82253251498864
42
2.92884667747943
0
ELLIPSE
5
202
100
AcDbEntity
8
1
62
256
6
ByLayer
370
13
48
1
60
0
100
AcDbEllipse
10
135.879134
20
-6.929001
30
0
11
-0.0645822969846035
21
-0.516093807643105
31
0
210
0
220
0
230
1
40
0.111912
41
-1.6333411511139
42
-0.0625448243211454
0
ELLIPSE
5
203
100
AcDbEntity
8
1
62
256
6
ByLayer
370
13
48
1
60
0
100
AcDbEllipse
10
122
20
1.579673
30
0
11
-0.295645946990697
21
8.55663190149281
31
0
210
0
220
0
230
1
40
0.348899
41
-0.53841456164007
42
-0.418797970428629
0
ELLIPSE
5
204
100
AcDbEntity
8
1
62
256
6
ByLayer
370
13
48
1
60
0
100
AcDbEllipse
10
128.921343
20
5.376597
30
0
11
-0.318392676615515
21
-0.39516662561685
31
0
210
0
220
0
230
1
40
0.966608
41
-2.22744988277122
42
-1.29997445399511
0
ELLIPSE
5
205
100
AcDbEntity
8
1
62
256
6
ByLayer
370
13
48
1
60
0
100
AcDbEllipse
10
243.76166
20
-0.043705
30
0
11
-200.066300740251
21
0.0905731749049079
31
0
210
0
220
0
230
1
40
0.080974
41
-0.931466018049367
42
-0.9126482919612
0
ELLIPSE
5
206
100
AcDbEntity
8
1
62
256
6
ByLayer
370
13
48
1
60
0
100
AcDbEllipse
10
450.296704
20
0
30
0
11
-466.251176226014
21
9.34694625294438
31
0
210
0
220
0
230
1
40
0.019877
41
0.797224360743815
42
0.828505593543369
0
ELLIPSE
5
207
100
AcDbEntity
8
1
62
256
6
ByLayer
370
13
48
1
60
0
100
AcDbEllipse
10
132.247692
20
-3.271879
30
0
11
-4.02198712021198
21
-0.0190748754288177
31
0
210
0
220
0
230
1
40
0.989944
41
3.00670530025519
42
-2.99005666262765
0
ELLIPSE
5
208
100
AcDbEntity
8
1
62
256
6
ByLayer
370
13
48
1
60
0
100
AcDbEllipse
10
128.944454
20
5.842291
30
0
11
0.301478001314471
21
-0.953473132669941
31
0
210
0
220
0
230
1
40
0.089434
41
-1.42395316306662
42
-0.0232022394726368
0
ELLIPSE
5
209
100
AcDbEntity
8
1
62
256
6
ByLayer
370
13
48
1
60
0
100
AcDbEllipse
10
138.938158
20
1.193948
30
0
11
-3.86649451170475
21
-1.38441186045233
31
0
210
0
220
0
230
1
40
0.877561
41
-0.382459420290385
42
-0.23490735106675
0
ELLIPSE
5
20A
100
AcDbEntity
8
1
62
256
6
ByLayer
370
13
48
1
60
0
100
AcDbEllipse
10
126.606216
20
0
30
0
11
-0.695796836166553
21
13.1623421663565
31
0
210
0
220
0
230
1
40
0.092638
41
-0.144718817589137
42
-0.0122236689672873
0
ELLIPSE
5
20B
100
AcDbEntity
8
1
62
256
6
ByLayer
370
13
48
1
60
0
100
AcDbEllipse
10
135.782194
20
6.487188
30
0
11
-0.0180620770120083
21
1.00041923104992
31
0
210
0
220
0
230
1
40
0.105166
41
-3.13798329954497
42
-2.82042287042168
0
ELLIPSE
5
20C
100
AcDbEntity
8
1
62
256
6
ByLayer
370
13
48
1
60
0
100
AcDbEllipse
10
136.243116
20
-1.092031
30
0
11
-1.35268628117371
21
2.07728938691194
31
0
210
0
220
0
230
1
40
0.411373
41
-0.914223103741023
42
-0.747189396033148
0
ELLIPSE
5
20D
100
AcDbEntity
8
1
62
256
6
ByLayer
370
13
48
1
60
0
100
AcDbEllipse
10
146.578189
20
-3.3E-05
30
0
11
-142.084020920021
21
0.0644622649703193
31
0
210
0
220
0
230
1
40
0.092638
41
-1.42607730797448
42
-1.41399535348838
0
ELLIPSE
5
20E
100
AcDbEntity
8
1
62
256
6
ByLayer
370
13
48
1
60
0
100
AcDbEllipse
10
136.227079
20
-0.30513
30
0
11
-0.0203846285946205
21
1.01109966863351
31
0
210
0
220
0
230
1
40
0.102474
41
-0.11071142952794
42
0.486898969941873
0
ELLIPSE
5
20F
100
AcDbEntity
8
1
62
256
6
ByLayer
370
13
48
1
60
0
100
AcDbEllipse
10
131.168197
20
6.245379
30
0
11
0.0523359562429422
21
-0.998629534754574
31
0
210
0
220
0
230
1
40
0.092371
41
-1.10403098774768
42
0
0
ELLIPSE
5
210
100
AcDbEntity
8
1
62
256
6
ByLayer
370
13
48
1
60
0
100
AcDbEllipse
10
136.118971
20
0.132867
30
0
11
-0.0101923142958629
21
0.505549834277313
31
0
210
0
220
0
230
1
40
0.102474
41
-0.110711429532205
42
0.29194828018565
0
ELLIPSE
5
211
100
AcDbEntity
8
1
62
256
6
ByLayer
370
13
48
1
60
0
100
AcDbEllipse
10
127.067915
20
8.455164
30
0
11
0.0837375299887076
21
-1.59780725560732
31
0
210
0
220
0
230
1
40
0.995725
41
-1.98769354243482
42
-1.46607657167525
0
ELLIPSE
5
212
100
AcDbEntity
8
1
62
256
6
ByLayer
370
13
48
1
60
0
100
AcDbEllipse
10
125.053413
20
5.173887
30
0
11
-3.96879667354001
21
-0.704906652519362
31
0
210
0
220
0
230
1
40
0.015321
41
-3.01817314099336
42
-2.81830214075292
0
ELLIPSE
5
213
100
AcDbEntity
8
1
62
256
6
ByLayer
370
13
48
1
60
0
100
AcDbEllipse
10
125.186756
20
6.961595
30
0
11
-0.0261679781214654
21
0.499314767377287
31
0
210
0
220
0
230
1
40
0.995725
41
-2.00229017063665
42
-1.46607657167526
0
ELLIPSE
5
214
100
AcDbEntity
8
1
62
256
6
ByLayer
370
13
48
1
60
0
100
AcDbEllipse
10
136.076847
20
0
30
0
11
-2.2250353905229
21
13.1610727277747
31
0
210
0
220
0
230
1
40
0.08711
41
1.5949082188269
42
1.68773347132325
0
ELLIPSE
5
215
100
AcDbEntity
8
1
62
256
6
ByLayer
370
13
48
1
60
0
100
AcDbEllipse
10
136.152414
20
5.163205
30
0
11
-0.00903103848846101
21
0.500209615001518
31
0
210
0
220
0
230
1
40
0.105166
41
1.92347153124076
42
-2.7889174491431
0
ELLIPSE
5
216
100
AcDbEntity
8
1
62
256
6
ByLayer
370
13
48
1
60
0
100
AcDbEllipse
10
137.100303
20
0
30
0
11
-1.61411497833432
21
-13.1611818936747
31
0
210
0
220
0
230
1
40
0.115402
41
-1.3349080946519
42
-0.0734837139410854
0
ELLIPSE
5
217
100
AcDbEntity
8
1
62
256
6
ByLayer
370
13
48
1
60
0
100
AcDbEllipse
10
135.433122
20
-7.333524
30
0
11
-0.179989458594921
21
-1.48919771982066
31
0
210
0
220
0
230
1
40
0.116754
41
0
42
6.28318530717959
0
ELLIPSE
5
218
100
AcDbEntity
8
1
62
256
6
ByLayer
370
13
48
1
60
0
100
AcDbEllipse
10
131.639221
20
-2.742287
30
0
11
-0.418687649943446
21
7.9890362780366
31
0
210
0
220
0
230
1
40
0.995725
41
0
42
0.252842860728323
0
ELLIPSE
5
219
100
AcDbEntity
8
1
62
256
6
ByLayer
370
13
48
1
60
0
100
AcDbEllipse
10
124.843147
20
6.943587
30
0
11
0.0523359562429422
21
-0.998629534754574
31
0
210
0
220
0
230
1
40
0.995725
41
1.13930248295314
42
1.67551608191454
0
ELLIPSE
5
21A
100
AcDbEntity
8
1
62
256
6
ByLayer
370
18
48
1
60
0
100
AcDbEllipse
10
132.152197
20
9.266017
30
0
11
-0.0126496006239292
21
0.241368758550181
31
0
210
0
220
0
230
1
40
0.501982
41
3.08402190138018
42
-0.604617605997216
0
ELLIPSE
5
21B
100
AcDbEntity
8
1
62
256
6
ByLayer
370
18
48
1
60
0
100
AcDbEllipse
10
131.739563
20
8.452452
30
0
11
-0.201645978398231
21
-0.131849256880561
31
0
210
0
220
0
230
1
40
0.505213
41
0.57823301100466
42
-3.08653893110347
0
ELLIPSE
5
21C
100
AcDbEntity
8
1
62
256
6
ByLayer
370
18
48
1
60
0
100
AcDbEllipse
10
131.656782
20
10.031993
30
0
11
-0.214323340834703
21
0.110049228609653
31
0
210
0
220
0
230
1
40
0.505213
41
3.08653893110278
42
-0.692117992087631
0
ELLIPSE
5
21D
100
AcDbEntity
8
1
62
256
6
ByLayer
370
18
48
1
60
0
100
AcDbEllipse
10
131.244148
20
9.218428
30
0
11
0.0902795245190752
21
-1.72263594745164
31
0
210
0
220
0
230
1
40
0.995725
41
3.14158687387697
42
-1.62293302890918
0
ELLIPSE
5
21E
100
AcDbEntity
8
1
62
256
6
ByLayer
370
18
48
1
60
0
100
AcDbEllipse
10
131.244148
20
9.218428
30
0
11
0.0902795245190752
21
-1.72263594745164
31
0
210
0
220
0
230
1
40
0.995725
41
-1.62293302890918
42
0
0
ELLIPSE
5
21F
100
AcDbEntity
8
1
62
256
6
ByLayer
370
18
48
1
60
0
100
AcDbEllipse
10
130.748733
20
9.984404
30
0
11
-0.201645978398241
21
-0.131849256880551
31
0
210
0
220
0
230
1
40
0.505213
41
3.08150487165707
42
-2.56336325251488
0
ELLIPSE
5
220
100
AcDbEntity
8
1
62
256
6
ByLayer
370
13
48
1
60
0
100
AcDbEllipse
10
126.377034
20
5.933352
30
0
11
-0.0702831055540877
21
0.251592029864542
31
0
210
0
220
0
230
1
40
0.953152
41
1.5313965045011
42
1.87271600616519
0
ELLIPSE
5
221
100
AcDbEntity
8
1
62
256
6
ByLayer
370
13
48
1
60
0
100
AcDbEllipse
10
131.246331
20
9.218543
30
0
11
0.0919468753966951
21
-1.75445089745391
31
0
210
0
220
0
230
1
40
0.995725
41
-3.13286081871851
42
-1.62293276262278
0
ELLIPSE
5
222
100
AcDbEntity
8
1
62
256
6
ByLayer
370
13
48
1
60
0
100
AcDbEllipse
10
131.246331
20
9.218543
30
0
11
0.0919468753966951
21
-1.75445089745391
31
0
210
0
220
0
230
1
40
0.995725
41
-1.62293276262278
42
0
0
ELLIPSE
5
223
100
AcDbEntity
8
1
62
256
6
ByLayer
370
13
48
1
60
0
100
AcDbEllipse
10
131.246331
20
9.218543
30
0
11
0.0919468753966951
21
-1.75445089745391
31
0
210
0
220
0
230
1
40
0.995725
41
0
42
0.471233373569917
0
ELLIPSE
5
224
100
AcDbEntity
8
1
62
256
6
ByLayer
370
13
48
1
60
0
100
AcDbEllipse
10
136.037261
20
5.929969
30
0
11
-0.0435995590773141
21
-0.257560367422983
31
0
210
0
220
0
230
1
40
0.953152
41
0.302534642151879
42
1.26887668588604
0
ELLIPSE
5
225
100
AcDbEntity
8
1
62
256
6
ByLayer
370
13
48
1
60
0
100
AcDbEllipse
10
135.342786
20
13.236913
30
0
11
0.134175336908005
21
-0.0670595180837386
31
0
210
0
220
0
230
1
40
0.045711
41
-2.89614378097731
42
-1.65123426323861
0
ELLIPSE
5
226
100
AcDbEntity
8
1
62
256
6
ByLayer
370
13
48
1
60
0
100
AcDbEllipse
10
135.473571
20
9.696723
30
0
11
0.148163665863162
21
0.0233993187505386
31
0
210
0
220
0
230
1
40
0.009655
41
1.66279490126857
42
2.86882079213666
0
ELLIPSE
5
227
100
AcDbEntity
8
1
62
256
6
ByLayer
370
13
48
1
60
0
100
AcDbEllipse
10
135.476805
20
9.452809
30
0
11
0.148731686424788
21
-0.0194649801756561
31
0
210
0
220
0
230
1
40
0.016833
41
3.05063056328133
42
-1.66175841710551
0
ELLIPSE
5
228
100
AcDbEntity
8
1
62
256
6
ByLayer
370
13
48
1
60
0
100
AcDbEllipse
10
135.058717
20
6.25821
30
0
11
-0.157303253000377
21
-0.046073144421737
31
0
210
0
220
0
230
1
40
0.019548
41
-1.48844818362104
42
0.08234814308517
0
ELLIPSE
5
229
100
AcDbEntity
8
1
62
256
6
ByLayer
370
13
48
1
60
0
100
AcDbEllipse
10
135.256908
20
9.661817
30
0
11
0.074081832931581
21
0.0116996593752693
31
0
210
0
220
0
230
1
40
0.009655
41
-1.47879775232153
42
-0.000215754788593219
0
ELLIPSE
5
22A
100
AcDbEntity
8
1
62
256
6
ByLayer
370
13
48
1
60
0
100
AcDbEllipse
10
134.782471
20
12.665936
30
0
11
-0.074081832931581
21
-0.0116996593752688
31
0
210
0
220
0
230
1
40
0.009655
41
1.66279490126713
42
3.14137689869081
0
ELLIPSE
5
22B
100
AcDbEntity
8
1
62
256
6
ByLayer
370
13
48
1
60
0
100
AcDbEllipse
10
134.04377
20
4.743817
30
0
11
0.0732703387401194
21
-1.39808134865641
31
0
210
0
220
0
230
1
40
0.995725
41
2.21707198701782
42
2.88221331534765
0
ELLIPSE
5
22C
100
AcDbEntity
8
1
62
256
6
ByLayer
370
13
48
1
60
0
100
AcDbEllipse
10
135.259286
20
9.482469
30
0
11
0.0743658432123938
21
-0.00973249008782803
31
0
210
0
220
0
230
1
40
0.016833
41
5.34639727258635E-05
42
1.47983423648397
0
ELLIPSE
5
22D
100
AcDbEntity
8
1
62
256
6
ByLayer
370
13
48
1
60
0
100
AcDbEllipse
10
134.84032
20
6.28115
30
0
11
-0.0743658432123935
21
0.00973249008783023
31
0
210
0
220
0
230
1
40
0.016833
41
-3.14153918968531
42
-1.6617584171074
0
ELLIPSE
5
22E
100
AcDbEntity
8
1
62
256
6
ByLayer
370
13
48
1
60
0
100
AcDbEllipse
10
131.271386
20
9.219856
30
0
11
0.0973762305338288
21
-1.85804916495178
31
0
210
0
220
0
230
1
40
0.995725
41
-0.853733484678045
42
0
0
ELLIPSE
5
22F
100
AcDbEntity
8
1
62
256
6
ByLayer
370
13
48
1
60
0
100
AcDbEllipse
10
131.271386
20
9.219856
30
0
11
0.0973762305338288
21
-1.85804916495178
31
0
210
0
220
0
230
1
40
0.995725
41
0
42
-2.28787042844177
0
ELLIPSE
5
230
100
AcDbEntity
8
1
62
256
6
ByLayer
370
13
48
1
60
0
100
AcDbEllipse
10
127.662576
20
12.247064
30
0
11
0.00523359562429507
21
-0.0998629534754736
31
0
210
0
220
0
230
1
40
0.995725
41
1.38753675533609
42
3.1415814171366
0
ELLIPSE
5
231
100
AcDbEntity
8
1
62
256
6
ByLayer
370
13
48
1
60
0
100
AcDbEllipse
10
127.278221
20
5.181609
30
0
11
0.00653729335064122
21
-0.149857478277354
31
0
210
0
220
0
230
1
40
0.092367
41
-1.56998679074968
42
-0.0232440763750756
0
ELLIPSE
5
232
100
AcDbEntity
8
1
62
256
6
ByLayer
370
13
48
1
60
0
100
AcDbEllipse
10
127.173623
20
5.177046
30
0
11
0.00653729335064122
21
-0.149857478277354
31
0
210
0
220
0
230
1
40
0.092367
41
-1.56998679074968
42
-0.0250600894876928
0
ELLIPSE
5
233
100
AcDbEntity
8
1
62
256
6
ByLayer
370
13
48
1
60
0
100
AcDbEllipse
10
127.126658
20
5.175634
30
0
11
0.00247703513347986
21
-0.149979546261974
31
0
210
0
220
0
230
1
40
0.092312
41
-1.56748595439539
42
-0.0473509076689965
0
ELLIPSE
5
234
100
AcDbEntity
8
1
62
256
6
ByLayer
370
13
48
1
60
0
100
AcDbEllipse
10
127.276038
20
5.231561
30
0
11
0.0104671912485885
21
-0.199725906950916
31
0
210
0
220
0
230
1
40
0.995725
41
0.0114010574350479
42
1.05311629343271
0
ELLIPSE
5
235
100
AcDbEntity
8
1
62
256
6
ByLayer
370
13
48
1
60
0
100
AcDbEllipse
10
126.375263
20
12.003578
30
0
11
0.022232177635347
21
-0.148343285246048
31
0
210
0
220
0
230
1
40
0.091945
41
-3.05448529856544
42
-1.57968743413511
0
ELLIPSE
5
236
100
AcDbEntity
8
1
62
256
6
ByLayer
370
13
48
1
60
0
100
AcDbEllipse
10
126.836234
20
5.175699
30
0
11
-0.00254430870317447
21
-0.149978420091768
31
0
210
0
220
0
230
1
40
0.092151
41
-1.56439802758319
42
-0.0688775292841222
0
ELLIPSE
5
237
100
AcDbEntity
8
1
62
256
6
ByLayer
370
13
48
1
60
0
100
AcDbEllipse
10
126.375263
20
12.003578
30
0
11
-0.148731686424787
21
0.0194649801756605
31
0
210
0
220
0
230
1
40
0.016833
41
-0.0909620903098687
42
1.47983423648447
0
ELLIPSE
5
238
100
AcDbEntity
8
1
62
256
6
ByLayer
370
13
48
1
60
0
100
AcDbEllipse
10
126.49776
20
5.470971
30
0
11
-0.148163665863162
21
-0.0233993187505375
31
0
210
0
220
0
230
1
40
0.009655
41
-1.47879775232091
42
0.0919985744705118
0
ELLIPSE
5
239
100
AcDbEntity
8
1
62
256
6
ByLayer
370
13
48
1
60
0
100
AcDbEllipse
10
125.96984
20
8.905746
30
0
11
-0.148731686424787
21
0.0194649801756605
31
0
210
0
220
0
230
1
40
0.016833
41
-0.0909620903098687
42
1.47983423648419
0
ELLIPSE
5
23A
100
AcDbEntity
8
1
62
256
6
ByLayer
370
13
48
1
60
0
100
AcDbEllipse
10
125.971171
20
8.805311
30
0
11
-0.148163665863162
21
-0.0233993187505375
31
0
210
0
220
0
230
1
40
0.009655
41
-1.47879775232094
42
-0.264819008248768
0
ELLIPSE
5
23B
100
AcDbEntity
8
1
62
256
6
ByLayer
370
13
48
1
60
0
100
AcDbEllipse
10
126.317044
20
12.499865
30
0
11
-0.0435995591061962
21
-0.257560367414688
31
0
210
0
220
0
230
1
40
0.953152
41
-2.83905801132986
42
-1.74405583520732
0
ELLIPSE
5
23C
100
AcDbEntity
8
1
62
256
6
ByLayer
370
13
48
1
60
0
100
AcDbEllipse
10
134.782471
20
12.665936
30
0
11
0.00392519671822066
21
-0.074897215106593
31
0
210
0
220
0
230
1
40
0.995725
41
3.14156568617799
42
-2.58884312732103
0
ELLIPSE
5
23D
100
AcDbEntity
8
1
62
256
6
ByLayer
370
13
48
1
60
0
100
AcDbEllipse
10
134.84032
20
6.28115
30
0
11
0.00392519671822066
21
-0.074897215106593
31
0
210
0
220
0
230
1
40
0.995725
41
-0.358797302493002
42
1.91341733218455E-05
0
ELLIPSE
5
23E
100
AcDbEntity
8
1
62
256
6
ByLayer
370
13
48
1
60
0
100
AcDbEllipse
10
127.890075
20
5.780576
30
0
11
0.00392519671822066
21
-0.074897215106593
31
0
210
0
220
0
230
1
40
0.995725
41
-1.46607657167551
42
-2.89758365878629E-05
0
ELLIPSE
5
23F
100
AcDbEntity
8
1
62
256
6
ByLayer
370
13
48
1
60
0
100
AcDbEllipse
10
127.832227
20
12.165362
30
0
11
0.00392519671822066
21
-0.074897215106593
31
0
210
0
220
0
230
1
40
0.995725
41
-3.14157648440059
42
-1.75405589825451
0
ELLIPSE
5
240
100
AcDbEntity
8
1
62
256
6
ByLayer
370
13
48
1
60
0
100
AcDbEllipse
10
127.890075
20
5.780576
30
0
11
0.0427820306099553
21
-0.0616011189580908
31
0
210
0
220
0
230
1
40
0.078615
41
-3.9755921895546E-05
42
1.52212929101446
0
ELLIPSE
5
241
100
AcDbEntity
8
1
62
256
6
ByLayer
370
18
48
1
60
0
100
AcDbEllipse
10
132.525415
20
-2.908892
30
0
11
1.25
21
0
31
0
210
0
220
0
230
1
40
0.995396
41
0.396037083932916
42
-3.14159226166017
0
ELLIPSE
5
242
100
AcDbEntity
8
1
62
256
6
ByLayer
370
18
48
1
60
0
100
AcDbEllipse
10
132.525415
20
-2.880138
30
0
11
-0.950000000000001
21
9.60107102328246E-16
31
0
210
0
220
0
230
1
40
0.995396
41
3.14159258021937
42
-9.39248954502462E-16
0
ELLIPSE
5
243
100
AcDbEntity
8
1
62
256
6
ByLayer
370
18
48
1
60
0
100
AcDbEllipse
10
132.525415
20
-2.880138
30
0
11
-0.950000000000001
21
9.60107102328246E-16
31
0
210
0
220
0
230
1
40
0.995396
41
0
42
0.50687598545567
0
ELLIPSE
5
244
100
AcDbEntity
8
1
62
256
6
ByLayer
370
18
48
1
60
0
100
AcDbEllipse
10
132.525415
20
-2.880138
30
0
11
-0.950000000000001
21
9.60107102328246E-16
31
0
210
0
220
0
230
1
40
0.995396
41
3.11321988783505
42
3.14159258021937
0
ELLIPSE
5
245
100
AcDbEntity
8
1
62
256
6
ByLayer
370
13
48
1
60
0
100
AcDbEllipse
10
127.967496
20
5.953723
30
0
11
0.026167978121471
21
-0.499314767377286
31
0
210
0
220
0
230
1
40
0.092371
41
-0.752144203760905
42
-0.444248267805
0
ELLIPSE
5
246
100
AcDbEntity
8
1
62
256
6
ByLayer
370
13
48
1
60
0
100
AcDbEllipse
10
125.872712
20
7.102216
30
0
11
0.49387888621054
21
0.0779977291684619
31
0
210
0
220
0
230
1
40
0.009655
41
1.6627949012686
42
1.98583982387713
0
ELLIPSE
5
247
100
AcDbEntity
8
1
62
256
6
ByLayer
370
13
48
1
60
0
100
AcDbEllipse
10
125.688642
20
8.26774
30
0
11
0.49387888621054
21
0.0779977291684619
31
0
210
0
220
0
230
1
40
0.009655
41
1.82031632992274
42
1.98495510800393
0
ELLIPSE
5
248
100
AcDbEntity
8
1
62
256
6
ByLayer
370
13
48
1
60
0
100
AcDbEllipse
10
126.785873
20
6.165917
30
0
11
-0.057569551867224
21
1.09849248823003
31
0
210
0
220
0
230
1
40
0.995725
41
1.13930248295314
42
2.68071944023139
0
ELLIPSE
5
249
100
AcDbEntity
8
1
62
256
6
ByLayer
370
13
48
1
60
0
100
AcDbEllipse
10
125.814377
20
6.575685
30
0
11
0.464792933756588
21
-0.184302818019541
31
0
210
0
220
0
230
1
40
0.038632
41
-2.02873541903088
42
-1.65486207236203
0
ELLIPSE
5
24A
100
AcDbEntity
8
1
62
256
6
ByLayer
370
18
48
1
60
0
100
AcDbEllipse
10
131.244148
20
9.218428
30
0
11
0.0414082085794159
21
-0.790115687897819
31
0
210
0
220
0
230
1
40
0.995725
41
-0.770704124409232
42
0
0
ELLIPSE
5
24B
100
AcDbEntity
8
1
62
256
6
ByLayer
370
18
48
1
60
0
100
AcDbEllipse
10
131.244148
20
9.218428
30
0
11
0.0414082085794159
21
-0.790115687897819
31
0
210
0
220
0
230
1
40
0.995725
41
-1.89406959464851
42
-1.23165158891772
0
ELLIPSE
5
24C
100
AcDbEntity
8
1
62
256
6
ByLayer
370
13
48
1
60
0
100
AcDbEllipse
10
126.229593
20
10.23726
30
0
11
-0.143594274784265
21
2.73994198473043
31
0
210
0
220
0
230
1
40
0.016833
41
0.314106799229783
42
0.882904136100242
0
ELLIPSE
5
24D
100
AcDbEntity
8
1
62
256
6
ByLayer
370
13
48
1
60
0
100
AcDbEllipse
10
106.196103
20
0
30
0
11
-142.083834646741
21
0.0644571327137959
31
0
210
0
220
0
230
1
40
0.092638
41
-1.77117023239834
42
-1.71918380007686
0
ELLIPSE
5
24E
100
AcDbEntity
8
1
62
256
6
ByLayer
370
13
48
1
60
0
100
AcDbEllipse
10
126.831995
20
6.168334
30
0
11
0.0837375299887076
21
-1.59780725560732
31
0
210
0
220
0
230
1
40
0.995725
41
0.0514385024983553
42
0.9856981040166
0
ELLIPSE
5
24F
100
AcDbEntity
8
1
62
256
6
ByLayer
370
13
48
1
60
0
100
AcDbEllipse
10
126.848525
20
12.519185
30
0
11
0.418687649943537
21
-7.98903627803659
31
0
210
0
220
0
230
1
40
0.995725
41
5.44419518700366E-06
42
0.252842860728326
0
ELLIPSE
5
250
100
AcDbEntity
8
1
62
256
6
ByLayer
370
13
48
1
60
0
100
AcDbEllipse
10
132.364025
20
-3.055212
30
0
11
1.25
21
0
31
0
210
0
220
0
230
1
40
0.995396
41
2.22208802733078
42
2.89870863270738
0
ELLIPSE
5
251
100
AcDbEntity
8
1
62
256
6
ByLayer
370
13
48
1
60
0
100
AcDbEllipse
10
132.364025
20
-2.729336
30
0
11
1.25
21
0
31
0
210
0
220
0
230
1
40
0.995396
41
0
42
3.14159226166017
0
ELLIPSE
5
252
100
AcDbEntity
8
1
62
256
6
ByLayer
370
13
48
1
60
0
100
AcDbEllipse
10
132.364025
20
-2.729336
30
0
11
-1.35
21
1.36436272436119E-15
31
0
210
0
220
0
230
1
40
0.995396
41
-2.92609876951389
42
-0.210584884237086
0
ELLIPSE
5
253
100
AcDbEntity
8
1
62
256
6
ByLayer
370
18
48
1
60
0
100
AcDbEllipse
10
131.244148
20
9.218428
30
0
11
-0.0414082085794068
21
0.790115687897819
31
0
210
0
220
0
230
1
40
0.995725
41
-3.03621793493414
42
-2.0943951023932
0
ELLIPSE
5
254
100
AcDbEntity
8
1
62
256
6
ByLayer
370
18
48
1
60
0
100
AcDbEllipse
10
131.244148
20
9.218428
30
0
11
0.0414082085794159
21
-0.790115687897819
31
0
210
0
220
0
230
1
40
0.995725
41
3.14159265358979
42
-2.35432971300049
0
ELLIPSE
5
255
100
AcDbEntity
8
1
62
256
6
ByLayer
370
18
48
1
60
0
100
AcDbEllipse
10
132.525415
20
-3.328847
30
0
11
-1.4
21
1.41489467711531E-15
31
0
210
0
220
0
230
1
40
0.995396
41
-0.508839537764375
42
-0.362264432169281
0
ELLIPSE
5
256
100
AcDbEntity
8
1
62
256
6
ByLayer
370
18
48
1
60
0
100
AcDbEllipse
10
132.525415
20
-3.246625
30
0
11
-1.4
21
1.41489467711531E-15
31
0
210
0
220
0
230
1
40
0.995396
41
-0.569904200316046
42
-0.315729679625875
0
POINT
5
70
100
AcDbEntity
8
1
62
256
6
ByLayer
370
18
48
1
60
0
100
AcDbPoint
10
0
20
0
30
0
39
0
210
0
220
0
230
1
50
360
0
POINT
5
72
100
AcDbEntity
8
80
62
256
6
ByLayer
370
18
48
1
60
0
100
AcDbPoint
10
0
20
0
30
0
39
0
210
0
220
0
230
1
50
360
0
POINT
5
74
100
AcDbEntity
8
81
62
256
6
ByLayer
370
18
48
1
60
0
100
AcDbPoint
10
137
20
0
30
0
39
0
210
0
220
0
230
1
50
360
0
POINT
5
76
100
AcDbEntity
8
1
62
256
6
ByLayer
370
18
48
1
60
1
100
AcDbPoint
10
0
20
-19.75
30
0
39
0
210
0
220
0
230
1
50
360
0
POINT
5
77
100
AcDbEntity
8
1
62
256
6
ByLayer
370
18
48
1
60
1
100
AcDbPoint
10
137
20
-13.5
30
0
39
0
210
0
220
0
230
1
50
360
0
POINT
5
78
100
AcDbEntity
8
1
62
256
6
ByLayer
370
18
48
1
60
1
100
AcDbPoint
10
-60
20
-16
30
0
39
0
210
0
220
0
230
1
50
360
0
POINT
5
79
100
AcDbEntity
8
1
62
256
6
ByLayer
370
18
48
1
60
1
100
AcDbPoint
10
0
20
-19.75
30
0
39
0
210
0
220
0
230
1
50
360
0
POINT
5
7A
100
AcDbEntity
8
1
62
256
6
ByLayer
370
18
48
1
60
1
100
AcDbPoint
10
137
20
-13.5
30
0
39
0
210
0
220
0
230
1
50
360
0
POINT
5
7B
100
AcDbEntity
8
1
62
256
6
ByLayer
370
18
48
1
60
1
100
AcDbPoint
10
5.5534
20
-19.75
30
0
39
0
210
0
220
0
230
1
50
360
0
POINT
5
7C
100
AcDbEntity
8
1
62
256
6
ByLayer
370
18
48
1
60
1
100
AcDbPoint
10
25
20
-13.5
30
0
39
0
210
0
220
0
230
1
50
360
0
POINT
5
7D
100
AcDbEntity
8
1
62
256
6
ByLayer
370
18
48
1
60
1
100
AcDbPoint
10
137
20
-13.5
30
0
39
0
210
0
220
0
230
1
50
360
0
POINT
5
7E
100
AcDbEntity
8
1
62
256
6
ByLayer
370
18
48
1
60
1
100
AcDbPoint
10
136.335
20
-6.75
30
0
39
0
210
0
220
0
230
1
50
360
0
SPLINE
5
257
100
AcDbEntity
8
SK1
62
256
6
ByLayer
370
13
48
1
60
0
100
AcDbSpline
70
4
71
3
72
8
73
4
40
0
40
0
40
0
40
0
40
1
40
1
40
1
40
1
41
1
10
-60
20
5.85914669555225
30
0
41
1
10
-59.7022804007547
20
6.62113531646736
30
0
41
1
10
-59.3649845597875
20
7.35981161746204
30
0
41
1
10
-59
20
8.08217792429744
30
0
0
SPLINE
5
258
100
AcDbEntity
8
SK1
62
256
6
ByLayer
370
13
48
1
60
0
100
AcDbSpline
70
4
71
3
72
68
73
64
40
0
40
0
40
0
40
0
40
0.0156250000000001
40
0.0156250000000001
40
0.0234375000000001
40
0.0234375000000001
40
0.0312500000000002
40
0.0312500000000002
40
0.0468750000000002
40
0.0468750000000002
40
0.0625000000000002
40
0.0625000000000002
40
0.0937500000000001
40
0.0937500000000001
40
0.109375
40
0.109375
40
0.125
40
0.125
40
0.15625
40
0.15625
40
0.1875
40
0.1875
40
0.25
40
0.25
40
0.3125
40
0.3125
40
0.374999999999999
40
0.374999999999999
40
0.437499999999999
40
0.437499999999999
40
0.499999999999999
40
0.499999999999999
40
0.562499999999999
40
0.562499999999999
40
0.593749999999999
40
0.593749999999999
40
0.624999999999999
40
0.624999999999999
40
0.687499999999999
40
0.687499999999999
40
0.749999999999999
40
0.749999999999999
40
0.781249999999999
40
0.781249999999999
40
0.812499999999999
40
0.812499999999999
40
0.843749999999999
40
0.843749999999999
40
0.874999999999999
40
0.874999999999999
40
0.906249999999999
40
0.906249999999999
40
0.921874999999999
40
0.921874999999999
40
0.937499999999999
40
0.937499999999999
40
0.953125
40
0.953125
40
0.96875
40
0.96875
40
0.984375
40
0.984375
40
1
40
1
40
1
40
1
41
1
10
-6.50000000009538
20
8.08217792429738
30
0
41
1
10
-6.39728681546228
20
8.08217792430295
30
0
41
1
10
-6.296402409877
20
8.07321819015161
30
0
41
1
10
-6.14760935643375
20
8.04732412610463
30
0
41
1
10
-6.09843562594534
20
8.03660787890624
30
0
41
1
10
-6.00091880243031
20
8.01107370894184
30
0
41
1
10
-5.95239404796544
20
7.99617764781558
30
0
41
1
10
-5.81053884277202
20
7.94631574243397
30
0
41
1
10
-5.72022692966135
20
7.90609643283966
30
0
41
1
10
-5.54693679687946
20
7.81343669977065
30
0
41
1
10
-5.46358233763598
20
7.76062096471586
30
0
41
1
10
-5.22938932990994
20
7.59010003078564
30
0
41
1
10
-5.09198062975838
20
7.45965870967734
30
0
41
1
10
-4.90595335477917
20
7.24483383959316
30
0
41
1
10
-4.84743644515666
20
7.16999684219442
30
0
41
1
10
-4.73821403722124
20
7.01722836272262
30
0
41
1
10
-4.68720010034835
20
6.93894864132523
30
0
41
1
10
-4.54323026305207
20
6.69909555975084
30
0
41
1
10
-4.45926717147535
20
6.53254051891884
30
0
41
1
10
-4.3093443488095
20
6.18841513117044
30
0
41
1
10
-4.24330317602914
20
6.01022873335722
30
0
41
1
10
-4.06907911492854
20
5.47031069866443
30
0
41
1
10
-3.98292703985177
20
5.10066666331613
30
0
41
1
10
-3.84570406558609
20
4.3460076275565
30
0
41
1
10
-3.79497968232502
20
3.96093681450122
30
0
41
1
10
-3.71582480540852
20
3.17738007021441
30
0
41
1
10
-3.68789829506167
20
2.78322297970973
30
0
41
1
10
-3.64633986418011
20
1.99355753208178
30
0
41
1
10
-3.63271963039239
20
1.59753997542174
30
0
41
1
10
-3.61498986895103
20
0.8032693818231
30
0
41
1
10
-3.61089870808033
20
0.405015959157339
30
0
41
1
10
-3.61081975316972
20
-0.393708095828771
30
0
41
1
10
-3.61482564333889
20
-0.79417841106158
30
0
41
1
10
-3.62821561082677
20
-1.39661779481634
30
0
41
1
10
-3.6339407448568
20
-1.5976566482033
30
0
41
1
10
-3.64830872222703
20
-1.99713286488571
30
0
41
1
10
-3.65695833332805
20
-2.19596450309135
30
0
41
1
10
-3.68830689646765
20
-2.78967605662922
30
0
41
1
10
-3.71625565824056
20
-3.18178799699138
30
0
41
1
10
-3.79469185744705
20
-3.95794446532156
30
0
41
1
10
-3.84504356353054
20
-4.34199975391078
30
0
41
1
10
-3.94841887778486
20
-4.91107497341915
30
0
41
1
10
-3.98770312105464
20
-5.10004649303772
30
0
41
1
10
-4.07779287027168
20
-5.47202177182982
30
0
41
1
10
-4.12859397440818
20
-5.65523270773653
30
0
41
1
10
-4.24512124852822
20
-6.01536285970332
30
0
41
1
10
-4.31115958926657
20
-6.19302001448725
30
0
41
1
10
-4.46122475767433
20
-6.5365844274842
30
0
41
1
10
-4.54510408970728
20
-6.70247592440509
30
0
41
1
10
-4.73611535242114
20
-7.02017882771963
30
0
41
1
10
-4.84311703112593
20
-7.17205090027988
30
0
41
1
10
-5.02826673108481
20
-7.38618951170361
30
0
41
1
10
-5.09451997161401
20
-7.4555748598882
30
0
41
1
10
-5.23421802890766
20
-7.58596007689957
30
0
41
1
10
-5.30784417528008
20
-7.64725133038493
30
0
41
1
10
-5.46399950309441
20
-7.76089792359187
30
0
41
1
10
-5.54724834943178
20
-7.81362228056182
30
0
41
1
10
-5.72052431823744
20
-7.90623639127858
30
0
41
1
10
-5.8103544508825
20
-7.94617017235277
30
0
41
1
10
-5.99716341576658
20
-8.01199361554285
30
0
41
1
10
-6.09472382931475
20
-8.03800054933629
30
0
41
1
10
-6.29565120833735
20
-8.07320511896262
30
0
41
1
10
-6.39723913462657
20
-8.08217792430295
30
0
41
1
10
-6.50000000009538
20
-8.08217792429738
30
0
0
SPLINE
5
259
100
AcDbEntity
8
SK1
62
256
6
ByLayer
370
13
48
1
60
0
100
AcDbSpline
70
4
71
3
72
22
73
18
40
0
40
0
40
0
40
0
40
0.125000000000011
40
0.125000000000011
40
0.250000000000023
40
0.250000000000023
40
0.31250000000002
40
0.31250000000002
40
0.375000000000017
40
0.375000000000017
40
0.500000000000012
40
0.500000000000012
40
0.625000000000006
40
0.625000000000006
40
0.75
40
0.75
40
1
40
1
40
1
40
1
41
1
10
-57.6338131992802
20
-7.35178671505685
30
0
41
1
10
-57.6745902238048
20
-7.32188713888613
30
0
41
1
10
-57.7188502336058
20
-7.29709174043174
30
0
41
1
10
-57.814373771013
20
-7.26393071295962
30
0
41
1
10
-57.8642212530089
20
-7.25621661169953
30
0
41
1
10
-57.9401828125352
20
-7.26037094821749
30
0
41
1
10
-57.9649934154392
20
-7.26430468254605
30
0
41
1
10
-58.0136926069433
20
-7.27678108502224
30
0
41
1
10
-58.0377861392479
20
-7.28543920942283
30
0
41
1
10
-58.1066236504335
20
-7.31673178690448
30
0
41
1
10
-58.1485885975357
20
-7.34462265414265
30
0
41
1
10
-58.2262468914571
20
-7.40945129068584
30
0
41
1
10
-58.2609360496114
20
-7.44550135932889
30
0
41
1
10
-58.3248012622005
20
-7.52244312054987
30
0
41
1
10
-58.3540141780759
20
-7.56351301068545
30
0
41
1
10
-58.43460198071
20
-7.69138085766116
30
0
41
1
10
-58.4789677891324
20
-7.78260024402715
30
0
41
1
10
-58.5162221138916
20
-7.87543832737532
30
0
0
SPLINE
5
25A
100
AcDbEntity
8
SK1
62
256
6
ByLayer
370
13
48
1
60
0
100
AcDbSpline
70
4
71
3
72
8
73
4
40
0
40
0
40
0
40
0
40
1
40
1
40
1
40
1
41
1
10
-58.5999993841625
20
8.08217792429747
30
0
41
1
10
-58.57185140079
20
8.01338226057771
30
0
41
1
10
-58.5439234293097
20
7.94447023296686
30
0
41
1
10
-58.5162221138915
20
7.87543832737546
30
0
0
SPLINE
5
25B
100
AcDbEntity
8
SK1
62
256
6
ByLayer
370
13
48
1
60
0
100
AcDbSpline
70
4
71
3
72
8
73
4
40
0
40
0
40
0
40
0
40
1
40
1
40
1
40
1
41
1
10
-57.6338131992802
20
7.35178671505699
30
0
41
1
10
-57.2930308684636
20
7.60166387938381
30
0
41
1
10
-56.9481570681903
20
7.84467424065522
30
0
41
1
10
-56.6000022063887
20
8.08217792429744
30
0
0
SPLINE
5
25C
100
AcDbEntity
8
SK1
62
256
6
ByLayer
370
13
48
1
60
0
100
AcDbSpline
70
4
71
3
72
8
73
4
40
0
40
0
40
0
40
0
40
1
40
1
40
1
40
1
41
1
10
-59
20
-8.08217792429733
30
0
41
1
10
-59.3665953697313
20
-7.35662355155915
30
0
41
1
10
-59.7037451046298
20
-6.61738652838392
30
0
41
1
10
-60
20
-5.85914669555211
30
0
0
SPLINE
5
25D
100
AcDbEntity
8
SK1
62
256
6
ByLayer
370
13
48
1
60
0
100
AcDbSpline
70
4
71
3
72
8
73
4
40
0
40
0
40
0
40
0
40
1
40
1
40
1
40
1
41
1
10
-56.6000022063888
20
-8.08217792429733
30
0
41
1
10
-56.9490107828242
20
-7.84409185507741
30
0
41
1
10
-57.2939255164024
20
-7.60100788266726
30
0
41
1
10
-57.6338131992802
20
-7.35178671505685
30
0
0
SPLINE
5
25E
100
AcDbEntity
8
SK1
62
256
6
ByLayer
370
13
48
1
60
0
100
AcDbSpline
70
4
71
3
72
22
73
18
40
0
40
0
40
0
40
0
40
0.249999999999996
40
0.249999999999996
40
0.374999999999994
40
0.374999999999994
40
0.499999999999993
40
0.499999999999993
40
0.624999999999991
40
0.624999999999991
40
0.749999999999989
40
0.749999999999989
40
0.812499999999988
40
0.812499999999988
40
0.874999999999987
40
0.874999999999987
40
1
40
1
40
1
40
1
41
1
10
-58.5162221138916
20
7.87543832737546
30
0
41
1
10
-58.4790702178924
20
7.78285549733872
30
0
41
1
10
-58.4348074348417
20
7.69184500866177
30
0
41
1
10
-58.3546954086512
20
7.56452584156625
30
0
41
1
10
-58.3254226390758
20
7.52326743309016
30
0
41
1
10
-58.2615265365677
20
7.44613846458927
30
0
41
1
10
-58.226974667728
20
7.41021721210194
30
0
41
1
10
-58.1503876554901
20
7.34597125656128
30
0
41
1
10
-58.1077882647388
20
7.31745537535119
30
0
41
1
10
-58.0166306173733
20
7.27563422452508
30
0
41
1
10
-57.9664747697949
20
7.26196817544005
30
0
41
1
10
-57.8907981740471
20
7.25759316225373
30
0
41
1
10
-57.8656812246094
20
7.25870218641109
30
0
41
1
10
-57.8156599766649
20
7.26594822730371
30
0
41
1
10
-57.7907546627403
20
7.27215031305357
30
0
41
1
10
-57.7192386497853
20
7.29691684817604
30
0
41
1
10
-57.6743164465246
20
7.32208788488794
30
0
41
1
10
-57.6338131992801
20
7.35178671505687
30
0
0
SPLINE
5
25F
100
AcDbEntity
8
SK1
62
256
6
ByLayer
370
13
48
1
60
0
100
AcDbSpline
70
4
71
3
72
8
73
4
40
0
40
0
40
0
40
0
40
1
40
1
40
1
40
1
41
1
10
-58.5162221138915
20
-7.87543832737535
30
0
41
1
10
-58.5439224477985
20
-7.94446778703286
30
0
41
1
10
-58.5718504132244
20
-8.01337984689718
30
0
41
1
10
-58.5999993841625
20
-8.08217792429733
30
0
0
SPLINE
5
260
100
AcDbEntity
8
1
62
256
6
ByLayer
370
18
48
1
60
0
100
AcDbSpline
70
4
71
3
72
8
73
4
40
0
40
0
40
0
40
0
40
1
40
1
40
1
40
1
41
1
10
132.219659898997
20
9.51118332921078
30
0
41
1
10
132.212717531413
20
9.51005778735453
30
0
41
1
10
132.205774850356
20
9.50893218569857
30
0
41
1
10
132.198831835084
20
9.50780652027981
30
0
0
SPLINE
5
261
100
AcDbEntity
8
1
62
256
6
ByLayer
370
18
48
1
60
0
100
AcDbSpline
70
4
71
3
72
14
73
10
40
0
40
0
40
0
40
0
40
0.499999999999901
40
0.499999999999901
40
0.749999999999852
40
0.749999999999852
40
0.874999999999926
40
0.874999999999926
40
1
40
1
40
1
40
1
41
1
10
132.365603999884
20
9.27720122253965
30
0
41
1
10
132.362905514981
20
9.32869138182295
30
0
41
1
10
132.352431923023
20
9.3803527204461
30
0
41
1
10
132.319169164103
20
9.44986987634735
30
0
41
1
10
132.304849769013
20
9.47193119927394
30
0
41
1
10
132.276830269846
20
9.49668246695171
30
0
41
1
10
132.26618645043
20
9.50356703912558
30
0
41
1
10
132.243347301143
20
9.51182214727206
30
0
41
1
10
132.231353858687
20
9.513081676734
30
0
41
1
10
132.219659898997
20
9.51118332921078
30
0
0
SPLINE
5
262
100
AcDbEntity
8
1
62
256
6
ByLayer
370
18
48
1
60
0
100
AcDbSpline
70
4
71
3
72
14
73
10
40
0
40
0
40
0
40
0
40
0.124999999999983
40
0.124999999999983
40
0.249999999999966
40
0.249999999999966
40
0.499999999999932
40
0.499999999999932
40
1
40
1
40
1
40
1
41
1
10
132.024300513899
20
8.59427003876795
30
0
41
1
10
132.032058136052
20
8.58558318165197
30
0
41
1
10
132.037278314783
20
8.57488781744379
30
0
41
1
10
132.04199042297
20
8.55180457128387
30
0
41
1
10
132.041571798219
20
8.53963112983269
30
0
41
1
10
132.034716959871
20
8.50378138942685
30
0
41
1
10
132.023025171156
20
8.48065975728849
30
0
41
1
10
131.980190754811
20
8.41792104407205
30
0
41
1
10
131.94094257542
20
8.38313972004684
30
0
41
1
10
131.897910676443
20
8.35508071693681
30
0
0
SPLINE
5
263
100
AcDbEntity
8
1
62
256
6
ByLayer
370
18
48
1
60
0
100
AcDbSpline
70
4
71
3
72
18
73
14
40
0
40
0
40
0
40
0
40
0.125000000000039
40
0.125000000000039
40
0.250000000000079
40
0.250000000000079
40
0.500000000000053
40
0.500000000000053
40
0.750000000000026
40
0.750000000000026
40
0.875000000000013
40
0.875000000000013
40
1
40
1
40
1
40
1
41
1
10
130.436450125859
20
9.41544400865033
30
0
41
1
10
130.455638705525
20
9.41413519614019
30
0
41
1
10
130.474876141081
20
9.42086100470738
30
0
41
1
10
130.510725673369
20
9.44117805178644
30
0
41
1
10
130.527491719884
20
9.45494642084
30
0
41
1
10
130.573960132929
20
9.50171091075543
30
0
41
1
10
130.600269864425
20
9.54033712850915
30
0
41
1
10
130.642469516985
20
9.62354277101494
30
0
41
1
10
130.658377238248
20
9.66815760926661
30
0
41
1
10
130.669496029186
20
9.73494527545242
30
0
41
1
10
130.67105455032
20
9.75728544631826
30
0
41
1
10
130.667090365367
20
9.79996337252044
30
0
41
1
10
130.661659227997
20
9.82033728503265
30
0
41
1
10
130.64981575793
20
9.83612314744016
30
0
0
SPLINE
5
264
100
AcDbEntity
8
1
62
256
6
ByLayer
370
18
48
1
60
0
100
AcDbSpline
70
4
71
3
72
8
73
4
40
0
40
0
40
0
40
0
40
1
40
1
40
1
40
1
41
1
10
130.64981575793
20
9.83612314744016
30
0
41
1
10
130.645917007476
20
9.84131969354323
30
0
41
1
10
130.642018580991
20
9.84651592874769
30
0
41
1
10
130.638120458284
20
9.85171187238606
30
0
0
SPLINE
5
265
100
AcDbEntity
8
1
62
256
6
ByLayer
370
18
48
1
60
0
100
AcDbSpline
70
4
71
3
72
14
73
10
40
0
40
0
40
0
40
0
40
0.500000000000044
40
0.500000000000044
40
0.750000000000059
40
0.750000000000059
40
0.87500000000003
40
0.87500000000003
40
1
40
1
40
1
40
1
41
1
10
131.804084910006
20
10.1453829911499
30
0
41
1
10
131.849835295098
20
10.1219648767917
30
0
41
1
10
131.892475082908
20
10.0915060011329
30
0
41
1
10
131.941676059763
20
10.0335234633258
30
0
41
1
10
131.95568456096
20
10.0117861629414
30
0
41
1
10
131.966242077918
20
9.97689233094019
30
0
41
1
10
131.967948013728
20
9.9646825703885
30
0
41
1
10
131.965630870272
20
9.94120798022496
30
0
41
1
10
131.961592895404
20
9.93016731892612
30
0
41
1
10
131.954784462949
20
9.92071530893247
30
0
0
SPLINE
5
266
100
AcDbEntity
8
1
62
256
6
ByLayer
370
18
48
1
60
0
100
AcDbSpline
70
4
71
3
72
18
73
14
40
0
40
0
40
0
40
0
40
0.124999999999999
40
0.124999999999999
40
0.249999999999999
40
0.249999999999999
40
0.499999999999997
40
0.499999999999997
40
0.749999999999996
40
0.749999999999996
40
0.874999999999998
40
0.874999999999998
40
1
40
1
40
1
40
1
41
1
10
130.717638275342
20
8.54199242220054
30
0
41
1
10
130.727768042386
20
8.55893187583382
30
0
41
1
10
130.73104341843
20
8.57985724860507
30
0
41
1
10
130.730513759033
20
8.6226256649108
30
0
41
1
10
130.72663002816
20
8.64469566318823
30
0
41
1
10
130.708587714023
20
8.70995087121472
30
0
41
1
10
130.688103701768
20
8.75265532272286
30
0
41
1
10
130.637435416314
20
8.83099232667132
30
0
41
1
10
130.607229509985
20
8.86665806188205
30
0
41
1
10
130.556122363325
20
8.90830760319921
30
0
41
1
10
130.538022960931
20
8.92024373652089
30
0
41
1
10
130.500161870945
20
8.93672522549466
30
0
41
1
10
130.480412857549
20
8.94137124276179
30
0
41
1
10
130.461468538622
20
8.93806425501725
30
0
0
SPLINE
5
267
100
AcDbEntity
8
1
62
256
6
ByLayer
370
18
48
1
60
0
100
AcDbSpline
70
4
71
3
72
18
73
14
40
0
40
0
40
0
40
0
40
0.124999999999984
40
0.124999999999984
40
0.249999999999967
40
0.249999999999967
40
0.499999999999932
40
0.499999999999932
40
0.749999999999896
40
0.749999999999896
40
0.874999999999948
40
0.874999999999948
40
1
40
1
40
1
40
1
41
1
10
131.048962037371
20
10.0963869740983
30
0
41
1
10
131.056947268398
20
10.0780824439277
30
0
41
1
10
131.071927026811
20
10.0638313995044
30
0
41
1
10
131.106619478784
20
10.0412916319953
30
0
41
1
10
131.126559569406
20
10.032952809664
30
0
41
1
10
131.189363021287
20
10.0143726170458
30
0
41
1
10
131.235570936406
20
10.0102636813137
30
0
41
1
10
131.328439014167
20
10.0151323271948
30
0
41
1
10
131.375138632621
20
10.0241121407156
30
0
41
1
10
131.439072217959
20
10.04933975961
30
0
41
1
10
131.459439176309
20
10.0597809560946
30
0
41
1
10
131.495026910546
20
10.0860660059268
30
0
41
1
10
131.510323108047
20
10.1018451728278
30
0
41
1
10
131.518497406161
20
10.1209942800714
30
0
0
SPLINE
5
268
100
AcDbEntity
8
1
62
256
6
ByLayer
370
18
48
1
60
0
100
AcDbSpline
70
4
71
3
72
14
73
10
40
0
40
0
40
0
40
0
40
0.500000000000119
40
0.500000000000119
40
0.75000000000018
40
0.75000000000018
40
0.87500000000009
40
0.87500000000009
40
1
40
1
40
1
40
1
41
1
10
130.774872496686
20
10.0914442541573
30
0
41
1
10
130.817924396875
20
10.1195162990823
30
0
41
1
10
130.865389828465
20
10.1415205610164
30
0
41
1
10
130.939452523902
20
10.1561013538983
30
0
41
1
10
130.964956728792
20
10.1577782884398
30
0
41
1
10
130.999756137338
20
10.150374627548
30
0
41
1
10
131.010908726979
20
10.1461023362578
30
0
41
1
10
131.029455712384
20
10.1331732459959
30
0
41
1
10
131.036653344144
20
10.1246094970365
30
0
41
1
10
131.041077762946
20
10.1144606827674
30
0
0
SPLINE
5
269
100
AcDbEntity
8
1
62
256
6
ByLayer
370
18
48
1
60
0
100
AcDbSpline
70
4
71
3
72
14
73
10
40
0
40
0
40
0
40
0
40
0.125000000000018
40
0.125000000000018
40
0.250000000000035
40
0.250000000000035
40
0.50000000000006
40
0.50000000000006
40
1
40
1
40
1
40
1
41
1
10
130.442761073186
20
8.93479858194323
30
0
41
1
10
130.432260125149
20
8.93296300885243
30
0
41
1
10
130.421253848503
20
8.93431257985887
30
0
41
1
10
130.400425979739
20
8.9426986869386
30
0
41
1
10
130.390739668769
20
8.94954689755363
30
0
41
1
10
130.36475984232
20
8.97443220940804
30
0
41
1
10
130.351301806942
20
8.9965875298833
30
0
41
1
10
130.319983249125
20
9.06613720306999
30
0
41
1
10
130.309876404476
20
9.11785751076084
30
0
41
1
10
130.307179173245
20
9.16932374855443
30
0
0
SPLINE
5
26A
100
AcDbEntity
8
1
62
256
6
ByLayer
370
18
48
1
60
0
100
AcDbSpline
70
4
71
3
72
8
73
4
40
0
40
0
40
0
40
0
40
1
40
1
40
1
40
1
41
1
10
130.707636509234
20
8.52526660222154
30
0
41
1
10
130.710970153613
20
8.53084154671322
30
0
41
1
10
130.714304069629
20
8.53641681292714
30
0
41
1
10
130.717638275342
20
8.54199242220054
30
0
0
SPLINE
5
26B
100
AcDbEntity
8
1
62
256
6
ByLayer
370
18
48
1
60
0
100
AcDbSpline
70
4
71
3
72
8
73
4
40
0
40
0
40
0
40
0
40
1
40
1
40
1
40
1
41
1
10
132.010484615776
20
8.6097476278569
30
0
41
1
10
132.015090103486
20
8.60458812028398
30
0
41
1
10
132.019695398889
20
8.59942893050976
30
0
41
1
10
132.024300513899
20
8.59427003876795
30
0
0
SPLINE
5
26C
100
AcDbEntity
8
1
62
256
6
ByLayer
370
18
48
1
60
0
100
AcDbSpline
70
4
71
3
72
8
73
4
40
0
40
0
40
0
40
0
40
1
40
1
40
1
40
1
41
1
10
131.621343209237
20
8.33152122838666
30
0
41
1
10
131.61800836204
20
8.3375083998319
30
0
41
1
10
131.614673406779
20
8.34349591647134
30
0
41
1
10
131.611338336335
20
8.34948380119874
30
0
0
SPLINE
5
26D
100
AcDbEntity
8
1
62
256
6
ByLayer
370
18
48
1
60
0
100
AcDbSpline
70
4
71
3
72
8
73
4
40
0
40
0
40
0
40
0
40
1
40
1
40
1
40
1
41
1
10
131.141802967545
20
8.32487649522562
30
0
41
1
10
131.139818808611
20
8.31860984149901
30
0
41
1
10
131.137834857415
20
8.31234357278396
30
0
41
1
10
131.135851100994
20
8.30607766513418
30
0
0
SPLINE
5
26E
100
AcDbEntity
8
1
62
256
6
ByLayer
370
18
48
1
60
0
100
AcDbSpline
70
4
71
3
72
14
73
10
40
0
40
0
40
0
40
0
40
0.499999999999955
40
0.499999999999955
40
0.749999999999933
40
0.749999999999933
40
0.874999999999967
40
0.874999999999967
40
1
40
1
40
1
40
1
41
1
10
130.868698263123
20
8.30114197994419
30
0
41
1
10
130.822947878031
20
8.3245600943024
30
0
41
1
10
130.779927105401
20
8.35499900339286
30
0
41
1
10
130.728821524574
20
8.41288172513538
30
0
41
1
10
130.713934599239
20
8.43457298926137
30
0
41
1
10
130.701303278565
20
8.46935813781519
30
0
41
1
10
130.698758894998
20
8.48152395718193
30
0
41
1
10
130.69910201564
20
8.50489509319351
30
0
41
1
10
130.702019034873
20
8.51587700769684
30
0
41
1
10
130.707636509234
20
8.52526660222154
30
0
0
SPLINE
5
26F
100
AcDbEntity
8
1
62
256
6
ByLayer
370
18
48
1
60
0
100
AcDbSpline
70
4
71
3
72
14
73
10
40
0
40
0
40
0
40
0
40
0.124999999999911
40
0.124999999999911
40
0.249999999999821
40
0.249999999999821
40
0.499999999999881
40
0.499999999999881
40
1
40
1
40
1
40
1
41
1
10
131.135851100994
20
8.30607766513418
30
0
41
1
10
131.132512412492
20
8.29552403329467
30
0
41
1
10
131.126159171976
20
8.28614851740875
30
0
41
1
10
131.109058799212
20
8.27139977699042
30
0
41
1
10
131.098539798672
20
8.26605284593666
30
0
41
1
10
131.064666785502
20
8.25503399985288
30
0
41
1
10
131.039077344248
20
8.25404464883056
30
0
41
1
10
130.963973371095
20
8.26080576905559
30
0
41
1
10
130.914427393331
20
8.27773474526066
30
0
41
1
10
130.868698263123
20
8.30114197994419
30
0
0
SPLINE
5
270
100
AcDbEntity
8
1
62
256
6
ByLayer
370
18
48
1
60
0
100
AcDbSpline
70
4
71
3
72
14
73
10
40
0
40
0
40
0
40
0
40
0.125000000000095
40
0.125000000000095
40
0.25000000000019
40
0.25000000000019
40
0.500000000000126
40
0.500000000000126
40
1
40
1
40
1
40
1
41
1
10
131.526569871189
20
10.1399042460198
30
0
41
1
10
131.531099284929
20
10.1505202811248
30
0
41
1
10
131.538586810646
20
10.1599552423792
30
0
41
1
10
131.557656407782
20
10.1748071854737
30
0
41
1
10
131.569003537957
20
10.1801975169627
30
0
41
1
10
131.604953247874
20
10.1913251981112
30
0
41
1
10
131.631421923452
20
10.1923606278519
30
0
41
1
10
131.708427894587
20
10.1856991871173
30
0
41
1
10
131.758355779798
20
10.1687902258334
30
0
41
1
10
131.804084910006
20
10.1453829911499
30
0
0
SPLINE
5
271
100
AcDbEntity
8
1
62
256
6
ByLayer
370
18
48
1
60
0
100
AcDbSpline
70
4
71
3
72
14
73
10
40
0
40
0
40
0
40
0
40
0.500000000000049
40
0.500000000000049
40
0.750000000000025
40
0.750000000000025
40
0.875000000000012
40
0.875000000000012
40
1
40
1
40
1
40
1
41
1
10
130.307179173245
20
9.16932374855443
30
0
41
1
10
130.304480688342
20
9.22081390783768
30
0
41
1
10
130.309115839711
20
9.27326706214637
30
0
41
1
10
130.333025256308
20
9.34578048480313
30
0
41
1
10
130.344081747932
20
9.36917170159975
30
0
41
1
10
130.367286737661
20
9.39660753098551
30
0
41
1
10
130.376314167614
20
9.40452302965457
30
0
41
1
10
130.396191285068
20
9.41501680248021
30
0
41
1
10
130.406866413878
20
9.41746434142181
30
0
41
1
10
130.417503786089
20
9.41673632941189
30
0
0
SPLINE
5
272
100
AcDbEntity
8
1
62
256
6
ByLayer
370
18
48
1
60
0
100
AcDbSpline
70
4
71
3
72
8
73
4
40
0
40
0
40
0
40
0
40
1
40
1
40
1
40
1
41
1
10
130.417503786089
20
9.41673632941189
30
0
41
1
10
130.423818781513
20
9.41630557651007
30
0
41
1
10
130.430134218331
20
9.41587480336941
30
0
41
1
10
130.436450125859
20
9.41544400865033
30
0
0
SPLINE
5
273
100
AcDbEntity
8
1
62
256
6
ByLayer
370
18
48
1
60
0
100
AcDbSpline
70
4
71
3
72
8
73
4
40
0
40
0
40
0
40
0
40
1
40
1
40
1
40
1
41
1
10
130.461468538622
20
8.93806425501725
30
0
41
1
10
130.455232260606
20
8.93697562812864
30
0
41
1
10
130.448996448466
20
8.93588707190293
30
0
41
1
10
130.442761073186
20
8.93479858194323
30
0
0
SPLINE
5
274
100
AcDbEntity
8
1
62
256
6
ByLayer
370
18
48
1
60
0
100
AcDbSpline
70
4
71
3
72
14
73
10
40
0
40
0
40
0
40
0
40
0.500000000000128
40
0.500000000000128
40
0.750000000000194
40
0.750000000000194
40
0.875000000000097
40
0.875000000000097
40
1
40
1
40
1
40
1
41
1
10
131.897910676443
20
8.35508071693681
30
0
41
1
10
131.854858776254
20
8.32700867201177
30
0
41
1
10
131.807012359844
20
8.3049844435094
30
0
41
1
10
131.731045060435
20
8.29030383456279
30
0
41
1
10
131.704662431406
20
8.288580863763
30
0
41
1
10
131.667789219146
20
8.29587584120742
30
0
41
1
10
131.655798181748
20
8.30010419131258
30
0
41
1
10
131.635277173528
20
8.31292982742252
30
0
41
1
10
131.626958586134
20
8.32143482958651
30
0
41
1
10
131.621343209237
20
8.33152122838663
30
0
0
SPLINE
5
275
100
AcDbEntity
8
1
62
256
6
ByLayer
370
18
48
1
60
0
100
AcDbSpline
70
4
71
3
72
8
73
4
40
0
40
0
40
0
40
0
40
1
40
1
40
1
40
1
41
1
10
131.041077762946
20
10.1144606827674
30
0
41
1
10
131.04370561784
20
10.1084364594255
30
0
41
1
10
131.046333704183
20
10.1024118973559
30
0
41
1
10
131.048962037371
20
10.0963869740983
30
0
0
SPLINE
5
276
100
AcDbEntity
8
1
62
256
6
ByLayer
370
18
48
1
60
0
100
AcDbSpline
70
4
71
3
72
8
73
4
40
0
40
0
40
0
40
0
40
1
40
1
40
1
40
1
41
1
10
132.223850247846
20
9.03042676664677
30
0
41
1
10
132.230872892631
20
9.0300330104578
30
0
41
1
10
132.237895198366
20
9.02963928274738
30
0
41
1
10
132.244917186094
20
9.02924558174212
30
0
0
SPLINE
5
277
100
AcDbEntity
8
1
62
256
6
ByLayer
370
18
48
1
60
0
100
AcDbSpline
70
4
71
3
72
18
73
14
40
0
40
0
40
0
40
0
40
0.124999999999961
40
0.124999999999961
40
0.249999999999921
40
0.249999999999921
40
0.499999999999958
40
0.499999999999958
40
0.749999999999995
40
0.749999999999995
40
0.874999999999997
40
0.874999999999997
40
1
40
1
40
1
40
1
41
1
10
132.198831835084
20
9.50780652027981
30
0
41
1
10
132.177709573765
20
9.50438198523287
30
0
41
1
10
132.155880075307
20
9.50897331009412
30
0
41
1
10
132.114679787977
20
9.52529773267435
30
0
41
1
10
132.095125586803
20
9.53719147792384
30
0
41
1
10
132.040556909748
20
9.57875307785238
30
0
41
1
10
132.009155551892
20
9.61443425029424
30
0
41
1
10
131.958496892597
20
9.69290768325223
30
0
41
1
10
131.939326397812
20
9.73557910390196
30
0
41
1
10
131.92480153933
20
9.80054589638019
30
0
41
1
10
131.922316568251
20
9.8227615387691
30
0
41
1
10
131.925107749293
20
9.86555091177507
30
0
41
1
10
131.930301925501
20
9.88671075196717
30
0
41
1
10
131.942662098364
20
9.90387835309653
30
0
0
SPLINE
5
278
100
AcDbEntity
8
1
62
256
6
ByLayer
370
18
48
1
60
0
100
AcDbSpline
70
4
71
3
72
8
73
4
40
0
40
0
40
0
40
0
40
1
40
1
40
1
40
1
41
1
10
131.518497406161
20
10.1209942800714
30
0
41
1
10
131.521188302351
20
10.1272979723282
30
0
41
1
10
131.523879122465
20
10.1336012864735
30
0
41
1
10
131.526569871189
20
10.1399042460198
30
0
0
SPLINE
5
279
100
AcDbEntity
8
1
62
256
6
ByLayer
370
18
48
1
60
0
100
AcDbSpline
70
4
71
3
72
8
73
4
40
0
40
0
40
0
40
0
40
1
40
1
40
1
40
1
41
1
10
131.954784462949
20
9.92071530893247
30
0
41
1
10
131.950743826267
20
9.91510331254423
30
0
41
1
10
131.946703041333
20
9.90949100090009
30
0
41
1
10
131.942662098364
20
9.90387835309656
30
0
0
SPLINE
5
27A
100
AcDbEntity
8
1
62
256
6
ByLayer
370
18
48
1
60
0
100
AcDbSpline
70
4
71
3
72
14
73
10
40
0
40
0
40
0
40
0
40
0.125000000000008
40
0.125000000000008
40
0.250000000000016
40
0.250000000000016
40
0.499999999999954
40
0.499999999999954
40
1
40
1
40
1
40
1
41
1
10
130.638120458284
20
9.85171187238606
30
0
41
1
10
130.631553561368
20
9.86046113276745
30
0
41
1
10
130.627467667838
20
9.87121594234409
30
0
41
1
10
130.624724784024
20
9.89440239118028
30
0
41
1
10
130.625971538411
20
9.90661923306664
30
0
41
1
10
130.634903073506
20
9.94257780853721
30
0
41
1
10
130.647474096544
20
9.96574551939395
30
0
41
1
10
130.692210510871
20
10.0285839121008
30
0
41
1
10
130.731840597709
20
10.0633852510472
30
0
41
1
10
130.774872496686
20
10.0914442541573
30
0
0
SPLINE
5
27B
100
AcDbEntity
8
1
62
256
6
ByLayer
370
18
48
1
60
0
100
AcDbSpline
70
4
71
3
72
20
73
16
40
0
40
0
40
0
40
0
40
0.125000000000016
40
0.125000000000016
40
0.250000000000032
40
0.250000000000032
40
0.375000000000048
40
0.375000000000048
40
0.500000000000064
40
0.500000000000064
40
0.750000000000029
40
0.750000000000029
40
0.875000000000014
40
0.875000000000014
40
1
40
1
40
1
40
1
41
1
10
132.010484615776
20
8.6097476278569
30
0
41
1
10
131.996407380574
20
8.62551829237788
30
0
41
1
10
131.989027563429
20
8.64597428530283
30
0
41
1
10
131.981758355004
20
8.68838269450399
30
0
41
1
10
131.981915915569
20
8.71064651016061
30
0
41
1
10
131.987043073735
20
8.75485992438212
30
0
41
1
10
131.992135369557
20
8.77727946090363
30
0
41
1
10
132.005949436616
20
8.82072674294446
30
0
41
1
10
132.01469950086
20
8.84199573156315
30
0
41
1
10
132.04633127788
20
8.90451581089235
30
0
41
1
10
132.073807920775
20
8.94328495785243
30
0
41
1
10
132.123852043589
20
8.99042303501301
30
0
41
1
10
132.141965766507
20
9.00422736140345
30
0
41
1
10
132.181325469639
20
9.02480950216562
30
0
41
1
10
132.202479623116
20
9.03162500691204
30
0
41
1
10
132.223850247846
20
9.03042676664677
30
0
0
SPLINE
5
27C
100
AcDbEntity
8
1
62
256
6
ByLayer
370
18
48
1
60
0
100
AcDbSpline
70
4
71
3
72
18
73
14
40
0
40
0
40
0
40
0
40
0.124999999999985
40
0.124999999999985
40
0.24999999999997
40
0.24999999999997
40
0.499999999999938
40
0.499999999999938
40
0.749999999999906
40
0.749999999999906
40
0.874999999999953
40
0.874999999999953
40
1
40
1
40
1
40
1
41
1
10
131.611338336335
20
8.34948380119877
30
0
41
1
10
131.60120594212
20
8.36767580331494
30
0
41
1
10
131.584261581508
20
8.38182388729982
30
0
41
1
10
131.546195650112
20
8.404186858244
30
0
41
1
10
131.524836185958
20
8.41245129436044
30
0
41
1
10
131.458618183476
20
8.43085253796437
30
0
41
1
10
131.411238611092
20
8.43490006974113
30
0
41
1
10
131.318370812824
20
8.43003143850763
30
0
41
1
10
131.272843176096
20
8.42111304594644
30
0
41
1
10
131.212324886237
20
8.39606441510364
30
0
41
1
10
131.19337599753
20
8.38569753649992
30
0
41
1
10
131.161169921702
20
8.35958971187526
30
0
41
1
10
131.14783036715
20
8.34391308828609
30
0
41
1
10
131.141802967545
20
8.32487649522562
30
0
0
SPLINE
5
27D
100
AcDbEntity
8
1
62
256
6
ByLayer
370
18
48
1
60
0
100
AcDbSpline
70
4
71
3
72
14
73
10
40
0
40
0
40
0
40
0
40
0.125
40
0.125
40
0.250000000000001
40
0.250000000000001
40
0.5
40
0.5
40
1
40
1
40
1
40
1
41
1
10
132.244917186094
20
9.02924558174212
30
0
41
1
10
132.256743203711
20
9.02858011533931
30
0
41
1
10
132.26868240344
20
9.03113220780719
30
0
41
1
10
132.290488812446
20
9.0417526827062
30
0
41
1
10
132.300234357495
20
9.04961927374256
30
0
41
1
10
132.325547337077
20
9.07719272765422
30
0
41
1
10
132.33749502065
20
9.10067950544067
30
0
41
1
10
132.363274089654
20
9.17322153845151
30
0
41
1
10
132.368301231115
20
9.22573498474605
30
0
41
1
10
132.365603999884
20
9.27720122253965
30
0
0
SPLINE
5
27E
100
AcDbEntity
8
1
62
256
6
ByLayer
370
18
48
1
60
0
100
AcDbSpline
70
4
71
1
72
4
73
2
40
0
40
0
40
1
40
1
41
1
10
135.856104174251
20
-6.89477901061662
30
0
41
1
10
135.922666934614
20
-7.43325633173495
30
0
0
SPLINE
5
27F
100
AcDbEntity
8
1
62
256
6
ByLayer
370
18
48
1
60
0
100
AcDbSpline
70
4
71
1
72
4
73
2
40
0
40
0
40
1
40
1
41
1
10
136.939180077702
20
-3.07005252273629
30
0
41
1
10
136.8727112996
20
-2.65231723954264
30
0
0
SPLINE
5
280
100
AcDbEntity
8
1
62
256
6
ByLayer
370
18
48
1
60
0
100
AcDbSpline
70
4
71
1
72
4
73
2
40
0
40
0
40
1
40
1
41
1
10
136.974282064937
20
-3.29065742923697
30
0
41
1
10
136.939180077702
20
-3.07005252273629
30
0
0
SPLINE
5
281
100
AcDbEntity
8
1
62
256
6
ByLayer
370
18
48
1
60
0
100
AcDbSpline
70
4
71
1
72
4
73
2
40
0
40
0
40
1
40
1
41
1
10
136.362314323319
20
0.23347660282576
30
0
41
1
10
136.122716851147
20
0.196304592913634
30
0
0
SPLINE
5
282
100
AcDbEntity
8
1
62
256
6
ByLayer
370
18
48
1
60
0
100
AcDbSpline
70
4
71
2
72
12
73
9
40
0
40
0
40
0
40
0.25
40
0.5
40
0.5
40
0.75
40
0.75
40
0.875
40
1
40
1
40
1
41
1
10
136.122716851147
20
0.196304592913634
30
0
41
1
10
136.108814253411
20
0.24456550179201
30
0
41
1
10
136.054402275785
20
0.329900796594586
30
0
41
1
10
136.014967335859
20
0.36400857176983
30
0
41
1
10
135.97725315277
20
0.396628042729759
30
0
41
1
10
135.929642150981
20
0.418095448106897
30
0
41
1
10
135.907530781774
20
0.428065280884795
30
0
41
1
10
135.857914435927
20
0.442282506690276
30
0
41
1
10
135.831959424844
20
0.445683817340637
30
0
0
SPLINE
5
283
100
AcDbEntity
8
1
62
256
6
ByLayer
370
18
48
1
60
0
100
AcDbSpline
70
4
71
3
72
12
73
8
40
0
40
0
40
0
40
0
40
0.264267763051176
40
0.52871144749497
40
0.793155131938764
40
0.925376974160661
40
1
40
1
40
1
40
1
41
1
10
136.071556209521
20
0.482834401058596
30
0
41
1
10
136.107037241436
20
0.478156304093886
30
0
41
1
10
136.176459559575
20
0.457642835542032
30
0
41
1
10
136.266770588358
20
0.397616079450557
30
0
41
1
10
136.323763503161
20
0.327173030548096
30
0
41
1
10
136.350108362916
20
0.269454167466449
30
0
41
1
10
136.359206475483
20
0.243055344925011
30
0
41
1
10
136.362314323318
20
0.233463603974968
30
0
0
SPLINE
5
284
100
AcDbEntity
8
1
62
256
6
ByLayer
370
18
48
1
60
0
100
AcDbSpline
70
4
71
1
72
4
73
2
40
0
40
0
40
1
40
1
41
1
10
136.682503505787
20
-3.1705095888307
30
0
41
1
10
136.992648177144
20
-3.40608264545423
30
0
0
SPLINE
5
285
100
AcDbEntity
8
1
62
256
6
ByLayer
370
18
48
1
60
0
100
AcDbSpline
70
4
71
1
72
4
73
2
40
0
40
0
40
1
40
1
41
1
10
136.482471296343
20
-0.199782035346175
30
0
41
1
10
136.182226087132
20
-0.0264239726066648
30
0
0
SPLINE
5
286
100
AcDbEntity
8
1
62
256
6
ByLayer
370
18
48
1
60
0
100
AcDbSpline
70
4
71
2
72
6
73
3
40
0
40
0
40
0
40
1
40
1
40
1
41
1
10
136.684757418264
20
-3.34189331722135
30
0
41
1
10
136.696112656571
20
-3.25603880445914
30
0
41
1
10
136.682503505787
20
-3.17050958883064
30
0
0
SPLINE
5
287
100
AcDbEntity
8
1
62
256
6
ByLayer
370
18
48
1
60
0
100
AcDbSpline
70
4
71
1
72
4
73
2
40
0
40
0
40
1
40
1
41
1
10
136.946018303682
20
-3.94706615803884
30
0
41
1
10
136.977657051326
20
-3.70785239678722
30
0
0
SPLINE
5
288
100
AcDbEntity
8
1
62
256
6
ByLayer
370
18
48
1
60
0
100
AcDbSpline
70
4
71
1
72
4
73
2
40
0
40
0
40
1
40
1
41
1
10
135.851145200148
20
-7.44903932071114
30
0
41
1
10
135.784582439785
20
-6.910561999593
30
0
0
SPLINE
5
289
100
AcDbEntity
8
1
62
256
6
ByLayer
370
18
48
1
60
0
100
AcDbSpline
70
4
71
1
72
4
73
2
40
0
40
0
40
1
40
1
41
1
10
136.286407700469
20
-7.32943552656431
30
0
41
1
10
136.008341145981
20
-6.85132673233153
30
0
0
SPLINE
5
28A
100
AcDbEntity
8
1
62
256
6
ByLayer
370
18
48
1
60
0
100
AcDbSpline
70
4
71
1
72
4
73
2
40
0
40
0
40
1
40
1
41
1
10
136.992648177144
20
-3.40608264545415
30
0
41
1
10
136.974282064937
20
-3.29065742923697
30
0
0
SPLINE
5
28B
100
AcDbEntity
8
1
62
256
6
ByLayer
370
18
48
1
60
0
100
AcDbSpline
70
4
71
1
72
4
73
2
40
0
40
0
40
1
40
1
41
1
10
136.994902089632
20
-3.57746637384577
30
0
41
1
10
136.684757418264
20
-3.34189331722129
30
0
0
SPLINE
5
28C
100
AcDbEntity
8
1
62
256
6
ByLayer
370
18
48
1
60
0
100
AcDbSpline
70
4
71
1
72
4
73
2
40
0
40
0
40
1
40
1
41
1
10
136.258873772938
20
-6.56190789554765
30
0
41
1
10
136.536940327409
20
-7.04001668977659
30
0
0
SPLINE
5
28D
100
AcDbEntity
8
1
62
256
6
ByLayer
370
18
48
1
60
0
100
AcDbSpline
70
4
71
3
72
12
73
8
40
0
40
0
40
0
40
0
40
0.264267763039343
40
0.528711447483764
40
0.793155131928185
40
0.925376974150395
40
1
40
1
40
1
40
1
41
1
10
136.536935137173
20
-7.04003226529548
30
0
41
1
10
136.532235367667
20
-7.07534991384156
30
0
41
1
10
136.511633578406
20
-7.14445915123738
30
0
41
1
10
136.4513212127
20
-7.23434646251076
30
0
41
1
10
136.380552384116
20
-7.29107701920745
30
0
41
1
10
136.322565480944
20
-7.31729951256489
30
0
41
1
10
136.296043998319
20
-7.32635517878907
30
0
41
1
10
136.286407700469
20
-7.32944852541547
30
0
0
SPLINE
5
28E
100
AcDbEntity
8
1
62
256
6
ByLayer
370
18
48
1
60
0
100
AcDbSpline
70
4
71
2
72
6
73
3
40
0
40
0
40
0
40
1
40
1
40
1
41
1
10
135.784582439785
20
-6.910561999593
30
0
41
1
10
135.820828203863
20
-6.90484766387823
30
0
41
1
10
135.856104174251
20
-6.89477901061665
30
0
0
SPLINE
5
28F
100
AcDbEntity
8
1
62
256
6
ByLayer
370
18
48
1
60
0
100
AcDbSpline
70
4
71
1
72
4
73
2
40
0
40
0
40
1
40
1
41
1
10
136.977657051326
20
-3.70785239678722
30
0
41
1
10
136.994902089632
20
-3.57746637384591
30
0
0
SPLINE
5
290
100
AcDbEntity
8
1
62
256
6
ByLayer
370
18
48
1
60
0
100
AcDbSpline
70
4
71
1
72
4
73
2
40
0
40
0
40
1
40
1
41
1
10
136.166370100339
20
0.0447684899816352
30
0
41
1
10
136.466615309557
20
-0.1285895727558
30
0
0
SPLINE
5
291
100
AcDbEntity
8
1
62
256
6
ByLayer
370
18
48
1
60
0
100
AcDbSpline
70
4
71
3
72
8
73
4
40
0
40
0
40
0
40
0
40
1
40
1
40
1
40
1
41
1
10
136.993317187254
20
-3.40599546411465
30
0
41
1
10
136.997060006046
20
-3.43445543527773
30
0
41
1
10
136.999638871263
20
-3.46299941068693
30
0
41
1
10
137.000016230657
20
-3.4916931854161
30
0
0
SPLINE
5
292
100
AcDbEntity
8
1
62
256
6
ByLayer
370
18
48
1
60
0
100
AcDbSpline
70
4
71
3
72
9
73
5
40
0
40
0
40
0
40
0
40
0.487894208391129
40
1
40
1
40
1
40
1
41
1
10
135.922666934614
20
-7.43326175585705
30
0
41
1
10
135.911154521667
20
-7.43636206285294
30
0
41
1
10
135.887558396218
20
-7.44271652851896
30
0
41
1
10
135.863477279492
20
-7.44690189220142
30
0
41
1
10
135.851145200148
20
-7.44904524118323
30
0
0
SPLINE
5
293
100
AcDbEntity
8
1
62
256
6
ByLayer
370
18
48
1
60
0
100
AcDbSpline
70
4
71
1
72
4
73
2
40
0
40
0
40
1
40
1
41
1
10
135.831959424843
20
0.445683817340694
30
0
41
1
10
136.071556897014
20
0.482855827252678
30
0
0
SPLINE
5
294
100
AcDbEntity
8
1
62
256
6
ByLayer
370
18
48
1
60
0
100
AcDbSpline
70
4
71
3
72
8
73
4
40
0
40
0
40
0
40
0
40
1
40
1
40
1
40
1
41
1
10
137.000016230657
20
-3.4916931854161
30
0
41
1
10
137.0003936493
20
-3.52039146550581
30
0
41
1
10
136.998666439995
20
-3.54899947357154
30
0
41
1
10
136.995767837089
20
-3.57755345635297
30
0
0
SPLINE
5
295
100
AcDbEntity
8
1
62
256
6
ByLayer
370
18
48
1
60
0
100
AcDbSpline
70
4
71
3
72
9
73
5
40
0
40
0
40
0
40
0
40
0.487894208300775
40
1
40
1
40
1
40
1
41
1
10
136.466615309557
20
-0.128594996877922
30
0
41
1
10
136.469730097648
20
-0.140054267727408
30
0
41
1
10
136.476114244126
20
-0.163541471827216
30
0
41
1
10
136.480318349587
20
-0.187512336954484
30
0
41
1
10
136.482471296343
20
-0.199787955818209
30
0
0
SPLINE
5
296
100
AcDbEntity
8
1
62
256
6
ByLayer
370
18
48
1
60
0
100
AcDbSpline
70
4
71
2
72
6
73
3
40
0
40
0
40
0
40
1
40
1
40
1
41
1
10
136.182226087132
20
-0.0264239726066648
30
0
41
1
10
136.176485322081
20
0.009654923164419
30
0
41
1
10
136.166370100339
20
0.0447684899816352
30
0
0
SPLINE
5
297
100
AcDbEntity
8
1
62
256
6
ByLayer
370
18
48
1
60
0
100
AcDbSpline
70
4
71
1
72
4
73
2
40
0
40
0
40
1
40
1
41
1
10
136.887182730266
20
-4.39190926530878
30
0
41
1
10
136.946018303682
20
-3.94706615803884
30
0
0
SPLINE
5
298
100
AcDbEntity
8
1
62
256
6
ByLayer
370
18
48
1
60
0
100
AcDbSpline
70
4
71
3
72
12
73
8
40
0
40
0
40
0
40
0
40
0.124999999577064
40
0.24999999961714
40
0.499999999827378
40
0.749999999508004
40
1
40
1
40
1
40
1
41
1
10
136.361639114652
20
0.235807421441223
30
0
41
1
10
136.366013122882
20
0.220624049147631
30
0
41
1
10
136.374761139359
20
0.1902573045042
30
0
41
1
10
136.392257172811
20
0.129522819692539
30
0
41
1
10
136.414127214761
20
0.053604460783248
30
0
41
1
10
136.440371263862
20
-0.0374951708655544
30
0
41
1
10
136.457867296589
20
-0.0982283960666166
30
0
41
1
10
136.466615312967
20
-0.128595008716417
30
0
0
SPLINE
5
299
100
AcDbEntity
8
1
62
256
6
ByLayer
370
18
48
1
60
0
100
AcDbSpline
70
4
71
2
72
12
73
9
40
0
40
0
40
0
40
0.25
40
0.5
40
0.5
40
0.75
40
0.75
40
0.875
40
1
40
1
40
1
41
1
10
136.00834114598
20
-6.85132673233127
30
0
41
1
10
136.056825266129
20
-6.83748813939826
30
0
41
1
10
136.142555244752
20
-6.78332666372393
30
0
41
1
10
136.176820771616
20
-6.74407327444069
30
0
41
1
10
136.20959111072
20
-6.70653271996673
30
0
41
1
10
136.23115780488
20
-6.65914090979072
30
0
41
1
10
136.241173749079
20
-6.63713133694063
30
0
41
1
10
136.255456730903
20
-6.58774341490852
30
0
41
1
10
136.258873772938
20
-6.56190789554816
30
0
0
SPLINE
5
29A
100
AcDbEntity
8
1
62
256
6
ByLayer
370
18
48
1
60
0
100
AcDbSpline
70
4
71
1
72
4
73
2
40
0
40
0
40
1
40
1
41
1
10
136.8727112996
20
-2.65231723954264
30
0
41
1
10
136.482471296343
20
-0.199782035346118
30
0
0
SPLINE
5
29B
100
AcDbEntity
8
1
62
256
6
ByLayer
370
18
48
1
60
0
100
AcDbSpline
70
4
71
1
72
4
73
2
40
0
40
0
40
1
40
1
41
1
10
136.536940327409
20
-7.04001668977656
30
0
41
1
10
136.887182730266
20
-4.39190926530878
30
0
0
SPLINE
5
29C
100
AcDbEntity
8
1
62
256
6
ByLayer
370
18
48
1
60
0
100
AcDbSpline
70
4
71
3
72
12
73
8
40
0
40
0
40
0
40
0
40
0.125000000092823
40
0.249999999909857
40
0.499999999598897
40
0.749999999485864
40
1
40
1
40
1
40
1
41
1
10
136.288639546761
20
-7.3288115704064
30
0
41
1
10
136.273390687306
20
-7.33316360019793
30
0
41
1
10
136.242892968431
20
-7.34186765977134
30
0
41
1
10
136.181897529056
20
-7.35927677031253
30
0
41
1
10
136.105653229385
20
-7.38103840958266
30
0
41
1
10
136.014160074069
20
-7.40714998102402
30
0
41
1
10
135.953164637157
20
-7.42455783394033
30
0
41
1
10
135.922666918664
20
-7.43326176040941
30
0
0
SPLINE
5
29D
100
AcDbEntity
8
1
62
256
6
ByLayer
370
13
48
1
60
0
100
AcDbSpline
70
4
71
3
72
10
73
6
40
0
40
0
40
0
40
0
40
0.5
40
0.5
40
1
40
1
40
1
40
1
41
1
10
127.82604323486
20
5.67782831008242
30
0
41
1
10
127.8223610763
20
5.67763533632933
30
0
41
1
10
127.801991009857
20
5.67784135554447
30
0
41
1
10
127.740644021774
20
5.67881965134211
30
0
41
1
10
127.699738376686
20
5.67957887521777
30
0
41
1
10
127.660476436228
20
5.68035336325764
30
0
0
SPLINE
5
29E
100
AcDbEntity
8
1
62
256
6
ByLayer
370
13
48
1
60
0
100
AcDbSpline
70
4
71
1
72
4
73
2
40
0
40
0
40
1
40
1
41
1
10
125.593457554335
20
8.84455531322629
30
0
41
1
10
125.722599495106
20
8.85250709036396
30
0
0
SPLINE
5
29F
100
AcDbEntity
8
1
62
256
6
ByLayer
370
13
48
1
60
0
100
AcDbSpline
70
4
71
3
72
14
73
10
40
0
40
0
40
0
40
0
40
0.248695977282459
40
0.248695977282459
40
0.496731428084418
40
0.496731428084418
40
0.748365550121253
40
0.748365550121253
40
1
40
1
40
1
40
1
41
1
10
135.766856763138
20
5.56204242965873
30
0
41
1
10
135.753934710784
20
5.56149104994415
30
0
41
1
10
135.741343429005
20
5.56121252313972
30
0
41
1
10
135.716986396237
20
5.56113704820837
30
0
41
1
10
135.705131531821
20
5.56129468779594
30
0
41
1
10
135.68107504669
20
5.5615014310707
30
0
41
1
10
135.668908075707
20
5.56157431107388
30
0
41
1
10
135.644598473404
20
5.56173461304129
30
0
41
1
10
135.632452901655
20
5.56182034316907
30
0
41
1
10
135.620307350017
20
5.56190608171289
30
0
0
SPLINE
5
2A0
100
AcDbEntity
8
1
62
256
6
ByLayer
370
13
48
1
60
0
100
AcDbSpline
70
4
71
2
72
6
73
3
40
0
40
0
40
0
40
1
40
1
40
1
41
1
10
136.94994704578
20
9.59400547935974
30
0
41
0.997409491337351
10
136.950520707763
20
9.55073787909386
30
0
41
1
10
136.944906286435
20
9.50783815123162
30
0
0
SPLINE
5
2A1
100
AcDbEntity
8
1
62
256
6
ByLayer
370
13
48
1
60
0
100
AcDbSpline
70
4
71
2
72
6
73
3
40
0
40
0
40
0
40
1
40
1
40
1
41
1
10
125.722599495106
20
8.85250709036396
30
0
41
0.997409491337352
10
125.723173157089
20
8.80923949009671
30
0
41
1
10
125.729923029172
20
8.7664995367426
30
0
0
SPLINE
5
2A2
100
AcDbEntity
8
1
62
256
6
ByLayer
370
13
48
1
60
0
100
AcDbSpline
70
4
71
3
72
16
73
12
40
0
40
0
40
0
40
0
40
0.5
40
0.5
40
0.75
40
0.75
40
0.8125
40
0.8125
40
0.875
40
0.875
40
1
40
1
40
1
40
1
41
1
10
131.498253055015
20
6.13249787479646
30
0
41
1
10
132.051353038263
20
6.16148461664
30
0
41
1
10
132.604454189791
20
6.19044906413828
30
0
41
1
10
133.434103948453
20
6.23393330285526
30
0
41
1
10
133.710651523908
20
6.2484878024535
30
0
41
1
10
134.056339565015
20
6.26657594405896
30
0
41
1
10
134.125478070481
20
6.2701659905276
30
0
41
1
10
134.263752656922
20
6.27742061383748
30
0
41
1
10
134.332864016406
20
6.28184514506177
30
0
41
1
10
134.540822575794
20
6.27592179716433
30
0
41
1
10
134.680097594131
20
6.25343591974001
30
0
41
1
10
134.817807446817
20
6.2096501446178
30
0
0
SPLINE
5
2A3
100
AcDbEntity
8
1
62
256
6
ByLayer
370
13
48
1
60
0
100
AcDbSpline
70
4
71
3
72
8
73
4
40
0
40
0
40
0
40
0
40
1
40
1
40
1
40
1
41
1
10
135.916103334469
20
5.56439977083676
30
0
41
1
10
135.864692395766
20
5.56246212975469
30
0
41
1
10
135.815725959849
20
5.56224038496325
30
0
41
1
10
135.766856763138
20
5.56204242965867
30
0
0
SPLINE
5
2A4
100
AcDbEntity
8
1
62
256
6
ByLayer
370
13
48
1
60
0
100
AcDbSpline
70
4
71
2
72
6
73
3
40
0
40
0
40
0
40
1
40
1
40
1
41
0.999764304478473
10
125.597750375058
20
8.92251304355825
30
0
41
0.997533251691874
10
125.592938776071
20
8.88368339072906
30
0
41
1
10
125.593457554335
20
8.84455531322629
30
0
0
SPLINE
5
2A5
100
AcDbEntity
8
1
62
256
6
ByLayer
370
13
48
1
60
0
100
AcDbSpline
70
4
71
2
72
6
73
3
40
0
40
0
40
0
40
1
40
1
40
1
41
1
10
125.722599495106
20
8.85250709036396
30
0
41
0.997409491337351
10
125.722025833122
20
8.89577469062985
30
0
41
1
10
125.72764025445
20
8.9386744184921
30
0
0
SPLINE
5
2A6
100
AcDbEntity
8
1
62
256
6
ByLayer
370
13
48
1
60
0
100
AcDbSpline
70
4
71
2
72
6
73
3
40
0
40
0
40
0
40
1
40
1
40
1
41
1
10
136.94994704578
20
9.59400547935974
30
0
41
0.997409491337352
10
136.949373383796
20
9.637273079627
30
0
41
1
10
136.942623511713
20
9.68001303298109
30
0
0
SPLINE
5
2A7
100
AcDbEntity
8
1
62
256
6
ByLayer
370
13
48
1
60
0
100
AcDbSpline
70
4
71
2
72
6
73
3
40
0
40
0
40
0
40
1
40
1
40
1
41
0.998720635644484
10
125.595103169658
20
8.80811589347698
30
0
41
0.998848208416418
10
125.593699467064
20
8.8263094061757
30
0
41
1
10
125.593457554335
20
8.84455531322629
30
0
0
SPLINE
5
2A8
100
AcDbEntity
8
1
62
256
6
ByLayer
370
13
48
1
60
0
100
AcDbSpline
70
4
71
3
72
18
73
14
40
0
40
0
40
0
40
0
40
0.125000000000041
40
0.125000000000041
40
0.187500000000051
40
0.187500000000051
40
0.218750000000056
40
0.218750000000056
40
0.250000000000061
40
0.250000000000061
40
0.500000000000033
40
0.500000000000033
40
1
40
1
40
1
40
1
41
1
10
134.789389639248
20
12.6662989454855
30
0
41
1
10
134.661570976162
20
12.5775287729764
30
0
41
1
10
134.524141598861
20
12.5094403042483
30
0
41
1
10
134.30393894237
20
12.4375608787548
30
0
41
1
10
134.22820305529
20
12.4188163507182
30
0
41
1
10
134.114993123778
20
12.3993751077672
30
0
41
1
10
134.077156366431
20
12.3943013139626
30
0
41
1
10
134.001285089723
20
12.3869323334278
30
0
41
1
10
133.963219598222
20
12.3850723131933
30
0
41
1
10
133.620708594002
20
12.3672303200232
30
0
41
1
10
133.316268804196
20
12.35116793869
30
0
41
1
10
132.402926594832
20
12.3033017017717
30
0
41
1
10
131.794031788589
20
12.2713908771596
30
0
41
1
10
131.185136982347
20
12.2394800525474
30
0
0
SPLINE
5
2A9
100
AcDbEntity
8
1
62
256
6
ByLayer
370
13
48
1
60
0
100
AcDbSpline
70
4
71
3
72
8
73
4
40
0
40
0
40
0
40
0
40
1
40
1
40
1
40
1
41
1
10
125.595103169658
20
8.80811589347687
30
0
41
1
10
125.597051914946
20
8.79461818189091
30
0
41
1
10
125.59943618867
20
8.77978404985635
30
0
41
1
10
125.602593248112
20
8.76292509215745
30
0
0
SPLINE
5
2AA
100
AcDbEntity
8
1
62
256
6
ByLayer
370
13
48
1
60
0
100
AcDbSpline
70
4
71
3
72
10
73
6
40
0
40
0
40
0
40
0
40
0.5
40
0.5
40
1
40
1
40
1
40
1
41
1
10
134.869292869701
20
12.8584333995436
30
0
41
1
10
134.865612288149
20
12.858240508438
30
0
41
1
10
134.875067467609
20
12.8475454236519
30
0
41
1
10
134.914191285962
20
12.8124039338852
30
0
41
1
10
134.943896260583
20
12.7880617950421
30
0
41
1
10
134.97517250595
20
12.764225485257
30
0
0
SPLINE
5
2AB
100
AcDbEntity
8
1
62
256
6
ByLayer
370
13
48
1
60
0
100
AcDbSpline
70
4
71
2
72
6
73
3
40
0
40
0
40
0
40
1
40
1
40
1
41
0.999764304477958
10
125.597750375057
20
8.92251304355028
30
0
41
0.997533251692159
10
125.588906330575
20
8.9606270344262
30
0
41
1
10
125.585332269106
20
8.9995949913166
30
0
0
SPLINE
5
2AC
100
AcDbEntity
8
1
62
256
6
ByLayer
370
13
48
1
60
0
100
AcDbSpline
70
4
71
1
72
4
73
2
40
0
40
0
40
1
40
1
41
1
10
125.729923029172
20
8.7664995367426
30
0
41
1
10
125.602593248112
20
8.76292509215745
30
0
0
SPLINE
5
2AD
100
AcDbEntity
8
1
62
256
6
ByLayer
370
13
48
1
60
0
100
AcDbSpline
70
4
71
3
72
20
73
16
40
0
40
0
40
0
40
0
40
0.062499999999959
40
0.062499999999959
40
0.124999999999918
40
0.124999999999918
40
0.187499999999877
40
0.187499999999877
40
0.218749999999868
40
0.218749999999868
40
0.249999999999858
40
0.249999999999858
40
0.499999999999898
40
0.499999999999898
40
1
40
1
40
1
40
1
41
1
10
127.932570987041
20
5.71888439614091
30
0
41
1
10
127.994507530781
20
5.76189937955277
30
0
41
1
10
128.05918253613
20
5.79996828316891
30
0
41
1
10
128.193938644013
20
5.86634185343681
30
0
41
1
10
128.264553643248
20
5.89479984089257
30
0
41
1
10
128.408862622461
20
5.94064238186056
30
0
41
1
10
128.481991252965
20
5.95800766543732
30
0
41
1
10
128.593131723384
20
5.97579967207938
30
0
41
1
10
128.630424484609
20
5.98032764147985
30
0
41
1
10
128.705500502264
20
5.98658605382158
30
0
41
1
10
128.74332169106
20
5.98810015051734
30
0
41
1
10
129.082972084452
20
6.00594933519017
30
0
41
1
10
129.38488069554
20
6.02174072263813
30
0
41
1
10
130.290611706743
20
6.06920807356309
30
0
41
1
10
130.894432380879
20
6.1008529741797
30
0
41
1
10
131.498253055014
20
6.13249787479634
30
0
0
SPLINE
5
2AE
100
AcDbEntity
8
1
62
256
6
ByLayer
370
13
48
1
60
0
100
AcDbSpline
70
4
71
3
72
8
73
4
40
0
40
0
40
0
40
0
40
1
40
1
40
1
40
1
41
1
10
135.68643236679
20
13.5218134161098
30
0
41
1
10
135.63665027932
20
13.5218246997729
30
0
41
1
10
135.58686324718
20
13.5213991504455
30
0
41
1
10
135.537071991588
20
13.5206004836085
30
0
0
SPLINE
5
2AF
100
AcDbEntity
8
1
62
256
6
ByLayer
370
13
48
1
60
0
100
AcDbSpline
70
4
71
2
72
6
73
3
40
0
40
0
40
0
40
1
40
1
40
1
41
0.998720635644484
10
125.583159913027
20
9.03600680575262
30
0
41
0.998848208416418
10
125.583665639986
20
9.017766232145
30
0
41
1
10
125.585332269106
20
8.9995949913166
30
0
0
SPLINE
5
2B0
100
AcDbEntity
8
1
62
256
6
ByLayer
370
13
48
1
60
0
100
AcDbSpline
70
4
71
3
72
16
73
12
40
0
40
0
40
0
40
0
40
0.5
40
0.5
40
0.75
40
0.75
40
0.8125
40
0.8125
40
0.875
40
0.875
40
1
40
1
40
1
40
1
41
1
10
131.174293485871
20
12.3140146949272
30
0
41
1
10
130.621193502622
20
12.2850279530837
30
0
41
1
10
130.068092351094
20
12.2560635055854
30
0
41
1
10
129.238442592432
20
12.2125792668684
30
0
41
1
10
128.961895016978
20
12.1980247672702
30
0
41
1
10
128.61620697587
20
12.1799366256647
30
0
41
1
10
128.547068470404
20
12.1763465791961
30
0
41
1
10
128.408793883963
20
12.1690919558862
30
0
41
1
10
128.339682524479
20
12.1646674246619
30
0
41
1
10
128.131723965091
20
12.1705907725594
30
0
41
1
10
127.992448946755
20
12.1930766499837
30
0
41
1
10
127.854739094069
20
12.2368624251059
30
0
0
SPLINE
5
2B1
100
AcDbEntity
8
1
62
256
6
ByLayer
370
13
48
1
60
0
100
AcDbSpline
70
4
71
3
72
20
73
16
40
0
40
0
40
0
40
0
40
0.0624999999999944
40
0.0624999999999944
40
0.124999999999989
40
0.124999999999989
40
0.187499999999983
40
0.187499999999983
40
0.21874999999998
40
0.21874999999998
40
0.249999999999978
40
0.249999999999978
40
0.499999999999977
40
0.499999999999977
40
1
40
1
40
1
40
1
41
1
10
134.739975553844
20
12.727628173583
30
0
41
1
10
134.678039010104
20
12.6846131901711
30
0
41
1
10
134.613364004756
20
12.646544286555
30
0
41
1
10
134.478607896873
20
12.5801707162871
30
0
41
1
10
134.407992897638
20
12.5517127288313
30
0
41
1
10
134.263683918425
20
12.5058701878633
30
0
41
1
10
134.190555287921
20
12.4885049042865
30
0
41
1
10
134.079414817502
20
12.4707128976444
30
0
41
1
10
134.042122056277
20
12.4661849282439
30
0
41
1
10
133.967046038622
20
12.4599265159021
30
0
41
1
10
133.929224849826
20
12.4584124192064
30
0
41
1
10
133.589574456434
20
12.4405632345336
30
0
41
1
10
133.287665845347
20
12.4247718470856
30
0
41
1
10
132.381934834143
20
12.3773044961607
30
0
41
1
10
131.778114160007
20
12.345659595544
30
0
41
1
10
131.174293485871
20
12.3140146949273
30
0
0
SPLINE
5
2B2
100
AcDbEntity
8
1
62
256
6
ByLayer
370
13
48
1
60
0
100
AcDbSpline
70
4
71
2
72
6
73
3
40
0
40
0
40
0
40
1
40
1
40
1
41
1
10
125.598245351682
20
8.9263984794697
30
0
41
0.999876239645478
10
125.597991214307
20
8.9244566187476
30
0
41
0.999764304478473
10
125.597750375058
20
8.92251304355825
30
0
0
SPLINE
5
2B3
100
AcDbEntity
8
1
62
256
6
ByLayer
370
13
48
1
60
0
100
AcDbSpline
70
4
71
3
72
14
73
10
40
0
40
0
40
0
40
0
40
0.248695977282356
40
0.248695977282356
40
0.496731428084307
40
0.496731428084307
40
0.748365550121177
40
0.748365550121177
40
1
40
1
40
1
40
1
41
1
10
126.545137384679
20
12.8655743898291
30
0
41
1
10
126.5589690821
20
12.8661734420215
30
0
41
1
10
126.572616629808
20
12.8665073253777
30
0
41
1
10
126.599321187017
20
12.8667058288518
30
0
41
1
10
126.612446259254
20
12.8666147580353
30
0
41
1
10
126.639006013946
20
12.8665392055592
30
0
41
1
10
126.652418249755
20
12.8665315871202
30
0
41
1
10
126.679225535558
20
12.8665021831983
30
0
41
1
10
126.692622704389
20
12.8664820464942
30
0
41
1
10
126.706019856657
20
12.8664619015599
30
0
0
SPLINE
5
2B4
100
AcDbEntity
8
1
62
256
6
ByLayer
370
13
48
1
60
0
100
AcDbSpline
70
4
71
3
72
11
73
7
40
0
40
0
40
0
40
0
40
0.25
40
0.5
40
0.75
40
1
40
1
40
1
40
1
41
1
10
126.391050390156
20
13.0412778022027
30
0
41
1
10
126.404198947462
20
13.042440593593
30
0
41
1
10
126.430519218597
20
13.0445064897594
30
0
41
1
10
126.470051903431
20
13.046820003862
30
0
41
1
10
126.509575921809
20
13.0492600618294
30
0
41
1
10
126.535926230253
20
13.0508727067068
30
0
41
1
10
126.549101384596
20
13.0516790291528
30
0
0
SPLINE
5
2B5
100
AcDbEntity
8
1
62
256
6
ByLayer
370
13
48
1
60
0
100
AcDbSpline
70
4
71
1
72
4
73
2
40
0
40
0
40
1
40
1
41
1
10
125.72764025445
20
8.9386744184921
30
0
41
1
10
125.598245351682
20
8.9263984794697
30
0
0
SPLINE
5
2B6
100
AcDbEntity
8
1
62
256
6
ByLayer
370
13
48
1
60
0
100
AcDbSpline
70
4
71
3
72
22
73
18
40
0
40
0
40
0
40
0
40
0.125000000000009
40
0.125000000000009
40
0.250000000000018
40
0.250000000000018
40
0.375000000000026
40
0.375000000000026
40
0.500000000000035
40
0.500000000000035
40
0.625000000000044
40
0.625000000000044
40
0.687500000000049
40
0.687500000000049
40
0.750000000000054
40
0.750000000000054
40
1
40
1
40
1
40
1
41
1
10
126.256511570416
20
5.43215935769936
30
0
41
1
10
126.26339892615
20
5.38488973539836
30
0
41
1
10
126.275659041467
20
5.33920563589805
30
0
41
1
10
126.311936427373
20
5.25130702035136
30
0
41
1
10
126.335620750674
20
5.20994603495777
30
0
41
1
10
126.391153325168
20
5.1339757599614
30
0
41
1
10
126.424115049619
20
5.0988903829695
30
0
41
1
10
126.496221363403
20
5.03816525221393
30
0
41
1
10
126.535327524997
20
5.0120536488752
30
0
41
1
10
126.620386466747
20
4.96936358035282
30
0
41
1
10
126.664793362829
20
4.9533202630966
30
0
41
1
10
126.733414848642
20
4.93692619620367
30
0
41
1
10
126.756683440658
20
4.93276199336603
30
0
41
1
10
126.803979237987
20
4.92721545017716
30
0
41
1
10
126.827645346377
20
4.92605090245868
30
0
41
1
10
126.946021225665
20
4.92423345524043
30
0
41
1
10
127.040740187458
20
4.92439251822671
30
0
41
1
10
127.135474549297
20
4.92591208611523
30
0
0
SPLINE
5
2B7
100
AcDbEntity
8
1
62
256
6
ByLayer
370
13
48
1
60
0
100
AcDbSpline
70
4
71
3
72
22
73
18
40
0
40
0
40
0
40
0
40
0.124999999999983
40
0.124999999999983
40
0.249999999999965
40
0.249999999999965
40
0.499999999999976
40
0.499999999999976
40
0.624999999999982
40
0.624999999999982
40
0.749999999999987
40
0.749999999999987
40
0.81249999999999
40
0.81249999999999
40
0.874999999999994
40
0.874999999999994
40
1
40
1
40
1
40
1
41
1
10
136.41603497047
20
13.0143532120243
30
0
41
1
10
136.410052592832
20
13.0554117462892
30
0
41
1
10
136.400032248453
20
13.0952786604494
30
0
41
1
10
136.371164232538
20
13.1724075092881
30
0
41
1
10
136.352196663581
20
13.2095517569542
30
0
41
1
10
136.28595784888
20
13.3127715223869
30
0
41
1
10
136.226753761221
20
13.3727066704394
30
0
41
1
10
136.125051230379
20
13.4410279059425
30
0
41
1
10
136.08823136566
20
13.46053221305
30
0
41
1
10
136.012189593635
20
13.4912338735748
30
0
41
1
10
135.973058239752
20
13.5027933980241
30
0
41
1
10
135.912604304289
20
13.5141343456731
30
0
41
1
10
135.892055384262
20
13.5168660264482
30
0
41
1
10
135.850959067382
20
13.5203544631831
30
0
41
1
10
135.830395745432
20
13.5207590729957
30
0
41
1
10
135.768699020439
20
13.5213757717063
30
0
41
1
10
135.727568065001
20
13.5218040922468
30
0
41
1
10
135.68643236679
20
13.5218134161098
30
0
0
SPLINE
5
2B8
100
AcDbEntity
8
1
62
256
6
ByLayer
370
13
48
1
60
0
100
AcDbSpline
70
4
71
3
72
18
73
14
40
0
40
0
40
0
40
0
40
0.5
40
0.5
40
0.75
40
0.75
40
0.8125
40
0.8125
40
0.84375
40
0.84375
40
0.875
40
0.875
40
1
40
1
40
1
40
1
41
1
10
131.185136982346
20
12.2394800525473
30
0
41
1
10
130.625489342876
20
12.2101501625817
30
0
41
1
10
130.06584046197
20
12.1808440191865
30
0
41
1
10
129.226369339932
20
12.1368426931257
30
0
41
1
10
128.946549040387
20
12.1221103283737
30
0
41
1
10
128.596767110268
20
12.1038204074626
30
0
41
1
10
128.526808732497
20
12.100200563315
30
0
41
1
10
128.421877148601
20
12.0946562330247
30
0
41
1
10
128.386864228607
20
12.0925035753998
30
0
41
1
10
128.316924784999
20
12.0909857764981
30
0
41
1
10
128.282127589313
20
12.0914753518197
30
0
41
1
10
128.108903117379
20
12.0994338239568
30
0
41
1
10
127.972734735511
20
12.1232490727814
30
0
41
1
10
127.839145038323
20
12.165724816714
30
0
0
SPLINE
5
2B9
100
AcDbEntity
8
1
62
256
6
ByLayer
370
13
48
1
60
0
100
AcDbSpline
70
4
71
3
72
18
73
14
40
0
40
0
40
0
40
0
40
0.499999999999939
40
0.499999999999939
40
0.74999999999992
40
0.74999999999992
40
0.812499999999916
40
0.812499999999916
40
0.843749999999926
40
0.843749999999926
40
0.874999999999935
40
0.874999999999935
40
1
40
1
40
1
40
1
41
1
10
131.501246158054
20
6.20775766262977
30
0
41
1
10
132.060893797525
20
6.23708755259543
30
0
41
1
10
132.62054267843
20
6.26639369599064
30
0
41
1
10
133.460013800468
20
6.31039502205141
30
0
41
1
10
133.739834100014
20
6.32512738680336
30
0
41
1
10
134.089616030132
20
6.34341730771453
30
0
41
1
10
134.159574407903
20
6.34703715186205
30
0
41
1
10
134.264505991799
20
6.35258148215235
30
0
41
1
10
134.299518911794
20
6.35473413977729
30
0
41
1
10
134.369458355401
20
6.35625193867895
30
0
41
1
10
134.404255551088
20
6.3557623633574
30
0
41
1
10
134.577480023022
20
6.34780389122028
30
0
41
1
10
134.71364840489
20
6.3239886423957
30
0
41
1
10
134.847238102077
20
6.28151289846312
30
0
0
SPLINE
5
2BA
100
AcDbEntity
8
1
62
256
6
ByLayer
370
13
48
1
60
0
100
AcDbSpline
70
4
71
1
72
4
73
2
40
0
40
0
40
1
40
1
41
1
10
126.256511570416
20
5.43215935769936
30
0
41
1
10
126.226480391294
20
5.43131631230378
30
0
0
SPLINE
5
2BB
100
AcDbEntity
8
1
62
256
6
ByLayer
370
13
48
1
60
0
100
AcDbSpline
70
4
71
3
72
10
73
6
40
0
40
0
40
0
40
0
40
0.5
40
0.5
40
1
40
1
40
1
40
1
41
1
10
127.794029271508
20
5.58759573987783
30
0
41
1
10
127.790348689956
20
5.58740284877223
30
0
41
1
10
127.773695239368
20
5.5977206881538
30
0
41
1
10
127.724393777188
20
5.63232879020924
30
0
41
1
10
127.691752681595
20
5.65651705347256
30
0
41
1
10
127.660476436228
20
5.68035336325764
30
0
0
SPLINE
5
2BC
100
AcDbEntity
8
1
62
256
6
ByLayer
370
13
48
1
60
0
100
AcDbSpline
70
4
71
3
72
11
73
7
40
0
40
0
40
0
40
0
40
0.25
40
0.5
40
0.75
40
1
40
1
40
1
40
1
41
1
10
127.135474549297
20
4.92591208611523
30
0
41
1
10
127.148672622227
20
4.92613006310714
30
0
41
1
10
127.175064653115
20
4.92682670163069
30
0
41
1
10
127.214622601839
20
4.92865815199502
30
0
41
1
10
127.254185159018
20
4.93036284582351
30
0
41
1
10
127.280559685006
20
4.9315133924319
30
0
41
1
10
127.293746948121
20
4.93208866574133
30
0
0
SPLINE
5
2BD
100
AcDbEntity
8
1
62
256
6
ByLayer
370
13
48
1
60
0
100
AcDbSpline
70
4
71
1
72
4
73
2
40
0
40
0
40
1
40
1
41
1
10
126.706019856657
20
12.8664619015599
30
0
41
1
10
126.549101384596
20
13.0516790291528
30
0
0
SPLINE
5
2BE
100
AcDbEntity
8
1
62
256
6
ByLayer
370
13
48
1
60
0
100
AcDbSpline
70
4
71
3
72
24
73
20
40
0
40
0
40
0
40
0
40
0.24999999999996
40
0.24999999999996
40
0.499999999999921
40
0.499999999999921
40
0.624999999999973
40
0.624999999999973
40
0.750000000000025
40
0.750000000000025
40
0.81250000000012
40
0.81250000000012
40
0.8437500000001
40
0.8437500000001
40
0.87500000000008
40
0.87500000000008
40
0.93750000000004
40
0.93750000000004
40
1
40
1
40
1
40
1
41
1
10
136.36622465611
20
5.6669683492911
30
0
41
1
10
136.341106539163
20
5.65305071231603
30
0
41
1
10
136.312973409144
20
5.63896956507477
30
0
41
1
10
136.247889658838
20
5.6120396877532
30
0
41
1
10
136.210759638416
20
5.5989726561356
30
0
41
1
10
136.146802947533
20
5.58305831863623
30
0
41
1
10
136.124436736722
20
5.57863206558955
30
0
41
1
10
136.080369925635
20
5.57276963375236
30
0
41
1
10
136.059160124721
20
5.57133399309754
30
0
41
1
10
136.028778787324
20
5.57012493855987
30
0
41
1
10
136.019071222448
20
5.57004096952051
30
0
41
1
10
136.004095381449
20
5.56959793107347
30
0
41
1
10
135.998947574933
20
5.56931637616779
30
0
41
1
10
135.988235215505
20
5.56839530200205
30
0
41
1
10
135.982721466085
20
5.56779942046296
30
0
41
1
10
135.966911036117
20
5.5666395120254
30
0
41
1
10
135.956805563675
20
5.56623972328237
30
0
41
1
10
135.936377838474
20
5.56525394240515
30
0
41
1
10
135.926185768187
20
5.56477977046856
30
0
41
1
10
135.916103334469
20
5.56439977083676
30
0
0
SPLINE
5
2BF
100
AcDbEntity
8
1
62
256
6
ByLayer
370
13
48
1
60
0
100
AcDbSpline
70
4
71
3
72
11
73
7
40
0
40
0
40
0
40
0
40
0.25
40
0.5
40
0.75
40
1
40
1
40
1
40
1
41
1
10
135.537071991588
20
13.5206004836085
30
0
41
1
10
135.523873918658
20
13.5203825066166
30
0
41
1
10
135.49748188777
20
13.519685868093
30
0
41
1
10
135.457923939046
20
13.5178544177287
30
0
41
1
10
135.418361381867
20
13.5161497239002
30
0
41
1
10
135.391986855879
20
13.5149991772918
30
0
41
1
10
135.378799592764
20
13.5144239039824
30
0
0
SPLINE
5
2C0
100
AcDbEntity
8
1
62
256
6
ByLayer
370
13
48
1
60
0
100
AcDbSpline
70
4
71
1
72
4
73
2
40
0
40
0
40
1
40
1
41
1
10
126.391050390156
20
13.0412778022027
30
0
41
1
10
126.545137384679
20
12.8655743898291
30
0
0
SPLINE
5
2C1
100
AcDbEntity
8
1
62
256
6
ByLayer
370
13
48
1
60
0
100
AcDbSpline
70
4
71
3
72
18
73
14
40
0
40
0
40
0
40
0
40
0.125000000000035
40
0.125000000000035
40
0.187500000000063
40
0.187500000000063
40
0.218750000000065
40
0.218750000000065
40
0.250000000000068
40
0.250000000000068
40
0.500000000000045
40
0.500000000000045
40
1
40
1
40
1
40
1
41
1
10
127.896993501152
20
5.7809387696916
30
0
41
1
10
128.024812164238
20
5.8697089422007
30
0
41
1
10
128.16224154154
20
5.93779741092885
30
0
41
1
10
128.38244419803
20
6.00967683642227
30
0
41
1
10
128.458180085111
20
6.02842136445886
30
0
41
1
10
128.571390016622
20
6.04786260740991
30
0
41
1
10
128.609226773969
20
6.05293640121457
30
0
41
1
10
128.685098050678
20
6.06030538174929
30
0
41
1
10
128.723163542178
20
6.06216540198383
30
0
41
1
10
129.065674546398
20
6.08000739515387
30
0
41
1
10
129.370114336205
20
6.09606977648713
30
0
41
1
10
130.283456545569
20
6.14393601340535
30
0
41
1
10
130.892351351811
20
6.17584683801749
30
0
41
1
10
131.501246158054
20
6.20775766262966
30
0
0
SPLINE
5
2C2
100
AcDbEntity
8
1
62
256
6
ByLayer
370
13
48
1
60
0
100
AcDbSpline
70
4
71
3
72
8
73
4
40
0
40
0
40
0
40
0
40
1
40
1
40
1
40
1
41
1
10
30
20
-4.53213725360749
30
0
41
1
10
28.3333330047537
20
-4.53240952744667
30
0
41
1
10
26.6666662470574
20
-4.53207157630135
30
0
41
1
10
25
20
-4.53042167150286
30
0
0
SPLINE
5
2C3
100
AcDbEntity
8
1
62
256
6
ByLayer
370
13
48
1
60
0
100
AcDbSpline
70
4
71
3
72
10
73
6
40
0
40
0
40
0
40
0
40
0.5
40
0.5
40
1
40
1
40
1
40
1
41
1
10
129.486028338862
20
4.90114001578672
30
0
41
1
10
129.875143467505
20
5.01583781021807
30
0
41
1
10
130.253117112734
20
5.09896437554269
30
0
41
1
10
130.983515850441
20
5.21755209711893
30
0
41
1
10
131.335832635118
20
5.25279184026118
30
0
41
1
10
131.670803367399
20
5.27034691246487
30
0
0
SPLINE
5
2C4
100
AcDbEntity
8
1
62
256
6
ByLayer
370
13
48
1
60
0
100
AcDbSpline
70
4
71
3
72
38
73
34
40
0
40
0
40
0
40
0
40
0.125
40
0.125
40
0.187500000000001
40
0.187500000000001
40
0.250000000000001
40
0.250000000000001
40
0.312500000000001
40
0.312500000000001
40
0.343750000000001
40
0.343750000000001
40
0.375000000000001
40
0.375000000000001
40
0.500000000000001
40
0.500000000000001
40
0.531250000000001
40
0.531250000000001
40
0.562500000000001
40
0.562500000000001
40
0.625
40
0.625
40
0.65625
40
0.65625
40
0.6875
40
0.6875
40
0.75
40
0.75
40
0.8125
40
0.8125
40
0.875
40
0.875
40
1
40
1
40
1
40
1
41
1
10
5.05339999999998
20
-4.41588043316398
30
0
41
1
10
5.43952824440584
20
-4.17317254394499
30
0
41
1
10
5.79912354617181
20
-3.89951377230176
30
0
41
1
10
6.29288812322793
20
-3.43579976245593
30
0
41
1
10
6.44981205649324
20
-3.27228800844776
30
0
41
1
10
6.74627303234453
20
-2.92498255822687
30
0
41
1
10
6.8835099821861
20
-2.74378139778713
30
0
41
1
10
7.13313231271698
20
-2.36730031804734
30
0
41
1
10
7.24578213507172
20
-2.17173411358078
30
0
41
1
10
7.39467964844613
20
-1.86629083157015
30
0
41
1
10
7.4409561350011
20
-1.76245482966542
30
0
41
1
10
7.52634464270542
20
-1.55046714534592
30
0
41
1
10
7.56518050069039
20
-1.44291443562619
30
0
41
1
10
7.73777167092712
20
-0.903133321301539
30
0
41
1
10
7.80995067746755
20
-0.459460142794427
30
0
41
1
10
7.81033174830614
20
0.111285807001451
30
0
41
1
10
7.80580055961656
20
0.226047644260802
30
0
41
1
10
7.7878321155265
20
0.452721652273681
30
0
41
1
10
7.77440533281839
20
0.565192089373028
30
0
41
1
10
7.72119565037366
20
0.900081401738021
30
0
41
1
10
7.6685258793355
20
1.1199865609168
30
0
41
1
10
7.5644802329258
20
1.44495979843171
30
0
41
1
10
7.52543743965799
20
1.55287569260707
30
0
41
1
10
7.44003130831399
20
1.7645911345931
30
0
41
1
10
7.39370210082322
20
1.86842608248557
30
0
41
1
10
7.24444903957598
20
2.17420454962931
30
0
41
1
10
7.13129750847929
20
2.370442756833
30
0
41
1
10
6.87986215126543
20
2.74889960640738
30
0
41
1
10
6.74071697855095
20
2.93191079046932
30
0
41
1
10
6.44601278588161
20
3.27630604647049
30
0
41
1
10
6.28990209888454
20
3.43875324619887
30
0
41
1
10
5.79820059781045
20
3.90007901040832
30
0
41
1
10
5.43947674676585
20
4.17320491371768
30
0
41
1
10
5.05340000000001
20
4.41588043316395
30
0
0
SPLINE
5
2C5
100
AcDbEntity
8
1
62
256
6
ByLayer
370
13
48
1
60
0
100
AcDbSpline
70
4
71
3
72
8
73
4
40
0
40
0
40
0
40
0
40
1
40
1
40
1
40
1
41
1
10
127.971301254482
20
5.50183563141778
30
0
41
1
10
127.994269598212
20
5.49688065676202
30
0
41
1
10
128.016289462229
20
5.49174332894032
30
0
41
1
10
128.037459759697
20
5.48689831827627
30
0
0
SPLINE
5
2C6
100
AcDbEntity
8
1
62
256
6
ByLayer
370
13
48
1
60
0
100
AcDbSpline
70
4
71
3
72
18
73
14
40
0
40
0
40
0
40
0
40
0.250000000000015
40
0.250000000000015
40
0.375000000000012
40
0.375000000000012
40
0.500000000000009
40
0.500000000000009
40
0.750000000000004
40
0.750000000000004
40
0.875000000000002
40
0.875000000000002
40
1
40
1
40
1
40
1
41
1
10
128.640580693626
20
5.66229446169822
30
0
41
1
10
128.635260143786
20
5.66201562349229
30
0
41
1
10
128.636524088004
20
5.67227407562081
30
0
41
1
10
128.651789183662
20
5.70069240648618
30
0
41
1
10
128.659147838135
20
5.71219691526247
30
0
41
1
10
128.679090097325
20
5.73769527484464
30
0
41
1
10
128.691941178096
20
5.75194005974316
30
0
41
1
10
128.738024439705
20
5.79440706849778
30
0
41
1
10
128.78021213378
20
5.82309980762898
30
0
41
1
10
128.853501099191
20
5.85428507651062
30
0
41
1
10
128.880013212983
20
5.86296305878741
30
0
41
1
10
128.934157935768
20
5.87544459683929
30
0
41
1
10
128.96202325914
20
5.87939941919143
30
0
41
1
10
128.990691603479
20
5.88091742980174
30
0
0
SPLINE
5
2C7
100
AcDbEntity
8
1
62
256
6
ByLayer
370
13
48
1
60
0
100
AcDbSpline
70
4
71
3
72
8
73
4
40
0
40
0
40
0
40
0
40
1
40
1
40
1
40
1
41
1
10
125.775685050538
20
9.47559788457974
30
0
41
1
10
125.761696626208
20
9.44017893609589
30
0
41
1
10
125.744661485678
20
9.4080754233353
30
0
41
1
10
125.725791555743
20
9.37923201835636
30
0
0
SPLINE
5
2C8
100
AcDbEntity
8
1
62
256
6
ByLayer
370
13
48
1
60
0
100
AcDbSpline
70
4
71
3
72
12
73
8
40
0
40
0
40
0
40
0
40
0.5
40
0.5
40
0.75
40
0.75
40
1
40
1
40
1
40
1
41
1
10
121.396356155012
20
0.519246416260359
30
0
41
1
10
121.721141410964
20
0.372371435378256
30
0
41
1
10
122.053623821976
20
0.253432163214143
30
0
41
1
10
122.564000968784
20
0.117977434309495
30
0
41
1
10
122.73607735803
20
0.0800129153303715
30
0
41
1
10
123.084272761482
20
0.0190535550342759
30
0
41
1
10
123.260834069345
20
-0.0039791518258028
30
0
41
1
10
123.438545185843
20
-0.0189606206500912
30
0
0
SPLINE
5
2C9
100
AcDbEntity
8
1
62
256
6
ByLayer
370
13
48
1
60
0
100
AcDbSpline
70
4
71
3
72
8
73
4
40
0
40
0
40
0
40
0
40
1
40
1
40
1
40
1
41
1
10
119.868228461637
20
1.91481798486501
30
0
41
1
10
119.846604080372
20
1.92551696093287
30
0
41
1
10
119.824982059114
20
1.93622566399549
30
0
41
1
10
119.803362422256
20
1.94694406615119
30
0
0
SPLINE
5
2CA
100
AcDbEntity
8
1
62
256
6
ByLayer
370
13
48
1
60
0
100
AcDbSpline
70
4
71
3
72
12
73
8
40
0
40
0
40
0
40
0
40
0.500000000000008
40
0.500000000000008
40
0.750000000000004
40
0.750000000000004
40
1
40
1
40
1
40
1
41
1
10
126.011973771986
20
4.56389166885214
30
0
41
1
10
126.622698457265
20
4.50463667530144
30
0
41
1
10
127.218074079398
20
4.50996309230726
30
0
41
1
10
128.08887766213
20
4.59851102493931
30
0
41
1
10
128.375731599267
20
4.64166766716164
30
0
41
1
10
128.940191785306
20
4.75338996498357
30
0
41
1
10
129.216182290681
20
4.82159865570139
30
0
41
1
10
129.486028338862
20
4.90114001578672
30
0
0
SPLINE
5
2CB
100
AcDbEntity
8
1
62
256
6
ByLayer
370
13
48
1
60
0
100
AcDbSpline
70
4
71
3
72
8
73
4
40
0
40
0
40
0
40
0
40
1
40
1
40
1
40
1
41
1
10
0
20
3.94461658466321
30
0
41
1
10
0.0315475824092175
20
4.10177000655756
30
0
41
1
10
0.0648914335652648
20
4.25885757043454
30
0
41
1
10
0.0999999999999943
20
4.41588043316384
30
0
0
SPLINE
5
2CC
100
AcDbEntity
8
1
62
256
6
ByLayer
370
13
48
1
60
0
100
AcDbSpline
70
4
71
3
72
8
73
4
40
0
40
0
40
0
40
0
40
1
40
1
40
1
40
1
41
1
10
128.904210559901
20
5.6761107175424
30
0
41
1
10
128.819556476883
20
5.67167418504414
30
0
41
1
10
128.734944722447
20
5.6672398708929
30
0
41
1
10
128.650363143428
20
5.66280713816829
30
0
0
SPLINE
5
2CD
100
AcDbEntity
8
1
62
256
6
ByLayer
370
13
48
1
60
0
100
AcDbSpline
70
4
71
3
72
22
73
18
40
0
40
0
40
0
40
0
40
0.125
40
0.125
40
0.25
40
0.25
40
0.499999999999996
40
0.499999999999996
40
0.624999999999995
40
0.624999999999995
40
0.749999999999993
40
0.749999999999993
40
0.874999999999991
40
0.874999999999991
40
0.937499999999996
40
0.937499999999996
40
1
40
1
40
1
40
1
41
1
10
124.733765266027
20
3.86512631423895
30
0
41
1
10
124.728024934983
20
3.96502117389179
30
0
41
1
10
124.714034267638
20
4.06490425508923
30
0
41
1
10
124.669897477089
20
4.26494499230651
30
0
41
1
10
124.639624488383
20
4.36539841276144
30
0
41
1
10
124.525000360342
20
4.66610829856484
30
0
41
1
10
124.419996468989
20
4.86038605795363
30
0
41
1
10
124.222088552835
20
5.14708304261566
30
0
41
1
10
124.148544440311
20
5.24234612624133
30
0
41
1
10
123.990541042674
20
5.42565113602964
30
0
41
1
10
123.905896142373
20
5.51410974339561
30
0
41
1
10
123.725437740566
20
5.68508831098652
30
0
41
1
10
123.629711881136
20
5.76776113627673
30
0
41
1
10
123.476500009267
20
5.88602567674028
30
0
41
1
10
123.42355042011
20
5.92459490239202
30
0
41
1
10
123.315831396879
20
5.99788470244661
30
0
41
1
10
123.260939194286
20
6.03271141840821
30
0
41
1
10
123.204973620149
20
6.06560574380674
30
0
0
SPLINE
5
2CE
100
AcDbEntity
8
1
62
256
6
ByLayer
370
13
48
1
60
0
100
AcDbSpline
70
4
71
3
72
38
73
34
40
0
40
0
40
0
40
0
40
0.0624999999999988
40
0.0624999999999988
40
0.0937499999999987
40
0.0937499999999987
40
0.124999999999999
40
0.124999999999999
40
0.187499999999999
40
0.187499999999999
40
0.218749999999999
40
0.218749999999999
40
0.249999999999999
40
0.249999999999999
40
0.312499999999998
40
0.312499999999998
40
0.374999999999999
40
0.374999999999999
40
0.499999999999999
40
0.499999999999999
40
0.562499999999999
40
0.562499999999999
40
0.624999999999999
40
0.624999999999999
40
0.687499999999999
40
0.687499999999999
40
0.749999999999999
40
0.749999999999999
40
0.812499999999999
40
0.812499999999999
40
0.874999999999999
40
0.874999999999999
40
1
40
1
40
1
40
1
41
1
10
6.18251336839572
20
-16.6872690620438
30
0
41
1
10
6.09829200273475
20
-16.7864805401734
30
0
41
1
10
6.02679876820466
20
-16.8842693622503
30
0
41
1
10
5.93895818747427
20
-17.0286714257382
30
0
41
1
10
5.91292793938996
20
-17.0764244346372
30
0
41
1
10
5.86762089548856
20
-17.1711310362317
30
0
41
1
10
5.84827871479922
20
-17.2183053347594
30
0
41
1
10
5.80158473909859
20
-17.3566186449181
30
0
41
1
10
5.78535152475575
20
-17.444519735158
30
0
41
1
10
5.78333656521986
20
-17.5699587914151
30
0
41
1
10
5.78643415493045
20
-17.6106949527434
30
0
41
1
10
5.79977791882871
20
-17.6900506051458
30
0
41
1
10
5.8101131131769
20
-17.7287885633874
30
0
41
1
10
5.85177704855181
20
-17.8408841626386
30
0
41
1
10
5.89327228141519
20
-17.9093336209902
30
0
41
1
10
6.00160373406561
20
-18.0346070021778
30
0
41
1
10
6.06868960643013
20
-18.0915718338285
30
0
41
1
10
6.30601716543507
20
-18.2443969377174
30
0
41
1
10
6.50606419844456
20
-18.3195830092414
30
0
41
1
10
6.86093060447547
20
-18.3979413744374
30
0
41
1
10
6.98725939577557
20
-18.4179215116179
30
0
41
1
10
7.25191426948587
20
-18.4463912460579
30
0
41
1
10
7.39074332781965
20
-18.4549209368362
30
0
41
1
10
7.68070289055456
20
-18.4613170855826
30
0
41
1
10
7.83258350293312
20
-18.4591407831092
30
0
41
1
10
8.14295308556822
20
-18.4448417592347
30
0
41
1
10
8.30166097731404
20
-18.4327798818653
30
0
41
1
10
8.62569612387591
20
-18.399556413534
30
0
41
1
10
8.79103220132407
20
-18.3783862411241
30
0
41
1
10
9.12818944357736
20
-18.3272641508023
30
0
41
1
10
9.30057874379739
20
-18.2971812301311
30
0
41
1
10
9.81995861557186
20
-18.195356939081
30
0
41
1
10
10.170926300326
20
-18.112018135423
30
0
41
1
10
10.5267924158625
20
-18.0134530835791
30
0
0
SPLINE
5
2CF
100
AcDbEntity
8
1
62
256
6
ByLayer
370
13
48
1
60
0
100
AcDbSpline
70
4
71
3
72
8
73
4
40
0
40
0
40
0
40
0
40
1
40
1
40
1
40
1
41
1
10
131.670803367399
20
5.27034691246487
30
0
41
1
10
131.723692359648
20
5.27311870709715
30
0
41
1
10
131.776120644196
20
5.27586635706191
30
0
41
1
10
131.828077148324
20
5.2785892820626
30
0
0
SPLINE
5
2D0
100
AcDbEntity
8
1
62
256
6
ByLayer
370
13
48
1
60
0
100
AcDbSpline
70
4
71
3
72
12
73
8
40
0
40
0
40
0
40
0
40
0.249999999999979
40
0.249999999999979
40
0.499999999999957
40
0.499999999999957
40
1
40
1
40
1
40
1
41
1
10
132.374972417838
20
5.8580056389371
30
0
41
1
10
132.428959515999
20
5.86083498286166
30
0
41
1
10
132.483529797653
20
5.86681110223611
30
0
41
1
10
132.591423002796
20
5.88498758599039
30
0
41
1
10
132.64526828365
20
5.89725366804663
30
0
41
1
10
132.804624652874
20
5.94334590848896
30
0
41
1
10
132.908568889988
20
5.98627341508032
30
0
41
1
10
133.011470784703
20
6.04395317663293
30
0
0
SPLINE
5
2D1
100
AcDbEntity
8
1
62
256
6
ByLayer
370
13
48
1
60
0
100
AcDbSpline
70
4
71
3
72
10
73
6
40
0
40
0
40
0
40
0
40
0.5
40
0.5
40
1
40
1
40
1
40
1
41
1
10
134.461834490754
20
6.00075252404739
30
0
41
1
10
134.474505468082
20
5.99067764036187
30
0
41
1
10
134.485403016094
20
5.98282048547645
30
0
41
1
10
134.501977858929
20
5.97241351469546
30
0
41
1
10
134.507740795797
20
5.96977929335102
30
0
41
1
10
134.510638909411
20
5.96993117704966
30
0
0
SPLINE
5
2D2
100
AcDbEntity
8
1
62
256
6
ByLayer
370
13
48
1
60
0
100
AcDbSpline
70
4
71
3
72
10
73
6
40
0
40
0
40
0
40
0
40
0.5
40
0.5
40
1
40
1
40
1
40
1
41
1
10
125.30010754453
20
4.77251384257713
30
0
41
1
10
125.412929889968
20
4.71584689050567
30
0
41
1
10
125.529144041781
20
4.66973002891916
30
0
41
1
10
125.769102197104
20
4.59925503805164
30
0
41
1
10
125.890062072119
20
4.57572003794132
30
0
41
1
10
126.011973771986
20
4.56389166885214
30
0
0
SPLINE
5
2D3
100
AcDbEntity
8
1
62
256
6
ByLayer
370
13
48
1
60
0
100
AcDbSpline
70
4
71
3
72
14
73
10
40
0
40
0
40
0
40
0
40
0.25
40
0.25
40
0.5
40
0.5
40
0.75
40
0.75
40
1
40
1
40
1
40
1
41
1
10
135.783526506121
20
0.375660728548638
30
0
41
1
10
135.783675831793
20
0.43811604765699
30
0
41
1
10
135.784879501228
20
0.49693698629855
30
0
41
1
10
135.789526851877
20
0.606857420783683
30
0
41
1
10
135.792851555405
20
0.654988117383056
30
0
41
1
10
135.801535038144
20
0.735804897513106
30
0
41
1
10
135.80668368451
20
0.766498221686248
30
0
41
1
10
135.818495093634
20
0.80630943985409
30
0
41
1
10
135.824841574971
20
0.81435888205354
30
0
41
1
10
135.831510852447
20
0.810030466097743
30
0
0
SPLINE
5
2D4
100
AcDbEntity
8
1
62
256
6
ByLayer
370
13
48
1
60
0
100
AcDbSpline
70
4
71
3
72
22
73
18
40
0
40
0
40
0
40
0
40
0.125
40
0.125
40
0.25
40
0.25
40
0.375
40
0.375
40
0.5
40
0.5
40
0.625
40
0.625
40
0.75
40
0.75
40
0.875
40
0.875
40
1
40
1
40
1
40
1
41
1
10
122.240574171461
20
5.03634794990754
30
0
41
1
10
122.251722566616
20
5.06950760645509
30
0
41
1
10
122.262563805227
20
5.1051211600614
30
0
41
1
10
122.283489245996
20
5.17953242215799
30
0
41
1
10
122.293524086085
20
5.21811470697486
30
0
41
1
10
122.31304115486
20
5.2979163126063
30
0
41
1
10
122.322519833237
20
5.33913614286649
30
0
41
1
10
122.341154922876
20
5.42424387111436
30
0
41
1
10
122.350269604422
20
5.46797914071556
30
0
41
1
10
122.367915367024
20
5.55553376917521
30
0
41
1
10
122.376509600107
20
5.59965624633259
30
0
41
1
10
122.393599885652
20
5.6885258380166
30
0
41
1
10
122.402150053112
20
5.73359629381247
30
0
41
1
10
122.419317840131
20
5.82216099355364
30
0
41
1
10
122.427932774325
20
5.86574449179213
30
0
41
1
10
122.446330020662
20
5.95128516897472
30
0
41
1
10
122.456059117559
20
5.99342611178122
30
0
41
1
10
122.467736100711
20
6.0340476238425
30
0
0
SPLINE
5
2D5
100
AcDbEntity
8
1
62
256
6
ByLayer
370
13
48
1
60
0
100
AcDbSpline
70
4
71
3
72
10
73
6
40
0
40
0
40
0
40
0
40
0.5
40
0.5
40
1
40
1
40
1
40
1
41
1
10
123.989010600406
20
3.69247914829003
30
0
41
1
10
123.710356656376
20
3.89243775424242
30
0
41
1
10
123.413282546326
20
4.07217000490851
30
0
41
1
10
122.793826353123
20
4.40384495999075
30
0
41
1
10
122.471270735711
20
4.55559711424536
30
0
41
1
10
122.138568256858
20
4.69620745662399
30
0
0
SPLINE
5
2D6
100
AcDbEntity
8
1
62
256
6
ByLayer
370
13
48
1
60
0
100
AcDbSpline
70
4
71
3
72
12
73
8
40
0
40
0
40
0
40
0
40
0.500000000000048
40
0.500000000000048
40
0.750000000000024
40
0.750000000000024
40
1
40
1
40
1
40
1
41
1
10
130.05416204493
20
5.88896719292708
30
0
41
1
10
130.171846992614
20
5.8428478979236
30
0
41
1
10
130.290329051809
20
5.81157725957601
30
0
41
1
10
130.470529252351
20
5.78328042489605
30
0
41
1
10
130.531183240233
20
5.7770149952438
30
0
41
1
10
130.652137311643
20
5.77083188904865
30
0
41
1
10
130.713020817237
20
5.77090644627373
30
0
41
1
10
130.77291351275
20
5.77404528944083
30
0
0
SPLINE
5
2D7
100
AcDbEntity
8
1
62
256
6
ByLayer
370
13
48
1
60
0
100
AcDbSpline
70
4
71
3
72
12
73
8
40
0
40
0
40
0
40
0
40
0.0100246168681272
40
0.0100246168681272
40
0.473782033931817
40
0.473782033931817
40
1
40
1
40
1
40
1
41
1
10
25.45
20
-12.5729727694202
30
0
41
1
10
25.45
20
-12.5551484044184
30
0
41
1
10
25.45
20
-12.5373240394281
30
0
41
1
10
25.45
20
-11.6949114061762
30
0
41
1
10
25.45
20
-10.8703231624652
30
0
41
1
10
25.45
20
-9.11008816024932
30
0
41
1
10
25.45
20
-8.17444140884257
30
0
41
1
10
25.45
20
-7.23879468940856
30
0
0
SPLINE
5
2D8
100
AcDbEntity
8
1
62
256
6
ByLayer
370
13
48
1
60
0
100
AcDbSpline
70
4
71
3
72
8
73
4
40
0
40
0
40
0
40
0
40
1
40
1
40
1
40
1
41
1
10
123.25124845873
20
1.26845572203439
30
0
41
1
10
123.510322832799
20
1.20482069048225
30
0
41
1
10
123.770451841055
20
1.14350520321298
30
0
41
1
10
124.031974839528
20
1.08525563403984
30
0
0
SPLINE
5
2D9
100
AcDbEntity
8
1
62
256
6
ByLayer
370
13
48
1
60
0
100
AcDbSpline
70
4
71
3
72
8
73
4
40
0
40
0
40
0
40
0
40
1
40
1
40
1
40
1
41
1
10
123.438545185843
20
-0.0189606206497217
30
0
41
1
10
123.757805108504
20
-0.0458749897248936
30
0
41
1
10
124.0770755674
20
-0.0727083161554845
30
0
41
1
10
124.396356155012
20
-0.0994628021232131
30
0
0
SPLINE
5
2DA
100
AcDbEntity
8
1
62
256
6
ByLayer
370
13
48
1
60
0
100
AcDbSpline
70
4
71
3
72
8
73
4
40
0
40
0
40
0
40
0
40
1
40
1
40
1
40
1
41
1
10
122.607612988167
20
6.10138451825208
30
0
41
1
10
122.724717223615
20
7.21578640075651
30
0
41
1
10
122.837548851655
20
8.32794134008549
30
0
41
1
10
122.944447789851
20
9.43844030358906
30
0
0
SPLINE
5
2DB
100
AcDbEntity
8
1
62
256
6
ByLayer
370
13
48
1
60
0
100
AcDbSpline
70
4
71
3
72
8
73
4
40
0
40
0
40
0
40
0
40
1
40
1
40
1
40
1
41
1
10
25.01
20
-12.5866108423905
30
0
41
1
10
24.9643279520319
20
-12.5866934778156
30
0
41
1
10
24.9186559053566
20
-12.5867766374208
30
0
41
1
10
24.8729838580784
20
-12.5868595525015
30
0
0
SPLINE
5
2DC
100
AcDbEntity
8
1
62
256
6
ByLayer
370
13
48
1
60
0
100
AcDbSpline
70
4
71
3
72
40
73
36
40
0
40
0
40
0
40
0
40
0.0625000000000107
40
0.0625000000000107
40
0.125000000000022
40
0.125000000000022
40
0.187500000000032
40
0.187500000000032
40
0.250000000000043
40
0.250000000000043
40
0.312500000000054
40
0.312500000000054
40
0.375000000000064
40
0.375000000000064
40
0.437500000000075
40
0.437500000000075
40
0.46875000000008
40
0.46875000000008
40
0.500000000000086
40
0.500000000000086
40
0.531250000000091
40
0.531250000000091
40
0.562500000000096
40
0.562500000000096
40
0.625000000000087
40
0.625000000000087
40
0.750000000000069
40
0.750000000000069
40
0.812500000000052
40
0.812500000000052
40
0.875000000000035
40
0.875000000000035
40
0.937500000000017
40
0.937500000000017
40
1
40
1
40
1
40
1
41
1
10
128.604380582877
20
5.57456537891284
30
0
41
1
10
128.573840119748
20
5.49731245564641
30
0
41
1
10
128.537626319159
20
5.42243323495768
30
0
41
1
10
128.457831792937
20
5.28376407768462
30
0
41
1
10
128.413980344441
20
5.2191051563195
30
0
41
1
10
128.318595481701
20
5.0980284001713
30
0
41
1
10
128.266935306294
20
5.04164849205463
30
0
41
1
10
128.159185942716
20
4.9397631198884
30
0
41
1
10
128.102715870431
20
4.89372556430939
30
0
41
1
10
127.984123077162
20
4.81054958587089
30
0
41
1
10
127.921771539323
20
4.77328881407951
30
0
41
1
10
127.791002500121
20
4.70806513171891
30
0
41
1
10
127.723221845052
20
4.6803231183905
30
0
41
1
10
127.579499893836
20
4.63443318729821
30
0
41
1
10
127.503111981293
20
4.61628397403359
30
0
41
1
10
127.38245032982
20
4.59819440030611
30
0
41
1
10
127.340574182328
20
4.59361886249141
30
0
41
1
10
127.256202806312
20
4.58790903222399
30
0
41
1
10
127.214081044908
20
4.58675974190842
30
0
41
1
10
127.129946329731
20
4.58766682266602
30
0
41
1
10
127.087677453693
20
4.5897472756921
30
0
41
1
10
127.004438707348
20
4.59690822955233
30
0
41
1
10
126.963761760404
20
4.60193577095933
30
0
41
1
10
126.843681330073
20
4.6209893608262
30
0
41
1
10
126.766168287733
20
4.63894786064765
30
0
41
1
10
126.537983234661
20
4.70830692686474
30
0
41
1
10
126.396919352806
20
4.77315046278042
30
0
41
1
10
126.197794291404
20
4.90075258631742
30
0
41
1
10
126.133099105123
20
4.94892011612572
30
0
41
1
10
126.011511761697
20
5.05456721478234
30
0
41
1
10
125.954487026124
20
5.11198853668753
30
0
41
1
10
125.848411922255
20
5.23717563921267
30
0
41
1
10
125.799001780423
20
5.30567884891374
30
0
41
1
10
125.712786733479
20
5.44937099768808
30
0
41
1
10
125.675541713675
20
5.5248764379113
30
0
41
1
10
125.644695544253
20
5.60452191479339
30
0
0
SPLINE
5
2DD
100
AcDbEntity
8
1
62
256
6
ByLayer
370
13
48
1
60
0
100
AcDbSpline
70
4
71
3
72
10
73
6
40
0
40
0
40
0
40
0
40
0.5
40
0.5
40
1
40
1
40
1
40
1
41
1
10
122.607736002118
20
6.10136351008697
30
0
41
1
10
122.710366611613
20
6.10317786172482
30
0
41
1
10
122.812666141679
20
6.10109387142469
30
0
41
1
10
123.011949624554
20
6.0891557942789
30
0
41
1
10
123.109497718477
20
6.07932943086104
30
0
41
1
10
123.20497362015
20
6.06560574380725
30
0
0
SPLINE
5
2DE
100
AcDbEntity
8
1
62
256
6
ByLayer
370
13
48
1
60
0
100
AcDbSpline
70
4
71
3
72
8
73
4
40
0
40
0
40
0
40
0
40
1
40
1
40
1
40
1
41
1
10
120.822584829679
20
1.46825408048483
30
0
41
1
10
120.499271567542
20
1.61201686248919
30
0
41
1
10
120.180823235204
20
1.76015718970311
30
0
41
1
10
119.868228461637
20
1.91481798486498
30
0
0
SPLINE
5
2DF
100
AcDbEntity
8
1
62
256
6
ByLayer
370
13
48
1
60
0
100
AcDbSpline
70
4
71
3
72
8
73
4
40
0
40
0
40
0
40
0
40
1
40
1
40
1
40
1
41
1
10
122.239605492724
20
5.03322631836858
30
0
41
1
10
122.239903293146
20
5.03427339443621
30
0
41
1
10
122.240226504378
20
5.03531385298743
30
0
41
1
10
122.240574171462
20
5.03634794990751
30
0
0
SPLINE
5
2E0
100
AcDbEntity
8
1
62
256
6
ByLayer
370
13
48
1
60
0
100
AcDbSpline
70
4
71
3
72
8
73
4
40
0
40
0
40
0
40
0
40
1
40
1
40
1
40
1
41
1
10
119.952540378855
20
1.33528548699539
30
0
41
1
10
120.400071076171
20
1.00462024072343
30
0
41
1
10
120.880021278778
20
0.730008907336071
30
0
41
1
10
121.396356155012
20
0.519246416260359
30
0
0
SPLINE
5
2E1
100
AcDbEntity
8
1
62
256
6
ByLayer
370
13
48
1
60
0
100
AcDbSpline
70
4
71
3
72
8
73
4
40
0
40
0
40
0
40
0
40
1
40
1
40
1
40
1
41
1
10
0.0999999999999943
20
-4.41588043316384
30
0
41
1
10
0.0650025024878289
20
-4.2593543255559
30
0
41
1
10
0.0316486183334916
20
-4.10227331426066
30
0
41
1
10
-5.68E-14
20
-3.94461658466324
30
0
0
SPLINE
5
2E2
100
AcDbEntity
8
1
62
256
6
ByLayer
370
13
48
1
60
0
100
AcDbSpline
70
4
71
3
72
18
73
14
40
0
40
0
40
0
40
0
40
0.250000000000002
40
0.250000000000002
40
0.375000000000001
40
0.375000000000001
40
0.500000000000001
40
0.500000000000001
40
0.625000000000001
40
0.625000000000001
40
0.750000000000001
40
0.750000000000001
40
1
40
1
40
1
40
1
41
1
10
125.30010754453
20
4.77251384257713
30
0
41
1
10
125.249937875972
20
4.82180897176087
30
0
41
1
10
125.204630051559
20
4.88111614440578
30
0
41
1
10
125.142175257834
20
4.98510953749792
30
0
41
1
10
125.122160476058
20
5.02260137677615
30
0
41
1
10
125.084754917463
20
5.10103405753409
30
0
41
1
10
125.067302355581
20
5.14200925331073
30
0
41
1
10
125.034702339675
20
5.22742713106555
30
0
41
1
10
125.019553524407
20
5.27186836154823
30
0
41
1
10
124.991591415852
20
5.36436948541115
30
0
41
1
10
124.978772454881
20
5.41256598111275
30
0
41
1
10
124.94525893123
20
5.55837966580793
30
0
41
1
10
124.928707506773
20
5.65850535850697
30
0
41
1
10
124.920806697882
20
5.76232184004198
30
0
0
SPLINE
5
2E3
100
AcDbEntity
8
1
62
256
6
ByLayer
370
13
48
1
60
0
100
AcDbSpline
70
4
71
3
72
24
73
20
40
0
40
0
40
0
40
0
40
0.25
40
0.25
40
0.375000000000001
40
0.375000000000001
40
0.5
40
0.5
40
0.625
40
0.625
40
0.656249999999999
40
0.656249999999999
40
0.687499999999999
40
0.687499999999999
40
0.749999999999999
40
0.749999999999999
40
0.875
40
0.875
40
1
40
1
40
1
40
1
41
1
10
10.5250710904892
20
-18.013929798102
30
0
41
1
10
11.603612091356
20
-17.7152595229226
30
0
41
1
10
12.6619496668104
20
-17.3705410376349
30
0
41
1
10
14.2188106831872
20
-16.7836155814252
30
0
41
1
10
14.7332384385623
20
-16.5760290727318
30
0
41
1
10
15.7468807538114
20
-16.1391940911944
30
0
41
1
10
16.2464918089381
20
-15.9098306576996
30
0
41
1
10
17.2311984236972
20
-15.4290672409701
30
0
41
1
10
17.716294947471
20
-15.1776687214369
30
0
41
1
10
18.3134273131949
20
-14.8493955588892
30
0
41
1
10
18.4319632097494
20
-14.7823889067166
30
0
41
1
10
18.6720605825003
20
-14.652968854892
30
0
41
1
10
18.7932508091421
20
-14.5899918465588
30
0
41
1
10
19.1602651706001
20
-14.4062888111518
30
0
41
1
10
19.4100793712132
20
-14.2905583073266
30
0
41
1
10
20.1691168165535
20
-13.9665796980117
30
0
41
1
10
20.6870000532917
20
-13.7816318196469
30
0
41
1
10
21.7466313571067
20
-13.4741999039815
30
0
41
1
10
22.2883783643572
20
-13.3517130926901
30
0
41
1
10
22.8427644324926
20
-13.2623077774378
30
0
0
SPLINE
5
2E4
100
AcDbEntity
8
1
62
256
6
ByLayer
370
13
48
1
60
0
100
AcDbSpline
70
4
71
2
72
6
73
3
40
0
40
0
40
0
40
1
40
1
40
1
41
0.500000014477277
10
121.283350280519
20
12.8262473550272
30
0
41
0.499999985522723
10
121.339849007727
20
12.8271789895627
30
0
41
0.500000014477277
10
121.396356155011
20
12.8281063446562
30
0
0
SPLINE
5
2E5
100
AcDbEntity
8
1
62
256
6
ByLayer
370
13
48
1
60
0
100
AcDbSpline
70
4
71
1
72
4
73
2
40
0
40
0
40
1
40
1
41
1
10
25.45
20
-7.23879469101706
30
0
41
1
10
25
20
-7.23879469101706
30
0
0
SPLINE
5
2E6
100
AcDbEntity
8
1
62
256
6
ByLayer
370
13
48
1
60
0
100
AcDbSpline
70
4
71
3
72
20
73
16
40
0
40
0
40
0
40
0
40
0.125000000000004
40
0.125000000000004
40
0.250000000000009
40
0.250000000000009
40
0.375000000000013
40
0.375000000000013
40
0.500000000000018
40
0.500000000000018
40
0.625000000000023
40
0.625000000000023
40
0.750000000000027
40
0.750000000000027
40
1
40
1
40
1
40
1
41
1
10
124.733765265997
20
3.86512631421766
30
0
41
1
10
124.714250671021
20
3.83071297115458
30
0
41
1
10
124.692296414676
20
3.79732461989178
30
0
41
1
10
124.643949264208
20
3.73523533102286
30
0
41
1
10
124.617439613963
20
3.7062535809963
30
0
41
1
10
124.558377377643
20
3.65374293745236
30
0
41
1
10
124.526851021246
20
3.63114851559072
30
0
41
1
10
124.459067426619
20
3.59481363057063
30
0
41
1
10
124.423006012596
20
3.58144730093576
30
0
41
1
10
124.350706069791
20
3.56643908645279
30
0
41
1
10
124.313440965686
20
3.56463543855182
30
0
41
1
10
124.241854061636
20
3.57132076321679
30
0
41
1
10
124.206762511937
20
3.57972572411359
30
0
41
1
10
124.106862042807
20
3.61497497539861
30
0
41
1
10
124.046414393881
20
3.65128689974827
30
0
41
1
10
123.989010600406
20
3.69247914829003
30
0
0
SPLINE
5
2E7
100
AcDbEntity
8
1
62
256
6
ByLayer
370
13
48
1
60
0
100
AcDbSpline
70
4
71
3
72
18
73
14
40
0
40
0
40
0
40
0
40
0.25
40
0.25
40
0.375
40
0.375
40
0.5
40
0.5
40
0.750000000000001
40
0.750000000000001
40
0.875
40
0.875
40
1
40
1
40
1
40
1
41
1
10
24.8729838580784
20
-12.5868595525015
30
0
41
1
10
24.685762186915
20
-12.5871994431108
30
0
41
1
10
24.5020617509478
20
-12.6033770246357
30
0
41
1
10
24.2313823624779
20
-12.6495532077588
30
0
41
1
10
24.1419714460208
20
-12.6686134052794
30
0
41
1
10
23.9647512195297
20
-12.7139374507681
30
0
41
1
10
23.8766515358886
20
-12.7403033689442
30
0
41
1
10
23.6167160365121
20
-12.8294711999233
30
0
41
1
10
23.4518131904711
20
-12.9012593086553
30
0
41
1
10
23.2153593050812
20
-13.024982297529
30
0
41
1
10
23.1383689224488
20
-13.0689127293343
30
0
41
1
10
22.9878691246292
20
-13.1618961275271
30
0
41
1
10
22.9140948691628
20
-13.2111477318827
30
0
41
1
10
22.8427644324926
20
-13.2623077774378
30
0
0
SPLINE
5
2E8
100
AcDbEntity
8
1
62
256
6
ByLayer
370
13
48
1
60
0
100
AcDbSpline
70
4
71
3
72
10
73
6
40
0
40
0
40
0
40
0
40
0.5
40
0.5
40
1
40
1
40
1
40
1
41
1
10
133.011470784703
20
6.04395317663293
30
0
41
1
10
133.040783780607
20
6.06038403651942
30
0
41
1
10
133.073499002959
20
6.07421904712328
30
0
41
1
10
133.143029705998
20
6.09426266005119
30
0
41
1
10
133.179191523541
20
6.10040703083453
30
0
41
1
10
133.216721994918
20
6.10239429779975
30
0
0
SPLINE
5
2E9
100
AcDbEntity
8
1
62
256
6
ByLayer
370
13
48
1
60
0
100
AcDbSpline
70
4
71
3
72
10
73
6
40
0
40
0
40
0
40
0
40
0.5
40
0.5
40
1
40
1
40
1
40
1
41
1
10
129.836166018782
20
5.92522690273262
30
0
41
1
10
129.873752340718
20
5.92719671839671
30
0
41
1
10
129.911610621482
20
5.92484383443366
30
0
41
1
10
129.98533846659
20
5.91222009201948
30
0
41
1
10
130.02058301465
20
5.90212640516205
30
0
41
1
10
130.05416204493
20
5.88896719292708
30
0
0
SPLINE
5
2EA
100
AcDbEntity
8
1
62
256
6
ByLayer
370
13
48
1
60
0
100
AcDbSpline
70
4
71
3
72
24
73
20
40
0
40
0
40
0
40
0
40
0.249999999999998
40
0.249999999999998
40
0.312499999999998
40
0.312499999999998
40
0.374999999999998
40
0.374999999999998
40
0.499999999999997
40
0.499999999999997
40
0.562499999999996
40
0.562499999999996
40
0.624999999999996
40
0.624999999999996
40
0.749999999999997
40
0.749999999999997
40
0.874999999999998
40
0.874999999999998
40
1
40
1
40
1
40
1
41
1
10
6.18468376774823
20
-14.4345753530334
30
0
41
1
10
6.0188653645111
20
-14.6486087006794
30
0
41
1
10
5.88919661465374
20
-14.8629891661583
30
0
41
1
10
5.77629625211119
20
-15.1312009866387
30
0
41
1
10
5.756160395385
20
-15.185076294973
30
0
41
1
10
5.72163403164575
20
-15.291467990631
30
0
41
1
10
5.70720213832641
20
-15.3440225215164
30
0
41
1
10
5.67241421258146
20
-15.499772232484
30
0
41
1
10
5.66052630704795
20
-15.6010609570293
30
0
41
1
10
5.66042530566611
20
-15.7490860121625
30
0
41
1
10
5.66323545084165
20
-15.7977847381629
30
0
41
1
10
5.67462805024388
20
-15.8938727242772
30
0
41
1
10
5.6832655046918
20
-15.9414103707664
30
0
41
1
10
5.71744365147234
20
-16.0798497801867
30
0
41
1
10
5.75120457084023
20
-16.1672059376971
30
0
41
1
10
5.8395760823245
20
-16.3325712374894
30
0
41
1
10
5.89419213903849
20
-16.4105779821383
30
0
41
1
10
6.02434291432817
20
-16.5572984211334
30
0
41
1
10
6.09902240138985
20
-16.6250543761176
30
0
41
1
10
6.18251336839572
20
-16.6872690620438
30
0
0
SPLINE
5
2EB
100
AcDbEntity
8
1
62
256
6
ByLayer
370
13
48
1
60
0
100
AcDbSpline
70
4
71
2
72
12
73
9
40
0
40
0
40
0
40
0.296357726190827
40
0.296357726190827
40
0.592715452381654
40
0.592715452381654
40
0.889073178572481
40
0.889073178572481
40
1
40
1
40
1
41
1
10
24.9999999999992
20
-7.24412139623823
30
0
41
1
10
22.1404651803405
20
-7.88569244428822
30
0
41
1
10
19.5999442201884
20
-9.14255928622231
30
0
41
1
10
16.9821880885615
20
-10.4376365297159
30
0
41
1
10
14.8961837495303
20
-12.2845526816957
30
0
41
1
10
12.8208661403471
20
-14.122006967466
30
0
41
1
10
11.4259602682618
20
-16.3679031909234
30
0
41
1
10
10.9243918534053
20
-17.1754634939336
30
0
41
1
10
10.5252913591275
20
-18.0134673126964
30
0
0
SPLINE
5
2EC
100
AcDbEntity
8
1
62
256
6
ByLayer
370
13
48
1
60
0
100
AcDbSpline
70
4
71
3
72
8
73
4
40
0
40
0
40
0
40
0
40
1
40
1
40
1
40
1
41
1
10
30
20
-13.1284398332326
30
0
41
1
10
28.3333326530513
20
-13.1284958563339
30
0
41
1
10
26.6666657798336
20
-13.128475880273
30
0
41
1
10
25
20
-13.1282791308804
30
0
0
SPLINE
5
2ED
100
AcDbEntity
8
1
62
256
6
ByLayer
370
13
48
1
60
0
100
AcDbSpline
70
4
71
3
72
42
73
38
40
0
40
0
40
0
40
0
40
0.124999999999998
40
0.124999999999998
40
0.187499999999997
40
0.187499999999997
40
0.218749999999997
40
0.218749999999997
40
0.249999999999997
40
0.249999999999997
40
0.374999999999996
40
0.374999999999996
40
0.437499999999996
40
0.437499999999996
40
0.468749999999996
40
0.468749999999996
40
0.499999999999996
40
0.499999999999996
40
0.562499999999996
40
0.562499999999996
40
0.593749999999997
40
0.593749999999997
40
0.624999999999997
40
0.624999999999997
40
0.749999999999999
40
0.749999999999999
40
0.781249999999999
40
0.781249999999999
40
0.8125
40
0.8125
40
0.875
40
0.875
40
0.90625
40
0.90625
40
0.9375
40
0.9375
40
1
40
1
40
1
40
1
41
1
10
10.5267816060942
20
-9.14122605559618
30
0
41
1
10
10.1700648480116
20
-9.22552536303235
30
0
41
1
10
9.82010181310105
20
-9.33436251459915
30
0
41
1
10
9.30475099788214
20
-9.53276930141843
30
0
41
1
10
9.13458113415123
20
-9.60481779244057
30
0
41
1
10
8.88182119505225
20
-9.7220738736124
30
0
41
1
10
8.79798472231832
20
-9.76269359636478
30
0
41
1
10
8.63117184796334
20
-9.84710593550298
30
0
41
1
10
8.54812695925992
20
-9.89094784294537
30
0
41
1
10
8.13997726283372
20
-10.1156540507106
30
0
41
1
10
7.83192580941122
20
-10.3146135027122
30
0
41
1
10
7.3998077275908
20
-10.6440190521729
30
0
41
1
10
7.26083542534309
20
-10.7590614649966
30
0
41
1
10
7.06076848641578
20
-10.9402771390679
30
0
41
1
10
6.99523837271084
20
-11.0023373846659
30
0
41
1
10
6.86834979426979
20
-11.1282916962033
30
0
41
1
10
6.8070863568756
20
-11.1920669573399
30
0
41
1
10
6.62992654502654
20
-11.3858087362175
30
0
41
1
10
6.52063107005085
20
-11.5181804591809
30
0
41
1
10
6.37073872322534
20
-11.7218175615316
30
0
41
1
10
6.32312336128578
20
-11.7905457219725
30
0
41
1
10
6.23282757449849
20
-11.9297799251601
30
0
41
1
10
6.18997904554692
20
-12.0005822139533
30
0
41
1
10
5.9910767095117
20
-12.3554183426232
30
0
41
1
10
5.88134012489826
20
-12.6392859666281
30
0
41
1
10
5.81115430054882
20
-12.9940267197765
30
0
41
1
10
5.80051061557549
20
-13.0652940408237
30
0
41
1
10
5.78666185814299
20
-13.2062648382941
30
0
41
1
10
5.78341429142623
20
-13.2756255872123
30
0
41
1
10
5.7851050831087
20
-13.4803025318092
30
0
41
1
10
5.80130381231012
20
-13.6122502670108
30
0
41
1
10
5.84751436173036
20
-13.8035887107977
30
0
41
1
10
5.866585885321
20
-13.8662666955327
30
0
41
1
10
5.91214639861647
20
-13.989395901841
30
0
41
1
10
5.93856180330445
20
-14.0495607990004
30
0
41
1
10
6.02742436273792
20
-14.2238623674508
30
0
41
1
10
6.0997249939206
20
-14.332734640168
30
0
41
1
10
6.18468376774823
20
-14.4345753530334
30
0
0
SPLINE
5
2EE
100
AcDbEntity
8
1
62
256
6
ByLayer
370
13
48
1
60
0
100
AcDbSpline
70
4
71
3
72
8
73
4
40
0
40
0
40
0
40
0
40
1
40
1
40
1
40
1
41
1
10
118.77521556973
20
2.23691074917562
30
0
41
1
10
119.118799850682
20
2.13290437712197
30
0
41
1
10
119.461558544074
20
2.035884299016
30
0
41
1
10
119.803362422256
20
1.94694406615119
30
0
0
SPLINE
5
2EF
100
AcDbEntity
8
1
62
256
6
ByLayer
370
13
48
1
60
0
100
AcDbSpline
70
4
71
3
72
8
73
4
40
0
40
0
40
0
40
0
40
1
40
1
40
1
40
1
41
1
10
25
20
-13.1282791308805
30
0
41
1
10
24.9576546804806
20
-13.1282741320283
30
0
41
1
10
24.9153159720636
20
-13.1284837914175
30
0
41
1
10
24.8729838694646
20
-13.1289079391747
30
0
0
SPLINE
5
2F0
100
AcDbEntity
8
1
62
256
6
ByLayer
370
13
48
1
60
0
100
AcDbSpline
70
4
71
3
72
8
73
4
40
0
40
0
40
0
40
0
40
1
40
1
40
1
40
1
41
1
10
124.733765265997
20
3.86512631421769
30
0
41
1
10
124.926445974584
20
4.17253707989568
30
0
41
1
10
125.110971720681
20
4.47790941535973
30
0
41
1
10
125.30010754453
20
4.77251384257718
30
0
0
SPLINE
5
2F1
100
AcDbEntity
8
1
62
256
6
ByLayer
370
13
48
1
60
0
100
AcDbSpline
70
4
71
3
72
8
73
4
40
0
40
0
40
0
40
0
40
1
40
1
40
1
40
1
41
1
10
124.396356155012
20
-13.1119879627577
30
0
41
1
10
123.986680349023
20
-13.0936367836239
30
0
41
1
10
123.577004543156
20
-13.0752856018028
30
0
41
1
10
123.167328737412
20
-13.0569344172602
30
0
0
SPLINE
5
2F2
100
AcDbEntity
8
1
62
256
6
ByLayer
370
13
48
1
60
0
100
AcDbSpline
70
4
71
3
72
18
73
14
40
0
40
0
40
0
40
0
40
0.125000000000026
40
0.125000000000026
40
0.250000000000052
40
0.250000000000052
40
0.50000000000005
40
0.50000000000005
40
0.750000000000048
40
0.750000000000048
40
0.875000000000024
40
0.875000000000024
40
1
40
1
40
1
40
1
41
1
10
135.764814127955
20
5.53497354208636
30
0
41
1
10
135.704268028835
20
5.53180045548723
30
0
41
1
10
135.644908243353
20
5.53212583687261
30
0
41
1
10
135.527682618518
20
5.53864353079368
30
0
41
1
10
135.47020581733
20
5.54487467908362
30
0
41
1
10
135.304534806513
20
5.57063372185837
30
0
41
1
10
135.199864352125
20
5.59727893045232
30
0
41
1
10
134.994631846382
20
5.66998836686423
30
0
41
1
10
134.895812080753
20
5.71569570865725
30
0
41
1
10
134.753843025676
20
5.79916570900429
30
0
41
1
10
134.70748751876
20
5.82953331748837
30
0
41
1
10
134.616720578925
20
5.89601562800422
30
0
41
1
10
134.572336922976
20
5.93214916392841
30
0
41
1
10
134.529730782631
20
5.97093173951723
30
0
0
SPLINE
5
2F3
100
AcDbEntity
8
1
62
256
6
ByLayer
370
13
48
1
60
0
100
AcDbSpline
70
4
71
3
72
52
73
48
40
0
40
0
40
0
40
0
40
0.0312500000000014
40
0.0312500000000014
40
0.0625000000000029
40
0.0625000000000029
40
0.0937500000000043
40
0.0937500000000043
40
0.125000000000006
40
0.125000000000006
40
0.140625000000007
40
0.140625000000007
40
0.156250000000008
40
0.156250000000008
40
0.171875000000009
40
0.171875000000009
40
0.179687500000009
40
0.179687500000009
40
0.187500000000009
40
0.187500000000009
40
0.218750000000009
40
0.218750000000009
40
0.250000000000008
40
0.250000000000008
40
0.312500000000007
40
0.312500000000007
40
0.375000000000005
40
0.375000000000005
40
0.437500000000004
40
0.437500000000004
40
0.500000000000002
40
0.500000000000002
40
0.531250000000002
40
0.531250000000002
40
0.562500000000002
40
0.562500000000002
40
0.625000000000001
40
0.625000000000001
40
0.687500000000001
40
0.687500000000001
40
0.71875
40
0.71875
40
0.75
40
0.75
40
0.875
40
0.875
40
1
40
1
40
1
40
1
41
1
10
121.396356155012
20
-12.9487555609507
30
0
41
1
10
120.839968799673
20
-12.9398180194724
30
0
41
1
10
120.281573835849
20
-12.9319130716417
30
0
41
1
10
119.162353386212
20
-12.9178775407281
30
0
41
1
10
118.601605511092
20
-12.9116619400416
30
0
41
1
10
117.480177365028
20
-12.8987198252428
30
0
41
1
10
116.919462390771
20
-12.8920365139331
30
0
41
1
10
115.800700799415
20
-12.8748903161929
30
0
41
1
10
115.242690341424
20
-12.8644322635208
30
0
41
1
10
114.410075155662
20
-12.8417711987698
30
0
41
1
10
114.133271234609
20
-12.833037524135
30
0
41
1
10
113.58154127961
20
-12.8121919076724
30
0
41
1
10
113.30603928726
20
-12.8000604791509
30
0
41
1
10
112.760057809795
20
-12.7710273582267
30
0
41
1
10
112.490673161258
20
-12.7542609933961
30
0
41
1
10
112.093929404013
20
-12.7239734601219
30
0
41
1
10
111.963153282228
20
-12.7128859941193
30
0
41
1
10
111.70377817211
20
-12.6889215395977
30
0
41
1
10
111.575076403541
20
-12.6760935493853
30
0
41
1
10
110.932256219512
20
-12.609791489323
30
0
41
1
10
110.417802844323
20
-12.5513357919326
30
0
41
1
10
109.390277940127
20
-12.4224635670668
30
0
41
1
10
108.876925693101
20
-12.3521924861143
30
0
41
1
10
107.337377717181
20
-12.1241637490256
30
0
41
1
10
106.311709409372
20
-11.9490640001543
30
0
41
1
10
104.256740508114
20
-11.5572827000325
30
0
41
1
10
103.227080817567
20
-11.3405345921222
30
0
41
1
10
101.165948122956
20
-10.8743238074056
30
0
41
1
10
100.133759681099
20
-10.6246004567091
30
0
41
1
10
98.0599714792954
20
-10.1045128538458
30
0
41
1
10
97.0183474748328
20
-9.83420676932371
30
0
41
1
10
95.4446702168908
20
-9.42459328106534
30
0
41
1
10
94.9180102969558
20
-9.28730795082134
30
0
41
1
10
93.8621907380262
20
-9.01301982613904
30
0
41
1
10
93.3330349632895
20
-8.87601817032294
30
0
41
1
10
91.7414696904516
20
-8.46738407623587
30
0
41
1
10
90.6749595218912
20
-8.19812078463664
30
0
41
1
10
88.5290640660303
20
-7.6764937210898
30
0
41
1
10
87.4497409527756
20
-7.42400882199436
30
0
41
1
10
85.8209237105067
20
-7.06251331145245
30
0
41
1
10
85.2761194076703
20
-6.94484302705621
30
0
41
1
10
84.1852375037394
20
-6.71648631639084
30
0
41
1
10
83.6389626318089
20
-6.60576567452716
30
0
41
1
10
80.903297152507
20
-6.07117724361183
30
0
41
1
10
78.7011868923967
20
-5.70394629652316
30
0
41
1
10
74.2708593795492
20
-5.10570956069191
30
0
41
1
10
72.0425706664259
20
-4.87498988560182
30
0
41
1
10
69.8
20
-4.72574638473202
30
0
0
SPLINE
5
2F4
100
AcDbEntity
8
1
62
256
6
ByLayer
370
13
48
1
60
0
100
AcDbSpline
70
4
71
3
72
8
73
4
40
0
40
0
40
0
40
0
40
1
40
1
40
1
40
1
41
1
10
135.784212478747
20
0.314022456819743
30
0
41
1
10
135.783708666515
20
0.334593679469151
30
0
41
1
10
135.783477797598
20
0.355288435385944
30
0
41
1
10
135.783526506121
20
0.375660728548638
30
0
0
SPLINE
5
2F5
100
AcDbEntity
8
1
62
256
6
ByLayer
370
13
48
1
60
0
100
AcDbSpline
70
4
71
3
72
40
73
36
40
0
40
0
40
0
40
0
40
0.0624999999999994
40
0.0624999999999994
40
0.124999999999999
40
0.124999999999999
40
0.249999999999998
40
0.249999999999998
40
0.312499999999998
40
0.312499999999998
40
0.374999999999998
40
0.374999999999998
40
0.437499999999998
40
0.437499999999998
40
0.499999999999997
40
0.499999999999997
40
0.562499999999997
40
0.562499999999997
40
0.593749999999997
40
0.593749999999997
40
0.624999999999998
40
0.624999999999998
40
0.687499999999998
40
0.687499999999998
40
0.749999999999999
40
0.749999999999999
40
0.781249999999999
40
0.781249999999999
40
0.812499999999998
40
0.812499999999998
40
0.874999999999999
40
0.874999999999999
40
0.937499999999999
40
0.937499999999999
40
1
40
1
40
1
40
1
41
1
10
118.77521556973
20
2.23691074917551
30
0
41
1
10
117.779411546303
20
2.67919789571025
30
0
41
1
10
116.783696802096
20
3.11677274270556
30
0
41
1
10
114.790874326525
20
3.97913936089623
30
0
41
1
10
113.792816022585
20
4.40431771021832
30
0
41
1
10
110.803005094821
20
5.65166661957949
30
0
41
1
10
108.814942515053
20
6.44556849234155
30
0
41
1
10
105.831548988371
20
7.56249944571405
30
0
41
1
10
104.836927526364
20
7.9225994340392
30
0
41
1
10
102.845998307604
20
8.61558404938043
30
0
41
1
10
101.848606624737
20
8.94880633645633
30
0
41
1
10
99.8578667896016
20
9.58159512314711
30
0
41
1
10
98.8640721676092
20
9.88135280436458
30
0
41
1
10
96.8776459914146
20
10.4445550803204
30
0
41
1
10
95.8849926414219
20
10.7077848945731
30
0
41
1
10
93.8930414305403
20
11.1887557073665
30
0
41
1
10
92.8937404454045
20
11.4064503373016
30
0
41
1
10
91.3829535860171
20
11.6948994670173
30
0
41
1
10
90.8773379780563
20
11.7846876077336
30
0
41
1
10
89.8603925224442
20
11.9509851817729
30
0
41
1
10
89.3499319765995
20
12.027208213931
30
0
41
1
10
87.8121416228448
20
12.2364214665454
30
0
41
1
10
86.7788447212336
20
12.3511241961669
30
0
41
1
10
84.7010708825624
20
12.5465444614419
30
0
41
1
10
83.6562712453995
20
12.6267876011465
30
0
41
1
10
82.0813623449974
20
12.7271798843672
30
0
41
1
10
81.5551098932854
20
12.7572980630234
30
0
41
1
10
80.5002469275487
20
12.8116844300883
30
0
41
1
10
79.9715703453242
20
12.8359762577819
30
0
41
1
10
78.3837312919416
20
12.9007449791032
30
0
41
1
10
77.3221295842935
20
12.9330477746318
30
0
41
1
10
75.1900772726464
20
12.9807115343362
30
0
41
1
10
74.1194457929701
20
12.9960681505102
30
0
41
1
10
71.9674570853118
20
13.0163952126086
30
0
41
1
10
70.886290463551
20
13.0214850902567
30
0
41
1
10
69.8
20
13.0242696069778
30
0
0
SPLINE
5
2F6
100
AcDbEntity
8
1
62
256
6
ByLayer
370
13
48
1
60
0
100
AcDbSpline
70
4
71
1
72
4
73
2
40
0
40
0
40
1
40
1
41
1
10
25.01
20
-12.5825815669887
30
0
41
1
10
25.01
20
-7.24411676363673
30
0
0
SPLINE
5
2F7
100
AcDbEntity
8
1
62
256
6
ByLayer
370
13
48
1
60
0
100
AcDbSpline
70
4
71
3
72
12
73
8
40
0
40
0
40
0
40
0
40
0.5
40
0.5
40
0.75
40
0.75
40
1
40
1
40
1
40
1
41
1
10
24.8729838694646
20
-13.1289079391747
30
0
41
1
10
24.5144121240629
20
-13.1325006594102
30
0
41
1
10
24.1639551021962
20
-13.148007471106
30
0
41
1
10
23.6500737269486
20
-13.184507012347
30
0
41
1
10
23.4797660239486
20
-13.1989479111135
30
0
41
1
10
23.1526182613869
20
-13.2297156070548
30
0
41
1
10
22.9948320593466
20
-13.2460864931906
30
0
41
1
10
22.8427644324926
20
-13.2623077774378
30
0
0
SPLINE
5
2F8
100
AcDbEntity
8
1
62
256
6
ByLayer
370
13
48
1
60
0
100
AcDbSpline
70
4
71
3
72
8
73
4
40
0
40
0
40
0
40
0
40
1
40
1
40
1
40
1
41
1
10
124.920806697883
20
5.76232184004184
30
0
41
1
10
124.910867056579
20
5.89292854148857
30
0
41
1
10
124.889778302265
20
6.0220556074392
30
0
41
1
10
124.85422171855
20
6.14926260011359
30
0
0
SPLINE
5
2F9
100
AcDbEntity
8
1
62
256
6
ByLayer
370
13
48
1
60
0
100
AcDbSpline
70
4
71
3
72
12
73
8
40
0
40
0
40
0
40
0
40
0.250000000000006
40
0.250000000000006
40
0.500000000000011
40
0.500000000000011
40
1
40
1
40
1
40
1
41
1
10
123.517984666564
20
6.08379180955194
30
0
41
1
10
123.638183001908
20
6.07640182114039
30
0
41
1
10
123.754875863728
20
6.07372083608451
30
0
41
1
10
123.983762836928
20
6.07501392663747
30
0
41
1
10
124.09593401358
20
6.0789881643563
30
0
41
1
10
124.427724506325
20
6.09824681510636
30
0
41
1
10
124.642722882092
20
6.12072980089391
30
0
41
1
10
124.854221718539
20
6.14926260011214
30
0
0
SPLINE
5
2FA
100
AcDbEntity
8
1
62
256
6
ByLayer
370
13
48
1
60
0
100
AcDbSpline
70
2053
71
3
72
85
73
81
40
0
40
0
40
0
40
0
40
0.0312500000000131
40
0.0312500000000131
40
0.0468750000000197
40
0.0468750000000197
40
0.0625000000000262
40
0.0625000000000262
40
0.0937500000000394
40
0.0937500000000394
40
0.109375000000042
40
0.109375000000042
40
0.125000000000045
40
0.125000000000045
40
0.156250000000043
40
0.156250000000043
40
0.187500000000042
40
0.187500000000042
40
0.203125000000041
40
0.203125000000041
40
0.21875000000004
40
0.21875000000004
40
0.250000000000037
40
0.250000000000037
40
0.281250000000034
40
0.281250000000034
40
0.312500000000031
40
0.312500000000031
40
0.328125000000031
40
0.328125000000031
40
0.343750000000031
40
0.343750000000031
40
0.375000000000026
40
0.375000000000026
40
0.406250000000021
40
0.406250000000021
40
0.421875000000018
40
0.421875000000018
40
0.437500000000016
40
0.437500000000016
40
0.46875000000002
40
0.46875000000002
40
0.500000000000024
40
0.500000000000024
40
0.531250000000028
40
0.531250000000028
40
0.54687500000003
40
0.54687500000003
40
0.562500000000031
40
0.578125000000033
40
0.578125000000033
40
0.593750000000035
40
0.593750000000035
40
0.625000000000031
40
0.625000000000031
40
0.656250000000028
40
0.656250000000028
40
0.687500000000024
40
0.687500000000024
40
0.750000000000016
40
0.750000000000016
40
0.781250000000012
40
0.781250000000012
40
0.79687500000001
40
0.79687500000001
40
0.812500000000008
40
0.812500000000008
40
0.843750000000003
40
0.843750000000003
40
0.874999999999999
40
0.874999999999999
40
0.906249999999995
40
0.906249999999995
40
0.921874999999993
40
0.921874999999993
40
0.937499999999991
40
0.937499999999991
40
0.968749999999995
40
0.968749999999995
40
1
40
1
40
1
40
1
41
1
10
132.364025201613
20
-0.770646581584998
30
0
41
1
10
132.454859890664
20
-0.770646581584998
30
0
41
1
10
132.544129014889
20
-0.779813831114893
30
0
41
1
10
132.675780545886
20
-0.806747262275508
30
0
41
1
10
132.719286098098
20
-0.817939234427826
30
0
41
1
10
132.805521679734
20
-0.844860257311694
30
0
41
1
10
132.848249639049
20
-0.860625681012721
30
0
41
1
10
132.972359341913
20
-0.913668450290146
30
0
41
1
10
133.050714555304
20
-0.956915982756442
30
0
41
1
10
133.161702765914
20
-1.03353227596213
30
0
41
1
10
133.197792471381
20
-1.06121658696148
30
0
41
1
10
133.266542168165
20
-1.11968237520219
30
0
41
1
10
133.299211181085
20
-1.15042721359112
30
0
41
1
10
133.392252448221
20
-1.24705342151174
30
0
41
1
10
133.447705255496
20
-1.31728560250093
30
0
41
1
10
133.545120451958
20
-1.4696292525453
30
0
41
1
10
133.585540902422
20
-1.54935236547649
30
0
41
1
10
133.634275673979
20
-1.67364804913134
30
0
41
1
10
133.64853321412
20
-1.71588684673199
30
0
41
1
10
133.673023851942
20
-1.80199301457307
30
0
41
1
10
133.683250722085
20
-1.84595965260547
30
0
41
1
10
133.707276382818
20
-1.97755809250933
30
0
41
1
10
133.714773736931
20
-2.06575979304921
30
0
41
1
10
133.713160124069
20
-2.24305980927056
30
0
41
1
10
133.703794437121
20
-2.33260977335658
30
0
41
1
10
133.669073194937
20
-2.50559809113824
30
0
41
1
10
133.643799555957
20
-2.58990469009089
30
0
41
1
10
133.593819589342
20
-2.71306689693756
30
0
41
1
10
133.57506025616
20
-2.75366296148403
30
0
41
1
10
133.534201266172
20
-2.83210167522475
30
0
41
1
10
133.512031654468
20
-2.87014820884528
30
0
41
1
10
133.440362306117
20
-2.98082870269158
30
0
41
1
10
133.385757197512
20
-3.05003936601255
30
0
41
1
10
133.261961519753
20
-3.17880376608252
30
0
41
1
10
133.194505555816
20
-3.23648601072446
30
0
41
1
10
133.085791769805
20
-3.31248131860192
30
0
41
1
10
133.048251516077
20
-3.33608548072891
30
0
41
1
10
132.970466789034
20
-3.3797229183032
30
0
41
1
10
132.929960407942
20
-3.39986207628473
30
0
41
1
10
132.806361657227
20
-3.45363756081002
30
0
41
1
10
132.72140129962
20
-3.48076862117708
30
0
41
1
10
132.546341071226
20
-3.51762525852561
30
0
41
1
10
132.455177593956
20
-3.52722472927525
30
0
41
1
10
132.275539234681
20
-3.52740785926702
30
0
41
1
10
132.186437264032
20
-3.51833629743214
30
0
41
1
10
132.05386922618
20
-3.49084321872459
30
0
41
1
10
132.009884215653
20
-3.47931509227681
30
0
41
1
10
131.92433938762
20
-3.45216560824053
30
0
41
1
10
131.840679350216
20
-3.42082818278342
30
0
41
1
10
131.760681503428
20
-3.38132862398626
30
0
41
1
10
131.682515095301
20
-3.33773201112498
30
0
41
1
10
131.644220956414
20
-3.31377320048512
30
0
41
1
10
131.53439716909
20
-3.23723643743938
30
0
41
1
10
131.467143950258
20
-3.179709800084
30
0
41
1
10
131.344061718586
20
-3.05206589642819
30
0
41
1
10
131.288277576073
20
-2.98164658428266
30
0
41
1
10
131.192401495571
20
-2.83376721943611
30
0
41
1
10
131.151625639311
20
-2.75568633788012
30
0
41
1
10
131.051099610011
20
-2.50869727929836
30
0
41
1
10
131.015866250423
20
-2.33421007792378
30
0
41
1
10
131.013208479818
20
-2.06623383023458
30
0
41
1
10
131.020760632508
20
-1.97799064922481
30
0
41
1
10
131.044534564276
20
-1.84723525080796
30
0
41
1
10
131.054547640367
20
-1.80392038080959
30
0
41
1
10
131.078891383276
20
-1.71785431415646
30
0
41
1
10
131.093303531885
20
-1.67495094425723
30
0
41
1
10
131.142220640114
20
-1.54989059961755
30
0
41
1
10
131.182524497113
20
-1.47051224184003
30
0
41
1
10
131.278566755764
20
-1.31982343099179
30
0
41
1
10
131.334996962278
20
-1.24798972404932
30
0
41
1
10
131.459143445469
20
-1.11885216434388
30
0
41
1
10
131.527150823608
20
-1.06080178402971
30
0
41
1
10
131.638278597527
20
-0.983776274558039
30
0
41
1
10
131.677007414502
20
-0.959728088426971
30
0
41
1
10
131.755848114569
20
-0.916125694485459
30
0
41
1
10
131.79613911887
20
-0.896427401597066
30
0
41
1
10
131.919578043835
20
-0.843535529258276
30
0
41
1
10
132.005647122057
20
-0.816404763772198
30
0
41
1
10
132.183314175948
20
-0.779820916870023
30
0
41
1
10
132.273190512562
20
-0.770646581584998
30
0
41
1
10
132.364025201613
20
-0.770646581584998
30
0
0
SPLINE
5
2FB
100
AcDbEntity
8
1
62
256
6
ByLayer
370
13
48
1
60
0
100
AcDbSpline
70
4
71
3
72
10
73
6
40
0
40
0
40
0
40
0
40
0.5
40
0.5
40
1
40
1
40
1
40
1
41
1
10
124.85422171855
20
6.14926260011325
30
0
41
1
10
124.855327725723
20
6.25381258761161
30
0
41
1
10
124.84490036388
20
6.35722852675735
30
0
41
1
10
124.793299748345
20
6.56103723567421
30
0
41
1
10
124.752767790814
20
6.65762641293199
30
0
41
1
10
124.69673774512
20
6.74686214651919
30
0
0
SPLINE
5
2FC
100
AcDbEntity
8
1
62
256
6
ByLayer
370
13
48
1
60
0
100
AcDbSpline
70
4
71
3
72
14
73
10
40
0
40
0
40
0
40
0
40
0.25
40
0.25
40
0.5
40
0.5
40
0.75
40
0.75
40
1
40
1
40
1
40
1
41
1
10
134.062196410172
20
6.14670377072804
30
0
41
1
10
134.104023651344
20
6.14889584355137
30
0
41
1
10
134.145350063368
20
6.14582277919982
30
0
41
1
10
134.227045470539
20
6.12991648883764
30
0
41
1
10
134.266036346988
20
6.11721464836631
30
0
41
1
10
134.337870497161
20
6.08556217043582
30
0
41
1
10
134.369341583373
20
6.06727922994617
30
0
41
1
10
134.423470714337
20
6.03113699099038
30
0
41
1
10
134.444835071455
20
6.01426901671871
30
0
41
1
10
134.461834490756
20
6.00075252404864
30
0
0
SPLINE
5
2FD
100
AcDbEntity
8
1
62
256
6
ByLayer
370
13
48
1
60
0
100
AcDbSpline
70
4
71
3
72
14
73
10
40
0
40
0
40
0
40
0
40
0.25
40
0.25
40
0.5
40
0.5
40
0.75
40
0.75
40
1
40
1
40
1
40
1
41
1
10
128.037459759697
20
5.48689831827639
30
0
41
1
10
128.067843543201
20
5.47994471947479
30
0
41
1
10
128.095367406817
20
5.47151907778292
30
0
41
1
10
128.142169448369
20
5.45222465664676
30
0
41
1
10
128.161056583873
20
5.44159319600826
30
0
41
1
10
128.18995266894
20
5.41839439142643
30
0
41
1
10
128.199488471694
20
5.40609607233103
30
0
41
1
10
128.208975074852
20
5.38113129913219
30
0
41
1
10
128.208977204678
20
5.36813488403291
30
0
41
1
10
128.204571456679
20
5.35540488916448
30
0
0
SPLINE
5
2FE
100
AcDbEntity
8
1
62
256
6
ByLayer
370
13
48
1
60
0
100
AcDbSpline
70
4
71
3
72
16
73
12
40
0
40
0
40
0
40
0
40
0.25
40
0.25
40
0.5
40
0.5
40
0.75
40
0.75
40
0.875
40
0.875
40
1
40
1
40
1
40
1
41
1
10
120.822875803263
20
1.46812471424988
30
0
41
1
10
121.002377191205
20
1.38832899254683
30
0
41
1
10
121.186080343549
20
1.32538617967609
30
0
41
1
10
121.56196344874
20
1.23217433792095
30
0
41
1
10
121.755840865292
20
1.20205575782646
30
0
41
1
10
122.137351911944
20
1.17713311279209
30
0
41
1
10
122.326438506454
20
1.18169733485885
30
0
41
1
10
122.607517282729
20
1.21377706889487
30
0
41
1
10
122.701019262631
20
1.228781182201
30
0
41
1
10
122.884209506402
20
1.2667844357824
30
0
41
1
10
122.974225850229
20
1.28979870595043
30
0
41
1
10
123.062650066481
20
1.31673541169644
30
0
0
SPLINE
5
2FF
100
AcDbEntity
8
1
62
256
6
ByLayer
370
13
48
1
60
0
100
AcDbSpline
70
4
71
3
72
8
73
4
40
0
40
0
40
0
40
0
40
1
40
1
40
1
40
1
41
1
10
123.167328737411
20
-13.0569344172604
30
0
41
1
10
122.580864974164
20
-13.0202006281986
30
0
41
1
10
121.990187374771
20
-12.9838707941416
30
0
41
1
10
121.396356155011
20
-12.9487555609505
30
0
0
SPLINE
5
300
100
AcDbEntity
8
1
62
256
6
ByLayer
370
13
48
1
60
0
100
AcDbSpline
70
4
71
3
72
8
73
4
40
0
40
0
40
0
40
0
40
1
40
1
40
1
40
1
41
1
10
25
20
-4.53042167150286
30
0
41
1
10
24.9576542676083
20
-4.53037975163608
30
0
41
1
10
24.9153154691392
20
-4.53034555957254
30
0
41
1
10
24.8729835987083
20
-4.53031908214592
30
0
0
SPLINE
5
301
100
AcDbEntity
8
1
62
256
6
ByLayer
370
13
48
1
60
0
100
AcDbSpline
70
4
71
3
72
8
73
4
40
0
40
0
40
0
40
0
40
1
40
1
40
1
40
1
41
1
10
121.001641942119
20
12.3270466913923
30
0
41
1
10
121.552097188595
20
11.3015358079376
30
0
41
1
10
122.191727001353
20
10.333461211716
30
0
41
1
10
122.944425917989
20
9.43821309279832
30
0
0
SPLINE
5
302
100
AcDbEntity
8
1
62
256
6
ByLayer
370
13
48
1
60
0
100
AcDbSpline
70
4
71
3
72
8
73
4
40
0
40
0
40
0
40
0
40
1
40
1
40
1
40
1
41
1
10
122.138568256864
20
4.6962074566303
30
0
41
1
10
122.174150813725
20
4.80819209967808
30
0
41
1
10
122.207567761964
20
4.92058060465965
30
0
41
1
10
122.239605492724
20
5.03322631836858
30
0
0
SPLINE
5
303
100
AcDbEntity
8
1
62
256
6
ByLayer
370
13
48
1
60
0
100
AcDbSpline
70
4
71
3
72
8
73
4
40
0
40
0
40
0
40
0
40
1
40
1
40
1
40
1
41
1
10
121.001641942116
20
12.3270466913873
30
0
41
1
10
121.097265034161
20
12.4924228207688
30
0
41
1
10
121.191126763072
20
12.6588474791377
30
0
41
1
10
121.283350280529
20
12.8262473550325
30
0
0
SPLINE
5
304
100
AcDbEntity
8
1
62
256
6
ByLayer
370
13
48
1
60
0
100
AcDbSpline
70
4
71
3
72
22
73
18
40
0
40
0
40
0
40
0
40
0.125
40
0.125
40
0.25
40
0.25
40
0.3125
40
0.3125
40
0.375
40
0.375
40
0.5
40
0.5
40
0.625
40
0.625
40
0.75
40
0.75
40
1
40
1
40
1
40
1
41
1
10
69.8
20
-13.0049774441742
30
0
41
1
10
68.1447740822639
20
-13.0035987098382
30
0
41
1
10
66.4878959015657
20
-13.0044033100251
30
0
41
1
10
63.1723397077074
20
-13.0111862331086
30
0
41
1
10
61.5135711474984
20
-13.0168385682382
30
0
41
1
10
59.0256790605308
20
-13.0262466078316
30
0
41
1
10
58.196391885509
20
-13.0295352846419
30
0
41
1
10
56.5378113991625
20
-13.0360110550268
30
0
41
1
10
55.7085160397739
20
-13.0391684640258
30
0
41
1
10
53.2206118083279
20
-13.0483676042256
30
0
41
1
10
51.5619901311961
20
-13.0541780623895
30
0
41
1
10
48.2447578581758
20
-13.0654932528419
30
0
41
1
10
46.5861410380754
20
-13.0710011231153
30
0
41
1
10
43.2689079084928
20
-13.0821286700966
30
0
41
1
10
41.6102912414867
20
-13.0877737393826
30
0
41
1
10
36.6344468354249
20
-13.1049650773056
30
0
41
1
10
33.3172264450033
20
-13.1168411200833
30
0
41
1
10
30
20
-13.1284398332326
30
0
0
SPLINE
5
305
100
AcDbEntity
8
1
62
256
6
ByLayer
370
13
48
1
60
0
100
AcDbSpline
70
4
71
3
72
27
73
23
40
0
40
0
40
0
40
0
40
0.125000000000001
40
0.125000000000001
40
0.156250000000002
40
0.156250000000002
40
0.187500000000002
40
0.187500000000002
40
0.250000000000003
40
0.312500000000004
40
0.312500000000004
40
0.343750000000004
40
0.343750000000004
40
0.375000000000004
40
0.375000000000004
40
0.500000000000003
40
0.500000000000003
40
0.625000000000002
40
0.625000000000002
40
0.750000000000002
40
0.750000000000002
40
1
40
1
40
1
40
1
41
1
10
22.8288487195743
20
-5.08936454648571
30
0
41
1
10
22.275743294441
20
-5.16597346440659
30
0
41
1
10
21.7296021073244
20
-5.27146969248301
30
0
41
1
10
21.0556571954127
20
-5.43955810042883
30
0
41
1
10
20.9211289056113
20
-5.4750487551951
30
0
41
1
10
20.6548480076312
20
-5.54914806465092
30
0
41
1
10
20.522893106577
20
-5.58780194765342
30
0
41
1
10
20.1305091788288
20
-5.70847361990681
30
0
41
1
10
19.6166035385322
20
-5.8819168801401
30
0
41
1
10
19.1206592324081
20
-6.07966458160035
30
0
41
1
10
18.7553192616329
20
-6.23693087742015
30
0
41
1
10
18.6346433463956
20
-6.29084695894599
30
0
41
1
10
18.3954923079524
20
-6.4016571313185
30
0
41
1
10
18.2771530816132
20
-6.4587351114786
30
0
41
1
10
17.6806985361954
20
-6.73768614835481
30
0
41
1
10
17.1964108729864
20
-6.95120707634223
30
0
41
1
10
16.2138813923244
20
-7.35936682041822
30
0
41
1
10
15.7154272802838
20
-7.55408139191712
30
0
41
1
10
14.7055887819356
20
-7.92447104296144
30
0
41
1
10
14.1953621340014
20
-8.0997314407808
30
0
41
1
10
12.6490399644672
20
-8.59623340204428
30
0
41
1
10
11.5973475641166
20
-8.88828061410433
30
0
41
1
10
10.524991319601
20
-9.1416490919668
30
0
0
SPLINE
5
306
100
AcDbEntity
8
1
62
256
6
ByLayer
370
13
48
1
60
0
100
AcDbSpline
70
4
71
3
72
8
73
4
40
0
40
0
40
0
40
0
40
1
40
1
40
1
40
1
41
1
10
123.062650066481
20
1.31673541169644
30
0
41
1
10
123.125296111043
20
1.3000530455204
30
0
41
1
10
123.188158825977
20
1.28395208590766
30
0
41
1
10
123.251248458725
20
1.26845572203553
30
0
0
SPLINE
5
307
100
AcDbEntity
8
1
62
256
6
ByLayer
370
13
48
1
60
0
100
AcDbSpline
70
4
71
3
72
10
73
6
40
0
40
0
40
0
40
0
40
0.5
40
0.5
40
1
40
1
40
1
40
1
41
1
10
131.109372111034
20
5.79167833739757
30
0
41
1
10
130.742684951322
20
5.77246107766547
30
0
41
1
10
130.375286699861
20
5.75320655119393
30
0
41
1
10
129.63981607208
20
5.71466216886404
30
0
41
1
10
129.271797198923
20
5.69537511698761
30
0
41
1
10
128.904210559901
20
5.6761107175424
30
0
0
SPLINE
5
308
100
AcDbEntity
8
1
62
256
6
ByLayer
370
13
48
1
60
0
100
AcDbSpline
70
4
71
3
72
44
73
40
40
0
40
0
40
0
40
0
40
0.12499999999999
40
0.12499999999999
40
0.187499999999985
40
0.187499999999985
40
0.24999999999998
40
0.24999999999998
40
0.312499999999975
40
0.312499999999975
40
0.343749999999976
40
0.343749999999976
40
0.374999999999976
40
0.374999999999976
40
0.437499999999978
40
0.437499999999978
40
0.499999999999979
40
0.499999999999979
40
0.531249999999983
40
0.531249999999983
40
0.562499999999986
40
0.562499999999986
40
0.624999999999988
40
0.624999999999988
40
0.687499999999991
40
0.687499999999991
40
0.749999999999993
40
0.749999999999993
40
0.812499999999995
40
0.812499999999995
40
0.843749999999996
40
0.843749999999996
40
0.874999999999996
40
0.874999999999996
40
0.937499999999997
40
0.937499999999997
40
0.968749999999999
40
0.968749999999999
40
1
40
1
40
1
40
1
41
1
10
124.042134268759
20
1.08299450314908
30
0
41
1
10
124.551937118595
20
0.981897724300609
30
0
41
1
10
125.06750297891
20
0.900075796641772
30
0
41
1
10
125.853172969713
20
0.818552148791724
30
0
41
1
10
126.11741678082
20
0.798256293137513
30
0
41
1
10
126.64961983505
20
0.774203242853105
30
0
41
1
10
126.914536181629
20
0.770579178543443
30
0
41
1
10
127.441724292875
20
0.782080088798807
30
0
41
1
10
127.703998053883
20
0.797190910092525
30
0
41
1
10
128.095155938467
20
0.835828296876855
30
0
41
1
10
128.225165585007
20
0.851375350104973
30
0
41
1
10
128.484372482189
20
0.888229021880903
30
0
41
1
10
128.613849843609
20
0.909605871367773
30
0
41
1
10
128.995982690857
20
0.982109856107314
30
0
41
1
10
129.24379741712
20
1.04172582560173
30
0
41
1
10
129.72435310466
20
1.18545623505898
30
0
41
1
10
129.957112255279
20
1.26954111299509
30
0
41
1
10
130.293367385626
20
1.41660735167366
30
0
41
1
10
130.402399742215
20
1.46877081200256
30
0
41
1
10
130.612464077736
20
1.57864423146611
30
0
41
1
10
130.713781606734
20
1.63647689268078
30
0
41
1
10
131.006316984728
20
1.8188757911789
30
0
41
1
10
131.186204214831
20
1.95227543722305
30
0
41
1
10
131.51251249895
20
2.24516513230088
30
0
41
1
10
131.653902092274
20
2.40021095705921
30
0
41
1
10
131.893093651452
20
2.72646142469796
30
0
41
1
10
131.991145322003
20
2.89801974487691
30
0
41
1
10
132.14094722988
20
3.25757151299567
30
0
41
1
10
132.190444921909
20
3.43999223180742
30
0
41
1
10
132.228900451217
20
3.71734965446328
30
0
41
1
10
132.235721735118
20
3.81042652374774
30
0
41
1
10
132.237406359522
20
3.99782525142001
30
0
41
1
10
132.232190347605
20
4.09257181903928
30
0
41
1
10
132.199061616436
20
4.37406274461301
30
0
41
1
10
132.154013461882
20
4.55887152955751
30
0
41
1
10
132.054931500994
20
4.83217132178396
30
0
41
1
10
132.016626099536
20
4.92261573547555
30
0
41
1
10
131.929681961748
20
5.10222120305642
30
0
41
1
10
131.881094490975
20
5.19120700931021
30
0
41
1
10
131.828077148328
20
5.27858928205589
30
0
0
SPLINE
5
309
100
AcDbEntity
8
1
62
256
6
ByLayer
370
13
48
1
60
0
100
AcDbSpline
70
4
71
3
72
8
73
4
40
0
40
0
40
0
40
0
40
1
40
1
40
1
40
1
41
1
10
135.197809900892
20
-1.72801265985731
30
0
41
1
10
135.267829689216
20
-2.11786552687943
30
0
41
1
10
135.282992090013
20
-2.50685045890998
30
0
41
1
10
135.246304512215
20
-2.89474255091991
30
0
0
SPLINE
5
30A
100
AcDbEntity
8
1
62
256
6
ByLayer
370
13
48
1
60
0
100
AcDbSpline
70
4
71
3
72
10
73
6
40
0
40
0
40
0
40
0
40
0.5
40
0.5
40
1
40
1
40
1
40
1
41
1
10
123.277019525186
20
6.07213297501133
30
0
41
1
10
123.316421670659
20
6.07756823088192
30
0
41
1
10
123.356096056691
20
6.08183746067198
30
0
41
1
10
123.43634144266
20
6.08653565773756
30
0
41
1
10
123.477142191277
20
6.08704408571316
30
0
41
1
10
123.517984666564
20
6.08379180955188
30
0
0
SPLINE
5
30B
100
AcDbEntity
8
1
62
256
6
ByLayer
370
13
48
1
60
0
100
AcDbSpline
70
4
71
3
72
8
73
4
40
0
40
0
40
0
40
0
40
1
40
1
40
1
40
1
41
1
10
25.45
20
-12.572972330725
30
0
41
1
10
25.3033332918956
20
-12.5731994116356
30
0
41
1
10
25.1566666211825
20
-12.5734450728851
30
0
41
1
10
25.01
20
-12.573710215566
30
0
0
SPLINE
5
30C
100
AcDbEntity
8
1
62
256
6
ByLayer
370
13
48
1
60
0
100
AcDbSpline
70
4
71
3
72
8
73
4
40
0
40
0
40
0
40
0
40
1
40
1
40
1
40
1
41
1
10
123.277019525191
20
6.07213297499689
30
0
41
1
10
123.253453025253
20
6.06830547337842
30
0
41
1
10
123.229423046857
20
6.06623533617577
30
0
41
1
10
123.204973620151
20
6.06560574380768
30
0
0
SPLINE
5
30D
100
AcDbEntity
8
1
62
256
6
ByLayer
370
13
48
1
60
0
100
AcDbSpline
70
4
71
3
72
12
73
8
40
0
40
0
40
0
40
0
40
0.249999999999999
40
0.249999999999999
40
0.499999999999997
40
0.499999999999997
40
1
40
1
40
1
40
1
41
1
10
122.467736100708
20
6.03404762383158
30
0
41
1
10
122.47146133667
20
6.0470068544557
30
0
41
1
10
122.480060200241
20
6.05802260845238
30
0
41
1
10
122.500757017674
20
6.07523261495547
30
0
41
1
10
122.512971536702
20
6.08173543886153
30
0
41
1
10
122.551200242609
20
6.0966380811461
30
0
41
1
10
122.579252798461
20
6.10085910293853
30
0
41
1
10
122.607610547309
20
6.10136129025844
30
0
0
SPLINE
5
30E
100
AcDbEntity
8
1
62
256
6
ByLayer
370
13
48
1
60
0
100
AcDbSpline
70
4
71
3
72
24
73
20
40
0
40
0
40
0
40
0
40
0.0624999999999995
40
0.0624999999999995
40
0.124999999999999
40
0.124999999999999
40
0.249999999999999
40
0.249999999999999
40
0.312499999999999
40
0.312499999999999
40
0.374999999999999
40
0.374999999999999
40
0.499999999999999
40
0.499999999999999
40
0.624999999999999
40
0.624999999999999
40
0.749999999999999
40
0.749999999999999
40
1
40
1
40
1
40
1
41
1
10
69.8
20
-4.72574638473202
30
0
41
1
10
68.9724342209025
20
-4.67082439576839
30
0
41
1
10
68.1445119004067
20
-4.62703786695937
30
0
41
1
10
66.4879414354508
20
-4.56251514585074
30
0
41
1
10
65.6592946717239
20
-4.5417372747896
30
0
41
1
10
63.1726390200134
20
-4.50229224674962
30
0
41
1
10
61.5138724946266
20
-4.50595637402574
30
0
41
1
10
59.0259395459949
20
-4.5141400639379
30
0
41
1
10
58.1966301226792
20
-4.51780292180251
30
0
41
1
10
56.5380085607935
20
-4.5235040075253
30
0
41
1
10
55.7086966231525
20
-4.52566200718758
30
0
41
1
10
53.2207579516738
20
-4.53042190063391
30
0
41
1
10
51.5621288104229
20
-4.53128002015646
30
0
41
1
10
48.2448787985631
20
-4.53068079092802
30
0
41
1
10
46.5862554679724
20
-4.52930421622762
30
0
41
1
10
43.2690072544408
20
-4.52754130424617
30
0
41
1
10
41.6103820932551
20
-4.52725667885534
30
0
41
1
10
36.6345052371487
20
-4.52798646649669
30
0
41
1
10
33.3172516490839
20
-4.5311833138216
30
0
41
1
10
30
20
-4.53213725360749
30
0
0
SPLINE
5
30F
100
AcDbEntity
8
1
62
256
6
ByLayer
370
13
48
1
60
0
100
AcDbSpline
70
4
71
3
72
16
73
12
40
0
40
0
40
0
40
0
40
0.125
40
0.125
40
0.25
40
0.25
40
0.5
40
0.5
40
0.75
40
0.75
40
1
40
1
40
1
40
1
41
1
10
22.8288487195752
20
-5.08936454648699
30
0
41
1
10
22.905350286314
20
-5.04412839198721
30
0
41
1
10
22.9834863348068
20
-5.0013427115498
30
0
41
1
10
23.1430683102099
20
-4.92077004567977
30
0
41
1
10
23.2248139151488
20
-4.88286174274097
30
0
41
1
10
23.472673125473
20
-4.7778944035488
30
0
41
1
10
23.6409979878354
20
-4.71960559335292
30
0
41
1
10
23.9836361893364
20
-4.62574835476454
30
0
41
1
10
24.1579497500814
20
-4.59018065769303
30
0
41
1
10
24.5127078449437
20
-4.54232626617232
30
0
41
1
10
24.6929793259628
20
-4.53020649439884
30
0
41
1
10
24.8729835987083
20
-4.53031908214589
30
0
0
SPLINE
5
310
100
AcDbEntity
8
1
62
256
6
ByLayer
370
13
48
1
60
0
100
AcDbSpline
70
4
71
3
72
8
73
4
40
0
40
0
40
0
40
0
40
1
40
1
40
1
40
1
41
1
10
24.8729838580784
20
-12.5868595525015
30
0
41
1
10
24.8729838617997
20
-12.767542348112
30
0
41
1
10
24.8729838655951
20
-12.9482251436697
30
0
41
1
10
24.8729838694646
20
-13.1289079391747
30
0
0
SPLINE
5
311
100
AcDbEntity
8
1
62
256
6
ByLayer
370
13
48
1
60
0
100
AcDbSpline
70
4
71
3
72
8
73
4
40
0
40
0
40
0
40
0
40
1
40
1
40
1
40
1
41
1
10
128.17633392512
20
5.12211167847784
30
0
41
1
10
128.222552006953
20
5.17107445654167
30
0
41
1
10
128.267611791397
20
5.22560555892832
30
0
41
1
10
128.310191876869
20
5.28670367837606
30
0
0
SPLINE
5
312
100
AcDbEntity
8
1
62
256
6
ByLayer
370
13
48
1
60
0
100
AcDbSpline
70
4
71
3
72
8
73
4
40
0
40
0
40
0
40
0
40
1
40
1
40
1
40
1
41
1
10
128.650363143462
20
5.66280713764965
30
0
41
1
10
128.632134807571
20
5.63520995156404
30
0
41
1
10
128.616592875747
20
5.60545670233452
30
0
41
1
10
128.604380582877
20
5.57456537891281
30
0
0
SPLINE
5
313
100
AcDbEntity
8
1
62
256
6
ByLayer
370
13
48
1
60
0
100
AcDbSpline
70
4
71
3
72
8
73
4
40
0
40
0
40
0
40
0
40
1
40
1
40
1
40
1
41
1
10
134.584130970515
20
6.01220437902714
30
0
41
1
10
134.559892083017
20
5.98434199368475
30
0
41
1
10
134.535812678109
20
5.95831414591126
30
0
41
1
10
134.511525852844
20
5.93435323308788
30
0
0
SPLINE
5
314
100
AcDbEntity
8
1
62
256
6
ByLayer
370
13
48
1
60
0
100
AcDbSpline
70
4
71
3
72
12
73
8
40
0
40
0
40
0
40
0
40
0.03018466472703
40
0.03018466472703
40
0.553014510177911
40
0.553014510177911
40
1
40
1
40
1
40
1
41
1
10
136.307336565246
20
5.59022732010439
30
0
41
1
10
136.305473885233
20
5.58823765528373
30
0
41
1
10
136.303598946078
20
5.58626217767375
30
0
41
1
10
136.269030212145
20
5.55033646133421
30
0
41
1
10
136.232867683967
20
5.52028019311496
30
0
41
1
10
136.158549111206
20
5.47265725414249
30
0
41
1
10
136.122526088225
20
5.45441839108767
30
0
41
1
10
136.08507906947
20
5.43980831727487
30
0
0
SPLINE
5
315
100
AcDbEntity
8
1
62
256
6
ByLayer
370
13
48
1
60
0
100
AcDbSpline
70
4
71
1
72
4
73
2
40
0
40
0
40
1
40
1
41
1
10
135.749675077619
20
5.53522667334406
30
0
41
1
10
135.766856763138
20
5.56204242965873
30
0
0
SPLINE
5
316
100
AcDbEntity
8
1
62
256
6
ByLayer
370
13
48
1
60
0
100
AcDbSpline
70
4
71
3
72
18
73
14
40
0
40
0
40
0
40
0
40
0.0690721630953287
40
0.0690721630953287
40
0.138144326190657
40
0.138144326190657
40
0.276288652381291
40
0.276288652381291
40
0.414432978571924
40
0.414432978571924
40
0.552577304762557
40
0.552577304762557
40
1
40
1
40
1
40
1
41
1
10
136.496198038842
20
5.96952940807566
30
0
41
1
10
136.495290037624
20
5.95711564013328
30
0
41
1
10
136.49411839378
20
5.94371031902901
30
0
41
1
10
136.491122789385
20
5.91682561574365
30
0
41
1
10
136.489297513883
20
5.90353612949394
30
0
41
1
10
136.483700982106
20
5.86790263361297
30
0
41
1
10
136.479977099306
20
5.84987982600566
30
0
41
1
10
136.47293681673
20
5.81963106663213
30
0
41
1
10
136.469580659694
20
5.80740481160393
30
0
41
1
10
136.463133208307
20
5.78602708244966
30
0
41
1
10
136.460016270889
20
5.77684984720639
30
0
41
1
10
136.447155642657
20
5.7419711628965
30
0
41
1
10
136.438108252996
20
5.72429787386977
30
0
41
1
10
136.429497764864
20
5.71103269875204
30
0
0
SPLINE
5
317
100
AcDbEntity
8
1
62
256
6
ByLayer
370
13
48
1
60
0
100
AcDbSpline
70
4
71
3
72
10
73
6
40
0
40
0
40
0
40
0
40
0.283552140881891
40
0.283552140881891
40
1
40
1
40
1
40
1
41
1
10
136.405211675169
20
5.68241769071045
30
0
41
1
10
136.401334417633
20
5.67918044037884
30
0
41
1
10
136.397524969535
20
5.67659007035027
30
0
41
1
10
136.384279009142
20
5.66915790713267
30
0
41
1
10
136.375134616506
20
5.66699192315215
30
0
41
1
10
136.36622465611
20
5.66696834929107
30
0
0
SPLINE
5
318
100
AcDbEntity
8
1
62
256
6
ByLayer
370
13
48
1
60
0
100
AcDbSpline
70
4
71
1
72
4
73
2
40
0
40
0
40
1
40
1
41
1
10
135.620307350017
20
5.56190608171289
30
0
41
1
10
135.562005813313
20
5.47427426480834
30
0
0
SPLINE
5
319
100
AcDbEntity
8
1
62
256
6
ByLayer
370
13
48
1
60
0
100
AcDbSpline
70
4
71
3
72
10
73
6
40
0
40
0
40
0
40
0
40
0.0523557545474048
40
0.0523557545474048
40
1
40
1
40
1
40
1
41
1
10
126.092859112756
20
13.009793455218
30
0
41
1
10
126.098044040463
20
13.010506624545
30
0
41
1
10
126.103234507264
20
13.0111722733959
30
0
41
1
10
126.202459446947
20
13.0231439725817
30
0
41
1
10
126.296676154968
20
13.0328866084777
30
0
41
1
10
126.391050390156
20
13.0412778022027
30
0
0
SPLINE
5
31A
100
AcDbEntity
8
1
62
256
6
ByLayer
370
13
48
1
60
0
100
AcDbSpline
70
4
71
1
72
4
73
2
40
0
40
0
40
1
40
1
41
1
10
125.544437928402
20
8.91427744487643
30
0
41
1
10
125.598648778794
20
8.91870063160039
30
0
0
SPLINE
5
31B
100
AcDbEntity
8
1
62
256
6
ByLayer
370
13
48
1
60
0
100
AcDbSpline
70
4
71
3
72
10
73
6
40
0
40
0
40
0
40
0
40
0.470496236634028
40
0.470496236634028
40
1
40
1
40
1
40
1
41
1
10
134.836669655302
20
12.7681220749681
30
0
41
1
10
134.83668657636
20
12.7678757133871
30
0
41
1
10
134.849619611509
20
12.7673403568534
30
0
41
1
10
134.897941243157
20
12.7659130833272
30
0
41
1
10
134.935910565493
20
12.7649999732968
30
0
41
1
10
134.97517250595
20
12.764225485257
30
0
0
SPLINE
5
31C
100
AcDbEntity
8
1
62
256
6
ByLayer
370
13
48
1
60
0
100
AcDbSpline
70
4
71
3
72
26
73
22
40
0
40
0
40
0
40
0
40
0.100758089070471
40
0.100758089070471
40
0.190682280163441
40
0.190682280163441
40
0.28060647125641
40
0.28060647125641
40
0.37053066234938
40
0.37053066234938
40
0.415492757895946
40
0.415492757895946
40
0.460454853442512
40
0.460454853442512
40
0.505416948989078
40
0.505416948989078
40
0.550379044535644
40
0.550379044535644
40
0.640303235628612
40
0.640303235628612
40
1
40
1
40
1
40
1
41
1
10
126.078360998999
20
12.8248389166386
30
0
41
1
10
126.090977674482
20
12.8292729066001
30
0
41
1
10
126.104474955529
20
12.8334916741457
30
0
41
1
10
126.132062514686
20
12.8408821824326
30
0
41
1
10
126.14573127916
20
12.8440150731176
30
0
41
1
10
126.174285916325
20
12.8492500580312
30
0
41
1
10
126.189223449003
20
12.8513139546787
30
0
41
1
10
126.218534302362
20
12.8542246879343
30
0
41
1
10
126.233220982518
20
12.855156106465
30
0
41
1
10
126.254769922032
20
12.8561141435502
30
0
41
1
10
126.261893800966
20
12.8563609220705
30
0
41
1
10
126.276025158127
20
12.8567115562368
30
0
41
1
10
126.283013702303
20
12.8567752320981
30
0
41
1
10
126.297389093935
20
12.8574843832451
30
0
41
1
10
126.304843520054
20
12.8582555215658
30
0
41
1
10
126.319585290222
20
12.8595368601888
30
0
41
1
10
126.32679216693
20
12.8599213913002
30
0
41
1
10
126.348369291977
20
12.8610070410788
30
0
41
1
10
126.362743543442
20
12.8617144115837
30
0
41
1
10
126.434227633041
20
12.8646466093467
30
0
41
1
10
126.48974354636
20
12.8651159232702
30
0
41
1
10
126.545137384679
20
12.8655743898291
30
0
0
SPLINE
5
31D
100
AcDbEntity
8
1
62
256
6
ByLayer
370
13
48
1
60
0
100
AcDbSpline
70
4
71
3
72
20
73
16
40
0
40
0
40
0
40
0
40
0.0479988698171916
40
0.0479988698171916
40
0.0959977396343833
40
0.0959977396343833
40
0.191995479268745
40
0.191995479268745
40
0.287993218903106
40
0.287993218903106
40
0.383990958537467
40
0.383990958537467
40
0.767981917074898
40
0.767981917074898
40
1
40
1
40
1
40
1
41
1
10
126.226480391294
20
5.43131631230378
30
0
41
1
10
126.228681010473
20
5.41906546025305
30
0
41
1
10
126.231247473544
20
5.40585604503067
30
0
41
1
10
126.237036884425
20
5.37943174488694
30
0
41
1
10
126.240241290452
20
5.3664058530766
30
0
41
1
10
126.249531878407
20
5.33155255808092
30
0
41
1
10
126.25511925777
20
5.31401773304572
30
0
41
1
10
126.265282829275
20
5.28467058945984
30
0
41
1
10
126.269898592581
20
5.27286212507337
30
0
41
1
10
126.278545305332
20
5.25227544754165
30
0
41
1
10
126.282604450137
20
5.24347429483177
30
0
41
1
10
126.301991974595
20
5.20414327540175
30
0
41
1
10
126.314888732194
20
5.18617163051184
30
0
41
1
10
126.33385783055
20
5.16536391433519
30
0
41
1
10
126.34057619011
20
5.1595844866828
30
0
41
1
10
126.346979763168
20
5.15528802439039
30
0
0
SPLINE
5
31E
100
AcDbEntity
8
1
62
256
6
ByLayer
370
13
48
1
60
0
100
AcDbSpline
70
4
71
3
72
12
73
8
40
0
40
0
40
0
40
0
40
0.0339720140299384
40
0.0339720140299384
40
0.355981342686628
40
0.355981342686628
40
1
40
1
40
1
40
1
41
1
10
111.104562492665
20
5.52530810651558
30
0
41
1
10
111.203158035846
20
5.48705727447154
30
0
41
1
10
111.301763461339
20
5.44870477038043
30
0
41
1
10
112.335128327794
20
5.0457720181258
30
0
41
1
10
113.269973803802
20
4.67265396069402
30
0
41
1
10
116.071006211896
20
3.53402042212784
30
0
41
1
10
117.936017384501
20
2.74846467790499
30
0
41
1
10
119.803362422256
20
1.94694406615119
30
0
0
SPLINE
5
31F
100
AcDbEntity
8
1
62
256
6
ByLayer
370
13
48
1
60
0
100
AcDbSpline
70
4
71
3
72
8
73
4
40
0
40
0
40
0
40
0
40
1
40
1
40
1
40
1
41
1
10
125.499787373219
20
8.346178261994
30
0
41
1
10
125.514342759399
20
8.34433240967314
30
0
41
1
10
125.529054752993
20
8.34239609228666
30
0
41
1
10
125.5439210431
20
8.34037294884499
30
0
0
SPLINE
5
320
100
AcDbEntity
8
1
62
256
6
ByLayer
370
13
48
1
60
0
100
AcDbSpline
70
4
71
3
72
10
73
6
40
0
40
0
40
0
40
0
40
0.718221990568746
40
0.718221990568746
40
1
40
1
40
1
40
1
41
1
10
125.725791555743
20
9.37923201835636
30
0
41
1
10
125.681488318714
20
9.31151283699862
30
0
41
1
10
125.644868946922
20
9.24269903679576
30
0
41
1
10
125.604658335354
20
9.14947010576304
30
0
41
1
10
125.59462725286
20
9.12369774503799
30
0
41
1
10
125.586398272226
20
9.09988689490106
30
0
0
SPLINE
5
321
100
AcDbEntity
8
1
62
256
6
ByLayer
370
13
48
1
60
0
100
AcDbSpline
70
4
71
3
72
10
73
6
40
0
40
0
40
0
40
0
40
0.632947936027693
40
0.632947936027693
40
1
40
1
40
1
40
1
41
1
10
127.208182480011
20
13.0081685382737
30
0
41
1
10
127.138210787041
20
12.9992556737788
30
0
41
1
10
127.063390312158
20
12.9912391982846
30
0
41
1
10
126.937797295648
20
12.9803518399964
30
0
41
1
10
126.889765624409
20
12.9767212698219
30
0
41
1
10
126.840626783415
20
12.9735566528656
30
0
0
SPLINE
5
322
100
AcDbEntity
8
1
62
256
6
ByLayer
370
13
48
1
60
0
100
AcDbSpline
70
4
71
3
72
10
73
6
40
0
40
0
40
0
40
0
40
0.291027865701344
40
0.291027865701344
40
1
40
1
40
1
40
1
41
1
10
125.754247065555
20
13.1624962399206
30
0
41
1
10
125.770091632334
20
13.1624889304934
30
0
41
1
10
125.786177605159
20
13.1624713979875
30
0
41
1
10
125.842288257966
20
13.1623835681114
30
0
41
1
10
125.883552100873
20
13.1622732538521
30
0
41
1
10
125.925375661768
20
13.1621467241379
30
0
0
SPLINE
5
323
100
AcDbEntity
8
1
62
256
6
ByLayer
370
13
48
1
60
0
100
AcDbSpline
70
4
71
3
72
8
73
4
40
0
40
0
40
0
40
0
40
1
40
1
40
1
40
1
41
1
10
135.787276459417
20
0.572115026340867
30
0
41
1
10
135.88936658036
20
0.598078365203577
30
0
41
1
10
135.991405740222
20
0.61232304667783
30
0
41
1
10
136.094299473979
20
0.616724033081482
30
0
0
SPLINE
5
324
100
AcDbEntity
8
1
62
256
6
ByLayer
370
13
48
1
60
0
100
AcDbSpline
70
4
71
3
72
14
73
10
40
0
40
0
40
0
40
0
40
0.0454485990047693
40
0.0454485990047693
40
0.363632399336513
40
0.363632399336513
40
0.681816199668256
40
0.681816199668256
40
1
40
1
40
1
40
1
41
1
10
25.449936381341
20
-4.51731071217031
30
0
41
1
10
25.4499237122473
20
-4.55303646773035
30
0
41
1
10
25.449911731234
20
-4.58941962625718
30
0
41
1
10
25.4498215514915
20
-4.88542818456278
30
0
41
1
10
25.4497774845331
20
-5.17435377077678
30
0
41
1
10
25.4497648367595
20
-5.77398608670376
30
0
41
1
10
25.449796259724
20
-6.0845136193083
30
0
41
1
10
25.4499304615299
20
-6.68610067792989
30
0
41
1
10
25.4500332002657
20
-6.97698042267348
30
0
41
1
10
25.4501648124351
20
-7.23879463078137
30
0
0
SPLINE
5
325
100
AcDbEntity
8
1
62
256
6
ByLayer
370
13
48
1
60
0
100
AcDbSpline
70
4
71
3
72
8
73
4
40
0
40
0
40
0
40
0
40
1
40
1
40
1
40
1
41
1
10
127.982050986734
20
4.9754770175937
30
0
41
1
10
127.975173902188
20
4.96780877442799
30
0
41
1
10
127.969687610295
20
4.9614543873241
30
0
41
1
10
127.965985214015
20
4.95664105736233
30
0
0
SPLINE
5
326
100
AcDbEntity
8
1
62
256
6
ByLayer
370
13
48
1
60
0
100
AcDbSpline
70
4
71
3
72
14
73
10
40
0
40
0
40
0
40
0
40
0.151192057384694
40
0.151192057384694
40
0.320953645907781
40
0.320953645907781
40
0.66047682295389
40
0.66047682295389
40
1
40
1
40
1
40
1
41
1
10
127.961933677587
20
4.94562865429094
30
0
41
1
10
127.963995260473
20
4.94556586704684
30
0
41
1
10
127.968181236117
20
4.94726249572787
30
0
41
1
10
127.980749449387
20
4.9541527925347
30
0
41
1
10
127.9896863692
20
4.95979580106604
30
0
41
1
10
128.021563812366
20
4.98183651830294
30
0
41
1
10
128.049112357984
20
5.00300361919611
30
0
41
1
10
128.110012924906
20
5.05563240367175
30
0
41
1
10
128.142682819831
20
5.08646217649661
30
0
41
1
10
128.176333925119
20
5.1221116784769
30
0
0
SPLINE
5
327
100
AcDbEntity
8
1
62
256
6
ByLayer
370
13
48
1
60
0
100
AcDbSpline
70
4
71
3
72
26
73
22
40
0
40
0
40
0
40
0
40
0.0740746635150917
40
0.0740746635150917
40
0.166667197163583
40
0.166667197163583
40
0.259259730812073
40
0.259259730812073
40
0.351852264460564
40
0.351852264460564
40
0.444444798109055
40
0.444444798109055
40
0.537037331757546
40
0.537037331757546
40
0.629629865406037
40
0.629629865406037
40
0.722222399054528
40
0.722222399054528
40
0.814814932703018
40
0.814814932703018
40
1
40
1
40
1
40
1
41
1
10
100.713212663803
20
-10.7667492247981
30
0
41
1
10
99.9843530633709
20
-10.9478306293183
30
0
41
1
10
99.25496493282
20
-11.1189419524108
30
0
41
1
10
97.6117765112513
20
-11.4787561083464
30
0
41
1
10
96.6984692524619
20
-11.6604516650743
30
0
41
1
10
94.8643623192483
20
-11.9831578437063
30
0
41
1
10
93.9433005054692
20
-12.1239326794429
30
0
41
1
10
92.0876368263677
20
-12.3658175681059
30
0
41
1
10
91.1534866799826
20
-12.4675029479218
30
0
41
1
10
89.2718672818631
20
-12.6390907912405
30
0
41
1
10
88.3244569502066
20
-12.7090561484302
30
0
41
1
10
86.4167197277996
20
-12.8239487842332
30
0
41
1
10
85.4575116007567
20
-12.8688389817401
30
0
41
1
10
83.5330706526711
20
-12.9394357004953
30
0
41
1
10
82.567169192157
20
-12.9651323353264
30
0
41
1
10
80.6277543716504
20
-13.002270143354
30
0
41
1
10
79.6542110924936
20
-13.0136714292976
30
0
41
1
10
77.6982545247207
20
-13.026655673837
30
0
41
1
10
76.7173521784925
20
-13.0282380508257
30
0
41
1
10
73.7670247533836
20
-13.0251673051476
30
0
41
1
10
71.7889284493568
20
-13.0135019070825
30
0
41
1
10
69.8
20
-13.0049774441742
30
0
0
SPLINE
5
328
100
AcDbEntity
8
1
62
256
6
ByLayer
370
13
48
1
60
0
100
AcDbSpline
70
4
71
3
72
20
73
16
40
0
40
0
40
0
40
0
40
0.260432848015285
40
0.260432848015285
40
0.390649272022926
40
0.390649272022926
40
0.520865696030568
40
0.520865696030568
40
0.65108212003821
40
0.65108212003821
40
0.781298544045852
40
0.781298544045852
40
0.911514968053493
40
0.911514968053493
40
1
40
1
40
1
40
1
41
1
10
121.283350280525
20
12.8262473550274
30
0
41
1
10
119.19300520366
20
12.9909342523642
30
0
41
1
10
117.10606886875
20
13.054703840913
30
0
41
1
10
113.972038219553
20
12.9981660444581
30
0
41
1
10
112.926771191358
20
12.9538605935027
30
0
41
1
10
110.840284403694
20
12.8142748729404
30
0
41
1
10
109.798288951171
20
12.7189163248284
30
0
41
1
10
107.713844203638
20
12.4776944779916
30
0
41
1
10
106.670574504951
20
12.3316898291301
30
0
41
1
10
104.585345880676
20
11.9914879116146
30
0
41
1
10
103.543471465648
20
11.7973752493556
30
0
41
1
10
101.456313396364
20
11.3668326737921
30
0
41
1
10
100.411039853296
20
11.1304055091282
30
0
41
1
10
98.6489105550229
20
10.704212548994
30
0
41
1
10
97.935155788456
20
10.5240616380788
30
0
41
1
10
97.2202344007053
20
10.3380316869034
30
0
0
SPLINE
5
329
100
AcDbEntity
8
1
62
256
6
ByLayer
370
13
48
1
60
0
100
AcDbSpline
70
4
71
3
72
18
73
14
40
0
40
0
40
0
40
0
40
0.12917539764792
40
0.12917539764792
40
0.274312831373266
40
0.274312831373266
40
0.346881548235939
40
0.346881548235939
40
0.419450265098612
40
0.419450265098612
40
0.709725132549306
40
0.709725132549306
40
1
40
1
40
1
40
1
41
1
10
11.0691588404263
20
-8.98126896042237
30
0
41
1
10
10.7730601841386
20
-9.2660463089652
30
0
41
1
10
10.4868342598919
20
-9.55838904772779
30
0
41
1
10
9.89978528417328
20
-10.1951296726268
30
0
41
1
10
9.60158170193532
20
-10.5415126960869
30
0
41
1
10
9.17335629512027
20
-11.0756302804291
30
0
41
1
10
9.03367508197599
20
-11.2562885807404
30
0
41
1
10
8.76275963592323
20
-11.6198841633654
30
0
41
1
10
8.63127912142096
20
-11.8031147391875
30
0
41
1
10
7.99369777293725
20
-12.7263835882161
30
0
41
1
10
7.54785895101173
20
-13.4881542104144
30
0
41
1
10
6.77594243812922
20
-15.0554800706752
30
0
41
1
10
6.44937772545728
20
-15.860702601603
30
0
41
1
10
6.18251336839572
20
-16.6872690620438
30
0
0
SPLINE
5
32A
100
AcDbEntity
8
1
62
256
6
ByLayer
370
13
48
1
60
0
100
AcDbSpline
70
4
71
3
72
52
73
48
40
0
40
0
40
0
40
0
40
0.0105792201784497
40
0.0105792201784497
40
0.0296065428673259
40
0.0296065428673259
40
0.0486338655562022
40
0.0486338655562022
40
0.0866885109339541
40
0.0866885109339541
40
0.124743156311706
40
0.124743156311706
40
0.162797801689458
40
0.162797801689458
40
0.20085244706721
40
0.20085244706721
40
0.238907092444962
40
0.238907092444962
40
0.276961737822714
40
0.276961737822714
40
0.315016383200466
40
0.315016383200466
40
0.353071028578218
40
0.353071028578218
40
0.372098351267094
40
0.372098351267094
40
0.391125673955969
40
0.391125673955969
40
0.429180319333722
40
0.429180319333722
40
0.467234964711473
40
0.467234964711473
40
0.505289610089225
40
0.505289610089225
40
0.543344255466977
40
0.543344255466977
40
0.581398900844729
40
0.581398900844729
40
0.619453546222481
40
0.619453546222481
40
0.695562836977985
40
0.695562836977985
40
0.771672127733489
40
0.771672127733489
40
0.847781418488992
40
0.847781418488992
40
1
40
1
40
1
40
1
41
1
10
100.135582913723
20
-10.6329908184969
30
0
41
1
10
99.889220642406
20
-10.6893177533159
30
0
41
1
10
99.6427817841717
20
-10.7445265833173
30
0
41
1
10
98.9528278150486
20
-10.8958612139606
30
0
41
1
10
98.5089372348833
20
-10.989323118708
30
0
41
1
10
97.621161703091
20
-11.1666399943414
30
0
41
1
10
97.1771886168598
20
-11.2503345968569
30
0
41
1
10
95.8436189328142
20
-11.4869032659688
30
0
41
1
10
94.9522402194825
20
-11.6255106250383
30
0
41
1
10
93.1574718959298
20
-11.8739913920496
30
0
41
1
10
92.2543923641691
20
-11.9823358372516
30
0
41
1
10
90.4369771616089
20
-12.1680984449601
30
0
41
1
10
89.5225788041633
20
-12.2452324193748
30
0
41
1
10
87.6826838753385
20
-12.3724739572649
30
0
41
1
10
86.756398775002
20
-12.422476071864
30
0
41
1
10
84.8970297855309
20
-12.5017093749227
30
0
41
1
10
83.9646672912653
20
-12.5312100521002
30
0
41
1
10
82.0944176651782
20
-12.5749837502145
30
0
41
1
10
81.1565138837015
20
-12.5897007149576
30
0
41
1
10
79.2744808557247
20
-12.6097247674818
30
0
41
1
10
78.3303399901143
20
-12.6148691216598
30
0
41
1
10
76.4349877418655
20
-12.6181826772536
30
0
41
1
10
75.4837340065451
20
-12.6161428855384
30
0
41
1
10
74.0510397214344
20
-12.6101111358706
30
0
41
1
10
73.5722796745214
20
-12.6076337497932
30
0
41
1
10
72.6144147996149
20
-12.6022632021272
30
0
41
1
10
72.1352679219117
20
-12.5993707524167
30
0
41
1
10
70.6971878495374
20
-12.5908843263411
30
0
41
1
10
69.7376035340688
20
-12.5857875826119
30
0
41
1
10
67.8168045942556
20
-12.5790427076313
30
0
41
1
10
66.8556216795094
20
-12.576988052657
30
0
41
1
10
64.9321534980613
20
-12.5750267770392
30
0
41
1
10
63.9698683108892
20
-12.5751081634669
30
0
41
1
10
62.0446547636278
20
-12.5768624327318
30
0
41
1
10
61.0816920914032
20
-12.578494900479
30
0
41
1
10
59.1556681895516
20
-12.5806236908246
30
0
41
1
10
58.1926619186494
20
-12.5810471778985
30
0
41
1
10
56.2666460115443
20
-12.5788358875431
30
0
41
1
10
55.3036352920134
20
-12.5773566410808
30
0
41
1
10
52.41459482703
20
-12.573587237356
30
0
41
1
10
50.488557264025
20
-12.5716848237159
30
0
41
1
10
46.6364738347668
20
-12.5711247556602
30
0
41
1
10
44.7104306117054
20
-12.5721792484088
30
0
41
1
10
40.8583449444921
20
-12.57376657
30
0
41
1
10
38.9323018562623
20
-12.5743274285478
30
0
41
1
10
33.1541722709327
20
-12.5747388158187
30
0
41
1
10
29.3020854798468
20
-12.5735155146787
30
0
41
1
10
25.45
20
-12.5729727694202
30
0
0
SPLINE
5
32B
100
AcDbEntity
8
1
62
256
6
ByLayer
370
13
48
1
60
0
100
AcDbSpline
70
4
71
3
72
32
73
28
40
0
40
0
40
0
40
0
40
0.0107000736146932
40
0.0107000736146932
40
0.0627684907928671
40
0.0627684907928671
40
0.114836907971041
40
0.114836907971041
40
0.166905325149215
40
0.166905325149215
40
0.218973742327389
40
0.218973742327389
40
0.271042159505563
40
0.271042159505563
40
0.37517899386191
40
0.37517899386191
40
0.427247411040085
40
0.427247411040085
40
0.479315828218259
40
0.479315828218259
40
0.583452662574607
40
0.583452662574607
40
0.687589496930956
40
0.687589496930956
40
0.791726331287304
40
0.791726331287304
40
1
40
1
40
1
40
1
41
1
10
83.7780888155422
20
-6.67824076373185
30
0
41
1
10
83.5730729269146
20
-6.69269574274449
30
0
41
1
10
83.3680089002845
20
-6.70688718799312
30
0
41
1
10
82.1647851124387
20
-6.78867152877632
30
0
41
1
10
81.1655554065628
20
-6.85057429683047
30
0
41
1
10
79.1645433681638
20
-6.96073141522177
30
0
41
1
10
78.162749222831
20
-7.00888136648751
30
0
41
1
10
76.156155588369
20
-7.08903293763171
30
0
41
1
10
75.1513081063755
20
-7.12048745122112
30
0
41
1
10
73.1384894418273
20
-7.16869789707678
30
0
41
1
10
72.1305461600383
20
-7.18588263803829
30
0
41
1
10
70.1117816635018
20
-7.2116617999236
30
0
41
1
10
69.1009117514772
20
-7.22037216944301
30
0
41
1
10
66.0647301091843
20
-7.2392072775886
30
0
41
1
10
64.0361621316412
20
-7.24296757058008
30
0
41
1
10
60.9907790389544
20
-7.24264880269254
30
0
41
1
10
59.9752269200069
20
-7.2415973413344
30
0
41
1
10
57.944336796382
20
-7.23932243827201
30
0
41
1
10
56.928891705947
20
-7.23815658049378
30
0
41
1
10
53.882552794447
20
-7.23652093034093
30
0
41
1
10
51.851656793312
20
-7.23719838887914
30
0
41
1
10
47.7898637096774
20
-7.23832651694534
30
0
41
1
10
45.7589668167424
20
-7.23894862240809
30
0
41
1
10
41.6971734570123
20
-7.23986939205849
30
0
41
1
10
39.6662767777436
20
-7.24014751362421
30
0
41
1
10
33.5735867320922
20
-7.23956068733941
30
0
41
1
10
29.5117933583788
20
-7.23734977631631
30
0
41
1
10
25.4499999999999
20
-7.23879468940856
30
0
0
SPLINE
5
32C
100
AcDbEntity
8
1
62
256
6
ByLayer
370
13
48
1
60
0
100
AcDbSpline
70
4
71
3
72
22
73
18
40
0
40
0
40
0
40
0
40
0.243102026938888
40
0.243102026938888
40
0.364653040408333
40
0.364653040408333
40
0.486204053877777
40
0.486204053877777
40
0.607755067347221
40
0.607755067347221
40
0.729306080816666
40
0.729306080816666
40
0.85085709428611
40
0.85085709428611
40
0.972408107755554
40
0.972408107755554
40
1
40
1
40
1
40
1
41
1
10
121.001641942106
20
12.3270466913935
30
0
41
1
10
119.111263170639
20
12.4803479423609
30
0
41
1
10
117.223642074271
20
12.5576006409524
30
0
41
1
10
114.388731888491
20
12.5491163964768
30
0
41
1
10
113.442973389192
20
12.5254293615154
30
0
41
1
10
111.554180340042
20
12.4344200186135
30
0
41
1
10
110.610470427661
20
12.3666884764627
30
0
41
1
10
108.722569656141
20
12.1892257798974
30
0
41
1
10
107.778366580308
20
12.0796876462005
30
0
41
1
10
105.887999765592
20
11.8225255309773
30
0
41
1
10
104.943589857575
20
11.6746174171339
30
0
41
1
10
103.055140760298
20
11.3486733979596
30
0
41
1
10
102.111211378294
20
11.1711610786263
30
0
41
1
10
100.220661860651
20
10.7872017968819
30
0
41
1
10
99.2732807852986
20
10.5803779071259
30
0
41
1
10
98.1094469747561
20
10.3102778982398
30
0
41
1
10
97.8940702387685
20
10.2596260494866
30
0
41
1
10
97.6786044243701
20
10.2083298916471
30
0
0
SPLINE
5
32D
100
AcDbEntity
8
1
62
256
6
ByLayer
370
13
48
1
60
0
100
AcDbSpline
70
4
71
3
72
12
73
8
40
0
40
0
40
0
40
0
40
0.0083054231821328
40
0.0083054231821328
40
0.504152711591066
40
0.504152711591066
40
1
40
1
40
1
40
1
41
1
10
110.394018531325
20
5.81705496258272
30
0
41
1
10
110.427436155391
20
5.81909269955284
30
0
41
1
10
110.460853583985
20
5.82111885020277
30
0
41
1
10
112.489334608077
20
5.94340587840304
30
0
41
1
10
114.483732789147
20
6.02225316810328
30
0
41
1
10
118.475147962006
20
6.09337123045677
30
0
41
1
10
120.471351057052
20
6.08560866570522
30
0
41
1
10
122.467736100712
20
6.03404762384244
30
0
0
SPLINE
5
32E
100
AcDbEntity
8
1
62
256
6
ByLayer
370
13
48
1
60
0
100
AcDbSpline
70
4
71
3
72
8
73
4
40
0
40
0
40
0
40
0
40
1
40
1
40
1
40
1
41
1
10
122.240574171462
20
5.03634794990751
30
0
41
1
10
118.956227572389
20
5.13968216221457
30
0
41
1
10
115.676606163434
20
5.14245365709863
30
0
41
1
10
112.395557760013
20
5.04850473583019
30
0
0
SPLINE
5
32F
100
AcDbEntity
8
1
62
256
6
ByLayer
370
13
48
1
60
0
100
AcDbSpline
70
4
71
3
72
34
73
30
40
0
40
0
40
0
40
0
40
0.0796577236277194
40
0.180904351717352
40
0.291223203664962
40
0.410749472424057
40
0.539466176018373
40
0.553462253243309
40
0.5681095674999
40
0.583410442000376
40
0.599367092451035
40
0.615981609528832
40
0.633255939053401
40
0.651191860049384
40
0.669790960856545
40
0.689054613421409
40
0.708983945890843
40
0.72957981362244
40
0.750842768727311
40
0.772773028266542
40
0.795370441232524
40
0.818634454459675
40
0.842564077625783
40
0.867157847524363
40
0.892413791810421
40
0.918329392446142
40
0.944901549099391
40
0.972126542776378
40
1
40
1
40
1
40
1
41
1
10
23.2409543260058
20
-4.80923129195619
30
0
41
1
10
23.270973552299
20
-4.87408947391148
30
0
41
1
10
23.342968473173
20
-5.02318915447802
30
0
41
1
10
23.4721677377736
20
-5.26871773365573
30
0
41
1
10
23.6370769217657
20
-5.55244072749909
30
0
41
1
10
23.83536474599
20
-5.86097288135741
30
0
41
1
10
23.993958406341
20
-6.08461609962984
30
0
41
1
10
24.0924393848906
20
-6.21687562953176
30
0
41
1
10
24.1200906408238
20
-6.25373547095762
30
0
41
1
10
24.1491642697662
20
-6.29211966073791
30
0
41
1
10
24.1796925840064
20
-6.33200103700881
30
0
41
1
10
24.2117112113573
20
-6.37334358787638
30
0
41
1
10
24.2452524930547
20
-6.41610915573568
30
0
41
1
10
24.2803468049114
20
-6.46025522293772
30
0
41
1
10
24.3170215866984
20
-6.50573524364134
30
0
41
1
10
24.3553009928862
20
-6.55249825493891
30
0
41
1
10
24.3952053366197
20
-6.60048869898878
30
0
41
1
10
24.436750563051
20
-6.64964619449972
30
0
41
1
10
24.4799476864508
20
-6.6999053331661
30
0
41
1
10
24.5248022117867
20
-6.75119548730098
30
0
41
1
10
24.5713135360114
20
-6.8034406168008
30
0
41
1
10
24.6194743379664
20
-6.85655915502812
30
0
41
1
10
24.6692699391994
20
-6.91046366927492
30
0
41
1
10
24.7206777168643
20
-6.96506149531328
30
0
41
1
10
24.7736662694398
20
-7.02025169289416
30
0
41
1
10
24.8281955161745
20
-7.0759364122687
30
0
41
1
10
24.8842131690778
20
-7.1319764916247
30
0
41
1
10
24.9416652789873
20
-7.18836329869222
30
0
41
1
10
24.9804031221222
20
-7.22539010534769
30
0
41
1
10
25
20
-7.24412139623823
30
0
0
SPLINE
5
330
100
AcDbEntity
8
1
62
256
6
ByLayer
370
13
48
1
60
0
100
AcDbSpline
70
4
71
3
72
30
73
26
40
0
40
0
40
0
40
0
40
0.109218204236337
40
0.109218204236337
40
0.218436408472674
40
0.218436408472674
40
0.327654612709012
40
0.327654612709012
40
0.38226371482718
40
0.38226371482718
40
0.436872816945349
40
0.436872816945349
40
0.655309225418028
40
0.655309225418028
40
0.709918327536201
40
0.709918327536201
40
0.764527429654373
40
0.764527429654373
40
0.873745633890718
40
0.873745633890718
40
0.928354736008893
40
0.928354736008893
40
0.982963838127068
40
0.982963838127068
40
1
40
1
40
1
40
1
41
1
10
122.138568256862
20
4.69620745662306
30
0
41
1
10
121.871323623258
20
4.76173538216082
30
0
41
1
10
121.601120087117
20
4.81586309550266
30
0
41
1
10
121.05533346961
20
4.90484634812063
30
0
41
1
10
120.779742584152
20
4.93966806665651
30
0
41
1
10
120.223098078406
20
4.99159793732545
30
0
41
1
10
119.942042541186
20
5.00869204018721
30
0
41
1
10
119.515958340105
20
5.02133714263363
30
0
41
1
10
119.373176696997
20
5.02337809764845
30
0
41
1
10
119.085996180374
20
5.02307193716572
30
0
41
1
10
118.941432618176
20
5.02070942155541
30
0
41
1
10
118.220946842027
20
4.99799232667255
30
0
41
1
10
117.647114067074
20
4.94552219939138
30
0
41
1
10
116.932642689328
20
4.8356153847316
30
0
41
1
10
116.78989142642
20
4.81138298012516
30
0
41
1
10
116.504675817942
20
4.75819919513884
30
0
41
1
10
116.362392271164
20
4.72926216158476
30
0
41
1
10
115.941805259284
20
4.63630439177626
30
0
41
1
10
115.66787933302
20
4.56589108395173
30
0
41
1
10
115.268275450848
20
4.44639301140512
30
0
41
1
10
115.136965718804
20
4.40423084005926
30
0
41
1
10
114.878609886177
20
4.31472014028913
30
0
41
1
10
114.752037599424
20
4.26750154869958
30
0
41
1
10
114.59232094861
20
4.202970916781
30
0
41
1
10
114.554750878133
20
4.18742371020778
30
0
41
1
10
114.517609296561
20
4.17166001374909
30
0
0
SPLINE
5
331
100
AcDbEntity
8
1
62
256
6
ByLayer
370
13
48
1
60
0
100
AcDbSpline
70
4
71
3
72
10
73
6
40
0
40
0
40
0
40
0
40
0.715051831011461
40
0.715051831011461
40
1
40
1
40
1
40
1
41
1
10
69.8
20
13.0242696069778
30
0
41
1
10
68.9751621084142
20
13.0291532534899
30
0
41
1
10
68.1494046672566
20
13.0327156603493
30
0
41
1
10
66.9933977395424
20
13.0370111470436
30
0
41
1
10
66.6638637716941
20
13.0381569710697
30
0
41
1
10
66.3342073639452
20
13.0392526543026
30
0
0
SPLINE
5
332
100
AcDbEntity
8
1
62
256
6
ByLayer
370
13
48
1
60
0
100
AcDbSpline
70
4
71
3
72
20
73
16
40
0
40
0
40
0
40
0
40
0.159384775383361
40
0.159384775383361
40
0.318769550766721
40
0.318769550766721
40
0.478154326150082
40
0.478154326150082
40
0.637539101533443
40
0.637539101533443
40
0.796923876916803
40
0.796923876916803
40
0.956308652300164
40
0.956308652300164
40
1
40
1
40
1
40
1
41
1
10
25.01
20
-7.23879468940856
30
0
41
1
10
25.01
20
-7.10671973148618
30
0
41
1
10
25.01
20
-6.96943386014692
30
0
41
1
10
25.01
20
-6.68487474605388
30
0
41
1
10
25.01
20
-6.5364461015063
30
0
41
1
10
25.01
20
-6.23434059642238
30
0
41
1
10
25.01
20
-6.08279406298925
30
0
41
1
10
25.01
20
-5.77873928166795
30
0
41
1
10
25.01
20
-5.62465326159085
30
0
41
1
10
25.01
20
-5.32461236169931
30
0
41
1
10
25.01
20
-5.17875625424773
30
0
41
1
10
25.01
20
-4.89528490401381
30
0
41
1
10
25.01
20
-4.75661200025985
30
0
41
1
10
25.01
20
-4.59190236834735
30
0
41
1
10
25.01
20
-4.55708754597836
30
0
41
1
10
25.01
20
-4.52289568941461
30
0
0
SPLINE
5
333
100
AcDbEntity
8
1
62
256
6
ByLayer
370
13
48
1
60
0
100
AcDbSpline
70
4
71
3
72
14
73
10
40
0
40
0
40
0
40
0
40
0.244230027829823
40
0.244230027829823
40
0.488460055659646
40
0.488460055659646
40
0.976920111319293
40
0.976920111319293
40
1
40
1
40
1
40
1
41
1
10
6.18468376774823
20
-14.4345753530334
30
0
41
1
10
6.31838155682414
20
-14.0438842372219
30
0
41
1
10
6.46762827470917
20
-13.6565146965987
30
0
41
1
10
6.79731662484238
20
-12.8883533043942
30
0
41
1
10
6.97798161491326
20
-12.5073192740917
30
0
41
1
10
7.56228041143066
20
-11.3847583576671
30
0
41
1
10
8.0097288981128
20
-10.6600780523964
30
0
41
1
10
8.54045003038735
20
-9.92696597746965
30
0
41
1
10
8.56452495284842
20
-9.89394312427737
30
0
41
1
10
8.58872953897125
20
-9.86097428632826
30
0
0
SPLINE
5
334
100
AcDbEntity
8
1
62
256
6
ByLayer
370
18
48
1
60
0
100
AcDbSpline
70
4
71
1
72
4
73
2
40
0
40
0
40
1
40
1
41
1
10
136.071556897014
20
0.482855827252678
30
0
41
1
10
135.750734933597
20
0.524898389189104
30
0
0
SPLINE
5
335
100
AcDbEntity
8
1
62
256
6
ByLayer
370
18
48
1
60
0
100
AcDbSpline
70
4
71
3
72
26
73
22
40
0
40
0
40
0
40
0
40
0.0082738953557705
40
0.0382517129623108
40
0.068229530568851
40
0.128185165781932
40
0.248096436208092
40
0.368007706634253
40
0.480424522658779
40
0.487918977060414
40
0.502907885863684
40
0.517896794666954
40
0.547874612273495
40
0.607830247486575
40
0.727741517912736
40
0.847652788338897
40
0.907608423551978
40
0.937586241158518
40
0.967564058765058
40
0.997541876371598
40
1
40
1
40
1
40
1
41
1
10
135.8223484018
20
-6.71229075510075
30
0
41
1
10
135.844645270222
20
-6.70482216737537
30
0
41
1
10
135.946366027104
20
-6.66150953485652
30
0
41
1
10
136.102452716409
20
-6.48231467538784
30
0
41
1
10
136.117188327865
20
-6.16162491562613
30
0
41
1
10
136.193955071956
20
-5.68448606507758
30
0
41
1
10
136.279394021845
20
-4.98533344620873
30
0
41
1
10
136.389039751077
20
-4.16937211171188
30
0
41
1
10
136.463560752935
20
-3.61361103822247
30
0
41
1
10
136.506523038326
20
-3.29095975840215
30
0
41
1
10
136.502520439768
20
-3.18437292119802
30
0
41
1
10
136.471536134407
20
-3.03977128273334
30
0
41
1
10
136.438264333832
20
-2.80034972915416
30
0
41
1
10
136.357846171595
20
-2.31444908147199
30
0
41
1
10
136.249683673798
20
-1.6220709642169
30
0
41
1
10
136.137783883803
20
-0.930344610412362
30
0
41
1
10
136.062990602422
20
-0.443510080802838
30
0
41
1
10
136.014999787682
20
-0.171735731894245
30
0
41
1
10
135.989287518487
20
0.085191933819857
30
0
41
1
10
135.824608881055
20
0.227316697493165
30
0
41
1
10
135.738179759328
20
0.263365515280242
30
0
41
1
10
135.731627571516
20
0.265899412318987
30
0
0
SPLINE
5
336
100
AcDbEntity
8
1
62
256
6
ByLayer
370
18
48
1
60
0
100
AcDbSpline
70
4
71
3
72
24
73
20
40
0
40
0
40
0
40
0
40
0.0151774120342044
40
0.0467969664848619
40
0.110036075386177
40
0.236514293188807
40
0.362992510991437
40
0.481565840181402
40
0.489470728794067
40
0.505280506019395
40
0.521090283244724
40
0.552709837695382
40
0.615948946596697
40
0.742427164399327
40
0.868905382201957
40
0.932144491103271
40
0.963764045553929
40
0.995383600004586
40
1
40
1
40
1
40
1
41
1
10
135.890957560119
20
-6.48568183888978
30
0
41
1
10
135.911158300585
20
-6.46219131930582
30
0
41
1
10
135.961679942956
20
-6.37878400098759
30
0
41
1
10
135.972825512449
20
-6.13622399498473
30
0
41
1
10
136.050456676821
20
-5.65371239476477
30
0
41
1
10
136.135669614581
20
-4.95640924820324
30
0
41
1
10
136.245427144692
20
-4.13961591418132
30
0
41
1
10
136.319936689698
20
-3.58394028335093
30
0
41
1
10
136.361276497568
20
-3.27347398028363
30
0
41
1
10
136.3582013896
20
-3.1915856700866
30
0
41
1
10
136.328735679287
20
-3.05407121106669
30
0
41
1
10
136.294998382155
20
-2.81129997677343
30
0
41
1
10
136.214778174209
20
-2.32659540365071
30
0
41
1
10
136.106575367569
20
-1.63395925832384
30
0
41
1
10
135.99464660906
20
-0.942053831039715
30
0
41
1
10
135.920010370966
20
-0.456241506811523
30
0
41
1
10
135.871361197848
20
-0.180738841963915
30
0
41
1
10
135.856671244725
20
-0.0339507332681706
30
0
41
1
10
135.819236867314
20
0.0289372539946555
30
0
41
1
10
135.814029464879
20
0.0366695022499641
30
0
0
SPLINE
5
337
100
AcDbEntity
8
1
62
256
6
ByLayer
370
13
48
1
60
0
100
AcDbSpline
70
4
71
2
72
6
73
3
40
0
40
0
40
0
40
1
40
1
40
1
41
1
10
110.756280172551
20
5.66002090918144
30
0
41
1
10
110.664615755439
20
5.69518240645644
30
0
41
1
10
110.572972777702
20
5.73241360905703
30
0
0
SPLINE
5
338
100
AcDbEntity
8
1
62
256
6
ByLayer
370
13
48
1
60
0
100
AcDbSpline
70
4
71
2
72
6
73
3
40
0
40
0
40
0
40
1
40
1
40
1
41
1
10
136.305572351642
20
5.58837868266434
30
0
41
1
10
136.355304654705
20
5.64096975598221
30
0
41
1
10
136.406301295765
20
5.68199625722156
30
0
0
SPLINE
5
339
100
AcDbEntity
8
1
62
256
6
ByLayer
370
13
48
1
60
0
100
AcDbSpline
70
4
71
2
72
6
73
3
40
0
40
0
40
0
40
1
40
1
40
1
41
1
10
126.345940069004
20
5.15475506654178
30
0
41
1
10
126.400945782256
20
5.11928391329073
30
0
41
1
10
126.455902910635
20
5.07217938058918
30
0
0
SPLINE
5
33A
100
AcDbEntity
8
1
62
256
6
ByLayer
370
13
48
1
60
0
100
AcDbSpline
70
4
71
3
72
16
73
12
40
0
40
0
40
0
40
0
40
0.139581892868384
40
0.279860081024259
40
0.420338145424003
40
0.560515416877765
40
0.648266245784867
40
0.735724502588564
40
0.824001967392
40
0.912406977067397
40
1
40
1
40
1
40
1
41
1
10
5.05339999999998
20
-19.75
30
0
41
1
10
6.0322853554631
20
-19.6122788204614
30
0
41
1
10
7.97542084452917
20
-19.2554172276107
30
0
41
1
10
10.8450926261169
20
-18.4744321559999
30
0
41
1
10
13.6398550298629
20
-17.4518594718696
30
0
41
1
10
16.0054335363128
20
-16.3575997687026
30
0
41
1
10
17.9516192120476
20
-15.2745206327254
30
0
41
1
10
19.5526980630491
20
-14.3180305198912
30
0
41
1
10
21.308795435221
20
-13.6616531339698
30
0
41
1
10
23.1381053601037
20
-13.2520612029291
30
0
41
1
10
24.3764191914611
20
-13.1629745958197
30
0
41
1
10
25
20
-13.1625
30
0
0
SPLINE
5
33B
100
AcDbEntity
8
1
62
256
6
ByLayer
370
13
48
1
60
0
100
AcDbSpline
70
4
71
3
72
16
73
12
40
0
40
0
40
0
40
0
40
0.0929278703661639
40
0.186705224549481
40
0.280210544948205
40
0.372958664095622
40
0.466130423948831
40
0.559614604978051
40
0.706767188208339
40
0.853752762870095
40
1
40
1
40
1
40
1
41
1
10
25
20
13.1625
30
0
41
1
10
24.3378004340758
20
13.1631011514149
30
0
41
1
10
23.0250170659534
20
13.26368583477
30
0
41
1
10
21.0894305685467
20
13.7225200222302
30
0
41
1
10
19.2456500297299
20
14.4650482746285
30
0
41
1
10
17.5683509533443
20
15.5123215910857
30
0
41
1
10
15.8221318664858
20
16.433471091646
30
0
41
1
10
13.6816127629107
20
17.4248065231903
30
0
41
1
10
11.1160676827996
20
18.3908345033057
30
0
41
1
10
8.11447246883105
20
19.2277884256648
30
0
41
1
10
6.07927967986043
20
19.6056438795757
30
0
41
1
10
5.05340000000001
20
19.75
30
0
0
SPLINE
5
33C
100
AcDbEntity
8
1
62
256
6
ByLayer
370
18
48
1
60
0
100
AcDbSpline
70
4
71
3
72
9
73
5
40
0
40
0
40
0
40
0
40
0.122097926987512
40
1
40
1
40
1
40
1
41
1
10
131.216108303234
20
-2.83734894542297
30
0
41
1
10
131.219867113021
20
-2.82785815392035
30
0
41
1
10
131.25144509851
20
-2.75044874179267
30
0
41
1
10
131.289055193537
20
-2.67585588354788
30
0
41
1
10
131.326938395663
20
-2.61330336495712
30
0
0
LINE
5
7F
100
AcDbEntity
8
SK1
62
256
6
ByLayer
370
13
48
1
60
0
100
AcDbLine
10
-6.5
20
-8.082178
30
0
11
-6.5
21
8.082178
31
0
39
0
210
0
220
0
230
1
0
LINE
5
81
100
AcDbEntity
8
SK1
62
256
6
ByLayer
370
13
48
1
60
0
100
AcDbLine
10
-60
20
5.859147
30
0
11
-60
21
-5.859147
31
0
39
0
210
0
220
0
230
1
0
LINE
5
82
100
AcDbEntity
8
SK1
62
256
6
ByLayer
370
13
48
1
60
0
100
AcDbLine
10
-58.599999
20
-8.082178
30
0
11
-59
21
-8.082178
31
0
39
0
210
0
220
0
230
1
0
LINE
5
83
100
AcDbEntity
8
SK1
62
256
6
ByLayer
370
13
48
1
60
0
100
AcDbLine
10
-56.600002
20
8.082178
30
0
11
-6.5
21
8.082178
31
0
39
0
210
0
220
0
230
1
0
LINE
5
84
100
AcDbEntity
8
SK1
62
256
6
ByLayer
370
13
48
1
60
0
100
AcDbLine
10
-6.5
20
-8.082178
30
0
11
-56.600002
21
-8.082178
31
0
39
0
210
0
220
0
230
1
0
LINE
5
85
100
AcDbEntity
8
SK1
62
256
6
ByLayer
370
13
48
1
60
0
100
AcDbLine
10
-59
20
8.082178
30
0
11
-58.599999
21
8.082178
31
0
39
0
210
0
220
0
230
1
0
LINE
5
86
100
AcDbEntity
8
1
62
256
6
ByLayer
370
18
48
1
60
0
100
AcDbLine
10
132.22385
20
9.030427
30
0
11
132.137848
21
9.02592
31
0
39
0
210
0
220
0
230
1
0
LINE
5
87
100
AcDbEntity
8
1
62
256
6
ByLayer
370
18
48
1
60
0
100
AcDbLine
10
131.048788
20
8.301515
30
0
11
131.0558
21
8.320369
31
0
39
0
210
0
220
0
230
1
0
LINE
5
88
100
AcDbEntity
8
1
62
256
6
ByLayer
370
18
48
1
60
0
100
AcDbLine
10
132.024301
20
8.59427
30
0
11
131.937238
21
8.589707
31
0
39
0
210
0
220
0
230
1
0
LINE
5
89
100
AcDbEntity
8
1
62
256
6
ByLayer
370
18
48
1
60
0
100
AcDbLine
10
131.041078
20
10.114461
30
0
11
130.954015
21
10.109898
31
0
39
0
210
0
220
0
230
1
0
LINE
5
8A
100
AcDbEntity
8
1
62
256
6
ByLayer
370
18
48
1
60
0
100
AcDbLine
10
131.942662
20
9.903878
30
0
11
131.85666
21
9.899371
31
0
39
0
210
0
220
0
230
1
0
LINE
5
8B
100
AcDbEntity
8
1
62
256
6
ByLayer
370
18
48
1
60
0
100
AcDbLine
10
130.962959
20
10.09188
30
0
11
130.954015
21
10.109898
31
0
39
0
210
0
220
0
230
1
0
LINE
5
8C
100
AcDbEntity
8
1
62
256
6
ByLayer
370
18
48
1
60
0
100
AcDbLine
10
132.198832
20
9.507807
30
0
11
132.112829
21
9.503299
31
0
39
0
210
0
220
0
230
1
0
LINE
5
8D
100
AcDbEntity
8
1
62
256
6
ByLayer
370
18
48
1
60
0
100
AcDbLine
10
131.85666
20
9.899371
30
0
11
131.867722
21
9.916153
31
0
39
0
210
0
220
0
230
1
0
LINE
5
8E
100
AcDbEntity
8
1
62
256
6
ByLayer
370
18
48
1
60
0
100
AcDbLine
10
132.010485
20
8.609748
30
0
11
131.924482
21
8.60524
31
0
39
0
210
0
220
0
230
1
0
LINE
5
8F
100
AcDbEntity
8
1
62
256
6
ByLayer
370
18
48
1
60
0
100
AcDbLine
10
131.141803
20
8.324876
30
0
11
131.0558
21
8.320369
31
0
39
0
210
0
220
0
230
1
0
LINE
5
90
100
AcDbEntity
8
1
62
256
6
ByLayer
370
18
48
1
60
0
100
AcDbLine
10
131.954784
20
9.920715
30
0
11
131.867722
21
9.916153
31
0
39
0
210
0
220
0
230
1
0
LINE
5
91
100
AcDbEntity
8
1
62
256
6
ByLayer
370
18
48
1
60
0
100
AcDbLine
10
131.937238
20
8.589707
30
0
11
131.924482
21
8.60524
31
0
39
0
210
0
220
0
230
1
0
LINE
5
92
100
AcDbEntity
8
1
62
256
6
ByLayer
370
18
48
1
60
0
100
AcDbLine
10
131.135851
20
8.306078
30
0
11
131.048788
21
8.301515
31
0
39
0
210
0
220
0
230
1
0
LINE
5
93
100
AcDbEntity
8
1
62
256
6
ByLayer
370
18
48
1
60
0
100
AcDbLine
10
131.048962
20
10.096387
30
0
11
130.962959
21
10.09188
31
0
39
0
210
0
220
0
230
1
0
LINE
5
94
100
AcDbEntity
8
1
62
256
6
ByLayer
370
18
48
1
60
0
100
AcDbLine
10
136.008341
20
-6.851327
30
0
11
135.856104
21
-6.894779
31
0
39
0
210
0
220
0
230
1
0
LINE
5
95
100
AcDbEntity
8
1
62
256
6
ByLayer
370
18
48
1
60
0
100
AcDbLine
10
136.122717
20
0.196305
30
0
11
136.16637
21
0.044768
31
0
39
0
210
0
220
0
230
1
0
LINE
5
96
100
AcDbEntity
8
1
62
256
6
ByLayer
370
18
48
1
60
0
100
AcDbLine
10
136.684757
20
-3.341893
30
0
11
136.258874
21
-6.561908
31
0
39
0
210
0
220
0
230
1
0
LINE
5
97
100
AcDbEntity
8
1
62
256
6
ByLayer
370
18
48
1
60
0
100
AcDbLine
10
136.182226
20
-0.026424
30
0
11
136.682504
21
-3.17051
31
0
39
0
210
0
220
0
230
1
0
LINE
5
98
100
AcDbEntity
8
1
62
256
6
ByLayer
370
13
48
1
60
0
100
AcDbLine
10
136.068784
20
5.671725
30
0
11
136.35697
21
5.714915
31
0
39
0
210
0
220
0
230
1
0
LINE
5
99
100
AcDbEntity
8
1
62
256
6
ByLayer
370
13
48
1
60
0
100
AcDbLine
10
135.295904
20
13.510808
30
0
11
135.3788
21
13.514424
31
0
39
0
210
0
220
0
230
1
0
LINE
5
9A
100
AcDbEntity
8
1
62
256
6
ByLayer
370
13
48
1
60
0
100
AcDbLine
10
127.798641
20
5.587837
30
0
11
127.794029
21
5.587596
31
0
39
0
210
0
220
0
230
1
0
LINE
5
9B
100
AcDbEntity
8
1
62
256
6
ByLayer
370
13
48
1
60
0
100
AcDbLine
10
135.383165
20
13.414519
30
0
11
135.378553
21
13.414278
31
0
39
0
210
0
220
0
230
1
0
LINE
5
9C
100
AcDbEntity
8
1
62
256
6
ByLayer
370
13
48
1
60
0
100
AcDbLine
10
125.957335
20
8.804586
30
0
11
126.483923
21
5.470245
31
0
39
0
210
0
220
0
230
1
0
LINE
5
9D
100
AcDbEntity
8
1
62
256
6
ByLayer
370
13
48
1
60
0
100
AcDbLine
10
135.013051
20
5.998134
30
0
11
136.072411
21
6.1569
31
0
39
0
210
0
220
0
230
1
0
LINE
5
9E
100
AcDbEntity
8
1
62
256
6
ByLayer
370
13
48
1
60
0
100
AcDbLine
10
136.846182
20
9.520913
30
0
11
136.841569
21
9.520671
31
0
39
0
210
0
220
0
230
1
0
LINE
5
9F
100
AcDbEntity
8
1
62
256
6
ByLayer
370
13
48
1
60
0
100
AcDbLine
10
135.487762
20
13.419082
30
0
11
135.48315
21
13.41884
31
0
39
0
210
0
220
0
230
1
0
LINE
5
A0
100
AcDbEntity
8
1
62
256
6
ByLayer
370
13
48
1
60
0
100
AcDbLine
10
136.317691
20
12.998732
30
0
11
136.313079
21
12.99849
31
0
39
0
210
0
220
0
230
1
0
LINE
5
A1
100
AcDbEntity
8
1
62
256
6
ByLayer
370
13
48
1
60
0
100
AcDbLine
10
126.285521
20
12.75811
30
0
11
126.347031
21
12.25168
31
0
39
0
210
0
220
0
230
1
0
LINE
5
A2
100
AcDbEntity
8
1
62
256
6
ByLayer
370
13
48
1
60
0
100
AcDbLine
10
127.289381
20
5.031993
30
0
11
127.184784
21
5.02743
31
0
39
0
210
0
220
0
230
1
0
LINE
5
A3
100
AcDbEntity
8
1
62
256
6
ByLayer
370
13
48
1
60
0
100
AcDbLine
10
127.758183
20
12.175168
30
0
11
127.765913
21
12.234231
31
0
39
0
210
0
220
0
230
1
0
LINE
5
A4
100
AcDbEntity
8
1
62
256
6
ByLayer
370
13
48
1
60
0
100
AcDbLine
10
136.942624
20
9.680013
30
0
11
136.416035
21
13.014353
31
0
39
0
210
0
220
0
230
1
0
LINE
5
A5
100
AcDbEntity
8
1
62
256
6
ByLayer
370
13
48
1
60
0
100
AcDbLine
10
126.357765
20
12.152176
30
0
11
127.652448
21
12.34621
31
0
39
0
210
0
220
0
230
1
0
LINE
5
A6
100
AcDbEntity
8
1
62
256
6
ByLayer
370
13
48
1
60
0
100
AcDbLine
10
127.590768
20
12.187094
30
0
11
126.361426
21
12.002853
31
0
39
0
210
0
220
0
230
1
0
LINE
5
A7
100
AcDbEntity
8
1
62
256
6
ByLayer
370
13
48
1
60
0
100
AcDbLine
10
125.602593
20
8.762925
30
0
11
126.22648
21
5.431316
31
0
39
0
210
0
220
0
230
1
0
LINE
5
A8
100
AcDbEntity
8
1
62
256
6
ByLayer
370
13
48
1
60
0
100
AcDbLine
10
135.916103
20
5.5644
30
0
11
136.072411
21
6.1569
31
0
39
0
210
0
220
0
230
1
0
LINE
5
A9
100
AcDbEntity
8
1
62
256
6
ByLayer
370
13
48
1
60
0
100
AcDbLine
10
127.830655
20
5.67807
30
0
11
127.816317
21
5.76886
31
0
39
0
210
0
220
0
230
1
0
LINE
5
AA
100
AcDbEntity
8
1
62
256
6
ByLayer
370
13
48
1
60
0
100
AcDbLine
10
127.34188
20
8.772979
30
0
11
127.337268
21
8.772738
31
0
39
0
210
0
220
0
230
1
0
LINE
5
AB
100
AcDbEntity
8
1
62
256
6
ByLayer
370
13
48
1
60
0
100
AcDbLine
10
127.659496
20
12.448379
30
0
11
126.347031
21
12.25168
31
0
39
0
210
0
220
0
230
1
0
LINE
5
AC
100
AcDbEntity
8
1
62
256
6
ByLayer
370
13
48
1
60
0
100
AcDbLine
10
127.159787
20
5.17632
30
0
11
127.264384
21
5.180883
31
0
39
0
210
0
220
0
230
1
0
LINE
5
AD
100
AcDbEntity
8
1
62
256
6
ByLayer
370
13
48
1
60
0
100
AcDbLine
10
136.314782
20
6.294337
30
0
11
136.310169
21
6.294095
31
0
39
0
210
0
220
0
230
1
0
LINE
5
AE
100
AcDbEntity
8
1
62
256
6
ByLayer
370
13
48
1
60
0
100
AcDbLine
10
136.844279
20
9.664392
30
0
11
136.839667
21
9.66415
31
0
39
0
210
0
220
0
230
1
0
LINE
5
AF
100
AcDbEntity
8
1
62
256
6
ByLayer
370
13
48
1
60
0
100
AcDbLine
10
128.383805
20
12.287936
30
0
11
133.952221
21
12.579764
31
0
39
0
210
0
220
0
230
1
0
LINE
5
B0
100
AcDbEntity
8
1
62
256
6
ByLayer
370
13
48
1
60
0
100
AcDbLine
10
125.826365
20
8.9256
30
0
11
126.231788
21
12.023432
31
0
39
0
210
0
220
0
230
1
0
LINE
5
B1
100
AcDbEntity
8
1
62
256
6
ByLayer
370
13
48
1
60
0
100
AcDbLine
10
127.005492
20
12.866012
30
0
11
126.70602
21
12.866462
31
0
39
0
210
0
220
0
230
1
0
LINE
5
B2
100
AcDbEntity
8
1
62
256
6
ByLayer
370
13
48
1
60
0
100
AcDbLine
10
127.005492
20
12.866012
30
0
11
127.014943
21
12.867428
31
0
39
0
210
0
220
0
230
1
0
LINE
5
B3
100
AcDbEntity
8
1
62
256
6
ByLayer
370
13
48
1
60
0
100
AcDbLine
10
135.462968
20
9.452084
30
0
11
135.044881
21
6.257484
31
0
39
0
210
0
220
0
230
1
0
LINE
5
B4
100
AcDbEntity
8
1
62
256
6
ByLayer
370
13
48
1
60
0
100
AcDbLine
10
127.660476
20
5.680353
30
0
11
127.175915
21
8.748581
31
0
39
0
210
0
220
0
230
1
0
LINE
5
B5
100
AcDbEntity
8
1
62
256
6
ByLayer
370
13
48
1
60
0
100
AcDbLine
10
127.458644
20
5.142022
30
0
11
127.454031
21
5.14178
31
0
39
0
210
0
220
0
230
1
0
LINE
5
B6
100
AcDbEntity
8
1
62
256
6
ByLayer
370
13
48
1
60
0
100
AcDbLine
10
126.354856
20
5.447781
30
0
11
125.828267
21
8.782121
31
0
39
0
210
0
220
0
230
1
0
LINE
5
B7
100
AcDbEntity
8
1
62
256
6
ByLayer
370
13
48
1
60
0
100
AcDbLine
10
127.839145
20
12.165725
30
0
11
127.420179
21
8.964407
31
0
39
0
210
0
220
0
230
1
0
LINE
5
B8
100
AcDbEntity
8
1
62
256
6
ByLayer
370
13
48
1
60
0
100
AcDbLine
10
127.816317
20
5.76886
30
0
11
127.34188
21
8.772979
31
0
39
0
210
0
220
0
230
1
0
LINE
5
B9
100
AcDbEntity
8
1
62
256
6
ByLayer
370
13
48
1
60
0
100
AcDbLine
10
127.761301
20
12.23399
30
0
11
127.334605
21
8.973608
31
0
39
0
210
0
220
0
230
1
0
LINE
5
BA
100
AcDbEntity
8
1
62
256
6
ByLayer
370
13
48
1
60
0
100
AcDbLine
10
135.009346
20
13.343325
30
0
11
135.124906
21
13.349381
31
0
39
0
210
0
220
0
230
1
0
LINE
5
BB
100
AcDbEntity
8
1
62
256
6
ByLayer
370
13
48
1
60
0
100
AcDbLine
10
136.366225
20
5.666968
30
0
11
136.35697
21
5.714915
31
0
39
0
210
0
220
0
230
1
0
LINE
5
BC
100
AcDbEntity
8
1
62
256
6
ByLayer
370
13
48
1
60
0
100
AcDbLine
10
135.020098
20
6.100303
30
0
11
135.015486
21
6.100061
31
0
39
0
210
0
220
0
230
1
0
LINE
5
BD
100
AcDbEntity
8
1
62
256
6
ByLayer
370
13
48
1
60
0
100
AcDbLine
10
136.068784
20
5.671725
30
0
11
136.325516
21
6.194833
31
0
39
0
210
0
220
0
230
1
0
LINE
5
BE
100
AcDbEntity
8
1
62
256
6
ByLayer
370
13
48
1
60
0
100
AcDbLine
10
136.310169
20
6.294095
30
0
11
135.015486
21
6.100061
31
0
39
0
210
0
220
0
230
1
0
LINE
5
BF
100
AcDbEntity
8
1
62
256
6
ByLayer
370
13
48
1
60
0
100
AcDbLine
10
125.729923
20
8.7665
30
0
11
126.256512
21
5.432159
31
0
39
0
210
0
220
0
230
1
0
LINE
5
C0
100
AcDbEntity
8
1
62
256
6
ByLayer
370
13
48
1
60
0
100
AcDbLine
10
127.339217
20
8.97385
30
0
11
127.758183
21
12.175168
31
0
39
0
210
0
220
0
230
1
0
LINE
5
C1
100
AcDbEntity
8
1
62
256
6
ByLayer
370
13
48
1
60
0
100
AcDbLine
10
134.288742
20
6.158577
30
0
11
128.720325
21
5.866748
31
0
39
0
210
0
220
0
230
1
0
LINE
5
C2
100
AcDbEntity
8
1
62
256
6
ByLayer
370
13
48
1
60
0
100
AcDbLine
10
136.313079
20
12.99849
30
0
11
136.839667
21
9.66415
31
0
39
0
210
0
220
0
230
1
0
LINE
5
C3
100
AcDbEntity
8
1
62
256
6
ByLayer
370
13
48
1
60
0
100
AcDbLine
10
127.765913
20
12.234231
30
0
11
127.761301
21
12.23399
31
0
39
0
210
0
220
0
230
1
0
LINE
5
C4
100
AcDbEntity
8
1
62
256
6
ByLayer
370
13
48
1
60
0
100
AcDbLine
10
126.361426
20
12.002853
30
0
11
125.956003
21
8.905021
31
0
39
0
210
0
220
0
230
1
0
LINE
5
C5
100
AcDbEntity
8
1
62
256
6
ByLayer
370
13
48
1
60
0
100
AcDbLine
10
135.475862
20
13.268258
30
0
11
135.371265
21
13.263695
31
0
39
0
210
0
220
0
230
1
0
LINE
5
C6
100
AcDbEntity
8
1
62
256
6
ByLayer
370
13
48
1
60
0
100
AcDbLine
10
126.631921
20
13.056748
30
0
11
126.549101
21
13.051679
31
0
39
0
210
0
220
0
230
1
0
LINE
5
C7
100
AcDbEntity
8
1
62
256
6
ByLayer
370
13
48
1
60
0
100
AcDbLine
10
136.678314
20
9.639993
30
0
11
136.151726
21
12.974333
31
0
39
0
210
0
220
0
230
1
0
LINE
5
C8
100
AcDbEntity
8
1
62
256
6
ByLayer
370
13
48
1
60
0
100
AcDbLine
10
136.846182
20
9.520913
30
0
11
136.440759
21
6.423081
31
0
39
0
210
0
220
0
230
1
0
LINE
5
C9
100
AcDbEntity
8
1
62
256
6
ByLayer
370
13
48
1
60
0
100
AcDbLine
10
127.172681
20
8.992495
30
0
11
127.590768
21
12.187094
31
0
39
0
210
0
220
0
230
1
0
LINE
5
CA
100
AcDbEntity
8
1
62
256
6
ByLayer
370
13
48
1
60
0
100
AcDbLine
10
127.339217
20
8.97385
30
0
11
127.334605
21
8.973608
31
0
39
0
210
0
220
0
230
1
0
LINE
5
CB
100
AcDbEntity
8
1
62
256
6
ByLayer
370
13
48
1
60
0
100
AcDbLine
10
135.383165
20
13.414519
30
0
11
135.487762
21
13.419082
31
0
39
0
210
0
220
0
230
1
0
LINE
5
CC
100
AcDbEntity
8
1
62
256
6
ByLayer
370
13
48
1
60
0
100
AcDbLine
10
134.975173
20
12.764225
30
0
11
135.459734
21
9.695998
31
0
39
0
210
0
220
0
230
1
0
LINE
5
CD
100
AcDbEntity
8
1
62
256
6
ByLayer
370
13
48
1
60
0
100
AcDbLine
10
127.337268
20
8.772738
30
0
11
127.826043
21
5.677828
31
0
39
0
210
0
220
0
230
1
0
LINE
5
CE
100
AcDbEntity
8
1
62
256
6
ByLayer
370
13
48
1
60
0
100
AcDbLine
10
127.830655
20
5.67807
30
0
11
127.826043
21
5.677828
31
0
39
0
210
0
220
0
230
1
0
LINE
5
CF
100
AcDbEntity
8
1
62
256
6
ByLayer
370
13
48
1
60
0
100
AcDbLine
10
135.834156
20
13.420549
30
0
11
135.829543
21
13.420307
31
0
39
0
210
0
220
0
230
1
0
LINE
5
D0
100
AcDbEntity
8
1
62
256
6
ByLayer
370
13
48
1
60
0
100
AcDbLine
10
134.847238
20
6.281513
30
0
11
135.266205
21
9.482831
31
0
39
0
210
0
220
0
230
1
0
LINE
5
D1
100
AcDbEntity
8
1
62
256
6
ByLayer
370
13
48
1
60
0
100
AcDbLine
10
125.72764
20
8.938674
30
0
11
126.131533
21
12.024815
31
0
39
0
210
0
220
0
230
1
0
LINE
5
D2
100
AcDbEntity
8
1
62
256
6
ByLayer
370
13
48
1
60
0
100
AcDbLine
10
136.440759
20
6.423081
30
0
11
136.436146
21
6.422839
31
0
39
0
210
0
220
0
230
1
0
LINE
5
D3
100
AcDbEntity
8
1
62
256
6
ByLayer
370
13
48
1
60
0
100
AcDbLine
10
135.263827
20
9.66218
30
0
11
134.78939
21
12.666299
31
0
39
0
210
0
220
0
230
1
0
LINE
5
D4
100
AcDbEntity
8
1
62
256
6
ByLayer
370
13
48
1
60
0
100
AcDbLine
10
136.841569
20
9.520671
30
0
11
136.436146
21
6.422839
31
0
39
0
210
0
220
0
230
1
0
LINE
5
D5
100
AcDbEntity
8
1
62
256
6
ByLayer
370
13
48
1
60
0
100
AcDbLine
10
135.538754
20
13.420615
30
0
11
135.534142
21
13.420373
31
0
39
0
210
0
220
0
230
1
0
LINE
5
D6
100
AcDbEntity
8
1
62
256
6
ByLayer
370
13
48
1
60
0
100
AcDbLine
10
127.376642
20
4.935705
30
0
11
127.293747
21
4.932089
31
0
39
0
210
0
220
0
230
1
0
LINE
5
D7
100
AcDbEntity
8
1
62
256
6
ByLayer
370
13
48
1
60
0
100
AcDbLine
10
136.314782
20
6.294337
30
0
11
135.020098
21
6.100303
31
0
39
0
210
0
220
0
230
1
0
LINE
5
D8
100
AcDbEntity
8
1
62
256
6
ByLayer
370
13
48
1
60
0
100
AcDbLine
10
136.944906
20
9.507838
30
0
11
136.541013
21
6.421698
31
0
39
0
210
0
220
0
230
1
0
LINE
5
D9
100
AcDbEntity
8
1
62
256
6
ByLayer
370
13
48
1
60
0
100
AcDbLine
10
135.044881
20
6.257484
30
0
11
136.274223
21
6.441726
31
0
39
0
210
0
220
0
230
1
0
LINE
5
DA
100
AcDbEntity
8
1
62
256
6
ByLayer
370
13
48
1
60
0
100
AcDbLine
10
136.072411
20
6.1569
30
0
11
136.325516
21
6.194833
31
0
39
0
210
0
220
0
230
1
0
LINE
5
DB
100
AcDbEntity
8
1
62
256
6
ByLayer
370
13
48
1
60
0
100
AcDbLine
10
136.274223
20
6.441726
30
0
11
136.679646
21
9.539558
31
0
39
0
210
0
220
0
230
1
0
LINE
5
DC
100
AcDbEntity
8
1
62
256
6
ByLayer
370
13
48
1
60
0
100
AcDbLine
10
136.317691
20
12.998732
30
0
11
136.844279
21
9.664392
31
0
39
0
210
0
220
0
230
1
0
LINE
5
DD
100
AcDbEntity
8
1
62
256
6
ByLayer
370
13
48
1
60
0
100
AcDbLine
10
127.422556
20
8.785058
30
0
11
127.896994
21
5.780939
31
0
39
0
210
0
220
0
230
1
0
LINE
5
DE
100
AcDbEntity
8
1
62
256
6
ByLayer
370
13
48
1
60
0
100
AcDbLine
10
136.228402
20
4.879401
30
0
11
136.228184
21
0.689677
31
0
39
0
210
0
220
0
230
1
0
LINE
5
DF
100
AcDbEntity
8
1
62
256
6
ByLayer
370
13
48
1
60
0
100
AcDbLine
10
126.102791
20
11.975009
30
0
11
125.775685
21
9.475598
31
0
39
0
210
0
220
0
230
1
0
LINE
5
E0
100
AcDbEntity
8
1
62
256
6
ByLayer
370
13
48
1
60
0
100
AcDbLine
10
123.517985
20
6.083792
30
0
11
124.696738
21
6.746862
31
0
39
0
210
0
220
0
230
1
0
LINE
5
E1
100
AcDbEntity
8
1
62
256
6
ByLayer
370
13
48
1
60
0
100
AcDbLine
10
136.074263
20
5.551191
30
0
11
135.832545
21
5.538523
31
0
39
0
210
0
220
0
230
1
0
LINE
5
E2
100
AcDbEntity
8
1
62
256
6
ByLayer
370
13
48
1
60
0
100
AcDbLine
10
69.8
20
-4.725746
30
0
11
69.8
21
13.02427
31
0
39
0
210
0
220
0
230
1
0
LINE
5
E3
100
AcDbEntity
8
1
62
256
6
ByLayer
370
13
48
1
60
0
100
AcDbLine
10
0
20
-3.944617
30
0
11
0
21
3.944617
31
0
39
0
210
0
220
0
230
1
0
LINE
5
E4
100
AcDbEntity
8
1
62
256
6
ByLayer
370
13
48
1
60
0
100
AcDbLine
10
121.396356
20
-12.948756
30
0
11
121.396356
21
0.519246
31
0
39
0
210
0
220
0
230
1
0
LINE
5
E5
100
AcDbEntity
8
1
62
256
6
ByLayer
370
13
48
1
60
0
100
AcDbLine
10
128.990692
20
5.880917
30
0
11
129.836166
21
5.925227
31
0
39
0
210
0
220
0
230
1
0
LINE
5
E6
100
AcDbEntity
8
1
62
256
6
ByLayer
370
13
48
1
60
0
100
AcDbLine
10
124.396356
20
-13.111988
30
0
11
124.396356
21
-0.099463
31
0
39
0
210
0
220
0
230
1
0
LINE
5
E7
100
AcDbEntity
8
1
62
256
6
ByLayer
370
13
48
1
60
0
100
AcDbLine
10
136.218267
20
0.70001
30
0
11
136.228184
21
0.689677
31
0
39
0
210
0
220
0
230
1
0
LINE
5
E8
100
AcDbEntity
8
1
62
256
6
ByLayer
370
13
48
1
60
0
100
AcDbLine
10
135.832016
20
-0.208988
30
0
11
136.220738
21
-2.651982
31
0
39
0
210
0
220
0
230
1
0
LINE
5
E9
100
AcDbEntity
8
1
62
256
6
ByLayer
370
13
48
1
60
0
100
AcDbLine
10
5.0534
20
-4.41588
30
0
11
0.1
21
-4.41588
31
0
39
0
210
0
220
0
230
1
0
LINE
5
EA
100
AcDbEntity
8
1
62
256
6
ByLayer
370
13
48
1
60
0
100
AcDbLine
10
136.235685
20
-3.788409
30
0
11
135.246305
21
-2.894743
31
0
39
0
210
0
220
0
230
1
0
LINE
5
EB
100
AcDbEntity
8
1
62
256
6
ByLayer
370
13
48
1
60
0
100
AcDbLine
10
134.529731
20
5.970932
30
0
11
131.109372
21
5.791678
31
0
39
0
210
0
220
0
230
1
0
LINE
5
EC
100
AcDbEntity
8
1
62
256
6
ByLayer
370
13
48
1
60
0
100
AcDbLine
10
125.678478
20
7.039701
30
0
11
125.494408
21
8.205225
31
0
39
0
210
0
220
0
230
1
0
LINE
5
ED
100
AcDbEntity
8
1
62
256
6
ByLayer
370
13
48
1
60
0
100
AcDbLine
10
136.106166
20
4.989537
30
0
11
136.074263
21
5.551191
31
0
39
0
210
0
220
0
230
1
0
LINE
5
EE
100
AcDbEntity
8
1
62
256
6
ByLayer
370
13
48
1
60
0
100
AcDbLine
10
134.897613
20
1.175871
30
0
11
135.783527
21
0.375661
31
0
39
0
210
0
220
0
230
1
0
LINE
5
EF
100
AcDbEntity
8
1
62
256
6
ByLayer
370
13
48
1
60
0
100
AcDbLine
10
128.604381
20
5.574565
30
0
11
128.468117
21
5.567424
31
0
39
0
210
0
220
0
230
1
0
LINE
5
F0
100
AcDbEntity
8
1
62
256
6
ByLayer
370
13
48
1
60
0
100
AcDbLine
10
135.832016
20
-0.208988
30
0
11
134.89508
21
0.637308
31
0
39
0
210
0
220
0
230
1
0
LINE
5
F1
100
AcDbEntity
8
1
62
256
6
ByLayer
370
13
48
1
60
0
100
AcDbLine
10
131.828077
20
5.278589
30
0
11
135.266768
21
5.458803
31
0
39
0
210
0
220
0
230
1
0
LINE
5
F2
100
AcDbEntity
8
1
62
256
6
ByLayer
370
13
48
1
60
0
100
AcDbLine
10
135.266768
20
5.458803
30
0
11
134.897613
21
1.175871
31
0
39
0
210
0
220
0
230
1
0
LINE
5
F3
100
AcDbEntity
8
1
62
256
6
ByLayer
370
13
48
1
60
0
100
AcDbLine
10
0.1
20
4.41588
30
0
11
5.0534
21
4.41588
31
0
39
0
210
0
220
0
230
1
0
LINE
5
F4
100
AcDbEntity
8
1
62
256
6
ByLayer
370
13
48
1
60
0
100
AcDbLine
10
136.228402
20
4.879401
30
0
11
136.179059
21
4.694111
31
0
39
0
210
0
220
0
230
1
0
LINE
5
F5
100
AcDbEntity
8
1
62
256
6
ByLayer
370
13
48
1
60
0
100
AcDbLine
10
135.379035
20
-13.111988
30
0
11
124.396356
21
-13.111988
31
0
39
0
210
0
220
0
230
1
0
LINE
5
F6
100
AcDbEntity
8
1
62
256
6
ByLayer
370
13
48
1
60
0
100
AcDbLine
10
135.266768
20
5.458803
30
0
11
135.800636
21
5.486782
31
0
39
0
210
0
220
0
230
1
0
LINE
5
F7
100
AcDbEntity
8
1
62
256
6
ByLayer
370
13
48
1
60
0
100
AcDbLine
10
133.216722
20
6.102394
30
0
11
134.062196
21
6.146704
31
0
39
0
210
0
220
0
230
1
0
LINE
5
F8
100
AcDbEntity
8
1
62
256
6
ByLayer
370
13
48
1
60
0
100
AcDbLine
10
135.19781
20
-1.728013
30
0
11
136.220738
21
-2.651982
31
0
39
0
210
0
220
0
230
1
0
LINE
5
F9
100
AcDbEntity
8
1
62
256
6
ByLayer
370
13
48
1
60
0
100
AcDbLine
10
128.640581
20
5.662294
30
0
11
128.650363
21
5.662807
31
0
39
0
210
0
220
0
230
1
0
LINE
5
FA
100
AcDbEntity
8
1
62
256
6
ByLayer
370
13
48
1
60
0
100
AcDbLine
10
136.235685
20
-3.788409
30
0
11
135.825526
21
-6.88953
31
0
39
0
210
0
220
0
230
1
0
LINE
5
FB
100
AcDbEntity
8
1
62
256
6
ByLayer
370
13
48
1
60
0
100
AcDbLine
10
126.096488
20
12.977751
30
0
11
126.093538
21
13.034045
31
0
39
0
210
0
220
0
230
1
0
LINE
5
FC
100
AcDbEntity
8
1
62
256
6
ByLayer
370
13
48
1
60
0
100
AcDbLine
10
133.011471
20
6.043953
30
0
11
132.927128
21
6.039533
31
0
39
0
210
0
220
0
230
1
0
LINE
5
FD
100
AcDbEntity
8
1
62
256
6
ByLayer
370
13
48
1
60
0
100
AcDbLine
10
136.114565
20
0.635437
30
0
11
136.160585
21
0.58749
31
0
39
0
210
0
220
0
230
1
0
LINE
5
FE
100
AcDbEntity
8
1
62
256
6
ByLayer
370
13
48
1
60
0
100
AcDbLine
10
135.379035
20
-13.111988
30
0
11
136.100548
21
-7.65678
31
0
39
0
210
0
220
0
230
1
0
LINE
5
FF
100
AcDbEntity
8
1
62
256
6
ByLayer
370
13
48
1
60
0
100
AcDbLine
10
129.243873
20
4.888449
30
0
11
129.486028
21
4.90114
31
0
39
0
210
0
220
0
230
1
0
LINE
5
100
100
AcDbEntity
8
1
62
256
6
ByLayer
370
13
48
1
60
0
100
AcDbLine
10
125.579299
20
9.025919
30
0
11
126.096488
21
12.977751
31
0
39
0
210
0
220
0
230
1
0
LINE
5
101
100
AcDbEntity
8
1
62
256
6
ByLayer
370
13
48
1
60
0
100
AcDbLine
10
124.696738
20
6.746862
30
0
11
123.27702
21
8.978629
31
0
39
0
210
0
220
0
230
1
0
LINE
5
102
100
AcDbEntity
8
1
62
256
6
ByLayer
370
13
48
1
60
0
100
AcDbLine
10
135.832545
20
5.538523
30
0
11
135.764814
21
5.534974
31
0
39
0
210
0
220
0
230
1
0
LINE
5
103
100
AcDbEntity
8
1
62
256
6
ByLayer
370
13
48
1
60
0
100
AcDbLine
10
131.220533
20
5.246749
30
0
11
131.670803
21
5.270347
31
0
39
0
210
0
220
0
230
1
0
LINE
5
104
100
AcDbEntity
8
1
62
256
6
ByLayer
370
13
48
1
60
0
100
AcDbLine
10
119.868228
20
1.914818
30
0
11
119.95254
21
1.335285
31
0
39
0
210
0
220
0
230
1
0
LINE
5
105
100
AcDbEntity
8
1
62
256
6
ByLayer
370
13
48
1
60
0
100
AcDbLine
10
123.251248
20
1.268456
30
0
11
123.438545
21
-0.018961
31
0
39
0
210
0
220
0
230
1
0
LINE
5
106
100
AcDbEntity
8
1
62
256
6
ByLayer
370
13
48
1
60
0
100
AcDbLine
10
123.27702
20
6.072133
30
0
11
123.27702
21
8.978629
31
0
39
0
210
0
220
0
230
1
0
LINE
5
107
100
AcDbEntity
8
1
62
256
6
ByLayer
370
13
48
1
60
0
100
AcDbLine
10
136.100548
20
-7.65678
30
0
11
135.811068
21
-7.443634
31
0
39
0
210
0
220
0
230
1
0
LINE
5
108
100
AcDbEntity
8
1
62
256
6
ByLayer
370
13
48
1
60
0
100
AcDbLine
10
134.89508
20
0.637308
30
0
11
134.984361
21
-0.511074
31
0
39
0
210
0
220
0
230
1
0
LINE
5
109
100
AcDbEntity
8
1
62
256
6
ByLayer
370
18
48
1
60
0
100
AcDbLine
10
131.334427
20
7.495792
30
0
11
131.334586
21
7.495801
31
0
39
0
210
0
220
0
230
1
0
LINE
5
10A
100
AcDbEntity
8
1
62
256
6
ByLayer
370
18
48
1
60
0
100
AcDbLine
10
130.43645
20
9.415444
30
0
11
130.397984
21
9.413428
31
0
39
0
210
0
220
0
230
1
0
LINE
5
10B
100
AcDbEntity
8
1
62
256
6
ByLayer
370
18
48
1
60
0
100
AcDbLine
10
130.461469
20
8.938064
30
0
11
130.422118
21
8.936002
31
0
39
0
210
0
220
0
230
1
0
LINE
5
10C
100
AcDbEntity
8
1
62
256
6
ByLayer
370
18
48
1
60
0
100
AcDbLine
10
130.442761
20
8.934799
30
0
11
130.432153
21
8.934243
31
0
39
0
210
0
220
0
230
1
0
LINE
5
10D
100
AcDbEntity
8
1
62
256
6
ByLayer
370
13
48
1
60
0
100
AcDbLine
10
136.528282
20
6.367726
30
0
11
136.496198
21
5.969529
31
0
39
0
210
0
220
0
230
1
0
LINE
5
10E
100
AcDbEntity
8
1
62
256
6
ByLayer
370
13
48
1
60
0
100
AcDbLine
10
136.400665
20
6.10304
30
0
11
136.35697
21
5.714915
31
0
39
0
210
0
220
0
230
1
0
LINE
5
10F
100
AcDbEntity
8
1
62
256
6
ByLayer
370
13
48
1
60
0
100
AcDbLine
10
134.935327
20
13.282464
30
0
11
134.93477
21
13.282489
31
0
39
0
210
0
220
0
230
1
0
LINE
5
110
100
AcDbEntity
8
1
62
256
6
ByLayer
370
13
48
1
60
0
100
AcDbLine
10
125.481705
20
8.605225
30
0
11
126.134646
21
5.876323
31
0
39
0
210
0
220
0
230
1
0
LINE
5
111
100
AcDbEntity
8
1
62
256
6
ByLayer
370
13
48
1
60
0
100
AcDbLine
10
126.134646
20
5.876323
30
0
11
126.14676
21
5.857042
31
0
39
0
210
0
220
0
230
1
0
LINE
5
112
100
AcDbEntity
8
1
62
256
6
ByLayer
370
13
48
1
60
0
100
AcDbLine
10
125.58316
20
9.036007
30
0
11
125.591262
21
9.107976
31
0
39
0
210
0
220
0
230
1
0
LINE
5
113
100
AcDbEntity
8
1
62
256
6
ByLayer
370
13
48
1
60
0
100
AcDbLine
10
135.379166
20
13.414304
30
0
11
135.48315
21
13.41884
31
0
39
0
210
0
220
0
230
1
0
LINE
5
114
100
AcDbEntity
8
1
62
256
6
ByLayer
370
13
48
1
60
0
100
AcDbLine
10
135.009909
20
6.099386
30
0
11
135.015486
21
6.100061
31
0
39
0
210
0
220
0
230
1
0
LINE
5
115
100
AcDbEntity
8
1
62
256
6
ByLayer
370
13
48
1
60
0
100
AcDbLine
10
126.285521
20
12.75811
30
0
11
126.079837
21
12.727284
31
0
39
0
210
0
220
0
230
1
0
LINE
5
116
100
AcDbEntity
8
1
62
256
6
ByLayer
370
13
48
1
60
0
100
AcDbLine
10
126.131533
20
12.024815
30
0
11
126.088545
21
12.378746
31
0
39
0
210
0
220
0
230
1
0
LINE
5
117
100
AcDbEntity
8
1
62
256
6
ByLayer
370
13
48
1
60
0
100
AcDbLine
10
125.635663
20
9.212308
30
0
11
125.598245
21
8.926398
31
0
39
0
210
0
220
0
230
1
0
LINE
5
118
100
AcDbEntity
8
1
62
256
6
ByLayer
370
13
48
1
60
0
100
AcDbLine
10
134.841891
20
12.768443
30
0
11
134.855165
21
12.684393
31
0
39
0
210
0
220
0
230
1
0
LINE
5
119
100
AcDbEntity
8
1
62
256
6
ByLayer
370
13
48
1
60
0
100
AcDbLine
10
134.913494
20
6.264703
30
0
11
134.906634
21
6.212281
31
0
39
0
210
0
220
0
230
1
0
LINE
5
11A
100
AcDbEntity
8
1
62
256
6
ByLayer
370
13
48
1
60
0
100
AcDbLine
10
136.09817
20
5.130344
30
0
11
136.228402
21
4.879401
31
0
39
0
210
0
220
0
230
1
0
LINE
5
11B
100
AcDbEntity
8
1
62
256
6
ByLayer
370
13
48
1
60
0
100
AcDbLine
10
125.796848
20
7.288122
30
0
11
125.82659
21
7.099799
31
0
39
0
210
0
220
0
230
1
0
LINE
5
11C
100
AcDbEntity
8
1
62
256
6
ByLayer
370
13
48
1
60
0
100
AcDbLine
10
136.160585
20
0.58749
30
0
11
135.79306
21
0.635653
31
0
39
0
210
0
220
0
230
1
0
LINE
5
11D
100
AcDbEntity
8
1
62
256
6
ByLayer
370
13
48
1
60
0
100
AcDbLine
10
136.179059
20
4.694111
30
0
11
136.143095
21
4.692226
31
0
39
0
210
0
220
0
230
1
0
LINE
5
11E
100
AcDbEntity
8
1
62
256
6
ByLayer
370
13
48
1
60
0
100
AcDbLine
10
128.44049
20
5.50802
30
0
11
128.03746
21
5.486898
31
0
39
0
210
0
220
0
230
1
0
LINE
5
11F
100
AcDbEntity
8
1
62
256
6
ByLayer
370
13
48
1
60
0
100
AcDbLine
10
136.218267
20
0.70001
30
0
11
136.198468
21
0.702605
31
0
39
0
210
0
220
0
230
1
0
LINE
5
120
100
AcDbEntity
8
1
62
256
6
ByLayer
370
13
48
1
60
0
100
AcDbLine
10
127.17235
20
12.734373
30
0
11
127.208182
21
13.008169
31
0
39
0
210
0
220
0
230
1
0
LINE
5
121
100
AcDbEntity
8
1
62
256
6
ByLayer
370
13
48
1
60
0
100
AcDbLine
10
30
20
-13.12844
30
0
11
30
21
-13.1625
31
0
39
0
210
0
220
0
230
1
0
LINE
5
122
100
AcDbEntity
8
1
62
256
6
ByLayer
370
13
48
1
60
0
100
AcDbLine
10
124.396356
20
13.1625
30
0
11
124.396356
21
13.010931
31
0
39
0
210
0
220
0
230
1
0
LINE
5
123
100
AcDbEntity
8
1
62
256
6
ByLayer
370
13
48
1
60
0
100
AcDbLine
10
136.114565
20
0.635437
30
0
11
136.104665
21
0.636735
31
0
39
0
210
0
220
0
230
1
0
LINE
5
124
100
AcDbEntity
8
1
62
256
6
ByLayer
370
13
48
1
60
0
100
AcDbLine
10
69.8
20
-13.004977
30
0
11
69.8
21
-13.0275
31
0
39
0
210
0
220
0
230
1
0
LINE
5
125
100
AcDbEntity
8
1
62
256
6
ByLayer
370
13
48
1
60
0
100
AcDbLine
10
121.396356
20
13.0275
30
0
11
121.396356
21
12.828106
31
0
39
0
210
0
220
0
230
1
0
LINE
5
126
100
AcDbEntity
8
1
62
256
6
ByLayer
370
13
48
1
60
0
100
AcDbLine
10
30
20
13.1625
30
0
11
30
21
-4.532137
31
0
39
0
210
0
220
0
230
1
0
LINE
5
127
100
AcDbEntity
8
SK1
62
256
6
ByLayer
370
13
48
1
60
0
100
AcDbLine
10
-57.633813
20
15.639667
30
0
11
-57.633813
21
7.351787
31
0
39
0
210
0
220
0
230
1
0
LINE
5
128
100
AcDbEntity
8
SK1
62
256
6
ByLayer
370
13
48
1
60
0
100
AcDbLine
10
-57.633813
20
-7.351787
30
0
11
-57.633813
21
-15.639667
31
0
39
0
210
0
220
0
230
1
0
LINE
5
129
100
AcDbEntity
8
SK1
62
256
6
ByLayer
370
13
48
1
60
0
100
AcDbLine
10
-60
20
-14.996
30
0
11
-60
21
-5.859147
31
0
39
0
210
0
220
0
230
1
0
LINE
5
12A
100
AcDbEntity
8
SK1
62
256
6
ByLayer
370
13
48
1
60
0
100
AcDbLine
10
-60
20
5.859147
30
0
11
-60
21
14.996
31
0
39
0
210
0
220
0
230
1
0
LINE
5
12B
100
AcDbEntity
8
SK1
62
256
6
ByLayer
370
13
48
1
60
0
100
AcDbLine
10
-59
20
-15.996
30
0
11
-59
21
-8.082178
31
0
39
0
210
0
220
0
230
1
0
LINE
5
12C
100
AcDbEntity
8
SK1
62
256
6
ByLayer
370
13
48
1
60
0
100
AcDbLine
10
-59
20
8.082178
30
0
11
-59
21
15.996
31
0
39
0
210
0
220
0
230
1
0
LINE
5
12D
100
AcDbEntity
8
SK1
62
256
6
ByLayer
370
13
48
1
60
0
100
AcDbLine
10
-58.516222
20
15.892544
30
0
11
-58.516222
21
7.875438
31
0
39
0
210
0
220
0
230
1
0
LINE
5
12E
100
AcDbEntity
8
SK1
62
256
6
ByLayer
370
13
48
1
60
0
100
AcDbLine
10
-58.516222
20
-7.875438
30
0
11
-58.516222
21
-15.892544
31
0
39
0
210
0
220
0
230
1
0
LINE
5
12F
100
AcDbEntity
8
SK1
62
256
6
ByLayer
370
13
48
1
60
0
100
AcDbLine
10
-58.599999
20
-15.996
30
0
11
-58.599999
21
-8.082178
31
0
39
0
210
0
220
0
230
1
0
LINE
5
130
100
AcDbEntity
8
SK1
62
256
6
ByLayer
370
13
48
1
60
0
100
AcDbLine
10
-58.599999
20
8.082178
30
0
11
-58.599999
21
15.996
31
0
39
0
210
0
220
0
230
1
0
LINE
5
131
100
AcDbEntity
8
SK1
62
256
6
ByLayer
370
13
48
1
60
0
100
AcDbLine
10
-1.375195
20
-15.746
30
0
11
-1.375195
21
15.746
31
0
39
0
210
0
220
0
230
1
0
LINE
5
132
100
AcDbEntity
8
SK1
62
256
6
ByLayer
370
13
48
1
60
0
100
AcDbLine
10
-1.544243
20
-15.783477
30
0
11
-1.544243
21
15.783477
31
0
39
0
210
0
220
0
230
1
0
LINE
5
133
100
AcDbEntity
8
SK1
62
256
6
ByLayer
370
13
48
1
60
0
100
AcDbLine
10
-2
20
-15.996
30
0
11
-2
21
15.996
31
0
39
0
210
0
220
0
230
1
0
LINE
5
134
100
AcDbEntity
8
SK1
62
256
6
ByLayer
370
13
48
1
60
0
100
AcDbLine
10
-56.600002
20
15.996
30
0
11
-56.600002
21
8.082178
31
0
39
0
210
0
220
0
230
1
0
LINE
5
135
100
AcDbEntity
8
SK1
62
256
6
ByLayer
370
13
48
1
60
0
100
AcDbLine
10
-56.600002
20
-8.082178
30
0
11
-56.600002
21
-15.996
31
0
39
0
210
0
220
0
230
1
0
LINE
5
136
100
AcDbEntity
8
SK1
62
256
6
ByLayer
370
13
48
1
60
0
100
AcDbLine
10
-0.15
20
-15.746
30
0
11
-0.15
21
15.746
31
0
39
0
210
0
220
0
230
1
0
LINE
5
137
100
AcDbEntity
8
1
62
256
6
ByLayer
370
13
48
1
60
0
100
AcDbLine
10
136.228184
20
0.689677
30
0
11
136.181523
21
0.673571
31
0
39
0
210
0
220
0
230
1
0
LINE
5
138
100
AcDbEntity
8
1
62
256
6
ByLayer
370
13
48
1
60
0
100
AcDbLine
10
135.994997
20
0.609189
30
0
11
135.787007
21
0.537399
31
0
39
0
210
0
220
0
230
1
0
LINE
5
139
100
AcDbEntity
8
1
62
256
6
ByLayer
370
13
48
1
60
0
100
AcDbLine
10
0
20
19.65
30
0
11
0
21
3.944617
31
0
39
0
210
0
220
0
230
1
0
LINE
5
13A
100
AcDbEntity
8
1
62
256
6
ByLayer
370
13
48
1
60
0
100
AcDbLine
10
0.1
20
19.75
30
0
11
0.1
21
4.41588
31
0
39
0
210
0
220
0
230
1
0
LINE
5
13B
100
AcDbEntity
8
1
62
256
6
ByLayer
370
13
48
1
60
0
100
AcDbLine
10
0
20
-19.65
30
0
11
0
21
-3.944617
31
0
39
0
210
0
220
0
230
1
0
LINE
5
13C
100
AcDbEntity
8
1
62
256
6
ByLayer
370
13
48
1
60
0
100
AcDbLine
10
0.1
20
-19.75
30
0
11
0.1
21
-4.41588
31
0
39
0
210
0
220
0
230
1
0
LINE
5
13D
100
AcDbEntity
8
1
62
256
6
ByLayer
370
13
48
1
60
0
100
AcDbLine
10
5.0534
20
19.75
30
0
11
5.0534
21
4.41588
31
0
39
0
210
0
220
0
230
1
0
LINE
5
13E
100
AcDbEntity
8
1
62
256
6
ByLayer
370
13
48
1
60
0
100
AcDbLine
10
5.0534
20
-4.41588
30
0
11
5.0534
21
-19.75
31
0
39
0
210
0
220
0
230
1
0
LINE
5
13F
100
AcDbEntity
8
1
62
256
6
ByLayer
370
13
48
1
60
0
100
AcDbLine
10
25
20
13.1625
30
0
11
25
21
-4.530422
31
0
39
0
210
0
220
0
230
1
0
LINE
5
140
100
AcDbEntity
8
1
62
256
6
ByLayer
370
13
48
1
60
0
100
AcDbLine
10
25
20
-13.128279
30
0
11
25
21
-13.1625
31
0
39
0
210
0
220
0
230
1
0
LINE
5
141
100
AcDbEntity
8
1
62
256
6
ByLayer
370
18
48
1
60
0
100
AcDbLine
10
135.785154
20
0.451817
30
0
11
135.831959
21
0.445684
31
0
39
0
210
0
220
0
230
1
0
LINE
5
142
100
AcDbEntity
8
4
62
256
6
ByLayer
370
18
48
0.05
60
0
100
AcDbLine
10
137
20
0
30
0
11
0
21
0
31
0
39
0
210
0
220
0
230
1
0
LINE
5
144
100
AcDbEntity
8
SK4
62
256
6
ByLayer
370
13
48
0.05
60
0
100
AcDbLine
10
137
20
0
30
0
11
-60
21
0
31
0
39
0
210
0
220
0
230
1
0
LINE
5
146
100
AcDbEntity
8
SK1
62
256
6
ByLayer
370
13
48
1
60
0
100
AcDbLine
10
-60
20
-14.996
30
0
11
-59
21
-15.996
31
0
39
0
210
0
220
0
230
1
0
LINE
5
147
100
AcDbEntity
8
SK1
62
256
6
ByLayer
370
13
48
1
60
0
100
AcDbLine
10
-59
20
15.996
30
0
11
-60
21
14.996
31
0
39
0
210
0
220
0
230
1
0
LINE
5
148
100
AcDbEntity
8
SK1
62
256
6
ByLayer
370
13
48
1
60
0
100
AcDbLine
10
-57.633813
20
-15.639667
30
0
11
-56.600002
21
-15.996
31
0
39
0
210
0
220
0
230
1
0
LINE
5
149
100
AcDbEntity
8
SK1
62
256
6
ByLayer
370
13
48
1
60
0
100
AcDbLine
10
-56.600002
20
15.996
30
0
11
-57.633813
21
15.639667
31
0
39
0
210
0
220
0
230
1
0
LINE
5
14A
100
AcDbEntity
8
SK1
62
256
6
ByLayer
370
13
48
1
60
0
100
AcDbLine
10
-58.516222
20
15.892544
30
0
11
-58.599999
21
15.996
31
0
39
0
210
0
220
0
230
1
0
LINE
5
14B
100
AcDbEntity
8
SK1
62
256
6
ByLayer
370
13
48
1
60
0
100
AcDbLine
10
-58.599999
20
-15.996
30
0
11
-58.516222
21
-15.892544
31
0
39
0
210
0
220
0
230
1
0
LINE
5
14C
100
AcDbEntity
8
SK1
62
256
6
ByLayer
370
13
48
1
60
0
100
AcDbLine
10
-58.599999
20
15.996
30
0
11
-59
21
15.996
31
0
39
0
210
0
220
0
230
1
0
LINE
5
14D
100
AcDbEntity
8
SK1
62
256
6
ByLayer
370
13
48
1
60
0
100
AcDbLine
10
-59
20
-15.996
30
0
11
-58.599999
21
-15.996
31
0
39
0
210
0
220
0
230
1
0
LINE
5
14E
100
AcDbEntity
8
SK1
62
256
6
ByLayer
370
13
48
1
60
0
100
AcDbLine
10
-0.15
20
15.746
30
0
11
-1.375195
21
15.746
31
0
39
0
210
0
220
0
230
1
0
LINE
5
14F
100
AcDbEntity
8
SK1
62
256
6
ByLayer
370
13
48
1
60
0
100
AcDbLine
10
-1.375195
20
-15.746
30
0
11
-0.15
21
-15.746
31
0
39
0
210
0
220
0
230
1
0
LINE
5
150
100
AcDbEntity
8
SK1
62
256
6
ByLayer
370
13
48
1
60
0
100
AcDbLine
10
-1.544243
20
15.783477
30
0
11
-2
21
15.996
31
0
39
0
210
0
220
0
230
1
0
LINE
5
151
100
AcDbEntity
8
SK1
62
256
6
ByLayer
370
13
48
1
60
0
100
AcDbLine
10
-2
20
-15.996
30
0
11
-1.544243
21
-15.783477
31
0
39
0
210
0
220
0
230
1
0
LINE
5
152
100
AcDbEntity
8
SK1
62
256
6
ByLayer
370
13
48
1
60
0
100
AcDbLine
10
-2
20
15.996
30
0
11
-56.600002
21
15.996
31
0
39
0
210
0
220
0
230
1
0
LINE
5
153
100
AcDbEntity
8
SK1
62
256
6
ByLayer
370
13
48
1
60
0
100
AcDbLine
10
-56.600002
20
-15.996
30
0
11
-2
21
-15.996
31
0
39
0
210
0
220
0
230
1
0
LINE
5
154
100
AcDbEntity
8
1
62
256
6
ByLayer
370
18
48
1
60
0
100
AcDbLine
10
131.202739
20
10.008544
30
0
11
131.281997
21
10.012698
31
0
39
0
210
0
220
0
230
1
0
LINE
5
155
100
AcDbEntity
8
1
62
256
6
ByLayer
370
18
48
1
60
0
100
AcDbLine
10
131.364813
20
8.432466
30
0
11
131.285556
21
8.428312
31
0
39
0
210
0
220
0
230
1
0
LINE
5
156
100
AcDbEntity
8
1
62
256
6
ByLayer
370
18
48
1
60
0
100
AcDbLine
10
131.228517
20
10.944976
30
0
11
131.153868
21
10.941064
31
0
39
0
210
0
220
0
230
1
0
LINE
5
157
100
AcDbEntity
8
1
62
256
6
ByLayer
370
18
48
1
60
0
100
AcDbLine
10
131.334427
20
7.495792
30
0
11
131.409076
21
7.499704
31
0
39
0
210
0
220
0
230
1
0
LINE
5
158
100
AcDbEntity
8
1
62
256
6
ByLayer
370
18
48
1
60
0
100
AcDbLine
10
130.46987
20
8.939002
30
0
11
130.420691
21
8.936425
31
0
39
0
210
0
220
0
230
1
0
LINE
5
159
100
AcDbEntity
8
1
62
256
6
ByLayer
370
18
48
1
60
0
100
AcDbLine
10
130.393734
20
9.412708
30
0
11
130.444881
21
9.415388
31
0
39
0
210
0
220
0
230
1
0
LINE
5
15A
100
AcDbEntity
8
1
62
256
6
ByLayer
370
13
48
1
60
0
100
AcDbLine
10
136.258687
20
5.813708
30
0
11
136.515419
21
6.336816
31
0
39
0
210
0
220
0
230
1
0
LINE
5
15B
100
AcDbEntity
8
1
62
256
6
ByLayer
370
13
48
1
60
0
100
AcDbLine
10
135.33099
20
9.673517
30
0
11
134.856553
21
12.677636
31
0
39
0
210
0
220
0
230
1
0
LINE
5
15C
100
AcDbEntity
8
1
62
256
6
ByLayer
370
13
48
1
60
0
100
AcDbLine
10
134.914686
20
6.271418
30
0
11
135.333652
21
9.472736
31
0
39
0
210
0
220
0
230
1
0
LINE
5
15D
100
AcDbEntity
8
1
62
256
6
ByLayer
370
13
48
1
60
0
100
AcDbLine
10
25
20
-13.1625
30
0
11
30
21
-13.1625
31
0
39
0
210
0
220
0
230
1
0
LINE
5
15E
100
AcDbEntity
8
1
62
256
6
ByLayer
370
13
48
1
60
0
100
AcDbLine
10
30
20
-13.1625
30
0
11
69.8
21
-13.0275
31
0
39
0
210
0
220
0
230
1
0
LINE
5
15F
100
AcDbEntity
8
1
62
256
6
ByLayer
370
13
48
1
60
0
100
AcDbLine
10
125.762691
20
13.1625
30
0
11
124.396356
21
13.1625
31
0
39
0
210
0
220
0
230
1
0
LINE
5
160
100
AcDbEntity
8
1
62
256
6
ByLayer
370
13
48
1
60
0
100
AcDbLine
10
124.396356
20
13.1625
30
0
11
121.396356
21
13.0275
31
0
39
0
210
0
220
0
230
1
0
LINE
5
161
100
AcDbEntity
8
1
62
256
6
ByLayer
370
13
48
1
60
0
100
AcDbLine
10
69.8
20
-13.0275
30
0
11
76.069363
21
-13.0275
31
0
39
0
210
0
220
0
230
1
0
LINE
5
162
100
AcDbEntity
8
1
62
256
6
ByLayer
370
13
48
1
60
0
100
AcDbLine
10
121.396356
20
13.0275
30
0
11
116.18124
21
13.0275
31
0
39
0
210
0
220
0
230
1
0
LINE
5
163
100
AcDbEntity
8
1
62
256
6
ByLayer
370
13
48
1
60
0
100
AcDbLine
10
66.33204
20
13.039263
30
0
11
30
21
13.1625
31
0
39
0
210
0
220
0
230
1
0
LINE
5
164
100
AcDbEntity
8
1
62
256
6
ByLayer
370
13
48
1
60
0
100
AcDbLine
10
30
20
13.1625
30
0
11
25
21
13.1625
31
0
39
0
210
0
220
0
230
1
0
LINE
5
165
100
AcDbEntity
8
1
62
256
6
ByLayer
370
13
48
1
60
0
100
AcDbLine
10
0.1
20
19.75
30
0
11
0
21
19.65
31
0
39
0
210
0
220
0
230
1
0
LINE
5
166
100
AcDbEntity
8
1
62
256
6
ByLayer
370
13
48
1
60
0
100
AcDbLine
10
5.0534
20
19.75
30
0
11
0.1
21
19.75
31
0
39
0
210
0
220
0
230
1
0
LINE
5
167
100
AcDbEntity
8
1
62
256
6
ByLayer
370
13
48
1
60
0
100
AcDbLine
10
0.1
20
-19.75
30
0
11
5.0534
21
-19.75
31
0
39
0
210
0
220
0
230
1
0
LINE
5
168
100
AcDbEntity
8
1
62
256
6
ByLayer
370
13
48
1
60
0
100
AcDbLine
10
0
20
-19.65
30
0
11
0.1
21
-19.75
31
0
39
0
210
0
220
0
230
1
0
LINE
5
169
100
AcDbEntity
8
81
62
256
6
ByLayer
370
18
48
1
60
0
100
AcDbLine
10
137
20
0
30
0
11
144
21
0
31
0
39
0
210
0
220
0
230
1
0
LINE
5
16A
100
AcDbEntity
8
80
62
256
6
ByLayer
370
18
48
1
60
0
100
AcDbLine
10
0
20
0
30
0
11
-7
21
0
31
0
39
0
210
0
220
0
230
1
0
LINE
5
16B
100
AcDbEntity
8
SK2
62
256
6
ByLayer
370
13
48
1
60
0
100
AcDbLine
10
-80.725
20
16
30
0
11
-80.725
21
-16
31
0
39
0
210
0
220
0
230
1
0
LINE
5
16D
100
AcDbEntity
8
SK2
62
256
6
ByLayer
370
13
48
1
60
0
100
AcDbLine
10
-61.5875
20
-16
30
0
11
-83.9
21
-16
31
0
39
0
210
0
220
0
230
1
0
LINE
5
16E
100
AcDbEntity
8
SK2
62
256
6
ByLayer
370
13
48
1
60
0
100
AcDbLine
10
-61.5875
20
16
30
0
11
-83.9
21
16
31
0
39
0
210
0
220
0
230
1
0
LINE
5
16F
100
AcDbEntity
8
1
62
256
6
ByLayer
370
18
48
1
60
1
100
AcDbLine
10
-80.725
20
-16
30
0
11
-81.650575
21
-11.825003
31
0
39
0
210
0
220
0
230
1
0
LINE
5
170
100
AcDbEntity
8
1
62
256
6
ByLayer
370
18
48
1
60
1
100
AcDbLine
10
-81.650575
20
-11.825003
30
0
11
-79.799425
21
-11.824997
31
0
39
0
210
0
220
0
230
1
0
LINE
5
171
100
AcDbEntity
8
1
62
256
6
ByLayer
370
18
48
1
60
1
100
AcDbLine
10
-79.799425
20
-11.824997
30
0
11
-80.725
21
-16
31
0
39
0
210
0
220
0
230
1
0
LINE
5
172
100
AcDbEntity
8
1
62
256
6
ByLayer
370
18
48
1
60
1
100
AcDbLine
10
-80.725
20
16
30
0
11
-79.799425
21
11.825003
31
0
39
0
210
0
220
0
230
1
0
LINE
5
173
100
AcDbEntity
8
1
62
256
6
ByLayer
370
18
48
1
60
1
100
AcDbLine
10
-79.799425
20
11.825003
30
0
11
-81.650575
21
11.824997
31
0
39
0
210
0
220
0
230
1
0
LINE
5
174
100
AcDbEntity
8
1
62
256
6
ByLayer
370
18
48
1
60
1
100
AcDbLine
10
-81.650575
20
11.824997
30
0
11
-80.725
21
16
31
0
39
0
210
0
220
0
230
1
0
LINE
5
175
100
AcDbEntity
8
SK2
62
256
6
ByLayer
370
13
48
1
60
0
100
AcDbLine
10
-90.725
20
-19.75
30
0
11
-90.725
21
19.75
31
0
39
0
210
0
220
0
230
1
0
LINE
5
176
100
AcDbEntity
8
SK2
62
256
6
ByLayer
370
13
48
1
60
0
100
AcDbLine
10
-1.5875
20
19.75
30
0
11
-93.9
21
19.75
31
0
39
0
210
0
220
0
230
1
0
LINE
5
177
100
AcDbEntity
8
SK2
62
256
6
ByLayer
370
13
48
1
60
0
100
AcDbLine
10
-1.5875
20
-19.75
30
0
11
-93.9
21
-19.75
31
0
39
0
210
0
220
0
230
1
0
LINE
5
178
100
AcDbEntity
8
1
62
256
6
ByLayer
370
18
48
1
60
1
100
AcDbLine
10
-90.725
20
19.75
30
0
11
-89.799425
21
15.575003
31
0
39
0
210
0
220
0
230
1
0
LINE
5
179
100
AcDbEntity
8
1
62
256
6
ByLayer
370
18
48
1
60
1
100
AcDbLine
10
-89.799425
20
15.575003
30
0
11
-91.650575
21
15.574997
31
0
39
0
210
0
220
0
230
1
0
LINE
5
17A
100
AcDbEntity
8
1
62
256
6
ByLayer
370
18
48
1
60
1
100
AcDbLine
10
-91.650575
20
15.574997
30
0
11
-90.725
21
19.75
31
0
39
0
210
0
220
0
230
1
0
LINE
5
17B
100
AcDbEntity
8
1
62
256
6
ByLayer
370
18
48
1
60
1
100
AcDbLine
10
-90.725
20
-19.75
30
0
11
-91.650575
21
-15.575003
31
0
39
0
210
0
220
0
230
1
0
LINE
5
17C
100
AcDbEntity
8
1
62
256
6
ByLayer
370
18
48
1
60
1
100
AcDbLine
10
-91.650575
20
-15.575003
30
0
11
-89.799425
21
-15.574997
31
0
39
0
210
0
220
0
230
1
0
LINE
5
17D
100
AcDbEntity
8
1
62
256
6
ByLayer
370
18
48
1
60
1
100
AcDbLine
10
-89.799425
20
-15.574997
30
0
11
-90.725
21
-19.75
31
0
39
0
210
0
220
0
230
1
0
LINE
5
17E
100
AcDbEntity
8
2
62
256
6
ByLayer
370
13
48
1
60
0
100
AcDbLine
10
163.975
20
24.75
30
0
11
163.975
21
-24.75
31
0
39
0
210
0
220
0
230
1
0
LINE
5
180
100
AcDbEntity
8
2
62
256
6
ByLayer
370
13
48
1
60
0
100
AcDbLine
10
138.5875
20
-13.5
30
0
11
167.15
21
-13.5
31
0
39
0
210
0
220
0
230
1
0
LINE
5
181
100
AcDbEntity
8
2
62
256
6
ByLayer
370
13
48
1
60
0
100
AcDbLine
10
138.5875
20
13.5
30
0
11
167.15
21
13.5
31
0
39
0
210
0
220
0
230
1
0
LINE
5
182
100
AcDbEntity
8
1
62
256
6
ByLayer
370
18
48
1
60
1
100
AcDbLine
10
163.975
20
-13.5
30
0
11
164.900575
21
-17.674997
31
0
39
0
210
0
220
0
230
1
0
LINE
5
183
100
AcDbEntity
8
1
62
256
6
ByLayer
370
18
48
1
60
1
100
AcDbLine
10
164.900575
20
-17.674997
30
0
11
163.049425
21
-17.675003
31
0
39
0
210
0
220
0
230
1
0
LINE
5
184
100
AcDbEntity
8
1
62
256
6
ByLayer
370
18
48
1
60
1
100
AcDbLine
10
163.049425
20
-17.675003
30
0
11
163.975
21
-13.5
31
0
39
0
210
0
220
0
230
1
0
LINE
5
185
100
AcDbEntity
8
1
62
256
6
ByLayer
370
18
48
1
60
1
100
AcDbLine
10
163.975
20
13.5
30
0
11
163.049425
21
17.674997
31
0
39
0
210
0
220
0
230
1
0
LINE
5
186
100
AcDbEntity
8
1
62
256
6
ByLayer
370
18
48
1
60
1
100
AcDbLine
10
163.049425
20
17.674997
30
0
11
164.900575
21
17.675003
31
0
39
0
210
0
220
0
230
1
0
LINE
5
187
100
AcDbEntity
8
1
62
256
6
ByLayer
370
18
48
1
60
1
100
AcDbLine
10
164.900575
20
17.675003
30
0
11
163.975
21
13.5
31
0
39
0
210
0
220
0
230
1
0
LINE
5
341
100
AcDbEntity
8
1
62
256
6
ByLayer
370
18
48
1
60
1
100
AcDbLine
10
-80.725
20
-16
30
0
11
-81.650575
21
-11.825003
31
0
39
0
210
0
220
0
230
1
0
LINE
5
342
100
AcDbEntity
8
1
62
256
6
ByLayer
370
18
48
1
60
1
100
AcDbLine
10
-81.650575
20
-11.825003
30
0
11
-79.799425
21
-11.824997
31
0
39
0
210
0
220
0
230
1
0
LINE
5
343
100
AcDbEntity
8
1
62
256
6
ByLayer
370
18
48
1
60
1
100
AcDbLine
10
-79.799425
20
-11.824997
30
0
11
-80.725
21
-16
31
0
39
0
210
0
220
0
230
1
0
LINE
5
345
100
AcDbEntity
8
1
62
256
6
ByLayer
370
18
48
1
60
1
100
AcDbLine
10
-80.725
20
16
30
0
11
-79.799425
21
11.825003
31
0
39
0
210
0
220
0
230
1
0
LINE
5
346
100
AcDbEntity
8
1
62
256
6
ByLayer
370
18
48
1
60
1
100
AcDbLine
10
-79.799425
20
11.825003
30
0
11
-81.650575
21
11.824997
31
0
39
0
210
0
220
0
230
1
0
LINE
5
347
100
AcDbEntity
8
1
62
256
6
ByLayer
370
18
48
1
60
1
100
AcDbLine
10
-81.650575
20
11.824997
30
0
11
-80.725
21
16
31
0
39
0
210
0
220
0
230
1
0
LINE
5
34B
100
AcDbEntity
8
1
62
256
6
ByLayer
370
18
48
1
60
1
100
AcDbLine
10
-90.725
20
19.75
30
0
11
-89.799425
21
15.575003
31
0
39
0
210
0
220
0
230
1
0
LINE
5
34C
100
AcDbEntity
8
1
62
256
6
ByLayer
370
18
48
1
60
1
100
AcDbLine
10
-89.799425
20
15.575003
30
0
11
-91.650575
21
15.574997
31
0
39
0
210
0
220
0
230
1
0
LINE
5
34D
100
AcDbEntity
8
1
62
256
6
ByLayer
370
18
48
1
60
1
100
AcDbLine
10
-91.650575
20
15.574997
30
0
11
-90.725
21
19.75
31
0
39
0
210
0
220
0
230
1
0
LINE
5
34F
100
AcDbEntity
8
1
62
256
6
ByLayer
370
18
48
1
60
1
100
AcDbLine
10
-90.725
20
-19.75
30
0
11
-91.650575
21
-15.575003
31
0
39
0
210
0
220
0
230
1
0
LINE
5
350
100
AcDbEntity
8
1
62
256
6
ByLayer
370
18
48
1
60
1
100
AcDbLine
10
-91.650575
20
-15.575003
30
0
11
-89.799425
21
-15.574997
31
0
39
0
210
0
220
0
230
1
0
LINE
5
351
100
AcDbEntity
8
1
62
256
6
ByLayer
370
18
48
1
60
1
100
AcDbLine
10
-89.799425
20
-15.574997
30
0
11
-90.725
21
-19.75
31
0
39
0
210
0
220
0
230
1
0
LINE
5
355
100
AcDbEntity
8
1
62
256
6
ByLayer
370
18
48
1
60
1
100
AcDbLine
10
163.975
20
-13.5
30
0
11
164.900575
21
-17.674997
31
0
39
0
210
0
220
0
230
1
0
LINE
5
356
100
AcDbEntity
8
1
62
256
6
ByLayer
370
18
48
1
60
1
100
AcDbLine
10
164.900575
20
-17.674997
30
0
11
163.049425
21
-17.675003
31
0
39
0
210
0
220
0
230
1
0
LINE
5
357
100
AcDbEntity
8
1
62
256
6
ByLayer
370
18
48
1
60
1
100
AcDbLine
10
163.049425
20
-17.675003
30
0
11
163.975
21
-13.5
31
0
39
0
210
0
220
0
230
1
0
LINE
5
359
100
AcDbEntity
8
1
62
256
6
ByLayer
370
18
48
1
60
1
100
AcDbLine
10
163.975
20
13.5
30
0
11
163.049425
21
17.674997
31
0
39
0
210
0
220
0
230
1
0
LINE
5
35A
100
AcDbEntity
8
1
62
256
6
ByLayer
370
18
48
1
60
1
100
AcDbLine
10
163.049425
20
17.674997
30
0
11
164.900575
21
17.675003
31
0
39
0
210
0
220
0
230
1
0
LINE
5
35B
100
AcDbEntity
8
1
62
256
6
ByLayer
370
18
48
1
60
1
100
AcDbLine
10
164.900575
20
17.675003
30
0
11
163.975
21
13.5
31
0
39
0
210
0
220
0
230
1
0
MTEXT
5
33D
100
AcDbEntity
8
SK2
62
256
6
ByLayer
370
18
48
1
60
0
100
AcDbMText
10
-82.736672
20
-6.949399
30
0
210
0
220
0
230
1
1
%%c
40
4.5
41
0
44
1.084337
50
90
71
7
72
5
7
iso_b_vert
0
MTEXT
5
340
100
AcDbEntity
8
SK2
62
256
6
ByLayer
370
18
48
1
60
0
100
AcDbMText
10
-82.736672
20
4.265444
30
0
210
0
220
0
230
1
1
\W0.6740;32
40
4.5
41
0
44
1.084337
50
90
71
7
72
5
7
iso_b_vert
0
MTEXT
5
349
100
AcDbEntity
8
SK2
62
256
6
ByLayer
370
18
48
1
60
0
100
AcDbMText
10
-92.736672
20
-9.541655
30
0
210
0
220
0
230
1
1
%%c
40
4.5
41
0
44
1.084337
50
90
71
7
72
5
7
iso_b_vert
0
MTEXT
5
34A
100
AcDbEntity
8
SK2
62
256
6
ByLayer
370
18
48
1
60
0
100
AcDbMText
10
-92.736672
20
1.673189
30
0
210
0
220
0
230
1
1
\W0.7346;39.5
40
4.5
41
0
44
1.084337
50
90
71
7
72
5
7
iso_b_vert
0
MTEXT
5
353
100
AcDbEntity
8
2
62
256
6
ByLayer
370
18
48
1
60
0
100
AcDbMText
10
161.963328
20
-6.949399
30
0
210
0
220
0
230
1
1
%%c
40
4.5
41
0
44
1.084337
50
90
71
7
72
5
7
iso_b_vert
0
MTEXT
5
354
100
AcDbEntity
8
2
62
256
6
ByLayer
370
18
48
1
60
0
100
AcDbMText
10
161.963328
20
4.265444
30
0
210
0
220
0
230
1
1
\W0.6740;27
40
4.5
41
0
44
1.084337
50
90
71
7
72
5
7
iso_b_vert
0
MTEXT
5
35D
100
AcDbEntity
8
SK6
62
256
6
ByLayer
370
18
48
1
60
0
100
AcDbMText
10
9.308916
20
-94.592562
30
0
210
0
220
0
230
1
1
\W0.7699;DS20-D2700L32-04
40
3.5
41
0
44
1.084337
50
0
71
7
72
5
7
iso_b_vert
0
HATCH
5
344
100
AcDbEntity
8
SK2
62
256
6
ByLayer
370
13
48
1
60
0
100
AcDbHatch
10
0
20
0
30
0
210
0
220
0
230
1
2
ANSI31
70
0
71
0
91
1
92
5
93
3
72
1
10
-80.725
20
-15.9999999999999
11
-81.650575216528
21
-11.8250033998275
72
1
10
-81.650575216528
20
-11.8250033998275
11
-79.799424783472
21
-11.8249966001723
72
1
10
-79.799424783472
20
-11.8249966001723
11
-80.725
21
-15.9999999999999
97
0
75
0
76
1
52
0
41
0.0062
77
0
78
1
53
45
43
0
44
0
45
-0.0139193969876572
46
0.0139193969876572
79
0
47
0
98
1
10
0
20
0
0
HATCH
5
348
100
AcDbEntity
8
SK2
62
256
6
ByLayer
370
13
48
1
60
0
100
AcDbHatch
10
0
20
0
30
0
210
0
220
0
230
1
2
ANSI31
70
0
71
0
91
1
92
5
93
3
72
1
10
-80.725
20
16.0000000000001
11
-79.799424783472
21
11.8250033998277
72
1
10
-79.799424783472
20
11.8250033998277
11
-81.650575216528
21
11.8249966001724
72
1
10
-81.650575216528
20
11.8249966001724
11
-80.725
21
16.0000000000001
97
0
75
0
76
1
52
0
41
0.0062
77
0
78
1
53
45
43
0
44
0
45
-0.0139193969876572
46
0.0139193969876572
79
0
47
0
98
1
10
0
20
0
0
HATCH
5
34E
100
AcDbEntity
8
SK2
62
256
6
ByLayer
370
13
48
1
60
0
100
AcDbHatch
10
0
20
0
30
0
210
0
220
0
230
1
2
ANSI31
70
0
71
0
91
1
92
5
93
3
72
1
10
-90.725
20
19.75
11
-89.799424783472
21
15.5750033998276
72
1
10
-89.799424783472
20
15.5750033998276
11
-91.650575216528
21
15.5749966001724
72
1
10
-91.650575216528
20
15.5749966001724
11
-90.725
21
19.75
97
0
75
0
76
1
52
0
41
0.0062
77
0
78
1
53
45
43
0
44
0
45
-0.0139193969876572
46
0.0139193969876572
79
0
47
0
98
1
10
0
20
0
0
HATCH
5
352
100
AcDbEntity
8
SK2
62
256
6
ByLayer
370
13
48
1
60
0
100
AcDbHatch
10
0
20
0
30
0
210
0
220
0
230
1
2
ANSI31
70
0
71
0
91
1
92
5
93
3
72
1
10
-90.725
20
-19.75
11
-91.650575216528
21
-15.5750033998276
72
1
10
-91.650575216528
20
-15.5750033998276
11
-89.799424783472
21
-15.5749966001724
72
1
10
-89.799424783472
20
-15.5749966001724
11
-90.725
21
-19.75
97
0
75
0
76
1
52
0
41
0.0062
77
0
78
1
53
45
43
0
44
0
45
-0.0139193969876572
46
0.0139193969876572
79
0
47
0
98
1
10
0
20
0
0
HATCH
5
358
100
AcDbEntity
8
2
62
256
6
ByLayer
370
13
48
1
60
0
100
AcDbHatch
10
0
20
0
30
0
210
0
220
0
230
1
2
ANSI31
70
0
71
0
91
1
92
5
93
3
72
1
10
163.975
20
-13.5000000000001
11
164.900575216528
21
-17.6749966001725
72
1
10
164.900575216528
20
-17.6749966001725
11
163.049424783472
21
-17.6750033998278
72
1
10
163.049424783472
20
-17.6750033998278
11
163.975
21
-13.5000000000001
97
0
75
0
76
1
52
0
41
0.0062
77
0
78
1
53
45
43
0
44
0
45
-0.0139193969876572
46
0.0139193969876572
79
0
47
0
98
1
10
0
20
0
0
HATCH
5
35C
100
AcDbEntity
8
2
62
256
6
ByLayer
370
13
48
1
60
0
100
AcDbHatch
10
0
20
0
30
0
210
0
220
0
230
1
2
ANSI31
70
0
71
0
91
1
92
5
93
3
72
1
10
163.975
20
13.4999999999999
11
163.049424783472
21
17.6749966001723
72
1
10
163.049424783472
20
17.6749966001723
11
164.900575216528
21
17.6750033998275
72
1
10
164.900575216528
20
17.6750033998275
11
163.975
21
13.4999999999999
97
0
75
0
76
1
52
0
41
0.0062
77
0
78
1
53
45
43
0
44
0
45
-0.0139193969876572
46
0.0139193969876572
79
0
47
0
98
1
10
0
20
0
0
DIMENSION
5
360
100
AcDbEntity
8
2
62
256
6
ByLayer
370
18
48
1
60
0
100
AcDbDimension
2
_U0
10
137
20
-68.611325
30
0
11
68.5
21
-68.611325
31
0
70
32
71
1
72
1
41
1
210
0
220
0
230
1
3
Standard
100
AcDbAlignedDimension
13
0
23
-19.75
33
0
14
137
24
-13.5
34
0
50
0
100
AcDbRotatedDimension
1001
ACAD
1000
DSTYLE
1002
{
1070
   371
1070
    13
1070
   372
1070
    13
1070
   170
1070
     0
1070
   144
1040
1.0
1070
   277
1070
     2
1070
   284
1070
     8
1070
   278
1070
    46
1070
   146
1040
0.777778
1070
   345
1005
16
1070
   347
1005
16
1070
   346
1005
16
1070
   344
1005
0
1070
   343
1005
0
1070
   172
1070
     1
1070
    76
1070
     0
1070
    75
1070
     0
1070
   282
1070
     0
1070
   281
1070
     0
1070
    71
1070
     0
1070
    74
1070
     0
1070
   279
1070
     0
1070
   173
1070
     1
1070
   340
1005
33E
1070
   271
1070
     1
1070
   272
1070
     2
1070
    77
1070
     1
1070
    73
1070
     1
1070
   171
1070
     3
1070
   274
1070
     4
1070
   177
1070
   150
1070
   176
1070
     9
1070
   178
1070
    43
1070
    78
1070
     8
1070
    48
1040
-0.1
1070
    41
1040
4.175
1070
   147
1040
2.25
1070
    42
1040
1.5875
1070
    44
1040
3.175
1070
   140
1040
4.5
1002
}
1001
ACAD_DSTYLE_DIM_LINETYPE
1070
   380
1005
16
1001
ACAD_DSTYLE_DIM_EXT1_LINETYPE
1070
   381
1005
16
1001
ACAD_DSTYLE_DIM_EXT2_LINETYPE
1070
   382
1005
16
0
DIMENSION
5
379
100
AcDbEntity
8
SK2
62
256
6
ByLayer
370
18
48
1
60
0
100
AcDbDimension
2
_U1
10
0
20
-68.611325
30
0
11
-30
21
-68.611325
31
0
70
32
71
1
72
1
41
1
210
0
220
0
230
1
3
Standard
100
AcDbAlignedDimension
13
-60
23
-16
33
0
14
0
24
-19.75
34
0
50
0
100
AcDbRotatedDimension
1001
ACAD
1000
DSTYLE
1002
{
1070
   371
1070
    13
1070
   372
1070
    13
1070
   170
1070
     0
1070
   144
1040
1.0
1070
   277
1070
     2
1070
   284
1070
     8
1070
   278
1070
    46
1070
   146
1040
0.777778
1070
   345
1005
16
1070
   347
1005
16
1070
   346
1005
16
1070
   344
1005
0
1070
   343
1005
0
1070
   172
1070
     1
1070
    76
1070
     0
1070
    75
1070
     0
1070
   282
1070
     0
1070
   281
1070
     0
1070
    71
1070
     0
1070
    74
1070
     0
1070
   279
1070
     0
1070
   173
1070
     1
1070
   340
1005
33E
1070
   271
1070
     1
1070
   272
1070
     2
1070
    77
1070
     1
1070
    73
1070
     1
1070
   171
1070
     3
1070
   274
1070
     4
1070
   177
1070
   150
1070
   176
1070
     9
1070
   178
1070
    43
1070
    78
1070
     8
1070
    48
1040
-0.1
1070
    41
1040
4.175
1070
   147
1040
2.25
1070
    42
1040
1.5875
1070
    44
1040
3.175
1070
   140
1040
4.5
1002
}
1001
ACAD_DSTYLE_DIM_LINETYPE
1070
   380
1005
16
1001
ACAD_DSTYLE_DIM_EXT1_LINETYPE
1070
   381
1005
16
1001
ACAD_DSTYLE_DIM_EXT2_LINETYPE
1070
   382
1005
16
0
DIMENSION
5
391
100
AcDbEntity
8
SK2
62
256
6
ByLayer
370
18
48
1
60
0
100
AcDbDimension
2
_U2
10
5.5534
20
-58.611325
30
0
11
71.2767
21
-58.611325
31
0
70
32
71
1
72
1
41
1
210
0
220
0
230
1
3
Standard
100
AcDbAlignedDimension
13
137
23
-13.5
33
0
14
5.5534
24
-19.75
34
0
50
0
100
AcDbRotatedDimension
1001
ACAD
1000
DSTYLE
1002
{
1070
   371
1070
    13
1070
   372
1070
    13
1070
   170
1070
     0
1070
   144
1040
1.0
1070
   277
1070
     2
1070
   284
1070
     8
1070
   278
1070
    46
1070
   146
1040
0.777778
1070
   345
1005
16
1070
   347
1005
16
1070
   346
1005
16
1070
   344
1005
0
1070
   343
1005
0
1070
   172
1070
     1
1070
    76
1070
     0
1070
    75
1070
     0
1070
   282
1070
     0
1070
   281
1070
     0
1070
    71
1070
     0
1070
    74
1070
     0
1070
   279
1070
     0
1070
   173
1070
     1
1070
   340
1005
33E
1070
   271
1070
     1
1070
   272
1070
     2
1070
    77
1070
     1
1070
    73
1070
     1
1070
   171
1070
     3
1070
   274
1070
     4
1070
   177
1070
   150
1070
   176
1070
     9
1070
   178
1070
    43
1070
    78
1070
     8
1070
    48
1040
-0.1
1070
    41
1040
4.175
1070
   147
1040
2.25
1070
    42
1040
1.5875
1070
    44
1040
3.175
1070
   140
1040
4.5
1002
}
1001
ACAD_DSTYLE_DIM_LINETYPE
1070
   380
1005
16
1001
ACAD_DSTYLE_DIM_EXT1_LINETYPE
1070
   381
1005
16
1001
ACAD_DSTYLE_DIM_EXT2_LINETYPE
1070
   382
1005
16
0
DIMENSION
5
3A9
100
AcDbEntity
8
SK2
62
256
6
ByLayer
370
18
48
1
60
0
100
AcDbDimension
2
_U3
10
137
20
-48.611325
30
0
11
81
21
-48.611325
31
0
70
32
71
1
72
1
41
1
210
0
220
0
230
1
3
Standard
100
AcDbAlignedDimension
13
25
23
-13.5
33
0
14
137
24
-13.5
34
0
50
0
100
AcDbRotatedDimension
1001
ACAD
1000
DSTYLE
1002
{
1070
   371
1070
    13
1070
   372
1070
    13
1070
   170
1070
     0
1070
   144
1040
1.0
1070
   277
1070
     2
1070
   284
1070
     8
1070
   278
1070
    46
1070
   146
1040
0.777778
1070
   345
1005
16
1070
   347
1005
16
1070
   346
1005
16
1070
   344
1005
0
1070
   343
1005
0
1070
   172
1070
     1
1070
    76
1070
     0
1070
    75
1070
     0
1070
   282
1070
     0
1070
   281
1070
     0
1070
    71
1070
     0
1070
    74
1070
     0
1070
   279
1070
     0
1070
   173
1070
     1
1070
   340
1005
33E
1070
   271
1070
     1
1070
   272
1070
     2
1070
    77
1070
     1
1070
    73
1070
     1
1070
   171
1070
     3
1070
   274
1070
     4
1070
   177
1070
   150
1070
   176
1070
     9
1070
   178
1070
    43
1070
    78
1070
     8
1070
    48
1040
-0.1
1070
    41
1040
4.175
1070
   147
1040
2.25
1070
    42
1040
1.5875
1070
    44
1040
3.175
1070
   140
1040
4.5
1002
}
1001
ACAD_DSTYLE_DIM_LINETYPE
1070
   380
1005
16
1001
ACAD_DSTYLE_DIM_EXT1_LINETYPE
1070
   381
1005
16
1001
ACAD_DSTYLE_DIM_EXT2_LINETYPE
1070
   382
1005
16
0
DIMENSION
5
3C1
100
AcDbEntity
8
2
62
256
6
ByLayer
370
18
48
1
60
0
100
AcDbDimension
2
_U4
10
137
20
-38.611325
30
0
11
159.350893
21
-38.611325
31
0
70
32
71
1
72
1
41
1
210
0
220
0
230
1
3
Standard
100
AcDbAlignedDimension
13
136.335
23
-6.75
33
0
14
137
24
0
34
0
50
0
100
AcDbRotatedDimension
1001
ACAD
1000
DSTYLE
1002
{
1070
   371
1070
    13
1070
   372
1070
    13
1070
   170
1070
     0
1070
   144
1040
1.0
1070
   277
1070
     2
1070
   284
1070
     8
1070
   278
1070
    46
1070
   146
1040
0.777778
1070
   345
1005
16
1070
   347
1005
16
1070
   346
1005
16
1070
   344
1005
0
1070
   343
1005
0
1070
   172
1070
     1
1070
    76
1070
     0
1070
    75
1070
     0
1070
   282
1070
     0
1070
   281
1070
     0
1070
    71
1070
     0
1070
    74
1070
     0
1070
   279
1070
     0
1070
   173
1070
     1
1070
   340
1005
33E
1070
   271
1070
     2
1070
   272
1070
     2
1070
    77
1070
     1
1070
    73
1070
     1
1070
   171
1070
     3
1070
   274
1070
     4
1070
   177
1070
   150
1070
   176
1070
     9
1070
   178
1070
    43
1070
    78
1070
     8
1070
    48
1040
-0.1
1070
    41
1040
4.175
1070
   147
1040
2.25
1070
    42
1040
1.5875
1070
    44
1040
3.175
1070
   140
1040
4.5
1002
}
1001
ACAD_DSTYLE_DIM_LINETYPE
1070
   380
1005
16
1001
ACAD_DSTYLE_DIM_EXT1_LINETYPE
1070
   381
1005
16
1001
ACAD_DSTYLE_DIM_EXT2_LINETYPE
1070
   382
1005
16
0
ENDSEC
0
SECTION
2
OBJECTS
0
DICTIONARY
5
44b
330
0
100
AcDbDictionary
280
0
281
1
3
ACAD_GROUP
350
44c
3
ACAD_MLINESTYLE
350
44d
0
DICTIONARY
5
44c
330
0
100
AcDbDictionary
280
0
281
1
0
DICTIONARY
5
44d
330
0
100
AcDbDictionary
280
0
281
1
3
Standard
350
18
0
MLINESTYLE
5
18
330
44d
100
AcDbMlineStyle
2
Standard
70
0
3

62
256
51
90
52
90
71
2
49
-0.5
62
256
6
ByLayer
49
0.5
62
256
6
ByLayer
0
RASTERVARIABLES
5
439
330

100
AcDbRasterVariables
90
0
70
1
71
1
72
1
0
ENDSEC
0
EOF
