0
SECTION
2
HEADER
9
$ACADVER
1
AC1015
9
$DWGCODEPAGE
3
ANSI_1252
9
$HANDSEED
5
45b
9
$ANGBASE
50
0
9
$ANGDIR
70
0
9
$ATTMODE
70
1
9
$AUNITS
70
0
9
$AUPREC
70
0
9
$CECOLOR
62
256
9
$CELTSCALE
40
1
9
$CELTYPE
6
ByLayer
9
$CELWEIGHT
370
18
9
$CLAYER
8
0
9
$CMLJUST
70
0
9
$CMLSCALE
40
1
9
$CMLSTYLE
2
Standard
9
$DIMSTYLE
2
Standard
9
$TEXTSIZE
40
0.2
9
$TEXTSTYLE
7
Standard
9
$LUNITS
70
2
9
$LUPREC
70
4
9
$EXTNAMES
290
1
9
$INSUNITS
70
4
9
$LTSCALE
40
1
9
$LWDISPLAY
290
1
9
$PDMODE
70
0
9
$PDSIZE
40
0
9
$PLINEGEN
70
0
0
ENDSEC
0
SECTION
2
CLASSES
0
CLASS
1
RASTERVARIABLES
2
AcDbRasterVariables
3
ISM
90
0
280
0
281
0
0
ENDSEC
0
SECTION
2
TABLES
0
TABLE
2
VPORT
5
451
100
AcDbSymbolTable
0
VPORT
5
1
100
AcDbSymbolTableRecord
100
AcDbViewportTableRecord
2
*Active
70
0
10
0
20
0
11
1
21
1
12
-1
22
1
13
0
23
0
14
0.5
24
0.5
15
10
25
10
16
0
26
0
36
1
17
0
27
0
37
0
0
ENDTAB
0
TABLE
2
LTYPE
5
452
100
AcDbSymbolTable
0
LTYPE
5
14
100
AcDbSymbolTableRecord
100
AcDbLinetypeTableRecord
70
0
2
ByBlock
3

72
65
73
0
40
0
0
LTYPE
5
15
100
AcDbSymbolTableRecord
100
AcDbLinetypeTableRecord
70
0
2
ByLayer
3

72
65
73
0
40
0
0
LTYPE
5
16
100
AcDbSymbolTableRecord
100
AcDbLinetypeTableRecord
70
0
2
Continuous
3
Solid line
72
65
73
0
40
0
0
LTYPE
5
6E
100
AcDbSymbolTableRecord
100
AcDbLinetypeTableRecord
70
0
2
CENTER
3
____ _ ____ _ ____ _ ____
72
65
73
4
40
47.5
49
22
74
0
49
-8.5
74
0
49
8.5
74
0
49
-8.5
74
0
0
LTYPE
5
6F
100
AcDbSymbolTableRecord
100
AcDbLinetypeTableRecord
70
0
2
DASHED
3
__ __ __ __ __ __ __ __ __
72
65
73
2
40
25.72
49
12.86
74
0
49
-12.86
74
0
0
ENDTAB
0
TABLE
2
LAYER
5
453
100
AcDbSymbolTable
0
LAYER
5
10
100
AcDbSymbolTableRecord
100
AcDbLayerTableRecord
2
0
70
0
62
7
6
Continuous
290
1
370
-3
390
0
0
LAYER
5
71
100
AcDbSymbolTableRecord
100
AcDbLayerTableRecord
2
1
70
0
62
4
6
Continuous
290
1
370
-3
390
0
0
LAYER
5
73
100
AcDbSymbolTableRecord
100
AcDbLayerTableRecord
2
80
70
0
62
-6
6
Continuous
290
1
370
-3
390
0
0
LAYER
5
75
100
AcDbSymbolTableRecord
100
AcDbLayerTableRecord
2
81
70
0
62
-3
6
Continuous
290
1
370
-3
390
0
0
LAYER
5
145
100
AcDbSymbolTableRecord
100
AcDbLayerTableRecord
2
4
70
0
62
-2
6
CENTER
290
1
370
-3
390
0
0
LAYER
5
182
100
AcDbSymbolTableRecord
100
AcDbLayerTableRecord
2
2
70
0
62
7
6
Continuous
290
1
370
-3
390
0
0
LAYER
5
366
100
AcDbSymbolTableRecord
100
AcDbLayerTableRecord
2
Defpoints
70
0
62
7
6
Continuous
290
0
370
-3
390
0
0
LAYER
5
43d
100
AcDbSymbolTableRecord
100
AcDbLayerTableRecord
2
SK1
70
0
62
4
6
Continuous
290
1
370
-3
390
0
0
LAYER
5
43e
100
AcDbSymbolTableRecord
100
AcDbLayerTableRecord
2
SK4
70
0
62
2
6
CENTER
290
1
370
-3
390
0
0
LAYER
5
43f
100
AcDbSymbolTableRecord
100
AcDbLayerTableRecord
2
SK2
70
0
62
7
6
Continuous
290
1
370
-3
390
0
0
LAYER
5
440
100
AcDbSymbolTableRecord
100
AcDbLayerTableRecord
2
SK6
70
0
62
5
6
Continuous
290
1
370
-3
390
0
0
ENDTAB
0
TABLE
2
STYLE
5
454
100
AcDbSymbolTable
0
STYLE
5
11
100
AcDbSymbolTableRecord
100
AcDbTextStyleTableRecord
2
Standard
3
txt
70
0
71
0
40
0
41
1
42
0
50
0
0
STYLE
5
341
100
AcDbSymbolTableRecord
100
AcDbTextStyleTableRecord
2
iso_b_vert
3
simplex.shx
70
0
71
0
40
0
41
1
42
0
50
0
0
STYLE
5
342
100
AcDbSymbolTableRecord
100
AcDbTextStyleTableRecord
2
DWGDirectTextStyle
3
simplex
70
0
71
0
40
0
41
1
42
0
50
0
0
ENDTAB
0
TABLE
2
DIMSTYLE
5
455
100
AcDbSymbolTable
100
AcDbDimStyleTable
0
DIMSTYLE
105
27
100
AcDbSymbolTableRecord
100
AcDbDimStyleTableRecord
2
Standard
70
0
3
<>
41
0.18
42
0.0625
44
0.18
140
0.18
147
0.09
73
0
74
0
77
1
271
2
275
0
278
52
280
0
340
11
0
ENDTAB
0
TABLE
2
VIEW
5
456
100
AcDbSymbolTable
0
ENDTAB
0
TABLE
2
UCS
5
457
100
AcDbSymbolTable
0
ENDTAB
0
TABLE
2
APPID
5
458
100
AcDbSymbolTable
0
APPID
5
12
100
AcDbSymbolTableRecord
100
AcDbRegAppTableRecord
2
ACAD
70
0
0
APPID
5
362
100
AcDbSymbolTableRecord
100
AcDbRegAppTableRecord
2
ACAD_DSTYLE_DIMBREAK
70
0
0
APPID
5
3FC
100
AcDbSymbolTableRecord
100
AcDbRegAppTableRecord
2
ACAD_DSTYLE_DIM_LINETYPE
70
0
0
APPID
5
3FD
100
AcDbSymbolTableRecord
100
AcDbRegAppTableRecord
2
ACAD_DSTYLE_DIM_EXT1_LINETYPE
70
0
0
APPID
5
3FE
100
AcDbSymbolTableRecord
100
AcDbRegAppTableRecord
2
ACAD_DSTYLE_DIM_EXT2_LINETYPE
70
0
0
APPID
5
439
100
AcDbSymbolTableRecord
100
AcDbRegAppTableRecord
2
ACAD_MLEADERVER
70
0
0
ENDTAB
0
TABLE
2
BLOCK_RECORD
5
459
100
AcDbSymbolTable
0
BLOCK_RECORD
5
1F
100
AcDbSymbolTableRecord
100
AcDbBlockTableRecord
2
*Model_Space
340
0
70
0
0
BLOCK_RECORD
5
1B
100
AcDbSymbolTableRecord
100
AcDbBlockTableRecord
2
*Paper_Space
340
0
70
0
0
BLOCK_RECORD
5
23
100
AcDbSymbolTableRecord
100
AcDbBlockTableRecord
2
*Paper_Space0
340
0
70
0
0
BLOCK_RECORD
5
367
100
AcDbSymbolTableRecord
100
AcDbBlockTableRecord
2
*D1
340
0
70
0
0
BLOCK_RECORD
5
373
100
AcDbSymbolTableRecord
100
AcDbBlockTableRecord
2
_U0
340
0
70
0
0
BLOCK_RECORD
5
37F
100
AcDbSymbolTableRecord
100
AcDbBlockTableRecord
2
*D3
340
0
70
0
0
BLOCK_RECORD
5
38B
100
AcDbSymbolTableRecord
100
AcDbBlockTableRecord
2
_U1
340
0
70
0
0
BLOCK_RECORD
5
397
100
AcDbSymbolTableRecord
100
AcDbBlockTableRecord
2
*D5
340
0
70
0
0
BLOCK_RECORD
5
3A3
100
AcDbSymbolTableRecord
100
AcDbBlockTableRecord
2
_U2
340
0
70
0
0
BLOCK_RECORD
5
3AF
100
AcDbSymbolTableRecord
100
AcDbBlockTableRecord
2
*D7
340
0
70
0
0
BLOCK_RECORD
5
3BB
100
AcDbSymbolTableRecord
100
AcDbBlockTableRecord
2
_U3
340
0
70
0
0
BLOCK_RECORD
5
3C7
100
AcDbSymbolTableRecord
100
AcDbBlockTableRecord
2
*D9
340
0
70
0
0
BLOCK_RECORD
5
3D5
100
AcDbSymbolTableRecord
100
AcDbBlockTableRecord
2
_U4
340
0
70
0
0
ENDTAB
0
ENDSEC
0
SECTION
2
BLOCKS
0
BLOCK
5
20
100
AcDbEntity
8
0
100
AcDbBlockBegin
2
*Model_Space
70
0
10
0
20
0
30
0
3
*Model_Space
0
ENDBLK
5
21
100
AcDbEntity
8
0
100
AcDbBlockEnd
0
BLOCK
5
1C
100
AcDbEntity
8
0
100
AcDbBlockBegin
2
*Paper_Space
70
0
10
0
20
0
30
0
3
*Paper_Space
0
ENDBLK
5
1D
100
AcDbEntity
8
0
100
AcDbBlockEnd
0
BLOCK
5
24
100
AcDbEntity
8
0
100
AcDbBlockBegin
2
*Paper_Space0
70
0
10
0
20
0
30
0
3
*Paper_Space0
0
ENDBLK
5
25
100
AcDbEntity
8
0
100
AcDbBlockEnd
0
BLOCK
5
368
100
AcDbEntity
8
0
100
AcDbBlockBegin
2
*D1
70
1
10
0
20
0
30
0
3
*D1
0
LINE
5
36A
100
AcDbEntity
8
0
62
256
6
ByLayer
370
-2
48
1
60
0
100
AcDbLine
10
0
20
-17.5875
30
0
11
0
21
-68.036103
31
0
39
0
210
0
220
0
230
1
0
LINE
5
36B
100
AcDbEntity
8
0
62
256
6
ByLayer
370
-2
48
1
60
0
100
AcDbLine
10
141
20
-13.0875
30
0
11
141
21
-68.036103
31
0
39
0
210
0
220
0
230
1
0
LINE
5
36C
100
AcDbEntity
8
0
62
256
6
ByLayer
370
-2
48
1
60
0
100
AcDbLine
10
4.175
20
-64.861103
30
0
11
136.825
21
-64.861103
31
0
39
0
210
0
220
0
230
1
0
SOLID
5
36D
100
AcDbEntity
8
0
62
256
6
ByLayer
370
-1
48
1
60
0
100
AcDbTrace
10
4.175
20
-64.165269
30
0
11
4.175
21
-65.556936
31
0
12
0
22
-64.861103
32
0
13
0
23
-64.861103
33
0
39
0
210
0
220
0
230
1
0
SOLID
5
36E
100
AcDbEntity
8
0
62
256
6
ByLayer
370
-1
48
1
60
0
100
AcDbTrace
10
136.825
20
-65.556936
30
0
11
136.825
21
-64.165269
31
0
12
141
22
-64.861103
32
0
13
141
23
-64.861103
33
0
39
0
210
0
220
0
230
1
0
MTEXT
5
36F
100
AcDbEntity
8
0
62
256
6
ByLayer
370
18
48
1
60
0
100
AcDbMText
10
70.5
20
-55.467353
30
0
210
0
220
0
230
1
1
\A1;141
40
4.5
41
0
44
1
50
0
71
5
72
5
7
iso_b_vert
0
POINT
5
370
100
AcDbEntity
8
Defpoints
62
0
6
ByLayer
370
-1
48
1
60
0
100
AcDbPoint
10
0
20
-16
30
0
39
0
210
0
220
0
230
1
50
360
0
POINT
5
371
100
AcDbEntity
8
Defpoints
62
0
6
ByLayer
370
-1
48
1
60
0
100
AcDbPoint
10
141
20
-11.5
30
0
39
0
210
0
220
0
230
1
50
360
0
POINT
5
372
100
AcDbEntity
8
Defpoints
62
0
6
ByLayer
370
-1
48
1
60
0
100
AcDbPoint
10
141
20
-64.861103
30
0
39
0
210
0
220
0
230
1
50
360
0
ENDBLK
5
369
100
AcDbEntity
8
0
100
AcDbBlockEnd
0
BLOCK
5
37A
100
AcDbEntity
8
0
100
AcDbBlockBegin
2
_U0
70
0
10
0
20
0
30
0
3
_U0
0
MTEXT
5
374
100
AcDbEntity
8
2
62
256
6
ByLayer
370
18
48
1
60
0
100
AcDbMText
10
67.257301
20
-63.533431
30
0
210
0
220
0
230
1
1
\W0.6369;141
40
4.5
41
0
44
1.084337
50
0
71
7
72
5
7
iso_b_vert
0
LINE
5
375
100
AcDbEntity
8
2
62
256
6
ByLayer
370
13
48
1
60
0
100
AcDbLine
10
0
20
-17.5875
30
0
11
0
21
-68.036103
31
0
39
0
210
0
220
0
230
1
0
LINE
5
376
100
AcDbEntity
8
2
62
256
6
ByLayer
370
13
48
1
60
0
100
AcDbLine
10
141
20
-13.0875
30
0
11
141
21
-68.036103
31
0
39
0
210
0
220
0
230
1
0
LINE
5
377
100
AcDbEntity
8
2
62
256
6
ByLayer
370
13
48
1
60
0
100
AcDbLine
10
0
20
-64.861103
30
0
11
141
21
-64.861103
31
0
39
0
210
0
220
0
230
1
0
SOLID
5
378
100
AcDbEntity
8
2
62
256
6
ByLayer
370
18
48
1
60
0
100
AcDbTrace
10
0
20
-64.861103
30
0
11
4.174997
21
-63.935527
31
0
12
4.175003
22
-65.786678
32
0
13
4.175003
23
-65.786678
33
0
39
0
210
0
220
0
230
1
0
SOLID
5
379
100
AcDbEntity
8
2
62
256
6
ByLayer
370
18
48
1
60
0
100
AcDbTrace
10
141
20
-64.861103
30
0
11
136.825003
21
-65.786678
31
0
12
136.824997
22
-63.935527
32
0
13
136.824997
23
-63.935527
33
0
39
0
210
0
220
0
230
1
0
ENDBLK
5
37B
100
AcDbEntity
8
0
100
AcDbBlockEnd
0
BLOCK
5
380
100
AcDbEntity
8
0
100
AcDbBlockBegin
2
*D3
70
1
10
0
20
0
30
0
3
*D3
0
LINE
5
382
100
AcDbEntity
8
0
62
256
6
ByLayer
370
-2
48
1
60
0
100
AcDbLine
10
-56
20
-14.0875
30
0
11
-56
21
-68.036103
31
0
39
0
210
0
220
0
230
1
0
LINE
5
383
100
AcDbEntity
8
0
62
256
6
ByLayer
370
-2
48
1
60
0
100
AcDbLine
10
0
20
-17.5875
30
0
11
0
21
-68.036103
31
0
39
0
210
0
220
0
230
1
0
LINE
5
384
100
AcDbEntity
8
0
62
256
6
ByLayer
370
-2
48
1
60
0
100
AcDbLine
10
-51.825
20
-64.861103
30
0
11
-4.175
21
-64.861103
31
0
39
0
210
0
220
0
230
1
0
SOLID
5
385
100
AcDbEntity
8
0
62
256
6
ByLayer
370
-1
48
1
60
0
100
AcDbTrace
10
-51.825
20
-64.165269
30
0
11
-51.825
21
-65.556936
31
0
12
-56
22
-64.861103
32
0
13
-56
23
-64.861103
33
0
39
0
210
0
220
0
230
1
0
SOLID
5
386
100
AcDbEntity
8
0
62
256
6
ByLayer
370
-1
48
1
60
0
100
AcDbTrace
10
-4.175
20
-65.556936
30
0
11
-4.175
21
-64.165269
31
0
12
0
22
-64.861103
32
0
13
0
23
-64.861103
33
0
39
0
210
0
220
0
230
1
0
MTEXT
5
387
100
AcDbEntity
8
0
62
256
6
ByLayer
370
18
48
1
60
0
100
AcDbMText
10
-28
20
-55.467353
30
0
210
0
220
0
230
1
1
\A1;56
40
4.5
41
0
44
1
50
0
71
5
72
5
7
iso_b_vert
0
POINT
5
388
100
AcDbEntity
8
Defpoints
62
0
6
ByLayer
370
-1
48
1
60
0
100
AcDbPoint
10
-56
20
-12.5
30
0
39
0
210
0
220
0
230
1
50
360
0
POINT
5
389
100
AcDbEntity
8
Defpoints
62
0
6
ByLayer
370
-1
48
1
60
0
100
AcDbPoint
10
0
20
-16
30
0
39
0
210
0
220
0
230
1
50
360
0
POINT
5
38A
100
AcDbEntity
8
Defpoints
62
0
6
ByLayer
370
-1
48
1
60
0
100
AcDbPoint
10
0
20
-64.861103
30
0
39
0
210
0
220
0
230
1
50
360
0
ENDBLK
5
381
100
AcDbEntity
8
0
100
AcDbBlockEnd
0
BLOCK
5
392
100
AcDbEntity
8
0
100
AcDbBlockBegin
2
_U1
70
0
10
0
20
0
30
0
3
_U1
0
MTEXT
5
38C
100
AcDbEntity
8
SK2
62
256
6
ByLayer
370
18
48
1
60
0
100
AcDbMText
10
-30.449242
20
-63.533431
30
0
210
0
220
0
230
1
1
\W0.6740;56
40
4.5
41
0
44
1.084337
50
0
71
7
72
5
7
iso_b_vert
0
LINE
5
38D
100
AcDbEntity
8
SK2
62
256
6
ByLayer
370
13
48
1
60
0
100
AcDbLine
10
-56
20
-14.0875
30
0
11
-56
21
-68.036103
31
0
39
0
210
0
220
0
230
1
0
LINE
5
38E
100
AcDbEntity
8
SK2
62
256
6
ByLayer
370
13
48
1
60
0
100
AcDbLine
10
0
20
-17.5875
30
0
11
0
21
-68.036103
31
0
39
0
210
0
220
0
230
1
0
LINE
5
38F
100
AcDbEntity
8
SK2
62
256
6
ByLayer
370
13
48
1
60
0
100
AcDbLine
10
-56
20
-64.861103
30
0
11
0
21
-64.861103
31
0
39
0
210
0
220
0
230
1
0
SOLID
5
390
100
AcDbEntity
8
SK2
62
256
6
ByLayer
370
18
48
1
60
0
100
AcDbTrace
10
-56
20
-64.861103
30
0
11
-51.825003
21
-63.935527
31
0
12
-51.824997
22
-65.786678
32
0
13
-51.824997
23
-65.786678
33
0
39
0
210
0
220
0
230
1
0
SOLID
5
391
100
AcDbEntity
8
SK2
62
256
6
ByLayer
370
18
48
1
60
0
100
AcDbTrace
10
0
20
-64.861103
30
0
11
-4.174997
21
-65.786678
31
0
12
-4.175003
22
-63.935527
32
0
13
-4.175003
23
-63.935527
33
0
39
0
210
0
220
0
230
1
0
ENDBLK
5
393
100
AcDbEntity
8
0
100
AcDbBlockEnd
0
BLOCK
5
398
100
AcDbEntity
8
0
100
AcDbBlockBegin
2
*D5
70
1
10
0
20
0
30
0
3
*D5
0
LINE
5
39A
100
AcDbEntity
8
0
62
256
6
ByLayer
370
-2
48
1
60
0
100
AcDbLine
10
141
20
-13.0875
30
0
11
141
21
-58.036103
31
0
39
0
210
0
220
0
230
1
0
LINE
5
39B
100
AcDbEntity
8
0
62
256
6
ByLayer
370
-2
48
1
60
0
100
AcDbLine
10
6.3337
20
-17.5875
30
0
11
6.3337
21
-58.036103
31
0
39
0
210
0
220
0
230
1
0
LINE
5
39C
100
AcDbEntity
8
0
62
256
6
ByLayer
370
-2
48
1
60
0
100
AcDbLine
10
136.825
20
-54.861103
30
0
11
10.5087
21
-54.861103
31
0
39
0
210
0
220
0
230
1
0
SOLID
5
39D
100
AcDbEntity
8
0
62
256
6
ByLayer
370
-1
48
1
60
0
100
AcDbTrace
10
136.825
20
-55.556936
30
0
11
136.825
21
-54.165269
31
0
12
141
22
-54.861103
32
0
13
141
23
-54.861103
33
0
39
0
210
0
220
0
230
1
0
SOLID
5
39E
100
AcDbEntity
8
0
62
256
6
ByLayer
370
-1
48
1
60
0
100
AcDbTrace
10
10.5087
20
-54.165269
30
0
11
10.5087
21
-55.556936
31
0
12
6.3337
22
-54.861103
32
0
13
6.3337
23
-54.861103
33
0
39
0
210
0
220
0
230
1
0
MTEXT
5
39F
100
AcDbEntity
8
0
62
256
6
ByLayer
370
18
48
1
60
0
100
AcDbMText
10
73.66685
20
-45.467353
30
0
210
0
220
0
230
1
1
\A1;134.7
40
4.5
41
0
44
1
50
0
71
5
72
5
7
iso_b_vert
0
POINT
5
3A0
100
AcDbEntity
8
Defpoints
62
0
6
ByLayer
370
-1
48
1
60
0
100
AcDbPoint
10
141
20
-11.5
30
0
39
0
210
0
220
0
230
1
50
360
0
POINT
5
3A1
100
AcDbEntity
8
Defpoints
62
0
6
ByLayer
370
-1
48
1
60
0
100
AcDbPoint
10
6.3337
20
-16
30
0
39
0
210
0
220
0
230
1
50
360
0
POINT
5
3A2
100
AcDbEntity
8
Defpoints
62
0
6
ByLayer
370
-1
48
1
60
0
100
AcDbPoint
10
6.3337
20
-54.861103
30
0
39
0
210
0
220
0
230
1
50
360
0
ENDBLK
5
399
100
AcDbEntity
8
0
100
AcDbBlockEnd
0
BLOCK
5
3AA
100
AcDbEntity
8
0
100
AcDbBlockBegin
2
_U2
70
0
10
0
20
0
30
0
3
_U2
0
MTEXT
5
3A4
100
AcDbEntity
8
SK2
62
256
6
ByLayer
370
18
48
1
60
0
100
AcDbMText
10
67.268794
20
-53.533431
30
0
210
0
220
0
230
1
1
\W0.7091;134.7
40
4.5
41
0
44
1.084337
50
0
71
7
72
5
7
iso_b_vert
0
LINE
5
3A5
100
AcDbEntity
8
SK2
62
256
6
ByLayer
370
13
48
1
60
0
100
AcDbLine
10
141
20
-13.0875
30
0
11
141
21
-58.036103
31
0
39
0
210
0
220
0
230
1
0
LINE
5
3A6
100
AcDbEntity
8
SK2
62
256
6
ByLayer
370
13
48
1
60
0
100
AcDbLine
10
6.3337
20
-17.5875
30
0
11
6.3337
21
-58.036103
31
0
39
0
210
0
220
0
230
1
0
LINE
5
3A7
100
AcDbEntity
8
SK2
62
256
6
ByLayer
370
13
48
1
60
0
100
AcDbLine
10
141
20
-54.861103
30
0
11
6.3337
21
-54.861103
31
0
39
0
210
0
220
0
230
1
0
SOLID
5
3A8
100
AcDbEntity
8
SK2
62
256
6
ByLayer
370
18
48
1
60
0
100
AcDbTrace
10
141
20
-54.861103
30
0
11
136.825003
21
-55.786678
31
0
12
136.824997
22
-53.935527
32
0
13
136.824997
23
-53.935527
33
0
39
0
210
0
220
0
230
1
0
SOLID
5
3A9
100
AcDbEntity
8
SK2
62
256
6
ByLayer
370
18
48
1
60
0
100
AcDbTrace
10
6.3337
20
-54.861103
30
0
11
10.508697
21
-53.935527
31
0
12
10.508703
22
-55.786678
32
0
13
10.508703
23
-55.786678
33
0
39
0
210
0
220
0
230
1
0
ENDBLK
5
3AB
100
AcDbEntity
8
0
100
AcDbBlockEnd
0
BLOCK
5
3B0
100
AcDbEntity
8
0
100
AcDbBlockBegin
2
*D7
70
1
10
0
20
0
30
0
3
*D7
0
LINE
5
3B2
100
AcDbEntity
8
0
62
256
6
ByLayer
370
-2
48
1
60
0
100
AcDbLine
10
22
20
-13.0875
30
0
11
22
21
-48.036103
31
0
39
0
210
0
220
0
230
1
0
LINE
5
3B3
100
AcDbEntity
8
0
62
256
6
ByLayer
370
-2
48
1
60
0
100
AcDbLine
10
141
20
-13.0875
30
0
11
141
21
-48.036103
31
0
39
0
210
0
220
0
230
1
0
LINE
5
3B4
100
AcDbEntity
8
0
62
256
6
ByLayer
370
-2
48
1
60
0
100
AcDbLine
10
26.175
20
-44.861103
30
0
11
136.825
21
-44.861103
31
0
39
0
210
0
220
0
230
1
0
SOLID
5
3B5
100
AcDbEntity
8
0
62
256
6
ByLayer
370
-1
48
1
60
0
100
AcDbTrace
10
26.175
20
-44.165269
30
0
11
26.175
21
-45.556936
31
0
12
22
22
-44.861103
32
0
13
22
23
-44.861103
33
0
39
0
210
0
220
0
230
1
0
SOLID
5
3B6
100
AcDbEntity
8
0
62
256
6
ByLayer
370
-1
48
1
60
0
100
AcDbTrace
10
136.825
20
-45.556936
30
0
11
136.825
21
-44.165269
31
0
12
141
22
-44.861103
32
0
13
141
23
-44.861103
33
0
39
0
210
0
220
0
230
1
0
MTEXT
5
3B7
100
AcDbEntity
8
0
62
256
6
ByLayer
370
18
48
1
60
0
100
AcDbMText
10
81.5
20
-35.467353
30
0
210
0
220
0
230
1
1
\A1;119
40
4.5
41
0
44
1
50
0
71
5
72
5
7
iso_b_vert
0
POINT
5
3B8
100
AcDbEntity
8
Defpoints
62
0
6
ByLayer
370
-1
48
1
60
0
100
AcDbPoint
10
22
20
-11.5
30
0
39
0
210
0
220
0
230
1
50
360
0
POINT
5
3B9
100
AcDbEntity
8
Defpoints
62
0
6
ByLayer
370
-1
48
1
60
0
100
AcDbPoint
10
141
20
-11.5
30
0
39
0
210
0
220
0
230
1
50
360
0
POINT
5
3BA
100
AcDbEntity
8
Defpoints
62
0
6
ByLayer
370
-1
48
1
60
0
100
AcDbPoint
10
141
20
-44.861103
30
0
39
0
210
0
220
0
230
1
50
360
0
ENDBLK
5
3B1
100
AcDbEntity
8
0
100
AcDbBlockEnd
0
BLOCK
5
3C2
100
AcDbEntity
8
0
100
AcDbBlockBegin
2
_U3
70
0
10
0
20
0
30
0
3
_U3
0
MTEXT
5
3BC
100
AcDbEntity
8
SK2
62
256
6
ByLayer
370
18
48
1
60
0
100
AcDbMText
10
78.494215
20
-43.533431
30
0
210
0
220
0
230
1
1
\W0.5391;119
40
4.5
41
0
44
1.084337
50
0
71
7
72
5
7
iso_b_vert
0
LINE
5
3BD
100
AcDbEntity
8
SK2
62
256
6
ByLayer
370
13
48
1
60
0
100
AcDbLine
10
22
20
-13.0875
30
0
11
22
21
-48.036103
31
0
39
0
210
0
220
0
230
1
0
LINE
5
3BE
100
AcDbEntity
8
SK2
62
256
6
ByLayer
370
13
48
1
60
0
100
AcDbLine
10
141
20
-13.0875
30
0
11
141
21
-48.036103
31
0
39
0
210
0
220
0
230
1
0
LINE
5
3BF
100
AcDbEntity
8
SK2
62
256
6
ByLayer
370
13
48
1
60
0
100
AcDbLine
10
22
20
-44.861103
30
0
11
141
21
-44.861103
31
0
39
0
210
0
220
0
230
1
0
SOLID
5
3C0
100
AcDbEntity
8
SK2
62
256
6
ByLayer
370
18
48
1
60
0
100
AcDbTrace
10
22
20
-44.861103
30
0
11
26.174997
21
-43.935527
31
0
12
26.175003
22
-45.786678
32
0
13
26.175003
23
-45.786678
33
0
39
0
210
0
220
0
230
1
0
SOLID
5
3C1
100
AcDbEntity
8
SK2
62
256
6
ByLayer
370
18
48
1
60
0
100
AcDbTrace
10
141
20
-44.861103
30
0
11
136.825003
21
-45.786678
31
0
12
136.824997
22
-43.935527
32
0
13
136.824997
23
-43.935527
33
0
39
0
210
0
220
0
230
1
0
ENDBLK
5
3C3
100
AcDbEntity
8
0
100
AcDbBlockEnd
0
BLOCK
5
3C8
100
AcDbEntity
8
0
100
AcDbBlockBegin
2
*D9
70
1
10
0
20
0
30
0
3
*D9
0
LINE
5
3CA
100
AcDbEntity
8
0
62
256
6
ByLayer
370
-2
48
1
60
0
100
AcDbLine
10
140.335
20
-7.3375
30
0
11
140.335
21
-38.036103
31
0
39
0
210
0
220
0
230
1
0
LINE
5
3CB
100
AcDbEntity
8
0
62
256
6
ByLayer
370
-2
48
1
60
0
100
AcDbLine
10
141
20
-1.5875
30
0
11
141
21
-38.036103
31
0
39
0
210
0
220
0
230
1
0
LINE
5
3CC
100
AcDbEntity
8
0
62
256
6
ByLayer
370
-2
48
1
60
0
100
AcDbLine
10
141
20
-34.861103
30
0
11
177.351786
21
-34.861103
31
0
39
0
210
0
220
0
230
1
0
LINE
5
3CD
100
AcDbEntity
8
0
62
256
6
ByLayer
370
-2
48
1
60
0
100
AcDbLine
10
136.16
20
-34.861103
30
0
11
131.985
21
-34.861103
31
0
39
0
210
0
220
0
230
1
0
LINE
5
3CE
100
AcDbEntity
8
0
62
256
6
ByLayer
370
-2
48
1
60
0
100
AcDbLine
10
145.175
20
-34.861103
30
0
11
149.35
21
-34.861103
31
0
39
0
210
0
220
0
230
1
0
SOLID
5
3CF
100
AcDbEntity
8
0
62
256
6
ByLayer
370
-1
48
1
60
0
100
AcDbTrace
10
136.16
20
-35.556936
30
0
11
136.16
21
-34.165269
31
0
12
140.335
22
-34.861103
32
0
13
140.335
23
-34.861103
33
0
39
0
210
0
220
0
230
1
0
SOLID
5
3D0
100
AcDbEntity
8
0
62
256
6
ByLayer
370
-1
48
1
60
0
100
AcDbTrace
10
145.175
20
-34.165269
30
0
11
145.175
21
-35.556936
31
0
12
141
22
-34.861103
32
0
13
141
23
-34.861103
33
0
39
0
210
0
220
0
230
1
0
MTEXT
5
3D1
100
AcDbEntity
8
0
62
256
6
ByLayer
370
18
48
1
60
0
100
AcDbMText
10
163.350893
20
-25.467353
30
0
210
0
220
0
230
1
1
\A1;0.67
40
4.5
41
0
44
1
50
0
71
5
72
5
7
iso_b_vert
0
POINT
5
3D2
100
AcDbEntity
8
Defpoints
62
0
6
ByLayer
370
-1
48
1
60
0
100
AcDbPoint
10
140.335
20
-5.75
30
0
39
0
210
0
220
0
230
1
50
360
0
POINT
5
3D3
100
AcDbEntity
8
Defpoints
62
0
6
ByLayer
370
-1
48
1
60
0
100
AcDbPoint
10
141
20
0
30
0
39
0
210
0
220
0
230
1
50
360
0
POINT
5
3D4
100
AcDbEntity
8
Defpoints
62
0
6
ByLayer
370
-1
48
1
60
0
100
AcDbPoint
10
141
20
-34.861103
30
0
39
0
210
0
220
0
230
1
50
360
0
ENDBLK
5
3C9
100
AcDbEntity
8
0
100
AcDbBlockEnd
0
BLOCK
5
3DC
100
AcDbEntity
8
0
100
AcDbBlockBegin
2
_U4
70
0
10
0
20
0
30
0
3
_U4
0
MTEXT
5
3D6
100
AcDbEntity
8
2
62
256
6
ByLayer
370
18
48
1
60
0
100
AcDbMText
10
153.351
20
-33.533431
30
0
210
0
220
0
230
1
1
\W0.7346;0.66
40
4.5
41
0
44
1.084337
50
0
71
7
72
5
7
iso_b_vert
0
LINE
5
3D7
100
AcDbEntity
8
2
62
256
6
ByLayer
370
13
48
1
60
0
100
AcDbLine
10
140.335
20
-7.3375
30
0
11
140.335
21
-38.036103
31
0
39
0
210
0
220
0
230
1
0
LINE
5
3D8
100
AcDbEntity
8
2
62
256
6
ByLayer
370
13
48
1
60
0
100
AcDbLine
10
141
20
-1.5875
30
0
11
141
21
-38.036103
31
0
39
0
210
0
220
0
230
1
0
LINE
5
3D9
100
AcDbEntity
8
2
62
256
6
ByLayer
370
13
48
1
60
0
100
AcDbLine
10
163.673869
20
-34.861103
30
0
11
129.085
21
-34.861103
31
0
39
0
210
0
220
0
230
1
0
SOLID
5
3DA
100
AcDbEntity
8
2
62
256
6
ByLayer
370
18
48
1
60
0
100
AcDbTrace
10
140.335
20
-34.861103
30
0
11
136.160003
21
-35.786678
31
0
12
136.159997
22
-33.935527
32
0
13
136.159997
23
-33.935527
33
0
39
0
210
0
220
0
230
1
0
SOLID
5
3DB
100
AcDbEntity
8
2
62
256
6
ByLayer
370
18
48
1
60
0
100
AcDbTrace
10
141
20
-34.861103
30
0
11
145.174997
21
-33.935527
31
0
12
145.175003
22
-35.786678
32
0
13
145.175003
23
-35.786678
33
0
39
0
210
0
220
0
230
1
0
ENDBLK
5
3DD
100
AcDbEntity
8
0
100
AcDbBlockEnd
0
ENDSEC
0
SECTION
2
ENTITIES
0
ARC
5
18B
100
AcDbEntity
8
SK1
62
256
6
ByLayer
370
13
48
1
60
0
100
AcDbCircle
39
0
10
-53.894505
20
-12.8967
30
0
40
0.800000000000004
210
0
220
0
230
1
100
AcDbArc
50
70.982
51
141
0
ARC
5
18C
100
AcDbEntity
8
SK1
62
256
6
ByLayer
370
13
48
1
60
0
100
AcDbCircle
39
0
10
-53.894505
20
12.8967
30
0
40
0.800000000000004
210
0
220
0
230
1
100
AcDbArc
50
219
51
289.018
0
ARC
5
18D
100
AcDbEntity
8
SK1
62
256
6
ByLayer
370
13
48
1
60
0
100
AcDbCircle
39
0
10
-0.15
20
12.64675
30
0
40
0.400000000000002
210
0
220
0
230
1
100
AcDbArc
50
270
51
292.024313
0
ARC
5
18E
100
AcDbEntity
8
SK1
62
256
6
ByLayer
370
13
48
1
60
0
100
AcDbCircle
39
0
10
-0.15
20
-12.64675
30
0
40
0.400000000000002
210
0
220
0
230
1
100
AcDbArc
50
67.975687
51
90
0
ARC
5
18F
100
AcDbEntity
8
SK1
62
256
6
ByLayer
370
13
48
1
60
0
100
AcDbCircle
39
0
10
-1.375195
20
12.64675
30
0
40
0.400000000000001
210
0
220
0
230
1
100
AcDbArc
50
245
51
270
0
ARC
5
190
100
AcDbEntity
8
SK1
62
256
6
ByLayer
370
13
48
1
60
0
100
AcDbCircle
39
0
10
-1.375195
20
-12.64675
30
0
40
0.400000000000001
210
0
220
0
230
1
100
AcDbArc
50
90
51
115
0
ARC
5
191
100
AcDbEntity
8
1
62
256
6
ByLayer
370
13
48
1
60
0
100
AcDbCircle
39
0
10
138.782471
20
10.668964
30
0
40
0.075
210
0
220
0
230
1
100
AcDbArc
50
8.974534
51
93
0
ARC
5
192
100
AcDbEntity
8
1
62
256
6
ByLayer
370
13
48
1
60
0
100
AcDbCircle
39
0
10
138.84032
20
4.284178
30
0
40
0.075
210
0
220
0
230
1
100
AcDbArc
50
273
51
352.543899
0
ARC
5
193
100
AcDbEntity
8
1
62
256
6
ByLayer
370
13
48
1
60
0
100
AcDbCircle
39
0
10
131.832227
20
10.16839
30
0
40
0.075
210
0
220
0
230
1
100
AcDbArc
50
72.361587
51
93
0
ARC
5
194
100
AcDbEntity
8
1
62
256
6
ByLayer
370
13
48
1
60
0
100
AcDbCircle
39
0
10
131.890075
20
3.783603
30
0
40
0.075
210
0
220
0
230
1
100
AcDbArc
50
273
51
304.780012
0
ELLIPSE
5
195
100
AcDbEntity
8
1
62
256
6
ByLayer
370
13
48
1
60
0
100
AcDbEllipse
10
139.43002
20
11.198508
30
0
11
0.0179426826978096
21
-0.342366781102831
31
0
210
0
220
0
230
1
40
0.995725
41
-2.79042709611143
42
-2.08847636015673
0
ELLIPSE
5
196
100
AcDbEntity
8
1
62
256
6
ByLayer
370
13
48
1
60
0
100
AcDbEllipse
10
140.288059
20
4.445478
30
0
11
0.00785039343640984
21
-0.149794430213186
31
0
210
0
220
0
230
1
40
0.995725
41
0.0959931088599074
42
1.38753675533567
0
ELLIPSE
5
197
100
AcDbEntity
8
1
62
256
6
ByLayer
370
13
48
1
60
0
100
AcDbEllipse
10
131.186517
20
6.996247
30
0
11
-0.148731686424787
21
0.0194649801756586
31
0
210
0
220
0
230
1
40
0.016833
41
1.47983423648432
42
3.05063056327605
0
ELLIPSE
5
198
100
AcDbEntity
8
1
62
256
6
ByLayer
370
13
48
1
60
0
100
AcDbEllipse
10
131.604605
20
10.190847
30
0
11
-0.0435852065167019
21
-0.158111345863735
31
0
210
0
220
0
230
1
40
0.080185
41
-3.11490714533327
42
-1.54411081853732
0
ELLIPSE
5
199
100
AcDbEntity
8
1
62
256
6
ByLayer
370
13
48
1
60
0
100
AcDbEllipse
10
131.28065
20
3.23483
30
0
11
0.0104671912485466
21
-0.199725906950918
31
0
210
0
220
0
230
1
40
0.995725
41
-0.008726646259982
42
1.0531162934323
0
ELLIPSE
5
19A
100
AcDbEntity
8
1
62
256
6
ByLayer
370
13
48
1
60
0
100
AcDbEllipse
10
131.727699
20
3.665234
30
0
11
0.00523359562427342
21
-0.099862953475461
31
0
210
0
220
0
230
1
40
0.995725
41
0.676440752305604
42
1.67551608191476
0
ELLIPSE
5
19B
100
AcDbEntity
8
1
62
256
6
ByLayer
370
13
48
1
60
0
100
AcDbEllipse
10
131.083388
20
4.927679
30
0
11
-0.0915879234251505
21
1.74760168582051
31
0
210
0
220
0
230
1
40
0.995725
41
3.10590021439793
42
3.13286600732979
0
ELLIPSE
5
19C
100
AcDbEntity
8
1
62
256
6
ByLayer
370
13
48
1
60
0
100
AcDbEllipse
10
138.623808
20
7.566245
30
0
11
0.0444855628063222
21
-0.848835104541398
31
0
210
0
220
0
230
1
40
0.995725
41
1.38753675533551
42
1.67551608191454
0
ELLIPSE
5
19D
100
AcDbEntity
8
1
62
256
6
ByLayer
370
13
48
1
60
0
100
AcDbEllipse
10
139.683831
20
2.524708
30
0
11
0.465790010560323
21
-8.88780285931581
31
0
210
0
220
0
230
1
40
0.995725
41
3.07256533766189
42
3.10590021439804
0
ELLIPSE
5
19E
100
AcDbEntity
8
1
62
256
6
ByLayer
370
13
48
1
60
0
100
AcDbEllipse
10
132.011841
20
6.884388
30
0
11
0.0444855628063222
21
-0.848835104541398
31
0
210
0
220
0
230
1
40
0.995725
41
-1.75405589825428
42
-1.46607657167522
0
ELLIPSE
5
19F
100
AcDbEntity
8
1
62
256
6
ByLayer
370
13
48
1
60
0
100
AcDbEllipse
10
131.732311
20
3.665476
30
0
11
0.00523359562427342
21
-0.099862953475461
31
0
210
0
220
0
230
1
40
0.995725
41
0.676440752305134
42
1.67551608191447
0
ELLIPSE
5
1A0
100
AcDbEntity
8
1
62
256
6
ByLayer
370
13
48
1
60
0
100
AcDbEllipse
10
131.320536
20
3.212143
30
0
11
-0.134175336907994
21
0.0670595180837617
31
0
210
0
220
0
230
1
40
0.045711
41
1.49035839035119
42
3.06115471714428
0
ELLIPSE
5
1A1
100
AcDbEntity
8
1
62
256
6
ByLayer
370
13
48
1
60
0
100
AcDbEllipse
10
132.03029
20
6.885355
30
0
11
0.036635169369913
21
-0.69904067432821
31
0
210
0
220
0
230
1
40
0.995725
41
-1.75405589825427
42
-1.46607657167524
0
ELLIPSE
5
1A2
100
AcDbEntity
8
1
62
256
6
ByLayer
370
13
48
1
60
0
100
AcDbEllipse
10
140.334109
20
7.588346
30
0
11
-0.0183175846850293
21
0.349520337164084
31
0
210
0
220
0
230
1
40
0.995725
41
-1.75405589825432
42
-1.46607657167523
0
ELLIPSE
5
1A3
100
AcDbEntity
8
1
62
256
6
ByLayer
370
13
48
1
60
0
100
AcDbEllipse
10
139.827088
20
11.273358
30
0
11
0.00254430870314632
21
0.149978420091769
31
0
210
0
220
0
230
1
40
0.092151
41
0.00639829921356568
42
1.5771946260066
0
ELLIPSE
5
1A4
100
AcDbEntity
8
1
62
256
6
ByLayer
370
13
48
1
60
0
100
AcDbEllipse
10
130.319988
20
6.863254
30
0
11
0.0261679781213656
21
-0.499314767377276
31
0
210
0
220
0
230
1
40
0.995725
41
-1.75405589825455
42
-1.46607657167543
0
ELLIPSE
5
1A5
100
AcDbEntity
8
1
62
256
6
ByLayer
370
13
48
1
60
0
100
AcDbEllipse
10
140.288059
20
4.445478
30
0
11
-0.0222321776354173
21
0.148343285246037
31
0
210
0
220
0
230
1
40
0.091945
41
1.56190521945469
42
3.13270154624834
0
ELLIPSE
5
1A6
100
AcDbEntity
8
1
62
256
6
ByLayer
370
13
48
1
60
0
100
AcDbEllipse
10
139.82597
20
10.923653
30
0
11
0.0261679781213671
21
-0.499314767377305
31
0
210
0
220
0
230
1
40
0.995725
41
1.67551608191481
42
3.07256533766222
0
ELLIPSE
5
1A7
100
AcDbEntity
8
1
62
256
6
ByLayer
370
13
48
1
60
0
100
AcDbEllipse
10
131.832227
20
10.16839
30
0
11
-0.0227256651741162
21
-0.0714740802136968
31
0
210
0
220
0
230
1
40
0.086488
41
1.6033598620887
42
-3.10902911829708
0
ELLIPSE
5
1A8
100
AcDbEntity
8
1
62
256
6
ByLayer
370
13
48
1
60
0
100
AcDbEllipse
10
131.41326
20
6.967071
30
0
11
-0.0743658432123936
21
0.00973249008782931
31
0
210
0
220
0
230
1
40
0.016833
41
-1.66175841710551
42
-0.0909620903112957
0
ELLIPSE
5
1A9
100
AcDbEntity
8
1
62
256
6
ByLayer
370
13
48
1
60
0
100
AcDbEllipse
10
140.292672
20
4.44572
30
0
11
0.00785039343640984
21
-0.149794430213186
31
0
210
0
220
0
230
1
40
0.995725
41
0.0959931088600968
42
1.38753675533586
0
ELLIPSE
5
1AA
100
AcDbEntity
8
1
62
256
6
ByLayer
370
13
48
1
60
0
100
AcDbEllipse
10
139.688443
20
2.52495
30
0
11
0.465790010560323
21
-8.88780285931581
31
0
210
0
220
0
230
1
40
0.995725
41
3.07256533766211
42
3.10590021439825
0
ELLIPSE
5
1AB
100
AcDbEntity
8
1
62
256
6
ByLayer
370
13
48
1
60
0
100
AcDbEllipse
10
140.692151
20
7.643746
30
0
11
0.148163665863161
21
0.0233993187505453
31
0
210
0
220
0
230
1
40
0.009655
41
0.0919985744748214
42
1.66279490126889
0
ELLIPSE
5
1AC
100
AcDbEntity
8
1
62
256
6
ByLayer
370
13
48
1
60
0
100
AcDbEllipse
10
130.828128
20
3.527947
30
0
11
-0.0183175846850307
21
0.349520337164113
31
0
210
0
220
0
230
1
40
0.995725
41
1.67551608191463
42
3.0725653376621
0
ELLIPSE
5
1AD
100
AcDbEntity
8
1
62
256
6
ByLayer
370
13
48
1
60
0
100
AcDbEllipse
10
139.669994
20
2.523983
30
0
11
-0.457939617125751
21
8.73800842910252
31
0
210
0
220
0
230
1
40
0.995725
41
-0.0690273159279049
42
-0.0356924391917563
0
ELLIPSE
5
1AE
100
AcDbEntity
8
1
62
256
6
ByLayer
370
13
48
1
60
0
100
AcDbEllipse
10
139.391897
20
11.217737
30
0
11
0.0104671912485466
21
-0.199725906950918
31
0
210
0
220
0
230
1
40
0.995725
41
3.13286600733009
42
-2.088476360157
0
ELLIPSE
5
1AF
100
AcDbEntity
8
1
62
256
6
ByLayer
370
13
48
1
60
0
100
AcDbEllipse
10
135.343192
20
7.226646
30
0
11
0.100225027559219
21
-1.91240745039655
31
0
210
0
220
0
230
1
40
0.995725
41
0
42
6.28318530717959
0
ELLIPSE
5
1B0
100
AcDbEntity
8
1
62
256
6
ByLayer
370
13
48
1
60
0
100
AcDbEllipse
10
131.189751
20
6.752333
30
0
11
-0.148163665863161
21
-0.0233993187505433
31
0
210
0
220
0
230
1
40
0.009655
41
-3.04959407911621
42
-1.47879775232128
0
ELLIPSE
5
1B1
100
AcDbEntity
8
1
62
256
6
ByLayer
370
13
48
1
60
0
100
AcDbEllipse
10
130.379875
20
10.006847
30
0
11
0.00785039343640984
21
-0.149794430213186
31
0
210
0
220
0
230
1
40
0.995725
41
-3.04559954473009
42
-1.75405589825432
0
ELLIPSE
5
1B2
100
AcDbEntity
8
1
62
256
6
ByLayer
370
13
48
1
60
0
100
AcDbEllipse
10
140.693482
20
7.54331
30
0
11
0.148731686424787
21
-0.0194649801756591
31
0
210
0
220
0
230
1
40
0.016833
41
-1.66175841710548
42
-0.0909620903123466
0
ELLIPSE
5
1B3
100
AcDbEntity
8
1
62
256
6
ByLayer
370
13
48
1
60
0
100
AcDbEllipse
10
140.347946
20
7.589071
30
0
11
0.0261679781213656
21
-0.499314767377276
31
0
210
0
220
0
230
1
40
0.995725
41
1.38753675533547
42
1.67551608191459
0
ELLIPSE
5
1B4
100
AcDbEntity
8
1
62
256
6
ByLayer
370
13
48
1
60
0
100
AcDbEllipse
10
130.984103
20
11.927617
30
0
11
0.465790010560323
21
-8.88780285931581
31
0
210
0
220
0
230
1
40
0.995725
41
-0.0690273159281118
42
-0.0356924391919677
0
ELLIPSE
5
1B5
100
AcDbEntity
8
1
62
256
6
ByLayer
370
13
48
1
60
0
100
AcDbEllipse
10
131.173623
20
3.180073
30
0
11
0.00653729335064122
21
-0.149857478277354
31
0
210
0
220
0
230
1
40
0.092367
41
-1.56998679074977
42
0.000809536045688095
0
ELLIPSE
5
1B6
100
AcDbEntity
8
1
62
256
6
ByLayer
370
13
48
1
60
0
100
AcDbEllipse
10
131.890075
20
3.783603
30
0
11
0.0740818329315804
21
0.0116996593752727
31
0
210
0
220
0
230
1
40
0.009655
41
-3.04959407911434
42
-1.47879775232072
0
ELLIPSE
5
1B7
100
AcDbEntity
8
1
62
256
6
ByLayer
370
13
48
1
60
0
100
AcDbEllipse
10
138.362012
20
2.763522
30
0
11
-0.07327033874012
21
1.3980813486564
31
0
210
0
220
0
230
1
40
0.995725
41
-0.538500757696236
42
2.2459076333059E-13
0
ELLIPSE
5
1B8
100
AcDbEntity
8
1
62
256
6
ByLayer
370
13
48
1
60
0
100
AcDbEllipse
10
131.604605
20
10.190847
30
0
11
-0.157303252969529
21
-0.0460731444125834
31
0
210
0
220
0
230
1
40
0.019548
41
-3.05924451050706
42
-1.48844818357509
0
ELLIPSE
5
1B9
100
AcDbEntity
8
1
62
256
6
ByLayer
370
13
48
1
60
0
100
AcDbEllipse
10
135.178219
20
10.242145
30
0
11
0.00392519671820497
21
-0.0748972151065939
31
0
210
0
220
0
230
1
40
0.092371
41
1.5707963267949
42
-3.14159265358569
0
ELLIPSE
5
1BA
100
AcDbEntity
8
1
62
256
6
ByLayer
370
13
48
1
60
0
100
AcDbEllipse
10
139.566098
20
9.52368
30
0
11
0.0994383168611923
21
-1.89739611603371
31
0
210
0
220
0
230
1
40
0.995725
41
3.10590021439794
42
3.13286600732982
0
ELLIPSE
5
1BB
100
AcDbEntity
8
1
62
256
6
ByLayer
370
13
48
1
60
0
100
AcDbEllipse
10
137.71983
20
11.972534
30
0
11
0.0732703387398261
21
-1.39808134865642
31
0
210
0
220
0
230
1
40
0.995725
41
1.0050254644621
42
1.00572917046054
0
ELLIPSE
5
1BC
100
AcDbEntity
8
1
62
256
6
ByLayer
370
13
48
1
60
0
100
AcDbEllipse
10
131.101837
20
4.928646
30
0
11
0.0994383168611923
21
-1.89739611603371
31
0
210
0
220
0
230
1
40
0.995725
41
-0.0356924391920776
42
-0.00872664626020191
0
ELLIPSE
5
1BD
100
AcDbEntity
8
1
62
256
6
ByLayer
370
13
48
1
60
0
100
AcDbEllipse
10
132.037208
20
6.885717
30
0
11
-0.0327099726518394
21
0.624143459221609
31
0
210
0
220
0
230
1
40
0.995725
41
1.38753675533553
42
1.67551608191456
0
ELLIPSE
5
1BE
100
AcDbEntity
8
1
62
256
6
ByLayer
370
13
48
1
60
0
100
AcDbEllipse
10
138.940235
20
10.787091
30
0
11
0.00523359562427342
21
-0.099862953475461
31
0
210
0
220
0
230
1
40
0.995725
41
-2.46515190128421
42
-1.46607657167504
0
ELLIPSE
5
1BF
100
AcDbEntity
8
1
62
256
6
ByLayer
370
13
48
1
60
0
100
AcDbEllipse
10
140.352558
20
7.589313
30
0
11
0.0261679781213656
21
-0.499314767377276
31
0
210
0
220
0
230
1
40
0.995725
41
1.3875367553357
42
1.67551608191476
0
ELLIPSE
5
1C0
100
AcDbEntity
8
1
62
256
6
ByLayer
370
13
48
1
60
0
100
AcDbEllipse
10
139.536665
20
11.273423
30
0
11
-0.00247703513348015
21
0.149979546261974
31
0
210
0
220
0
230
1
40
0.092312
41
0.00331037239983202
42
1.5741066991944
0
ELLIPSE
5
1C1
100
AcDbEntity
8
1
62
256
6
ByLayer
370
13
48
1
60
0
100
AcDbEllipse
10
131.947819
20
11.670036
30
0
11
-1.3587925142314
21
0.956161859127141
31
0
210
0
220
0
230
1
40
0.728886
41
1.38754242661785
42
1.85477083935291
0
ELLIPSE
5
1C2
100
AcDbEntity
8
1
62
256
6
ByLayer
370
13
48
1
60
0
100
AcDbEllipse
10
130.30154
20
6.862287
30
0
11
-0.0183175846850293
21
0.349520337164084
31
0
210
0
220
0
230
1
40
0.995725
41
1.38753675533547
42
1.67551608191456
0
ELLIPSE
5
1C3
100
AcDbEntity
8
1
62
256
6
ByLayer
370
13
48
1
60
0
100
AcDbEllipse
10
132.788983
20
2.471452
30
0
11
-0.0785039343644144
21
1.49794430213186
31
0
210
0
220
0
230
1
40
0.995725
41
0.676440752305306
42
1.05311629343257
0
ELLIPSE
5
1C4
100
AcDbEntity
8
1
62
256
6
ByLayer
370
13
48
1
60
0
100
AcDbEllipse
10
139.385102
20
11.267448
30
0
11
-0.00653729335064158
21
0.149857478277354
31
0
210
0
220
0
230
1
40
0.092367
41
0.000809536045656042
42
1.57160586284002
0
ELLIPSE
5
1C5
100
AcDbEntity
8
1
62
256
6
ByLayer
370
13
48
1
60
0
100
AcDbEllipse
10
131.262201
20
3.233863
30
0
11
-0.0026167978121472
21
0.0499314767377297
31
0
210
0
220
0
230
1
40
0.995725
41
3.13286600732824
42
-2.08847636015732
0
ELLIPSE
5
1C6
100
AcDbEntity
8
1
62
256
6
ByLayer
370
13
48
1
60
0
100
AcDbEllipse
10
137.878951
20
11.980873
30
0
11
-0.07327033874012
21
1.3980813486564
31
0
210
0
220
0
230
1
40
0.995725
41
-3.14159265358963
42
-2.088476360157
0
ELLIPSE
5
1C7
100
AcDbEntity
8
1
62
256
6
ByLayer
370
13
48
1
60
0
100
AcDbEllipse
10
132.793595
20
2.471694
30
0
11
-0.0785039343644144
21
1.49794430213186
31
0
210
0
220
0
230
1
40
0.995725
41
0.676440752305095
42
1.05311629343236
0
ELLIPSE
5
1C8
100
AcDbEntity
8
1
62
256
6
ByLayer
370
13
48
1
60
0
100
AcDbEllipse
10
137.860502
20
11.979906
30
0
11
0.0863543278005089
21
-1.64773873234506
31
0
210
0
220
0
230
1
40
0.995725
41
0.693066877088681
42
1.05311629343256
0
ELLIPSE
5
1C9
100
AcDbEntity
8
1
62
256
6
ByLayer
370
13
48
1
60
0
100
AcDbEllipse
10
137.999296
20
2.744513
30
0
11
-1.11484466959653
21
-1.17454029837393
31
0
210
0
220
0
230
1
40
0.721129
41
2.78578457526431
42
-3.03017231911372
0
ELLIPSE
5
1CA
100
AcDbEntity
8
1
62
256
6
ByLayer
370
13
48
1
60
0
100
AcDbEllipse
10
137.560709
20
11.964195
30
0
11
0.0732703387398261
21
-1.39808134865642
31
0
210
0
220
0
230
1
40
0.995725
41
0
42
0.538500757696656
0
ELLIPSE
5
1CB
100
AcDbEntity
8
1
62
256
6
ByLayer
370
13
48
1
60
0
100
AcDbEllipse
10
138.782471
20
10.668964
30
0
11
-0.0427820306099532
21
0.0616011189580922
31
0
210
0
220
0
230
1
40
0.078615
41
-1.61946336257571
42
-0.0486670357789543
0
ELLIPSE
5
1CC
100
AcDbEntity
8
1
62
256
6
ByLayer
370
13
48
1
60
0
100
AcDbEllipse
10
130.846577
20
3.528914
30
0
11
0.0261679781213671
21
-0.499314767377305
31
0
210
0
220
0
230
1
40
0.995725
41
-1.46607657167538
42
-0.0690273159279204
0
ELLIPSE
5
1CD
100
AcDbEntity
8
1
62
256
6
ByLayer
370
13
48
1
60
0
100
AcDbEllipse
10
131.242527
20
3.254059
30
0
11
0.0179426826978096
21
-0.342366781102831
31
0
210
0
220
0
230
1
40
0.995725
41
0.35116555747803
42
1.05311629343268
0
ELLIPSE
5
1CE
100
AcDbEntity
8
1
62
256
6
ByLayer
370
13
48
1
60
0
100
AcDbEllipse
10
130.965655
20
11.926651
30
0
11
-0.457939617125751
21
8.73800842910252
31
0
210
0
220
0
230
1
40
0.995725
41
3.07256533766189
42
3.10590021439804
0
ELLIPSE
5
1CF
100
AcDbEntity
8
1
62
256
6
ByLayer
370
13
48
1
60
0
100
AcDbEllipse
10
132.775147
20
2.470727
30
0
11
0.0863543278005089
21
-1.64773873234506
31
0
210
0
220
0
230
1
40
0.995725
41
-2.44852577650114
42
-2.08847636015723
0
ELLIPSE
5
1D0
100
AcDbEntity
8
1
62
256
6
ByLayer
370
13
48
1
60
0
100
AcDbEllipse
10
139.058717
20
4.261237
30
0
11
-0.043585206516441
21
-0.158111345863176
31
0
210
0
220
0
230
1
40
0.080185
41
-1.54411081854139
42
0.026685508257635
0
ELLIPSE
5
1D1
100
AcDbEntity
8
1
62
256
6
ByLayer
370
13
48
1
60
0
100
AcDbEllipse
10
139.373448
20
11.21677
30
0
11
-0.0026167978121472
21
0.0499314767377297
31
0
210
0
220
0
230
1
40
0.995725
41
-0.00872664626041112
42
1.05311629343247
0
ELLIPSE
5
1D2
100
AcDbEntity
8
1
62
256
6
ByLayer
370
13
48
1
60
0
100
AcDbEllipse
10
140.288059
20
4.445478
30
0
11
0.148731686424787
21
-0.0194649801756591
31
0
210
0
220
0
230
1
40
0.016833
41
-1.66175841710548
42
-0.0909620903112785
0
ELLIPSE
5
1D3
100
AcDbEntity
8
1
62
256
6
ByLayer
370
13
48
1
60
0
100
AcDbEllipse
10
131.415638
20
6.787722
30
0
11
-0.0740818329315806
21
-0.0116996593752717
31
0
210
0
220
0
230
1
40
0.009655
41
0.0919985744797591
42
1.66279490126875
0
ELLIPSE
5
1D4
100
AcDbEntity
8
1
62
256
6
ByLayer
370
13
48
1
60
0
100
AcDbEllipse
10
137.878951
20
11.980873
30
0
11
-0.0785039343644144
21
1.49794430213186
31
0
210
0
220
0
230
1
40
0.995725
41
-2.46515190128428
42
-2.088476360157
0
ELLIPSE
5
1D5
100
AcDbEntity
8
1
62
256
6
ByLayer
370
13
48
1
60
0
100
AcDbEllipse
10
138.642257
20
7.567212
30
0
11
0.036635169369913
21
-0.69904067432821
31
0
210
0
220
0
230
1
40
0.995725
41
1.38753675533552
42
1.67551608191455
0
ELLIPSE
5
1D6
100
AcDbEntity
8
1
62
256
6
ByLayer
370
13
48
1
60
0
100
AcDbEllipse
10
139.552261
20
9.522955
30
0
11
-0.0915879234251505
21
1.74760168582051
31
0
210
0
220
0
230
1
40
0.995725
41
-0.035692439191846
42
-0.00872664626000391
0
ELLIPSE
5
1D7
100
AcDbEntity
8
1
62
256
6
ByLayer
370
13
48
1
60
0
100
AcDbEllipse
10
132.025677
20
6.885113
30
0
11
-0.0366351693700601
21
0.699040674328202
31
0
210
0
220
0
230
1
40
0.995725
41
1.38753675533552
42
1.67551608191455
0
ELLIPSE
5
1D8
100
AcDbEntity
8
1
62
256
6
ByLayer
370
13
48
1
60
0
100
AcDbEllipse
10
131.667188
20
10.250333
30
0
11
0.00523359562427413
21
-0.0998629534754747
31
0
210
0
220
0
230
1
40
0.995725
41
1.3875367553358
42
-3.04559954473105
0
ELLIPSE
5
1D9
100
AcDbEntity
8
1
62
256
6
ByLayer
370
13
48
1
60
0
100
AcDbEllipse
10
139.188959
20
11.185874
30
0
11
-0.392574227906097
21
-0.302509446112056
31
0
210
0
220
0
230
1
40
0.479615
41
-2.18320123241785
42
-1.48125049643762
0
ELLIPSE
5
1DA
100
AcDbEntity
8
1
62
256
6
ByLayer
370
13
48
1
60
0
100
AcDbEllipse
10
131.595362
20
11.651564
30
0
11
-1.72345140910973
21
1.06098317793729
31
0
210
0
220
0
230
1
40
0.479615
41
1.48125049677793
42
1.52934132973339
0
ELLIPSE
5
1DB
100
AcDbEntity
8
1
62
256
6
ByLayer
370
13
48
1
60
0
100
AcDbEllipse
10
139.005358
20
4.202234
30
0
11
0.00523359562427413
21
-0.0998629534754747
31
0
210
0
220
0
230
1
40
0.995725
41
-1.75405589825371
42
0.095993108859303
0
ELLIPSE
5
1DC
100
AcDbEntity
8
1
62
256
6
ByLayer
370
13
48
1
60
0
100
AcDbEllipse
10
137.923425
20
11.983204
30
0
11
-1.25140277674607
21
-1.09295639767184
31
0
210
0
220
0
230
1
40
0.728886
41
1.28682181421597
42
1.75405022701321
0
ELLIPSE
5
1DD
100
AcDbEntity
8
1
62
256
6
ByLayer
370
13
48
1
60
0
100
AcDbEllipse
10
130.378554
20
9.996462
30
0
11
-0.0435995590643714
21
-0.257560367426799
31
0
210
0
220
0
230
1
40
0.953152
41
-2.83905801148534
42
-1.53139650463385
0
ELLIPSE
5
1DE
100
AcDbEntity
8
1
62
256
6
ByLayer
370
13
48
1
60
0
100
AcDbEllipse
10
140.293992
20
4.456105
30
0
11
-0.0435995590939729
21
-0.257560367418306
31
0
210
0
220
0
230
1
40
0.953152
41
0.302534642214053
42
1.61019614908004
0
ELLIPSE
5
1DF
100
AcDbEntity
8
1
62
256
6
ByLayer
370
13
48
1
60
0
100
AcDbEllipse
10
139.57071
20
9.523922
30
0
11
0.0994383168611923
21
-1.89739611603371
31
0
210
0
220
0
230
1
40
0.995725
41
3.10590021439815
42
3.13286600733004
0
ELLIPSE
5
1E0
100
AcDbEntity
8
1
62
256
6
ByLayer
370
13
48
1
60
0
100
AcDbEllipse
10
132.793595
20
2.471694
30
0
11
-0.07327033874012
21
1.3980813486564
31
0
210
0
220
0
230
1
40
0.995725
41
0
42
1.05311629343239
0
ELLIPSE
5
1E1
100
AcDbEntity
8
1
62
256
6
ByLayer
370
13
48
1
60
0
100
AcDbEllipse
10
139.821357
20
10.923412
30
0
11
0.0261679781213671
21
-0.499314767377305
31
0
210
0
220
0
230
1
40
0.995725
41
1.67551608191458
42
3.0725653376621
0
ELLIPSE
5
1E2
100
AcDbEntity
8
1
62
256
6
ByLayer
370
13
48
1
60
0
100
AcDbEllipse
10
131.832227
20
10.16839
30
0
11
0.0743658432123935
21
-0.00973249008782954
31
0
210
0
220
0
230
1
40
0.016833
41
1.47983423648548
42
3.05063056328417
0
ELLIPSE
5
1E3
100
AcDbEntity
8
1
62
256
6
ByLayer
370
13
48
1
60
0
100
AcDbEllipse
10
135.494328
20
4.210422
30
0
11
0.00392519671820497
21
-0.0748972151065939
31
0
210
0
220
0
230
1
40
0.092371
41
0
42
1.5707963267949
0
ELLIPSE
5
1E4
100
AcDbEntity
8
1
62
256
6
ByLayer
370
13
48
1
60
0
100
AcDbEllipse
10
130.772562
20
10.74479
30
0
11
-0.422044512745567
21
0.259817086966292
31
0
210
0
220
0
230
1
40
0.479615
41
-1.66034215712113
42
-0.958391421160673
0
ELLIPSE
5
1E5
100
AcDbEntity
8
1
62
256
6
ByLayer
370
13
48
1
60
0
100
AcDbEllipse
10
132.310535
20
11.689045
30
0
11
-0.07327033874012
21
1.3980813486564
31
0
210
0
220
0
230
1
40
0.995725
41
2.60309189589316
42
3.14159265358959
0
ELLIPSE
5
1E6
100
AcDbEntity
8
1
62
256
6
ByLayer
370
13
48
1
60
0
100
AcDbEllipse
10
138.649175
20
7.567575
30
0
11
-0.0327099726518394
21
0.624143459221609
31
0
210
0
220
0
230
1
40
0.995725
41
-1.75405589825427
42
-1.46607657167523
0
ELLIPSE
5
1E7
100
AcDbEntity
8
1
62
256
6
ByLayer
370
13
48
1
60
0
100
AcDbEllipse
10
140.165562
20
10.978086
30
0
11
0.148163665863161
21
0.0233993187505453
31
0
210
0
220
0
230
1
40
0.009655
41
0.0919985744711225
42
1.66279490126894
0
ELLIPSE
5
1E8
100
AcDbEntity
8
1
62
256
6
ByLayer
370
13
48
1
60
0
100
AcDbEllipse
10
139.489699
20
11.272011
30
0
11
-0.00653729335064158
21
0.149857478277354
31
0
210
0
220
0
230
1
40
0.092367
41
0.000809536045656042
42
1.57160586284002
0
ELLIPSE
5
1E9
100
AcDbEntity
8
1
62
256
6
ByLayer
370
13
48
1
60
0
100
AcDbEllipse
10
139.807521
20
10.922686
30
0
11
-0.0183175846850307
21
0.349520337164113
31
0
210
0
220
0
230
1
40
0.995725
41
-1.46607657167516
42
-0.0690273159276965
0
ELLIPSE
5
1EA
100
AcDbEntity
8
1
62
256
6
ByLayer
370
13
48
1
60
0
100
AcDbEllipse
10
138.275882
20
12.001675
30
0
11
-1.60310671271495
21
-1.23532039987739
31
0
210
0
220
0
230
1
40
0.479615
41
1.61225128467236
42
1.66034213189512
0
ELLIPSE
5
1EB
100
AcDbEntity
8
1
62
256
6
ByLayer
370
13
48
1
60
0
100
AcDbEllipse
10
138.84032
20
4.284178
30
0
11
0.0227256651741114
21
0.0714740802136983
31
0
210
0
220
0
230
1
40
0.086488
41
-3.10902911829489
42
-1.53823279150034
0
ELLIPSE
5
1EC
100
AcDbEntity
8
1
62
256
6
ByLayer
370
13
48
1
60
0
100
AcDbEllipse
10
143.124456
20
1.221006
30
0
11
-3.92998063027832
21
-1.25592900702278
31
0
210
0
220
0
230
1
40
0.806809
41
-0.369728692452763
42
-0.222176623305047
0
ELLIPSE
5
1ED
100
AcDbEntity
8
1
62
256
6
ByLayer
370
13
48
1
60
0
100
AcDbEllipse
10
126
20
2.106696
30
0
11
-0.246098334117717
21
7.18816405340373
31
0
210
0
220
0
230
1
40
0.346105
41
-0.538577763423557
42
-0.44244127062913
0
ELLIPSE
5
1EE
100
AcDbEntity
8
1
62
256
6
ByLayer
370
13
48
1
60
0
100
AcDbEllipse
10
129.053413
20
3.176915
30
0
11
-3.96879668238694
21
-0.704906654120516
31
0
210
0
220
0
230
1
40
0.015321
41
-3.01817314115784
42
-2.81830214111533
0
ELLIPSE
5
1EF
100
AcDbEntity
8
1
62
256
6
ByLayer
370
13
48
1
60
0
100
AcDbEllipse
10
130.756281
20
10.517378
30
0
11
-0.366351693700601
21
6.99040674328202
31
0
210
0
220
0
230
1
40
0.995725
41
2.79252680319572
42
2.92884667747947
0
ELLIPSE
5
1F0
100
AcDbEntity
8
1
62
256
6
ByLayer
370
13
48
1
60
0
100
AcDbEllipse
10
130.511778
20
0
30
0
11
-0.592715823682748
21
11.212365555509
31
0
210
0
220
0
230
1
40
0.092638
41
-0.159303682872422
42
-0.003277060462537
0
ELLIPSE
5
1F1
100
AcDbEntity
8
1
62
256
6
ByLayer
370
13
48
1
60
0
100
AcDbEllipse
10
139.521746
20
-6.775126
30
0
11
-0.176277845086022
21
-1.48979302975213
31
0
210
0
220
0
230
1
40
0.118456
41
0
42
6.28318530717959
0
ELLIPSE
5
1F2
100
AcDbEntity
8
1
62
256
6
ByLayer
370
13
48
1
60
0
100
AcDbEllipse
10
135.168197
20
4.248406
30
0
11
0.0523359562427328
21
-0.998629534754585
31
0
210
0
220
0
230
1
40
0.092371
41
-1.10403098774777
42
-3.07690827536824E-13
0
ELLIPSE
5
1F3
100
AcDbEntity
8
1
62
256
6
ByLayer
370
13
48
1
60
0
100
AcDbEllipse
10
149.286047
20
2.2E-05
30
0
11
-121.034254051614
21
0.0549042061492112
31
0
210
0
220
0
230
1
40
0.092638
41
-1.4114928150429
42
-1.39729252056251
0
ELLIPSE
5
1F4
100
AcDbEntity
8
1
62
256
6
ByLayer
370
13
48
1
60
0
100
AcDbEllipse
10
136.247171
20
-3.206091
30
0
11
-4.02200189059242
21
-0.0156101305354422
31
0
210
0
220
0
230
1
40
0.987726
41
3.00756669563235
42
-2.98919526713536
0
ELLIPSE
5
1F5
100
AcDbEntity
8
1
62
256
6
ByLayer
370
13
48
1
60
0
100
AcDbEllipse
10
137.158149
20
-4.659656
30
0
11
-6.48703353756466
21
5.60390205939361
31
0
210
0
220
0
230
1
40
0.867199
41
-0.734798441148447
42
-0.542164466516222
0
ELLIPSE
5
1F6
100
AcDbEntity
8
1
62
256
6
ByLayer
370
13
48
1
60
0
100
AcDbEllipse
10
140.117824
20
0.127645
30
0
11
-0.0112743981316863
21
0.505668316137973
31
0
210
0
220
0
230
1
40
0.102006
41
-0.131643435434215
42
0.272396471426363
0
ELLIPSE
5
1F7
100
AcDbEntity
8
1
62
256
6
ByLayer
370
13
48
1
60
0
100
AcDbEllipse
10
131.017792
20
4.181098
30
0
11
-1.01885653987515
21
-1.26453321528435
31
0
210
0
220
0
230
1
40
0.966608
41
1.64275759444122
42
1.84161818260763
0
ELLIPSE
5
1F8
100
AcDbEntity
8
1
62
256
6
ByLayer
370
13
48
1
60
0
100
AcDbEllipse
10
140.243116
20
-1.11886
30
0
11
-1.3862953910877
21
2.32500946575354
31
0
210
0
220
0
230
1
40
0.343596
41
-0.954111213933574
42
-0.787098607240197
0
ELLIPSE
5
1F9
100
AcDbEntity
8
1
62
256
6
ByLayer
370
13
48
1
60
0
100
AcDbEllipse
10
1117.105906
20
-4E-06
30
0
11
-1766.55867655257
21
9.42060812260912
31
0
210
0
220
0
230
1
40
0.003442
41
0.976813716736337
42
0.984098760419998
0
ELLIPSE
5
1FA
100
AcDbEntity
8
1
62
256
6
ByLayer
370
13
48
1
60
0
100
AcDbEllipse
10
139.879134
20
-6.86163
30
0
11
-0.0633961364044327
21
-0.515849950129657
31
0
210
0
220
0
230
1
40
0.114484
41
-1.65364902180573
42
-0.0828526950067289
0
ELLIPSE
5
1FB
100
AcDbEntity
8
1
62
256
6
ByLayer
370
13
48
1
60
0
100
AcDbEllipse
10
143.803916
20
0.472363
30
0
11
-4.02200190213239
21
-0.0156101775541595
31
0
210
0
220
0
230
1
40
0.987726
41
0.0205343079327331
42
0.152397374696305
0
ELLIPSE
5
1FC
100
AcDbEntity
8
1
62
256
6
ByLayer
370
13
48
1
60
0
100
AcDbEllipse
10
132.921343
20
3.379624
30
0
11
-0.318392676579918
21
-0.395166625654535
31
0
210
0
220
0
230
1
40
0.966608
41
-2.22744988286685
42
-1.29997445410363
0
ELLIPSE
5
1FD
100
AcDbEntity
8
1
62
256
6
ByLayer
370
13
48
1
60
0
100
AcDbEllipse
10
141.104281
20
0
30
0
11
-1.34756542374183
21
-11.2113734073737
31
0
210
0
220
0
230
1
40
0.117948
41
-1.2972962246555
42
-0.0956681700313322
0
ELLIPSE
5
1FE
100
AcDbEntity
8
1
62
256
6
ByLayer
370
13
48
1
60
0
100
AcDbEllipse
10
139.824402
20
4.492427
30
0
11
-0.0202842397240428
21
1.00030363530197
31
0
210
0
220
0
230
1
40
0.104743
41
-3.13823088572135
42
-2.82067045639043
0
ELLIPSE
5
1FF
100
AcDbEntity
8
1
62
256
6
ByLayer
370
13
48
1
60
0
100
AcDbEllipse
10
128.843147
20
4.946615
30
0
11
0.0523359562427328
21
-0.998629534754584
31
0
210
0
220
0
230
1
40
0.995725
41
1.13930248295317
42
1.67551608191456
0
ELLIPSE
5
200
100
AcDbEntity
8
1
62
256
6
ByLayer
370
13
48
1
60
0
100
AcDbEllipse
10
140.077859
20
0
30
0
11
-1.91506114966485
21
11.2113564665097
31
0
210
0
220
0
230
1
40
0.083619
41
1.54300129562941
42
1.7084584397285
0
ELLIPSE
5
201
100
AcDbEntity
8
1
62
256
6
ByLayer
370
13
48
1
60
0
100
AcDbEllipse
10
129.186756
20
4.964622
30
0
11
-0.0261679781214715
21
0.499314767377287
31
0
210
0
220
0
230
1
40
0.995725
41
-2.00229017063662
42
-1.46607657167526
0
ELLIPSE
5
202
100
AcDbEntity
8
1
62
256
6
ByLayer
370
13
48
1
60
0
100
AcDbEllipse
10
128.812144
20
3.828615
30
0
11
-0.29369042064903
21
-0.95590058940195
31
0
210
0
220
0
230
1
40
0.0868
41
-1.53907871771946
42
-0.862714664638979
0
ELLIPSE
5
203
100
AcDbEntity
8
1
62
256
6
ByLayer
370
13
48
1
60
0
100
AcDbEllipse
10
140.196127
20
3.168523
30
0
11
-0.0101421198660104
21
0.500151817779602
31
0
210
0
220
0
230
1
40
0.104743
41
1.9232239450694
42
-2.78916503532512
0
ELLIPSE
5
204
100
AcDbEntity
8
1
62
256
6
ByLayer
370
13
48
1
60
0
100
AcDbEllipse
10
131.067915
20
6.458191
30
0
11
0.0837375299883728
21
-1.59780725560734
31
0
210
0
220
0
230
1
40
0.995725
41
-1.98769354243484
42
-1.46607657167527
0
ELLIPSE
5
205
100
AcDbEntity
8
1
62
256
6
ByLayer
370
13
48
1
60
0
100
AcDbEllipse
10
131.129482
20
4.186952
30
0
11
0.0837375299883728
21
-1.59780725560734
31
0
210
0
220
0
230
1
40
0.995725
41
-2.00229017063665
42
-1.252379844281
0
ELLIPSE
5
206
100
AcDbEntity
8
1
62
256
6
ByLayer
370
13
48
1
60
0
100
AcDbEllipse
10
140.225932
20
-0.330453
30
0
11
-0.0225487962864502
21
1.01133663310581
31
0
210
0
220
0
230
1
40
0.102006
41
-0.131643435380662
42
0.465966964078488
0
ELLIPSE
5
207
100
AcDbEntity
8
1
62
256
6
ByLayer
370
13
48
1
60
0
100
AcDbEllipse
10
126
20
3.103741
30
0
11
-1.5
21
1.51595858262354E-15
31
0
210
0
220
0
230
1
40
0.752854
41
-2.96228160008136
42
-1.69241826052857
0
ELLIPSE
5
208
100
AcDbEntity
8
1
62
256
6
ByLayer
370
13
48
1
60
0
100
AcDbEllipse
10
136.222344
20
5.45523
30
0
11
-1.0188565645101
21
-1.26453320262426
31
0
210
0
220
0
230
1
40
0.966608
41
0.713732916306874
42
1.15370887108299
0
ELLIPSE
5
209
100
AcDbEntity
8
1
62
256
6
ByLayer
370
13
48
1
60
0
100
AcDbEllipse
10
137.746431
20
0
30
0
11
-23.4830603373658
21
10.0492744140636
31
0
210
0
220
0
230
1
40
0.200491
41
0.870578650084855
42
1.01692245948183
0
ELLIPSE
5
20A
100
AcDbEntity
8
1
62
256
6
ByLayer
370
13
48
1
60
0
100
AcDbEllipse
10
132.944454
20
3.845318
30
0
11
0.301478001314471
21
-0.953473132669941
31
0
210
0
220
0
230
1
40
0.089434
41
-1.42395316306656
42
-0.023202239472329
0
ELLIPSE
5
20B
100
AcDbEntity
8
1
62
256
6
ByLayer
370
13
48
1
60
0
100
AcDbEllipse
10
137.147374
20
3.601101
30
0
11
-0.31839267419915
21
-0.395166627981848
31
0
210
0
220
0
230
1
40
0.966608
41
-2.22744988935277
42
-1.98788378863585
0
ELLIPSE
5
20C
100
AcDbEntity
8
1
62
256
6
ByLayer
370
13
48
1
60
0
100
AcDbEllipse
10
130.608044
20
4.159624
30
0
11
-1.41137568421948
21
1.1371701267781
31
0
210
0
220
0
230
1
40
0.775936
41
3.10057582077965
42
-2.86962746632944
0
ELLIPSE
5
20D
100
AcDbEntity
8
1
62
256
6
ByLayer
370
13
48
1
60
0
100
AcDbEllipse
10
135.639221
20
-4.73926
30
0
11
-0.418687649943544
21
7.98903627803659
31
0
210
0
220
0
230
1
40
0.995725
41
0
42
0.252842860728337
0
ELLIPSE
5
20E
100
AcDbEntity
8
1
62
256
6
ByLayer
370
13
48
1
60
0
100
AcDbEllipse
10
214.032216
20
-0.029125
30
0
11
-156.469903227422
21
0.0708809894709713
31
0
210
0
220
0
230
1
40
0.084335
41
-0.991624256105781
42
-0.972502354280881
0
ELLIPSE
5
20F
100
AcDbEntity
8
1
62
256
6
ByLayer
370
13
48
1
60
0
100
AcDbEllipse
10
133.279443
20
3.398391
30
0
11
-3.96879668128837
21
-0.704906653921631
31
0
210
0
220
0
230
1
40
0.015321
41
-3.01817314119909
42
-2.81830214107063
0
ELLIPSE
5
210
100
AcDbEntity
8
1
62
256
6
ByLayer
370
18
48
1
60
0
100
AcDbEllipse
10
135.244148
20
7.221455
30
0
11
0.0414082085792502
21
-0.790115687897827
31
0
210
0
220
0
230
1
40
0.995725
41
2.0943951023932
42
3.14159265358979
0
ELLIPSE
5
211
100
AcDbEntity
8
1
62
256
6
ByLayer
370
18
48
1
60
0
100
AcDbEllipse
10
135.291933
20
6.309657
30
0
11
-0.240336834256289
21
-0.012595519764591
31
0
210
0
220
0
230
1
40
0.506302
41
-1.5707963267949
42
-0.215695706346171
0
ELLIPSE
5
212
100
AcDbEntity
8
1
62
256
6
ByLayer
370
18
48
1
60
0
100
AcDbEllipse
10
136.00652
20
7.718561
30
0
11
-0.130868635434874
21
0.20289886625485
31
0
210
0
220
0
230
1
40
0.503053
41
1.57329528827802
42
2.92839590873117
0
ELLIPSE
5
213
100
AcDbEntity
8
1
62
256
6
ByLayer
370
18
48
1
60
0
100
AcDbEllipse
10
136.054305
20
6.806762
30
0
11
-0.108943016668485
21
-0.215466862389006
31
0
210
0
220
0
230
1
40
0.503053
41
-2.92839590873169
42
-1.5732952882833
0
ELLIPSE
5
214
100
AcDbEntity
8
1
62
256
6
ByLayer
370
18
48
1
60
0
100
AcDbEllipse
10
135.336392
20
7.22629
30
0
11
0.0541703315090405
21
-1.03363149994773
31
0
210
0
220
0
230
1
40
0.995725
41
-2.61799387799154
42
-1.5707963267949
0
ELLIPSE
5
215
100
AcDbEntity
8
1
62
256
6
ByLayer
370
18
48
1
60
0
100
AcDbEllipse
10
136.054305
20
6.806762
30
0
11
-0.108943016669236
21
-0.21546686238891
31
0
210
0
220
0
230
1
40
0.503053
41
-1.57329528827659
42
-0.218194667828937
0
ELLIPSE
5
216
100
AcDbEntity
8
1
62
256
6
ByLayer
370
18
48
1
60
0
100
AcDbEllipse
10
135.336392
20
7.22629
30
0
11
0.0541703315090405
21
-1.03363149994773
31
0
210
0
220
0
230
1
40
0.995725
41
-0.523598775598233
42
0.523598775598336
0
ELLIPSE
5
217
100
AcDbEntity
8
1
62
256
6
ByLayer
370
18
48
1
60
0
100
AcDbEllipse
10
135.336392
20
7.22629
30
0
11
0.065419945303416
21
-1.24828691844323
31
0
210
0
220
0
230
1
40
0.995725
41
0
42
6.28318530717959
0
ELLIPSE
5
218
100
AcDbEntity
8
1
62
256
6
ByLayer
370
18
48
1
60
0
100
AcDbEllipse
10
135.196362
20
8.133254
30
0
11
-0.240336834256518
21
-0.0125955197620552
31
0
210
0
220
0
230
1
40
0.506302
41
0.215695706345828
42
1.5707963267949
0
ELLIPSE
5
219
100
AcDbEntity
8
1
62
256
6
ByLayer
370
18
48
1
60
0
100
AcDbEllipse
10
135.336392
20
7.22629
30
0
11
0.0541703315090405
21
-1.03363149994773
31
0
210
0
220
0
230
1
40
0.995725
41
0.523598775598336
42
1.5707963267949
0
ELLIPSE
5
21A
100
AcDbEntity
8
1
62
256
6
ByLayer
370
18
48
1
60
0
100
AcDbEllipse
10
135.244148
20
7.221455
30
0
11
0.0414082085792502
21
-0.790115687897827
31
0
210
0
220
0
230
1
40
0.995725
41
1.0471975511966
42
2.0943951023932
0
ELLIPSE
5
21B
100
AcDbEntity
8
1
62
256
6
ByLayer
370
18
48
1
60
0
100
AcDbEllipse
10
136.00652
20
7.718561
30
0
11
-0.130868635434793
21
0.202898866255445
31
0
210
0
220
0
230
1
40
0.503053
41
0.21819466782907
42
1.57329528828084
0
ELLIPSE
5
21C
100
AcDbEntity
8
1
62
256
6
ByLayer
370
18
48
1
60
0
100
AcDbEllipse
10
135.336392
20
7.22629
30
0
11
0.0541703315090405
21
-1.03363149994773
31
0
210
0
220
0
230
1
40
0.995725
41
-1.5707963267949
42
-0.523598775598233
0
ELLIPSE
5
21D
100
AcDbEntity
8
1
62
256
6
ByLayer
370
18
48
1
60
0
100
AcDbEllipse
10
135.318797
20
7.225368
30
0
11
0.0902795245187142
21
-1.72263594745166
31
0
210
0
220
0
230
1
40
0.995725
41
0
42
6.28318530717959
0
ELLIPSE
5
21E
100
AcDbEntity
8
1
62
256
6
ByLayer
370
18
48
1
60
0
100
AcDbEllipse
10
135.336392
20
7.22629
30
0
11
0.0541703315090405
21
-1.03363149994773
31
0
210
0
220
0
230
1
40
0.995725
41
1.5707963267949
42
2.61799387799145
0
ELLIPSE
5
21F
100
AcDbEntity
8
1
62
256
6
ByLayer
370
18
48
1
60
0
100
AcDbEllipse
10
135.336392
20
7.22629
30
0
11
0.0541703315090405
21
-1.03363149994773
31
0
210
0
220
0
230
1
40
0.995725
41
2.61799387799145
42
-2.61799387799154
0
ELLIPSE
5
220
100
AcDbEntity
8
1
62
256
6
ByLayer
370
18
48
1
60
0
100
AcDbEllipse
10
136.525415
20
-3.282357
30
0
11
-1.4
21
1.41489467711531E-15
31
0
210
0
220
0
230
1
40
0.993166
41
-0.477522237867326
42
-0.348422574553093
0
ELLIPSE
5
221
100
AcDbEntity
8
1
62
256
6
ByLayer
370
18
48
1
60
0
100
AcDbEllipse
10
136.525415
20
-3.182235
30
0
11
-1.4
21
1.41489467711531E-15
31
0
210
0
220
0
230
1
40
0.993166
41
-0.512864789354114
42
-0.291185986650139
0
ELLIPSE
5
222
100
AcDbEntity
8
1
62
256
6
ByLayer
370
18
48
1
60
0
100
AcDbEllipse
10
136.525415
20
-2.770973
30
0
11
1.25
21
0
31
0
210
0
220
0
230
1
40
0.993166
41
0.365112253060075
42
-3.14159240798556
0
ELLIPSE
5
223
100
AcDbEntity
8
1
62
256
6
ByLayer
370
18
48
1
60
0
100
AcDbEllipse
10
136.525415
20
-2.735959
30
0
11
-0.950000000000001
21
9.60107102328246E-16
31
0
210
0
220
0
230
1
40
0.993166
41
-3.14159232319556
42
-9.41357892150892E-16
0
ELLIPSE
5
224
100
AcDbEntity
8
1
62
256
6
ByLayer
370
18
48
1
60
0
100
AcDbEllipse
10
136.525415
20
-2.735959
30
0
11
-0.950000000000001
21
9.60107102328246E-16
31
0
210
0
220
0
230
1
40
0.993166
41
0
42
0.794921184172703
0
ELLIPSE
5
225
100
AcDbEntity
8
1
62
256
6
ByLayer
370
18
48
1
60
0
100
AcDbEllipse
10
136.525415
20
-2.735959
30
0
11
-0.950000000000001
21
9.60107102328246E-16
31
0
210
0
220
0
230
1
40
0.993166
41
2.93994186176047
42
-3.14159232319556
0
ELLIPSE
5
226
100
AcDbEntity
8
1
62
256
6
ByLayer
370
13
48
1
60
0
100
AcDbEllipse
10
130.377034
20
3.936379
30
0
11
-0.0702831055410521
21
0.251592029869749
31
0
210
0
220
0
230
1
40
0.953152
41
1.53139650455773
42
1.87271600622003
0
ELLIPSE
5
227
100
AcDbEntity
8
1
62
256
6
ByLayer
370
13
48
1
60
0
100
AcDbEllipse
10
135.246331
20
7.22157
30
0
11
0.091946875396328
21
-1.75445089745394
31
0
210
0
220
0
230
1
40
0.995725
41
-3.13286081871848
42
-1.62293276262278
0
ELLIPSE
5
228
100
AcDbEntity
8
1
62
256
6
ByLayer
370
13
48
1
60
0
100
AcDbEllipse
10
135.246331
20
7.22157
30
0
11
0.091946875396328
21
-1.75445089745394
31
0
210
0
220
0
230
1
40
0.995725
41
-1.62293276262277
42
0
0
ELLIPSE
5
229
100
AcDbEntity
8
1
62
256
6
ByLayer
370
13
48
1
60
0
100
AcDbEllipse
10
135.246331
20
7.22157
30
0
11
0.091946875396328
21
-1.75445089745394
31
0
210
0
220
0
230
1
40
0.995725
41
0
42
0.471233373569907
0
ELLIPSE
5
22A
100
AcDbEntity
8
1
62
256
6
ByLayer
370
13
48
1
60
0
100
AcDbEllipse
10
140.037261
20
3.932996
30
0
11
-0.0435995590933948
21
-0.257560367418433
31
0
210
0
220
0
230
1
40
0.953152
41
0.302534642212336
42
1.26887668595147
0
ELLIPSE
5
22B
100
AcDbEntity
8
1
62
256
6
ByLayer
370
13
48
1
60
0
100
AcDbEllipse
10
139.342786
20
11.239941
30
0
11
0.134175336907991
21
-0.0670595180837666
31
0
210
0
220
0
230
1
40
0.045711
41
-2.89614378097731
42
-1.65123426323861
0
ELLIPSE
5
22C
100
AcDbEntity
8
1
62
256
6
ByLayer
370
13
48
1
60
0
100
AcDbEllipse
10
139.473571
20
7.699751
30
0
11
0.148163665863161
21
0.0233993187505453
31
0
210
0
220
0
230
1
40
0.009655
41
1.66279490126889
42
2.86882079213794
0
ELLIPSE
5
22D
100
AcDbEntity
8
1
62
256
6
ByLayer
370
13
48
1
60
0
100
AcDbEllipse
10
139.476805
20
7.455836
30
0
11
0.148731686424787
21
-0.0194649801756591
31
0
210
0
220
0
230
1
40
0.016833
41
3.05063056327993
42
-1.66175841710529
0
ELLIPSE
5
22E
100
AcDbEntity
8
1
62
256
6
ByLayer
370
13
48
1
60
0
100
AcDbEllipse
10
139.058717
20
4.261237
30
0
11
-0.157303252975558
21
-0.0460731444148805
31
0
210
0
220
0
230
1
40
0.019548
41
-1.48844818376676
42
-0.271753093942996
0
ELLIPSE
5
22F
100
AcDbEntity
8
1
62
256
6
ByLayer
370
13
48
1
60
0
100
AcDbEllipse
10
139.256908
20
7.664845
30
0
11
0.0740818329315804
21
0.0116996593752727
31
0
210
0
220
0
230
1
40
0.009655
41
-1.47879775232104
42
-0.000215754743210722
0
ELLIPSE
5
230
100
AcDbEntity
8
1
62
256
6
ByLayer
370
13
48
1
60
0
100
AcDbEllipse
10
138.782471
20
10.668964
30
0
11
-0.0740818329315806
21
-0.0116996593752717
31
0
210
0
220
0
230
1
40
0.009655
41
1.66279490126751
42
3.14137689873497
0
ELLIPSE
5
231
100
AcDbEntity
8
1
62
256
6
ByLayer
370
13
48
1
60
0
100
AcDbEllipse
10
138.04377
20
2.746844
30
0
11
0.0732703387398261
21
-1.39808134865642
31
0
210
0
220
0
230
1
40
0.995725
41
2.21707198701777
42
2.88221331534761
0
ELLIPSE
5
232
100
AcDbEntity
8
1
62
256
6
ByLayer
370
13
48
1
60
0
100
AcDbEllipse
10
139.259286
20
7.485496
30
0
11
0.0743658432123935
21
-0.00973249008782954
31
0
210
0
220
0
230
1
40
0.016833
41
5.34639917209464E-05
42
1.47983423648391
0
ELLIPSE
5
233
100
AcDbEntity
8
1
62
256
6
ByLayer
370
13
48
1
60
0
100
AcDbEllipse
10
138.84032
20
4.284178
30
0
11
-0.0743658432123936
21
0.00973249008782931
31
0
210
0
220
0
230
1
40
0.016833
41
-3.14153918964099
42
-1.66175841710664
0
ELLIPSE
5
234
100
AcDbEntity
8
1
62
256
6
ByLayer
370
13
48
1
60
0
100
AcDbEllipse
10
135.271386
20
7.222883
30
0
11
0.0973762305334404
21
-1.85804916495182
31
0
210
0
220
0
230
1
40
0.995725
41
-0.853733484678033
42
-9.5882203479867E-16
0
ELLIPSE
5
235
100
AcDbEntity
8
1
62
256
6
ByLayer
370
13
48
1
60
0
100
AcDbEllipse
10
135.271386
20
7.222883
30
0
11
0.0973762305334404
21
-1.85804916495182
31
0
210
0
220
0
230
1
40
0.995725
41
0
42
-2.28787042844179
0
ELLIPSE
5
236
100
AcDbEntity
8
1
62
256
6
ByLayer
370
13
48
1
60
0
100
AcDbEllipse
10
131.662576
20
10.250091
30
0
11
0.00523359562427413
21
-0.0998629534754747
31
0
210
0
220
0
230
1
40
0.995725
41
1.3875367553358
42
3.11837220864403
0
ELLIPSE
5
237
100
AcDbEntity
8
1
62
256
6
ByLayer
370
13
48
1
60
0
100
AcDbEllipse
10
131.278221
20
3.184636
30
0
11
0.00653729335064122
21
-0.149857478277354
31
0
210
0
220
0
230
1
40
0.092367
41
-1.56998679074977
42
-0.0232440763763253
0
ELLIPSE
5
238
100
AcDbEntity
8
1
62
256
6
ByLayer
370
13
48
1
60
0
100
AcDbEllipse
10
131.126658
20
3.178661
30
0
11
0.00247703513347986
21
-0.149979546261974
31
0
210
0
220
0
230
1
40
0.092312
41
-1.56748595439539
42
-0.0473509076687081
0
ELLIPSE
5
239
100
AcDbEntity
8
1
62
256
6
ByLayer
370
13
48
1
60
0
100
AcDbEllipse
10
131.276038
20
3.234588
30
0
11
0.0104671912485466
21
-0.199725906950918
31
0
210
0
220
0
230
1
40
0.995725
41
0.0114010574349319
42
1.05311629343263
0
ELLIPSE
5
23A
100
AcDbEntity
8
1
62
256
6
ByLayer
370
13
48
1
60
0
100
AcDbEllipse
10
130.375263
20
10.006606
30
0
11
0.022232177635432
21
-0.148343285246035
31
0
210
0
220
0
230
1
40
0.091945
41
-3.05448529856427
42
-1.57968743413492
0
ELLIPSE
5
23B
100
AcDbEntity
8
1
62
256
6
ByLayer
370
13
48
1
60
0
100
AcDbEllipse
10
130.836234
20
3.178726
30
0
11
-0.00254430870314638
21
-0.149978420091769
31
0
210
0
220
0
230
1
40
0.092151
41
-1.56439802758338
42
-0.0688194685924272
0
ELLIPSE
5
23C
100
AcDbEntity
8
1
62
256
6
ByLayer
370
13
48
1
60
0
100
AcDbEllipse
10
130.375263
20
10.006606
30
0
11
-0.148731686424787
21
0.0194649801756586
31
0
210
0
220
0
230
1
40
0.016833
41
0.26313075573578
42
1.4798342364841
0
ELLIPSE
5
23D
100
AcDbEntity
8
1
62
256
6
ByLayer
370
13
48
1
60
0
100
AcDbEllipse
10
130.49776
20
3.473998
30
0
11
-0.148163665863161
21
-0.0233993187505433
31
0
210
0
220
0
230
1
40
0.009655
41
-1.47879775232107
42
0.0919985744717506
0
ELLIPSE
5
23E
100
AcDbEntity
8
1
62
256
6
ByLayer
370
13
48
1
60
0
100
AcDbEllipse
10
129.96984
20
6.908773
30
0
11
-0.148731686424787
21
0.0194649801756586
31
0
210
0
220
0
230
1
40
0.016833
41
0.263309762079726
42
1.47983423648451
0
ELLIPSE
5
23F
100
AcDbEntity
8
1
62
256
6
ByLayer
370
13
48
1
60
0
100
AcDbEllipse
10
129.971171
20
6.808338
30
0
11
-0.148163665863161
21
-0.0233993187505433
31
0
210
0
220
0
230
1
40
0.009655
41
-1.47879775232128
42
-0.264819008250051
0
ELLIPSE
5
240
100
AcDbEntity
8
1
62
256
6
ByLayer
370
13
48
1
60
0
100
AcDbEllipse
10
130.317044
20
10.502892
30
0
11
-0.0435995590960959
21
-0.257560367417671
31
0
210
0
220
0
230
1
40
0.953152
41
-2.83905801136711
42
-1.744055835249
0
ELLIPSE
5
241
100
AcDbEntity
8
1
62
256
6
ByLayer
370
13
48
1
60
0
100
AcDbEllipse
10
138.782471
20
10.668964
30
0
11
0.00392519671820497
21
-0.0748972151065939
31
0
210
0
220
0
230
1
40
0.995725
41
3.14156568617716
42
-2.58884312732182
0
ELLIPSE
5
242
100
AcDbEntity
8
1
62
256
6
ByLayer
370
13
48
1
60
0
100
AcDbEllipse
10
138.84032
20
4.284178
30
0
11
0.00392519671820497
21
-0.0748972151065939
31
0
210
0
220
0
230
1
40
0.995725
41
-0.358797302495039
42
1.91341713356774E-05
0
ELLIPSE
5
243
100
AcDbEntity
8
1
62
256
6
ByLayer
370
13
48
1
60
0
100
AcDbEllipse
10
131.890075
20
3.783603
30
0
11
0.00392519671820497
21
-0.0748972151065939
31
0
210
0
220
0
230
1
40
0.995725
41
-1.46607657167532
42
-2.89758364391921E-05
0
ELLIPSE
5
244
100
AcDbEntity
8
1
62
256
6
ByLayer
370
13
48
1
60
0
100
AcDbEllipse
10
131.832227
20
10.16839
30
0
11
0.00392519671820497
21
-0.0748972151065939
31
0
210
0
220
0
230
1
40
0.995725
41
-3.14157648440049
42
-1.75405589825432
0
ELLIPSE
5
245
100
AcDbEntity
8
1
62
256
6
ByLayer
370
13
48
1
60
0
100
AcDbEllipse
10
131.890075
20
3.783603
30
0
11
0.0427820306099526
21
-0.0616011189580926
31
0
210
0
220
0
230
1
40
0.078615
41
-3.97559224980966E-05
42
1.52212929101447
0
ELLIPSE
5
246
100
AcDbEntity
8
1
62
256
6
ByLayer
370
13
48
1
60
0
100
AcDbEllipse
10
131.967496
20
3.95675
30
0
11
0.0261679781213664
21
-0.499314767377292
31
0
210
0
220
0
230
1
40
0.092371
41
-0.752144203761216
42
-0.444248267805587
0
ELLIPSE
5
247
100
AcDbEntity
8
1
62
256
6
ByLayer
370
13
48
1
60
0
100
AcDbEllipse
10
129.872712
20
5.105244
30
0
11
0.493878886210536
21
0.0779977291684844
31
0
210
0
220
0
230
1
40
0.009655
41
1.66279490126885
42
1.98583982387733
0
ELLIPSE
5
248
100
AcDbEntity
8
1
62
256
6
ByLayer
370
13
48
1
60
0
100
AcDbEllipse
10
129.688642
20
6.270767
30
0
11
0.493878886210536
21
0.0779977291684844
31
0
210
0
220
0
230
1
40
0.009655
41
1.8203163299229
42
1.98495510800403
0
ELLIPSE
5
249
100
AcDbEntity
8
1
62
256
6
ByLayer
370
13
48
1
60
0
100
AcDbEllipse
10
130.785873
20
4.168944
30
0
11
-0.0575695518672372
21
1.09849248823003
31
0
210
0
220
0
230
1
40
0.995725
41
1.13930248295314
42
2.68071944023139
0
ELLIPSE
5
24A
100
AcDbEntity
8
1
62
256
6
ByLayer
370
13
48
1
60
0
100
AcDbEllipse
10
129.814377
20
4.578712
30
0
11
0.464792933756594
21
-0.184302818019526
31
0
210
0
220
0
230
1
40
0.038632
41
-2.02873541903071
42
-1.65486207236188
0
ELLIPSE
5
24B
100
AcDbEntity
8
1
62
256
6
ByLayer
370
13
48
1
60
0
100
AcDbEllipse
10
130.229593
20
8.240287
30
0
11
-0.143594274757485
21
2.73994198426736
31
0
210
0
220
0
230
1
40
0.016833
41
0.314106799254535
42
0.882904136179343
0
ELLIPSE
5
24C
100
AcDbEntity
8
1
62
256
6
ByLayer
370
13
48
1
60
0
100
AcDbEllipse
10
108.904055
20
0
30
0
11
-121.034377742324
21
0.0549079253318423
31
0
210
0
220
0
230
1
40
0.092638
41
-1.81724464366039
42
-1.75609186421936
0
ELLIPSE
5
24D
100
AcDbEntity
8
1
62
256
6
ByLayer
370
13
48
1
60
0
100
AcDbEllipse
10
130.831995
20
4.171361
30
0
11
0.0837375299883728
21
-1.59780725560734
31
0
210
0
220
0
230
1
40
0.995725
41
0.0514385024983525
42
0.9856981040166
0
ELLIPSE
5
24E
100
AcDbEntity
8
1
62
256
6
ByLayer
370
13
48
1
60
0
100
AcDbEllipse
10
130.848525
20
10.522213
30
0
11
0.418687649941863
21
-7.98903627803668
31
0
210
0
220
0
230
1
40
0.995725
41
3.8122180043537E-06
42
0.252842860728339
0
ELLIPSE
5
24F
100
AcDbEntity
8
1
62
256
6
ByLayer
370
13
48
1
60
0
100
AcDbEllipse
10
136.364025
20
-2.983872
30
0
11
1.25
21
0
31
0
210
0
220
0
230
1
40
0.993166
41
2.38869009487262
42
2.92953484297155
0
ELLIPSE
5
250
100
AcDbEntity
8
1
62
256
6
ByLayer
370
13
48
1
60
0
100
AcDbEllipse
10
136.364025
20
-2.587049
30
0
11
1.25
21
0
31
0
210
0
220
0
230
1
40
0.993166
41
0
42
3.14159240798556
0
ELLIPSE
5
251
100
AcDbEntity
8
1
62
256
6
ByLayer
370
13
48
1
60
0
100
AcDbEllipse
10
136.364025
20
-2.587049
30
0
11
-1.35
21
1.36436272436119E-15
31
0
210
0
220
0
230
1
40
0.993166
41
-2.96615410076726
42
-0.163853517652127
0
ELLIPSE
5
252
100
AcDbEntity
8
1
62
256
6
ByLayer
370
18
48
1
60
0
100
AcDbEllipse
10
135.244148
20
7.221455
30
0
11
0.0414082085792502
21
-0.790115687897827
31
0
210
0
220
0
230
1
40
0.995725
41
-3.14159265358976
42
-2.35432971300048
0
ELLIPSE
5
253
100
AcDbEntity
8
1
62
256
6
ByLayer
370
18
48
1
60
0
100
AcDbEllipse
10
135.244148
20
7.221455
30
0
11
0.0414082085792502
21
-0.790115687897827
31
0
210
0
220
0
230
1
40
0.995725
41
-0.770704124409228
42
0
0
ELLIPSE
5
254
100
AcDbEntity
8
1
62
256
6
ByLayer
370
18
48
1
60
0
100
AcDbEllipse
10
135.244148
20
7.221455
30
0
11
-0.0414082085794165
21
0.790115687897819
31
0
210
0
220
0
230
1
40
0.995725
41
-3.03621793493416
42
-2.0943951023932
0
ELLIPSE
5
255
100
AcDbEntity
8
1
62
256
6
ByLayer
370
18
48
1
60
0
100
AcDbEllipse
10
135.244148
20
7.221455
30
0
11
0.0414082085792502
21
-0.790115687897827
31
0
210
0
220
0
230
1
40
0.995725
41
-1.89406959464851
42
-1.23165158891768
0
ELLIPSE
5
256
100
AcDbEntity
8
1
62
256
6
ByLayer
370
18
48
1
60
0
100
AcDbEllipse
10
136.152197
20
7.269044
30
0
11
-0.0126496006239029
21
0.241368758550178
31
0
210
0
220
0
230
1
40
0.501982
41
3.08402190138075
42
-0.604617605996975
0
ELLIPSE
5
257
100
AcDbEntity
8
1
62
256
6
ByLayer
370
18
48
1
60
0
100
AcDbEllipse
10
135.739563
20
6.455479
30
0
11
-0.201645978398241
21
-0.131849256880545
31
0
210
0
220
0
230
1
40
0.505213
41
0.578233011004853
42
-3.08653893110327
0
ELLIPSE
5
258
100
AcDbEntity
8
1
62
256
6
ByLayer
370
18
48
1
60
0
100
AcDbEllipse
10
135.656782
20
8.03502
30
0
11
-0.214323340834704
21
0.110049228609669
31
0
210
0
220
0
230
1
40
0.505213
41
3.08653893110329
42
-0.692117992087625
0
ELLIPSE
5
259
100
AcDbEntity
8
1
62
256
6
ByLayer
370
18
48
1
60
0
100
AcDbEllipse
10
135.244148
20
7.221455
30
0
11
0.0902795245187142
21
-1.72263594745166
31
0
210
0
220
0
230
1
40
0.995725
41
3.14158687387698
42
-1.62293302890917
0
ELLIPSE
5
25A
100
AcDbEntity
8
1
62
256
6
ByLayer
370
18
48
1
60
0
100
AcDbEllipse
10
135.244148
20
7.221455
30
0
11
0.0902795245187142
21
-1.72263594745166
31
0
210
0
220
0
230
1
40
0.995725
41
-1.62293302890917
42
0
0
ELLIPSE
5
25B
100
AcDbEntity
8
1
62
256
6
ByLayer
370
18
48
1
60
0
100
AcDbEllipse
10
134.748733
20
7.987432
30
0
11
-0.201645978398229
21
-0.131849256880548
31
0
210
0
220
0
230
1
40
0.505213
41
3.0815048716571
42
-2.56336325251492
0
POINT
5
70
100
AcDbEntity
8
1
62
256
6
ByLayer
370
18
48
1
60
0
100
AcDbPoint
10
0
20
0
30
0
39
0
210
0
220
0
230
1
50
360
0
POINT
5
72
100
AcDbEntity
8
80
62
256
6
ByLayer
370
18
48
1
60
0
100
AcDbPoint
10
0
20
0
30
0
39
0
210
0
220
0
230
1
50
360
0
POINT
5
74
100
AcDbEntity
8
81
62
256
6
ByLayer
370
18
48
1
60
0
100
AcDbPoint
10
141
20
0
30
0
39
0
210
0
220
0
230
1
50
360
0
POINT
5
76
100
AcDbEntity
8
1
62
256
6
ByLayer
370
18
48
1
60
1
100
AcDbPoint
10
0
20
-16
30
0
39
0
210
0
220
0
230
1
50
360
0
POINT
5
77
100
AcDbEntity
8
1
62
256
6
ByLayer
370
18
48
1
60
1
100
AcDbPoint
10
141
20
-11.5
30
0
39
0
210
0
220
0
230
1
50
360
0
POINT
5
78
100
AcDbEntity
8
1
62
256
6
ByLayer
370
18
48
1
60
1
100
AcDbPoint
10
-56
20
-12.5
30
0
39
0
210
0
220
0
230
1
50
360
0
POINT
5
79
100
AcDbEntity
8
1
62
256
6
ByLayer
370
18
48
1
60
1
100
AcDbPoint
10
0
20
-16
30
0
39
0
210
0
220
0
230
1
50
360
0
POINT
5
7A
100
AcDbEntity
8
1
62
256
6
ByLayer
370
18
48
1
60
1
100
AcDbPoint
10
141
20
-11.5
30
0
39
0
210
0
220
0
230
1
50
360
0
POINT
5
7B
100
AcDbEntity
8
1
62
256
6
ByLayer
370
18
48
1
60
1
100
AcDbPoint
10
6.3337
20
-16
30
0
39
0
210
0
220
0
230
1
50
360
0
POINT
5
7C
100
AcDbEntity
8
1
62
256
6
ByLayer
370
18
48
1
60
1
100
AcDbPoint
10
22
20
-11.5
30
0
39
0
210
0
220
0
230
1
50
360
0
POINT
5
7D
100
AcDbEntity
8
1
62
256
6
ByLayer
370
18
48
1
60
1
100
AcDbPoint
10
141
20
-11.5
30
0
39
0
210
0
220
0
230
1
50
360
0
POINT
5
7E
100
AcDbEntity
8
1
62
256
6
ByLayer
370
18
48
1
60
1
100
AcDbPoint
10
140.335
20
-5.75
30
0
39
0
210
0
220
0
230
1
50
360
0
SPLINE
5
25C
100
AcDbEntity
8
SK1
62
256
6
ByLayer
370
13
48
1
60
0
100
AcDbSpline
70
4
71
3
72
8
73
4
40
0
40
0
40
0
40
0
40
1
40
1
40
1
40
1
41
1
10
-54.5162221138916
20
-6.81202898183307
30
0
41
1
10
-54.5439351414378
20
-6.87429101039413
30
0
41
1
10
-54.5718768490337
20
-6.93647114421498
30
0
41
1
10
-54.6000398733642
20
-6.99857202024091
30
0
0
SPLINE
5
25D
100
AcDbEntity
8
SK1
62
256
6
ByLayer
370
13
48
1
60
0
100
AcDbSpline
70
4
71
3
72
8
73
4
40
0
40
0
40
0
40
0
40
1
40
1
40
1
40
1
41
1
10
-55
20
-6.99857202024091
30
0
41
1
10
-55.3647894321562
20
-6.34719880823223
30
0
41
1
10
-55.7025751082723
20
-5.68271935719741
30
0
41
1
10
-56
20
-4.99865085022941
30
0
0
SPLINE
5
25E
100
AcDbEntity
8
SK1
62
256
6
ByLayer
370
13
48
1
60
0
100
AcDbSpline
70
4
71
3
72
8
73
4
40
0
40
0
40
0
40
0
40
1
40
1
40
1
40
1
41
1
10
-56
20
4.99865085022955
30
0
41
1
10
-55.7014870272612
20
5.68522191153457
30
0
41
1
10
-55.3636283470437
20
6.34927205836655
30
0
41
1
10
-55
20
6.99857202024106
30
0
0
SPLINE
5
25F
100
AcDbEntity
8
SK1
62
256
6
ByLayer
370
13
48
1
60
0
100
AcDbSpline
70
4
71
3
72
18
73
14
40
0
40
0
40
0
40
0
40
0.125
40
0.125
40
0.250000000000001
40
0.250000000000001
40
0.375000000000001
40
0.375000000000001
40
0.500000000000001
40
0.500000000000001
40
0.750000000000001
40
0.750000000000001
40
1
40
1
40
1
40
1
41
1
10
-53.6338131992802
20
-6.3403281208584
30
0
41
1
10
-53.6738141958612
20
-6.31392800758456
30
0
41
1
10
-53.7178002036947
20
-6.29177848365677
30
0
41
1
10
-53.8095125775276
20
-6.2624499739369
30
0
41
1
10
-53.8584225384109
20
-6.25510027396828
30
0
41
1
10
-53.954380672524
20
-6.25785951942993
30
0
41
1
10
-54.0027856924058
20
-6.26797384899598
30
0
41
1
10
-54.0930673480267
20
-6.30196986632177
30
0
41
1
10
-54.1359763206845
20
-6.32601182555067
30
0
41
1
10
-54.2531658331207
20
-6.40990335070128
30
0
41
1
10
-54.3191410537013
20
-6.48264182751294
30
0
41
1
10
-54.4307896521674
20
-6.63931052396157
30
0
41
1
10
-54.4773867263329
20
-6.72477868031578
30
0
41
1
10
-54.5162221138916
20
-6.81202898183304
30
0
0
SPLINE
5
260
100
AcDbEntity
8
SK1
62
256
6
ByLayer
370
13
48
1
60
0
100
AcDbSpline
70
4
71
3
72
8
73
4
40
0
40
0
40
0
40
0
40
1
40
1
40
1
40
1
41
1
10
-52.5998571439056
20
-6.99857202024091
30
0
41
1
10
-52.9479487851792
20
-6.78433420177186
30
0
41
1
10
-53.2928798234837
20
-6.56533950830294
30
0
41
1
10
-53.6338131992802
20
-6.34032812085843
30
0
0
SPLINE
5
261
100
AcDbEntity
8
SK1
62
256
6
ByLayer
370
13
48
1
60
0
100
AcDbSpline
70
4
71
3
72
71
73
67
40
0
40
0
40
0
40
0
40
0.0312500000000003
40
0.0312500000000003
40
0.0468750000000004
40
0.0468750000000004
40
0.0625000000000005
40
0.0625000000000005
40
0.0781250000000005
40
0.0781250000000005
40
0.0937500000000006
40
0.0937500000000006
40
0.125000000000001
40
0.125000000000001
40
0.140625000000001
40
0.140625000000001
40
0.156250000000001
40
0.156250000000001
40
0.187500000000001
40
0.187500000000001
40
0.218750000000001
40
0.218750000000001
40
0.250000000000001
40
0.250000000000001
40
0.312500000000001
40
0.312500000000001
40
0.375000000000002
40
0.375000000000002
40
0.406250000000002
40
0.406250000000002
40
0.437500000000002
40
0.437500000000002
40
0.500000000000002
40
0.562500000000002
40
0.562500000000002
40
0.593750000000002
40
0.593750000000002
40
0.625000000000002
40
0.625000000000002
40
0.687500000000002
40
0.687500000000002
40
0.750000000000002
40
0.750000000000002
40
0.781250000000002
40
0.781250000000002
40
0.812500000000001
40
0.812500000000001
40
0.843750000000001
40
0.843750000000001
40
0.859375000000001
40
0.859375000000001
40
0.875000000000001
40
0.875000000000001
40
0.906250000000001
40
0.906250000000001
40
0.921875000000001
40
0.921875000000001
40
0.937500000000001
40
0.937500000000001
40
0.953125
40
0.953125
40
0.96875
40
0.96875
40
0.984375
40
0.984375
40
1
40
1
40
1
40
1
41
1
10
-6.50000000009538
20
6.998572020241
30
0
41
1
10
-6.31571533004515
20
6.99857202024967
30
0
41
1
10
-6.13743573179397
20
6.97387109270571
30
0
41
1
10
-5.87807007883168
20
6.90321966844968
30
0
41
1
10
-5.79249754001009
20
6.87371201184882
30
0
41
1
10
-5.6293361169906
20
6.80569256211214
30
0
41
1
10
-5.55109427743696
20
6.76707109549224
30
0
41
1
10
-5.40055384552451
20
6.68141826816264
30
0
41
1
10
-5.32815416062539
20
6.63430399969613
30
0
41
1
10
-5.18925210594989
20
6.53244521628065
30
0
41
1
10
-5.12377844902809
20
6.47848470758717
30
0
41
1
10
-4.93748624451072
20
6.3085827822143
30
0
41
1
10
-4.8267115899061
20
6.1846770027818
30
0
41
1
10
-4.6761911608582
20
5.98533103669445
30
0
41
1
10
-4.62855056556253
20
5.91642308507087
30
0
41
1
10
-4.53922153852642
20
5.77634068999626
30
0
41
1
10
-4.49736020419419
20
5.70496414000004
30
0
41
1
10
-4.37902027112833
20
5.48717552116739
30
0
41
1
10
-4.30973548429904
20
5.33712034908373
30
0
41
1
10
-4.18597550641348
20
5.02855833309758
30
0
41
1
10
-4.13152858900258
20
4.87004242457732
30
0
41
1
10
-4.03445407647325
20
4.54538526361949
30
0
41
1
10
-3.99218870828807
20
4.38036541349672
30
0
41
1
10
-3.8806630298719
20
3.8815043831257
30
0
41
1
10
-3.82597090267365
20
3.54235643247728
30
0
41
1
10
-3.74047959020675
20
2.85273429591121
30
0
41
1
10
-3.70981920131712
20
2.50224542423098
30
0
41
1
10
-3.67535340381019
20
1.96866904162033
30
0
41
1
10
-3.66582822790039
20
1.78937635765021
30
0
41
1
10
-3.65011537208733
20
1.4316899722499
30
0
41
1
10
-3.64389707389739
20
1.25286356942047
30
0
41
1
10
-3.62929622079273
20
0.716432949039586
30
0
41
1
10
-3.62042488526302
20
0.0013212454733491
30
0
41
1
10
-3.62924953065914
20
-0.713539660438329
30
0
41
1
10
-3.64379211765163
20
-1.24958871665936
30
0
41
1
10
-3.64998697783565
20
-1.42825557634492
30
0
41
1
10
-3.66563837164477
20
-1.78555583380015
30
0
41
1
10
-3.67511786137808
20
-1.96455406997464
30
0
41
1
10
-3.70953832715443
20
-2.49881887149942
30
0
41
1
10
-3.74017720125841
20
-2.84981522124173
30
0
41
1
10
-3.82568979373829
20
-3.54056541591115
30
0
41
1
10
-3.88042216361382
20
-3.88033387025806
30
0
41
1
10
-3.99214803643076
20
-4.3802299370825
30
0
41
1
10
-4.03457139272209
20
-4.54577117988887
30
0
41
1
10
-4.13137165046336
20
-4.86952399241147
30
0
41
1
10
-4.18572933619737
20
-5.02789660502796
30
0
41
1
10
-4.30959364920602
20
-5.33681454089182
30
0
41
1
10
-4.37906730976638
20
-5.48736926922894
30
0
41
1
10
-4.49817195127201
20
-5.70640389482426
30
0
41
1
10
-4.54042880204571
20
-5.77832989383157
30
0
41
1
10
-4.62961647910464
20
-5.917996111653
30
0
41
1
10
-4.67665158712001
20
-5.98594616406356
30
0
41
1
10
-4.82600204453692
20
-6.18372658725997
30
0
41
1
10
-4.9364153318723
20
-6.30756945151506
30
0
41
1
10
-5.12387444002081
20
-6.47859050811525
30
0
41
1
10
-5.18982034314945
20
-6.53284983481481
30
0
41
1
10
-5.32716069139138
20
-6.63358751533818
30
0
41
1
10
-5.39883736540122
20
-6.68033932325883
30
0
41
1
10
-5.54894893429449
20
-6.76595018463183
30
0
41
1
10
-5.62776164553696
20
-6.80497288448146
30
0
41
1
10
-5.79153203652811
20
-6.87337183942776
30
0
41
1
10
-5.87542610285047
20
-6.90235315140345
30
0
41
1
10
-6.04744974985599
20
-6.94949997275469
30
0
41
1
10
-6.13557688289623
20
-6.9676718536326
30
0
41
1
10
-6.31646604914351
20
-6.99230795215647
30
0
41
1
10
-6.40810473763941
20
-6.99857202024529
30
0
41
1
10
-6.50000000009538
20
-6.99857202024097
30
0
0
SPLINE
5
262
100
AcDbEntity
8
SK1
62
256
6
ByLayer
370
13
48
1
60
0
100
AcDbSpline
70
4
71
3
72
8
73
4
40
0
40
0
40
0
40
0
40
1
40
1
40
1
40
1
41
1
10
-54.6000398733642
20
6.99857202024106
30
0
41
1
10
-54.571876118047
20
6.93646953235279
30
0
41
1
10
-54.5439344142792
20
6.87428937670879
30
0
41
1
10
-54.5162221138915
20
6.81202898183318
30
0
0
SPLINE
5
263
100
AcDbEntity
8
1
62
256
6
ByLayer
370
13
48
1
60
0
100
AcDbSpline
70
4
71
3
72
22
73
18
40
0
40
0
40
0
40
0
40
0.124999999999973
40
0.124999999999973
40
0.249999999999947
40
0.249999999999947
40
0.37499999999992
40
0.37499999999992
40
0.499999999999893
40
0.499999999999893
40
0.624999999999867
40
0.624999999999867
40
0.687499999999889
40
0.687499999999889
40
0.749999999999911
40
0.749999999999911
40
1
40
1
40
1
40
1
41
1
10
130.256511570416
20
3.43518661422189
30
0
41
1
10
130.263398926149
20
3.38791699192086
30
0
41
1
10
130.275659041467
20
3.34223289242044
30
0
41
1
10
130.311936427373
20
3.25433427687381
30
0
41
1
10
130.335620750674
20
3.21297329148012
30
0
41
1
10
130.391153325168
20
3.1370030164839
30
0
41
1
10
130.424115049618
20
3.10191763949209
30
0
41
1
10
130.496221363403
20
3.04119250873643
30
0
41
1
10
130.535327524997
20
3.0150809053977
30
0
41
1
10
130.620386466747
20
2.97239083687538
30
0
41
1
10
130.664793362829
20
2.95634751961916
30
0
41
1
10
130.733414848642
20
2.9399534527262
30
0
41
1
10
130.756683440658
20
2.93578924988856
30
0
41
1
10
130.803979237987
20
2.93024270669966
30
0
41
1
10
130.827645346377
20
2.92907815898118
30
0
41
1
10
130.946021225664
20
2.92726071176296
30
0
41
1
10
131.040740187458
20
2.92741977474924
30
0
41
1
10
131.135474549297
20
2.92893934263776
30
0
0
SPLINE
5
264
100
AcDbEntity
8
1
62
256
6
ByLayer
370
13
48
1
60
0
100
AcDbSpline
70
4
71
1
72
4
73
2
40
0
40
0
40
1
40
1
41
1
10
130.391050390156
20
11.0443050587253
30
0
41
1
10
130.545137384679
20
10.8686016463517
30
0
0
SPLINE
5
265
100
AcDbEntity
8
1
62
256
6
ByLayer
370
13
48
1
60
0
100
AcDbSpline
70
4
71
3
72
24
73
20
40
0
40
0
40
0
40
0
40
0.25000000000003
40
0.25000000000003
40
0.50000000000006
40
0.50000000000006
40
0.625000000000147
40
0.625000000000147
40
0.750000000000235
40
0.750000000000235
40
0.812500000000278
40
0.812500000000278
40
0.843750000000232
40
0.843750000000232
40
0.875000000000186
40
0.875000000000186
40
0.937500000000093
40
0.937500000000093
40
1
40
1
40
1
40
1
41
1
10
140.36622465611
20
3.66999560581351
30
0
41
1
10
140.341106539162
20
3.65607796883845
30
0
41
1
10
140.312973409144
20
3.64199682159722
30
0
41
1
10
140.247889658838
20
3.61506694427564
30
0
41
1
10
140.210759638416
20
3.60199991265807
30
0
41
1
10
140.146802947533
20
3.5860855751587
30
0
41
1
10
140.124436736722
20
3.58165932211202
30
0
41
1
10
140.080369925635
20
3.57579689027477
30
0
41
1
10
140.059160124721
20
3.57436124962001
30
0
41
1
10
140.028778787324
20
3.57315219508232
30
0
41
1
10
140.019071222448
20
3.57306822604298
30
0
41
1
10
140.00409538145
20
3.57262518759595
30
0
41
1
10
139.998947574933
20
3.57234363269023
30
0
41
1
10
139.988235215505
20
3.57142255852452
30
0
41
1
10
139.982721466085
20
3.57082667698543
30
0
41
1
10
139.966911036118
20
3.56966676854788
30
0
41
1
10
139.956805563675
20
3.56926697980484
30
0
41
1
10
139.936377838474
20
3.56828119892759
30
0
41
1
10
139.926185768187
20
3.56780702699101
30
0
41
1
10
139.916103334469
20
3.5674270273592
30
0
0
SPLINE
5
266
100
AcDbEntity
8
1
62
256
6
ByLayer
370
13
48
1
60
0
100
AcDbSpline
70
4
71
3
72
18
73
14
40
0
40
0
40
0
40
0
40
0.125000000000004
40
0.125000000000004
40
0.187500000000017
40
0.187500000000017
40
0.218750000000023
40
0.218750000000023
40
0.250000000000029
40
0.250000000000029
40
0.500000000000012
40
0.500000000000012
40
1
40
1
40
1
40
1
41
1
10
138.789389639248
20
10.6693262020079
30
0
41
1
10
138.661570976162
20
10.5805560294988
30
0
41
1
10
138.52414159886
20
10.5124675607707
30
0
41
1
10
138.30393894237
20
10.4405881352772
30
0
41
1
10
138.22820305529
20
10.4218436072407
30
0
41
1
10
138.114993123778
20
10.4024023642896
30
0
41
1
10
138.077156366431
20
10.397328570485
30
0
41
1
10
138.001285089723
20
10.3899595899502
30
0
41
1
10
137.963219598222
20
10.3880995697157
30
0
41
1
10
137.620708594002
20
10.3702575765457
30
0
41
1
10
137.316268804196
20
10.3541951952124
30
0
41
1
10
136.402926594832
20
10.3063289582942
30
0
41
1
10
135.794031788589
20
10.274418133682
30
0
41
1
10
135.185136982347
20
10.2425073090699
30
0
0
SPLINE
5
267
100
AcDbEntity
8
1
62
256
6
ByLayer
370
13
48
1
60
0
100
AcDbSpline
70
4
71
3
72
11
73
7
40
0
40
0
40
0
40
0
40
0.25
40
0.5
40
0.75
40
1
40
1
40
1
40
1
41
1
10
131.135474549297
20
2.92893934263776
30
0
41
1
10
131.148672622227
20
2.92915731962967
30
0
41
1
10
131.175064653115
20
2.92985395815322
30
0
41
1
10
131.214622601839
20
2.93168540851755
30
0
41
1
10
131.254185159018
20
2.93339010234604
30
0
41
1
10
131.280559685006
20
2.9345406489544
30
0
41
1
10
131.293746948121
20
2.93511592226383
30
0
0
SPLINE
5
268
100
AcDbEntity
8
1
62
256
6
ByLayer
370
13
48
1
60
0
100
AcDbSpline
70
4
71
3
72
18
73
14
40
0
40
0
40
0
40
0
40
0.124999999999981
40
0.124999999999981
40
0.187499999999971
40
0.187499999999971
40
0.218749999999977
40
0.218749999999977
40
0.249999999999984
40
0.249999999999984
40
0.499999999999989
40
0.499999999999989
40
1
40
1
40
1
40
1
41
1
10
131.896993501152
20
3.78396602621424
30
0
41
1
10
132.024812164238
20
3.87273619872335
30
0
41
1
10
132.16224154154
20
3.94082466745147
30
0
41
1
10
132.38244419803
20
4.01270409294489
30
0
41
1
10
132.45818008511
20
4.03144862098148
30
0
41
1
10
132.571390016622
20
4.0508898639325
30
0
41
1
10
132.609226773969
20
4.05596365773718
30
0
41
1
10
132.685098050678
20
4.0633326382719
30
0
41
1
10
132.723163542178
20
4.06519265850645
30
0
41
1
10
133.065674546398
20
4.08303465167651
30
0
41
1
10
133.370114336205
20
4.09909703300974
30
0
41
1
10
134.283456545568
20
4.14696326992797
30
0
41
1
10
134.892351351811
20
4.17887409454011
30
0
41
1
10
135.501246158054
20
4.21078491915225
30
0
0
SPLINE
5
269
100
AcDbEntity
8
1
62
256
6
ByLayer
370
13
48
1
60
0
100
AcDbSpline
70
4
71
3
72
8
73
4
40
0
40
0
40
0
40
0
40
1
40
1
40
1
40
1
41
1
10
129.595103169658
20
6.81114314999974
30
0
41
1
10
129.597051914946
20
6.79764543841375
30
0
41
1
10
129.59943618867
20
6.78281130637907
30
0
41
1
10
129.602593248112
20
6.76595234868009
30
0
0
SPLINE
5
26A
100
AcDbEntity
8
1
62
256
6
ByLayer
370
13
48
1
60
0
100
AcDbSpline
70
4
71
2
72
6
73
3
40
0
40
0
40
0
40
1
40
1
40
1
41
0.999764304478482
10
129.597750375058
20
6.92554030008084
30
0
41
0.997533251691869
10
129.592938776071
20
6.88671064725143
30
0
41
1
10
129.593457554335
20
6.84758256974879
30
0
0
SPLINE
5
26B
100
AcDbEntity
8
1
62
256
6
ByLayer
370
13
48
1
60
0
100
AcDbSpline
70
4
71
3
72
14
73
10
40
0
40
0
40
0
40
0
40
0.248695977282444
40
0.248695977282444
40
0.496731428084413
40
0.496731428084413
40
0.748365550121191
40
0.748365550121191
40
1
40
1
40
1
40
1
41
1
10
130.545137384679
20
10.8686016463517
30
0
41
1
10
130.5589690821
20
10.8692006985441
30
0
41
1
10
130.572616629808
20
10.8695345819002
30
0
41
1
10
130.599321187017
20
10.8697330853743
30
0
41
1
10
130.612446259254
20
10.8696420145579
30
0
41
1
10
130.639006013946
20
10.8695664620818
30
0
41
1
10
130.652418249755
20
10.8695588436427
30
0
41
1
10
130.679225535558
20
10.8695294397209
30
0
41
1
10
130.692622704389
20
10.8695093030168
30
0
41
1
10
130.706019856657
20
10.8694891580825
30
0
0
SPLINE
5
26C
100
AcDbEntity
8
1
62
256
6
ByLayer
370
13
48
1
60
0
100
AcDbSpline
70
4
71
3
72
11
73
7
40
0
40
0
40
0
40
0
40
0.25
40
0.5
40
0.75
40
1
40
1
40
1
40
1
41
1
10
139.537071991588
20
11.523627740131
30
0
41
1
10
139.523873918658
20
11.5234097631391
30
0
41
1
10
139.49748188777
20
11.5227131246155
30
0
41
1
10
139.457923939046
20
11.5208816742512
30
0
41
1
10
139.418361381867
20
11.5191769804227
30
0
41
1
10
139.391986855879
20
11.5180264338143
30
0
41
1
10
139.378799592764
20
11.5174511605049
30
0
0
SPLINE
5
26D
100
AcDbEntity
8
1
62
256
6
ByLayer
370
13
48
1
60
0
100
AcDbSpline
70
4
71
1
72
4
73
2
40
0
40
0
40
1
40
1
41
1
10
129.72764025445
20
6.9417016750146
30
0
41
1
10
129.598245351682
20
6.92942573599214
30
0
0
SPLINE
5
26E
100
AcDbEntity
8
1
62
256
6
ByLayer
370
13
48
1
60
0
100
AcDbSpline
70
4
71
3
72
16
73
12
40
0
40
0
40
0
40
0
40
0.5
40
0.5
40
0.750000000000012
40
0.750000000000012
40
0.812500000000009
40
0.812500000000009
40
0.875000000000006
40
0.875000000000006
40
1
40
1
40
1
40
1
41
1
10
135.498253055015
20
4.1355251313189
30
0
41
1
10
136.051353038263
20
4.16451187316244
30
0
41
1
10
136.604454189791
20
4.19347632066069
30
0
41
1
10
137.434103948453
20
4.23696055937768
30
0
41
1
10
137.710651523908
20
4.25151505897594
30
0
41
1
10
138.056339565016
20
4.2696032005814
30
0
41
1
10
138.125478070481
20
4.27319324705002
30
0
41
1
10
138.263752656922
20
4.28044787035989
30
0
41
1
10
138.332864016406
20
4.28487240158418
30
0
41
1
10
138.540822575795
20
4.27894905368672
30
0
41
1
10
138.680097594131
20
4.25646317626234
30
0
41
1
10
138.817807446816
20
4.21267740114024
30
0
0
SPLINE
5
26F
100
AcDbEntity
8
1
62
256
6
ByLayer
370
13
48
1
60
0
100
AcDbSpline
70
4
71
2
72
6
73
3
40
0
40
0
40
0
40
1
40
1
40
1
41
0.999764304477957
10
129.597750375057
20
6.92554030007296
30
0
41
0.997533251692159
10
129.588906330575
20
6.96365429094905
30
0
41
1
10
129.585332269106
20
7.00262224783916
30
0
0
SPLINE
5
270
100
AcDbEntity
8
1
62
256
6
ByLayer
370
13
48
1
60
0
100
AcDbSpline
70
4
71
3
72
20
73
16
40
0
40
0
40
0
40
0
40
0.0625000000000043
40
0.0625000000000043
40
0.125000000000009
40
0.125000000000009
40
0.187500000000013
40
0.187500000000013
40
0.218750000000015
40
0.218750000000015
40
0.250000000000017
40
0.250000000000017
40
0.500000000000012
40
0.500000000000012
40
1
40
1
40
1
40
1
41
1
10
138.739975553844
20
10.7306554301054
30
0
41
1
10
138.678039010105
20
10.6876404466935
30
0
41
1
10
138.613364004756
20
10.6495715430775
30
0
41
1
10
138.478607896873
20
10.5831979728096
30
0
41
1
10
138.407992897638
20
10.5547399853538
30
0
41
1
10
138.263683918425
20
10.5088974443858
30
0
41
1
10
138.190555287921
20
10.491532160809
30
0
41
1
10
138.079414817502
20
10.4737401541669
30
0
41
1
10
138.042122056277
20
10.4692121847664
30
0
41
1
10
137.967046038622
20
10.4629537724246
30
0
41
1
10
137.929224849827
20
10.4614396757288
30
0
41
1
10
137.589574456435
20
10.443590491056
30
0
41
1
10
137.287665845347
20
10.4277991036081
30
0
41
1
10
136.381934834144
20
10.3803317526831
30
0
41
1
10
135.778114160006
20
10.3486868520664
30
0
41
1
10
135.174293485871
20
10.3170419514498
30
0
0
SPLINE
5
271
100
AcDbEntity
8
1
62
256
6
ByLayer
370
13
48
1
60
0
100
AcDbSpline
70
4
71
3
72
10
73
6
40
0
40
0
40
0
40
0
40
0.5
40
0.5
40
1
40
1
40
1
40
1
41
1
10
138.869292869701
20
10.8614606560661
30
0
41
1
10
138.865612288149
20
10.8612677649605
30
0
41
1
10
138.875067467609
20
10.8505726801743
30
0
41
1
10
138.914191285962
20
10.8154311904076
30
0
41
1
10
138.943896260584
20
10.7910890515655
30
0
41
1
10
138.97517250595
20
10.7672527417793
30
0
0
SPLINE
5
272
100
AcDbEntity
8
1
62
256
6
ByLayer
370
13
48
1
60
0
100
AcDbSpline
70
4
71
3
72
14
73
10
40
0
40
0
40
0
40
0
40
0.248695977282436
40
0.248695977282436
40
0.496731428084318
40
0.496731428084318
40
0.748365550121194
40
0.748365550121194
40
1
40
1
40
1
40
1
41
1
10
139.766856763138
20
3.56506968618117
30
0
41
1
10
139.753934710784
20
3.5645183064666
30
0
41
1
10
139.741343429005
20
3.56423977966216
30
0
41
1
10
139.716986396237
20
3.56416430473084
30
0
41
1
10
139.705131531821
20
3.56432194431841
30
0
41
1
10
139.68107504669
20
3.56452868759314
30
0
41
1
10
139.668908075707
20
3.56460156759635
30
0
41
1
10
139.644598473404
20
3.56476186956374
30
0
41
1
10
139.632452901655
20
3.56484759969155
30
0
41
1
10
139.620307350017
20
3.56493333823536
30
0
0
SPLINE
5
273
100
AcDbEntity
8
1
62
256
6
ByLayer
370
13
48
1
60
0
100
AcDbSpline
70
4
71
1
72
4
73
2
40
0
40
0
40
1
40
1
41
1
10
130.256511570416
20
3.43518661422189
30
0
41
1
10
130.226480391294
20
3.43434356882631
30
0
0
SPLINE
5
274
100
AcDbEntity
8
1
62
256
6
ByLayer
370
13
48
1
60
0
100
AcDbSpline
70
4
71
3
72
16
73
12
40
0
40
0
40
0
40
0
40
0.5
40
0.5
40
0.750000000000012
40
0.750000000000012
40
0.812500000000009
40
0.812500000000009
40
0.875000000000006
40
0.875000000000006
40
1
40
1
40
1
40
1
41
1
10
135.174293485871
20
10.3170419514498
30
0
41
1
10
134.621193502622
20
10.2880552096063
30
0
41
1
10
134.068092351094
20
10.259090762108
30
0
41
1
10
133.238442592432
20
10.2156065233911
30
0
41
1
10
132.961895016978
20
10.2010520237928
30
0
41
1
10
132.616206975869
20
10.1829638821873
30
0
41
1
10
132.547068470404
20
10.1793738357187
30
0
41
1
10
132.408793883963
20
10.1721192124088
30
0
41
1
10
132.339682524479
20
10.1676946811845
30
0
41
1
10
132.13172396509
20
10.173618029082
30
0
41
1
10
131.992448946754
20
10.1961039065063
30
0
41
1
10
131.854739094069
20
10.2398896816285
30
0
0
SPLINE
5
275
100
AcDbEntity
8
1
62
256
6
ByLayer
370
13
48
1
60
0
100
AcDbSpline
70
4
71
3
72
10
73
6
40
0
40
0
40
0
40
0
40
0.5
40
0.5
40
1
40
1
40
1
40
1
41
1
10
131.794029271508
20
3.59062299640038
30
0
41
1
10
131.790348689956
20
3.59043010529481
30
0
41
1
10
131.773695239368
20
3.60074794467647
30
0
41
1
10
131.724393777188
20
3.63535604673191
30
0
41
1
10
131.691752681594
20
3.6595443099942
30
0
41
1
10
131.660476436228
20
3.68338061978031
30
0
0
SPLINE
5
276
100
AcDbEntity
8
1
62
256
6
ByLayer
370
13
48
1
60
0
100
AcDbSpline
70
4
71
3
72
18
73
14
40
0
40
0
40
0
40
0
40
0.500000000000062
40
0.500000000000062
40
0.750000000000105
40
0.750000000000105
40
0.812500000000115
40
0.812500000000115
40
0.843750000000109
40
0.843750000000109
40
0.875000000000102
40
0.875000000000102
40
1
40
1
40
1
40
1
41
1
10
135.501246158054
20
4.21078491915219
30
0
41
1
10
136.060893797525
20
4.24011480911784
30
0
41
1
10
136.62054267843
20
4.26942095251306
30
0
41
1
10
137.460013800468
20
4.31342227857383
30
0
41
1
10
137.739834100013
20
4.3281546433258
30
0
41
1
10
138.089616030132
20
4.34644456423695
30
0
41
1
10
138.159574407903
20
4.3500644083845
30
0
41
1
10
138.264505991799
20
4.35560873867479
30
0
41
1
10
138.299518911794
20
4.35776139629974
30
0
41
1
10
138.369458355401
20
4.3592791952014
30
0
41
1
10
138.404255551088
20
4.35878961987981
30
0
41
1
10
138.577480023022
20
4.3508311477427
30
0
41
1
10
138.71364840489
20
4.32701589891809
30
0
41
1
10
138.847238102077
20
4.28454015498551
30
0
0
SPLINE
5
277
100
AcDbEntity
8
1
62
256
6
ByLayer
370
13
48
1
60
0
100
AcDbSpline
70
4
71
2
72
6
73
3
40
0
40
0
40
0
40
1
40
1
40
1
41
0.998720635644485
10
129.595103169658
20
6.8111431499998
30
0
41
0.998848208416424
10
129.593699467063
20
6.82933666269836
30
0
41
1
10
129.593457554335
20
6.84758256974879
30
0
0
SPLINE
5
278
100
AcDbEntity
8
1
62
256
6
ByLayer
370
13
48
1
60
0
100
AcDbSpline
70
4
71
3
72
8
73
4
40
0
40
0
40
0
40
0
40
1
40
1
40
1
40
1
41
1
10
139.68643236679
20
11.5248406726323
30
0
41
1
10
139.63665027932
20
11.5248519562954
30
0
41
1
10
139.58686324718
20
11.524426406968
30
0
41
1
10
139.537071991588
20
11.523627740131
30
0
0
SPLINE
5
279
100
AcDbEntity
8
1
62
256
6
ByLayer
370
13
48
1
60
0
100
AcDbSpline
70
4
71
3
72
10
73
6
40
0
40
0
40
0
40
0
40
0.5
40
0.5
40
1
40
1
40
1
40
1
41
1
10
131.826043234859
20
3.68085556660495
30
0
41
1
10
131.8223610763
20
3.68066259285189
30
0
41
1
10
131.801991009857
20
3.68086861206712
30
0
41
1
10
131.740644021774
20
3.68184690786475
30
0
41
1
10
131.699738376685
20
3.68260613173996
30
0
41
1
10
131.660476436228
20
3.68338061978031
30
0
0
SPLINE
5
27A
100
AcDbEntity
8
1
62
256
6
ByLayer
370
13
48
1
60
0
100
AcDbSpline
70
4
71
1
72
4
73
2
40
0
40
0
40
1
40
1
41
1
10
129.593457554335
20
6.84758256974879
30
0
41
1
10
129.722599495106
20
6.85553434688649
30
0
0
SPLINE
5
27B
100
AcDbEntity
8
1
62
256
6
ByLayer
370
13
48
1
60
0
100
AcDbSpline
70
4
71
3
72
11
73
7
40
0
40
0
40
0
40
0
40
0.25
40
0.5
40
0.75
40
1
40
1
40
1
40
1
41
1
10
130.391050390156
20
11.0443050587253
30
0
41
1
10
130.404198947462
20
11.0454678501156
30
0
41
1
10
130.430519218597
20
11.047533746282
30
0
41
1
10
130.470051903431
20
11.0498472603845
30
0
41
1
10
130.509575921809
20
11.052287318352
30
0
41
1
10
130.535926230253
20
11.0538999632293
30
0
41
1
10
130.549101384596
20
11.0547062856754
30
0
0
SPLINE
5
27C
100
AcDbEntity
8
1
62
256
6
ByLayer
370
13
48
1
60
0
100
AcDbSpline
70
4
71
2
72
6
73
3
40
0
40
0
40
0
40
1
40
1
40
1
41
0.998720635644485
10
129.583159913027
20
7.03903406227486
30
0
41
0.998848208416424
10
129.583665639986
20
7.0207934886674
30
0
41
1
10
129.585332269106
20
7.00262224783916
30
0
0
SPLINE
5
27D
100
AcDbEntity
8
1
62
256
6
ByLayer
370
13
48
1
60
0
100
AcDbSpline
70
4
71
2
72
6
73
3
40
0
40
0
40
0
40
1
40
1
40
1
41
1
10
129.722599495106
20
6.85553434688649
30
0
41
0.997409491337352
10
129.723173157089
20
6.81226674661921
30
0
41
1
10
129.729923029172
20
6.76952679326513
30
0
0
SPLINE
5
27E
100
AcDbEntity
8
1
62
256
6
ByLayer
370
13
48
1
60
0
100
AcDbSpline
70
4
71
2
72
6
73
3
40
0
40
0
40
0
40
1
40
1
40
1
41
1
10
129.598245351682
20
6.92942573599214
30
0
41
0.999876239645482
10
129.597991214306
20
6.92748387527013
30
0
41
0.999764304478482
10
129.597750375058
20
6.92554030008081
30
0
0
SPLINE
5
27F
100
AcDbEntity
8
1
62
256
6
ByLayer
370
13
48
1
60
0
100
AcDbSpline
70
4
71
3
72
18
73
14
40
0
40
0
40
0
40
0
40
0.499999999999988
40
0.499999999999988
40
0.749999999999981
40
0.749999999999981
40
0.812499999999986
40
0.812499999999986
40
0.843749999999988
40
0.843749999999988
40
0.874999999999991
40
0.874999999999991
40
1
40
1
40
1
40
1
41
1
10
135.185136982346
20
10.2425073090699
30
0
41
1
10
134.625489342876
20
10.2131774191043
30
0
41
1
10
134.06584046197
20
10.1838712757091
30
0
41
1
10
133.226369339932
20
10.1398699496483
30
0
41
1
10
132.946549040386
20
10.1251375848964
30
0
41
1
10
132.596767110268
20
10.1068476639852
30
0
41
1
10
132.526808732497
20
10.1032278198376
30
0
41
1
10
132.421877148601
20
10.0976834895473
30
0
41
1
10
132.386864228606
20
10.0955308319224
30
0
41
1
10
132.316924784999
20
10.0940130330208
30
0
41
1
10
132.282127589312
20
10.0945026083423
30
0
41
1
10
132.108903117378
20
10.1024610804795
30
0
41
1
10
131.97273473551
20
10.126276329304
30
0
41
1
10
131.839145038323
20
10.1687520732366
30
0
0
SPLINE
5
280
100
AcDbEntity
8
1
62
256
6
ByLayer
370
13
48
1
60
0
100
AcDbSpline
70
4
71
1
72
4
73
2
40
0
40
0
40
1
40
1
41
1
10
130.706019856657
20
10.8694891580825
30
0
41
1
10
130.549101384596
20
11.0547062856754
30
0
0
SPLINE
5
281
100
AcDbEntity
8
1
62
256
6
ByLayer
370
13
48
1
60
0
100
AcDbSpline
70
4
71
1
72
4
73
2
40
0
40
0
40
1
40
1
41
1
10
129.729923029172
20
6.76952679326513
30
0
41
1
10
129.602593248112
20
6.76595234868009
30
0
0
SPLINE
5
282
100
AcDbEntity
8
1
62
256
6
ByLayer
370
13
48
1
60
0
100
AcDbSpline
70
4
71
3
72
8
73
4
40
0
40
0
40
0
40
0
40
1
40
1
40
1
40
1
41
1
10
139.916103334469
20
3.5674270273592
30
0
41
1
10
139.864692395766
20
3.56548938627714
30
0
41
1
10
139.815725959849
20
3.56526764148569
30
0
41
1
10
139.766856763138
20
3.56506968618112
30
0
0
SPLINE
5
283
100
AcDbEntity
8
1
62
256
6
ByLayer
370
13
48
1
60
0
100
AcDbSpline
70
4
71
2
72
6
73
3
40
0
40
0
40
0
40
1
40
1
40
1
41
1
10
140.94994704578
20
7.59703273588227
30
0
41
0.997409491337352
10
140.949373383796
20
7.64030033614953
30
0
41
1
10
140.942623511713
20
7.6830402895036
30
0
0
SPLINE
5
284
100
AcDbEntity
8
1
62
256
6
ByLayer
370
13
48
1
60
0
100
AcDbSpline
70
4
71
3
72
22
73
18
40
0
40
0
40
0
40
0
40
0.124999999999987
40
0.124999999999987
40
0.249999999999975
40
0.249999999999975
40
0.49999999999995
40
0.49999999999995
40
0.624999999999901
40
0.624999999999901
40
0.749999999999852
40
0.749999999999852
40
0.812499999999868
40
0.812499999999868
40
0.874999999999884
40
0.874999999999884
40
1
40
1
40
1
40
1
41
1
10
140.416034970469
20
11.0173804685468
30
0
41
1
10
140.410052592832
20
11.0584390028118
30
0
41
1
10
140.400032248452
20
11.0983059169719
30
0
41
1
10
140.371164232538
20
11.1754347658106
30
0
41
1
10
140.352196663581
20
11.2125790134767
30
0
41
1
10
140.28595784888
20
11.3157987789095
30
0
41
1
10
140.226753761221
20
11.3757339269619
30
0
41
1
10
140.125051230379
20
11.444055162465
30
0
41
1
10
140.08823136566
20
11.4635594695725
30
0
41
1
10
140.012189593635
20
11.4942611300973
30
0
41
1
10
139.973058239752
20
11.5058206545466
30
0
41
1
10
139.912604304289
20
11.5171616021956
30
0
41
1
10
139.892055384262
20
11.5198932829707
30
0
41
1
10
139.850959067383
20
11.5233817197056
30
0
41
1
10
139.830395745432
20
11.5237863295182
30
0
41
1
10
139.768699020439
20
11.5244030282287
30
0
41
1
10
139.727568065001
20
11.5248313487693
30
0
41
1
10
139.68643236679
20
11.5248406726323
30
0
0
SPLINE
5
285
100
AcDbEntity
8
1
62
256
6
ByLayer
370
13
48
1
60
0
100
AcDbSpline
70
4
71
2
72
6
73
3
40
0
40
0
40
0
40
1
40
1
40
1
41
1
10
129.722599495105
20
6.85553434688649
30
0
41
0.997409491337351
10
129.722025833122
20
6.89880194715219
30
0
41
1
10
129.72764025445
20
6.9417016750146
30
0
0
SPLINE
5
286
100
AcDbEntity
8
1
62
256
6
ByLayer
370
13
48
1
60
0
100
AcDbSpline
70
4
71
3
72
20
73
16
40
0
40
0
40
0
40
0
40
0.0625000000000056
40
0.0625000000000056
40
0.125000000000011
40
0.125000000000011
40
0.187500000000017
40
0.187500000000017
40
0.218750000000008
40
0.218750000000008
40
0.25
40
0.25
40
0.5
40
0.5
40
1
40
1
40
1
40
1
41
1
10
131.932570987042
20
3.72191165266364
30
0
41
1
10
131.994507530781
20
3.76492663607547
30
0
41
1
10
132.059182536129
20
3.80299553969155
30
0
41
1
10
132.193938644013
20
3.86936910995942
30
0
41
1
10
132.264553643248
20
3.89782709741519
30
0
41
1
10
132.408862622461
20
3.94366963838311
30
0
41
1
10
132.481991252964
20
3.96103492195988
30
0
41
1
10
132.593131723383
20
3.97882692860196
30
0
41
1
10
132.630424484609
20
3.98335489800243
30
0
41
1
10
132.705500502264
20
3.98961331034417
30
0
41
1
10
132.74332169106
20
3.99112740703993
30
0
41
1
10
133.082972084451
20
4.00897659171278
30
0
41
1
10
133.384880695539
20
4.02476797916071
30
0
41
1
10
134.290611706743
20
4.07223533008568
30
0
41
1
10
134.894432380879
20
4.10388023070232
30
0
41
1
10
135.498253055014
20
4.13552513131896
30
0
0
SPLINE
5
287
100
AcDbEntity
8
1
62
256
6
ByLayer
370
13
48
1
60
0
100
AcDbSpline
70
4
71
2
72
6
73
3
40
0
40
0
40
0
40
1
40
1
40
1
41
1
10
140.94994704578
20
7.59703273588227
30
0
41
0.997409491337351
10
140.950520707763
20
7.55376513561657
30
0
41
1
10
140.944906286435
20
7.51086540775412
30
0
0
SPLINE
5
288
100
AcDbEntity
8
SK1
62
256
6
ByLayer
370
13
48
1
60
0
100
AcDbSpline
70
4
71
3
72
18
73
14
40
0
40
0
40
0
40
0
40
0.250000000000001
40
0.250000000000001
40
0.500000000000001
40
0.500000000000001
40
0.625000000000001
40
0.625000000000001
40
0.750000000000001
40
0.750000000000001
40
0.875
40
0.875
40
1
40
1
40
1
40
1
41
1
10
-54.5162221138916
20
6.81202898183318
30
0
41
1
10
-54.4772970244431
20
6.72457714976824
30
0
41
1
10
-54.4307065013895
20
6.63918003305162
30
0
41
1
10
-54.3191104436761
20
6.48261269990277
30
0
41
1
10
-54.2534817600869
20
6.41019877906004
30
0
41
1
10
-54.136283787001
20
6.32619750079633
30
0
41
1
10
-54.0935094971742
20
6.30217611468402
30
0
41
1
10
-54.0030350925562
20
6.26802830974705
30
0
41
1
10
-53.954986307026
20
6.25793437821719
30
0
41
1
10
-53.8587999994146
20
6.25505426790869
30
0
41
1
10
-53.8097812214382
20
6.26239551321621
30
0
41
1
10
-53.7180788416409
20
6.29165811737894
30
0
41
1
10
-53.6739760596325
20
6.31382117969852
30
0
41
1
10
-53.63381319928
20
6.34032812085832
30
0
0
SPLINE
5
289
100
AcDbEntity
8
SK1
62
256
6
ByLayer
370
13
48
1
60
0
100
AcDbSpline
70
4
71
3
72
8
73
4
40
0
40
0
40
0
40
0
40
1
40
1
40
1
40
1
41
1
10
-53.6338131992802
20
6.34032812085854
30
0
41
1
10
-53.2931973263098
20
6.56512996075952
30
0
41
1
10
-52.9482491695224
20
6.7841493260708
30
0
41
1
10
-52.5998571439059
20
6.99857202024131
30
0
0
SPLINE
5
28A
100
AcDbEntity
8
1
62
256
6
ByLayer
370
13
48
1
60
0
100
AcDbSpline
70
4
71
3
72
22
73
18
40
0
40
0
40
0
40
0
40
0.125
40
0.125
40
0.25
40
0.25
40
0.375
40
0.375
40
0.5
40
0.5
40
0.625
40
0.625
40
0.75
40
0.75
40
0.875
40
0.875
40
1
40
1
40
1
40
1
41
1
10
128.221782503508
20
3.46709166573751
30
0
41
1
10
128.202078019226
20
3.43380804030997
30
0
41
1
10
128.179750023038
20
3.40153070487909
30
0
41
1
10
128.130462435739
20
3.34188866858017
30
0
41
1
10
128.103577487175
20
3.31449019955747
30
0
41
1
10
128.044364548166
20
3.26566233412933
30
0
41
1
10
128.012188355285
20
3.24452860511252
30
0
41
1
10
127.944881038649
20
3.2117903141544
30
0
41
1
10
127.908905971375
20
3.19991832073688
30
0
41
1
10
127.837358588639
20
3.18714316146304
30
0
41
1
10
127.800967333252
20
3.18599524077629
30
0
41
1
10
127.730032955804
20
3.19288676976112
30
0
41
1
10
127.695851158576
20
3.20071920983656
30
0
41
1
10
127.629276824826
20
3.22267531804243
30
0
41
1
10
127.596860290852
20
3.2368709876597
30
0
41
1
10
127.534932870022
20
3.26866084383281
30
0
41
1
10
127.505115104709
20
3.28635577142646
30
0
41
1
10
127.475950201628
20
3.30514987623212
30
0
0
SPLINE
5
28B
100
AcDbEntity
8
1
62
256
6
ByLayer
370
13
48
1
60
0
100
AcDbSpline
70
4
71
3
72
8
73
4
40
0
40
0
40
0
40
0
40
1
40
1
40
1
40
1
41
1
10
0
20
3.54400902933392
30
0
41
1
10
0.0316790368941895
20
3.68613527180352
30
0
41
1
10
0.0650361897271239
20
3.82766613327232
30
0
41
1
10
0.0999999999999943
20
3.96862696659682
30
0
0
SPLINE
5
28C
100
AcDbEntity
8
1
62
256
6
ByLayer
370
13
48
1
60
0
100
AcDbSpline
70
4
71
3
72
12
73
8
40
0
40
0
40
0
40
0
40
0.250000000000021
40
0.250000000000021
40
0.500000000000043
40
0.500000000000043
40
1
40
1
40
1
40
1
41
1
10
136.374972417837
20
3.8610328954596
30
0
41
1
10
136.428959516001
20
3.86386223938433
30
0
41
1
10
136.483529797653
20
3.86983835875861
30
0
41
1
10
136.591423002796
20
3.88801484251292
30
0
41
1
10
136.64526828365
20
3.90028092456916
30
0
41
1
10
136.804624652874
20
3.94637316501149
30
0
41
1
10
136.908568889988
20
3.98930067160282
30
0
41
1
10
137.011470784703
20
4.04698043315543
30
0
0
SPLINE
5
28D
100
AcDbEntity
8
1
62
256
6
ByLayer
370
13
48
1
60
0
100
AcDbSpline
70
4
71
3
72
16
73
12
40
0
40
0
40
0
40
0
40
0.250000000000003
40
0.250000000000003
40
0.500000000000006
40
0.500000000000006
40
0.625000000000007
40
0.625000000000007
40
0.750000000000009
40
0.750000000000009
40
1
40
1
40
1
40
1
41
1
10
129.488390766099
20
2.64039490183075
30
0
41
1
10
129.85852898668
20
2.5815180092832
30
0
41
1
10
130.222856801516
20
2.54726327961603
30
0
41
1
10
130.939272597328
20
2.52089217953332
30
0
41
1
10
131.291358183756
20
2.52883056342506
30
0
41
1
10
131.809122987847
20
2.56849685972756
30
0
41
1
10
131.98026972233
20
2.58639654012004
30
0
41
1
10
132.317290154519
20
2.63066413101831
30
0
41
1
10
132.482986340104
20
2.65698868935075
30
0
41
1
10
132.971415946289
20
2.74726426187249
30
0
41
1
10
133.285542369402
20
2.82254610971495
30
0
41
1
10
133.587048856206
20
2.90946153328824
30
0
0
SPLINE
5
28E
100
AcDbEntity
8
1
62
256
6
ByLayer
370
13
48
1
60
0
100
AcDbSpline
70
4
71
3
72
10
73
6
40
0
40
0
40
0
40
0
40
0.5
40
0.5
40
1
40
1
40
1
40
1
41
1
10
126.516861862022
20
5.28617334618838
30
0
41
1
10
126.61008209003
20
5.28878489257491
30
0
41
1
10
126.703180093425
20
5.28768732252377
30
0
41
1
10
126.8840802427
20
5.27799172861214
30
0
41
1
10
126.972346924949
20
5.26943893065376
30
0
41
1
10
127.058455138629
20
5.25713914658709
30
0
0
SPLINE
5
28F
100
AcDbEntity
8
1
62
256
6
ByLayer
370
13
48
1
60
0
100
AcDbSpline
70
4
71
3
72
8
73
4
40
0
40
0
40
0
40
0
40
1
40
1
40
1
40
1
41
1
10
128.396356155011
20
-11.144924536676
30
0
41
1
10
127.396356154624
20
-11.1068522137624
30
0
41
1
10
126.39635615462
20
-11.0687798809247
30
0
41
1
10
125.396356155011
20
-11.0307075378513
30
0
0
SPLINE
5
290
100
AcDbEntity
8
1
62
256
6
ByLayer
370
13
48
1
60
0
100
AcDbSpline
70
4
71
3
72
14
73
10
40
0
40
0
40
0
40
0
40
0.125
40
0.125
40
0.25
40
0.25
40
0.5
40
0.5
40
1
40
1
40
1
40
1
41
1
10
69.6
20
-3.82272395001735
30
0
41
1
10
67.8250009714703
20
-3.82735751705303
30
0
41
1
10
66.050006460483
20
-3.83420285775077
30
0
41
1
10
62.5000101242374
20
-3.84431930650476
30
0
41
1
10
60.7250046049635
20
-3.84681385208069
30
0
41
1
10
55.4000008912854
20
-3.84799413124361
30
0
41
1
10
51.8500092604197
20
-3.84165428731777
30
0
41
1
10
41.2000146307681
20
-3.83555974530412
30
0
41
1
10
34.1000030208847
20
-3.84537089922409
30
0
41
1
10
27
20
-3.84557313575451
30
0
0
SPLINE
5
291
100
AcDbEntity
8
1
62
256
6
ByLayer
370
13
48
1
60
0
100
AcDbSpline
70
4
71
3
72
8
73
4
40
0
40
0
40
0
40
0
40
1
40
1
40
1
40
1
41
1
10
128.382758200085
20
3.71286757784355
30
0
41
1
10
128.402003534386
20
3.77697900362989
30
0
41
1
10
128.42459468026
20
3.84152530462899
30
0
41
1
10
128.451438349501
20
3.90626292255447
30
0
0
SPLINE
5
292
100
AcDbEntity
8
1
62
256
6
ByLayer
370
13
48
1
60
0
100
AcDbSpline
70
4
71
3
72
10
73
6
40
0
40
0
40
0
40
0
40
0.5
40
0.5
40
1
40
1
40
1
40
1
41
1
10
127.064800592523
20
5.25797963829535
30
0
41
1
10
127.095983864326
20
5.26148520304113
30
0
41
1
10
127.127382074513
20
5.26402195853481
30
0
41
1
10
127.190904254856
20
5.26582419265006
30
0
41
1
10
127.223098105122
20
5.26515732085312
30
0
41
1
10
127.255223132592
20
5.26122293900136
30
0
0
SPLINE
5
293
100
AcDbEntity
8
1
62
256
6
ByLayer
370
13
48
1
60
0
100
AcDbSpline
70
4
71
3
72
10
73
6
40
0
40
0
40
0
40
0
40
0.5
40
0.5
40
1
40
1
40
1
40
1
41
1
10
123.681109338236
20
1.28153401823272
30
0
41
1
10
123.951089007088
20
1.12417432417746
30
0
41
1
10
124.228971271946
20
0.985141163578106
30
0
41
1
10
124.800596839078
20
0.744212896458777
30
0
41
1
10
125.094331780166
20
0.642297467947429
30
0
41
1
10
125.396356155011
20
0.559930564248646
30
0
0
SPLINE
5
294
100
AcDbEntity
8
1
62
256
6
ByLayer
370
13
48
1
60
0
100
AcDbSpline
70
4
71
3
72
12
73
8
40
0
40
0
40
0
40
0
40
0.5
40
0.5
40
0.75
40
0.75
40
1
40
1
40
1
40
1
41
1
10
134.05416204493
20
3.89199444944958
30
0
41
1
10
134.171846992614
20
3.84587515444613
30
0
41
1
10
134.290329051809
20
3.81460451609851
30
0
41
1
10
134.470529252351
20
3.78630768141858
30
0
41
1
10
134.531183240233
20
3.7800422517663
30
0
41
1
10
134.652137311643
20
3.77385914557115
30
0
41
1
10
134.713020817239
20
3.77393370279637
30
0
41
1
10
134.77291351275
20
3.77707254596334
30
0
0
SPLINE
5
295
100
AcDbEntity
8
1
62
256
6
ByLayer
370
13
48
1
60
0
100
AcDbSpline
70
4
71
3
72
8
73
4
40
0
40
0
40
0
40
0
40
1
40
1
40
1
40
1
41
1
10
129.775685050538
20
7.4786251411023
30
0
41
1
10
129.761696626208
20
7.44320619261845
30
0
41
1
10
129.744661485678
20
7.41110267985781
30
0
41
1
10
129.725791555743
20
7.38225927487883
30
0
0
SPLINE
5
296
100
AcDbEntity
8
1
62
256
6
ByLayer
370
13
48
1
60
0
100
AcDbSpline
70
4
71
3
72
10
73
6
40
0
40
0
40
0
40
0
40
0.5
40
0.5
40
1
40
1
40
1
40
1
41
1
10
137.011470784703
20
4.0469804331554
30
0
41
1
10
137.040783780606
20
4.06341129304147
30
0
41
1
10
137.073499002958
20
4.0772463036451
30
0
41
1
10
137.143029705995
20
4.09728991657286
30
0
41
1
10
137.179191523537
20
4.10343428735638
30
0
41
1
10
137.216721994913
20
4.10542155432196
30
0
0
SPLINE
5
297
100
AcDbEntity
8
1
62
256
6
ByLayer
370
13
48
1
60
0
100
AcDbSpline
70
4
71
3
72
8
73
4
40
0
40
0
40
0
40
0
40
1
40
1
40
1
40
1
41
1
10
127.064800592508
20
5.2579796383479
30
0
41
1
10
127.062692675112
20
5.25768111951263
30
0
41
1
10
127.060577512477
20
5.25740102469649
30
0
41
1
10
127.058455138629
20
5.25713914658732
30
0
0
SPLINE
5
298
100
AcDbEntity
8
1
62
256
6
ByLayer
370
13
48
1
60
0
100
AcDbSpline
70
4
71
3
72
18
73
14
40
0
40
0
40
0
40
0
40
0.249999999999998
40
0.249999999999998
40
0.374999999999997
40
0.374999999999997
40
0.499999999999997
40
0.499999999999997
40
0.749999999999997
40
0.749999999999997
40
0.874999999999999
40
0.874999999999999
40
1
40
1
40
1
40
1
41
1
10
6.62547704516729
20
-11.8892995998294
30
0
41
1
10
6.55317911338568
20
-12.031308615742
30
0
41
1
10
6.49731803516983
20
-12.1714668487025
30
0
41
1
10
6.44012984991181
20
-12.3787068782036
30
0
41
1
10
6.42548985818095
20
-12.4476594611522
30
0
41
1
10
6.40609968986777
20
-12.5823475515474
30
0
41
1
10
6.40129681894507
20
-12.6480480886238
30
0
41
1
10
6.40152710976545
20
-12.840282310054
30
0
41
1
10
6.42031896463982
20
-12.9620971820165
30
0
41
1
10
6.47641183651484
20
-13.1353113173506
30
0
41
1
10
6.49985763619031
20
-13.191479702845
30
0
41
1
10
6.55523081319933
20
-13.2987011710841
30
0
41
1
10
6.5872265804461
20
-13.3500192249015
30
0
41
1
10
6.62343662944446
20
-13.3991139825267
30
0
0
SPLINE
5
299
100
AcDbEntity
8
1
62
256
6
ByLayer
370
13
48
1
60
0
100
AcDbSpline
70
4
71
3
72
8
73
4
40
0
40
0
40
0
40
0
40
1
40
1
40
1
40
1
41
1
10
126.785125839751
20
1.08397088486171
30
0
41
1
10
126.855332602018
20
1.06969934108642
30
0
41
1
10
126.925610209517
20
1.0561988438956
30
0
41
1
10
126.995969420755
20
1.0434911911762
30
0
0
SPLINE
5
29A
100
AcDbEntity
8
1
62
256
6
ByLayer
370
13
48
1
60
0
100
AcDbSpline
70
4
71
3
72
38
73
34
40
0
40
0
40
0
40
0
40
0.125
40
0.125
40
0.1875
40
0.1875
40
0.21875
40
0.21875
40
0.25
40
0.25
40
0.375
40
0.375
40
0.4375
40
0.4375
40
0.5
40
0.5
40
0.624999999999999
40
0.624999999999999
40
0.656249999999999
40
0.656249999999999
40
0.687499999999999
40
0.687499999999999
40
0.75
40
0.75
40
0.8125
40
0.8125
40
0.84375
40
0.84375
40
0.875
40
0.875
40
0.9375
40
0.9375
40
1
40
1
40
1
40
1
41
1
10
10.9996654670643
20
-7.10303985721811
30
0
41
1
10
10.6762813730621
20
-7.17919818899097
30
0
41
1
10
10.3590545412047
20
-7.27742214133954
30
0
41
1
10
9.89188415490381
20
-7.45619501678908
30
0
41
1
10
9.73761654987604
20
-7.52106640487636
30
0
41
1
10
9.50843107269114
20
-7.62647462599017
30
0
41
1
10
9.43240597999619
20
-7.66296370419474
30
0
41
1
10
9.2811112233106
20
-7.73871562323328
30
0
41
1
10
9.20564287742275
20
-7.77809140352264
30
0
41
1
10
8.83382235506565
20
-7.98014969327738
30
0
41
1
10
8.5523981997826
20
-8.158722538967
30
0
41
1
10
8.15520090915027
20
-8.4525547578547
30
0
41
1
10
8.02699644107798
20
-8.55486792619769
30
0
41
1
10
7.77969294887708
20
-8.76892056042669
30
0
41
1
10
7.65992217175938
20
-8.88145087229626
30
0
41
1
10
7.32352563478759
20
-9.22585727016335
30
0
41
1
10
7.12768608123136
20
-9.46568497815881
30
0
41
1
10
6.92257692120796
20
-9.77916262418498
30
0
41
1
10
6.88343062040596
20
-9.84280629936322
30
0
41
1
10
6.81031777949721
20
-9.96989437573652
30
0
41
1
10
6.77629483722782
20
-10.0333916620353
30
0
41
1
10
6.68189622123748
20
-10.2237363437289
30
0
41
1
10
6.62911025505991
20
-10.3504296506232
30
0
41
1
10
6.54433651988222
20
-10.6033096557624
30
0
41
1
10
6.51233752521762
20
-10.7294964338138
30
0
41
1
10
6.48127411372795
20
-10.9183476711876
30
0
41
1
10
6.47384508322421
20
-10.9808014543531
30
0
41
1
10
6.46495208292544
20
-11.103398583031
30
0
41
1
10
6.46341938062969
20
-11.1637541533719
30
0
41
1
10
6.46796061187371
20
-11.341953392113
30
0
41
1
10
6.48303743172892
20
-11.456955567302
30
0
41
1
10
6.53672950586909
20
-11.6794737704183
30
0
41
1
10
6.57565758748584
20
-11.7873959048813
30
0
41
1
10
6.62547704516723
20
-11.8892995998293
30
0
0
SPLINE
5
29B
100
AcDbEntity
8
1
62
256
6
ByLayer
370
13
48
1
60
0
100
AcDbSpline
70
4
71
3
72
16
73
12
40
0
40
0
40
0
40
0
40
0.124999999999998
40
0.124999999999998
40
0.249999999999996
40
0.249999999999996
40
0.499999999999998
40
0.499999999999998
40
0.749999999999999
40
0.749999999999999
40
1
40
1
40
1
40
1
41
1
10
19.8113432567066
20
-4.41332200289315
30
0
41
1
10
19.8884605349967
20
-4.36713540195856
30
0
41
1
10
19.9673084537875
20
-4.32341773730374
30
0
41
1
10
20.1285252436034
20
-4.24103981892247
30
0
41
1
10
20.2108933958422
20
-4.20241264067207
30
0
41
1
10
20.459729439007
20
-4.09579727490726
30
0
41
1
10
20.6290844692572
20
-4.03640839027997
30
0
41
1
10
20.9746126923402
20
-3.94059929747581
30
0
41
1
10
21.1507854057103
20
-3.90417758007553
30
0
41
1
10
21.5102092475557
20
-3.85515796346994
30
0
41
1
10
21.6913620539325
20
-3.84289277274976
30
0
41
1
10
21.8729836563666
20
-3.84299812041868
30
0
0
SPLINE
5
29C
100
AcDbEntity
8
1
62
256
6
ByLayer
370
13
48
1
60
0
100
AcDbSpline
70
4
71
3
72
8
73
4
40
0
40
0
40
0
40
0
40
1
40
1
40
1
40
1
41
1
10
125.908047252033
20
10.9145095856337
30
0
41
1
10
125.737517841652
20
10.922120969538
30
0
41
1
10
125.566955550908
20
10.928982086525
30
0
41
1
10
125.396356155011
20
10.9350954995795
30
0
0
SPLINE
5
29D
100
AcDbEntity
8
1
62
256
6
ByLayer
370
13
48
1
60
0
100
AcDbSpline
70
4
71
3
72
40
73
36
40
0
40
0
40
0
40
0
40
0.0624999999999933
40
0.0624999999999933
40
0.124999999999987
40
0.124999999999987
40
0.18749999999998
40
0.18749999999998
40
0.249999999999973
40
0.249999999999973
40
0.312499999999967
40
0.312499999999967
40
0.37499999999996
40
0.37499999999996
40
0.437499999999954
40
0.437499999999954
40
0.46874999999995
40
0.46874999999995
40
0.499999999999947
40
0.499999999999947
40
0.531249999999944
40
0.531249999999944
40
0.562499999999941
40
0.562499999999941
40
0.624999999999954
40
0.624999999999954
40
0.74999999999998
40
0.74999999999998
40
0.812499999999985
40
0.812499999999985
40
0.87499999999999
40
0.87499999999999
40
0.937499999999995
40
0.937499999999995
40
1
40
1
40
1
40
1
41
1
10
132.604380582877
20
3.57759263543537
30
0
41
1
10
132.573840119748
20
3.50033971216894
30
0
41
1
10
132.537626319159
20
3.42546049148021
30
0
41
1
10
132.457831792938
20
3.28679133420718
30
0
41
1
10
132.413980344441
20
3.22213241284203
30
0
41
1
10
132.318595481702
20
3.10105565669383
30
0
41
1
10
132.266935306294
20
3.04467574857716
30
0
41
1
10
132.159185942716
20
2.94279037641095
30
0
41
1
10
132.102715870431
20
2.89675282083192
30
0
41
1
10
131.984123077162
20
2.81357684239345
30
0
41
1
10
131.921771539323
20
2.77631607060206
30
0
41
1
10
131.791002500121
20
2.71109238824144
30
0
41
1
10
131.723221845052
20
2.68335037491303
30
0
41
1
10
131.579499893836
20
2.63746044382077
30
0
41
1
10
131.503111981293
20
2.61931123055615
30
0
41
1
10
131.38245032982
20
2.60122165682867
30
0
41
1
10
131.340574182328
20
2.59664611901397
30
0
41
1
10
131.256202806312
20
2.59093628874652
30
0
41
1
10
131.214081044908
20
2.58978699843095
30
0
41
1
10
131.129946329731
20
2.59069407918855
30
0
41
1
10
131.087677453693
20
2.59277453221466
30
0
41
1
10
131.004438707348
20
2.59993548607485
30
0
41
1
10
130.963761760404
20
2.60496302748186
30
0
41
1
10
130.843681330074
20
2.6240166173487
30
0
41
1
10
130.766168287733
20
2.64197511717018
30
0
41
1
10
130.537983234662
20
2.71133418338724
30
0
41
1
10
130.396919352806
20
2.77617771930295
30
0
41
1
10
130.197794291404
20
2.90377984283992
30
0
41
1
10
130.133099105123
20
2.95194737264819
30
0
41
1
10
130.011511761697
20
3.05759447130484
30
0
41
1
10
129.954487026124
20
3.11501579321003
30
0
41
1
10
129.848411922255
20
3.24020289573514
30
0
41
1
10
129.799001780423
20
3.30870610543621
30
0
41
1
10
129.712786733479
20
3.45239825421055
30
0
41
1
10
129.675541713675
20
3.52790369443378
30
0
41
1
10
129.644695544253
20
3.60754917131584
30
0
0
SPLINE
5
29E
100
AcDbEntity
8
1
62
256
6
ByLayer
370
13
48
1
60
0
100
AcDbSpline
70
4
71
3
72
8
73
4
40
0
40
0
40
0
40
0
40
1
40
1
40
1
40
1
41
1
10
22
20
11.2120600809839
30
0
41
1
10
21.9831631979406
20
11.2120600809839
30
0
41
1
10
21.9663263462285
20
11.2120977210998
30
0
41
1
10
21.9494897427832
20
11.2121730002392
30
0
0
SPLINE
5
29F
100
AcDbEntity
8
1
62
256
6
ByLayer
370
13
48
1
60
0
100
AcDbSpline
70
4
71
3
72
8
73
4
40
0
40
0
40
0
40
0
40
1
40
1
40
1
40
1
41
1
10
22.0100000000001
20
-10.6565771153435
30
0
41
1
10
21.9643278865571
20
-10.656634266429
30
0
41
1
10
21.9186557735233
20
-10.656691657513
30
0
41
1
10
21.8729836602992
20
-10.6567489369567
30
0
0
SPLINE
5
2A0
100
AcDbEntity
8
1
62
256
6
ByLayer
370
13
48
1
60
0
100
AcDbSpline
70
4
71
3
72
8
73
4
40
0
40
0
40
0
40
0
40
1
40
1
40
1
40
1
41
1
10
128.221782503507
20
3.46709166573771
30
0
41
1
10
128.275925914068
20
3.54944924083981
30
0
41
1
10
128.329473586429
20
3.63145522202862
30
0
41
1
10
128.382758200085
20
3.71286757784355
30
0
0
SPLINE
5
2A1
100
AcDbEntity
8
1
62
256
6
ByLayer
370
13
48
1
60
0
100
AcDbSpline
70
2053
71
3
72
80
73
76
40
0
40
0
40
0
40
0
40
0.031250000000019
40
0.031250000000019
40
0.0625000000000381
40
0.0625000000000381
40
0.0937500000000571
40
0.0937500000000571
40
0.109375000000067
40
0.109375000000067
40
0.125000000000076
40
0.125000000000076
40
0.156250000000089
40
0.156250000000089
40
0.187500000000101
40
0.187500000000101
40
0.218750000000113
40
0.218750000000113
40
0.250000000000126
40
0.250000000000126
40
0.281250000000138
40
0.281250000000138
40
0.31250000000015
40
0.31250000000015
40
0.343750000000163
40
0.343750000000163
40
0.375000000000175
40
0.375000000000175
40
0.406250000000188
40
0.406250000000188
40
0.42187500000019
40
0.42187500000019
40
0.437500000000192
40
0.437500000000192
40
0.468750000000196
40
0.468750000000196
40
0.500000000000201
40
0.500000000000201
40
0.531250000000205
40
0.531250000000205
40
0.546875000000203
40
0.546875000000203
40
0.5625000000002
40
0.5625000000002
40
0.593750000000187
40
0.593750000000187
40
0.625000000000173
40
0.625000000000173
40
0.656250000000159
40
0.656250000000159
40
0.687500000000146
40
0.687500000000146
40
0.718750000000132
40
0.718750000000132
40
0.750000000000119
40
0.750000000000119
40
0.781250000000105
40
0.781250000000105
40
0.796875000000099
40
0.796875000000099
40
0.812500000000093
40
0.812500000000093
40
0.843750000000077
40
0.843750000000077
40
0.875000000000062
40
0.875000000000062
40
0.906250000000047
40
0.906250000000047
40
0.921875000000039
40
0.921875000000039
40
0.937500000000031
40
0.937500000000031
40
0.968750000000015
40
0.968750000000015
40
1
40
1
40
1
40
1
41
1
10
136.36402520161
20
-0.731960342729451
30
0
41
1
10
136.455547945368
20
-0.731960342729451
30
0
41
1
10
136.545473411652
20
-0.741305262143129
30
0
41
1
10
136.72226066347
20
-0.777910051146137
30
0
41
1
10
136.810082892921
20
-0.805667419829007
30
0
41
1
10
136.976389518528
20
-0.877657408648361
30
0
41
1
10
137.055081992064
20
-0.921667330034921
30
0
41
1
10
137.166450756678
20
-0.999631411127837
30
0
41
1
10
137.202637000736
20
-1.02780013524881
30
0
41
1
10
137.271365317188
20
-1.08712553774882
30
0
41
1
10
137.304003984436
20
-1.11831562549347
30
0
41
1
10
137.396893766998
20
-1.21632182763909
30
0
41
1
10
137.452297676259
20
-1.28774614087061
30
0
41
1
10
137.548890841538
20
-1.44170173136649
30
0
41
1
10
137.588806783639
20
-1.52210585431231
30
0
41
1
10
137.652827462104
20
-1.68930356550882
30
0
41
1
10
137.677023776903
20
-1.77704047609467
30
0
41
1
10
137.708005269029
20
-1.9531823337945
30
0
41
1
10
137.715063712818
20
-2.04172333833918
30
0
41
1
10
137.712743057727
20
-2.21969509976432
30
0
41
1
10
137.703136188407
20
-2.3092796934655
30
0
41
1
10
137.668268000239
20
-2.48241258452211
30
0
41
1
10
137.643054868552
20
-2.56687058756197
30
0
41
1
10
137.576755150487
20
-2.73155290167912
30
0
41
1
10
137.535939487206
20
-2.81073238723855
30
0
41
1
10
137.44124572011
20
-2.95892710077146
30
0
41
1
10
137.387125243097
20
-3.0285974182008
30
0
41
1
10
137.264257152779
20
-3.15854820859283
30
0
41
1
10
137.19722144369
20
-3.21694776665387
30
0
41
1
10
137.088976662245
20
-3.29409729502589
30
0
41
1
10
137.051565452194
20
-3.31810028170574
30
0
41
1
10
136.973962474122
20
-3.36254656568352
30
0
41
1
10
136.933522477378
20
-3.38309623349764
30
0
41
1
10
136.809591399523
20
-3.43820874959232
30
0
41
1
10
136.724324287765
20
-3.46607461664726
30
0
41
1
10
136.548443482261
20
-3.50401014789753
30
0
41
1
10
136.45661577974
20
-3.51397105971733
30
0
41
1
10
136.275485945735
20
-3.51425575552293
30
0
41
1
10
136.18573300029
20
-3.50494490451595
30
0
41
1
10
136.052323981751
20
-3.47673366897408
30
0
41
1
10
136.008099002211
20
-3.46490819692505
30
0
41
1
10
135.922178024138
20
-3.43709432115549
30
0
41
1
10
135.880203156187
20
-3.42105502123459
30
0
41
1
10
135.757133565464
20
-3.36673273989845
30
0
41
1
10
135.678110086208
20
-3.32169872288048
30
0
41
1
10
135.532253089774
20
-3.21817727593265
30
0
41
1
10
135.465311692592
20
-3.15991897485006
30
0
41
1
10
135.342829681546
20
-3.03084044293854
30
0
41
1
10
135.287660791957
20
-2.96012369131
30
0
41
1
10
135.192581997535
20
-2.81161084865548
30
0
41
1
10
135.152052573498
20
-2.73320162833679
30
0
41
1
10
135.085274964823
20
-2.56779346911733
30
0
41
1
10
135.059973532337
20
-2.48310418517772
30
0
41
1
10
135.025049833603
20
-2.31020811231849
30
0
41
1
10
135.015401532938
20
-2.22130172245676
30
0
41
1
10
135.012923859718
20
-2.04244871643093
30
0
41
1
10
135.019992679919
20
-1.95392250677739
30
0
41
1
10
135.042993410764
20
-1.82249594695551
30
0
41
1
10
135.052740199768
20
-1.77891599642021
30
0
41
1
10
135.076556061107
20
-1.69223876432173
30
0
41
1
10
135.090700482901
20
-1.64900680071989
30
0
41
1
10
135.138838026861
20
-1.52292129439235
30
0
41
1
10
135.178668901504
20
-1.44275063352572
30
0
41
1
10
135.273966360669
20
-1.29033278430228
30
0
41
1
10
135.330157371283
20
-1.21750862731437
30
0
41
1
10
135.454137110704
20
-1.08643701164485
30
0
41
1
10
135.522182410224
20
-1.02745872534027
30
0
41
1
10
135.633572295978
20
-0.94913542612008
30
0
41
1
10
135.672448907161
20
-0.924652758039997
30
0
41
1
10
135.751661044694
20
-0.880243580112648
30
0
41
1
10
135.792161742258
20
-0.8601774335051
30
0
41
1
10
135.916300040616
20
-0.806287909977613
30
0
41
1
10
136.002934382334
20
-0.778628645043966
30
0
41
1
10
136.181908714145
20
-0.741318739528992
30
0
41
1
10
136.272502457851
20
-0.731960342729451
30
0
41
1
10
136.36402520161
20
-0.731960342729451
30
0
0
SPLINE
5
2A2
100
AcDbEntity
8
1
62
256
6
ByLayer
370
13
48
1
60
0
100
AcDbSpline
70
4
71
3
72
8
73
4
40
0
40
0
40
0
40
0
40
1
40
1
40
1
40
1
41
1
10
125.647590309239
20
10.4213403623757
30
0
41
1
10
125.736273050932
20
10.5847340055544
30
0
41
1
10
125.823036834043
20
10.7491532474396
30
0
41
1
10
125.908047252033
20
10.9145095856332
30
0
0
SPLINE
5
2A3
100
AcDbEntity
8
1
62
256
6
ByLayer
370
13
48
1
60
0
100
AcDbSpline
70
4
71
3
72
8
73
4
40
0
40
0
40
0
40
0
40
1
40
1
40
1
40
1
41
1
10
27
20
-11.1847915786155
30
0
41
1
10
25.333332872127
20
-11.1847721586792
30
0
41
1
10
23.6666661286625
20
-11.1847089550176
30
0
41
1
10
22
20
-11.1845749488469
30
0
0
SPLINE
5
2A4
100
AcDbEntity
8
1
62
256
6
ByLayer
370
13
48
1
60
0
100
AcDbSpline
70
4
71
3
72
8
73
4
40
0
40
0
40
0
40
0
40
1
40
1
40
1
40
1
41
1
10
139.783078979617
20
0.375187014169398
30
0
41
1
10
139.782568369503
20
0.395879932240462
30
0
41
1
10
139.782335069281
20
0.416671118568473
30
0
41
1
10
139.782385906796
20
0.437119806101919
30
0
0
SPLINE
5
2A5
100
AcDbEntity
8
1
62
256
6
ByLayer
370
13
48
1
60
0
100
AcDbSpline
70
4
71
3
72
10
73
6
40
0
40
0
40
0
40
0
40
0.5
40
0.5
40
1
40
1
40
1
40
1
41
1
10
135.109372111034
20
3.7947055939201
30
0
41
1
10
134.742684951322
20
3.775488334188
30
0
41
1
10
134.375286699861
20
3.75623380771646
30
0
41
1
10
133.63981607208
20
3.71768942538654
30
0
41
1
10
133.271797198923
20
3.69840237351014
30
0
41
1
10
132.904210559901
20
3.6791379740649
30
0
0
SPLINE
5
2A6
100
AcDbEntity
8
1
62
256
6
ByLayer
370
13
48
1
60
0
100
AcDbSpline
70
4
71
3
72
16
73
12
40
0
40
0
40
0
40
0
40
0.249999999999994
40
0.249999999999994
40
0.37500000000001
40
0.37500000000001
40
0.500000000000026
40
0.500000000000026
40
0.750000000000013
40
0.750000000000013
40
1
40
1
40
1
40
1
41
1
10
128.558108234043
20
3.22628278927107
30
0
41
1
10
128.611862448043
20
3.14224540863626
30
0
41
1
10
128.673829564101
20
3.06776025157549
30
0
41
1
10
128.777490437576
20
2.96800103142687
30
0
41
1
10
128.81393976658
20
2.93675508650602
30
0
41
1
10
128.888743561308
20
2.87938566890813
30
0
41
1
10
128.927286017174
20
2.85306651289949
30
0
41
1
10
129.046161066302
20
2.78064911162929
30
0
41
1
10
129.129717309603
20
2.7410352720847
30
0
41
1
10
129.305284502415
20
2.67798102568628
30
0
41
1
10
129.395844451212
20
2.65511599555273
30
0
41
1
10
129.488390766097
20
2.64039490182557
30
0
0
SPLINE
5
2A7
100
AcDbEntity
8
1
62
256
6
ByLayer
370
13
48
1
60
0
100
AcDbSpline
70
4
71
3
72
39
73
35
40
0
40
0
40
0
40
0
40
0.125
40
0.125
40
0.1875
40
0.1875
40
0.250000000000001
40
0.250000000000001
40
0.281250000000001
40
0.281250000000001
40
0.312500000000001
40
0.312500000000001
40
0.375000000000001
40
0.375000000000001
40
0.406250000000001
40
0.406250000000001
40
0.437500000000001
40
0.437500000000001
40
0.500000000000001
40
0.500000000000001
40
0.562500000000001
40
0.562500000000001
40
0.593750000000001
40
0.593750000000001
40
0.625
40
0.625
40
0.75
40
0.75
40
0.8125
40
0.8125
40
0.875
40
0.9375
40
0.9375
40
1
40
1
40
1
40
1
41
1
10
6.62343662944443
20
-13.3991139825267
30
0
41
1
10
6.5252615669171
20
-13.586286320066
30
0
41
1
10
6.47095085132398
20
-13.7627529858136
30
0
41
1
10
6.46190409774914
20
-14.0099905367013
30
0
41
1
10
6.47118208555264
20
-14.0878540408991
30
0
41
1
10
6.51186433905301
20
-14.2335227843477
30
0
41
1
10
6.54338456268076
20
-14.301586008471
30
0
41
1
10
6.60716095938585
20
-14.3966619264682
30
0
41
1
10
6.63127999642509
20
-14.4272845218048
30
0
41
1
10
6.68457187283499
20
-14.4856074445188
30
0
41
1
10
6.71367947707856
20
-14.5132745321998
30
0
41
1
10
6.80809734235106
20
-14.5919981459411
30
0
41
1
10
6.88048377551087
20
-14.6387894559
30
0
41
1
10
7.00240915776396
20
-14.7010190511087
30
0
41
1
10
7.04528929163774
20
-14.7204295790883
30
0
41
1
10
7.13549325249187
20
-14.756629783188
30
0
41
1
10
7.18285324067247
20
-14.7734155942327
30
0
41
1
10
7.32970237081844
20
-14.8193626381115
30
0
41
1
10
7.43448902642228
20
-14.8443700005414
30
0
41
1
10
7.65688643321414
20
-14.8841381775883
30
0
41
1
10
7.77446056331613
20
-14.8989139515753
30
0
41
1
10
7.96033740991268
20
-14.9137109833957
30
0
41
1
10
8.02399374910513
20
-14.9174126649037
30
0
41
1
10
8.15311441490388
20
-14.9223726084986
30
0
41
1
10
8.21871768178951
20
-14.9236463415494
30
0
41
1
10
8.5517345709419
20
-14.9243002484979
30
0
41
1
10
8.83393464371758
20
-14.9067732585415
30
0
41
1
10
9.27963454351931
20
-14.8562760024398
30
0
41
1
10
9.43102192746082
20
-14.8354454136985
30
0
41
1
10
9.73609663032184
20
-14.7867814312029
30
0
41
1
10
10.0444381097145
20
-14.7310046949708
30
0
41
1
10
10.3592381909212
20
-14.6616615302184
30
0
41
1
10
10.6773433111102
20
-14.5855998436483
30
0
41
1
10
10.8384048809673
20
-14.5441020433362
30
0
41
1
10
10.9996776061054
20
-14.4995882553566
30
0
0
SPLINE
5
2A8
100
AcDbEntity
8
1
62
256
6
ByLayer
370
13
48
1
60
0
100
AcDbSpline
70
4
71
3
72
10
73
6
40
0
40
0
40
0
40
0
40
0.408104507334664
40
0.408104507334664
40
1
40
1
40
1
40
1
41
1
10
22.45
20
-10.6429085455244
30
0
41
1
10
22.45
20
-10.0699859662145
30
0
41
1
10
22.45
20
-9.49706340161055
30
0
41
1
10
22.45
20
-8.09320105849946
30
0
41
1
10
22.45
20
-7.26226129621733
30
0
41
1
10
22.45
20
-6.43132156485396
30
0
0
SPLINE
5
2A9
100
AcDbEntity
8
1
62
256
6
ByLayer
370
13
48
1
60
0
100
AcDbSpline
70
4
71
3
72
8
73
4
40
0
40
0
40
0
40
0
40
1
40
1
40
1
40
1
41
1
10
127.146844416203
20
0.274144241958709
30
0
41
1
10
127.56334671479
20
0.26047201218725
30
0
41
1
10
127.979850641116
20
0.246817174456737
30
0
41
1
10
128.396356155011
20
0.233179376639384
30
0
0
SPLINE
5
2AA
100
AcDbEntity
8
1
62
256
6
ByLayer
370
13
48
1
60
0
100
AcDbSpline
70
4
71
3
72
12
73
8
40
0
40
0
40
0
40
0
40
0.5
40
0.5
40
0.75
40
0.75
40
1
40
1
40
1
40
1
41
1
10
128.451438349501
20
3.90626292255447
30
0
41
1
10
128.54529548801
20
4.13261378083644
30
0
41
1
10
128.619211056273
20
4.36534714660169
30
0
41
1
10
128.683808699717
20
4.72925821840738
30
0
41
1
10
128.697441868436
20
4.85430389535395
30
0
41
1
10
128.70245904558
20
5.10295610165596
30
0
41
1
10
128.694126306308
20
5.2270505477623
30
0
41
1
10
128.671337484661
20
5.35028433787488
30
0
0
SPLINE
5
2AB
100
AcDbEntity
8
1
62
256
6
ByLayer
370
13
48
1
60
0
100
AcDbSpline
70
4
71
3
72
10
73
6
40
0
40
0
40
0
40
0
40
0.5
40
0.5
40
1
40
1
40
1
40
1
41
1
10
127.475950201628
20
3.30514987623212
30
0
41
1
10
127.265441532805
20
3.4408034038108
30
0
41
1
10
127.045363058897
20
3.56512384722987
30
0
41
1
10
126.590993753204
20
3.79693368614892
30
0
41
1
10
126.356649552965
20
3.90435987982085
30
0
41
1
10
126.116438314179
20
4.00483800704433
30
0
0
SPLINE
5
2AC
100
AcDbEntity
8
1
62
256
6
ByLayer
370
13
48
1
60
0
100
AcDbSpline
70
4
71
3
72
38
73
34
40
0
40
0
40
0
40
0
40
0.125
40
0.125
40
0.1875
40
0.1875
40
0.21875
40
0.21875
40
0.25
40
0.25
40
0.3125
40
0.3125
40
0.375
40
0.375
40
0.4375
40
0.4375
40
0.5
40
0.5
40
0.562499999999999
40
0.562499999999999
40
0.624999999999999
40
0.624999999999999
40
0.687499999999999
40
0.687499999999999
40
0.718749999999999
40
0.718749999999999
40
0.749999999999999
40
0.749999999999999
40
0.875
40
0.875
40
0.9375
40
0.9375
40
1
40
1
40
1
40
1
41
1
10
5.83369999999999
20
-3.96862696659696
30
0
41
1
10
6.2015896428139
20
-3.76017797740406
30
0
41
1
10
6.54801870523443
20
-3.52410359878337
30
0
41
1
10
7.02927117510549
20
-3.12057259647597
30
0
41
1
10
7.18323740043687
20
-2.97775779463222
30
0
41
1
10
7.4029520654916
20
-2.74907362441581
30
0
41
1
10
7.4742588916917
20
-2.67044112948008
30
0
41
1
10
7.6110598210314
20
-2.510012418374
30
0
41
1
10
7.67678266034369
20
-2.42798646484013
30
0
41
1
10
7.86552491074431
20
-2.17620765387548
30
0
41
1
10
7.98016934870435
20
-2.00078855028158
30
0
41
1
10
8.18396883297189
20
-1.63270501401158
30
0
41
1
10
8.27351342275301
20
-1.43847864098066
30
0
41
1
10
8.41787106459839
20
-1.04298417119298
30
0
41
1
10
8.47347953989691
20
-0.840763201725537
30
0
41
1
10
8.54903776885212
20
-0.426693964756083
30
0
41
1
10
8.56869131080646
20
-0.213152622003548
30
0
41
1
10
8.56904035212662
20
0.207344652910081
30
0
41
1
10
8.55032972239894
20
0.415995787624382
30
0
41
1
10
8.47603802700121
20
0.830179171509201
30
0
41
1
10
8.41975072930529
20
1.03682225284515
30
0
41
1
10
8.27593105243483
20
1.43283759628659
30
0
41
1
10
8.18828653067411
20
1.62398087501694
30
0
41
1
10
8.03545307492075
20
1.90137439540112
30
0
41
1
10
7.98071516447155
20
1.99260290482903
30
0
41
1
10
7.86554054856234
20
2.17021442572624
30
0
41
1
10
7.80517690452197
20
2.25655342188517
30
0
41
1
10
7.49062354725328
20
2.67693328074563
30
0
41
1
10
7.19888846642755
20
2.97761522393191
30
0
41
1
10
6.71322359084016
20
3.38593500441968
30
0
41
1
10
6.54457535682917
20
3.51361921999407
30
0
41
1
10
6.19704287624461
20
3.75267356200294
30
0
41
1
10
6.01785713482047
20
3.86428217365199
30
0
41
1
10
5.83369999999999
20
3.9686269665969
30
0
0
SPLINE
5
2AD
100
AcDbEntity
8
1
62
256
6
ByLayer
370
13
48
1
60
0
100
AcDbSpline
70
4
71
3
72
8
73
4
40
0
40
0
40
0
40
0
40
1
40
1
40
1
40
1
41
1
10
126.11643831419
20
4.00483800705822
30
0
41
1
10
126.139257023026
20
4.07793687409918
30
0
41
1
10
126.160999330499
20
4.1512371576942
30
0
41
1
10
126.181983478408
20
4.22467930834034
30
0
0
SPLINE
5
2AE
100
AcDbEntity
8
1
62
256
6
ByLayer
370
13
48
1
60
0
100
AcDbSpline
70
4
71
3
72
16
73
12
40
0
40
0
40
0
40
0
40
0.5
40
0.5
40
0.624999999999999
40
0.624999999999999
40
0.687499999999999
40
0.687499999999999
40
0.749999999999999
40
0.749999999999999
40
1
40
1
40
1
40
1
41
1
10
10.9982555217839
20
-14.4999807403131
30
0
41
1
10
12.5161900246865
20
-14.0810755229978
30
0
41
1
10
13.9915994082481
20
-13.5668031955699
30
0
41
1
10
15.7791621890373
20
-12.8008158813828
30
0
41
1
10
16.1336907606385
20
-12.6414723648093
30
0
41
1
10
16.6609021931222
20
-12.3930208200216
30
0
41
1
10
16.8351365282033
20
-12.3071083324057
30
0
41
1
10
17.1890483930681
20
-12.1464945972136
30
0
41
1
10
17.368054246891
20
-12.0704099119987
30
0
41
1
10
18.2733770895414
20
-11.7111879549296
30
0
41
1
10
19.0301802498313
20
-11.490842445051
30
0
41
1
10
19.8231498419337
20
-11.3449882165942
30
0
0
SPLINE
5
2AF
100
AcDbEntity
8
1
62
256
6
ByLayer
370
13
48
1
60
0
100
AcDbSpline
70
4
71
3
72
18
73
14
40
0
40
0
40
0
40
0
40
0.12500000000002
40
0.12500000000002
40
0.25000000000004
40
0.25000000000004
40
0.500000000000027
40
0.500000000000027
40
0.750000000000013
40
0.750000000000013
40
0.875000000000007
40
0.875000000000007
40
1
40
1
40
1
40
1
41
1
10
139.764814127955
20
3.53800079860889
30
0
41
1
10
139.704268028835
20
3.53482771200976
30
0
41
1
10
139.644908243353
20
3.53515309339514
30
0
41
1
10
139.527682618517
20
3.54167078731621
30
0
41
1
10
139.47020581733
20
3.54790193560612
30
0
41
1
10
139.304534806513
20
3.57366097838087
30
0
41
1
10
139.199864352125
20
3.60030618697485
30
0
41
1
10
138.994631846382
20
3.67301562338673
30
0
41
1
10
138.895812080753
20
3.71872296517978
30
0
41
1
10
138.753843025676
20
3.80219296552679
30
0
41
1
10
138.70748751876
20
3.8325605740109
30
0
41
1
10
138.616720578925
20
3.89904288452672
30
0
41
1
10
138.572336922976
20
3.93517642045092
30
0
41
1
10
138.529730782631
20
3.97395899603973
30
0
0
SPLINE
5
2B0
100
AcDbEntity
8
1
62
256
6
ByLayer
370
13
48
1
60
0
100
AcDbSpline
70
4
71
3
72
8
73
4
40
0
40
0
40
0
40
0
40
1
40
1
40
1
40
1
41
1
10
133.587048856206
20
2.90946153328824
30
0
41
1
10
133.770043863664
20
2.96221359429222
30
0
41
1
10
133.944101139762
20
3.00613657007887
30
0
41
1
10
134.108957620895
20
3.04334526907019
30
0
0
SPLINE
5
2B1
100
AcDbEntity
8
1
62
256
6
ByLayer
370
13
48
1
60
0
100
AcDbSpline
70
4
71
3
72
8
73
4
40
0
40
0
40
0
40
0
40
1
40
1
40
1
40
1
41
1
10
126.181983478408
20
4.22467930834034
30
0
41
1
10
126.182248112929
20
4.22560549931234
30
0
41
1
10
126.182533434374
20
4.2265266631091
30
0
41
1
10
126.182838766723
20
4.22744297019122
30
0
0
SPLINE
5
2B2
100
AcDbEntity
8
1
62
256
6
ByLayer
370
13
48
1
60
0
100
AcDbSpline
70
4
71
3
72
8
73
4
40
0
40
0
40
0
40
0
40
1
40
1
40
1
40
1
41
1
10
126.516847934455
20
5.28620543803777
30
0
41
1
10
126.631503607748
20
6.40603032188488
30
0
41
1
10
126.740974567269
20
7.52330573409464
30
0
41
1
10
126.843204765569
20
8.63885873682429
30
0
0
SPLINE
5
2B3
100
AcDbEntity
8
1
62
256
6
ByLayer
370
13
48
1
60
0
100
AcDbSpline
70
4
71
3
72
8
73
4
40
0
40
0
40
0
40
0
40
1
40
1
40
1
40
1
41
1
10
139.412049475472
20
-1.69712862215766
30
0
41
1
10
139.484176725214
20
-2.09178326584609
30
0
41
1
10
139.500985571703
20
-2.48459331104877
30
0
41
1
10
139.467095880646
20
-2.87519224632214
30
0
0
SPLINE
5
2B4
100
AcDbEntity
8
1
62
256
6
ByLayer
370
13
48
1
60
0
100
AcDbSpline
70
4
71
3
72
10
73
6
40
0
40
0
40
0
40
0
40
0.5
40
0.5
40
1
40
1
40
1
40
1
41
1
10
121.073606506034
20
2.87526883057606
30
0
41
1
10
121.243142241174
20
2.81676185999791
30
0
41
1
10
121.412383063272
20
2.76012587454304
30
0
41
1
10
121.750196733882
20
2.65109165666007
30
0
41
1
10
121.918771172666
20
2.59870068399039
30
0
41
1
10
122.086048794255
20
2.54898120166848
30
0
0
SPLINE
5
2B5
100
AcDbEntity
8
1
62
256
6
ByLayer
370
13
48
1
60
0
100
AcDbSpline
70
4
71
1
72
4
73
2
40
0
40
0
40
1
40
1
41
1
10
22.45
20
-6.43132156485396
30
0
41
1
10
22
20
-6.43132156485396
30
0
0
SPLINE
5
2B6
100
AcDbEntity
8
1
62
256
6
ByLayer
370
13
48
1
60
0
100
AcDbSpline
70
4
71
3
72
8
73
4
40
0
40
0
40
0
40
0
40
1
40
1
40
1
40
1
41
1
10
125.040108393638
20
1.2100004249497
30
0
41
1
10
124.545509251977
20
1.4041998108159
30
0
41
1
10
124.054680042609
20
1.60926589676958
30
0
41
1
10
123.572338376895
20
1.83618263328711
30
0
0
SPLINE
5
2B7
100
AcDbEntity
8
1
62
256
6
ByLayer
370
13
48
1
60
0
100
AcDbSpline
70
4
71
3
72
54
73
50
40
0
40
0
40
0
40
0
40
0.031250000000001
40
0.031250000000001
40
0.062500000000002
40
0.062500000000002
40
0.0937500000000029
40
0.0937500000000029
40
0.109375000000003
40
0.109375000000003
40
0.125000000000003
40
0.125000000000003
40
0.132812500000003
40
0.132812500000003
40
0.140625000000003
40
0.140625000000003
40
0.148437500000003
40
0.148437500000003
40
0.156250000000003
40
0.156250000000003
40
0.187500000000004
40
0.187500000000004
40
0.250000000000003
40
0.250000000000003
40
0.312500000000003
40
0.312500000000003
40
0.343750000000003
40
0.343750000000003
40
0.375000000000003
40
0.375000000000003
40
0.437500000000003
40
0.437500000000003
40
0.500000000000002
40
0.500000000000002
40
0.562500000000002
40
0.562500000000002
40
0.625000000000002
40
0.625000000000002
40
0.687500000000001
40
0.687500000000001
40
0.750000000000001
40
0.750000000000001
40
0.812500000000001
40
0.812500000000001
40
0.875000000000001
40
0.875000000000001
40
0.9375
40
0.9375
40
1
40
1
40
1
40
1
41
1
10
123.673344625146
20
-11.0307075378513
30
0
41
1
10
123.106857112992
20
-11.0220917232512
30
0
41
1
10
122.537548202999
20
-11.0143864075708
30
0
41
1
10
121.396220831687
20
-11.0001165695444
30
0
41
1
10
120.824277524315
20
-10.9935182942785
30
0
41
1
10
119.683764091035
20
-10.9770008925201
30
0
41
1
10
119.115195637326
20
-10.9671364035343
30
0
41
1
10
118.269483762884
20
-10.9446584731143
30
0
41
1
10
117.988777036076
20
-10.9358599623101
30
0
41
1
10
117.430798604965
20
-10.9140342082826
30
0
41
1
10
117.153487415717
20
-10.9010630064792
30
0
41
1
10
116.741196353651
20
-10.8763980040124
30
0
41
1
10
116.604407907444
20
-10.8672708500458
30
0
41
1
10
116.332369977182
20
-10.8466508261127
30
0
41
1
10
116.197216364011
20
-10.8350375628972
30
0
41
1
10
115.927802896202
20
-10.8098654768604
30
0
41
1
10
115.793452247984
20
-10.7964157781892
30
0
41
1
10
115.524836225948
20
-10.76846017966
30
0
41
1
10
115.390539336994
20
-10.7539831223195
30
0
41
1
10
114.71924643011
20
-10.6793843369893
30
0
41
1
10
114.182874357384
20
-10.6123790509005
30
0
41
1
10
112.575087121764
20
-10.3898444096878
30
0
41
1
10
111.505181639013
20
-10.2125688474702
30
0
41
1
10
109.364381849077
20
-9.80491985643962
30
0
41
1
10
108.293864158263
20
-9.57397309586338
30
0
41
1
10
106.68093091635
20
-9.19695296838867
30
0
41
1
10
106.142033524266
20
-9.06630879007821
30
0
41
1
10
105.060418578489
20
-8.79773040277982
30
0
41
1
10
104.517303917256
20
-8.65969883034447
30
0
41
1
10
102.883854509075
20
-8.24009722660907
30
0
41
1
10
101.789229110811
20
-7.95391796490028
30
0
41
1
10
99.5852342787637
20
-7.38550789568797
30
0
41
1
10
98.4760205835178
20
-7.10295295780676
30
0
41
1
10
96.2405246038368
20
-6.55648620010149
30
0
41
1
10
95.1140678645138
20
-6.2930461593713
30
0
41
1
10
92.8431828497582
20
-5.79594667115742
30
0
41
1
10
91.7025247199706
20
-5.56297701009117
30
0
41
1
10
89.4124452421587
20
-5.1371683199213
30
0
41
1
10
88.2625560187279
20
-4.94474200542132
30
0
41
1
10
85.9537294766285
20
-4.60184117782049
30
0
41
1
10
84.7948130771082
20
-4.45124751359455
30
0
41
1
10
82.4685350069963
20
-4.19189828922117
30
0
41
1
10
81.3001587576548
20
-4.08199040582835
30
0
41
1
10
78.9632627040258
20
-3.92692000768952
30
0
41
1
10
77.7937617672352
20
-3.88382668805522
30
0
41
1
10
75.4537054998833
20
-3.83262704599846
30
0
41
1
10
74.2831616908964
20
-3.82409266747936
30
0
41
1
10
71.9417508615335
20
-3.81776719567762
30
0
41
1
10
70.7708895473414
20
-3.81977734876338
30
0
41
1
10
69.6000000000001
20
-3.82272395001735
30
0
0
SPLINE
5
2B8
100
AcDbEntity
8
1
62
256
6
ByLayer
370
13
48
1
60
0
100
AcDbSpline
70
4
71
3
72
18
73
14
40
0
40
0
40
0
40
0
40
0.25
40
0.25
40
0.375
40
0.375
40
0.5
40
0.5
40
0.625
40
0.625
40
0.75
40
0.75
40
1
40
1
40
1
40
1
41
1
10
125.040448774416
20
1.209866802248
30
0
41
1
10
125.180303479117
20
1.15497430091457
30
0
41
1
10
125.324162682749
20
1.11076985188936
30
0
41
1
10
125.545946091547
20
1.06081814790917
30
0
41
1
10
125.621324073934
20
1.04685747676595
30
0
41
1
10
125.771282726706
20
1.02502089965904
30
0
41
1
10
125.845955522211
20
1.01708206401435
30
0
41
1
10
125.994735721331
20
1.00692760526755
30
0
41
1
10
126.068842947926
20
1.00471281936478
30
0
41
1
10
126.216511126031
20
1.00591010612737
30
0
41
1
10
126.290354484438
20
1.00934925446811
30
0
41
1
10
126.509042073003
20
1.02795467099244
30
0
41
1
10
126.649545980045
20
1.05111727690925
30
0
41
1
10
126.785125839751
20
1.08397088486171
30
0
0
SPLINE
5
2B9
100
AcDbEntity
8
1
62
256
6
ByLayer
370
13
48
1
60
0
100
AcDbSpline
70
4
71
3
72
8
73
4
40
0
40
0
40
0
40
0
40
1
40
1
40
1
40
1
41
1
10
125.647590309241
20
10.4213403623794
30
0
41
1
10
126.003655469718
20
9.79995704361755
30
0
41
1
10
126.39977667028
20
9.20418303949569
30
0
41
1
10
126.843184844378
20
8.63864135442202
30
0
0
SPLINE
5
2BA
100
AcDbEntity
8
1
62
256
6
ByLayer
370
13
48
1
60
0
100
AcDbSpline
70
4
71
3
72
8
73
4
40
0
40
0
40
0
40
0
40
1
40
1
40
1
40
1
41
1
10
132.17633392512
20
3.12513893500039
30
0
41
1
10
132.222552006954
20
3.17410171306426
30
0
41
1
10
132.267611791397
20
3.22863281545079
30
0
41
1
10
132.310191876869
20
3.28973093489859
30
0
0
SPLINE
5
2BB
100
AcDbEntity
8
1
62
256
6
ByLayer
370
13
48
1
60
0
100
AcDbSpline
70
4
71
3
72
8
73
4
40
0
40
0
40
0
40
0
40
1
40
1
40
1
40
1
41
1
10
22
20
-11.184574948847
30
0
41
1
10
21.9576524592597
20
-11.1845715439468
30
0
41
1
10
21.9153136846889
20
-11.1848102016949
30
0
41
1
10
21.8729836669025
20
-11.1852906647589
30
0
0
SPLINE
5
2BC
100
AcDbEntity
8
1
62
256
6
ByLayer
370
13
48
1
60
0
100
AcDbSpline
70
4
71
3
72
8
73
4
40
0
40
0
40
0
40
0
40
1
40
1
40
1
40
1
41
1
10
27
20
-3.84557313575451
30
0
41
1
10
25.3333329372643
20
-3.8454540678818
30
0
41
1
10
23.666666203022
20
-3.84474950774504
30
0
41
1
10
22
20
-3.84309788877931
30
0
0
SPLINE
5
2BD
100
AcDbEntity
8
1
62
256
6
ByLayer
370
13
48
1
60
0
100
AcDbSpline
70
4
71
3
72
14
73
10
40
0
40
0
40
0
40
0
40
0.25
40
0.25
40
0.5
40
0.5
40
0.75
40
0.75
40
1
40
1
40
1
40
1
41
1
10
139.782385906796
20
0.437119806101919
30
0
41
1
10
139.782540404643
20
0.499264429216282
30
0
41
1
10
139.78374774191
20
0.557564059326808
30
0
41
1
10
139.788397533236
20
0.666000623262192
30
0
41
1
10
139.791724137644
20
0.713254084298342
30
0
41
1
10
139.800403382905
20
0.791913227183414
30
0
41
1
10
139.805553146135
20
0.821439445458253
30
0
41
1
10
139.817355412238
20
0.858669568483066
30
0
41
1
10
139.82370027042
20
0.865410129726172
30
0
41
1
10
139.830367433795
20
0.859757644100171
30
0
0
SPLINE
5
2BE
100
AcDbEntity
8
1
62
256
6
ByLayer
370
13
48
1
60
0
100
AcDbSpline
70
4
71
3
72
20
73
16
40
0
40
0
40
0
40
0
40
0.125
40
0.125
40
0.249999999999999
40
0.249999999999999
40
0.312499999999999
40
0.312499999999999
40
0.374999999999999
40
0.374999999999999
40
0.499999999999999
40
0.499999999999999
40
0.749999999999999
40
0.749999999999999
40
1
40
1
40
1
40
1
41
1
10
19.8113432567065
20
-4.41332200289304
30
0
41
1
10
19.4261237376947
20
-4.4741150943394
30
0
41
1
10
19.0450835750494
20
-4.55075515334698
30
0
41
1
10
18.2913592954669
20
-4.73571909386195
30
0
41
1
10
17.9174642740703
20
-4.84458456190546
30
0
41
1
10
17.3732297895446
20
-5.0285706572638
30
0
41
1
10
17.1942019641461
20
-5.09342222311403
30
0
41
1
10
16.840843488927
20
-5.23006739400932
30
0
41
1
10
16.6673143883351
20
-5.30304562289274
30
0
41
1
10
16.1416824295626
20
-5.5145247213888
30
0
41
1
10
15.7877723208287
20
-5.6503546233171
30
0
41
1
10
14.7157380759024
20
-6.04261598465132
30
0
41
1
10
13.9864542254677
20
-6.28407103782269
30
0
41
1
10
12.5080210182203
20
-6.72483791099225
30
0
41
1
10
11.7582950118645
20
-6.9244116526479
30
0
41
1
10
10.9981689687179
20
-7.10339225515156
30
0
0
SPLINE
5
2BF
100
AcDbEntity
8
1
62
256
6
ByLayer
370
13
48
1
60
0
100
AcDbSpline
70
4
71
3
72
14
73
10
40
0
40
0
40
0
40
0
40
0.25
40
0.25
40
0.5
40
0.5
40
0.75
40
0.75
40
1
40
1
40
1
40
1
41
1
10
128.382758200085
20
3.71286757784355
30
0
41
1
10
128.387007249447
20
3.66744335033482
30
0
41
1
10
128.394736874528
20
3.62241270758906
30
0
41
1
10
128.415434887704
20
3.53598846901204
30
0
41
1
10
128.428430215875
20
3.49418552786432
30
0
41
1
10
128.458869080135
20
3.41296624193006
30
0
41
1
10
128.476433607666
20
3.37334047950517
30
0
41
1
10
128.514957588063
20
3.29736627209269
30
0
41
1
10
128.535841271205
20
3.26109414809014
30
0
41
1
10
128.558108234043
20
3.22628278927112
30
0
0
SPLINE
5
2C0
100
AcDbEntity
8
1
62
256
6
ByLayer
370
13
48
1
60
0
100
AcDbSpline
70
4
71
3
72
16
73
12
40
0
40
0
40
0
40
0
40
0.0625000000000004
40
0.0625000000000004
40
0.125000000000001
40
0.125000000000001
40
0.250000000000001
40
0.250000000000001
40
0.500000000000001
40
0.500000000000001
40
1
40
1
40
1
40
1
41
1
10
69.6
20
-11.0654066064921
30
0
41
1
10
68.7125106437367
20
-11.0681572763104
30
0
41
1
10
67.8250230706046
20
-11.0709367783259
30
0
41
1
10
66.0500411985257
20
-11.076370253139
30
0
41
1
10
65.1625481714468
20
-11.0790473445877
30
0
41
1
10
62.5000620636703
20
-11.086951080969
30
0
41
1
10
60.7250589261582
20
-11.0920339343744
30
0
41
1
10
55.4000503952057
20
-11.1068575142222
30
0
41
1
10
51.8500409354664
20
-11.1162329901625
30
0
41
1
10
41.2000181047902
20
-11.1451046735113
30
0
41
1
10
34.100014029667
20
-11.1653160181645
30
0
41
1
10
27
20
-11.1847915786146
30
0
0
SPLINE
5
2C1
100
AcDbEntity
8
1
62
256
6
ByLayer
370
13
48
1
60
0
100
AcDbSpline
70
4
71
3
72
10
73
6
40
0
40
0
40
0
40
0
40
0.5
40
0.5
40
1
40
1
40
1
40
1
41
1
10
138.461834490754
20
4.00377978056994
30
0
41
1
10
138.474505468082
20
3.99370489688439
30
0
41
1
10
138.485403016094
20
3.98584774199895
30
0
41
1
10
138.501977858929
20
3.97544077121799
30
0
41
1
10
138.507740795797
20
3.97280654987355
30
0
41
1
10
138.510638909411
20
3.97295843357219
30
0
0
SPLINE
5
2C2
100
AcDbEntity
8
1
62
256
6
ByLayer
370
13
48
1
60
0
100
AcDbSpline
70
4
71
3
72
8
73
4
40
0
40
0
40
0
40
0
40
1
40
1
40
1
40
1
41
1
10
22.45
20
-10.6429089231246
30
0
41
1
10
22.3033333195443
20
-10.6430746742425
30
0
41
1
10
22.156666651995
20
-10.6432490577944
30
0
41
1
10
22.01
20
-10.6434323818338
30
0
0
SPLINE
5
2C3
100
AcDbEntity
8
1
62
256
6
ByLayer
370
13
48
1
60
0
100
AcDbSpline
70
4
71
3
72
8
73
4
40
0
40
0
40
0
40
0
40
1
40
1
40
1
40
1
41
1
10
123.572338376895
20
1.83618263328714
30
0
41
1
10
123.07578190692
20
2.06978669794216
30
0
41
1
10
122.580372439053
20
2.30745854345332
30
0
41
1
10
122.086048794255
20
2.54898120166845
30
0
0
SPLINE
5
2C4
100
AcDbEntity
8
1
62
256
6
ByLayer
370
13
48
1
60
0
100
AcDbSpline
70
4
71
3
72
12
73
8
40
0
40
0
40
0
40
0
40
0.249999999999877
40
0.249999999999877
40
0.499999999999753
40
0.499999999999753
40
1
40
1
40
1
40
1
41
1
10
126.401782096077
20
5.22433395577806
30
0
41
1
10
126.404615405322
20
5.23536360457678
30
0
41
1
10
126.411173566277
20
5.24516086770882
30
0
41
1
10
126.427651091151
20
5.26086060892948
30
0
41
1
10
126.437600332949
20
5.26699358585785
30
0
41
1
10
126.469176486512
20
5.28120478920314
30
0
41
1
10
126.492842736007
20
5.28550033895331
30
0
41
1
10
126.51684459914
20
5.28617286253038
30
0
0
SPLINE
5
2C5
100
AcDbEntity
8
1
62
256
6
ByLayer
370
13
48
1
60
0
100
AcDbSpline
70
4
71
3
72
18
73
14
40
0
40
0
40
0
40
0
40
0.250000000000016
40
0.250000000000016
40
0.375000000000014
40
0.375000000000014
40
0.500000000000011
40
0.500000000000011
40
0.750000000000006
40
0.750000000000006
40
0.875000000000003
40
0.875000000000003
40
1
40
1
40
1
40
1
41
1
10
132.640580693627
20
3.66532171822075
30
0
41
1
10
132.635260143786
20
3.66504288001482
30
0
41
1
10
132.636524088005
20
3.67530133214385
30
0
41
1
10
132.651789183663
20
3.70371966301033
30
0
41
1
10
132.659147838136
20
3.71522417178716
30
0
41
1
10
132.679090097328
20
3.74072253137021
30
0
41
1
10
132.691941178099
20
3.75496731626916
30
0
41
1
10
132.738024439711
20
3.79743432502482
30
0
41
1
10
132.780212133788
20
3.82612706415622
30
0
41
1
10
132.853501099202
20
3.8573123330371
30
0
41
1
10
132.880013212995
20
3.86599031531344
30
0
41
1
10
132.934157935782
20
3.87847185336415
30
0
41
1
10
132.962023259155
20
3.88242667571561
30
0
41
1
10
132.990691603494
20
3.88394468632507
30
0
0
SPLINE
5
2C6
100
AcDbEntity
8
1
62
256
6
ByLayer
370
13
48
1
60
0
100
AcDbSpline
70
4
71
3
72
38
73
34
40
0
40
0
40
0
40
0
40
0.124999999999993
40
0.124999999999993
40
0.249999999999986
40
0.249999999999986
40
0.374999999999979
40
0.374999999999979
40
0.40624999999998
40
0.40624999999998
40
0.43749999999998
40
0.43749999999998
40
0.499999999999981
40
0.499999999999981
40
0.562499999999982
40
0.562499999999982
40
0.624999999999982
40
0.624999999999982
40
0.656249999999983
40
0.656249999999983
40
0.687499999999983
40
0.687499999999983
40
0.749999999999984
40
0.749999999999984
40
0.781249999999986
40
0.781249999999986
40
0.812499999999988
40
0.812499999999988
40
0.874999999999992
40
0.874999999999992
40
0.937499999999996
40
0.937499999999996
40
1
40
1
40
1
40
1
41
1
10
127.163268064504
20
1.01360272532472
30
0
41
1
10
127.555075575362
20
0.9474955540243
30
0
41
1
10
127.949910911689
20
0.888604067730398
30
0
41
1
10
128.74926291146
20
0.793892902827452
30
0
41
1
10
129.153871122589
20
0.757965952172611
30
0
41
1
10
129.977145704603
20
0.720923463203235
30
0
41
1
10
130.387030254055
20
0.720198282516208
30
0
41
1
10
130.896386176145
20
0.749749237345839
30
0
41
1
10
130.998105697019
20
0.757199309704362
30
0
41
1
10
131.201212110156
20
0.775476723569852
30
0
41
1
10
131.302783790953
20
0.786337611916622
30
0
41
1
10
131.603143147568
20
0.823986700841516
30
0
41
1
10
131.798720601302
20
0.855893826368117
30
0
41
1
10
132.17943305289
20
0.934956396016815
30
0
41
1
10
132.364749586917
20
0.982141659719758
30
0
41
1
10
132.722481667884
20
1.09415552732523
30
0
41
1
10
132.890217129693
20
1.15752224333707
30
0
41
1
10
133.124274082106
20
1.2641742754368
30
0
41
1
10
133.199359005948
20
1.30166501768204
30
0
41
1
10
133.343374168648
20
1.38071611457741
30
0
41
1
10
133.412661829661
20
1.42252718831503
30
0
41
1
10
133.6075579625
20
1.55232159002063
30
0
41
1
10
133.72028921653
20
1.64440776454367
30
0
41
1
10
133.864048040208
20
1.79072289018689
30
0
41
1
10
133.907726172133
20
1.84086487524522
30
0
41
1
10
133.986449190427
20
1.94393795313562
30
0
41
1
10
134.021523857002
20
1.99702109602566
30
0
41
1
10
134.111664398883
20
2.15705317360303
30
0
41
1
10
134.152655684209
20
2.26581750689269
30
0
41
1
10
134.199024145527
20
2.48721714691214
30
0
41
1
10
134.204059379004
20
2.6004554878233
30
0
41
1
10
134.180477051759
20
2.82329131051529
30
0
41
1
10
134.152201261779
20
2.93375259354161
30
0
41
1
10
134.108957620894
20
3.0433452690697
30
0
0
SPLINE
5
2C7
100
AcDbEntity
8
1
62
256
6
ByLayer
370
13
48
1
60
0
100
AcDbSpline
70
4
71
3
72
20
73
16
40
0
40
0
40
0
40
0
40
0.124999999999997
40
0.124999999999997
40
0.249999999999994
40
0.249999999999994
40
0.374999999999991
40
0.374999999999991
40
0.499999999999989
40
0.499999999999989
40
0.749999999999999
40
0.749999999999999
40
0.875
40
0.875
40
1
40
1
40
1
40
1
41
1
10
127.058455138628
20
5.25713914658712
30
0
41
1
10
127.142997051193
20
5.20011308005525
30
0
41
1
10
127.224756356359
20
5.13673069903348
30
0
41
1
10
127.378134425222
20
5.00441535824103
30
0
41
1
10
127.450020746298
20
4.93563132726183
30
0
41
1
10
127.585382467502
20
4.79397040602981
30
0
41
1
10
127.648799348554
20
4.72100720101733
30
0
41
1
10
127.767133186118
20
4.57069778194867
30
0
41
1
10
127.822342278973
20
4.49282356241102
30
0
41
1
10
127.971376914177
20
4.25893385154274
30
0
41
1
10
128.050408913864
20
4.10175421416204
30
0
41
1
10
128.139612929361
20
3.86300615406421
30
0
41
1
10
128.164299701176
20
3.78266049549094
30
0
41
1
10
128.201764776954
20
3.62413545799615
30
0
41
1
10
128.214745490701
20
3.54545468899116
30
0
41
1
10
128.221782503507
20
3.46709166573754
30
0
0
SPLINE
5
2C8
100
AcDbEntity
8
1
62
256
6
ByLayer
370
13
48
1
60
0
100
AcDbSpline
70
4
71
3
72
8
73
4
40
0
40
0
40
0
40
0
40
1
40
1
40
1
40
1
41
1
10
132.650363143462
20
3.66583439417212
30
0
41
1
10
132.632134807571
20
3.63823720808651
30
0
41
1
10
132.616592875747
20
3.60848395885702
30
0
41
1
10
132.604380582877
20
3.57759263543534
30
0
0
SPLINE
5
2C9
100
AcDbEntity
8
1
62
256
6
ByLayer
370
13
48
1
60
0
100
AcDbSpline
70
4
71
3
72
10
73
6
40
0
40
0
40
0
40
0
40
0.5
40
0.5
40
1
40
1
40
1
40
1
41
1
10
133.836166018782
20
3.92825415925515
30
0
41
1
10
133.873752340718
20
3.93022397491924
30
0
41
1
10
133.911610621482
20
3.92787109095619
30
0
41
1
10
133.98533846659
20
3.91524734854204
30
0
41
1
10
134.02058301465
20
3.90515366168455
30
0
41
1
10
134.05416204493
20
3.89199444944958
30
0
0
SPLINE
5
2CA
100
AcDbEntity
8
1
62
256
6
ByLayer
370
13
48
1
60
0
100
AcDbSpline
70
4
71
3
72
20
73
16
40
0
40
0
40
0
40
0
40
0.250000000000012
40
0.250000000000012
40
0.37500000000001
40
0.37500000000001
40
0.500000000000008
40
0.500000000000008
40
0.625000000000006
40
0.625000000000006
40
0.750000000000004
40
0.750000000000004
40
0.875000000000002
40
0.875000000000002
40
1
40
1
40
1
40
1
41
1
10
126.182838766723
20
4.22744297019122
30
0
41
1
10
126.205073540997
20
4.29416987040693
30
0
41
1
10
126.225192463533
20
4.36778665651008
30
0
41
1
10
126.254272418968
20
4.48817753590478
30
0
41
1
10
126.263733222918
20
4.52993545394676
30
0
41
1
10
126.281905082131
20
4.61433534135196
30
0
41
1
10
126.290686990543
20
4.65727473801752
30
0
41
1
10
126.30788017627
20
4.74458802630338
30
0
41
1
10
126.316343017541
20
4.78926386759326
30
0
41
1
10
126.332921596639
20
4.87858770656845
30
0
41
1
10
126.340979984543
20
4.92293047776883
30
0
41
1
10
126.357133930179
20
5.01090025452405
30
0
41
1
10
126.365209696863
20
5.0545311499589
30
0
41
1
10
126.382333540078
20
5.14087507514134
30
0
41
1
10
126.391299906901
20
5.18352836228266
30
0
41
1
10
126.40178209608
20
5.22433395577738
30
0
0
SPLINE
5
2CB
100
AcDbEntity
8
1
62
256
6
ByLayer
370
13
48
1
60
0
100
AcDbSpline
70
4
71
3
72
12
73
8
40
0
40
0
40
0
40
0
40
0.499999999999988
40
0.499999999999988
40
0.749999999999994
40
0.749999999999994
40
1
40
1
40
1
40
1
41
1
10
128.671337484661
20
5.3502843378823
30
0
41
1
10
128.681208567748
20
5.45977504872315
30
0
41
1
10
128.678178510998
20
5.57205551177645
30
0
41
1
10
128.646979850596
20
5.73275224626343
30
0
41
1
10
128.632202863778
20
5.78531939814118
30
0
41
1
10
128.592612351264
20
5.88816451930467
30
0
41
1
10
128.567672850402
20
5.93839895712719
30
0
41
1
10
128.538240421249
20
5.98566446269126
30
0
0
SPLINE
5
2CC
100
AcDbEntity
8
1
62
256
6
ByLayer
370
13
48
1
60
0
100
AcDbSpline
70
4
71
3
72
8
73
4
40
0
40
0
40
0
40
0
40
1
40
1
40
1
40
1
41
1
10
132.904210559901
20
3.6791379740649
30
0
41
1
10
132.819556476883
20
3.67470144156667
30
0
41
1
10
132.734944722447
20
3.67026712741543
30
0
41
1
10
132.650363143428
20
3.66583439469082
30
0
0
SPLINE
5
2CD
100
AcDbEntity
8
1
62
256
6
ByLayer
370
13
48
1
60
0
100
AcDbSpline
70
4
71
3
72
10
73
6
40
0
40
0
40
0
40
0
40
0.5
40
0.5
40
1
40
1
40
1
40
1
41
1
10
125.396356155011
20
0.559930564248589
30
0
41
1
10
125.683316905789
20
0.474704931371036
30
0
41
1
10
125.972709459507
20
0.408362526053054
30
0
41
1
10
126.556208273826
20
0.312954928270813
30
0
41
1
10
126.85031324178
20
0.283878263511042
30
0
41
1
10
127.146844416203
20
0.27414424195851
30
0
0
SPLINE
5
2CE
100
AcDbEntity
8
1
62
256
6
ByLayer
370
13
48
1
60
0
100
AcDbSpline
70
4
71
3
72
12
73
8
40
0
40
0
40
0
40
0
40
0.5
40
0.5
40
0.75
40
0.75
40
1
40
1
40
1
40
1
41
1
10
21.8729836669025
20
-11.1852906647589
30
0
41
1
10
21.5105955192168
20
-11.1894039188728
30
0
41
1
10
21.1565218409434
20
-11.2077874708999
30
0
41
1
10
20.6374635186929
20
-11.2514031538602
30
0
41
1
10
20.4655386422062
20
-11.268694898915
30
0
41
1
10
20.1355600931921
20
-11.3056390298389
30
0
41
1
10
19.9764504555959
20
-11.3253553404625
30
0
41
1
10
19.8231498419337
20
-11.3449882165942
30
0
0
SPLINE
5
2CF
100
AcDbEntity
8
1
62
256
6
ByLayer
370
13
48
1
60
0
100
AcDbSpline
70
4
71
3
72
8
73
4
40
0
40
0
40
0
40
0
40
1
40
1
40
1
40
1
41
1
10
21.8729836602993
20
-10.6567489369762
30
0
41
1
10
21.8729836624488
20
-10.8329295129269
30
0
41
1
10
21.8729836646499
20
-11.0091100888544
30
0
41
1
10
21.8729836669025
20
-11.1852906647587
30
0
0
SPLINE
5
2D0
100
AcDbEntity
8
1
62
256
6
ByLayer
370
13
48
1
60
0
100
AcDbSpline
70
4
71
3
72
8
73
4
40
0
40
0
40
0
40
0
40
1
40
1
40
1
40
1
41
1
10
131.971301254482
20
3.50486288794031
30
0
41
1
10
131.994269598212
20
3.49990791328455
30
0
41
1
10
132.016289462229
20
3.49477058546282
30
0
41
1
10
132.037459759697
20
3.4899255747988
30
0
0
SPLINE
5
2D1
100
AcDbEntity
8
1
62
256
6
ByLayer
370
13
48
1
60
0
100
AcDbSpline
70
4
71
3
72
18
73
14
40
0
40
0
40
0
40
0
40
0.249999999999999
40
0.249999999999999
40
0.375
40
0.375
40
0.500000000000002
40
0.500000000000002
40
0.750000000000001
40
0.750000000000001
40
0.875000000000001
40
0.875000000000001
40
1
40
1
40
1
40
1
41
1
10
21.8729836602993
20
-10.6567489369567
30
0
41
1
10
21.6836600893563
20
-10.6569863761305
30
0
41
1
10
21.4979240196626
20
-10.6734192114001
30
0
41
1
10
21.2242809129846
20
-10.720464365993
30
0
41
1
10
21.1338971895698
20
-10.7398959456082
30
0
41
1
10
20.954761459315
20
-10.7861253172485
30
0
41
1
10
20.8656520846959
20
-10.8130511577282
30
0
41
1
10
20.6033120515035
20
-10.9039303491313
30
0
41
1
10
20.4369535482544
20
-10.9770951154125
30
0
41
1
10
20.198511519284
20
-11.1031951112042
30
0
41
1
10
20.1208912830087
20
-11.1479703538988
30
0
41
1
10
19.9691962029765
20
-11.2427460277684
30
0
41
1
10
19.894864403158
20
-11.2929471863398
30
0
41
1
10
19.8231498419337
20
-11.3449882165942
30
0
0
SPLINE
5
2D2
100
AcDbEntity
8
1
62
256
6
ByLayer
370
13
48
1
60
0
100
AcDbSpline
70
4
71
3
72
8
73
4
40
0
40
0
40
0
40
0
40
1
40
1
40
1
40
1
41
1
10
126.995969420764
20
1.04349119117467
30
0
41
1
10
127.048174606459
20
1.0340623565092
30
0
41
1
10
127.100431193472
20
1.02471743724018
30
0
41
1
10
127.152743343771
20
1.01546322799894
30
0
0
SPLINE
5
2D3
100
AcDbEntity
8
1
62
256
6
ByLayer
370
13
48
1
60
0
100
AcDbSpline
70
4
71
2
72
12
73
9
40
0
40
0
40
0
40
0.302479972356183
40
0.302479972356183
40
0.604959944712367
40
0.604959944712367
40
0.90743991706855
40
0.90743991706855
40
1
40
1
40
1
41
1
10
21.9999999999992
20
-6.43655360411807
30
0
41
1
10
19.7396905033585
20
-6.84124913220239
30
0
41
1
10
17.7406734587795
20
-7.78476847993971
30
0
41
1
10
15.6712686947725
20
-8.76151024331548
30
0
41
1
10
14.0714310860174
20
-10.2188744711079
30
0
41
1
10
12.4840541812129
20
-11.664887681715
30
0
41
1
10
11.5069430037331
20
-13.4478331032547
30
0
41
1
10
11.2225001777408
20
-13.966859029865
30
0
41
1
10
10.9984104059989
20
-14.4996125401486
30
0
0
SPLINE
5
2D4
100
AcDbEntity
8
1
62
256
6
ByLayer
370
13
48
1
60
0
100
AcDbSpline
70
4
71
3
72
12
73
8
40
0
40
0
40
0
40
0
40
0.25
40
0.25
40
0.5
40
0.5
40
1
40
1
40
1
40
1
41
1
10
127.255223132592
20
5.2612229390015
30
0
41
1
10
127.38296949804
20
5.2483610194171
30
0
41
1
10
127.506961598154
20
5.24370783124388
30
0
41
1
10
127.750833551414
20
5.24519791801896
30
0
41
1
10
127.870607846148
20
5.25130173363297
30
0
41
1
10
128.222368058406
20
5.27965072237373
30
0
41
1
10
128.448772826318
20
5.31160223589362
30
0
41
1
10
128.671337484678
20
5.35028433788059
30
0
0
SPLINE
5
2D5
100
AcDbEntity
8
1
62
256
6
ByLayer
370
13
48
1
60
0
100
AcDbSpline
70
4
71
3
72
14
73
10
40
0
40
0
40
0
40
0
40
0.25
40
0.25
40
0.5
40
0.5
40
0.75
40
0.75
40
1
40
1
40
1
40
1
41
1
10
132.037459759697
20
3.48992557479889
30
0
41
1
10
132.067843543201
20
3.48297197599729
30
0
41
1
10
132.095367406817
20
3.47454633430544
30
0
41
1
10
132.142169448369
20
3.45525191316926
30
0
41
1
10
132.161056583873
20
3.44462045253076
30
0
41
1
10
132.18995266894
20
3.42142164794896
30
0
41
1
10
132.199488471694
20
3.40912332885353
30
0
41
1
10
132.208975074852
20
3.38415855565469
30
0
41
1
10
132.208977204678
20
3.37116214055541
30
0
41
1
10
132.204571456679
20
3.358432145687
30
0
0
SPLINE
5
2D6
100
AcDbEntity
8
1
62
256
6
ByLayer
370
13
48
1
60
0
100
AcDbSpline
70
4
71
3
72
8
73
4
40
0
40
0
40
0
40
0
40
1
40
1
40
1
40
1
41
1
10
22
20
-3.84309788877928
30
0
41
1
10
21.9576520912871
20
-3.84305592320211
30
0
41
1
10
21.9153133134964
20
-3.84302267328383
30
0
41
1
10
21.8729836563666
20
-3.84299812041868
30
0
0
SPLINE
5
2D7
100
AcDbEntity
8
1
62
256
6
ByLayer
370
13
48
1
60
0
100
AcDbSpline
70
4
71
3
72
8
73
4
40
0
40
0
40
0
40
0
40
1
40
1
40
1
40
1
41
1
10
0.0999999999999659
20
-3.96862696659682
30
0
41
1
10
0.0650328392778476
20
-3.82765262553048
30
0
41
1
10
0.0316759574587309
20
-3.68612145608716
30
0
41
1
10
0
20
-3.54400902933392
30
0
0
SPLINE
5
2D8
100
AcDbEntity
8
1
62
256
6
ByLayer
370
13
48
1
60
0
100
AcDbSpline
70
4
71
3
72
14
73
10
40
0
40
0
40
0
40
0
40
0.25
40
0.25
40
0.5
40
0.5
40
0.75
40
0.75
40
1
40
1
40
1
40
1
41
1
10
138.062196410172
20
4.14973102725057
30
0
41
1
10
138.104023651344
20
4.1519231000739
30
0
41
1
10
138.145350063368
20
4.14885003572235
30
0
41
1
10
138.227045470539
20
4.13294374536019
30
0
41
1
10
138.266036346988
20
4.12024190488887
30
0
41
1
10
138.337870497161
20
4.08858942695838
30
0
41
1
10
138.369341583373
20
4.07030648646875
30
0
41
1
10
138.423470714337
20
4.03416424751293
30
0
41
1
10
138.444835071455
20
4.01729627324124
30
0
41
1
10
138.461834490756
20
4.00377978057116
30
0
0
SPLINE
5
2D9
100
AcDbEntity
8
1
62
256
6
ByLayer
370
13
48
1
60
0
100
AcDbSpline
70
4
71
1
72
4
73
2
40
0
40
0
40
1
40
1
41
1
10
22.01
20
-10.6524715972155
30
0
41
1
10
22.01
20
-6.43656694715568
30
0
0
SPLINE
5
2DA
100
AcDbEntity
8
1
62
256
6
ByLayer
370
18
48
1
60
0
100
AcDbSpline
70
4
71
3
72
8
73
4
40
0
40
0
40
0
40
0
40
1
40
1
40
1
40
1
41
1
10
134.707636509234
20
6.52829385874406
30
0
41
1
10
134.710970153613
20
6.53386880323575
30
0
41
1
10
134.714304069629
20
6.53944406944967
30
0
41
1
10
134.717638275342
20
6.54501967872307
30
0
0
SPLINE
5
2DB
100
AcDbEntity
8
1
62
256
6
ByLayer
370
18
48
1
60
0
100
AcDbSpline
70
4
71
3
72
8
73
4
40
0
40
0
40
0
40
0
40
1
40
1
40
1
40
1
41
1
10
136.219659898997
20
7.51421058573331
30
0
41
1
10
136.212717531413
20
7.51308504387703
30
0
41
1
10
136.205774850356
20
7.5119594422211
30
0
41
1
10
136.198831835084
20
7.51083377680234
30
0
0
SPLINE
5
2DC
100
AcDbEntity
8
1
62
256
6
ByLayer
370
18
48
1
60
0
100
AcDbSpline
70
4
71
3
72
8
73
4
40
0
40
0
40
0
40
0
40
1
40
1
40
1
40
1
41
1
10
134.417503786089
20
7.41976358593442
30
0
41
1
10
134.423818781513
20
7.41933283303257
30
0
41
1
10
134.430134218331
20
7.41890205989193
30
0
41
1
10
134.436450125859
20
7.41847126517283
30
0
0
SPLINE
5
2DD
100
AcDbEntity
8
1
62
256
6
ByLayer
370
18
48
1
60
0
100
AcDbSpline
70
4
71
3
72
8
73
4
40
0
40
0
40
0
40
0
40
1
40
1
40
1
40
1
41
1
10
136.223850247847
20
7.03345402316927
30
0
41
1
10
136.230872892631
20
7.03306026698033
30
0
41
1
10
136.237895198366
20
7.03266653926991
30
0
41
1
10
136.244917186094
20
7.03227283826462
30
0
0
SPLINE
5
2DE
100
AcDbEntity
8
1
62
256
6
ByLayer
370
18
48
1
60
0
100
AcDbSpline
70
4
71
3
72
14
73
10
40
0
40
0
40
0
40
0
40
0.124999999999905
40
0.124999999999905
40
0.24999999999981
40
0.24999999999981
40
0.499999999999874
40
0.499999999999874
40
1
40
1
40
1
40
1
41
1
10
135.526569871189
20
8.14293150254235
30
0
41
1
10
135.531099284929
20
8.15354753764726
30
0
41
1
10
135.538586810646
20
8.16298249890173
30
0
41
1
10
135.557656407782
20
8.17783444199628
30
0
41
1
10
135.569003537957
20
8.18322477348519
30
0
41
1
10
135.604953247874
20
8.19435245463373
30
0
41
1
10
135.631421923452
20
8.19538788437441
30
0
41
1
10
135.708427894587
20
8.18872644363978
30
0
41
1
10
135.758355779798
20
8.17181748235598
30
0
41
1
10
135.804084910006
20
8.14841024767242
30
0
0
SPLINE
5
2DF
100
AcDbEntity
8
1
62
256
6
ByLayer
370
18
48
1
60
0
100
AcDbSpline
70
4
71
3
72
20
73
16
40
0
40
0
40
0
40
0
40
0.12500000000003
40
0.12500000000003
40
0.25000000000006
40
0.25000000000006
40
0.37500000000009
40
0.37500000000009
40
0.50000000000012
40
0.50000000000012
40
0.750000000000113
40
0.750000000000113
40
0.875000000000056
40
0.875000000000056
40
1
40
1
40
1
40
1
41
1
10
136.010484615776
20
6.61277488437943
30
0
41
1
10
135.996407380574
20
6.62854554890041
30
0
41
1
10
135.989027563429
20
6.64900154182538
30
0
41
1
10
135.981758355004
20
6.69140995102654
30
0
41
1
10
135.981915915569
20
6.71367376668317
30
0
41
1
10
135.987043073735
20
6.75788718090468
30
0
41
1
10
135.992135369557
20
6.78030671742616
30
0
41
1
10
136.005949436616
20
6.82375399946699
30
0
41
1
10
136.01469950086
20
6.84502298808567
30
0
41
1
10
136.04633127788
20
6.90754306741491
30
0
41
1
10
136.073807920775
20
6.94631221437498
30
0
41
1
10
136.123852043589
20
6.99345029153557
30
0
41
1
10
136.141965766507
20
7.00725461792598
30
0
41
1
10
136.181325469639
20
7.02783675868815
30
0
41
1
10
136.202479623117
20
7.03465226343457
30
0
41
1
10
136.223850247847
20
7.03345402316927
30
0
0
SPLINE
5
2E0
100
AcDbEntity
8
1
62
256
6
ByLayer
370
18
48
1
60
0
100
AcDbSpline
70
4
71
3
72
8
73
4
40
0
40
0
40
0
40
0
40
1
40
1
40
1
40
1
41
1
10
134.461468538622
20
6.94109151153978
30
0
41
1
10
134.455232260606
20
6.94000288465117
30
0
41
1
10
134.448996448466
20
6.93891432842545
30
0
41
1
10
134.442761073186
20
6.93782583846576
30
0
0
SPLINE
5
2E1
100
AcDbEntity
8
1
62
256
6
ByLayer
370
18
48
1
60
0
100
AcDbSpline
70
4
71
3
72
8
73
4
40
0
40
0
40
0
40
0
40
1
40
1
40
1
40
1
41
1
10
135.041077762946
20
8.1174879392899
30
0
41
1
10
135.04370561784
20
8.11146371594808
30
0
41
1
10
135.046333704183
20
8.10543915387839
30
0
41
1
10
135.048962037371
20
8.09941423062085
30
0
0
SPLINE
5
2E2
100
AcDbEntity
8
1
62
256
6
ByLayer
370
18
48
1
60
0
100
AcDbSpline
70
4
71
3
72
14
73
10
40
0
40
0
40
0
40
0
40
0.125000000000089
40
0.125000000000089
40
0.250000000000178
40
0.250000000000178
40
0.500000000000118
40
0.500000000000118
40
1
40
1
40
1
40
1
41
1
10
135.135851100994
20
6.30910492165671
30
0
41
1
10
135.132512412491
20
6.2985512898172
30
0
41
1
10
135.126159171976
20
6.28917577393128
30
0
41
1
10
135.109058799212
20
6.27442703351295
30
0
41
1
10
135.098539798672
20
6.26908010245918
30
0
41
1
10
135.064666785502
20
6.25806125637538
30
0
41
1
10
135.039077344248
20
6.25707190535309
30
0
41
1
10
134.963973371095
20
6.26383302557812
30
0
41
1
10
134.914427393331
20
6.28076200178316
30
0
41
1
10
134.868698263123
20
6.30416923646672
30
0
0
SPLINE
5
2E3
100
AcDbEntity
8
1
62
256
6
ByLayer
370
18
48
1
60
0
100
AcDbSpline
70
4
71
3
72
18
73
14
40
0
40
0
40
0
40
0
40
0.125000000000047
40
0.125000000000047
40
0.250000000000094
40
0.250000000000094
40
0.500000000000072
40
0.500000000000072
40
0.750000000000049
40
0.750000000000049
40
0.875000000000025
40
0.875000000000025
40
1
40
1
40
1
40
1
41
1
10
136.198831835084
20
7.51083377680234
30
0
41
1
10
136.177709573765
20
7.5074092417554
30
0
41
1
10
136.155880075307
20
7.51200056661665
30
0
41
1
10
136.114679787977
20
7.52832498919688
30
0
41
1
10
136.095125586803
20
7.54021873444637
30
0
41
1
10
136.040556909748
20
7.58178033437491
30
0
41
1
10
136.009155551892
20
7.61746150681677
30
0
41
1
10
135.958496892597
20
7.69593493977476
30
0
41
1
10
135.939326397812
20
7.73860636042448
30
0
41
1
10
135.92480153933
20
7.80357315290271
30
0
41
1
10
135.922316568251
20
7.82578879529163
30
0
41
1
10
135.925107749293
20
7.8685781682976
30
0
41
1
10
135.930301925501
20
7.8897380084897
30
0
41
1
10
135.942662098364
20
7.90690560961906
30
0
0
SPLINE
5
2E4
100
AcDbEntity
8
1
62
256
6
ByLayer
370
18
48
1
60
0
100
AcDbSpline
70
4
71
3
72
14
73
10
40
0
40
0
40
0
40
0
40
0.499999999999871
40
0.499999999999871
40
0.749999999999805
40
0.749999999999805
40
0.874999999999903
40
0.874999999999903
40
1
40
1
40
1
40
1
41
1
10
135.897910676443
20
6.35810797345931
30
0
41
1
10
135.854858776254
20
6.33003592853427
30
0
41
1
10
135.807012359844
20
6.3080117000319
30
0
41
1
10
135.731045060435
20
6.29333109108532
30
0
41
1
10
135.704662431406
20
6.29160812028553
30
0
41
1
10
135.667789219146
20
6.29890309772992
30
0
41
1
10
135.655798181748
20
6.30313144783511
30
0
41
1
10
135.635277173528
20
6.31595708394502
30
0
41
1
10
135.626958586134
20
6.32446208610904
30
0
41
1
10
135.621343209237
20
6.33454848490916
30
0
0
SPLINE
5
2E5
100
AcDbEntity
8
1
62
256
6
ByLayer
370
18
48
1
60
0
100
AcDbSpline
70
4
71
3
72
18
73
14
40
0
40
0
40
0
40
0
40
0.124999999999983
40
0.124999999999983
40
0.249999999999967
40
0.249999999999967
40
0.499999999999933
40
0.499999999999933
40
0.7499999999999
40
0.7499999999999
40
0.87499999999995
40
0.87499999999995
40
1
40
1
40
1
40
1
41
1
10
135.048962037371
20
8.09941423062082
30
0
41
1
10
135.056947268398
20
8.08110970045024
30
0
41
1
10
135.071927026811
20
8.06685865602694
30
0
41
1
10
135.106619478784
20
8.04431888851778
30
0
41
1
10
135.126559569406
20
8.03598006618651
30
0
41
1
10
135.189363021287
20
8.01739987356834
30
0
41
1
10
135.235570936406
20
8.01329093783622
30
0
41
1
10
135.328439014167
20
8.01815958371736
30
0
41
1
10
135.375138632621
20
8.02713939723813
30
0
41
1
10
135.439072217959
20
8.05236701613256
30
0
41
1
10
135.459439176309
20
8.06280821261717
30
0
41
1
10
135.495026910546
20
8.08909326244932
30
0
41
1
10
135.510323108047
20
8.10487242935028
30
0
41
1
10
135.518497406161
20
8.12402153659397
30
0
0
SPLINE
5
2E6
100
AcDbEntity
8
1
62
256
6
ByLayer
370
18
48
1
60
0
100
AcDbSpline
70
4
71
3
72
8
73
4
40
0
40
0
40
0
40
0
40
1
40
1
40
1
40
1
41
1
10
135.954784462949
20
7.92374256545497
30
0
41
1
10
135.950743826267
20
7.91813056906673
30
0
41
1
10
135.946703041333
20
7.91251825742259
30
0
41
1
10
135.942662098364
20
7.90690560961909
30
0
0
SPLINE
5
2E7
100
AcDbEntity
8
1
62
256
6
ByLayer
370
18
48
1
60
0
100
AcDbSpline
70
4
71
3
72
8
73
4
40
0
40
0
40
0
40
0
40
1
40
1
40
1
40
1
41
1
10
135.621343209237
20
6.33454848490916
30
0
41
1
10
135.61800836204
20
6.3405356563544
30
0
41
1
10
135.614673406779
20
6.34652317299384
30
0
41
1
10
135.611338336335
20
6.35251105772127
30
0
0
SPLINE
5
2E8
100
AcDbEntity
8
1
62
256
6
ByLayer
370
18
48
1
60
0
100
AcDbSpline
70
4
71
3
72
18
73
14
40
0
40
0
40
0
40
0
40
0.124999999999965
40
0.124999999999965
40
0.249999999999929
40
0.249999999999929
40
0.499999999999954
40
0.499999999999954
40
0.74999999999998
40
0.74999999999998
40
0.87499999999999
40
0.87499999999999
40
1
40
1
40
1
40
1
41
1
10
134.436450125859
20
7.41847126517283
30
0
41
1
10
134.455638705525
20
7.41716245266272
30
0
41
1
10
134.474876141082
20
7.42388826122991
30
0
41
1
10
134.510725673369
20
7.44420530830894
30
0
41
1
10
134.527491719884
20
7.45797367736253
30
0
41
1
10
134.573960132929
20
7.50473816727796
30
0
41
1
10
134.600269864425
20
7.54336438503168
30
0
41
1
10
134.642469516985
20
7.62657002753747
30
0
41
1
10
134.658377238248
20
7.67118486578914
30
0
41
1
10
134.669496029186
20
7.73797253197492
30
0
41
1
10
134.67105455032
20
7.76031270284076
30
0
41
1
10
134.667090365367
20
7.80299062904294
30
0
41
1
10
134.661659227997
20
7.82336454155515
30
0
41
1
10
134.64981575793
20
7.83915040396269
30
0
0
SPLINE
5
2E9
100
AcDbEntity
8
1
62
256
6
ByLayer
370
18
48
1
60
0
100
AcDbSpline
70
4
71
3
72
14
73
10
40
0
40
0
40
0
40
0
40
0.125000000000014
40
0.125000000000014
40
0.250000000000029
40
0.250000000000029
40
0.500000000000058
40
0.500000000000058
40
1
40
1
40
1
40
1
41
1
10
134.442761073186
20
6.93782583846576
30
0
41
1
10
134.432260125149
20
6.93599026537493
30
0
41
1
10
134.421253848503
20
6.9373398363814
30
0
41
1
10
134.400425979739
20
6.94572594346113
30
0
41
1
10
134.390739668769
20
6.95257415407616
30
0
41
1
10
134.36475984232
20
6.97745946593056
30
0
41
1
10
134.351301806943
20
6.99961478640583
30
0
41
1
10
134.319983249125
20
7.06916445959249
30
0
41
1
10
134.309876404476
20
7.12088476728337
30
0
41
1
10
134.307179173245
20
7.17235100507696
30
0
0
SPLINE
5
2EA
100
AcDbEntity
8
1
62
256
6
ByLayer
370
18
48
1
60
0
100
AcDbSpline
70
4
71
3
72
14
73
10
40
0
40
0
40
0
40
0
40
0.500000000000122
40
0.500000000000122
40
0.750000000000184
40
0.750000000000184
40
0.875000000000092
40
0.875000000000092
40
1
40
1
40
1
40
1
41
1
10
134.774872496686
20
8.0944715106798
30
0
41
1
10
134.817924396875
20
8.12254355560484
30
0
41
1
10
134.865389828465
20
8.14454781753886
30
0
41
1
10
134.939452523902
20
8.15912861042085
30
0
41
1
10
134.964956728792
20
8.16080554496227
30
0
41
1
10
134.999756137338
20
8.15340188407049
30
0
41
1
10
135.010908726979
20
8.14912959278033
30
0
41
1
10
135.029455712384
20
8.13620050251842
30
0
41
1
10
135.036653344144
20
8.12763675355899
30
0
41
1
10
135.041077762946
20
8.11748793928987
30
0
0
SPLINE
5
2EB
100
AcDbEntity
8
1
62
256
6
ByLayer
370
18
48
1
60
0
100
AcDbSpline
70
4
71
3
72
14
73
10
40
0
40
0
40
0
40
0
40
0.125000000000002
40
0.125000000000002
40
0.250000000000004
40
0.250000000000004
40
0.500000000000003
40
0.500000000000003
40
1
40
1
40
1
40
1
41
1
10
136.244917186094
20
7.03227283826462
30
0
41
1
10
136.256743203711
20
7.03160737186184
30
0
41
1
10
136.26868240344
20
7.03415946432972
30
0
41
1
10
136.290488812446
20
7.0447799392287
30
0
41
1
10
136.300234357495
20
7.05264653026506
30
0
41
1
10
136.325547337077
20
7.08021998417672
30
0
41
1
10
136.33749502065
20
7.1037067619632
30
0
41
1
10
136.363274089654
20
7.17624879497404
30
0
41
1
10
136.368301231115
20
7.22876224126858
30
0
41
1
10
136.365603999884
20
7.28022847906217
30
0
0
SPLINE
5
2EC
100
AcDbEntity
8
1
62
256
6
ByLayer
370
18
48
1
60
0
100
AcDbSpline
70
4
71
3
72
8
73
4
40
0
40
0
40
0
40
0
40
1
40
1
40
1
40
1
41
1
10
134.64981575793
20
7.83915040396269
30
0
41
1
10
134.645917007476
20
7.84434695006576
30
0
41
1
10
134.642018580991
20
7.84954318527019
30
0
41
1
10
134.638120458284
20
7.85473912890859
30
0
0
SPLINE
5
2ED
100
AcDbEntity
8
1
62
256
6
ByLayer
370
18
48
1
60
0
100
AcDbSpline
70
4
71
3
72
14
73
10
40
0
40
0
40
0
40
0
40
0.500000000000042
40
0.500000000000042
40
0.750000000000065
40
0.750000000000065
40
0.875000000000033
40
0.875000000000033
40
1
40
1
40
1
40
1
41
1
10
134.868698263123
20
6.30416923646672
30
0
41
1
10
134.822947878031
20
6.32758735082493
30
0
41
1
10
134.779927105401
20
6.35802625991539
30
0
41
1
10
134.728821524574
20
6.41590898165788
30
0
41
1
10
134.713934599239
20
6.43760024578387
30
0
41
1
10
134.701303278565
20
6.47238539433772
30
0
41
1
10
134.698758894998
20
6.48455121370446
30
0
41
1
10
134.69910201564
20
6.50792234971604
30
0
41
1
10
134.702019034873
20
6.51890426421937
30
0
41
1
10
134.707636509234
20
6.52829385874406
30
0
0
SPLINE
5
2EE
100
AcDbEntity
8
1
62
256
6
ByLayer
370
18
48
1
60
0
100
AcDbSpline
70
4
71
3
72
14
73
10
40
0
40
0
40
0
40
0
40
0.499999999999957
40
0.499999999999957
40
0.749999999999941
40
0.749999999999941
40
0.874999999999971
40
0.874999999999971
40
1
40
1
40
1
40
1
41
1
10
135.804084910006
20
8.14841024767242
30
0
41
1
10
135.849835295098
20
8.12499213331424
30
0
41
1
10
135.892475082908
20
8.09453325765537
30
0
41
1
10
135.941676059763
20
8.03655071984829
30
0
41
1
10
135.95568456096
20
8.01481341946393
30
0
41
1
10
135.966242077918
20
7.97991958746272
30
0
41
1
10
135.967948013728
20
7.967709826911
30
0
41
1
10
135.965630870272
20
7.94423523674746
30
0
41
1
10
135.961592895404
20
7.93319457544865
30
0
41
1
10
135.954784462949
20
7.92374256545497
30
0
0
SPLINE
5
2EF
100
AcDbEntity
8
1
62
256
6
ByLayer
370
18
48
1
60
0
100
AcDbSpline
70
4
71
3
72
8
73
4
40
0
40
0
40
0
40
0
40
1
40
1
40
1
40
1
41
1
10
135.141802967545
20
6.32790375174815
30
0
41
1
10
135.139818808611
20
6.32163709802154
30
0
41
1
10
135.137834857415
20
6.31537082930649
30
0
41
1
10
135.135851100994
20
6.30910492165671
30
0
0
SPLINE
5
2F0
100
AcDbEntity
8
1
62
256
6
ByLayer
370
18
48
1
60
0
100
AcDbSpline
70
4
71
3
72
14
73
10
40
0
40
0
40
0
40
0
40
0.500000000000095
40
0.500000000000095
40
0.750000000000146
40
0.750000000000146
40
0.875000000000073
40
0.875000000000073
40
1
40
1
40
1
40
1
41
1
10
136.365603999884
20
7.28022847906217
30
0
41
1
10
136.362905514981
20
7.33171863834545
30
0
41
1
10
136.352431923023
20
7.38337997696863
30
0
41
1
10
136.319169164103
20
7.45289713286988
30
0
41
1
10
136.304849769013
20
7.47495845579647
30
0
41
1
10
136.276830269846
20
7.49970972347421
30
0
41
1
10
136.26618645043
20
7.50659429564811
30
0
41
1
10
136.243347301143
20
7.51484940379459
30
0
41
1
10
136.231353858687
20
7.51610893325653
30
0
41
1
10
136.219659898997
20
7.51421058573331
30
0
0
SPLINE
5
2F1
100
AcDbEntity
8
1
62
256
6
ByLayer
370
18
48
1
60
0
100
AcDbSpline
70
4
71
3
72
8
73
4
40
0
40
0
40
0
40
0
40
1
40
1
40
1
40
1
41
1
10
135.518497406161
20
8.12402153659397
30
0
41
1
10
135.521188302351
20
8.13032522885072
30
0
41
1
10
135.523879122465
20
8.13662854299599
30
0
41
1
10
135.526569871189
20
8.14293150254235
30
0
0
SPLINE
5
2F2
100
AcDbEntity
8
1
62
256
6
ByLayer
370
18
48
1
60
0
100
AcDbSpline
70
4
71
3
72
18
73
14
40
0
40
0
40
0
40
0
40
0.124999999999999
40
0.124999999999999
40
0.249999999999997
40
0.249999999999997
40
0.499999999999998
40
0.499999999999998
40
0.749999999999999
40
0.749999999999999
40
0.875
40
0.875
40
1
40
1
40
1
40
1
41
1
10
134.717638275342
20
6.54501967872307
30
0
41
1
10
134.727768042386
20
6.56195913235632
30
0
41
1
10
134.73104341843
20
6.58288450512759
30
0
41
1
10
134.730513759033
20
6.6256529214333
30
0
41
1
10
134.72663002816
20
6.64772291971076
30
0
41
1
10
134.708587714023
20
6.71297812773722
30
0
41
1
10
134.688103701768
20
6.75568257924539
30
0
41
1
10
134.637435416314
20
6.83401958319385
30
0
41
1
10
134.607229509985
20
6.86968531840458
30
0
41
1
10
134.556122363325
20
6.9113348597217
30
0
41
1
10
134.538022960931
20
6.92327099304342
30
0
41
1
10
134.500161870945
20
6.93975248201718
30
0
41
1
10
134.480412857549
20
6.94439849928432
30
0
41
1
10
134.461468538622
20
6.94109151153978
30
0
0
SPLINE
5
2F3
100
AcDbEntity
8
1
62
256
6
ByLayer
370
18
48
1
60
0
100
AcDbSpline
70
4
71
3
72
18
73
14
40
0
40
0
40
0
40
0
40
0.125000000000016
40
0.125000000000016
40
0.250000000000031
40
0.250000000000031
40
0.500000000000064
40
0.500000000000064
40
0.750000000000096
40
0.750000000000096
40
0.875000000000048
40
0.875000000000048
40
1
40
1
40
1
40
1
41
1
10
135.611338336335
20
6.3525110577213
30
0
41
1
10
135.60120594212
20
6.37070305983747
30
0
41
1
10
135.584261581507
20
6.38485114382232
30
0
41
1
10
135.546195650112
20
6.4072141147665
30
0
41
1
10
135.524836185958
20
6.41547855088297
30
0
41
1
10
135.458618183476
20
6.4338797944869
30
0
41
1
10
135.411238611092
20
6.43792732626366
30
0
41
1
10
135.318370812824
20
6.43305869503013
30
0
41
1
10
135.272843176096
20
6.42414030246897
30
0
41
1
10
135.212324886237
20
6.39909167162617
30
0
41
1
10
135.19337599753
20
6.38872479302245
30
0
41
1
10
135.161169921702
20
6.36261696839779
30
0
41
1
10
135.14783036715
20
6.34694034480859
30
0
41
1
10
135.141802967545
20
6.32790375174815
30
0
0
SPLINE
5
2F4
100
AcDbEntity
8
1
62
256
6
ByLayer
370
18
48
1
60
0
100
AcDbSpline
70
4
71
3
72
14
73
10
40
0
40
0
40
0
40
0
40
0.125000000000002
40
0.125000000000002
40
0.250000000000004
40
0.250000000000004
40
0.500000000000054
40
0.500000000000054
40
1
40
1
40
1
40
1
41
1
10
134.638120458284
20
7.85473912890859
30
0
41
1
10
134.631553561368
20
7.86348838928998
30
0
41
1
10
134.627467667838
20
7.87424319886662
30
0
41
1
10
134.624724784024
20
7.89742964770278
30
0
41
1
10
134.625971538411
20
7.90964648958916
30
0
41
1
10
134.634903073506
20
7.94560506505974
30
0
41
1
10
134.647474096544
20
7.96877277591648
30
0
41
1
10
134.692210510871
20
8.03161116862333
30
0
41
1
10
134.731840597709
20
8.06641250756977
30
0
41
1
10
134.774872496686
20
8.0944715106798
30
0
0
SPLINE
5
2F5
100
AcDbEntity
8
1
62
256
6
ByLayer
370
18
48
1
60
0
100
AcDbSpline
70
4
71
3
72
14
73
10
40
0
40
0
40
0
40
0
40
0.125000000000019
40
0.125000000000019
40
0.250000000000037
40
0.250000000000037
40
0.500000000000074
40
0.500000000000074
40
1
40
1
40
1
40
1
41
1
10
136.024300513899
20
6.59729729529047
30
0
41
1
10
136.032058136052
20
6.5886104381745
30
0
41
1
10
136.037278314783
20
6.57791507396632
30
0
41
1
10
136.04199042297
20
6.5548318278064
30
0
41
1
10
136.041571798219
20
6.54265838635518
30
0
41
1
10
136.034716959871
20
6.50680864594938
30
0
41
1
10
136.023025171156
20
6.48368701381102
30
0
41
1
10
135.980190754811
20
6.42094830059457
30
0
41
1
10
135.94094257542
20
6.38616697656937
30
0
41
1
10
135.897910676443
20
6.35810797345931
30
0
0
SPLINE
5
2F6
100
AcDbEntity
8
1
62
256
6
ByLayer
370
18
48
1
60
0
100
AcDbSpline
70
4
71
3
72
8
73
4
40
0
40
0
40
0
40
0
40
1
40
1
40
1
40
1
41
1
10
136.010484615776
20
6.61277488437943
30
0
41
1
10
136.015090103486
20
6.60761537680651
30
0
41
1
10
136.019695398889
20
6.60245618703229
30
0
41
1
10
136.024300513899
20
6.59729729529047
30
0
0
SPLINE
5
2F7
100
AcDbEntity
8
1
62
256
6
ByLayer
370
18
48
1
60
0
100
AcDbSpline
70
4
71
3
72
14
73
10
40
0
40
0
40
0
40
0
40
0.499999999999958
40
0.499999999999958
40
0.749999999999979
40
0.749999999999979
40
0.874999999999989
40
0.874999999999989
40
1
40
1
40
1
40
1
41
1
10
134.307179173245
20
7.17235100507696
30
0
41
1
10
134.304480688342
20
7.22384116436018
30
0
41
1
10
134.309115839711
20
7.2762943186689
30
0
41
1
10
134.333025256308
20
7.34880774132566
30
0
41
1
10
134.344081747932
20
7.37219895812225
30
0
41
1
10
134.367286737661
20
7.39963478750803
30
0
41
1
10
134.376314167614
20
7.4075502861771
30
0
41
1
10
134.396191285068
20
7.41804405900274
30
0
41
1
10
134.406866413878
20
7.42049159794433
30
0
41
1
10
134.417503786089
20
7.41976358593442
30
0
0
SPLINE
5
2F8
100
AcDbEntity
8
1
62
256
6
ByLayer
370
18
48
1
60
0
100
AcDbSpline
70
4
71
3
72
12
73
8
40
0
40
0
40
0
40
0
40
0.500000000000067
40
0.500000000000067
40
0.750000000000033
40
0.750000000000033
40
1
40
1
40
1
40
1
41
1
10
140.536940327406
20
-7.02512007785819
30
0
41
1
10
140.528045752066
20
-7.09179376426505
30
0
41
1
10
140.49903125907
20
-7.15555315414031
30
0
41
1
10
140.432923529939
20
-7.23225244940704
30
0
41
1
10
140.407109911404
20
-7.25472998638764
30
0
41
1
10
140.350060868317
20
-7.29069477578196
30
0
41
1
10
140.318689951588
20
-7.30354692281892
30
0
41
1
10
140.286407700463
20
-7.31388648870291
30
0
0
SPLINE
5
2F9
100
AcDbEntity
8
1
62
256
6
ByLayer
370
18
48
1
60
0
100
AcDbSpline
70
4
71
2
72
12
73
9
40
0
40
0
40
0
40
0.25
40
0.5
40
0.5
40
0.75
40
0.75
40
0.875
40
1
40
1
40
1
41
1
10
140.122716851143
20
0.247709746744903
30
0
41
1
10
140.108814253406
20
0.295862514384027
30
0
41
1
10
140.054402275775
20
0.381006593051808
30
0
41
1
10
140.014967335851
20
0.415037940795429
30
0
41
1
10
139.977253152755
20
0.447584319267065
30
0
41
1
10
139.929642150971
20
0.469003621281132
30
0
41
1
10
139.90753078176
20
0.478951114031162
30
0
41
1
10
139.857914435914
20
0.493136482407238
30
0
41
1
10
139.831959424831
20
0.496530171527581
30
0
0
SPLINE
5
2FA
100
AcDbEntity
8
1
62
256
6
ByLayer
370
18
48
1
60
0
100
AcDbSpline
70
4
71
1
72
4
73
2
40
0
40
0
40
1
40
1
41
1
10
140.482471296329
20
-0.200192938491568
30
0
41
1
10
140.182226087116
20
0.0254802631413042
30
0
0
SPLINE
5
2FB
100
AcDbEntity
8
1
62
256
6
ByLayer
370
18
48
1
60
0
100
AcDbSpline
70
4
71
1
72
4
73
2
40
0
40
0
40
1
40
1
41
1
10
140.946018303776
20
-3.93908028634254
30
0
41
1
10
140.977657051292
20
-3.70040254730705
30
0
0
SPLINE
5
2FC
100
AcDbEntity
8
1
62
256
6
ByLayer
370
18
48
1
60
0
100
AcDbSpline
70
4
71
1
72
4
73
2
40
0
40
0
40
1
40
1
41
1
10
140.872711299082
20
-2.64723259032954
30
0
41
1
10
140.482471296329
20
-0.200192938491568
30
0
0
SPLINE
5
2FD
100
AcDbEntity
8
1
62
256
6
ByLayer
370
18
48
1
60
0
100
AcDbSpline
70
4
71
1
72
4
73
2
40
0
40
0
40
1
40
1
41
1
10
140.992648177146
20
-3.39930899015789
30
0
41
1
10
140.974282064892
20
-3.28414241416064
30
0
0
SPLINE
5
2FE
100
AcDbEntity
8
1
62
256
6
ByLayer
370
18
48
1
60
0
100
AcDbSpline
70
4
71
1
72
4
73
2
40
0
40
0
40
1
40
1
41
1
10
140.362314323315
20
0.232094869850954
30
0
41
1
10
140.122716851143
20
0.247709746744903
30
0
0
SPLINE
5
2FF
100
AcDbEntity
8
1
62
256
6
ByLayer
370
18
48
1
60
0
100
AcDbSpline
70
4
71
3
72
8
73
4
40
0
40
0
40
0
40
0
40
1
40
1
40
1
40
1
41
1
10
141.000016230658
20
-3.48472769718831
30
0
41
1
10
141.0003936493
20
-3.51336167125504
30
0
41
1
10
140.998666439994
20
-3.54190557548571
30
0
41
1
10
140.995767837087
20
-3.57039557545284
30
0
0
SPLINE
5
300
100
AcDbEntity
8
1
62
256
6
ByLayer
370
18
48
1
60
0
100
AcDbSpline
70
4
71
3
72
12
73
8
40
0
40
0
40
0
40
0
40
0.125000000053634
40
0.249999999840344
40
0.499999999470779
40
0.749999999387157
40
1
40
1
40
1
40
1
41
1
10
140.288650461473
20
-7.31324786816557
30
0
41
1
10
140.273401147235
20
-7.31759019423831
30
0
41
1
10
140.242902518791
20
-7.32627484637445
30
0
41
1
10
140.18190526029
20
-7.34364535923925
30
0
41
1
10
140.105658686703
20
-7.36535880785044
30
0
41
1
10
140.014162802631
20
-7.39141202884485
30
0
41
1
10
139.953165546536
20
-7.40878101415345
30
0
41
1
10
139.922666918447
20
-7.41746550681984
30
0
0
SPLINE
5
301
100
AcDbEntity
8
1
62
256
6
ByLayer
370
18
48
1
60
0
100
AcDbSpline
70
4
71
1
72
4
73
2
40
0
40
0
40
1
40
1
41
1
10
140.536940327405
20
-7.02510025089072
30
0
41
1
10
140.887182729883
20
-4.38292660940732
30
0
0
SPLINE
5
302
100
AcDbEntity
8
1
62
256
6
ByLayer
370
18
48
1
60
0
100
AcDbSpline
70
4
71
1
72
4
73
2
40
0
40
0
40
1
40
1
41
1
10
140.977657051292
20
-3.70040254730705
30
0
41
1
10
140.994902089625
20
-3.57030868829503
30
0
0
SPLINE
5
303
100
AcDbEntity
8
1
62
256
6
ByLayer
370
18
48
1
60
0
100
AcDbSpline
70
4
71
1
72
4
73
2
40
0
40
0
40
1
40
1
41
1
10
140.286407700463
20
-7.31387056876852
30
0
41
1
10
140.008341145985
20
-6.78412950969323
30
0
0
SPLINE
5
304
100
AcDbEntity
8
1
62
256
6
ByLayer
370
18
48
1
60
0
100
AcDbSpline
70
4
71
1
72
4
73
2
40
0
40
0
40
1
40
1
41
1
10
139.851145200122
20
-7.43320635920759
30
0
41
1
10
139.784582439791
20
-6.84323204478329
30
0
0
SPLINE
5
305
100
AcDbEntity
8
1
62
256
6
ByLayer
370
18
48
1
60
0
100
AcDbSpline
70
4
71
3
72
12
73
8
40
0
40
0
40
0
40
0
40
0.499999999999922
40
0.499999999999922
40
0.749999999999961
40
0.749999999999961
40
1
40
1
40
1
40
1
41
1
10
140.071556897007
20
0.480895467669285
30
0
41
1
10
140.138689447828
20
0.472061743963451
30
0
41
1
10
140.202883454333
20
0.443241442068654
30
0
41
1
10
140.280115939524
20
0.377590873514464
30
0
41
1
10
140.302748443048
20
0.351953962050487
30
0
41
1
10
140.338961433076
20
0.295295518354379
30
0
41
1
10
140.351902818803
20
0.264139792303041
30
0
41
1
10
140.362314323315
20
0.232078949916854
30
0
0
SPLINE
5
306
100
AcDbEntity
8
1
62
256
6
ByLayer
370
18
48
1
60
0
100
AcDbSpline
70
4
71
2
72
6
73
3
40
0
40
0
40
0
40
1
40
1
40
1
41
1
10
140.182226087116
20
0.0254802631412474
30
0
41
1
10
140.176485322068
20
0.0614783146073137
30
0
41
1
10
140.166370100313
20
0.0965132003214819
30
0
0
SPLINE
5
307
100
AcDbEntity
8
1
62
256
6
ByLayer
370
18
48
1
60
0
100
AcDbSpline
70
4
71
1
72
4
73
2
40
0
40
0
40
1
40
1
41
1
10
140.166370100313
20
0.0965132003214251
30
0
41
1
10
140.466615309534
20
-0.1291600013123
30
0
0
SPLINE
5
308
100
AcDbEntity
8
1
62
256
6
ByLayer
370
18
48
1
60
0
100
AcDbSpline
70
4
71
1
72
4
73
2
40
0
40
0
40
1
40
1
41
1
10
140.974282064892
20
-3.28414241416064
30
0
41
1
10
140.939180077823
20
-3.06403183192506
30
0
0
SPLINE
5
309
100
AcDbEntity
8
1
62
256
6
ByLayer
370
18
48
1
60
0
100
AcDbSpline
70
4
71
1
72
4
73
2
40
0
40
0
40
1
40
1
41
1
10
139.831959424831
20
0.496530171527638
30
0
41
1
10
140.071556897007
20
0.480915294636759
30
0
0
SPLINE
5
30A
100
AcDbEntity
8
1
62
256
6
ByLayer
370
18
48
1
60
0
100
AcDbSpline
70
4
71
1
72
4
73
2
40
0
40
0
40
1
40
1
41
1
10
140.939180077823
20
-3.06403183192506
30
0
41
1
10
140.872711299082
20
-2.64723259032954
30
0
0
SPLINE
5
30B
100
AcDbEntity
8
1
62
256
6
ByLayer
370
18
48
1
60
0
100
AcDbSpline
70
4
71
1
72
4
73
2
40
0
40
0
40
1
40
1
41
1
10
140.682503505787
20
-3.11156020366826
30
0
41
1
10
140.992648177146
20
-3.39930899015795
30
0
0
SPLINE
5
30C
100
AcDbEntity
8
1
62
256
6
ByLayer
370
18
48
1
60
0
100
AcDbSpline
70
4
71
2
72
6
73
3
40
0
40
0
40
0
40
1
40
1
40
1
41
1
10
139.784582439791
20
-6.84323204478332
30
0
41
1
10
139.820828203862
20
-6.83753051354014
30
0
41
1
10
139.856104174246
20
-6.82748442174062
30
0
0
SPLINE
5
30D
100
AcDbEntity
8
1
62
256
6
ByLayer
370
18
48
1
60
0
100
AcDbSpline
70
4
71
1
72
4
73
2
40
0
40
0
40
1
40
1
41
1
10
140.887182729883
20
-4.38292660940732
30
0
41
1
10
140.946018303776
20
-3.93908028634254
30
0
0
SPLINE
5
30E
100
AcDbEntity
8
1
62
256
6
ByLayer
370
18
48
1
60
0
100
AcDbSpline
70
4
71
1
72
4
73
2
40
0
40
0
40
1
40
1
41
1
10
139.856104174246
20
-6.82748442174059
30
0
41
1
10
139.922666934595
20
-7.4174587361637
30
0
0
SPLINE
5
30F
100
AcDbEntity
8
1
62
256
6
ByLayer
370
18
48
1
60
0
100
AcDbSpline
70
4
71
1
72
4
73
2
40
0
40
0
40
1
40
1
41
1
10
140.258873772935
20
-6.49535919181605
30
0
41
1
10
140.536940327406
20
-7.02510025089074
30
0
0
SPLINE
5
310
100
AcDbEntity
8
1
62
256
6
ByLayer
370
18
48
1
60
0
100
AcDbSpline
70
4
71
3
72
9
73
5
40
0
40
0
40
0
40
0
40
0.487857806393037
40
1
40
1
40
1
40
1
41
1
10
140.466615309534
20
-0.129166767369725
30
0
41
1
10
140.469729876825
20
-0.140599475848546
30
0
41
1
10
140.47611404707
20
-0.1640339855131
30
0
41
1
10
140.480318181632
20
-0.187951276740904
30
0
41
1
10
140.482471296329
20
-0.20020033073547
30
0
0
SPLINE
5
311
100
AcDbEntity
8
1
62
256
6
ByLayer
370
18
48
1
60
0
100
AcDbSpline
70
4
71
3
72
8
73
4
40
0
40
0
40
0
40
0
40
1
40
1
40
1
40
1
41
1
10
140.993317187259
20
-3.39922200395719
30
0
41
1
10
140.997060006049
20
-3.42761820319257
30
0
41
1
10
140.999638871263
20
-3.45609821840785
30
0
41
1
10
141.000016230658
20
-3.48472769718831
30
0
0
SPLINE
5
312
100
AcDbEntity
8
1
62
256
6
ByLayer
370
18
48
1
60
0
100
AcDbSpline
70
4
71
2
72
6
73
3
40
0
40
0
40
0
40
1
40
1
40
1
41
1
10
140.684757418258
20
-3.28255990180549
30
0
41
1
10
140.696112656559
20
-3.19689776858141
30
0
41
1
10
140.682503505787
20
-3.11156020366823
30
0
0
SPLINE
5
313
100
AcDbEntity
8
1
62
256
6
ByLayer
370
18
48
1
60
0
100
AcDbSpline
70
4
71
1
72
4
73
2
40
0
40
0
40
1
40
1
41
1
10
140.994902089625
20
-3.57030868829494
30
0
41
1
10
140.684757418258
20
-3.28255990180546
30
0
0
SPLINE
5
314
100
AcDbEntity
8
1
62
256
6
ByLayer
370
18
48
1
60
0
100
AcDbSpline
70
4
71
3
72
12
73
8
40
0
40
0
40
0
40
0
40
0.124999999558935
40
0.249999999555739
40
0.499999999681534
40
0.749999999339109
40
1
40
1
40
1
40
1
41
1
10
140.36162819942
20
0.234455303740873
30
0
41
1
10
140.366002662461
20
0.219304460319648
30
0
41
1
10
140.374751588557
20
0.189002773424136
30
0
41
1
10
140.392249441244
20
0.128398185520723
30
0
41
1
10
140.414121757239
20
0.0526421406050304
30
0
41
1
10
140.440368535213
20
-0.0382621925218416
30
0
41
1
10
140.457866387194
20
-0.0988652508482346
30
0
41
1
10
140.466615313201
20
-0.129166780072211
30
0
0
SPLINE
5
315
100
AcDbEntity
8
1
62
256
6
ByLayer
370
18
48
1
60
0
100
AcDbSpline
70
4
71
2
72
12
73
9
40
0
40
0
40
0
40
0.25
40
0.5
40
0.5
40
0.75
40
0.75
40
0.875
40
1
40
1
40
1
41
1
10
140.008341145985
20
-6.78412950969312
30
0
41
1
10
140.056825266133
20
-6.7703219257622
30
0
41
1
10
140.142555244757
20
-6.7162818130966
30
0
41
1
10
140.176820771619
20
-6.67711638134026
30
0
41
1
10
140.209591110719
20
-6.63965994633881
30
0
41
1
10
140.23115780488
20
-6.59237432995653
30
0
41
1
10
140.241173749076
20
-6.57041407534257
30
0
41
1
10
140.2554567309
20
-6.52113681991469
30
0
41
1
10
140.258873772935
20
-6.49535919181648
30
0
0
SPLINE
5
316
100
AcDbEntity
8
1
62
256
6
ByLayer
370
18
48
1
60
0
100
AcDbSpline
70
4
71
3
72
26
73
22
40
0
40
0
40
0
40
0
40
0.0084796322043117
40
0.0383375099738074
40
0.068195387743303
40
0.127911143282294
40
0.247342654360277
40
0.36677416543826
40
0.478741207073868
40
0.486205676516242
40
0.50113461540099
40
0.516063554285738
40
0.545921432055233
40
0.605637187594225
40
0.725068698672207
40
0.84450020975019
40
0.904215965289181
40
0.934073843058677
40
0.963931720828172
40
0.993789598597668
40
1
40
1
40
1
40
1
41
1
10
139.82040899893
20
-6.64604824483155
30
0
41
1
10
139.843369338088
20
-6.63849282209264
30
0
41
1
10
139.945817444287
20
-6.59536603513791
30
0
41
1
10
140.102452716405
20
-6.41594432117429
30
0
41
1
10
140.117188327861
20
-6.09597315103767
30
0
41
1
10
140.193955071952
20
-5.61990345538817
30
0
41
1
10
140.279394021841
20
-4.92231747157072
30
0
41
1
10
140.389039751073
20
-4.10818451272851
30
0
41
1
10
140.463560752932
20
-3.55366876787616
30
0
41
1
10
140.506523038322
20
-3.23174047298173
30
0
41
1
10
140.502520439764
20
-3.12539247157784
30
0
41
1
10
140.471536134403
20
-2.98111485105883
30
0
41
1
10
140.438264333828
20
-2.74222978434642
30
0
41
1
10
140.357846171591
20
-2.25741792467076
30
0
41
1
10
140.249683673795
20
-1.56659126241715
30
0
41
1
10
140.137783883799
20
-0.876414903166904
30
0
41
1
10
140.062990602418
20
-0.390671254171565
30
0
41
1
10
140.014999787678
20
-0.119505887064093
30
0
41
1
10
139.989287518483
20
0.136846064741548
30
0
41
1
10
139.814642676547
20
0.287234351313373
30
0
41
1
10
139.71803861326
20
0.322485865863598
30
0
41
1
10
139.701416286597
20
0.327473114819497
30
0
0
SPLINE
5
317
100
AcDbEntity
8
1
62
256
6
ByLayer
370
18
48
1
60
0
100
AcDbSpline
70
4
71
3
72
24
73
20
40
0
40
0
40
0
40
0
40
0.0154244745118066
40
0.0470320347184783
40
0.110247155131822
40
0.236677395958508
40
0.363107636785195
40
0.481635987560214
40
0.489537877611882
40
0.505341657715218
40
0.521145437818553
40
0.552752998025225
40
0.615968118438569
40
0.742398359265255
40
0.868828600091942
40
0.932043720505285
40
0.963651280711957
40
0.995258840918629
40
1
40
1
40
1
40
1
41
1
10
139.889944513845
20
-6.41812890260155
30
0
41
1
10
139.910610871769
20
-6.3944212419191
30
0
41
1
10
139.961654325089
20
-6.3108581304009
30
0
41
1
10
139.972825512445
20
-6.06828537385974
30
0
41
1
10
140.050456676817
20
-5.5868549675954
30
0
41
1
10
140.135669614577
20
-4.89111431185688
30
0
41
1
10
140.245427144688
20
-4.07615121780304
30
0
41
1
10
140.319936689694
20
-3.52172072415297
30
0
41
1
10
140.361276497564
20
-3.21195010237119
30
0
41
1
10
140.358201389596
20
-3.13024528443833
30
0
41
1
10
140.328735679283
20
-2.99303896267742
30
0
41
1
10
140.294998382151
20
-2.75081172109026
30
0
41
1
10
140.214778174205
20
-2.26719325585489
30
0
41
1
10
140.106575367566
20
-1.57610914370912
30
0
41
1
10
139.994646609056
20
-0.885754112240477
30
0
41
1
10
139.920010370962
20
-0.401030378106867
30
0
41
1
10
139.871361197844
20
-0.126145049331342
30
0
41
1
10
139.856643846289
20
0.0205873050867069
30
0
41
1
10
139.818975018641
20
0.0834993263243859
30
0
41
1
10
139.813600195884
20
0.0914100167549634
30
0
0
SPLINE
5
318
100
AcDbEntity
8
1
62
256
6
ByLayer
370
13
48
1
60
0
100
AcDbSpline
70
4
71
3
72
12
73
8
40
0
40
0
40
0
40
0
40
0.0363598175847849
40
0.0363598175847849
40
0.666149744784883
40
0.666149744784883
40
1
40
1
40
1
40
1
41
1
10
140.307336565248
20
3.59325457662919
30
0
41
1
10
140.305473885235
20
3.59126491180774
30
0
41
1
10
140.303598946079
20
3.58928943419699
30
0
41
1
10
140.269030212145
20
3.55336371785668
30
0
41
1
10
140.232867683967
20
3.52330744963737
30
0
41
1
10
140.171563816234
20
3.4840242631696
30
0
41
1
10
140.149644874803
20
3.47184121616357
30
0
41
1
10
140.127127960362
20
3.46106520255665
30
0
0
SPLINE
5
319
100
AcDbEntity
8
1
62
256
6
ByLayer
370
13
48
1
60
0
100
AcDbSpline
70
4
71
3
72
18
73
14
40
0
40
0
40
0
40
0
40
0.0690721630959974
40
0.0690721630959974
40
0.138144326191995
40
0.138144326191995
40
0.276288652383972
40
0.276288652383972
40
0.41443297857595
40
0.41443297857595
40
0.552577304767927
40
0.552577304767927
40
1
40
1
40
1
40
1
41
1
10
140.496198038842
20
3.97255666459813
30
0
41
1
10
140.495290037624
20
3.96014289665595
30
0
41
1
10
140.49411839378
20
3.94673757555154
30
0
41
1
10
140.491122789385
20
3.9198528722664
30
0
41
1
10
140.489297513883
20
3.90656338601681
30
0
41
1
10
140.483700982106
20
3.87092989013607
30
0
41
1
10
140.479977099306
20
3.85290708252853
30
0
41
1
10
140.472936816729
20
3.82265832315477
30
0
41
1
10
140.469580659694
20
3.81043206812663
30
0
41
1
10
140.463133208307
20
3.78905433897208
30
0
41
1
10
140.460016270889
20
3.77987710372898
30
0
41
1
10
140.447155642657
20
3.7449984194196
30
0
41
1
10
140.438108252996
20
3.72732513039298
30
0
41
1
10
140.429497764864
20
3.71405995527539
30
0
0
SPLINE
5
31A
100
AcDbEntity
8
1
62
256
6
ByLayer
370
13
48
1
60
0
100
AcDbSpline
70
4
71
3
72
10
73
6
40
0
40
0
40
0
40
0
40
0.283552140880022
40
0.283552140880022
40
1
40
1
40
1
40
1
41
1
10
140.405211675168
20
3.68544494723281
30
0
41
1
10
140.401334417633
20
3.68220769690126
30
0
41
1
10
140.397524969535
20
3.67961732687274
30
0
41
1
10
140.384279009141
20
3.67218516365514
30
0
41
1
10
140.375134616506
20
3.67001917967457
30
0
41
1
10
140.36622465611
20
3.66999560581348
30
0
0
SPLINE
5
31B
100
AcDbEntity
8
1
62
256
6
ByLayer
370
13
48
1
60
0
100
AcDbSpline
70
4
71
1
72
4
73
2
40
0
40
0
40
1
40
1
41
1
10
139.620307350017
20
3.56493333823536
30
0
41
1
10
139.562005813313
20
3.47730152133079
30
0
0
SPLINE
5
31C
100
AcDbEntity
8
1
62
256
6
ByLayer
370
13
48
1
60
0
100
AcDbSpline
70
4
71
3
72
10
73
6
40
0
40
0
40
0
40
0
40
0.0523557545723152
40
0.0523557545723152
40
1
40
1
40
1
40
1
41
1
10
130.092859112748
20
11.0128207117395
30
0
41
1
10
130.098044040457
20
11.0135338810669
30
0
41
1
10
130.103234507262
20
11.0141995299181
30
0
41
1
10
130.202459446947
20
11.0261712291042
30
0
41
1
10
130.296676154967
20
11.0359138650002
30
0
41
1
10
130.391050390156
20
11.0443050587253
30
0
0
SPLINE
5
31D
100
AcDbEntity
8
1
62
256
6
ByLayer
370
13
48
1
60
0
100
AcDbSpline
70
4
71
1
72
4
73
2
40
0
40
0
40
1
40
1
41
1
10
129.544437928402
20
6.91730470139905
30
0
41
1
10
129.598648778794
20
6.92172788812303
30
0
0
SPLINE
5
31E
100
AcDbEntity
8
1
62
256
6
ByLayer
370
13
48
1
60
0
100
AcDbSpline
70
4
71
3
72
10
73
6
40
0
40
0
40
0
40
0
40
0.470496236614138
40
0.470496236614138
40
1
40
1
40
1
40
1
41
1
10
138.836669655302
20
10.7711493314906
30
0
41
1
10
138.836686576362
20
10.7709029699095
30
0
41
1
10
138.849619611511
20
10.7703676133757
30
0
41
1
10
138.897941243157
20
10.7689403398496
30
0
41
1
10
138.935910565493
20
10.7680272298197
30
0
41
1
10
138.97517250595
20
10.7672527417793
30
0
0
SPLINE
5
31F
100
AcDbEntity
8
1
62
256
6
ByLayer
370
13
48
1
60
0
100
AcDbSpline
70
4
71
3
72
26
73
22
40
0
40
0
40
0
40
0
40
0.100758089072132
40
0.100758089072132
40
0.190682280164837
40
0.190682280164837
40
0.280606471257543
40
0.280606471257543
40
0.370530662350248
40
0.370530662350248
40
0.415492757896682
40
0.415492757896682
40
0.460454853443116
40
0.460454853443116
40
0.50541694898955
40
0.50541694898955
40
0.550379044535984
40
0.550379044535984
40
0.640303235628852
40
0.640303235628852
40
1
40
1
40
1
40
1
41
1
10
130.078360998998
20
10.8278661731609
30
0
41
1
10
130.090977674482
20
10.8323001631225
30
0
41
1
10
130.104474955529
20
10.8365189306682
30
0
41
1
10
130.132062514685
20
10.8439094389552
30
0
41
1
10
130.145731279159
20
10.8470423296402
30
0
41
1
10
130.174285916325
20
10.8522773145538
30
0
41
1
10
130.189223449003
20
10.8543412112013
30
0
41
1
10
130.218534302362
20
10.8572519444569
30
0
41
1
10
130.233220982518
20
10.8581833629876
30
0
41
1
10
130.254769922032
20
10.8591414000728
30
0
41
1
10
130.261893800966
20
10.8593881785931
30
0
41
1
10
130.276025158127
20
10.8597388127594
30
0
41
1
10
130.283013702303
20
10.8598024886207
30
0
41
1
10
130.297389093935
20
10.8605116397676
30
0
41
1
10
130.304843520054
20
10.8612827780884
30
0
41
1
10
130.319585290222
20
10.8625641167114
30
0
41
1
10
130.32679216693
20
10.8629486478227
30
0
41
1
10
130.348369291977
20
10.8640342976014
30
0
41
1
10
130.362743543442
20
10.8647416681063
30
0
41
1
10
130.434227633041
20
10.8676738658693
30
0
41
1
10
130.48974354636
20
10.8681431797928
30
0
41
1
10
130.545137384679
20
10.8686016463517
30
0
0
SPLINE
5
320
100
AcDbEntity
8
1
62
256
6
ByLayer
370
13
48
1
60
0
100
AcDbSpline
70
4
71
3
72
20
73
16
40
0
40
0
40
0
40
0
40
0.0479988698167774
40
0.0479988698167774
40
0.0959977396335548
40
0.0959977396335548
40
0.191995479267086
40
0.191995479267086
40
0.287993218900618
40
0.287993218900618
40
0.38399095853415
40
0.38399095853415
40
0.767981917068277
40
0.767981917068277
40
1
40
1
40
1
40
1
41
1
10
130.226480391294
20
3.43434356882631
30
0
41
1
10
130.228681010473
20
3.42209271677578
30
0
41
1
10
130.231247473544
20
3.40888330155352
30
0
41
1
10
130.237036884425
20
3.38245900141004
30
0
41
1
10
130.240241290451
20
3.36943310959975
30
0
41
1
10
130.249531878407
20
3.33457981460404
30
0
41
1
10
130.25511925777
20
3.31704498956904
30
0
41
1
10
130.265282829275
20
3.28769784598271
30
0
41
1
10
130.269898592581
20
3.27588938159624
30
0
41
1
10
130.278545305331
20
3.2553027040644
30
0
41
1
10
130.282604450137
20
3.2465015513543
30
0
41
1
10
130.301991974595
20
3.20717053192422
30
0
41
1
10
130.314888732194
20
3.18919888703436
30
0
41
1
10
130.33385783055
20
3.16839117085743
30
0
41
1
10
130.340576190111
20
3.16261174320496
30
0
41
1
10
130.346979763169
20
3.15831528091252
30
0
0
SPLINE
5
321
100
AcDbEntity
8
1
62
256
6
ByLayer
370
13
48
1
60
0
100
AcDbSpline
70
4
71
3
72
18
73
14
40
0
40
0
40
0
40
0
40
0.167795757661096
40
0.167795757661096
40
0.335591515322192
40
0.335591515322192
40
0.503387272983288
40
0.503387272983288
40
0.671183030644384
40
0.671183030644384
40
0.83897878830548
40
0.83897878830548
40
1
40
1
40
1
40
1
41
1
10
22.01
20
-6.43132156485396
30
0
41
1
10
22.01
20
-6.29924692878862
30
0
41
1
10
22.01
20
-6.16196118975583
30
0
41
1
10
22.01
20
-5.87740197743898
30
0
41
1
10
22.01
20
-5.72897305561983
30
0
41
1
10
22.01
20
-5.42686686403852
30
0
41
1
10
22.01
20
-5.27531982875894
30
0
41
1
10
22.01
20
-4.97126373399911
30
0
41
1
10
22.01
20
-4.81717687888718
30
0
41
1
10
22.01
20
-4.51713437240346
30
0
41
1
10
22.01
20
-4.37127734446509
30
0
41
1
10
22.01
20
-4.09352638028207
30
0
41
1
10
22.01
20
-3.96033253844195
30
0
41
1
10
22.01
20
-3.83555956485574
30
0
0
SPLINE
5
322
100
AcDbEntity
8
1
62
256
6
ByLayer
370
18
48
1
60
0
100
AcDbSpline
70
4
71
1
72
4
73
2
40
0
40
0
40
1
40
1
41
1
10
140.071556897007
20
0.480915294636759
30
0
41
1
10
139.784155235434
20
0.518493852741955
30
0
0
SPLINE
5
323
100
AcDbEntity
8
1
62
256
6
ByLayer
370
13
48
1
60
0
100
AcDbSpline
70
4
71
3
72
12
73
8
40
0
40
0
40
0
40
0
40
0.326854590054108
40
0.326854590054108
40
0.663427295027054
40
0.663427295027054
40
1
40
1
40
1
40
1
41
1
10
22.4499541453013
20
-3.8414436194675
30
0
41
1
10
22.4498742548564
20
-4.09464112149064
30
0
41
1
10
22.4498144961558
20
-4.37553171854802
30
0
41
1
10
22.4497416852011
20
-4.96651061983124
30
0
41
1
10
22.4497300965389
20
-5.27703952698798
30
0
41
1
10
22.4497591454311
20
-5.87862811466866
30
0
41
1
10
22.4497997743042
20
-6.16950801044646
30
0
41
1
10
22.4498638325453
20
-6.43132158818582
30
0
0
SPLINE
5
324
100
AcDbEntity
8
1
62
256
6
ByLayer
370
13
48
1
60
0
100
AcDbSpline
70
4
71
3
72
8
73
4
40
0
40
0
40
0
40
0
40
1
40
1
40
1
40
1
41
1
10
129.499787373224
20
6.34920551851596
30
0
41
1
10
129.514342759403
20
6.34735966619508
30
0
41
1
10
129.529054752997
20
6.34542334880859
30
0
41
1
10
129.543921043104
20
6.34340020536689
30
0
0
SPLINE
5
325
100
AcDbEntity
8
1
62
256
6
ByLayer
370
13
48
1
60
0
100
AcDbSpline
70
4
71
3
72
22
73
18
40
0
40
0
40
0
40
0
40
0.178480702274973
40
0.178480702274973
40
0.267721053412459
40
0.267721053412459
40
0.356961404549946
40
0.356961404549946
40
0.535442106824918
40
0.535442106824918
40
0.624682457962405
40
0.624682457962405
40
0.713922809099891
40
0.713922809099891
40
0.892403511374863
40
0.892403511374863
40
1
40
1
40
1
40
1
41
1
10
22.01
20
-6.43656052514223
30
0
41
1
10
22.01
20
-6.29700430938178
30
0
41
1
10
22.01
20
-6.1508254654089
30
0
41
1
10
22.01
20
-5.92168805149561
30
0
41
1
10
22.01
20
-5.8433444664245
30
0
41
1
10
22.01
20
-5.68462147028487
30
0
41
1
10
22.01
20
-5.6048737865832
30
0
41
1
10
22.01
20
-5.36450745365616
30
0
41
1
10
22.01
20
-5.20277595634241
30
0
41
1
10
22.01
20
-4.95789483780885
30
0
41
1
10
22.01
20
-4.87590557087228
30
0
41
1
10
22.01
20
-4.71387377868859
30
0
41
1
10
22.01
20
-4.63348867445876
30
0
41
1
10
22.01
20
-4.39424230186927
30
0
41
1
10
22.01
20
-4.2410842056818
30
0
41
1
10
22.01
20
-4.00656807252673
30
0
41
1
10
22.01
20
-3.9207425367739
30
0
41
1
10
22.01
20
-3.8373705251243
30
0
0
SPLINE
5
326
100
AcDbEntity
8
1
62
256
6
ByLayer
370
13
48
1
60
0
100
AcDbSpline
70
4
71
3
72
32
73
28
40
0
40
0
40
0
40
0
40
0.008651769153301
40
0.008651769153301
40
0.0537130523736053
40
0.0537130523736053
40
0.0987743355939097
40
0.0987743355939097
40
0.121304977204062
40
0.121304977204062
40
0.143835618814214
40
0.143835618814214
40
0.188896902034518
40
0.188896902034518
40
0.21142754364467
40
0.21142754364467
40
0.233958185254822
40
0.233958185254822
40
0.279019468475126
40
0.279019468475126
40
0.369142034915736
40
0.369142034915736
40
0.459264601356345
40
0.459264601356345
40
0.639509734237563
40
0.639509734237563
40
1
40
1
40
1
40
1
41
1
10
93.2154850955049
20
-5.89872642861832
30
0
41
1
10
93.0141555493863
20
-5.91360535488866
30
0
41
1
10
92.8127370425632
20
-5.9280755667649
30
0
41
1
10
91.5617164635158
20
-6.01554279581387
30
0
41
1
10
90.5098177492517
20
-6.07870174957873
30
0
41
1
10
88.4012775802165
20
-6.18989950877304
30
0
41
1
10
87.3446583879044
20
-6.2378081057924
30
0
41
1
10
85.7558032826835
20
-6.29740714740629
30
0
41
1
10
85.22552672355
20
-6.31520987416263
30
0
41
1
10
84.1635725168447
20
-6.34649283375046
30
0
41
1
10
83.6317153714154
20
-6.35997613636539
30
0
41
1
10
82.036542441929
20
-6.39356434468087
30
0
41
1
10
80.9729589455166
20
-6.40589820702701
30
0
41
1
10
79.3773794025948
20
-6.41735214458882
30
0
41
1
10
78.8454858605589
20
-6.42006282217625
30
0
41
1
10
77.7816328411389
20
-6.4247074834966
30
0
41
1
10
77.2496698527651
20
-6.42683300102664
30
0
41
1
10
75.6537193761714
20
-6.43205117223695
30
0
41
1
10
74.5897004533004
20
-6.4335761913085
30
0
41
1
10
71.3975694153994
20
-6.43619560026286
30
0
41
1
10
69.2693690500843
20
-6.43448476031369
30
0
41
1
10
65.0129879021315
20
-6.43208182597317
30
0
41
1
10
62.8848124710647
20
-6.43065105569755
30
0
41
1
10
56.5003436659179
20
-6.42930760723394
30
0
41
1
10
52.2440945736328
20
-6.43130516606303
30
0
41
1
10
39.4752465999632
20
-6.43300595100288
30
0
41
1
10
30.9626098889347
20
-6.42986297951231
30
0
41
1
10
22.45
20
-6.43132156485396
30
0
0
SPLINE
5
327
100
AcDbEntity
8
1
62
256
6
ByLayer
370
13
48
1
60
0
100
AcDbSpline
70
4
71
3
72
34
73
30
40
0
40
0
40
0
40
0
40
0.0114578036436234
40
0.0114578036436234
40
0.101325276039658
40
0.101325276039658
40
0.146259012237675
40
0.146259012237675
40
0.191192748435692
40
0.191192748435692
40
0.281060220831726
40
0.281060220831726
40
0.37092769322776
40
0.37092769322776
40
0.460795165623795
40
0.460795165623795
40
0.550662638019829
40
0.550662638019829
40
0.640530110415863
40
0.640530110415863
40
0.68546384661388
40
0.68546384661388
40
0.730397582811897
40
0.730397582811897
40
0.820265055207931
40
0.820265055207931
40
0.910132527603966
40
0.910132527603966
40
1
40
1
40
1
40
1
41
1
10
106.390215612009
20
-9.13234169220127
30
0
41
1
10
106.25744101684
20
-9.16562895973141
30
0
41
1
10
106.124659066239
20
-9.19852346326056
30
0
41
1
10
104.950320774587
20
-9.48590019277776
30
0
41
1
10
103.907737762752
20
-9.71558432890106
30
0
41
1
10
102.33380590987
20
-10.0156277689399
30
0
41
1
10
101.807558377262
20
-10.1082356416735
30
0
41
1
10
100.752406772821
20
-10.2779215795404
30
0
41
1
10
100.223144458649
20
-10.3549809256918
30
0
41
1
10
98.6291717033603
20
-10.5643303079822
30
0
41
1
10
97.5583942193138
20
-10.674930610795
30
0
41
1
10
95.3976742762322
20
-10.850018631326
30
0
41
1
10
94.3065354738542
20
-10.9145990648601
30
0
41
1
10
92.112766996552
20
-11.0101526012366
30
0
41
1
10
91.0097428336044
20
-11.0413426129402
30
0
41
1
10
88.7913702629513
20
-11.0822654999654
30
0
41
1
10
87.6761122182075
20
-11.0919753333684
30
0
41
1
10
85.4324658557212
20
-11.0993592512602
30
0
41
1
10
84.3082316945617
20
-11.0970177059523
30
0
41
1
10
82.6194674803859
20
-11.090860208469
30
0
41
1
10
82.0560590216692
20
-11.0883558310159
30
0
41
1
10
80.9282134334841
20
-11.0833205330301
30
0
41
1
10
80.3637808288881
20
-11.0807924290684
30
0
41
1
10
78.6691384454979
20
-11.0739160522717
30
0
41
1
10
77.5375463897892
20
-11.0704088940979
30
0
41
1
10
75.2720499347227
20
-11.0661658928941
30
0
41
1
10
74.1382135113583
20
-11.0652693621737
30
0
41
1
10
71.8696064467331
20
-11.0647094791456
30
0
41
1
10
70.7348344892761
20
-11.0650205064073
30
0
41
1
10
69.6
20
-11.0654066064921
30
0
0
SPLINE
5
328
100
AcDbEntity
8
1
62
256
6
ByLayer
370
13
48
1
60
0
100
AcDbSpline
70
4
71
3
72
10
73
6
40
0
40
0
40
0
40
0
40
0.718221990569387
40
0.718221990569387
40
1
40
1
40
1
40
1
41
1
10
129.725791555743
20
7.38225927487886
30
0
41
1
10
129.681488318714
20
7.31454009352106
30
0
41
1
10
129.644868946922
20
7.24572629331814
30
0
41
1
10
129.604658335354
20
7.15249736228552
30
0
41
1
10
129.59462725286
20
7.12672500156054
30
0
41
1
10
129.586398272226
20
7.10291415142362
30
0
0
SPLINE
5
329
100
AcDbEntity
8
1
62
256
6
ByLayer
370
13
48
1
60
0
100
AcDbSpline
70
4
71
3
72
10
73
6
40
0
40
0
40
0
40
0
40
0.655762321703405
40
0.655762321703405
40
1
40
1
40
1
40
1
41
1
10
131.208067138039
20
11.0103144681337
30
0
41
1
10
131.138232050843
20
10.9992819911892
30
0
41
1
10
131.063597648337
20
10.9893651279741
30
0
41
1
10
130.942695307907
20
10.9763540001327
30
0
41
1
10
130.899497946174
20
10.9722431628925
30
0
41
1
10
130.855324790877
20
10.9685917552285
30
0
0
SPLINE
5
32A
100
AcDbEntity
8
1
62
256
6
ByLayer
370
13
48
1
60
0
100
AcDbSpline
70
4
71
3
72
8
73
4
40
0
40
0
40
0
40
0
40
1
40
1
40
1
40
1
41
1
10
131.982050986734
20
2.97850427411626
30
0
41
1
10
131.975173902188
20
2.97083603095058
30
0
41
1
10
131.969687610295
20
2.96448164384671
30
0
41
1
10
131.965985214015
20
2.95966831388489
30
0
0
SPLINE
5
32B
100
AcDbEntity
8
1
62
256
6
ByLayer
370
13
48
1
60
0
100
AcDbSpline
70
4
71
3
72
14
73
10
40
0
40
0
40
0
40
0
40
0.151192057385902
40
0.151192057385902
40
0.320953645908721
40
0.320953645908721
40
0.660476822954361
40
0.660476822954361
40
1
40
1
40
1
40
1
41
1
10
131.961933677587
20
2.9486559108135
30
0
41
1
10
131.963995260473
20
2.9485931235694
30
0
41
1
10
131.968181236117
20
2.95028975225043
30
0
41
1
10
131.980749449387
20
2.95718004905726
30
0
41
1
10
131.9896863692
20
2.96282305758856
30
0
41
1
10
132.021563812366
20
2.98486377482544
30
0
41
1
10
132.049112357984
20
3.00603087571861
30
0
41
1
10
132.110012924906
20
3.05865966019419
30
0
41
1
10
132.142682819831
20
3.089489433019
30
0
41
1
10
132.176333925119
20
3.12513893499926
30
0
0
SPLINE
5
32C
100
AcDbEntity
8
1
62
256
6
ByLayer
370
13
48
1
60
0
100
AcDbSpline
70
4
71
3
72
8
73
4
40
0
40
0
40
0
40
0
40
1
40
1
40
1
40
1
41
1
10
139.784830033623
20
0.572451162924608
30
0
41
1
10
139.887335514355
20
0.597692909602813
30
0
41
1
10
139.989782285482
20
0.611009862538879
30
0
41
1
10
140.093087672732
20
0.614358994035968
30
0
0
SPLINE
5
32D
100
AcDbEntity
8
1
62
256
6
ByLayer
370
13
48
1
60
0
100
AcDbSpline
70
4
71
3
72
8
73
4
40
0
40
0
40
0
40
0
40
1
40
1
40
1
40
1
41
1
10
126.182838766723
20
4.22744297019122
30
0
41
1
10
123.431011693691
20
4.31943337514818
30
0
41
1
10
120.682648683667
20
4.32918014839149
30
0
41
1
10
117.93331080476
20
4.25968069758704
30
0
0
SPLINE
5
32E
100
AcDbEntity
8
1
62
256
6
ByLayer
370
13
48
1
60
0
100
AcDbSpline
70
4
71
3
72
46
73
42
40
0
40
0
40
0
40
0
40
0.074966734843709
40
0.074966734843709
40
0.149933469687418
40
0.149933469687418
40
0.224900204531127
40
0.224900204531127
40
0.299866939374836
40
0.299866939374836
40
0.374833674218545
40
0.374833674218545
40
0.412317041640399
40
0.412317041640399
40
0.449800409062254
40
0.449800409062254
40
0.524767143905962
40
0.524767143905962
40
0.562250511327816
40
0.562250511327816
40
0.59973387874967
40
0.59973387874967
40
0.637217246171524
40
0.637217246171524
40
0.674700613593378
40
0.674700613593378
40
0.712183981015232
40
0.712183981015232
40
0.749667348437086
40
0.749667348437086
40
0.78715071585894
40
0.78715071585894
40
0.824634083280795
40
0.824634083280795
40
0.862117450702649
40
0.862117450702649
40
0.899600818124503
40
0.899600818124503
40
0.974567552968211
40
0.974567552968211
40
1
40
1
40
1
40
1
41
1
10
121.073606506034
20
2.87526883057606
30
0
41
1
10
120.044336375485
20
3.32248582949273
30
0
41
1
10
119.014588878923
20
3.76184670996713
30
0
41
1
10
116.951764117779
20
4.61979584847617
30
0
41
1
10
115.921752467161
20
5.03708178486011
30
0
41
1
10
113.862490556503
20
5.84296612532168
30
0
41
1
10
112.833118142556
20
6.23155146445552
30
0
41
1
10
110.772401816621
20
6.97526294069675
30
0
41
1
10
109.740571261208
20
7.33064248591475
30
0
41
1
10
107.681716799825
20
8.00161791925433
30
0
41
1
10
106.653951224727
20
8.31795579523418
30
0
41
1
10
105.112107756159
20
8.75917728751156
30
0
41
1
10
104.598005921304
20
8.90052782207519
30
0
41
1
10
103.568344466929
20
9.17034699137071
30
0
41
1
10
103.05251879187
20
9.29894522375807
30
0
41
1
10
101.503006919331
20
9.66216261173184
30
0
41
1
10
100.467255110634
20
9.87340437807455
30
0
41
1
10
98.8991571103607
20
10.1399841793191
30
0
41
1
10
98.3741265912449
20
10.220664419232
30
0
41
1
10
97.3178942587645
20
10.3662608003649
30
0
41
1
10
96.7865156160182
20
10.4310510659614
30
0
41
1
10
95.7182028863372
20
10.5477742425655
30
0
41
1
10
95.1813082258001
20
10.5997454170233
30
0
41
1
10
94.1034000519497
20
10.6936336367995
30
0
41
1
10
93.5624415920323
20
10.7355727534443
30
0
41
1
10
92.4769353103832
20
10.8108926172509
30
0
41
1
10
91.9327623165356
20
10.8442373733645
30
0
41
1
10
90.843261455428
20
10.9034633488631
30
0
41
1
10
90.2977411363148
20
10.9293656650887
30
0
41
1
10
89.2045018207557
20
10.9742521846569
30
0
41
1
10
88.6567791420875
20
10.9932343329983
30
0
41
1
10
87.5584045655142
20
11.0251048641269
30
0
41
1
10
87.0077416260499
20
11.0380009606889
30
0
41
1
10
85.9031788416618
20
11.0589833218587
30
0
41
1
10
85.3492793229055
20
11.0670717472685
30
0
41
1
10
84.2379812228133
20
11.079684480592
30
0
41
1
10
83.6805852059198
20
11.0842193621101
30
0
41
1
10
82.0034682606519
20
11.0943037995728
30
0
41
1
10
80.8776614474723
20
11.0964393654717
30
0
41
1
10
79.3702519685066
20
11.0974277236297
30
0
41
1
10
78.9882708962539
20
11.0975072439619
30
0
41
1
10
78.6061513860108
20
11.0975009116325
30
0
0
SPLINE
5
32F
100
AcDbEntity
8
1
62
256
6
ByLayer
370
13
48
1
60
0
100
AcDbSpline
70
4
71
3
72
22
73
18
40
0
40
0
40
0
40
0
40
0.327305458237345
40
0.327305458237345
40
0.40913182279668
40
0.40913182279668
40
0.490958187356015
40
0.490958187356015
40
0.654610916474684
40
0.654610916474684
40
0.818263645593353
40
0.818263645593353
40
0.900090010152688
40
0.900090010152688
40
0.981916374712022
40
0.981916374712022
40
1
40
1
40
1
40
1
41
1
10
125.396356155011
20
10.9350954995795
30
0
41
1
10
123.157829523715
20
11.1070070741542
30
0
41
1
10
120.926050636435
20
11.1426730903084
30
0
41
1
10
118.13012327774
20
11.0156834385726
30
0
41
1
10
117.570446341117
20
10.9816801843479
30
0
41
1
10
116.452974375897
20
10.8967993545603
30
0
41
1
10
115.894811897345
20
10.8459114151102
30
0
41
1
10
114.221399196094
20
10.6682646814164
30
0
41
1
10
113.107183049641
20
10.5165758582751
30
0
41
1
10
110.878974640861
20
10.1479605956656
30
0
41
1
10
109.765175710414
20
9.93053918145182
30
0
41
1
10
108.087781650242
20
9.56221496378541
30
0
41
1
10
107.527177122403
20
9.43235523626049
30
0
41
1
10
106.405512666433
20
9.16153637341927
30
0
41
1
10
105.844194319879
20
9.02054640925724
30
0
41
1
10
105.157516694826
20
8.8431553323091
30
0
41
1
10
105.033178195807
20
8.81083508264709
30
0
41
1
10
104.908786125887
20
8.77831271531051
30
0
0
SPLINE
5
330
100
AcDbEntity
8
1
62
256
6
ByLayer
370
13
48
1
60
0
100
AcDbSpline
70
4
71
3
72
26
73
22
40
0
40
0
40
0
40
0
40
0.300187554424902
40
0.300187554424902
40
0.375234443031128
40
0.375234443031128
40
0.450281331637355
40
0.450281331637355
40
0.600375108849807
40
0.600375108849807
40
0.675421997456034
40
0.675421997456034
40
0.750468886062261
40
0.750468886062261
40
0.825515774668489
40
0.825515774668489
40
0.900562663274716
40
0.900562663274716
40
0.975609551880943
40
0.975609551880943
40
1
40
1
40
1
40
1
41
1
10
125.64759030923
20
10.4213403623804
30
0
41
1
10
123.619471689205
20
10.5983241013499
30
0
41
1
10
121.595567706578
20
10.6701376121457
30
0
41
1
10
119.059759184589
20
10.6196354655272
30
0
41
1
10
118.5522057118
20
10.6026292470338
30
0
41
1
10
117.538164493403
20
10.55515948215
30
0
41
1
10
117.031431606314
20
10.524694740389
30
0
41
1
10
115.511645329586
20
10.4135588705104
30
0
41
1
10
114.498997530219
20
10.3135152531559
30
0
41
1
10
112.979203868669
20
10.1239761030989
30
0
41
1
10
112.472470291718
20
10.0540878476143
30
0
41
1
10
111.458398981931
20
9.90029320692707
30
0
41
1
10
110.95115820919
20
9.81615557655761
30
0
41
1
10
109.937661058611
20
9.63658043880835
30
0
41
1
10
109.431176494327
20
9.54130553872585
30
0
41
1
10
108.418272831579
20
9.3417735619565
30
0
41
1
10
107.91180235556
20
9.23714626846004
30
0
41
1
10
106.897501176004
20
9.01787756623804
30
0
41
1
10
106.389665159734
20
8.90324097240344
30
0
41
1
10
105.714890293665
20
8.74507427647831
30
0
41
1
10
105.549228509591
20
8.70580480054494
30
0
41
1
10
105.383411852299
20
8.66609749937402
30
0
0
SPLINE
5
331
100
AcDbEntity
8
1
62
256
6
ByLayer
370
13
48
1
60
0
100
AcDbSpline
70
4
71
3
72
12
73
8
40
0
40
0
40
0
40
0
40
0.388379244422968
40
0.388379244422968
40
0.694189622211484
40
0.694189622211484
40
1
40
1
40
1
40
1
41
1
10
115.923304189712
20
5.02636431011064
30
0
41
1
10
117.279517697718
20
5.1126421634774
30
0
41
1
10
118.635392494074
20
5.17598218428773
30
0
41
1
10
121.059721965172
20
5.24682614364693
30
0
41
1
10
122.128276492802
20
5.26335126851947
30
0
41
1
10
124.26510092471
20
5.26642125834849
30
0
41
1
10
125.333343087373
20
5.25297755107218
30
0
41
1
10
126.40178209608
20
5.22433395577733
30
0
0
SPLINE
5
332
100
AcDbEntity
8
1
62
256
6
ByLayer
370
13
48
1
60
0
100
AcDbSpline
70
4
71
3
72
28
73
24
40
0
40
0
40
0
40
0
40
0.215338186271497
40
0.215338186271497
40
0.323007279407246
40
0.323007279407246
40
0.37684182597512
40
0.37684182597512
40
0.430676372542994
40
0.430676372542994
40
0.646014558814491
40
0.646014558814491
40
0.699849105382366
40
0.699849105382366
40
0.75368365195024
40
0.75368365195024
40
0.861352745085988
40
0.861352745085988
40
0.915187291653866
40
0.915187291653866
40
0.969021838221743
40
0.969021838221743
40
1
40
1
40
1
40
1
41
1
10
126.116438314185
20
4.00483800704197
30
0
41
1
10
125.668873225663
20
4.11277053332103
30
0
41
1
10
125.21202908299
20
4.18425147915522
30
0
41
1
10
124.513969543042
20
4.24925839890014
30
0
41
1
10
124.279091742799
20
4.2636976309349
30
0
41
1
10
123.923187660028
20
4.27480857439446
30
0
41
1
10
123.803952427358
20
4.27674783424541
30
0
41
1
10
123.56419782284
20
4.27707505346211
30
0
41
1
10
123.443406040744
20
4.2754518525955
30
0
41
1
10
122.840486959582
20
4.25844830103853
30
0
41
1
10
122.36040995743
20
4.21694255417771
30
0
41
1
10
121.762867228326
20
4.12949648867584
30
0
41
1
10
121.64348809725
20
4.11020311603679
30
0
41
1
10
121.404990459537
20
4.06786115523212
30
0
41
1
10
121.285494099908
20
4.04472776911513
30
0
41
1
10
120.931394589187
20
3.97021887906561
30
0
41
1
10
120.700585169221
20
3.91374390110283
30
0
41
1
10
120.363377666378
20
3.81811301926658
30
0
41
1
10
120.252483789669
20
3.78440486652283
30
0
41
1
10
120.034044868652
20
3.71299195878061
30
0
41
1
10
119.926005853641
20
3.67509423653084
30
0
41
1
10
119.761319383939
20
3.61276172944997
30
0
41
1
10
119.702275779957
20
3.58945535934296
30
0
41
1
10
119.644423048282
20
3.56555736389893
30
0
0
SPLINE
5
333
100
AcDbEntity
8
1
62
256
6
ByLayer
370
13
48
1
60
0
100
AcDbSpline
70
4
71
3
72
34
73
30
40
0
40
0
40
0
40
0
40
0.0003822680157389
40
0.109995840473491
40
0.229708370288125
40
0.35965769452688
40
0.499817716608613
40
0.515000089917858
40
0.530891793714071
40
0.547495292466733
40
0.564812935891217
40
0.582846940605836
40
0.601599369275598
40
0.621072107459276
40
0.641266838334749
40
0.662185015451416
40
0.683827833643846
40
0.706196198235024
40
0.729290692658767
40
0.75311154463765
40
0.77765859106425
40
0.802931241749014
40
0.828928442216991
40
0.855648635757787
40
0.883089724957968
40
0.911249032972719
40
0.940123264823384
40
0.969708469039757
40
1
40
1
40
1
40
1
41
1
10
20.4008547627948
20
-4.16749611687959
30
0
41
1
10
20.4009948255724
20
-4.16779049135749
30
0
41
1
10
20.4413059947293
20
-4.25249966947214
30
0
41
1
10
20.5307503280864
20
-4.43197919353324
30
0
41
1
10
20.688300567964
20
-4.71785519015137
30
0
41
1
10
20.8786124779111
20
-5.03006159283382
30
0
41
1
10
21.031257840137
20
-5.25701416858769
30
0
41
1
10
21.1261212427018
20
-5.39139556217287
30
0
41
1
10
21.1526782033399
20
-5.42874267479431
30
0
41
1
10
21.1806078625319
20
-5.46764872891833
30
0
41
1
10
21.2099420638613
20
-5.50808728452395
30
0
41
1
10
21.2407161216782
20
-5.55002310969908
30
0
41
1
10
21.2729620500202
20
-5.59341872345837
30
0
41
1
10
21.3067099377969
20
-5.63823221004776
30
0
41
1
10
21.3419869682507
20
-5.68441752485947
30
0
41
1
10
21.3788170782884
20
-5.73192409415876
30
0
41
1
10
21.4172204059293
20
-5.78069662089271
30
0
41
1
10
21.4572127687397
20
-5.83067484044062
30
0
41
1
10
21.498805105752
20
-5.88179330038807
30
0
41
1
10
21.5420029041081
20
-5.93398115107567
30
0
41
1
10
21.5868056054848
20
-5.98716193486882
30
0
41
1
10
21.6332060013863
20
-6.04125345428656
30
0
41
1
10
21.6811895990712
20
-6.09616741289267
30
0
41
1
10
21.7307340413285
20
-6.15181003572292
30
0
41
1
10
21.7818082728975
20
-6.20807898785748
30
0
41
1
10
21.8343726654232
20
-6.26487479289048
30
0
41
1
10
21.8883754192096
20
-6.32205613269696
30
0
41
1
10
21.9437634120491
20
-6.37961276368964
30
0
41
1
10
21.9811076289032
20
-6.41742464329141
30
0
41
1
10
22
20
-6.43655360411807
30
0
0
SPLINE
5
334
100
AcDbEntity
8
1
62
256
6
ByLayer
370
13
48
1
60
0
100
AcDbSpline
70
4
71
3
72
12
73
8
40
0
40
0
40
0
40
0
40
0.555741952314658
40
0.555741952314658
40
0.833612928471987
40
0.833612928471987
40
1
40
1
40
1
40
1
41
1
10
6.62547704516729
20
-11.8892995998294
30
0
41
1
10
6.79912358738804
20
-11.2429239589283
30
0
41
1
10
7.02555942028295
20
-10.6074889445152
30
0
41
1
10
7.4472582545045
20
-9.6704687319374
30
0
41
1
10
7.60160872094721
20
-9.36084133150308
30
0
41
1
10
7.8718286824259
20
-8.87032501870013
30
0
41
1
10
7.97778148201269
20
-8.68866311686668
30
0
41
1
10
8.08837525093344
20
-8.50917523753324
30
0
0
SPLINE
5
335
100
AcDbEntity
8
1
62
256
6
ByLayer
370
13
48
1
60
0
100
AcDbSpline
70
4
71
3
72
18
73
14
40
0
40
0
40
0
40
0
40
0.0809910287436384
40
0.0809910287436384
40
0.234159190619699
40
0.234159190619699
40
0.310743271557729
40
0.310743271557729
40
0.38732735249576
40
0.38732735249576
40
0.69366367624788
40
0.69366367624788
40
1
40
1
40
1
40
1
41
1
10
10.0282705125618
20
-7.39551620184739
30
0
41
1
10
9.89250985055213
20
-7.53512142509967
30
0
41
1
10
9.75989642935156
20
-7.67707530183921
30
0
41
1
10
9.38550315637994
20
-8.09423096599406
30
0
41
1
10
9.15181946426071
20
-8.37544635832813
30
0
41
1
10
8.81856599541078
20
-8.81003641929448
30
0
41
1
10
8.71014360689236
20
-8.95735633500041
30
0
41
1
10
8.50058332419493
20
-9.25438458318231
30
0
41
1
10
8.3994177574514
20
-9.40409555105117
30
0
41
1
10
7.91158990512673
20
-10.1585629815488
30
0
41
1
10
7.57986484069002
20
-10.7815610268199
30
0
41
1
10
7.02289039365601
20
-12.0640453499142
30
0
41
1
10
6.7971285605887
20
-12.7230725469974
30
0
41
1
10
6.62343662944446
20
-13.3991139825267
30
0
0
SPLINE
5
336
100
AcDbEntity
8
1
62
256
6
ByLayer
370
13
48
1
60
0
100
AcDbSpline
70
4
71
3
72
8
73
4
40
0
40
0
40
0
40
0
40
1
40
1
40
1
40
1
41
1
10
116.548078259852
20
4.78261716100224
30
0
41
1
10
118.392787982061
20
4.07308471379775
30
0
41
1
10
120.236654325432
20
3.32397024480176
30
0
41
1
10
122.086048794256
20
2.54898120166845
30
0
0
SPLINE
5
337
100
AcDbEntity
8
1
62
256
6
ByLayer
370
13
48
1
60
0
100
AcDbSpline
70
4
71
3
72
46
73
42
40
0
40
0
40
0
40
0
40
0.0189784076956316
40
0.0189784076956316
40
0.0378442075476385
40
0.0378442075476385
40
0.0567100073996455
40
0.0567100073996455
40
0.0944416071036594
40
0.0944416071036594
40
0.132173206807673
40
0.132173206807673
40
0.169904806511687
40
0.169904806511687
40
0.207636406215701
40
0.207636406215701
40
0.245368005919715
40
0.245368005919715
40
0.283099605623729
40
0.283099605623729
40
0.301965405475736
40
0.301965405475736
40
0.320831205327743
40
0.320831205327743
40
0.33969700517975
40
0.33969700517975
40
0.358562805031757
40
0.358562805031757
40
0.396294404735771
40
0.396294404735771
40
0.434026004439786
40
0.434026004439786
40
0.4717576041438
40
0.4717576041438
40
0.547220803551829
40
0.547220803551829
40
0.698147202367886
40
0.698147202367886
40
0.849073601183943
40
0.849073601183943
40
1
40
1
40
1
40
1
41
1
10
105.807953940636
20
-8.99719530692244
30
0
41
1
10
105.315493614121
20
-9.10771427622274
30
0
41
1
10
104.822752588505
20
-9.21252643413609
30
0
41
1
10
103.83850201996
20
-9.40981624861391
30
0
41
1
10
103.346980481628
20
-9.50243055262243
30
0
41
1
10
102.361027860699
20
-9.67625383810909
30
0
41
1
10
101.866346179839
20
-9.75763509173214
30
0
41
1
10
100.37851453884
20
-9.98270891758699
30
0
41
1
10
99.3813993474648
20
-10.1051842397849
30
0
41
1
10
97.3724337209265
20
-10.31032961985
30
0
41
1
10
96.3606590108006
20
-10.3933861397389
30
0
41
1
10
94.3221248000216
20
-10.5238043801271
30
0
41
1
10
93.2947054765048
20
-10.5708107302639
30
0
41
1
10
91.2324246033011
20
-10.6372174636094
30
0
41
1
10
90.1966875353355
20
-10.6567458037915
30
0
41
1
10
88.115664977417
20
-10.6789028754077
30
0
41
1
10
87.0704036806013
20
-10.6822939002668
30
0
41
1
10
84.9693639152723
20
-10.6811400042148
30
0
41
1
10
83.9164838280276
20
-10.6763870720495
30
0
41
1
10
82.3358624845765
20
-10.6665672769499
30
0
41
1
10
81.8086399843018
20
-10.662835038749
30
0
41
1
10
80.7534799663369
20
-10.6547418880163
30
0
41
1
10
80.225546915424
20
-10.6505105081241
30
0
41
1
10
79.169018967298
20
-10.6439966035724
30
0
41
1
10
78.6404238847549
20
-10.6417029197024
30
0
41
1
10
77.582618322742
20
-10.6415236612699
30
0
41
1
10
77.0533915106473
20
-10.6449087423437
30
0
41
1
10
75.4651280178057
20
-10.6537496292444
30
0
41
1
10
74.4056014572937
20
-10.6531734139342
30
0
41
1
10
72.2858843480996
20
-10.6498193352608
30
0
41
1
10
71.2256895474243
20
-10.6471155165892
30
0
41
1
10
69.1051163649918
20
-10.6446161737428
30
0
41
1
10
68.0447518493601
20
-10.6448655876789
30
0
41
1
10
64.8637393844023
20
-10.6471813128317
30
0
41
1
10
62.7430612266101
20
-10.6458099488404
30
0
41
1
10
56.3810133729802
20
-10.6424803402094
30
0
41
1
10
52.139634081512
20
-10.6405159785424
30
0
41
1
10
43.6568818671825
20
-10.64024626298
30
0
41
1
10
39.4155054317604
20
-10.6416670661071
30
0
41
1
10
30.9327524821734
20
-10.6431535639825
30
0
41
1
10
26.6913759704856
20
-10.6432531102276
30
0
41
1
10
22.45
20
-10.6429085455244
30
0
0
SPLINE
5
338
100
AcDbEntity
8
1
62
256
6
ByLayer
370
13
48
1
60
0
100
AcDbSpline
70
4
71
3
72
8
73
4
40
0
40
0
40
0
40
0
40
1
40
1
40
1
40
1
41
1
10
138.584130970516
20
4.01523163555103
30
0
41
1
10
138.559892083018
20
3.98736925020859
30
0
41
1
10
138.53581267811
20
3.96134140243504
30
0
41
1
10
138.511525852845
20
3.93738048961163
30
0
0
SPLINE
5
339
100
AcDbEntity
8
1
62
256
6
ByLayer
370
13
48
1
60
0
100
AcDbSpline
70
4
71
1
72
4
73
2
40
0
40
0
40
1
40
1
41
1
10
139.749675077619
20
3.53825392986653
30
0
41
1
10
139.766856763138
20
3.56506968618117
30
0
0
SPLINE
5
33A
100
AcDbEntity
8
1
62
256
6
ByLayer
370
18
48
1
60
0
100
AcDbSpline
70
4
71
3
72
8
73
4
40
0
40
0
40
0
40
0
40
1
40
1
40
1
40
1
41
1
10
135.237823950567
20
-2.74183381866672
30
0
41
1
10
135.253851806877
20
-2.70542614087802
30
0
41
1
10
135.271262185781
20
-2.6696771551949
30
0
41
1
10
135.290103451205
20
-2.63471055730631
30
0
0
SPLINE
5
33B
100
AcDbEntity
8
1
62
256
6
ByLayer
370
13
48
1
60
0
100
AcDbSpline
70
4
71
2
72
6
73
3
40
0
40
0
40
0
40
1
40
1
40
1
41
1
10
140.305572351642
20
3.59140593918707
30
0
41
1
10
140.355304654706
20
3.64399701250488
30
0
41
1
10
140.406301295765
20
3.68502351374411
30
0
0
SPLINE
5
33C
100
AcDbEntity
8
1
62
256
6
ByLayer
370
13
48
1
60
0
100
AcDbSpline
70
4
71
2
72
6
73
3
40
0
40
0
40
0
40
1
40
1
40
1
41
1
10
130.345940069003
20
3.15778232306434
30
0
41
1
10
130.400945782255
20
3.12231116981334
30
0
41
1
10
130.455902910635
20
3.07520663711185
30
0
0
SPLINE
5
33D
100
AcDbEntity
8
1
62
256
6
ByLayer
370
13
48
1
60
0
100
AcDbSpline
70
4
71
2
72
6
73
3
40
0
40
0
40
0
40
1
40
1
40
1
41
1
10
116.530923429415
20
4.78921726574222
30
0
41
1
10
116.445901471162
20
4.82160158298231
30
0
41
1
10
116.360913323513
20
4.85611016344507
30
0
0
SPLINE
5
33E
100
AcDbEntity
8
1
62
256
6
ByLayer
370
13
48
1
60
0
100
AcDbSpline
70
4
71
3
72
15
73
11
40
0
40
0
40
0
40
0
40
0.186383288999659
40
0.373440137863822
40
0.560346887089104
40
0.648198049036124
40
0.735784492844198
40
0.823977097309473
40
0.912304388235626
40
1
40
1
40
1
40
1
41
1
10
5.83369999999996
20
-16
30
0
41
1
10
6.88115720019721
20
-15.8525703731449
30
0
41
1
10
8.95566019629234
20
-15.4613438420064
30
0
41
1
10
12.0075599522524
20
-14.5824562931344
30
0
41
1
10
14.4432405601285
20
-13.6264759626694
30
0
41
1
10
16.293740676086
20
-12.7454320607739
30
0
41
1
10
17.6161722621605
20
-12.0509800811966
30
0
41
1
10
19.0379450490568
20
-11.5737852912301
30
0
41
1
10
20.5082118332918
20
-11.2774210064945
30
0
41
1
10
21.5007310504792
20
-11.2127813074953
30
0
41
1
10
22
20
-11.2125
30
0
0
SPLINE
5
33F
100
AcDbEntity
8
1
62
256
6
ByLayer
370
13
48
1
60
0
100
AcDbSpline
70
4
71
3
72
15
73
11
40
0
40
0
40
0
40
0
40
0.111712546031162
40
0.224109599335403
40
0.335724826435363
40
0.447520189393394
40
0.559652905741179
40
0.70669404810091
40
0.853609279150653
40
1
40
1
40
1
40
1
41
1
10
22
20
11.2125
30
0
41
1
10
21.3615223297954
20
11.2132401443947
30
0
41
1
10
20.1027220385334
20
11.32176397395
30
0
41
1
10
18.2437149034346
20
11.7828090502342
30
0
41
1
10
16.5294855383697
20
12.6118520019839
30
0
41
1
10
14.8286089670514
20
13.4525668240709
30
0
41
1
10
12.8824905113649
20
14.2425547402538
30
0
41
1
10
10.7044723727119
20
14.9767188609089
30
0
41
1
10
8.28783716576004
20
15.5932965011899
30
0
41
1
10
6.65532178597692
20
15.884445226312
30
0
41
1
10
5.83370000000002
20
16
30
0
0
LINE
5
7F
100
AcDbEntity
8
SK1
62
256
6
ByLayer
370
13
48
1
60
0
100
AcDbLine
10
-6.5
20
-6.998572
30
0
11
-52.599857
21
-6.998572
31
0
39
0
210
0
220
0
230
1
0
LINE
5
81
100
AcDbEntity
8
SK1
62
256
6
ByLayer
370
13
48
1
60
0
100
AcDbLine
10
-55
20
6.998572
30
0
11
-54.60004
21
6.998572
31
0
39
0
210
0
220
0
230
1
0
LINE
5
82
100
AcDbEntity
8
SK1
62
256
6
ByLayer
370
13
48
1
60
0
100
AcDbLine
10
-52.599857
20
6.998572
30
0
11
-6.5
21
6.998572
31
0
39
0
210
0
220
0
230
1
0
LINE
5
83
100
AcDbEntity
8
SK1
62
256
6
ByLayer
370
13
48
1
60
0
100
AcDbLine
10
-56
20
4.998651
30
0
11
-56
21
-4.998651
31
0
39
0
210
0
220
0
230
1
0
LINE
5
84
100
AcDbEntity
8
SK1
62
256
6
ByLayer
370
13
48
1
60
0
100
AcDbLine
10
-54.60004
20
-6.998572
30
0
11
-55
21
-6.998572
31
0
39
0
210
0
220
0
230
1
0
LINE
5
85
100
AcDbEntity
8
1
62
256
6
ByLayer
370
13
48
1
60
0
100
AcDbLine
10
140.317691
20
11.001759
30
0
11
140.844279
21
7.667419
31
0
39
0
210
0
220
0
230
1
0
LINE
5
86
100
AcDbEntity
8
1
62
256
6
ByLayer
370
13
48
1
60
0
100
AcDbLine
10
140.366225
20
3.669996
30
0
11
140.35697
21
3.717942
31
0
39
0
210
0
220
0
230
1
0
LINE
5
87
100
AcDbEntity
8
1
62
256
6
ByLayer
370
13
48
1
60
0
100
AcDbLine
10
140.846182
20
7.52394
30
0
11
140.440759
21
4.426108
31
0
39
0
210
0
220
0
230
1
0
LINE
5
88
100
AcDbEntity
8
1
62
256
6
ByLayer
370
13
48
1
60
0
100
AcDbLine
10
129.602593
20
6.765952
30
0
11
130.22648
21
3.434344
31
0
39
0
210
0
220
0
230
1
0
LINE
5
89
100
AcDbEntity
8
1
62
256
6
ByLayer
370
13
48
1
60
0
100
AcDbLine
10
140.844279
20
7.667419
30
0
11
140.839667
21
7.667177
31
0
39
0
210
0
220
0
230
1
0
LINE
5
8A
100
AcDbEntity
8
1
62
256
6
ByLayer
370
13
48
1
60
0
100
AcDbLine
10
140.841569
20
7.523698
30
0
11
140.436146
21
4.425866
31
0
39
0
210
0
220
0
230
1
0
LINE
5
8B
100
AcDbEntity
8
1
62
256
6
ByLayer
370
13
48
1
60
0
100
AcDbLine
10
131.422556
20
6.788085
30
0
11
131.896994
21
3.783966
31
0
39
0
210
0
220
0
230
1
0
LINE
5
8C
100
AcDbEntity
8
1
62
256
6
ByLayer
370
13
48
1
60
0
100
AcDbLine
10
131.660476
20
3.683381
30
0
11
131.175915
21
6.751608
31
0
39
0
210
0
220
0
230
1
0
LINE
5
8D
100
AcDbEntity
8
1
62
256
6
ByLayer
370
13
48
1
60
0
100
AcDbLine
10
131.458644
20
3.145049
30
0
11
131.454031
21
3.144807
31
0
39
0
210
0
220
0
230
1
0
LINE
5
8E
100
AcDbEntity
8
1
62
256
6
ByLayer
370
13
48
1
60
0
100
AcDbLine
10
139.916103
20
3.567427
30
0
11
140.072411
21
4.159927
31
0
39
0
210
0
220
0
230
1
0
LINE
5
8F
100
AcDbEntity
8
1
62
256
6
ByLayer
370
13
48
1
60
0
100
AcDbLine
10
140.314782
20
4.297364
30
0
11
140.310169
21
4.297122
31
0
39
0
210
0
220
0
230
1
0
LINE
5
90
100
AcDbEntity
8
1
62
256
6
ByLayer
370
13
48
1
60
0
100
AcDbLine
10
140.440759
20
4.426108
30
0
11
140.436146
21
4.425866
31
0
39
0
210
0
220
0
230
1
0
LINE
5
91
100
AcDbEntity
8
1
62
256
6
ByLayer
370
13
48
1
60
0
100
AcDbLine
10
130.357765
20
10.155203
30
0
11
131.652448
21
10.349237
31
0
39
0
210
0
220
0
230
1
0
LINE
5
92
100
AcDbEntity
8
1
62
256
6
ByLayer
370
13
48
1
60
0
100
AcDbLine
10
131.339217
20
6.976877
30
0
11
131.758183
21
10.178195
31
0
39
0
210
0
220
0
230
1
0
LINE
5
93
100
AcDbEntity
8
1
62
256
6
ByLayer
370
13
48
1
60
0
100
AcDbLine
10
140.944906
20
7.510865
30
0
11
140.541013
21
4.424725
31
0
39
0
210
0
220
0
230
1
0
LINE
5
94
100
AcDbEntity
8
1
62
256
6
ByLayer
370
13
48
1
60
0
100
AcDbLine
10
139.383165
20
11.417547
30
0
11
139.487762
21
11.422109
31
0
39
0
210
0
220
0
230
1
0
LINE
5
95
100
AcDbEntity
8
1
62
256
6
ByLayer
370
13
48
1
60
0
100
AcDbLine
10
139.383165
20
11.417547
30
0
11
139.378553
21
11.417305
31
0
39
0
210
0
220
0
230
1
0
LINE
5
96
100
AcDbEntity
8
1
62
256
6
ByLayer
370
13
48
1
60
0
100
AcDbLine
10
131.339217
20
6.976877
30
0
11
131.334605
21
6.976636
31
0
39
0
210
0
220
0
230
1
0
LINE
5
97
100
AcDbEntity
8
1
62
256
6
ByLayer
370
13
48
1
60
0
100
AcDbLine
10
140.274223
20
4.444753
30
0
11
140.679646
21
7.542585
31
0
39
0
210
0
220
0
230
1
0
LINE
5
98
100
AcDbEntity
8
1
62
256
6
ByLayer
370
13
48
1
60
0
100
AcDbLine
10
140.678314
20
7.64302
30
0
11
140.151726
21
10.977361
31
0
39
0
210
0
220
0
230
1
0
LINE
5
99
100
AcDbEntity
8
1
62
256
6
ByLayer
370
13
48
1
60
0
100
AcDbLine
10
131.758183
20
10.178195
30
0
11
131.765913
21
10.237258
31
0
39
0
210
0
220
0
230
1
0
LINE
5
9A
100
AcDbEntity
8
1
62
256
6
ByLayer
370
13
48
1
60
0
100
AcDbLine
10
140.072411
20
4.159927
30
0
11
140.325516
21
4.19786
31
0
39
0
210
0
220
0
230
1
0
LINE
5
9B
100
AcDbEntity
8
1
62
256
6
ByLayer
370
13
48
1
60
0
100
AcDbLine
10
131.172681
20
6.995522
30
0
11
131.590768
21
10.190122
31
0
39
0
210
0
220
0
230
1
0
LINE
5
9C
100
AcDbEntity
8
1
62
256
6
ByLayer
370
13
48
1
60
0
100
AcDbLine
10
131.289381
20
3.035021
30
0
11
131.184784
21
3.030458
31
0
39
0
210
0
220
0
230
1
0
LINE
5
9D
100
AcDbEntity
8
1
62
256
6
ByLayer
370
13
48
1
60
0
100
AcDbLine
10
140.317691
20
11.001759
30
0
11
140.313079
21
11.001518
31
0
39
0
210
0
220
0
230
1
0
LINE
5
9E
100
AcDbEntity
8
1
62
256
6
ByLayer
370
13
48
1
60
0
100
AcDbLine
10
140.942624
20
7.68304
30
0
11
140.416035
21
11.01738
31
0
39
0
210
0
220
0
230
1
0
LINE
5
9F
100
AcDbEntity
8
1
62
256
6
ByLayer
370
13
48
1
60
0
100
AcDbLine
10
131.34188
20
6.776007
30
0
11
131.337268
21
6.775765
31
0
39
0
210
0
220
0
230
1
0
LINE
5
A0
100
AcDbEntity
8
1
62
256
6
ByLayer
370
13
48
1
60
0
100
AcDbLine
10
139.044881
20
4.260512
30
0
11
140.274223
21
4.444753
31
0
39
0
210
0
220
0
230
1
0
LINE
5
A1
100
AcDbEntity
8
1
62
256
6
ByLayer
370
13
48
1
60
0
100
AcDbLine
10
131.159787
20
3.179348
30
0
11
131.264384
21
3.183911
31
0
39
0
210
0
220
0
230
1
0
LINE
5
A2
100
AcDbEntity
8
1
62
256
6
ByLayer
370
13
48
1
60
0
100
AcDbLine
10
139.487762
20
11.422109
30
0
11
139.48315
21
11.421868
31
0
39
0
210
0
220
0
230
1
0
LINE
5
A3
100
AcDbEntity
8
1
62
256
6
ByLayer
370
13
48
1
60
0
100
AcDbLine
10
139.013051
20
4.001161
30
0
11
140.072411
21
4.159927
31
0
39
0
210
0
220
0
230
1
0
LINE
5
A4
100
AcDbEntity
8
1
62
256
6
ByLayer
370
13
48
1
60
0
100
AcDbLine
10
131.816317
20
3.771888
30
0
11
131.34188
21
6.776007
31
0
39
0
210
0
220
0
230
1
0
LINE
5
A5
100
AcDbEntity
8
1
62
256
6
ByLayer
370
13
48
1
60
0
100
AcDbLine
10
138.975173
20
10.767253
30
0
11
139.459734
21
7.699025
31
0
39
0
210
0
220
0
230
1
0
LINE
5
A6
100
AcDbEntity
8
1
62
256
6
ByLayer
370
13
48
1
60
0
100
AcDbLine
10
130.285521
20
10.761137
30
0
11
130.347031
21
10.254707
31
0
39
0
210
0
220
0
230
1
0
LINE
5
A7
100
AcDbEntity
8
1
62
256
6
ByLayer
370
13
48
1
60
0
100
AcDbLine
10
140.068784
20
3.674752
30
0
11
140.325516
21
4.19786
31
0
39
0
210
0
220
0
230
1
0
LINE
5
A8
100
AcDbEntity
8
1
62
256
6
ByLayer
370
13
48
1
60
0
100
AcDbLine
10
130.354856
20
3.450808
30
0
11
129.828267
21
6.785148
31
0
39
0
210
0
220
0
230
1
0
LINE
5
A9
100
AcDbEntity
8
1
62
256
6
ByLayer
370
13
48
1
60
0
100
AcDbLine
10
131.830655
20
3.681097
30
0
11
131.826043
21
3.680856
31
0
39
0
210
0
220
0
230
1
0
LINE
5
AA
100
AcDbEntity
8
1
62
256
6
ByLayer
370
13
48
1
60
0
100
AcDbLine
10
131.830655
20
3.681097
30
0
11
131.816317
21
3.771888
31
0
39
0
210
0
220
0
230
1
0
LINE
5
AB
100
AcDbEntity
8
1
62
256
6
ByLayer
370
13
48
1
60
0
100
AcDbLine
10
131.005492
20
10.869039
30
0
11
130.70602
21
10.869489
31
0
39
0
210
0
220
0
230
1
0
LINE
5
AC
100
AcDbEntity
8
1
62
256
6
ByLayer
370
13
48
1
60
0
100
AcDbLine
10
140.314782
20
4.297364
30
0
11
139.020098
21
4.10333
31
0
39
0
210
0
220
0
230
1
0
LINE
5
AD
100
AcDbEntity
8
1
62
256
6
ByLayer
370
13
48
1
60
0
100
AcDbLine
10
131.005492
20
10.869039
30
0
11
131.014943
21
10.870455
31
0
39
0
210
0
220
0
230
1
0
LINE
5
AE
100
AcDbEntity
8
1
62
256
6
ByLayer
370
13
48
1
60
0
100
AcDbLine
10
138.847238
20
4.28454
30
0
11
139.266205
21
7.485858
31
0
39
0
210
0
220
0
230
1
0
LINE
5
AF
100
AcDbEntity
8
1
62
256
6
ByLayer
370
13
48
1
60
0
100
AcDbLine
10
129.72764
20
6.941702
30
0
11
130.131533
21
10.027842
31
0
39
0
210
0
220
0
230
1
0
LINE
5
B0
100
AcDbEntity
8
1
62
256
6
ByLayer
370
13
48
1
60
0
100
AcDbLine
10
129.826365
20
6.928627
30
0
11
130.231788
21
10.026459
31
0
39
0
210
0
220
0
230
1
0
LINE
5
B1
100
AcDbEntity
8
1
62
256
6
ByLayer
370
13
48
1
60
0
100
AcDbLine
10
131.761301
20
10.237017
30
0
11
131.334605
21
6.976636
31
0
39
0
210
0
220
0
230
1
0
LINE
5
B2
100
AcDbEntity
8
1
62
256
6
ByLayer
370
13
48
1
60
0
100
AcDbLine
10
139.295904
20
11.513835
30
0
11
139.3788
21
11.517451
31
0
39
0
210
0
220
0
230
1
0
LINE
5
B3
100
AcDbEntity
8
1
62
256
6
ByLayer
370
13
48
1
60
0
100
AcDbLine
10
131.337268
20
6.775765
30
0
11
131.826043
21
3.680856
31
0
39
0
210
0
220
0
230
1
0
LINE
5
B4
100
AcDbEntity
8
1
62
256
6
ByLayer
370
13
48
1
60
0
100
AcDbLine
10
131.376642
20
2.938732
30
0
11
131.293747
21
2.935116
31
0
39
0
210
0
220
0
230
1
0
LINE
5
B5
100
AcDbEntity
8
1
62
256
6
ByLayer
370
13
48
1
60
0
100
AcDbLine
10
139.538754
20
11.423642
30
0
11
139.534142
21
11.423401
31
0
39
0
210
0
220
0
230
1
0
LINE
5
B6
100
AcDbEntity
8
1
62
256
6
ByLayer
370
13
48
1
60
0
100
AcDbLine
10
139.263827
20
7.665207
30
0
11
138.78939
21
10.669326
31
0
39
0
210
0
220
0
230
1
0
LINE
5
B7
100
AcDbEntity
8
1
62
256
6
ByLayer
370
13
48
1
60
0
100
AcDbLine
10
139.475862
20
11.271286
30
0
11
139.371265
21
11.266723
31
0
39
0
210
0
220
0
230
1
0
LINE
5
B8
100
AcDbEntity
8
1
62
256
6
ByLayer
370
13
48
1
60
0
100
AcDbLine
10
131.839145
20
10.168752
30
0
11
131.420179
21
6.967434
31
0
39
0
210
0
220
0
230
1
0
LINE
5
B9
100
AcDbEntity
8
1
62
256
6
ByLayer
370
13
48
1
60
0
100
AcDbLine
10
140.313079
20
11.001518
30
0
11
140.839667
21
7.667177
31
0
39
0
210
0
220
0
230
1
0
LINE
5
BA
100
AcDbEntity
8
1
62
256
6
ByLayer
370
13
48
1
60
0
100
AcDbLine
10
138.288742
20
4.161604
30
0
11
132.720325
21
3.869775
31
0
39
0
210
0
220
0
230
1
0
LINE
5
BB
100
AcDbEntity
8
1
62
256
6
ByLayer
370
13
48
1
60
0
100
AcDbLine
10
129.957335
20
6.807613
30
0
11
130.483923
21
3.473273
31
0
39
0
210
0
220
0
230
1
0
LINE
5
BC
100
AcDbEntity
8
1
62
256
6
ByLayer
370
13
48
1
60
0
100
AcDbLine
10
129.729923
20
6.769527
30
0
11
130.256512
21
3.435187
31
0
39
0
210
0
220
0
230
1
0
LINE
5
BD
100
AcDbEntity
8
1
62
256
6
ByLayer
370
13
48
1
60
0
100
AcDbLine
10
131.659496
20
10.451406
30
0
11
130.347031
21
10.254707
31
0
39
0
210
0
220
0
230
1
0
LINE
5
BE
100
AcDbEntity
8
1
62
256
6
ByLayer
370
13
48
1
60
0
100
AcDbLine
10
139.020098
20
4.10333
30
0
11
139.015486
21
4.103089
31
0
39
0
210
0
220
0
230
1
0
LINE
5
BF
100
AcDbEntity
8
1
62
256
6
ByLayer
370
13
48
1
60
0
100
AcDbLine
10
139.462968
20
7.455111
30
0
11
139.044881
21
4.260512
31
0
39
0
210
0
220
0
230
1
0
LINE
5
C0
100
AcDbEntity
8
1
62
256
6
ByLayer
370
13
48
1
60
0
100
AcDbLine
10
139.009346
20
11.346352
30
0
11
139.124906
21
11.352408
31
0
39
0
210
0
220
0
230
1
0
LINE
5
C1
100
AcDbEntity
8
1
62
256
6
ByLayer
370
13
48
1
60
0
100
AcDbLine
10
131.798641
20
3.590865
30
0
11
131.794029
21
3.590623
31
0
39
0
210
0
220
0
230
1
0
LINE
5
C2
100
AcDbEntity
8
1
62
256
6
ByLayer
370
13
48
1
60
0
100
AcDbLine
10
130.361426
20
10.00588
30
0
11
129.956003
21
6.908048
31
0
39
0
210
0
220
0
230
1
0
LINE
5
C3
100
AcDbEntity
8
1
62
256
6
ByLayer
370
13
48
1
60
0
100
AcDbLine
10
140.846182
20
7.52394
30
0
11
140.841569
21
7.523698
31
0
39
0
210
0
220
0
230
1
0
LINE
5
C4
100
AcDbEntity
8
1
62
256
6
ByLayer
370
13
48
1
60
0
100
AcDbLine
10
139.834156
20
11.423576
30
0
11
139.829543
21
11.423334
31
0
39
0
210
0
220
0
230
1
0
LINE
5
C5
100
AcDbEntity
8
1
62
256
6
ByLayer
370
13
48
1
60
0
100
AcDbLine
10
130.631921
20
11.059775
30
0
11
130.549101
21
11.054706
31
0
39
0
210
0
220
0
230
1
0
LINE
5
C6
100
AcDbEntity
8
1
62
256
6
ByLayer
370
13
48
1
60
0
100
AcDbLine
10
131.590768
20
10.190122
30
0
11
130.361426
21
10.00588
31
0
39
0
210
0
220
0
230
1
0
LINE
5
C7
100
AcDbEntity
8
1
62
256
6
ByLayer
370
13
48
1
60
0
100
AcDbLine
10
140.068784
20
3.674752
30
0
11
140.35697
21
3.717942
31
0
39
0
210
0
220
0
230
1
0
LINE
5
C8
100
AcDbEntity
8
1
62
256
6
ByLayer
370
13
48
1
60
0
100
AcDbLine
10
140.310169
20
4.297122
30
0
11
139.015486
21
4.103089
31
0
39
0
210
0
220
0
230
1
0
LINE
5
C9
100
AcDbEntity
8
1
62
256
6
ByLayer
370
13
48
1
60
0
100
AcDbLine
10
132.383805
20
10.290963
30
0
11
137.952221
21
10.582792
31
0
39
0
210
0
220
0
230
1
0
LINE
5
CA
100
AcDbEntity
8
1
62
256
6
ByLayer
370
13
48
1
60
0
100
AcDbLine
10
131.765913
20
10.237258
30
0
11
131.761301
21
10.237017
31
0
39
0
210
0
220
0
230
1
0
LINE
5
CB
100
AcDbEntity
8
SK1
62
256
6
ByLayer
370
13
48
1
60
0
100
AcDbLine
10
-6.5
20
-6.998572
30
0
11
-6.5
21
6.998572
31
0
39
0
210
0
220
0
230
1
0
LINE
5
CC
100
AcDbEntity
8
1
62
256
6
ByLayer
370
13
48
1
60
0
100
AcDbLine
10
138.529731
20
3.973959
30
0
11
135.109372
21
3.794706
31
0
39
0
210
0
220
0
230
1
0
LINE
5
CD
100
AcDbEntity
8
1
62
256
6
ByLayer
370
13
48
1
60
0
100
AcDbLine
10
135.603115
20
3.269827
30
0
11
139.410772
21
3.469378
31
0
39
0
210
0
220
0
230
1
0
LINE
5
CE
100
AcDbEntity
8
1
62
256
6
ByLayer
370
13
48
1
60
0
100
AcDbLine
10
140.235164
20
-3.721464
30
0
11
139.825526
21
-6.811707
31
0
39
0
210
0
220
0
230
1
0
LINE
5
CF
100
AcDbEntity
8
1
62
256
6
ByLayer
370
13
48
1
60
0
100
AcDbLine
10
125.396356
20
-11.030708
30
0
11
123.673345
21
-11.030708
31
0
39
0
210
0
220
0
230
1
0
LINE
5
D0
100
AcDbEntity
8
1
62
256
6
ByLayer
370
13
48
1
60
0
100
AcDbLine
10
139.410772
20
3.469378
30
0
11
139.845039
21
3.492137
31
0
39
0
210
0
220
0
230
1
0
LINE
5
D1
100
AcDbEntity
8
1
62
256
6
ByLayer
370
13
48
1
60
0
100
AcDbLine
10
139.410772
20
3.469378
30
0
11
139.093875
21
1.195734
31
0
39
0
210
0
220
0
230
1
0
LINE
5
D2
100
AcDbEntity
8
1
62
256
6
ByLayer
370
13
48
1
60
0
100
AcDbLine
10
140.15046
20
2.994885
30
0
11
140.117412
21
3.55648
31
0
39
0
210
0
220
0
230
1
0
LINE
5
D3
100
AcDbEntity
8
1
62
256
6
ByLayer
370
13
48
1
60
0
100
AcDbLine
10
139.636564
20
-11.144925
30
0
11
128.396356
21
-11.144925
31
0
39
0
210
0
220
0
230
1
0
LINE
5
D4
100
AcDbEntity
8
1
62
256
6
ByLayer
370
13
48
1
60
0
100
AcDbLine
10
140.217119
20
0.672435
30
0
11
140.260388
21
0.618787
31
0
39
0
210
0
220
0
230
1
0
LINE
5
D5
100
AcDbEntity
8
1
62
256
6
ByLayer
370
13
48
1
60
0
100
AcDbLine
10
140.257233
20
2.826873
30
0
11
140.260388
21
0.618787
31
0
39
0
210
0
220
0
230
1
0
LINE
5
D6
100
AcDbEntity
8
1
62
256
6
ByLayer
370
13
48
1
60
0
100
AcDbLine
10
128.396356
20
-11.144925
30
0
11
128.396356
21
0.233179
31
0
39
0
210
0
220
0
230
1
0
LINE
5
D7
100
AcDbEntity
8
1
62
256
6
ByLayer
370
13
48
1
60
0
100
AcDbLine
10
127.064801
20
5.25798
30
0
11
127.064801
21
8.320985
31
0
39
0
210
0
220
0
230
1
0
LINE
5
D8
100
AcDbEntity
8
1
62
256
6
ByLayer
370
13
48
1
60
0
100
AcDbLine
10
0
20
-3.544009
30
0
11
0
21
3.544009
31
0
39
0
210
0
220
0
230
1
0
LINE
5
D9
100
AcDbEntity
8
1
62
256
6
ByLayer
370
13
48
1
60
0
100
AcDbLine
10
140.257233
20
2.826873
30
0
11
140.223728
21
2.699479
31
0
39
0
210
0
220
0
230
1
0
LINE
5
DA
100
AcDbEntity
8
1
62
256
6
ByLayer
370
13
48
1
60
0
100
AcDbLine
10
135.220533
20
3.249777
30
0
11
135.603115
21
3.269827
31
0
39
0
210
0
220
0
230
1
0
LINE
5
DB
100
AcDbEntity
8
1
62
256
6
ByLayer
370
13
48
1
60
0
100
AcDbLine
10
123.572338
20
1.836183
30
0
11
123.681109
21
1.281534
31
0
39
0
210
0
220
0
230
1
0
LINE
5
DC
100
AcDbEntity
8
1
62
256
6
ByLayer
370
13
48
1
60
0
100
AcDbLine
10
127.255223
20
5.261223
30
0
11
128.53824
21
5.985664
31
0
39
0
210
0
220
0
230
1
0
LINE
5
DD
100
AcDbEntity
8
1
62
256
6
ByLayer
370
13
48
1
60
0
100
AcDbLine
10
126.995969
20
1.043491
30
0
11
127.146844
21
0.274144
31
0
39
0
210
0
220
0
230
1
0
LINE
5
DE
100
AcDbEntity
8
1
62
256
6
ByLayer
370
13
48
1
60
0
100
AcDbLine
10
139.067791
20
0.694632
30
0
11
139.087521
21
0.151507
31
0
39
0
210
0
220
0
230
1
0
LINE
5
DF
100
AcDbEntity
8
1
62
256
6
ByLayer
370
13
48
1
60
0
100
AcDbLine
10
139.83087
20
-0.146144
30
0
11
139.067791
21
0.694632
31
0
39
0
210
0
220
0
230
1
0
LINE
5
E0
100
AcDbEntity
8
1
62
256
6
ByLayer
370
13
48
1
60
0
100
AcDbLine
10
139.093875
20
1.195734
30
0
11
139.782386
21
0.43712
31
0
39
0
210
0
220
0
230
1
0
LINE
5
E1
100
AcDbEntity
8
1
62
256
6
ByLayer
370
13
48
1
60
0
100
AcDbLine
10
132.604381
20
3.577593
30
0
11
132.468117
21
3.570451
31
0
39
0
210
0
220
0
230
1
0
LINE
5
E2
100
AcDbEntity
8
1
62
256
6
ByLayer
370
13
48
1
60
0
100
AcDbLine
10
137.216722
20
4.105422
30
0
11
138.062196
21
4.149731
31
0
39
0
210
0
220
0
230
1
0
LINE
5
E3
100
AcDbEntity
8
1
62
256
6
ByLayer
370
13
48
1
60
0
100
AcDbLine
10
132.640581
20
3.665322
30
0
11
132.650363
21
3.665834
31
0
39
0
210
0
220
0
230
1
0
LINE
5
E4
100
AcDbEntity
8
1
62
256
6
ByLayer
370
13
48
1
60
0
100
AcDbLine
10
140.100548
20
-7.644698
30
0
11
139.811068
21
-7.37511
31
0
39
0
210
0
220
0
230
1
0
LINE
5
E5
100
AcDbEntity
8
1
62
256
6
ByLayer
370
13
48
1
60
0
100
AcDbLine
10
132.990692
20
3.883945
30
0
11
133.836166
21
3.928254
31
0
39
0
210
0
220
0
230
1
0
LINE
5
E6
100
AcDbEntity
8
1
62
256
6
ByLayer
370
13
48
1
60
0
100
AcDbLine
10
140.235164
20
-3.721464
30
0
11
139.467096
21
-2.875192
31
0
39
0
210
0
220
0
230
1
0
LINE
5
E7
100
AcDbEntity
8
1
62
256
6
ByLayer
370
13
48
1
60
0
100
AcDbLine
10
0.1
20
3.968627
30
0
11
5.8337
21
3.968627
31
0
39
0
210
0
220
0
230
1
0
LINE
5
E8
100
AcDbEntity
8
1
62
256
6
ByLayer
370
13
48
1
60
0
100
AcDbLine
10
140.113418
20
0.629089
30
0
11
140.159438
21
0.572029
31
0
39
0
210
0
220
0
230
1
0
LINE
5
E9
100
AcDbEntity
8
1
62
256
6
ByLayer
370
13
48
1
60
0
100
AcDbLine
10
128.451438
20
3.906263
30
0
11
128.7199
21
3.823781
31
0
39
0
210
0
220
0
230
1
0
LINE
5
EA
100
AcDbEntity
8
1
62
256
6
ByLayer
370
13
48
1
60
0
100
AcDbLine
10
139.412049
20
-1.697129
30
0
11
140.220217
21
-2.587584
31
0
39
0
210
0
220
0
230
1
0
LINE
5
EB
100
AcDbEntity
8
1
62
256
6
ByLayer
370
13
48
1
60
0
100
AcDbLine
10
129.579299
20
7.028946
30
0
11
130.096488
21
10.980778
31
0
39
0
210
0
220
0
230
1
0
LINE
5
EC
100
AcDbEntity
8
1
62
256
6
ByLayer
370
13
48
1
60
0
100
AcDbLine
10
5.8337
20
-3.968627
30
0
11
0.1
21
-3.968627
31
0
39
0
210
0
220
0
230
1
0
LINE
5
ED
100
AcDbEntity
8
1
62
256
6
ByLayer
370
13
48
1
60
0
100
AcDbLine
10
128.53824
20
5.985664
30
0
11
127.064801
21
8.320985
31
0
39
0
210
0
220
0
230
1
0
LINE
5
EE
100
AcDbEntity
8
1
62
256
6
ByLayer
370
13
48
1
60
0
100
AcDbLine
10
139.876701
20
3.543865
30
0
11
139.764814
21
3.538001
31
0
39
0
210
0
220
0
230
1
0
LINE
5
EF
100
AcDbEntity
8
1
62
256
6
ByLayer
370
13
48
1
60
0
100
AcDbLine
10
130.102791
20
9.978036
30
0
11
129.775685
21
7.478625
31
0
39
0
210
0
220
0
230
1
0
LINE
5
F0
100
AcDbEntity
8
1
62
256
6
ByLayer
370
13
48
1
60
0
100
AcDbLine
10
133.243873
20
2.891476
30
0
11
133.587049
21
2.909462
31
0
39
0
210
0
220
0
230
1
0
LINE
5
F1
100
AcDbEntity
8
1
62
256
6
ByLayer
370
13
48
1
60
0
100
AcDbLine
10
125.396356
20
-11.030708
30
0
11
125.396356
21
0.559931
31
0
39
0
210
0
220
0
230
1
0
LINE
5
F2
100
AcDbEntity
8
1
62
256
6
ByLayer
370
13
48
1
60
0
100
AcDbLine
10
129.678478
20
5.042728
30
0
11
129.494408
21
6.208252
31
0
39
0
210
0
220
0
230
1
0
LINE
5
F3
100
AcDbEntity
8
1
62
256
6
ByLayer
370
13
48
1
60
0
100
AcDbLine
10
139.636564
20
-11.144925
30
0
11
140.100548
21
-7.644698
31
0
39
0
210
0
220
0
230
1
0
LINE
5
F4
100
AcDbEntity
8
1
62
256
6
ByLayer
370
13
48
1
60
0
100
AcDbLine
10
137.011471
20
4.04698
30
0
11
136.927128
21
4.04256
31
0
39
0
210
0
220
0
230
1
0
LINE
5
F5
100
AcDbEntity
8
1
62
256
6
ByLayer
370
13
48
1
60
0
100
AcDbLine
10
140.117412
20
3.55648
30
0
11
139.876701
21
3.543865
31
0
39
0
210
0
220
0
230
1
0
LINE
5
F6
100
AcDbEntity
8
1
62
256
6
ByLayer
370
13
48
1
60
0
100
AcDbLine
10
130.096488
20
10.980778
30
0
11
130.091335
21
11.079104
31
0
39
0
210
0
220
0
230
1
0
LINE
5
F7
100
AcDbEntity
8
1
62
256
6
ByLayer
370
13
48
1
60
0
100
AcDbLine
10
139.83087
20
-0.146144
30
0
11
140.220217
21
-2.587584
31
0
39
0
210
0
220
0
230
1
0
LINE
5
F8
100
AcDbEntity
8
1
62
256
6
ByLayer
370
18
48
1
60
0
100
AcDbLine
10
134.962959
20
8.094907
30
0
11
134.954015
21
8.112925
31
0
39
0
210
0
220
0
230
1
0
LINE
5
F9
100
AcDbEntity
8
1
62
256
6
ByLayer
370
18
48
1
60
0
100
AcDbLine
10
135.041078
20
8.117488
30
0
11
134.954015
21
8.112925
31
0
39
0
210
0
220
0
230
1
0
LINE
5
FA
100
AcDbEntity
8
1
62
256
6
ByLayer
370
18
48
1
60
0
100
AcDbLine
10
136.010485
20
6.612775
30
0
11
135.924482
21
6.608268
31
0
39
0
210
0
220
0
230
1
0
LINE
5
FB
100
AcDbEntity
8
1
62
256
6
ByLayer
370
18
48
1
60
0
100
AcDbLine
10
135.048962
20
8.099414
30
0
11
134.962959
21
8.094907
31
0
39
0
210
0
220
0
230
1
0
LINE
5
FC
100
AcDbEntity
8
1
62
256
6
ByLayer
370
18
48
1
60
0
100
AcDbLine
10
135.954784
20
7.923743
30
0
11
135.867722
21
7.91918
31
0
39
0
210
0
220
0
230
1
0
LINE
5
FD
100
AcDbEntity
8
1
62
256
6
ByLayer
370
18
48
1
60
0
100
AcDbLine
10
136.22385
20
7.033454
30
0
11
136.137848
21
7.028947
31
0
39
0
210
0
220
0
230
1
0
LINE
5
FE
100
AcDbEntity
8
1
62
256
6
ByLayer
370
18
48
1
60
0
100
AcDbLine
10
136.024301
20
6.597297
30
0
11
135.937238
21
6.592735
31
0
39
0
210
0
220
0
230
1
0
LINE
5
FF
100
AcDbEntity
8
1
62
256
6
ByLayer
370
18
48
1
60
0
100
AcDbLine
10
135.942662
20
7.906906
30
0
11
135.85666
21
7.902398
31
0
39
0
210
0
220
0
230
1
0
LINE
5
100
100
AcDbEntity
8
1
62
256
6
ByLayer
370
18
48
1
60
0
100
AcDbLine
10
136.198832
20
7.510834
30
0
11
136.112829
21
7.506327
31
0
39
0
210
0
220
0
230
1
0
LINE
5
101
100
AcDbEntity
8
1
62
256
6
ByLayer
370
18
48
1
60
0
100
AcDbLine
10
135.85666
20
7.902398
30
0
11
135.867722
21
7.91918
31
0
39
0
210
0
220
0
230
1
0
LINE
5
102
100
AcDbEntity
8
1
62
256
6
ByLayer
370
18
48
1
60
0
100
AcDbLine
10
135.937238
20
6.592735
30
0
11
135.924482
21
6.608268
31
0
39
0
210
0
220
0
230
1
0
LINE
5
103
100
AcDbEntity
8
1
62
256
6
ByLayer
370
18
48
1
60
0
100
AcDbLine
10
135.135851
20
6.309105
30
0
11
135.048788
21
6.304542
31
0
39
0
210
0
220
0
230
1
0
LINE
5
104
100
AcDbEntity
8
1
62
256
6
ByLayer
370
18
48
1
60
0
100
AcDbLine
10
135.141803
20
6.327904
30
0
11
135.0558
21
6.323397
31
0
39
0
210
0
220
0
230
1
0
LINE
5
105
100
AcDbEntity
8
1
62
256
6
ByLayer
370
18
48
1
60
0
100
AcDbLine
10
135.048788
20
6.304542
30
0
11
135.0558
21
6.323397
31
0
39
0
210
0
220
0
230
1
0
LINE
5
106
100
AcDbEntity
8
1
62
256
6
ByLayer
370
18
48
1
60
0
100
AcDbLine
10
140.684757
20
-3.28256
30
0
11
140.258874
21
-6.495359
31
0
39
0
210
0
220
0
230
1
0
LINE
5
107
100
AcDbEntity
8
1
62
256
6
ByLayer
370
18
48
1
60
0
100
AcDbLine
10
140.182226
20
0.02548
30
0
11
140.682504
21
-3.11156
31
0
39
0
210
0
220
0
230
1
0
LINE
5
108
100
AcDbEntity
8
1
62
256
6
ByLayer
370
18
48
1
60
0
100
AcDbLine
10
140.008341
20
-6.78413
30
0
11
139.856104
21
-6.827484
31
0
39
0
210
0
220
0
230
1
0
LINE
5
109
100
AcDbEntity
8
1
62
256
6
ByLayer
370
18
48
1
60
0
100
AcDbLine
10
140.122717
20
0.24771
30
0
11
140.16637
21
0.096513
31
0
39
0
210
0
220
0
230
1
0
LINE
5
10A
100
AcDbEntity
8
1
62
256
6
ByLayer
370
18
48
1
60
0
100
AcDbLine
10
139.78379
20
0.502829
30
0
11
139.831959
21
0.49653
31
0
39
0
210
0
220
0
230
1
0
LINE
5
10B
100
AcDbEntity
8
1
62
256
6
ByLayer
370
13
48
1
60
0
100
AcDbLine
10
140.528282
20
4.370753
30
0
11
140.496198
21
3.972557
31
0
39
0
210
0
220
0
230
1
0
LINE
5
10C
100
AcDbEntity
8
1
62
256
6
ByLayer
370
13
48
1
60
0
100
AcDbLine
10
140.400665
20
4.106067
30
0
11
140.35697
21
3.717942
31
0
39
0
210
0
220
0
230
1
0
LINE
5
10D
100
AcDbEntity
8
1
62
256
6
ByLayer
370
13
48
1
60
0
100
AcDbLine
10
138.935327
20
11.285491
30
0
11
138.93477
21
11.285516
31
0
39
0
210
0
220
0
230
1
0
LINE
5
10E
100
AcDbEntity
8
1
62
256
6
ByLayer
370
13
48
1
60
0
100
AcDbLine
10
129.481705
20
6.608253
30
0
11
130.134646
21
3.879351
31
0
39
0
210
0
220
0
230
1
0
LINE
5
10F
100
AcDbEntity
8
1
62
256
6
ByLayer
370
13
48
1
60
0
100
AcDbLine
10
130.134646
20
3.879351
30
0
11
130.14676
21
3.860069
31
0
39
0
210
0
220
0
230
1
0
LINE
5
110
100
AcDbEntity
8
1
62
256
6
ByLayer
370
13
48
1
60
0
100
AcDbLine
10
129.58316
20
7.039034
30
0
11
129.591262
21
7.111003
31
0
39
0
210
0
220
0
230
1
0
LINE
5
111
100
AcDbEntity
8
1
62
256
6
ByLayer
370
13
48
1
60
0
100
AcDbLine
10
139.379166
20
11.417332
30
0
11
139.48315
21
11.421868
31
0
39
0
210
0
220
0
230
1
0
LINE
5
112
100
AcDbEntity
8
1
62
256
6
ByLayer
370
13
48
1
60
0
100
AcDbLine
10
139.008039
20
4.102259
30
0
11
139.015486
21
4.103089
31
0
39
0
210
0
220
0
230
1
0
LINE
5
113
100
AcDbEntity
8
1
62
256
6
ByLayer
370
13
48
1
60
0
100
AcDbLine
10
130.285521
20
10.761137
30
0
11
130.079837
21
10.730311
31
0
39
0
210
0
220
0
230
1
0
LINE
5
114
100
AcDbEntity
8
1
62
256
6
ByLayer
370
13
48
1
60
0
100
AcDbLine
10
130.131533
20
10.027842
30
0
11
130.088545
21
10.381773
31
0
39
0
210
0
220
0
230
1
0
LINE
5
115
100
AcDbEntity
8
1
62
256
6
ByLayer
370
13
48
1
60
0
100
AcDbLine
10
129.635663
20
7.215335
30
0
11
129.598245
21
6.929426
31
0
39
0
210
0
220
0
230
1
0
LINE
5
116
100
AcDbEntity
8
1
62
256
6
ByLayer
370
13
48
1
60
0
100
AcDbLine
10
138.841891
20
10.77147
30
0
11
138.855165
21
10.687421
31
0
39
0
210
0
220
0
230
1
0
LINE
5
117
100
AcDbEntity
8
1
62
256
6
ByLayer
370
13
48
1
60
0
100
AcDbLine
10
138.913494
20
4.26773
30
0
11
138.906634
21
4.215309
31
0
39
0
210
0
220
0
230
1
0
LINE
5
118
100
AcDbEntity
8
1
62
256
6
ByLayer
370
13
48
1
60
0
100
AcDbLine
10
140.147957
20
3.037437
30
0
11
140.257233
21
2.826873
31
0
39
0
210
0
220
0
230
1
0
LINE
5
119
100
AcDbEntity
8
1
62
256
6
ByLayer
370
13
48
1
60
0
100
AcDbLine
10
129.796848
20
5.29115
30
0
11
129.82659
21
5.102827
31
0
39
0
210
0
220
0
230
1
0
LINE
5
11A
100
AcDbEntity
8
1
62
256
6
ByLayer
370
13
48
1
60
0
100
AcDbLine
10
140.260388
20
0.618787
30
0
11
140.159736
21
0.573703
31
0
39
0
210
0
220
0
230
1
0
LINE
5
11B
100
AcDbEntity
8
1
62
256
6
ByLayer
370
13
48
1
60
0
100
AcDbLine
10
140.156768
20
0.572374
30
0
11
139.97947
21
0.492959
31
0
39
0
210
0
220
0
230
1
0
LINE
5
11C
100
AcDbEntity
8
1
62
256
6
ByLayer
370
13
48
1
60
0
100
AcDbLine
10
140.223728
20
2.699479
30
0
11
140.187917
21
2.697602
31
0
39
0
210
0
220
0
230
1
0
LINE
5
11D
100
AcDbEntity
8
1
62
256
6
ByLayer
370
13
48
1
60
0
100
AcDbLine
10
132.44049
20
3.511048
30
0
11
132.03746
21
3.489926
31
0
39
0
210
0
220
0
230
1
0
LINE
5
11E
100
AcDbEntity
8
1
62
256
6
ByLayer
370
13
48
1
60
0
100
AcDbLine
10
140.217119
20
0.672435
30
0
11
140.193089
21
0.675577
31
0
39
0
210
0
220
0
230
1
0
LINE
5
11F
100
AcDbEntity
8
1
62
256
6
ByLayer
370
13
48
1
60
0
100
AcDbLine
10
131.172348
20
10.737386
30
0
11
131.208067
21
11.010314
31
0
39
0
210
0
220
0
230
1
0
LINE
5
120
100
AcDbEntity
8
1
62
256
6
ByLayer
370
13
48
1
60
0
100
AcDbLine
10
27
20
-11.184792
30
0
11
27
21
-11.2125
31
0
39
0
210
0
220
0
230
1
0
LINE
5
121
100
AcDbEntity
8
1
62
256
6
ByLayer
370
13
48
1
60
0
100
AcDbLine
10
140.159438
20
0.572029
30
0
11
139.985571
21
0.594763
31
0
39
0
210
0
220
0
230
1
0
LINE
5
122
100
AcDbEntity
8
1
62
256
6
ByLayer
370
13
48
1
60
0
100
AcDbLine
10
128.396356
20
11.2125
30
0
11
128.396356
21
11.053501
31
0
39
0
210
0
220
0
230
1
0
LINE
5
123
100
AcDbEntity
8
1
62
256
6
ByLayer
370
13
48
1
60
0
100
AcDbLine
10
140.113418
20
0.629089
30
0
11
140.101421
21
0.630657
31
0
39
0
210
0
220
0
230
1
0
LINE
5
124
100
AcDbEntity
8
1
62
256
6
ByLayer
370
13
48
1
60
0
100
AcDbLine
10
69.6
20
-11.065407
30
0
11
69.6
21
-11.0975
31
0
39
0
210
0
220
0
230
1
0
LINE
5
125
100
AcDbEntity
8
1
62
256
6
ByLayer
370
13
48
1
60
0
100
AcDbLine
10
125.396356
20
11.0975
30
0
11
125.396356
21
10.935095
31
0
39
0
210
0
220
0
230
1
0
LINE
5
126
100
AcDbEntity
8
SK1
62
256
6
ByLayer
370
13
48
1
60
0
100
AcDbLine
10
-56
20
-11.49675
30
0
11
-56
21
-4.998651
31
0
39
0
210
0
220
0
230
1
0
LINE
5
127
100
AcDbEntity
8
SK1
62
256
6
ByLayer
370
13
48
1
60
0
100
AcDbLine
10
-56
20
4.998651
30
0
11
-56
21
11.49675
31
0
39
0
210
0
220
0
230
1
0
LINE
5
128
100
AcDbEntity
8
SK1
62
256
6
ByLayer
370
13
48
1
60
0
100
AcDbLine
10
-54.516222
20
12.393244
30
0
11
-54.516222
21
6.812029
31
0
39
0
210
0
220
0
230
1
0
LINE
5
129
100
AcDbEntity
8
SK1
62
256
6
ByLayer
370
13
48
1
60
0
100
AcDbLine
10
-54.516222
20
-6.812029
30
0
11
-54.516222
21
-12.393244
31
0
39
0
210
0
220
0
230
1
0
LINE
5
12A
100
AcDbEntity
8
SK1
62
256
6
ByLayer
370
13
48
1
60
0
100
AcDbLine
10
-53.633813
20
12.140367
30
0
11
-53.633813
21
6.340328
31
0
39
0
210
0
220
0
230
1
0
LINE
5
12B
100
AcDbEntity
8
SK1
62
256
6
ByLayer
370
13
48
1
60
0
100
AcDbLine
10
-53.633813
20
-6.340328
30
0
11
-53.633813
21
-12.140367
31
0
39
0
210
0
220
0
230
1
0
LINE
5
12C
100
AcDbEntity
8
SK1
62
256
6
ByLayer
370
13
48
1
60
0
100
AcDbLine
10
-54.60004
20
-12.49675
30
0
11
-54.60004
21
-6.998572
31
0
39
0
210
0
220
0
230
1
0
LINE
5
12D
100
AcDbEntity
8
SK1
62
256
6
ByLayer
370
13
48
1
60
0
100
AcDbLine
10
-54.60004
20
6.998572
30
0
11
-54.60004
21
12.49675
31
0
39
0
210
0
220
0
230
1
0
LINE
5
12E
100
AcDbEntity
8
SK1
62
256
6
ByLayer
370
13
48
1
60
0
100
AcDbLine
10
-55
20
-12.49675
30
0
11
-55
21
-6.998572
31
0
39
0
210
0
220
0
230
1
0
LINE
5
12F
100
AcDbEntity
8
SK1
62
256
6
ByLayer
370
13
48
1
60
0
100
AcDbLine
10
-55
20
6.998572
30
0
11
-55
21
12.49675
31
0
39
0
210
0
220
0
230
1
0
LINE
5
130
100
AcDbEntity
8
1
62
256
6
ByLayer
370
13
48
1
60
0
100
AcDbLine
10
69.6
20
11.0975
30
0
11
69.6
21
-3.822724
31
0
39
0
210
0
220
0
230
1
0
LINE
5
131
100
AcDbEntity
8
1
62
256
6
ByLayer
370
13
48
1
60
0
100
AcDbLine
10
27
20
11.2125
30
0
11
27
21
-3.845573
31
0
39
0
210
0
220
0
230
1
0
LINE
5
132
100
AcDbEntity
8
SK1
62
256
6
ByLayer
370
13
48
1
60
0
100
AcDbLine
10
-1.375195
20
-12.24675
30
0
11
-1.375195
21
12.24675
31
0
39
0
210
0
220
0
230
1
0
LINE
5
133
100
AcDbEntity
8
SK1
62
256
6
ByLayer
370
13
48
1
60
0
100
AcDbLine
10
-1.544243
20
-12.284227
30
0
11
-1.544243
21
12.284227
31
0
39
0
210
0
220
0
230
1
0
LINE
5
134
100
AcDbEntity
8
SK1
62
256
6
ByLayer
370
13
48
1
60
0
100
AcDbLine
10
-2
20
-12.49675
30
0
11
-2
21
12.49675
31
0
39
0
210
0
220
0
230
1
0
LINE
5
135
100
AcDbEntity
8
SK1
62
256
6
ByLayer
370
13
48
1
60
0
100
AcDbLine
10
-52.599857
20
12.49675
30
0
11
-52.599857
21
6.998572
31
0
39
0
210
0
220
0
230
1
0
LINE
5
136
100
AcDbEntity
8
SK1
62
256
6
ByLayer
370
13
48
1
60
0
100
AcDbLine
10
-52.599857
20
-6.998572
30
0
11
-52.599857
21
-12.49675
31
0
39
0
210
0
220
0
230
1
0
LINE
5
137
100
AcDbEntity
8
SK1
62
256
6
ByLayer
370
13
48
1
60
0
100
AcDbLine
10
-0.15
20
-12.24675
30
0
11
-0.15
21
12.24675
31
0
39
0
210
0
220
0
230
1
0
LINE
5
138
100
AcDbEntity
8
1
62
256
6
ByLayer
370
13
48
1
60
0
100
AcDbLine
10
0
20
-15.9
30
0
11
0
21
-3.544009
31
0
39
0
210
0
220
0
230
1
0
LINE
5
139
100
AcDbEntity
8
1
62
256
6
ByLayer
370
13
48
1
60
0
100
AcDbLine
10
0
20
15.9
30
0
11
0
21
3.544009
31
0
39
0
210
0
220
0
230
1
0
LINE
5
13A
100
AcDbEntity
8
1
62
256
6
ByLayer
370
13
48
1
60
0
100
AcDbLine
10
0.1
20
-16
30
0
11
0.1
21
-3.968627
31
0
39
0
210
0
220
0
230
1
0
LINE
5
13B
100
AcDbEntity
8
1
62
256
6
ByLayer
370
13
48
1
60
0
100
AcDbLine
10
0.1
20
16
30
0
11
0.1
21
3.968627
31
0
39
0
210
0
220
0
230
1
0
LINE
5
13C
100
AcDbEntity
8
1
62
256
6
ByLayer
370
13
48
1
60
0
100
AcDbLine
10
5.8337
20
16
30
0
11
5.8337
21
3.968627
31
0
39
0
210
0
220
0
230
1
0
LINE
5
13D
100
AcDbEntity
8
1
62
256
6
ByLayer
370
13
48
1
60
0
100
AcDbLine
10
5.8337
20
-3.968627
30
0
11
5.8337
21
-16
31
0
39
0
210
0
220
0
230
1
0
LINE
5
13E
100
AcDbEntity
8
1
62
256
6
ByLayer
370
13
48
1
60
0
100
AcDbLine
10
22
20
11.2125
30
0
11
22
21
-3.843098
31
0
39
0
210
0
220
0
230
1
0
LINE
5
13F
100
AcDbEntity
8
1
62
256
6
ByLayer
370
13
48
1
60
0
100
AcDbLine
10
22
20
-11.184575
30
0
11
22
21
-11.2125
31
0
39
0
210
0
220
0
230
1
0
LINE
5
140
100
AcDbEntity
8
1
62
256
6
ByLayer
370
18
48
1
60
0
100
AcDbLine
10
135.334427
20
5.498819
30
0
11
135.334586
21
5.498828
31
0
39
0
210
0
220
0
230
1
0
LINE
5
141
100
AcDbEntity
8
1
62
256
6
ByLayer
370
18
48
1
60
0
100
AcDbLine
10
134.43645
20
7.418471
30
0
11
134.397984
21
7.416455
31
0
39
0
210
0
220
0
230
1
0
LINE
5
142
100
AcDbEntity
8
1
62
256
6
ByLayer
370
18
48
1
60
0
100
AcDbLine
10
134.461469
20
6.941092
30
0
11
134.422118
21
6.939029
31
0
39
0
210
0
220
0
230
1
0
LINE
5
143
100
AcDbEntity
8
1
62
256
6
ByLayer
370
18
48
1
60
0
100
AcDbLine
10
134.442761
20
6.937826
30
0
11
134.432153
21
6.93727
31
0
39
0
210
0
220
0
230
1
0
LINE
5
144
100
AcDbEntity
8
4
62
256
6
ByLayer
370
18
48
0.05
60
0
100
AcDbLine
10
141
20
0
30
0
11
0
21
0
31
0
39
0
210
0
220
0
230
1
0
LINE
5
146
100
AcDbEntity
8
SK4
62
256
6
ByLayer
370
13
48
0.05
60
0
100
AcDbLine
10
141
20
0
30
0
11
-56
21
0
31
0
39
0
210
0
220
0
230
1
0
LINE
5
148
100
AcDbEntity
8
SK1
62
256
6
ByLayer
370
13
48
1
60
0
100
AcDbLine
10
-53.633813
20
-12.140367
30
0
11
-52.599857
21
-12.49675
31
0
39
0
210
0
220
0
230
1
0
LINE
5
149
100
AcDbEntity
8
SK1
62
256
6
ByLayer
370
13
48
1
60
0
100
AcDbLine
10
-52.599857
20
12.49675
30
0
11
-53.633813
21
12.140367
31
0
39
0
210
0
220
0
230
1
0
LINE
5
14A
100
AcDbEntity
8
SK1
62
256
6
ByLayer
370
13
48
1
60
0
100
AcDbLine
10
-54.60004
20
12.49675
30
0
11
-55
21
12.49675
31
0
39
0
210
0
220
0
230
1
0
LINE
5
14B
100
AcDbEntity
8
SK1
62
256
6
ByLayer
370
13
48
1
60
0
100
AcDbLine
10
-55
20
-12.49675
30
0
11
-54.60004
21
-12.49675
31
0
39
0
210
0
220
0
230
1
0
LINE
5
14C
100
AcDbEntity
8
SK1
62
256
6
ByLayer
370
13
48
1
60
0
100
AcDbLine
10
-54.516222
20
12.393244
30
0
11
-54.60004
21
12.49675
31
0
39
0
210
0
220
0
230
1
0
LINE
5
14D
100
AcDbEntity
8
SK1
62
256
6
ByLayer
370
13
48
1
60
0
100
AcDbLine
10
-54.60004
20
-12.49675
30
0
11
-54.516222
21
-12.393244
31
0
39
0
210
0
220
0
230
1
0
LINE
5
14E
100
AcDbEntity
8
SK1
62
256
6
ByLayer
370
13
48
1
60
0
100
AcDbLine
10
-56
20
-11.49675
30
0
11
-55
21
-12.49675
31
0
39
0
210
0
220
0
230
1
0
LINE
5
14F
100
AcDbEntity
8
SK1
62
256
6
ByLayer
370
13
48
1
60
0
100
AcDbLine
10
-55
20
12.49675
30
0
11
-56
21
11.49675
31
0
39
0
210
0
220
0
230
1
0
LINE
5
150
100
AcDbEntity
8
SK1
62
256
6
ByLayer
370
13
48
1
60
0
100
AcDbLine
10
-0.15
20
12.24675
30
0
11
-1.375195
21
12.24675
31
0
39
0
210
0
220
0
230
1
0
LINE
5
151
100
AcDbEntity
8
SK1
62
256
6
ByLayer
370
13
48
1
60
0
100
AcDbLine
10
-1.375195
20
-12.24675
30
0
11
-0.15
21
-12.24675
31
0
39
0
210
0
220
0
230
1
0
LINE
5
152
100
AcDbEntity
8
SK1
62
256
6
ByLayer
370
13
48
1
60
0
100
AcDbLine
10
-1.544243
20
12.284227
30
0
11
-2
21
12.49675
31
0
39
0
210
0
220
0
230
1
0
LINE
5
153
100
AcDbEntity
8
SK1
62
256
6
ByLayer
370
13
48
1
60
0
100
AcDbLine
10
-2
20
-12.49675
30
0
11
-1.544243
21
-12.284227
31
0
39
0
210
0
220
0
230
1
0
LINE
5
154
100
AcDbEntity
8
SK1
62
256
6
ByLayer
370
13
48
1
60
0
100
AcDbLine
10
-2
20
12.49675
30
0
11
-52.599857
21
12.49675
31
0
39
0
210
0
220
0
230
1
0
LINE
5
155
100
AcDbEntity
8
SK1
62
256
6
ByLayer
370
13
48
1
60
0
100
AcDbLine
10
-52.599857
20
-12.49675
30
0
11
-2
21
-12.49675
31
0
39
0
210
0
220
0
230
1
0
LINE
5
156
100
AcDbEntity
8
1
62
256
6
ByLayer
370
13
48
1
60
0
100
AcDbLine
10
69.6
20
-11.0975
30
0
11
85.20199
21
-11.0975
31
0
39
0
210
0
220
0
230
1
0
LINE
5
157
100
AcDbEntity
8
1
62
256
6
ByLayer
370
13
48
1
60
0
100
AcDbLine
10
78.605487
20
11.0975
30
0
11
69.6
21
11.0975
31
0
39
0
210
0
220
0
230
1
0
LINE
5
158
100
AcDbEntity
8
1
62
256
6
ByLayer
370
13
48
1
60
0
100
AcDbLine
10
140.258687
20
3.816735
30
0
11
140.515419
21
4.339843
31
0
39
0
210
0
220
0
230
1
0
LINE
5
159
100
AcDbEntity
8
1
62
256
6
ByLayer
370
13
48
1
60
0
100
AcDbLine
10
139.33099
20
7.676544
30
0
11
138.856553
21
10.680663
31
0
39
0
210
0
220
0
230
1
0
LINE
5
15A
100
AcDbEntity
8
1
62
256
6
ByLayer
370
13
48
1
60
0
100
AcDbLine
10
138.914686
20
4.274445
30
0
11
139.333652
21
7.475763
31
0
39
0
210
0
220
0
230
1
0
LINE
5
15B
100
AcDbEntity
8
1
62
256
6
ByLayer
370
13
48
1
60
0
100
AcDbLine
10
22
20
-11.2125
30
0
11
27
21
-11.2125
31
0
39
0
210
0
220
0
230
1
0
LINE
5
15C
100
AcDbEntity
8
1
62
256
6
ByLayer
370
13
48
1
60
0
100
AcDbLine
10
27
20
-11.2125
30
0
11
69.6
21
-11.0975
31
0
39
0
210
0
220
0
230
1
0
LINE
5
15D
100
AcDbEntity
8
1
62
256
6
ByLayer
370
13
48
1
60
0
100
AcDbLine
10
129.906574
20
11.2125
30
0
11
128.396356
21
11.2125
31
0
39
0
210
0
220
0
230
1
0
LINE
5
15E
100
AcDbEntity
8
1
62
256
6
ByLayer
370
13
48
1
60
0
100
AcDbLine
10
128.396356
20
11.2125
30
0
11
125.396356
21
11.0975
31
0
39
0
210
0
220
0
230
1
0
LINE
5
15F
100
AcDbEntity
8
1
62
256
6
ByLayer
370
13
48
1
60
0
100
AcDbLine
10
125.396356
20
11.0975
30
0
11
121.17466
21
11.0975
31
0
39
0
210
0
220
0
230
1
0
LINE
5
160
100
AcDbEntity
8
1
62
256
6
ByLayer
370
13
48
1
60
0
100
AcDbLine
10
69.6
20
11.0975
30
0
11
27
21
11.2125
31
0
39
0
210
0
220
0
230
1
0
LINE
5
161
100
AcDbEntity
8
1
62
256
6
ByLayer
370
13
48
1
60
0
100
AcDbLine
10
27
20
11.2125
30
0
11
22
21
11.2125
31
0
39
0
210
0
220
0
230
1
0
LINE
5
162
100
AcDbEntity
8
1
62
256
6
ByLayer
370
13
48
1
60
0
100
AcDbLine
10
0
20
-15.9
30
0
11
0.1
21
-16
31
0
39
0
210
0
220
0
230
1
0
LINE
5
163
100
AcDbEntity
8
1
62
256
6
ByLayer
370
13
48
1
60
0
100
AcDbLine
10
0.1
20
16
30
0
11
0
21
15.9
31
0
39
0
210
0
220
0
230
1
0
LINE
5
164
100
AcDbEntity
8
1
62
256
6
ByLayer
370
13
48
1
60
0
100
AcDbLine
10
0.1
20
-16
30
0
11
5.8337
21
-16
31
0
39
0
210
0
220
0
230
1
0
LINE
5
165
100
AcDbEntity
8
1
62
256
6
ByLayer
370
13
48
1
60
0
100
AcDbLine
10
5.8337
20
16
30
0
11
0.1
21
16
31
0
39
0
210
0
220
0
230
1
0
LINE
5
166
100
AcDbEntity
8
1
62
256
6
ByLayer
370
18
48
1
60
0
100
AcDbLine
10
135.202739
20
8.011571
30
0
11
135.281997
21
8.015725
31
0
39
0
210
0
220
0
230
1
0
LINE
5
167
100
AcDbEntity
8
1
62
256
6
ByLayer
370
18
48
1
60
0
100
AcDbLine
10
135.364813
20
6.435493
30
0
11
135.285556
21
6.43134
31
0
39
0
210
0
220
0
230
1
0
LINE
5
168
100
AcDbEntity
8
1
62
256
6
ByLayer
370
18
48
1
60
0
100
AcDbLine
10
135.228517
20
8.948004
30
0
11
135.153868
21
8.944091
31
0
39
0
210
0
220
0
230
1
0
LINE
5
169
100
AcDbEntity
8
1
62
256
6
ByLayer
370
18
48
1
60
0
100
AcDbLine
10
135.334427
20
5.498819
30
0
11
135.409076
21
5.502732
31
0
39
0
210
0
220
0
230
1
0
LINE
5
16A
100
AcDbEntity
8
1
62
256
6
ByLayer
370
18
48
1
60
0
100
AcDbLine
10
134.46987
20
6.94203
30
0
11
134.420691
21
6.939452
31
0
39
0
210
0
220
0
230
1
0
LINE
5
16B
100
AcDbEntity
8
1
62
256
6
ByLayer
370
18
48
1
60
0
100
AcDbLine
10
134.393734
20
7.415735
30
0
11
134.444881
21
7.418415
31
0
39
0
210
0
220
0
230
1
0
LINE
5
16C
100
AcDbEntity
8
81
62
256
6
ByLayer
370
18
48
1
60
0
100
AcDbLine
10
141
20
0
30
0
11
148
21
0
31
0
39
0
210
0
220
0
230
1
0
LINE
5
16D
100
AcDbEntity
8
80
62
256
6
ByLayer
370
18
48
1
60
0
100
AcDbLine
10
0
20
0
30
0
11
-7
21
0
31
0
39
0
210
0
220
0
230
1
0
LINE
5
16E
100
AcDbEntity
8
SK2
62
256
6
ByLayer
370
13
48
1
60
0
100
AcDbLine
10
-76.725
20
23.75
30
0
11
-76.725
21
-23.75
31
0
39
0
210
0
220
0
230
1
0
LINE
5
170
100
AcDbEntity
8
SK2
62
256
6
ByLayer
370
13
48
1
60
0
100
AcDbLine
10
-57.5875
20
-12.5
30
0
11
-79.9
21
-12.5
31
0
39
0
210
0
220
0
230
1
0
LINE
5
171
100
AcDbEntity
8
SK2
62
256
6
ByLayer
370
13
48
1
60
0
100
AcDbLine
10
-57.5875
20
12.5
30
0
11
-79.9
21
12.5
31
0
39
0
210
0
220
0
230
1
0
LINE
5
172
100
AcDbEntity
8
1
62
256
6
ByLayer
370
18
48
1
60
1
100
AcDbLine
10
-76.725
20
-12.5
30
0
11
-75.799425
21
-16.674997
31
0
39
0
210
0
220
0
230
1
0
LINE
5
173
100
AcDbEntity
8
1
62
256
6
ByLayer
370
18
48
1
60
1
100
AcDbLine
10
-75.799425
20
-16.674997
30
0
11
-77.650575
21
-16.675003
31
0
39
0
210
0
220
0
230
1
0
LINE
5
174
100
AcDbEntity
8
1
62
256
6
ByLayer
370
18
48
1
60
1
100
AcDbLine
10
-77.650575
20
-16.675003
30
0
11
-76.725
21
-12.5
31
0
39
0
210
0
220
0
230
1
0
LINE
5
175
100
AcDbEntity
8
1
62
256
6
ByLayer
370
18
48
1
60
1
100
AcDbLine
10
-76.725
20
12.5
30
0
11
-77.650575
21
16.674997
31
0
39
0
210
0
220
0
230
1
0
LINE
5
176
100
AcDbEntity
8
1
62
256
6
ByLayer
370
18
48
1
60
1
100
AcDbLine
10
-77.650575
20
16.674997
30
0
11
-75.799425
21
16.675003
31
0
39
0
210
0
220
0
230
1
0
LINE
5
177
100
AcDbEntity
8
1
62
256
6
ByLayer
370
18
48
1
60
1
100
AcDbLine
10
-75.799425
20
16.675003
30
0
11
-76.725
21
12.5
31
0
39
0
210
0
220
0
230
1
0
LINE
5
178
100
AcDbEntity
8
SK2
62
256
6
ByLayer
370
13
48
1
60
0
100
AcDbLine
10
-86.725
20
-16
30
0
11
-86.725
21
16
31
0
39
0
210
0
220
0
230
1
0
LINE
5
179
100
AcDbEntity
8
SK2
62
256
6
ByLayer
370
13
48
1
60
0
100
AcDbLine
10
-1.5875
20
16
30
0
11
-89.9
21
16
31
0
39
0
210
0
220
0
230
1
0
LINE
5
17A
100
AcDbEntity
8
SK2
62
256
6
ByLayer
370
13
48
1
60
0
100
AcDbLine
10
-1.5875
20
-16
30
0
11
-89.9
21
-16
31
0
39
0
210
0
220
0
230
1
0
LINE
5
17B
100
AcDbEntity
8
1
62
256
6
ByLayer
370
18
48
1
60
1
100
AcDbLine
10
-86.725
20
16
30
0
11
-85.799425
21
11.825003
31
0
39
0
210
0
220
0
230
1
0
LINE
5
17C
100
AcDbEntity
8
1
62
256
6
ByLayer
370
18
48
1
60
1
100
AcDbLine
10
-85.799425
20
11.825003
30
0
11
-87.650575
21
11.824997
31
0
39
0
210
0
220
0
230
1
0
LINE
5
17D
100
AcDbEntity
8
1
62
256
6
ByLayer
370
18
48
1
60
1
100
AcDbLine
10
-87.650575
20
11.824997
30
0
11
-86.725
21
16
31
0
39
0
210
0
220
0
230
1
0
LINE
5
17E
100
AcDbEntity
8
1
62
256
6
ByLayer
370
18
48
1
60
1
100
AcDbLine
10
-86.725
20
-16
30
0
11
-87.650575
21
-11.825003
31
0
39
0
210
0
220
0
230
1
0
LINE
5
17F
100
AcDbEntity
8
1
62
256
6
ByLayer
370
18
48
1
60
1
100
AcDbLine
10
-87.650575
20
-11.825003
30
0
11
-85.799425
21
-11.824997
31
0
39
0
210
0
220
0
230
1
0
LINE
5
180
100
AcDbEntity
8
1
62
256
6
ByLayer
370
18
48
1
60
1
100
AcDbLine
10
-85.799425
20
-11.824997
30
0
11
-86.725
21
-16
31
0
39
0
210
0
220
0
230
1
0
LINE
5
181
100
AcDbEntity
8
2
62
256
6
ByLayer
370
13
48
1
60
0
100
AcDbLine
10
167.975
20
22.75
30
0
11
167.975
21
-22.75
31
0
39
0
210
0
220
0
230
1
0
LINE
5
183
100
AcDbEntity
8
2
62
256
6
ByLayer
370
13
48
1
60
0
100
AcDbLine
10
142.5875
20
-11.5
30
0
11
171.15
21
-11.5
31
0
39
0
210
0
220
0
230
1
0
LINE
5
184
100
AcDbEntity
8
2
62
256
6
ByLayer
370
13
48
1
60
0
100
AcDbLine
10
142.5875
20
11.5
30
0
11
171.15
21
11.5
31
0
39
0
210
0
220
0
230
1
0
LINE
5
185
100
AcDbEntity
8
1
62
256
6
ByLayer
370
18
48
1
60
1
100
AcDbLine
10
167.975
20
-11.5
30
0
11
168.900575
21
-15.674997
31
0
39
0
210
0
220
0
230
1
0
LINE
5
186
100
AcDbEntity
8
1
62
256
6
ByLayer
370
18
48
1
60
1
100
AcDbLine
10
168.900575
20
-15.674997
30
0
11
167.049425
21
-15.675003
31
0
39
0
210
0
220
0
230
1
0
LINE
5
187
100
AcDbEntity
8
1
62
256
6
ByLayer
370
18
48
1
60
1
100
AcDbLine
10
167.049425
20
-15.675003
30
0
11
167.975
21
-11.5
31
0
39
0
210
0
220
0
230
1
0
LINE
5
188
100
AcDbEntity
8
1
62
256
6
ByLayer
370
18
48
1
60
1
100
AcDbLine
10
167.975
20
11.5
30
0
11
167.049425
21
15.674997
31
0
39
0
210
0
220
0
230
1
0
LINE
5
189
100
AcDbEntity
8
1
62
256
6
ByLayer
370
18
48
1
60
1
100
AcDbLine
10
167.049425
20
15.674997
30
0
11
168.900575
21
15.675003
31
0
39
0
210
0
220
0
230
1
0
LINE
5
18A
100
AcDbEntity
8
1
62
256
6
ByLayer
370
18
48
1
60
1
100
AcDbLine
10
168.900575
20
15.675003
30
0
11
167.975
21
11.5
31
0
39
0
210
0
220
0
230
1
0
LINE
5
344
100
AcDbEntity
8
1
62
256
6
ByLayer
370
18
48
1
60
1
100
AcDbLine
10
-76.725
20
-12.5
30
0
11
-75.799425
21
-16.674997
31
0
39
0
210
0
220
0
230
1
0
LINE
5
345
100
AcDbEntity
8
1
62
256
6
ByLayer
370
18
48
1
60
1
100
AcDbLine
10
-75.799425
20
-16.674997
30
0
11
-77.650575
21
-16.675003
31
0
39
0
210
0
220
0
230
1
0
LINE
5
346
100
AcDbEntity
8
1
62
256
6
ByLayer
370
18
48
1
60
1
100
AcDbLine
10
-77.650575
20
-16.675003
30
0
11
-76.725
21
-12.5
31
0
39
0
210
0
220
0
230
1
0
LINE
5
348
100
AcDbEntity
8
1
62
256
6
ByLayer
370
18
48
1
60
1
100
AcDbLine
10
-76.725
20
12.5
30
0
11
-77.650575
21
16.674997
31
0
39
0
210
0
220
0
230
1
0
LINE
5
349
100
AcDbEntity
8
1
62
256
6
ByLayer
370
18
48
1
60
1
100
AcDbLine
10
-77.650575
20
16.674997
30
0
11
-75.799425
21
16.675003
31
0
39
0
210
0
220
0
230
1
0
LINE
5
34A
100
AcDbEntity
8
1
62
256
6
ByLayer
370
18
48
1
60
1
100
AcDbLine
10
-75.799425
20
16.675003
30
0
11
-76.725
21
12.5
31
0
39
0
210
0
220
0
230
1
0
LINE
5
34E
100
AcDbEntity
8
1
62
256
6
ByLayer
370
18
48
1
60
1
100
AcDbLine
10
-86.725
20
16
30
0
11
-85.799425
21
11.825003
31
0
39
0
210
0
220
0
230
1
0
LINE
5
34F
100
AcDbEntity
8
1
62
256
6
ByLayer
370
18
48
1
60
1
100
AcDbLine
10
-85.799425
20
11.825003
30
0
11
-87.650575
21
11.824997
31
0
39
0
210
0
220
0
230
1
0
LINE
5
350
100
AcDbEntity
8
1
62
256
6
ByLayer
370
18
48
1
60
1
100
AcDbLine
10
-87.650575
20
11.824997
30
0
11
-86.725
21
16
31
0
39
0
210
0
220
0
230
1
0
LINE
5
352
100
AcDbEntity
8
1
62
256
6
ByLayer
370
18
48
1
60
1
100
AcDbLine
10
-86.725
20
-16
30
0
11
-87.650575
21
-11.825003
31
0
39
0
210
0
220
0
230
1
0
LINE
5
353
100
AcDbEntity
8
1
62
256
6
ByLayer
370
18
48
1
60
1
100
AcDbLine
10
-87.650575
20
-11.825003
30
0
11
-85.799425
21
-11.824997
31
0
39
0
210
0
220
0
230
1
0
LINE
5
354
100
AcDbEntity
8
1
62
256
6
ByLayer
370
18
48
1
60
1
100
AcDbLine
10
-85.799425
20
-11.824997
30
0
11
-86.725
21
-16
31
0
39
0
210
0
220
0
230
1
0
LINE
5
358
100
AcDbEntity
8
1
62
256
6
ByLayer
370
18
48
1
60
1
100
AcDbLine
10
167.975
20
-11.5
30
0
11
168.900575
21
-15.674997
31
0
39
0
210
0
220
0
230
1
0
LINE
5
359
100
AcDbEntity
8
1
62
256
6
ByLayer
370
18
48
1
60
1
100
AcDbLine
10
168.900575
20
-15.674997
30
0
11
167.049425
21
-15.675003
31
0
39
0
210
0
220
0
230
1
0
LINE
5
35A
100
AcDbEntity
8
1
62
256
6
ByLayer
370
18
48
1
60
1
100
AcDbLine
10
167.049425
20
-15.675003
30
0
11
167.975
21
-11.5
31
0
39
0
210
0
220
0
230
1
0
LINE
5
35C
100
AcDbEntity
8
1
62
256
6
ByLayer
370
18
48
1
60
1
100
AcDbLine
10
167.975
20
11.5
30
0
11
167.049425
21
15.674997
31
0
39
0
210
0
220
0
230
1
0
LINE
5
35D
100
AcDbEntity
8
1
62
256
6
ByLayer
370
18
48
1
60
1
100
AcDbLine
10
167.049425
20
15.674997
30
0
11
168.900575
21
15.675003
31
0
39
0
210
0
220
0
230
1
0
LINE
5
35E
100
AcDbEntity
8
1
62
256
6
ByLayer
370
18
48
1
60
1
100
AcDbLine
10
168.900575
20
15.675003
30
0
11
167.975
21
11.5
31
0
39
0
210
0
220
0
230
1
0
MTEXT
5
340
100
AcDbEntity
8
SK2
62
256
6
ByLayer
370
18
48
1
60
0
100
AcDbMText
10
-78.736672
20
-6.949399
30
0
210
0
220
0
230
1
1
%%c
40
4.5
41
0
44
1.084337
50
90
71
7
72
5
7
iso_b_vert
0
MTEXT
5
343
100
AcDbEntity
8
SK2
62
256
6
ByLayer
370
18
48
1
60
0
100
AcDbMText
10
-78.736672
20
4.265444
30
0
210
0
220
0
230
1
1
\W0.6740;25
40
4.5
41
0
44
1.084337
50
90
71
7
72
5
7
iso_b_vert
0
MTEXT
5
34C
100
AcDbEntity
8
SK2
62
256
6
ByLayer
370
18
48
1
60
0
100
AcDbMText
10
-88.736672
20
-6.949399
30
0
210
0
220
0
230
1
1
%%c
40
4.5
41
0
44
1.084337
50
90
71
7
72
5
7
iso_b_vert
0
MTEXT
5
34D
100
AcDbEntity
8
SK2
62
256
6
ByLayer
370
18
48
1
60
0
100
AcDbMText
10
-88.736672
20
4.265444
30
0
210
0
220
0
230
1
1
\W0.6740;32
40
4.5
41
0
44
1.084337
50
90
71
7
72
5
7
iso_b_vert
0
MTEXT
5
356
100
AcDbEntity
8
2
62
256
6
ByLayer
370
18
48
1
60
0
100
AcDbMText
10
165.963328
20
-6.949399
30
0
210
0
220
0
230
1
1
%%c
40
4.5
41
0
44
1.084337
50
90
71
7
72
5
7
iso_b_vert
0
MTEXT
5
357
100
AcDbEntity
8
2
62
256
6
ByLayer
370
18
48
1
60
0
100
AcDbMText
10
165.963328
20
4.265444
30
0
210
0
220
0
230
1
1
\W0.6740;23
40
4.5
41
0
44
1.084337
50
90
71
7
72
5
7
iso_b_vert
0
MTEXT
5
360
100
AcDbEntity
8
SK6
62
256
6
ByLayer
370
18
48
1
60
0
100
AcDbMText
10
9.308916
20
-94.592562
30
0
210
0
220
0
230
1
1
\W0.7663;DS20-D2300L25-05
40
3.5
41
0
44
1.084337
50
0
71
7
72
5
7
iso_b_vert
0
HATCH
5
347
100
AcDbEntity
8
SK2
62
256
6
ByLayer
370
13
48
1
60
0
100
AcDbHatch
10
0
20
0
30
0
210
0
220
0
230
1
2
ANSI31
70
0
71
0
91
1
92
5
93
3
72
1
10
-76.725
20
-12.4999999999999
11
-75.799424783472
21
-16.6749966001723
72
1
10
-75.799424783472
20
-16.6749966001723
11
-77.650575216528
21
-16.6750033998275
72
1
10
-77.650575216528
20
-16.6750033998275
11
-76.725
21
-12.4999999999999
97
0
75
0
76
1
52
0
41
0.0062
77
0
78
1
53
45
43
0
44
0
45
-0.0139193969876572
46
0.0139193969876572
79
0
47
0
98
1
10
0
20
0
0
HATCH
5
34B
100
AcDbEntity
8
SK2
62
256
6
ByLayer
370
13
48
1
60
0
100
AcDbHatch
10
0
20
0
30
0
210
0
220
0
230
1
2
ANSI31
70
0
71
0
91
1
92
5
93
3
72
1
10
-76.725
20
12.5000000000001
11
-77.650575216528
21
16.6749966001725
72
1
10
-77.650575216528
20
16.6749966001725
11
-75.799424783472
21
16.6750033998277
72
1
10
-75.799424783472
20
16.6750033998277
11
-76.725
21
12.5000000000001
97
0
75
0
76
1
52
0
41
0.0062
77
0
78
1
53
45
43
0
44
0
45
-0.0139193969876572
46
0.0139193969876572
79
0
47
0
98
1
10
0
20
0
0
HATCH
5
351
100
AcDbEntity
8
SK2
62
256
6
ByLayer
370
13
48
1
60
0
100
AcDbHatch
10
0
20
0
30
0
210
0
220
0
230
1
2
ANSI31
70
0
71
0
91
1
92
5
93
3
72
1
10
-86.725
20
16
11
-85.799424783472
21
11.8250033998276
72
1
10
-85.799424783472
20
11.8250033998276
11
-87.650575216528
21
11.8249966001724
72
1
10
-87.650575216528
20
11.8249966001724
11
-86.725
21
16
97
0
75
0
76
1
52
0
41
0.0062
77
0
78
1
53
45
43
0
44
0
45
-0.0139193969876572
46
0.0139193969876572
79
0
47
0
98
1
10
0
20
0
0
HATCH
5
355
100
AcDbEntity
8
SK2
62
256
6
ByLayer
370
13
48
1
60
0
100
AcDbHatch
10
0
20
0
30
0
210
0
220
0
230
1
2
ANSI31
70
0
71
0
91
1
92
5
93
3
72
1
10
-86.725
20
-16
11
-87.650575216528
21
-11.8250033998276
72
1
10
-87.650575216528
20
-11.8250033998276
11
-85.799424783472
21
-11.8249966001724
72
1
10
-85.799424783472
20
-11.8249966001724
11
-86.725
21
-16
97
0
75
0
76
1
52
0
41
0.0062
77
0
78
1
53
45
43
0
44
0
45
-0.0139193969876572
46
0.0139193969876572
79
0
47
0
98
1
10
0
20
0
0
HATCH
5
35B
100
AcDbEntity
8
2
62
256
6
ByLayer
370
13
48
1
60
0
100
AcDbHatch
10
0
20
0
30
0
210
0
220
0
230
1
2
ANSI31
70
0
71
0
91
1
92
5
93
3
72
1
10
167.975
20
-11.5000000000001
11
168.900575216528
21
-15.6749966001725
72
1
10
168.900575216528
20
-15.6749966001725
11
167.049424783472
21
-15.6750033998278
72
1
10
167.049424783472
20
-15.6750033998278
11
167.975
21
-11.5000000000001
97
0
75
0
76
1
52
0
41
0.0062
77
0
78
1
53
45
43
0
44
0
45
-0.0139193969876572
46
0.0139193969876572
79
0
47
0
98
1
10
0
20
0
0
HATCH
5
35F
100
AcDbEntity
8
2
62
256
6
ByLayer
370
13
48
1
60
0
100
AcDbHatch
10
0
20
0
30
0
210
0
220
0
230
1
2
ANSI31
70
0
71
0
91
1
92
5
93
3
72
1
10
167.975
20
11.4999999999999
11
167.049424783472
21
15.6749966001722
72
1
10
167.049424783472
20
15.6749966001722
11
168.900575216528
21
15.6750033998275
72
1
10
168.900575216528
20
15.6750033998275
11
167.975
21
11.4999999999999
97
0
75
0
76
1
52
0
41
0.0062
77
0
78
1
53
45
43
0
44
0
45
-0.0139193969876572
46
0.0139193969876572
79
0
47
0
98
1
10
0
20
0
0
DIMENSION
5
363
100
AcDbEntity
8
2
62
256
6
ByLayer
370
18
48
1
60
0
100
AcDbDimension
2
_U0
10
141
20
-64.861103
30
0
11
70.5
21
-64.861103
31
0
70
32
71
1
72
1
41
1
210
0
220
0
230
1
3
Standard
100
AcDbAlignedDimension
13
0
23
-16
33
0
14
141
24
-11.5
34
0
50
0
100
AcDbRotatedDimension
1001
ACAD
1000
DSTYLE
1002
{
1070
   371
1070
    13
1070
   372
1070
    13
1070
   170
1070
     0
1070
   144
1040
1.0
1070
   277
1070
     2
1070
   284
1070
     8
1070
   278
1070
    46
1070
   146
1040
0.777778
1070
   345
1005
16
1070
   347
1005
16
1070
   346
1005
16
1070
   344
1005
0
1070
   343
1005
0
1070
   172
1070
     1
1070
    76
1070
     0
1070
    75
1070
     0
1070
   282
1070
     0
1070
   281
1070
     0
1070
    71
1070
     0
1070
    74
1070
     0
1070
   279
1070
     0
1070
   173
1070
     1
1070
   340
1005
341
1070
   271
1070
     1
1070
   272
1070
     2
1070
    77
1070
     1
1070
    73
1070
     1
1070
   171
1070
     3
1070
   274
1070
     4
1070
   177
1070
   150
1070
   176
1070
     9
1070
   178
1070
    43
1070
    78
1070
     8
1070
    48
1040
-0.1
1070
    41
1040
4.175
1070
   147
1040
2.25
1070
    42
1040
1.5875
1070
    44
1040
3.175
1070
   140
1040
4.5
1002
}
1001
ACAD_DSTYLE_DIM_LINETYPE
1070
   380
1005
16
1001
ACAD_DSTYLE_DIM_EXT1_LINETYPE
1070
   381
1005
16
1001
ACAD_DSTYLE_DIM_EXT2_LINETYPE
1070
   382
1005
16
0
DIMENSION
5
37C
100
AcDbEntity
8
SK2
62
256
6
ByLayer
370
18
48
1
60
0
100
AcDbDimension
2
_U1
10
0
20
-64.861103
30
0
11
-28
21
-64.861103
31
0
70
32
71
1
72
1
41
1
210
0
220
0
230
1
3
Standard
100
AcDbAlignedDimension
13
-56
23
-12.5
33
0
14
0
24
-16
34
0
50
0
100
AcDbRotatedDimension
1001
ACAD
1000
DSTYLE
1002
{
1070
   371
1070
    13
1070
   372
1070
    13
1070
   170
1070
     0
1070
   144
1040
1.0
1070
   277
1070
     2
1070
   284
1070
     8
1070
   278
1070
    46
1070
   146
1040
0.777778
1070
   345
1005
16
1070
   347
1005
16
1070
   346
1005
16
1070
   344
1005
0
1070
   343
1005
0
1070
   172
1070
     1
1070
    76
1070
     0
1070
    75
1070
     0
1070
   282
1070
     0
1070
   281
1070
     0
1070
    71
1070
     0
1070
    74
1070
     0
1070
   279
1070
     0
1070
   173
1070
     1
1070
   340
1005
341
1070
   271
1070
     1
1070
   272
1070
     2
1070
    77
1070
     1
1070
    73
1070
     1
1070
   171
1070
     3
1070
   274
1070
     4
1070
   177
1070
   150
1070
   176
1070
     9
1070
   178
1070
    43
1070
    78
1070
     8
1070
    48
1040
-0.1
1070
    41
1040
4.175
1070
   147
1040
2.25
1070
    42
1040
1.5875
1070
    44
1040
3.175
1070
   140
1040
4.5
1002
}
1001
ACAD_DSTYLE_DIM_LINETYPE
1070
   380
1005
16
1001
ACAD_DSTYLE_DIM_EXT1_LINETYPE
1070
   381
1005
16
1001
ACAD_DSTYLE_DIM_EXT2_LINETYPE
1070
   382
1005
16
0
DIMENSION
5
394
100
AcDbEntity
8
SK2
62
256
6
ByLayer
370
18
48
1
60
0
100
AcDbDimension
2
_U2
10
6.3337
20
-54.861103
30
0
11
73.66685
21
-54.861103
31
0
70
32
71
1
72
1
41
1
210
0
220
0
230
1
3
Standard
100
AcDbAlignedDimension
13
141
23
-11.5
33
0
14
6.3337
24
-16
34
0
50
0
100
AcDbRotatedDimension
1001
ACAD
1000
DSTYLE
1002
{
1070
   371
1070
    13
1070
   372
1070
    13
1070
   170
1070
     0
1070
   144
1040
1.0
1070
   277
1070
     2
1070
   284
1070
     8
1070
   278
1070
    46
1070
   146
1040
0.777778
1070
   345
1005
16
1070
   347
1005
16
1070
   346
1005
16
1070
   344
1005
0
1070
   343
1005
0
1070
   172
1070
     1
1070
    76
1070
     0
1070
    75
1070
     0
1070
   282
1070
     0
1070
   281
1070
     0
1070
    71
1070
     0
1070
    74
1070
     0
1070
   279
1070
     0
1070
   173
1070
     1
1070
   340
1005
341
1070
   271
1070
     1
1070
   272
1070
     2
1070
    77
1070
     1
1070
    73
1070
     1
1070
   171
1070
     3
1070
   274
1070
     4
1070
   177
1070
   150
1070
   176
1070
     9
1070
   178
1070
    43
1070
    78
1070
     8
1070
    48
1040
-0.1
1070
    41
1040
4.175
1070
   147
1040
2.25
1070
    42
1040
1.5875
1070
    44
1040
3.175
1070
   140
1040
4.5
1002
}
1001
ACAD_DSTYLE_DIM_LINETYPE
1070
   380
1005
16
1001
ACAD_DSTYLE_DIM_EXT1_LINETYPE
1070
   381
1005
16
1001
ACAD_DSTYLE_DIM_EXT2_LINETYPE
1070
   382
1005
16
0
DIMENSION
5
3AC
100
AcDbEntity
8
SK2
62
256
6
ByLayer
370
18
48
1
60
0
100
AcDbDimension
2
_U3
10
141
20
-44.861103
30
0
11
81.5
21
-44.861103
31
0
70
32
71
1
72
1
41
1
210
0
220
0
230
1
3
Standard
100
AcDbAlignedDimension
13
22
23
-11.5
33
0
14
141
24
-11.5
34
0
50
0
100
AcDbRotatedDimension
1001
ACAD
1000
DSTYLE
1002
{
1070
   371
1070
    13
1070
   372
1070
    13
1070
   170
1070
     0
1070
   144
1040
1.0
1070
   277
1070
     2
1070
   284
1070
     8
1070
   278
1070
    46
1070
   146
1040
0.777778
1070
   345
1005
16
1070
   347
1005
16
1070
   346
1005
16
1070
   344
1005
0
1070
   343
1005
0
1070
   172
1070
     1
1070
    76
1070
     0
1070
    75
1070
     0
1070
   282
1070
     0
1070
   281
1070
     0
1070
    71
1070
     0
1070
    74
1070
     0
1070
   279
1070
     0
1070
   173
1070
     1
1070
   340
1005
341
1070
   271
1070
     1
1070
   272
1070
     2
1070
    77
1070
     1
1070
    73
1070
     1
1070
   171
1070
     3
1070
   274
1070
     4
1070
   177
1070
   150
1070
   176
1070
     9
1070
   178
1070
    43
1070
    78
1070
     8
1070
    48
1040
-0.1
1070
    41
1040
4.175
1070
   147
1040
2.25
1070
    42
1040
1.5875
1070
    44
1040
3.175
1070
   140
1040
4.5
1002
}
1001
ACAD_DSTYLE_DIM_LINETYPE
1070
   380
1005
16
1001
ACAD_DSTYLE_DIM_EXT1_LINETYPE
1070
   381
1005
16
1001
ACAD_DSTYLE_DIM_EXT2_LINETYPE
1070
   382
1005
16
0
DIMENSION
5
3C4
100
AcDbEntity
8
2
62
256
6
ByLayer
370
18
48
1
60
0
100
AcDbDimension
2
_U4
10
141
20
-34.861103
30
0
11
163.350893
21
-34.861103
31
0
70
32
71
1
72
1
41
1
210
0
220
0
230
1
3
Standard
100
AcDbAlignedDimension
13
140.335
23
-5.75
33
0
14
141
24
0
34
0
50
0
100
AcDbRotatedDimension
1001
ACAD
1000
DSTYLE
1002
{
1070
   371
1070
    13
1070
   372
1070
    13
1070
   170
1070
     0
1070
   144
1040
1.0
1070
   277
1070
     2
1070
   284
1070
     8
1070
   278
1070
    46
1070
   146
1040
0.777778
1070
   345
1005
16
1070
   347
1005
16
1070
   346
1005
16
1070
   344
1005
0
1070
   343
1005
0
1070
   172
1070
     1
1070
    76
1070
     0
1070
    75
1070
     0
1070
   282
1070
     0
1070
   281
1070
     0
1070
    71
1070
     0
1070
    74
1070
     0
1070
   279
1070
     0
1070
   173
1070
     1
1070
   340
1005
341
1070
   271
1070
     2
1070
   272
1070
     2
1070
    77
1070
     1
1070
    73
1070
     1
1070
   171
1070
     3
1070
   274
1070
     4
1070
   177
1070
   150
1070
   176
1070
     9
1070
   178
1070
    43
1070
    78
1070
     8
1070
    48
1040
-0.1
1070
    41
1040
4.175
1070
   147
1040
2.25
1070
    42
1040
1.5875
1070
    44
1040
3.175
1070
   140
1040
4.5
1002
}
1001
ACAD_DSTYLE_DIM_LINETYPE
1070
   380
1005
16
1001
ACAD_DSTYLE_DIM_EXT1_LINETYPE
1070
   381
1005
16
1001
ACAD_DSTYLE_DIM_EXT2_LINETYPE
1070
   382
1005
16
0
ENDSEC
0
SECTION
2
OBJECTS
0
DICTIONARY
5
44e
330
0
100
AcDbDictionary
280
0
281
1
3
ACAD_GROUP
350
44f
3
ACAD_MLINESTYLE
350
450
0
DICTIONARY
5
44f
330
0
100
AcDbDictionary
280
0
281
1
0
DICTIONARY
5
450
330
0
100
AcDbDictionary
280
0
281
1
3
Standard
350
18
0
MLINESTYLE
5
18
330
450
100
AcDbMlineStyle
2
Standard
70
0
3

62
256
51
90
52
90
71
2
49
-0.5
62
256
6
ByLayer
49
0.5
62
256
6
ByLayer
0
RASTERVARIABLES
5
43c
330

100
AcDbRasterVariables
90
0
70
1
71
1
72
1
0
ENDSEC
0
EOF
