0
SECTION
2
HEADER
9
$ACADVER
1
AC1015
9
$DWGCODEPAGE
3
ANSI_1252
9
$HANDSEED
5
45b
9
$ANGBASE
50
0
9
$ANGDIR
70
0
9
$ATTMODE
70
1
9
$AUNITS
70
0
9
$AUPREC
70
0
9
$CECOLOR
62
256
9
$CELTSCALE
40
1
9
$CELTYPE
6
ByLayer
9
$CELWEIGHT
370
18
9
$CLAYER
8
0
9
$CMLJUST
70
0
9
$CMLSCALE
40
1
9
$CMLSTYLE
2
Standard
9
$DIMSTYLE
2
Standard
9
$TEXTSIZE
40
0.2
9
$TEXTSTYLE
7
Standard
9
$LUNITS
70
2
9
$LUPREC
70
4
9
$EXTNAMES
290
1
9
$INSUNITS
70
4
9
$LTSCALE
40
1
9
$LWDISPLAY
290
1
9
$PDMODE
70
0
9
$PDSIZE
40
0
9
$PLINEGEN
70
0
0
ENDSEC
0
SECTION
2
CLASSES
0
CLASS
1
RASTERVARIABLES
2
AcDbRasterVariables
3
ISM
90
0
280
0
281
0
0
ENDSEC
0
SECTION
2
TABLES
0
TABLE
2
VPORT
5
451
100
AcDbSymbolTable
0
VPORT
5
1
100
AcDbSymbolTableRecord
100
AcDbViewportTableRecord
2
*Active
70
0
10
0
20
0
11
1
21
1
12
-1
22
1
13
0
23
0
14
0.5
24
0.5
15
10
25
10
16
0
26
0
36
1
17
0
27
0
37
0
0
ENDTAB
0
TABLE
2
LTYPE
5
452
100
AcDbSymbolTable
0
LTYPE
5
14
100
AcDbSymbolTableRecord
100
AcDbLinetypeTableRecord
70
0
2
ByBlock
3

72
65
73
0
40
0
0
LTYPE
5
15
100
AcDbSymbolTableRecord
100
AcDbLinetypeTableRecord
70
0
2
ByLayer
3

72
65
73
0
40
0
0
LTYPE
5
16
100
AcDbSymbolTableRecord
100
AcDbLinetypeTableRecord
70
0
2
Continuous
3
Solid line
72
65
73
0
40
0
0
LTYPE
5
6E
100
AcDbSymbolTableRecord
100
AcDbLinetypeTableRecord
70
0
2
CENTER
3
____ _ ____ _ ____ _ ____
72
65
73
4
40
47.5
49
22
74
0
49
-8.5
74
0
49
8.5
74
0
49
-8.5
74
0
0
LTYPE
5
6F
100
AcDbSymbolTableRecord
100
AcDbLinetypeTableRecord
70
0
2
DASHED
3
__ __ __ __ __ __ __ __ __
72
65
73
2
40
25.72
49
12.86
74
0
49
-12.86
74
0
0
ENDTAB
0
TABLE
2
LAYER
5
453
100
AcDbSymbolTable
0
LAYER
5
10
100
AcDbSymbolTableRecord
100
AcDbLayerTableRecord
2
0
70
0
62
7
6
Continuous
290
1
370
-3
390
0
0
LAYER
5
71
100
AcDbSymbolTableRecord
100
AcDbLayerTableRecord
2
1
70
0
62
4
6
Continuous
290
1
370
-3
390
0
0
LAYER
5
73
100
AcDbSymbolTableRecord
100
AcDbLayerTableRecord
2
80
70
0
62
-6
6
Continuous
290
1
370
-3
390
0
0
LAYER
5
75
100
AcDbSymbolTableRecord
100
AcDbLayerTableRecord
2
81
70
0
62
-3
6
Continuous
290
1
370
-3
390
0
0
LAYER
5
146
100
AcDbSymbolTableRecord
100
AcDbLayerTableRecord
2
4
70
0
62
-2
6
CENTER
290
1
370
-3
390
0
0
LAYER
5
182
100
AcDbSymbolTableRecord
100
AcDbLayerTableRecord
2
2
70
0
62
7
6
Continuous
290
1
370
-3
390
0
0
LAYER
5
366
100
AcDbSymbolTableRecord
100
AcDbLayerTableRecord
2
Defpoints
70
0
62
7
6
Continuous
290
0
370
-3
390
0
0
LAYER
5
43d
100
AcDbSymbolTableRecord
100
AcDbLayerTableRecord
2
SK1
70
0
62
4
6
Continuous
290
1
370
-3
390
0
0
LAYER
5
43e
100
AcDbSymbolTableRecord
100
AcDbLayerTableRecord
2
SK4
70
0
62
2
6
CENTER
290
1
370
-3
390
0
0
LAYER
5
43f
100
AcDbSymbolTableRecord
100
AcDbLayerTableRecord
2
SK2
70
0
62
7
6
Continuous
290
1
370
-3
390
0
0
LAYER
5
440
100
AcDbSymbolTableRecord
100
AcDbLayerTableRecord
2
SK6
70
0
62
5
6
Continuous
290
1
370
-3
390
0
0
ENDTAB
0
TABLE
2
STYLE
5
454
100
AcDbSymbolTable
0
STYLE
5
11
100
AcDbSymbolTableRecord
100
AcDbTextStyleTableRecord
2
Standard
3
txt
70
0
71
0
40
0
41
1
42
0
50
0
0
STYLE
5
341
100
AcDbSymbolTableRecord
100
AcDbTextStyleTableRecord
2
iso_b_vert
3
simplex.shx
70
0
71
0
40
0
41
1
42
0
50
0
0
STYLE
5
342
100
AcDbSymbolTableRecord
100
AcDbTextStyleTableRecord
2
DWGDirectTextStyle
3
simplex
70
0
71
0
40
0
41
1
42
0
50
0
0
ENDTAB
0
TABLE
2
DIMSTYLE
5
455
100
AcDbSymbolTable
100
AcDbDimStyleTable
0
DIMSTYLE
105
27
100
AcDbSymbolTableRecord
100
AcDbDimStyleTableRecord
2
Standard
70
0
3
<>
41
0.18
42
0.0625
44
0.18
140
0.18
147
0.09
73
0
74
0
77
1
271
2
275
0
278
52
280
0
340
11
0
ENDTAB
0
TABLE
2
VIEW
5
456
100
AcDbSymbolTable
0
ENDTAB
0
TABLE
2
UCS
5
457
100
AcDbSymbolTable
0
ENDTAB
0
TABLE
2
APPID
5
458
100
AcDbSymbolTable
0
APPID
5
12
100
AcDbSymbolTableRecord
100
AcDbRegAppTableRecord
2
ACAD
70
0
0
APPID
5
362
100
AcDbSymbolTableRecord
100
AcDbRegAppTableRecord
2
ACAD_DSTYLE_DIMBREAK
70
0
0
APPID
5
3FC
100
AcDbSymbolTableRecord
100
AcDbRegAppTableRecord
2
ACAD_DSTYLE_DIM_LINETYPE
70
0
0
APPID
5
3FD
100
AcDbSymbolTableRecord
100
AcDbRegAppTableRecord
2
ACAD_DSTYLE_DIM_EXT1_LINETYPE
70
0
0
APPID
5
3FE
100
AcDbSymbolTableRecord
100
AcDbRegAppTableRecord
2
ACAD_DSTYLE_DIM_EXT2_LINETYPE
70
0
0
APPID
5
439
100
AcDbSymbolTableRecord
100
AcDbRegAppTableRecord
2
ACAD_MLEADERVER
70
0
0
ENDTAB
0
TABLE
2
BLOCK_RECORD
5
459
100
AcDbSymbolTable
0
BLOCK_RECORD
5
1F
100
AcDbSymbolTableRecord
100
AcDbBlockTableRecord
2
*Model_Space
340
0
70
0
0
BLOCK_RECORD
5
1B
100
AcDbSymbolTableRecord
100
AcDbBlockTableRecord
2
*Paper_Space
340
0
70
0
0
BLOCK_RECORD
5
23
100
AcDbSymbolTableRecord
100
AcDbBlockTableRecord
2
*Paper_Space0
340
0
70
0
0
BLOCK_RECORD
5
367
100
AcDbSymbolTableRecord
100
AcDbBlockTableRecord
2
*D1
340
0
70
0
0
BLOCK_RECORD
5
373
100
AcDbSymbolTableRecord
100
AcDbBlockTableRecord
2
_U0
340
0
70
0
0
BLOCK_RECORD
5
37F
100
AcDbSymbolTableRecord
100
AcDbBlockTableRecord
2
*D3
340
0
70
0
0
BLOCK_RECORD
5
38B
100
AcDbSymbolTableRecord
100
AcDbBlockTableRecord
2
_U1
340
0
70
0
0
BLOCK_RECORD
5
397
100
AcDbSymbolTableRecord
100
AcDbBlockTableRecord
2
*D5
340
0
70
0
0
BLOCK_RECORD
5
3A3
100
AcDbSymbolTableRecord
100
AcDbBlockTableRecord
2
_U2
340
0
70
0
0
BLOCK_RECORD
5
3AF
100
AcDbSymbolTableRecord
100
AcDbBlockTableRecord
2
*D7
340
0
70
0
0
BLOCK_RECORD
5
3BB
100
AcDbSymbolTableRecord
100
AcDbBlockTableRecord
2
_U3
340
0
70
0
0
BLOCK_RECORD
5
3C7
100
AcDbSymbolTableRecord
100
AcDbBlockTableRecord
2
*D9
340
0
70
0
0
BLOCK_RECORD
5
3D5
100
AcDbSymbolTableRecord
100
AcDbBlockTableRecord
2
_U4
340
0
70
0
0
ENDTAB
0
ENDSEC
0
SECTION
2
BLOCKS
0
BLOCK
5
20
100
AcDbEntity
8
0
100
AcDbBlockBegin
2
*Model_Space
70
0
10
0
20
0
30
0
3
*Model_Space
0
ENDBLK
5
21
100
AcDbEntity
8
0
100
AcDbBlockEnd
0
BLOCK
5
1C
100
AcDbEntity
8
0
100
AcDbBlockBegin
2
*Paper_Space
70
0
10
0
20
0
30
0
3
*Paper_Space
0
ENDBLK
5
1D
100
AcDbEntity
8
0
100
AcDbBlockEnd
0
BLOCK
5
24
100
AcDbEntity
8
0
100
AcDbBlockBegin
2
*Paper_Space0
70
0
10
0
20
0
30
0
3
*Paper_Space0
0
ENDBLK
5
25
100
AcDbEntity
8
0
100
AcDbBlockEnd
0
BLOCK
5
368
100
AcDbEntity
8
0
100
AcDbBlockBegin
2
*D1
70
1
10
0
20
0
30
0
3
*D1
0
LINE
5
36A
100
AcDbEntity
8
0
62
256
6
ByLayer
370
-2
48
1
60
0
100
AcDbLine
10
0
20
-17.5875
30
0
11
0
21
-68.036103
31
0
39
0
210
0
220
0
230
1
0
LINE
5
36B
100
AcDbEntity
8
0
62
256
6
ByLayer
370
-2
48
1
60
0
100
AcDbLine
10
118
20
-13.0875
30
0
11
118
21
-68.036103
31
0
39
0
210
0
220
0
230
1
0
LINE
5
36C
100
AcDbEntity
8
0
62
256
6
ByLayer
370
-2
48
1
60
0
100
AcDbLine
10
4.175
20
-64.861103
30
0
11
113.825
21
-64.861103
31
0
39
0
210
0
220
0
230
1
0
SOLID
5
36D
100
AcDbEntity
8
0
62
256
6
ByLayer
370
-1
48
1
60
0
100
AcDbTrace
10
4.175
20
-64.165269
30
0
11
4.175
21
-65.556936
31
0
12
0
22
-64.861103
32
0
13
0
23
-64.861103
33
0
39
0
210
0
220
0
230
1
0
SOLID
5
36E
100
AcDbEntity
8
0
62
256
6
ByLayer
370
-1
48
1
60
0
100
AcDbTrace
10
113.825
20
-65.556936
30
0
11
113.825
21
-64.165269
31
0
12
118
22
-64.861103
32
0
13
118
23
-64.861103
33
0
39
0
210
0
220
0
230
1
0
MTEXT
5
36F
100
AcDbEntity
8
0
62
256
6
ByLayer
370
18
48
1
60
0
100
AcDbMText
10
59
20
-55.467353
30
0
210
0
220
0
230
1
1
\A1;118
40
4.5
41
0
44
1
50
0
71
5
72
5
7
iso_b_vert
0
POINT
5
370
100
AcDbEntity
8
Defpoints
62
0
6
ByLayer
370
-1
48
1
60
0
100
AcDbPoint
10
0
20
-16
30
0
39
0
210
0
220
0
230
1
50
360
0
POINT
5
371
100
AcDbEntity
8
Defpoints
62
0
6
ByLayer
370
-1
48
1
60
0
100
AcDbPoint
10
118
20
-11.5
30
0
39
0
210
0
220
0
230
1
50
360
0
POINT
5
372
100
AcDbEntity
8
Defpoints
62
0
6
ByLayer
370
-1
48
1
60
0
100
AcDbPoint
10
118
20
-64.861103
30
0
39
0
210
0
220
0
230
1
50
360
0
ENDBLK
5
369
100
AcDbEntity
8
0
100
AcDbBlockEnd
0
BLOCK
5
37A
100
AcDbEntity
8
0
100
AcDbBlockBegin
2
_U0
70
0
10
0
20
0
30
0
3
_U0
0
MTEXT
5
374
100
AcDbEntity
8
2
62
256
6
ByLayer
370
18
48
1
60
0
100
AcDbMText
10
55.994215
20
-63.533431
30
0
210
0
220
0
230
1
1
\W0.5296;118
40
4.5
41
0
44
1.084337
50
0
71
7
72
5
7
iso_b_vert
0
LINE
5
375
100
AcDbEntity
8
2
62
256
6
ByLayer
370
13
48
1
60
0
100
AcDbLine
10
0
20
-17.5875
30
0
11
0
21
-68.036103
31
0
39
0
210
0
220
0
230
1
0
LINE
5
376
100
AcDbEntity
8
2
62
256
6
ByLayer
370
13
48
1
60
0
100
AcDbLine
10
118
20
-13.0875
30
0
11
118
21
-68.036103
31
0
39
0
210
0
220
0
230
1
0
LINE
5
377
100
AcDbEntity
8
2
62
256
6
ByLayer
370
13
48
1
60
0
100
AcDbLine
10
0
20
-64.861103
30
0
11
118
21
-64.861103
31
0
39
0
210
0
220
0
230
1
0
SOLID
5
378
100
AcDbEntity
8
2
62
256
6
ByLayer
370
18
48
1
60
0
100
AcDbTrace
10
0
20
-64.861103
30
0
11
4.174997
21
-63.935527
31
0
12
4.175003
22
-65.786678
32
0
13
4.175003
23
-65.786678
33
0
39
0
210
0
220
0
230
1
0
SOLID
5
379
100
AcDbEntity
8
2
62
256
6
ByLayer
370
18
48
1
60
0
100
AcDbTrace
10
118
20
-64.861103
30
0
11
113.825003
21
-65.786678
31
0
12
113.824997
22
-63.935527
32
0
13
113.824997
23
-63.935527
33
0
39
0
210
0
220
0
230
1
0
ENDBLK
5
37B
100
AcDbEntity
8
0
100
AcDbBlockEnd
0
BLOCK
5
380
100
AcDbEntity
8
0
100
AcDbBlockBegin
2
*D3
70
1
10
0
20
0
30
0
3
*D3
0
LINE
5
382
100
AcDbEntity
8
0
62
256
6
ByLayer
370
-2
48
1
60
0
100
AcDbLine
10
-56
20
-14.0875
30
0
11
-56
21
-68.036103
31
0
39
0
210
0
220
0
230
1
0
LINE
5
383
100
AcDbEntity
8
0
62
256
6
ByLayer
370
-2
48
1
60
0
100
AcDbLine
10
0
20
-17.5875
30
0
11
0
21
-68.036103
31
0
39
0
210
0
220
0
230
1
0
LINE
5
384
100
AcDbEntity
8
0
62
256
6
ByLayer
370
-2
48
1
60
0
100
AcDbLine
10
-51.825
20
-64.861103
30
0
11
-4.175
21
-64.861103
31
0
39
0
210
0
220
0
230
1
0
SOLID
5
385
100
AcDbEntity
8
0
62
256
6
ByLayer
370
-1
48
1
60
0
100
AcDbTrace
10
-51.825
20
-64.165269
30
0
11
-51.825
21
-65.556936
31
0
12
-56
22
-64.861103
32
0
13
-56
23
-64.861103
33
0
39
0
210
0
220
0
230
1
0
SOLID
5
386
100
AcDbEntity
8
0
62
256
6
ByLayer
370
-1
48
1
60
0
100
AcDbTrace
10
-4.175
20
-65.556936
30
0
11
-4.175
21
-64.165269
31
0
12
0
22
-64.861103
32
0
13
0
23
-64.861103
33
0
39
0
210
0
220
0
230
1
0
MTEXT
5
387
100
AcDbEntity
8
0
62
256
6
ByLayer
370
18
48
1
60
0
100
AcDbMText
10
-28
20
-55.467353
30
0
210
0
220
0
230
1
1
\A1;56
40
4.5
41
0
44
1
50
0
71
5
72
5
7
iso_b_vert
0
POINT
5
388
100
AcDbEntity
8
Defpoints
62
0
6
ByLayer
370
-1
48
1
60
0
100
AcDbPoint
10
-56
20
-12.5
30
0
39
0
210
0
220
0
230
1
50
360
0
POINT
5
389
100
AcDbEntity
8
Defpoints
62
0
6
ByLayer
370
-1
48
1
60
0
100
AcDbPoint
10
0
20
-16
30
0
39
0
210
0
220
0
230
1
50
360
0
POINT
5
38A
100
AcDbEntity
8
Defpoints
62
0
6
ByLayer
370
-1
48
1
60
0
100
AcDbPoint
10
0
20
-64.861103
30
0
39
0
210
0
220
0
230
1
50
360
0
ENDBLK
5
381
100
AcDbEntity
8
0
100
AcDbBlockEnd
0
BLOCK
5
392
100
AcDbEntity
8
0
100
AcDbBlockBegin
2
_U1
70
0
10
0
20
0
30
0
3
_U1
0
MTEXT
5
38C
100
AcDbEntity
8
SK2
62
256
6
ByLayer
370
18
48
1
60
0
100
AcDbMText
10
-30.449242
20
-63.533431
30
0
210
0
220
0
230
1
1
\W0.6740;56
40
4.5
41
0
44
1.084337
50
0
71
7
72
5
7
iso_b_vert
0
LINE
5
38D
100
AcDbEntity
8
SK2
62
256
6
ByLayer
370
13
48
1
60
0
100
AcDbLine
10
-56
20
-14.0875
30
0
11
-56
21
-68.036103
31
0
39
0
210
0
220
0
230
1
0
LINE
5
38E
100
AcDbEntity
8
SK2
62
256
6
ByLayer
370
13
48
1
60
0
100
AcDbLine
10
0
20
-17.5875
30
0
11
0
21
-68.036103
31
0
39
0
210
0
220
0
230
1
0
LINE
5
38F
100
AcDbEntity
8
SK2
62
256
6
ByLayer
370
13
48
1
60
0
100
AcDbLine
10
-56
20
-64.861103
30
0
11
0
21
-64.861103
31
0
39
0
210
0
220
0
230
1
0
SOLID
5
390
100
AcDbEntity
8
SK2
62
256
6
ByLayer
370
18
48
1
60
0
100
AcDbTrace
10
-56
20
-64.861103
30
0
11
-51.825003
21
-63.935527
31
0
12
-51.824997
22
-65.786678
32
0
13
-51.824997
23
-65.786678
33
0
39
0
210
0
220
0
230
1
0
SOLID
5
391
100
AcDbEntity
8
SK2
62
256
6
ByLayer
370
18
48
1
60
0
100
AcDbTrace
10
0
20
-64.861103
30
0
11
-4.174997
21
-65.786678
31
0
12
-4.175003
22
-63.935527
32
0
13
-4.175003
23
-63.935527
33
0
39
0
210
0
220
0
230
1
0
ENDBLK
5
393
100
AcDbEntity
8
0
100
AcDbBlockEnd
0
BLOCK
5
398
100
AcDbEntity
8
0
100
AcDbBlockBegin
2
*D5
70
1
10
0
20
0
30
0
3
*D5
0
LINE
5
39A
100
AcDbEntity
8
0
62
256
6
ByLayer
370
-2
48
1
60
0
100
AcDbLine
10
118
20
-13.0875
30
0
11
118
21
-58.036103
31
0
39
0
210
0
220
0
230
1
0
LINE
5
39B
100
AcDbEntity
8
0
62
256
6
ByLayer
370
-2
48
1
60
0
100
AcDbLine
10
6.3337
20
-17.5875
30
0
11
6.3337
21
-58.036103
31
0
39
0
210
0
220
0
230
1
0
LINE
5
39C
100
AcDbEntity
8
0
62
256
6
ByLayer
370
-2
48
1
60
0
100
AcDbLine
10
113.825
20
-54.861103
30
0
11
10.5087
21
-54.861103
31
0
39
0
210
0
220
0
230
1
0
SOLID
5
39D
100
AcDbEntity
8
0
62
256
6
ByLayer
370
-1
48
1
60
0
100
AcDbTrace
10
113.825
20
-55.556936
30
0
11
113.825
21
-54.165269
31
0
12
118
22
-54.861103
32
0
13
118
23
-54.861103
33
0
39
0
210
0
220
0
230
1
0
SOLID
5
39E
100
AcDbEntity
8
0
62
256
6
ByLayer
370
-1
48
1
60
0
100
AcDbTrace
10
10.5087
20
-54.165269
30
0
11
10.5087
21
-55.556936
31
0
12
6.3337
22
-54.861103
32
0
13
6.3337
23
-54.861103
33
0
39
0
210
0
220
0
230
1
0
MTEXT
5
39F
100
AcDbEntity
8
0
62
256
6
ByLayer
370
18
48
1
60
0
100
AcDbMText
10
62.16685
20
-45.467353
30
0
210
0
220
0
230
1
1
\A1;111.7
40
4.5
41
0
44
1
50
0
71
5
72
5
7
iso_b_vert
0
POINT
5
3A0
100
AcDbEntity
8
Defpoints
62
0
6
ByLayer
370
-1
48
1
60
0
100
AcDbPoint
10
118
20
-11.5
30
0
39
0
210
0
220
0
230
1
50
360
0
POINT
5
3A1
100
AcDbEntity
8
Defpoints
62
0
6
ByLayer
370
-1
48
1
60
0
100
AcDbPoint
10
6.3337
20
-16
30
0
39
0
210
0
220
0
230
1
50
360
0
POINT
5
3A2
100
AcDbEntity
8
Defpoints
62
0
6
ByLayer
370
-1
48
1
60
0
100
AcDbPoint
10
6.3337
20
-54.861103
30
0
39
0
210
0
220
0
230
1
50
360
0
ENDBLK
5
399
100
AcDbEntity
8
0
100
AcDbBlockEnd
0
BLOCK
5
3AA
100
AcDbEntity
8
0
100
AcDbBlockBegin
2
_U2
70
0
10
0
20
0
30
0
3
_U2
0
MTEXT
5
3A4
100
AcDbEntity
8
SK2
62
256
6
ByLayer
370
18
48
1
60
0
100
AcDbMText
10
57.130537
20
-53.533431
30
0
210
0
220
0
230
1
1
\W0.5657;111.7
40
4.5
41
0
44
1.084337
50
0
71
7
72
5
7
iso_b_vert
0
LINE
5
3A5
100
AcDbEntity
8
SK2
62
256
6
ByLayer
370
13
48
1
60
0
100
AcDbLine
10
118
20
-13.0875
30
0
11
118
21
-58.036103
31
0
39
0
210
0
220
0
230
1
0
LINE
5
3A6
100
AcDbEntity
8
SK2
62
256
6
ByLayer
370
13
48
1
60
0
100
AcDbLine
10
6.3337
20
-17.5875
30
0
11
6.3337
21
-58.036103
31
0
39
0
210
0
220
0
230
1
0
LINE
5
3A7
100
AcDbEntity
8
SK2
62
256
6
ByLayer
370
13
48
1
60
0
100
AcDbLine
10
118
20
-54.861103
30
0
11
6.3337
21
-54.861103
31
0
39
0
210
0
220
0
230
1
0
SOLID
5
3A8
100
AcDbEntity
8
SK2
62
256
6
ByLayer
370
18
48
1
60
0
100
AcDbTrace
10
118
20
-54.861103
30
0
11
113.825003
21
-55.786678
31
0
12
113.824997
22
-53.935527
32
0
13
113.824997
23
-53.935527
33
0
39
0
210
0
220
0
230
1
0
SOLID
5
3A9
100
AcDbEntity
8
SK2
62
256
6
ByLayer
370
18
48
1
60
0
100
AcDbTrace
10
6.3337
20
-54.861103
30
0
11
10.508697
21
-53.935527
31
0
12
10.508703
22
-55.786678
32
0
13
10.508703
23
-55.786678
33
0
39
0
210
0
220
0
230
1
0
ENDBLK
5
3AB
100
AcDbEntity
8
0
100
AcDbBlockEnd
0
BLOCK
5
3B0
100
AcDbEntity
8
0
100
AcDbBlockBegin
2
*D7
70
1
10
0
20
0
30
0
3
*D7
0
LINE
5
3B2
100
AcDbEntity
8
0
62
256
6
ByLayer
370
-2
48
1
60
0
100
AcDbLine
10
22
20
-13.0875
30
0
11
22
21
-48.036103
31
0
39
0
210
0
220
0
230
1
0
LINE
5
3B3
100
AcDbEntity
8
0
62
256
6
ByLayer
370
-2
48
1
60
0
100
AcDbLine
10
118
20
-13.0875
30
0
11
118
21
-48.036103
31
0
39
0
210
0
220
0
230
1
0
LINE
5
3B4
100
AcDbEntity
8
0
62
256
6
ByLayer
370
-2
48
1
60
0
100
AcDbLine
10
26.175
20
-44.861103
30
0
11
113.825
21
-44.861103
31
0
39
0
210
0
220
0
230
1
0
SOLID
5
3B5
100
AcDbEntity
8
0
62
256
6
ByLayer
370
-1
48
1
60
0
100
AcDbTrace
10
26.175
20
-44.165269
30
0
11
26.175
21
-45.556936
31
0
12
22
22
-44.861103
32
0
13
22
23
-44.861103
33
0
39
0
210
0
220
0
230
1
0
SOLID
5
3B6
100
AcDbEntity
8
0
62
256
6
ByLayer
370
-1
48
1
60
0
100
AcDbTrace
10
113.825
20
-45.556936
30
0
11
113.825
21
-44.165269
31
0
12
118
22
-44.861103
32
0
13
118
23
-44.861103
33
0
39
0
210
0
220
0
230
1
0
MTEXT
5
3B7
100
AcDbEntity
8
0
62
256
6
ByLayer
370
18
48
1
60
0
100
AcDbMText
10
70
20
-35.467353
30
0
210
0
220
0
230
1
1
\A1;96
40
4.5
41
0
44
1
50
0
71
5
72
5
7
iso_b_vert
0
POINT
5
3B8
100
AcDbEntity
8
Defpoints
62
0
6
ByLayer
370
-1
48
1
60
0
100
AcDbPoint
10
22
20
-11.5
30
0
39
0
210
0
220
0
230
1
50
360
0
POINT
5
3B9
100
AcDbEntity
8
Defpoints
62
0
6
ByLayer
370
-1
48
1
60
0
100
AcDbPoint
10
118
20
-11.5
30
0
39
0
210
0
220
0
230
1
50
360
0
POINT
5
3BA
100
AcDbEntity
8
Defpoints
62
0
6
ByLayer
370
-1
48
1
60
0
100
AcDbPoint
10
118
20
-44.861103
30
0
39
0
210
0
220
0
230
1
50
360
0
ENDBLK
5
3B1
100
AcDbEntity
8
0
100
AcDbBlockEnd
0
BLOCK
5
3C2
100
AcDbEntity
8
0
100
AcDbBlockBegin
2
_U3
70
0
10
0
20
0
30
0
3
_U3
0
MTEXT
5
3BC
100
AcDbEntity
8
SK2
62
256
6
ByLayer
370
18
48
1
60
0
100
AcDbMText
10
67.550758
20
-43.533431
30
0
210
0
220
0
230
1
1
\W0.6740;96
40
4.5
41
0
44
1.084337
50
0
71
7
72
5
7
iso_b_vert
0
LINE
5
3BD
100
AcDbEntity
8
SK2
62
256
6
ByLayer
370
13
48
1
60
0
100
AcDbLine
10
22
20
-13.0875
30
0
11
22
21
-48.036103
31
0
39
0
210
0
220
0
230
1
0
LINE
5
3BE
100
AcDbEntity
8
SK2
62
256
6
ByLayer
370
13
48
1
60
0
100
AcDbLine
10
118
20
-13.0875
30
0
11
118
21
-48.036103
31
0
39
0
210
0
220
0
230
1
0
LINE
5
3BF
100
AcDbEntity
8
SK2
62
256
6
ByLayer
370
13
48
1
60
0
100
AcDbLine
10
22
20
-44.861103
30
0
11
118
21
-44.861103
31
0
39
0
210
0
220
0
230
1
0
SOLID
5
3C0
100
AcDbEntity
8
SK2
62
256
6
ByLayer
370
18
48
1
60
0
100
AcDbTrace
10
22
20
-44.861103
30
0
11
26.174997
21
-43.935527
31
0
12
26.175003
22
-45.786678
32
0
13
26.175003
23
-45.786678
33
0
39
0
210
0
220
0
230
1
0
SOLID
5
3C1
100
AcDbEntity
8
SK2
62
256
6
ByLayer
370
18
48
1
60
0
100
AcDbTrace
10
118
20
-44.861103
30
0
11
113.825003
21
-45.786678
31
0
12
113.824997
22
-43.935527
32
0
13
113.824997
23
-43.935527
33
0
39
0
210
0
220
0
230
1
0
ENDBLK
5
3C3
100
AcDbEntity
8
0
100
AcDbBlockEnd
0
BLOCK
5
3C8
100
AcDbEntity
8
0
100
AcDbBlockBegin
2
*D9
70
1
10
0
20
0
30
0
3
*D9
0
LINE
5
3CA
100
AcDbEntity
8
0
62
256
6
ByLayer
370
-2
48
1
60
0
100
AcDbLine
10
117.335
20
-7.3375
30
0
11
117.335
21
-38.036103
31
0
39
0
210
0
220
0
230
1
0
LINE
5
3CB
100
AcDbEntity
8
0
62
256
6
ByLayer
370
-2
48
1
60
0
100
AcDbLine
10
118
20
-1.5875
30
0
11
118
21
-38.036103
31
0
39
0
210
0
220
0
230
1
0
LINE
5
3CC
100
AcDbEntity
8
0
62
256
6
ByLayer
370
-2
48
1
60
0
100
AcDbLine
10
118
20
-34.861103
30
0
11
154.351786
21
-34.861103
31
0
39
0
210
0
220
0
230
1
0
LINE
5
3CD
100
AcDbEntity
8
0
62
256
6
ByLayer
370
-2
48
1
60
0
100
AcDbLine
10
113.16
20
-34.861103
30
0
11
108.985
21
-34.861103
31
0
39
0
210
0
220
0
230
1
0
LINE
5
3CE
100
AcDbEntity
8
0
62
256
6
ByLayer
370
-2
48
1
60
0
100
AcDbLine
10
122.175
20
-34.861103
30
0
11
126.35
21
-34.861103
31
0
39
0
210
0
220
0
230
1
0
SOLID
5
3CF
100
AcDbEntity
8
0
62
256
6
ByLayer
370
-1
48
1
60
0
100
AcDbTrace
10
113.16
20
-35.556936
30
0
11
113.16
21
-34.165269
31
0
12
117.335
22
-34.861103
32
0
13
117.335
23
-34.861103
33
0
39
0
210
0
220
0
230
1
0
SOLID
5
3D0
100
AcDbEntity
8
0
62
256
6
ByLayer
370
-1
48
1
60
0
100
AcDbTrace
10
122.175
20
-34.165269
30
0
11
122.175
21
-35.556936
31
0
12
118
22
-34.861103
32
0
13
118
23
-34.861103
33
0
39
0
210
0
220
0
230
1
0
MTEXT
5
3D1
100
AcDbEntity
8
0
62
256
6
ByLayer
370
18
48
1
60
0
100
AcDbMText
10
140.350893
20
-25.467353
30
0
210
0
220
0
230
1
1
\A1;0.67
40
4.5
41
0
44
1
50
0
71
5
72
5
7
iso_b_vert
0
POINT
5
3D2
100
AcDbEntity
8
Defpoints
62
0
6
ByLayer
370
-1
48
1
60
0
100
AcDbPoint
10
117.335
20
-5.75
30
0
39
0
210
0
220
0
230
1
50
360
0
POINT
5
3D3
100
AcDbEntity
8
Defpoints
62
0
6
ByLayer
370
-1
48
1
60
0
100
AcDbPoint
10
118
20
0
30
0
39
0
210
0
220
0
230
1
50
360
0
POINT
5
3D4
100
AcDbEntity
8
Defpoints
62
0
6
ByLayer
370
-1
48
1
60
0
100
AcDbPoint
10
118
20
-34.861103
30
0
39
0
210
0
220
0
230
1
50
360
0
ENDBLK
5
3C9
100
AcDbEntity
8
0
100
AcDbBlockEnd
0
BLOCK
5
3DC
100
AcDbEntity
8
0
100
AcDbBlockBegin
2
_U4
70
0
10
0
20
0
30
0
3
_U4
0
MTEXT
5
3D6
100
AcDbEntity
8
2
62
256
6
ByLayer
370
18
48
1
60
0
100
AcDbMText
10
130.351
20
-33.533431
30
0
210
0
220
0
230
1
1
\W0.7346;0.66
40
4.5
41
0
44
1.084337
50
0
71
7
72
5
7
iso_b_vert
0
LINE
5
3D7
100
AcDbEntity
8
2
62
256
6
ByLayer
370
13
48
1
60
0
100
AcDbLine
10
117.335
20
-7.3375
30
0
11
117.335
21
-38.036103
31
0
39
0
210
0
220
0
230
1
0
LINE
5
3D8
100
AcDbEntity
8
2
62
256
6
ByLayer
370
13
48
1
60
0
100
AcDbLine
10
118
20
-1.5875
30
0
11
118
21
-38.036103
31
0
39
0
210
0
220
0
230
1
0
LINE
5
3D9
100
AcDbEntity
8
2
62
256
6
ByLayer
370
13
48
1
60
0
100
AcDbLine
10
140.673869
20
-34.861103
30
0
11
106.085
21
-34.861103
31
0
39
0
210
0
220
0
230
1
0
SOLID
5
3DA
100
AcDbEntity
8
2
62
256
6
ByLayer
370
18
48
1
60
0
100
AcDbTrace
10
117.335
20
-34.861103
30
0
11
113.160003
21
-35.786678
31
0
12
113.159997
22
-33.935527
32
0
13
113.159997
23
-33.935527
33
0
39
0
210
0
220
0
230
1
0
SOLID
5
3DB
100
AcDbEntity
8
2
62
256
6
ByLayer
370
18
48
1
60
0
100
AcDbTrace
10
118
20
-34.861103
30
0
11
122.174997
21
-33.935527
31
0
12
122.175003
22
-35.786678
32
0
13
122.175003
23
-35.786678
33
0
39
0
210
0
220
0
230
1
0
ENDBLK
5
3DD
100
AcDbEntity
8
0
100
AcDbBlockEnd
0
ENDSEC
0
SECTION
2
ENTITIES
0
ARC
5
18B
100
AcDbEntity
8
SK1
62
256
6
ByLayer
370
13
48
1
60
0
100
AcDbCircle
39
0
10
-53.894505
20
-12.8967
30
0
40
0.800000000000004
210
0
220
0
230
1
100
AcDbArc
50
70.982
51
141
0
ARC
5
18C
100
AcDbEntity
8
SK1
62
256
6
ByLayer
370
13
48
1
60
0
100
AcDbCircle
39
0
10
-53.894505
20
12.8967
30
0
40
0.800000000000004
210
0
220
0
230
1
100
AcDbArc
50
219
51
289.018
0
ARC
5
18D
100
AcDbEntity
8
SK1
62
256
6
ByLayer
370
13
48
1
60
0
100
AcDbCircle
39
0
10
-0.15
20
12.64675
30
0
40
0.400000000000002
210
0
220
0
230
1
100
AcDbArc
50
270
51
292.024313
0
ARC
5
18E
100
AcDbEntity
8
SK1
62
256
6
ByLayer
370
13
48
1
60
0
100
AcDbCircle
39
0
10
-0.15
20
-12.64675
30
0
40
0.400000000000002
210
0
220
0
230
1
100
AcDbArc
50
67.975687
51
90
0
ARC
5
18F
100
AcDbEntity
8
SK1
62
256
6
ByLayer
370
13
48
1
60
0
100
AcDbCircle
39
0
10
-1.375195
20
12.64675
30
0
40
0.400000000000001
210
0
220
0
230
1
100
AcDbArc
50
245
51
270
0
ARC
5
190
100
AcDbEntity
8
SK1
62
256
6
ByLayer
370
13
48
1
60
0
100
AcDbCircle
39
0
10
-1.375195
20
-12.64675
30
0
40
0.400000000000001
210
0
220
0
230
1
100
AcDbArc
50
90
51
115
0
ARC
5
191
100
AcDbEntity
8
1
62
256
6
ByLayer
370
13
48
1
60
0
100
AcDbCircle
39
0
10
115.782471
20
10.668964
30
0
40
0.075
210
0
220
0
230
1
100
AcDbArc
50
8.974534
51
93
0
ARC
5
192
100
AcDbEntity
8
1
62
256
6
ByLayer
370
13
48
1
60
0
100
AcDbCircle
39
0
10
115.84032
20
4.284178
30
0
40
0.075
210
0
220
0
230
1
100
AcDbArc
50
273
51
352.543899
0
ARC
5
193
100
AcDbEntity
8
1
62
256
6
ByLayer
370
13
48
1
60
0
100
AcDbCircle
39
0
10
108.832227
20
10.16839
30
0
40
0.075
210
0
220
0
230
1
100
AcDbArc
50
72.361587
51
93
0
ARC
5
194
100
AcDbEntity
8
1
62
256
6
ByLayer
370
13
48
1
60
0
100
AcDbCircle
39
0
10
108.890075
20
3.783603
30
0
40
0.075
210
0
220
0
230
1
100
AcDbArc
50
273
51
304.780012
0
ELLIPSE
5
195
100
AcDbEntity
8
1
62
256
6
ByLayer
370
13
48
1
60
0
100
AcDbEllipse
10
112.494328
20
4.210422
30
0
11
0.00392519671822067
21
-0.0748972151065931
31
0
210
0
220
0
230
1
40
0.092371
41
0
42
1.5707963267949
0
ELLIPSE
5
196
100
AcDbEntity
8
1
62
256
6
ByLayer
370
13
48
1
60
0
100
AcDbEllipse
10
108.242527
20
3.254059
30
0
11
0.0179426826979015
21
-0.342366781103206
31
0
210
0
220
0
230
1
40
0.995725
41
0.351165557479422
42
1.05311629343288
0
ELLIPSE
5
197
100
AcDbEntity
8
1
62
256
6
ByLayer
370
13
48
1
60
0
100
AcDbEllipse
10
109.03029
20
6.885355
30
0
11
0.0366351693700595
21
-0.699040674328202
31
0
210
0
220
0
230
1
40
0.995725
41
-1.75405589825429
42
-1.46607657167524
0
ELLIPSE
5
198
100
AcDbEntity
8
1
62
256
6
ByLayer
370
13
48
1
60
0
100
AcDbEllipse
10
117.692151
20
7.643746
30
0
11
0.148163665863162
21
0.0233993187505381
31
0
210
0
220
0
230
1
40
0.009655
41
0.091998574472972
42
1.66279490126879
0
ELLIPSE
5
199
100
AcDbEntity
8
1
62
256
6
ByLayer
370
13
48
1
60
0
100
AcDbEllipse
10
115.362012
20
2.763522
30
0
11
-0.0732703387404176
21
1.39808134865639
31
0
210
0
220
0
230
1
40
0.995725
41
-0.538500757696528
42
-1.9368962284397E-13
0
ELLIPSE
5
19A
100
AcDbEntity
8
1
62
256
6
ByLayer
370
13
48
1
60
0
100
AcDbEllipse
10
117.288059
20
4.445478
30
0
11
0.148731686424788
21
-0.019464980175656
31
0
210
0
220
0
230
1
40
0.016833
41
-1.66175841710557
42
-0.0909620903098687
0
ELLIPSE
5
19B
100
AcDbEntity
8
1
62
256
6
ByLayer
370
13
48
1
60
0
100
AcDbEllipse
10
115.782471
20
10.668964
30
0
11
-0.0427820306099634
21
0.0616011189580852
31
0
210
0
220
0
230
1
40
0.078615
41
-1.61946336257533
42
-0.0486670357840792
0
ELLIPSE
5
19C
100
AcDbEntity
8
1
62
256
6
ByLayer
370
13
48
1
60
0
100
AcDbEllipse
10
109.775147
20
2.470727
30
0
11
0.0863543278008547
21
-1.64773873234505
31
0
210
0
220
0
230
1
40
0.995725
41
-2.44852577650106
42
-2.08847636015719
0
ELLIPSE
5
19D
100
AcDbEntity
8
1
62
256
6
ByLayer
370
13
48
1
60
0
100
AcDbEllipse
10
109.788983
20
2.471452
30
0
11
-0.0785039343647332
21
1.49794430213184
31
0
210
0
220
0
230
1
40
0.995725
41
0.676440752305308
42
1.05311629343261
0
ELLIPSE
5
19E
100
AcDbEntity
8
1
62
256
6
ByLayer
370
13
48
1
60
0
100
AcDbEllipse
10
108.667188
20
10.250333
30
0
11
0.00523359562429433
21
-0.0998629534754595
31
0
210
0
220
0
230
1
40
0.995725
41
1.38753675533577
42
-3.04559954473017
0
ELLIPSE
5
19F
100
AcDbEntity
8
1
62
256
6
ByLayer
370
13
48
1
60
0
100
AcDbEllipse
10
116.688443
20
2.52495
30
0
11
0.465790010562185
21
-8.88780285931571
31
0
210
0
220
0
230
1
40
0.995725
41
3.07256533766169
42
3.10590021439783
0
ELLIPSE
5
1A0
100
AcDbEntity
8
1
62
256
6
ByLayer
370
13
48
1
60
0
100
AcDbEllipse
10
108.083388
20
4.927679
30
0
11
-0.0915879234255217
21
1.74760168582048
31
0
210
0
220
0
230
1
40
0.995725
41
3.10590021439802
42
3.13286600732983
0
ELLIPSE
5
1A1
100
AcDbEntity
8
1
62
256
6
ByLayer
370
13
48
1
60
0
100
AcDbEllipse
10
108.278221
20
3.184636
30
0
11
0.00653729335064122
21
-0.149857478277354
31
0
210
0
220
0
230
1
40
0.092367
41
-1.56998679074968
42
-0.0232440763754281
0
ELLIPSE
5
1A2
100
AcDbEntity
8
1
62
256
6
ByLayer
370
13
48
1
60
0
100
AcDbEllipse
10
116.373448
20
11.21677
30
0
11
-0.00261679781215791
21
0.0499314767377309
31
0
210
0
220
0
230
1
40
0.995725
41
-0.00872664626069655
42
1.0531162934325
0
ELLIPSE
5
1A3
100
AcDbEntity
8
1
62
256
6
ByLayer
370
13
48
1
60
0
100
AcDbEllipse
10
108.890075
20
3.783603
30
0
11
0.00392519671822067
21
-0.0748972151065931
31
0
210
0
220
0
230
1
40
0.995725
41
-1.46607657167494
42
-2.89758359337357E-05
0
ELLIPSE
5
1A4
100
AcDbEntity
8
1
62
256
6
ByLayer
370
13
48
1
60
0
100
AcDbEllipse
10
116.683831
20
2.524708
30
0
11
0.465790010562185
21
-8.88780285931571
31
0
210
0
220
0
230
1
40
0.995725
41
3.0725653376619
42
3.10590021439804
0
ELLIPSE
5
1A5
100
AcDbEntity
8
1
62
256
6
ByLayer
370
13
48
1
60
0
100
AcDbEllipse
10
116.058717
20
4.261237
30
0
11
-0.157303252984952
21
-0.0460731444174851
31
0
210
0
220
0
230
1
40
0.019548
41
-1.48844818371172
42
-0.271753093934195
0
ELLIPSE
5
1A6
100
AcDbEntity
8
1
62
256
6
ByLayer
370
13
48
1
60
0
100
AcDbEllipse
10
115.623808
20
7.566245
30
0
11
0.0444855628065009
21
-0.848835104541388
31
0
210
0
220
0
230
1
40
0.995725
41
1.38753675533551
42
1.67551608191457
0
ELLIPSE
5
1A7
100
AcDbEntity
8
1
62
256
6
ByLayer
370
13
48
1
60
0
100
AcDbEllipse
10
108.189751
20
6.752333
30
0
11
-0.148163665863161
21
-0.0233993187505441
31
0
210
0
220
0
230
1
40
0.009655
41
-3.0495940791199
42
-1.47879775232072
0
ELLIPSE
5
1A8
100
AcDbEntity
8
1
62
256
6
ByLayer
370
13
48
1
60
0
100
AcDbEllipse
10
108.101837
20
4.928646
30
0
11
0.0994383168615901
21
-1.89739611603369
31
0
210
0
220
0
230
1
40
0.995725
41
-0.0356924391915523
42
-0.0087266462597507
0
ELLIPSE
5
1A9
100
AcDbEntity
8
1
62
256
6
ByLayer
370
13
48
1
60
0
100
AcDbEllipse
10
107.984103
20
11.927617
30
0
11
0.465790010562185
21
-8.88780285931571
31
0
210
0
220
0
230
1
40
0.995725
41
-0.069027315927689
42
-0.0356924391915477
0
ELLIPSE
5
1AA
100
AcDbEntity
8
1
62
256
6
ByLayer
370
13
48
1
60
0
100
AcDbEllipse
10
116.536665
20
11.273423
30
0
11
-0.00247703513348021
21
0.149979546261974
31
0
210
0
220
0
230
1
40
0.092312
41
0.00331037239777945
42
1.5741066991944
0
ELLIPSE
5
1AB
100
AcDbEntity
8
1
62
256
6
ByLayer
370
13
48
1
60
0
100
AcDbEllipse
10
106.96984
20
6.908773
30
0
11
-0.148731686424787
21
0.0194649801756592
31
0
210
0
220
0
230
1
40
0.016833
41
0.263335324751194
42
1.47983423648432
0
ELLIPSE
5
1AC
100
AcDbEntity
8
1
62
256
6
ByLayer
370
13
48
1
60
0
100
AcDbEllipse
10
112.271386
20
7.222883
30
0
11
0.0973762305338293
21
-1.85804916495179
31
0
210
0
220
0
230
1
40
0.995725
41
-0.85373348467804
42
-9.58822034798677E-16
0
ELLIPSE
5
1AD
100
AcDbEntity
8
1
62
256
6
ByLayer
370
13
48
1
60
0
100
AcDbEllipse
10
112.271386
20
7.222883
30
0
11
0.0973762305338293
21
-1.85804916495179
31
0
210
0
220
0
230
1
40
0.995725
41
0
42
-2.28787042844178
0
ELLIPSE
5
1AE
100
AcDbEntity
8
1
62
256
6
ByLayer
370
13
48
1
60
0
100
AcDbEllipse
10
116.57071
20
9.523922
30
0
11
0.0994383168615901
21
-1.89739611603369
31
0
210
0
220
0
230
1
40
0.995725
41
3.10590021439782
42
3.13286600732963
0
ELLIPSE
5
1AF
100
AcDbEntity
8
1
62
256
6
ByLayer
370
13
48
1
60
0
100
AcDbEllipse
10
108.126658
20
3.178661
30
0
11
0.00247703513347986
21
-0.149979546261974
31
0
210
0
220
0
230
1
40
0.092312
41
-1.56748595439549
42
-0.0473509076690926
0
ELLIPSE
5
1B0
100
AcDbEntity
8
1
62
256
6
ByLayer
370
13
48
1
60
0
100
AcDbEllipse
10
108.890075
20
3.783603
30
0
11
0.074081832931581
21
0.0116996593752691
31
0
210
0
220
0
230
1
40
0.009655
41
-3.04959407911497
42
-1.47879775232053
0
ELLIPSE
5
1B1
100
AcDbEntity
8
1
62
256
6
ByLayer
370
13
48
1
60
0
100
AcDbEllipse
10
108.732311
20
3.665476
30
0
11
0.00523359562429434
21
-0.0998629534754598
31
0
210
0
220
0
230
1
40
0.995725
41
0.676440752305871
42
1.6755160819149
0
ELLIPSE
5
1B2
100
AcDbEntity
8
1
62
256
6
ByLayer
370
13
48
1
60
0
100
AcDbEllipse
10
116.807521
20
10.922686
30
0
11
-0.0183175846851043
21
0.349520337164095
31
0
210
0
220
0
230
1
40
0.995725
41
-1.46607657167528
42
-0.069027315927862
0
ELLIPSE
5
1B3
100
AcDbEntity
8
1
62
256
6
ByLayer
370
13
48
1
60
0
100
AcDbEllipse
10
116.259286
20
7.485496
30
0
11
0.0743658432123938
21
-0.00973249008782796
31
0
210
0
220
0
230
1
40
0.016833
41
5.34640001632055E-05
42
1.4798342364841
0
ELLIPSE
5
1B4
100
AcDbEntity
8
1
62
256
6
ByLayer
370
13
48
1
60
0
100
AcDbEllipse
10
115.940235
20
10.787091
30
0
11
0.00523359562429434
21
-0.0998629534754598
31
0
210
0
220
0
230
1
40
0.995725
41
-2.46515190128438
42
-1.46607657167532
0
ELLIPSE
5
1B5
100
AcDbEntity
8
1
62
256
6
ByLayer
370
13
48
1
60
0
100
AcDbEllipse
10
117.347946
20
7.589071
30
0
11
0.0261679781214709
21
-0.499314767377284
31
0
210
0
220
0
230
1
40
0.995725
41
1.38753675533545
42
1.67551608191453
0
ELLIPSE
5
1B6
100
AcDbEntity
8
1
62
256
6
ByLayer
370
13
48
1
60
0
100
AcDbEllipse
10
117.165562
20
10.978086
30
0
11
0.148163665863162
21
0.0233993187505381
31
0
210
0
220
0
230
1
40
0.009655
41
0.0919985744748214
42
1.66279490126857
0
ELLIPSE
5
1B7
100
AcDbEntity
8
1
62
256
6
ByLayer
370
13
48
1
60
0
100
AcDbEllipse
10
116.489699
20
11.272011
30
0
11
-0.00653729335064158
21
0.149857478277354
31
0
210
0
220
0
230
1
40
0.092367
41
0.000809536044630439
42
1.57160586284012
0
ELLIPSE
5
1B8
100
AcDbEntity
8
1
62
256
6
ByLayer
370
13
48
1
60
0
100
AcDbEllipse
10
109.025677
20
6.885113
30
0
11
-0.0366351693702088
21
0.699040674328194
31
0
210
0
220
0
230
1
40
0.995725
41
1.3875367553355
42
1.67551608191455
0
ELLIPSE
5
1B9
100
AcDbEntity
8
1
62
256
6
ByLayer
370
13
48
1
60
0
100
AcDbEllipse
10
107.49776
20
3.473998
30
0
11
-0.148163665863161
21
-0.0233993187505441
31
0
210
0
220
0
230
1
40
0.009655
41
-1.47879775232097
42
0.091998574472972
0
ELLIPSE
5
1BA
100
AcDbEntity
8
1
62
256
6
ByLayer
370
13
48
1
60
0
100
AcDbEllipse
10
108.41326
20
6.967071
30
0
11
-0.0743658432123935
21
0.0097324900878296
31
0
210
0
220
0
230
1
40
0.016833
41
-1.66175841710551
42
-0.0909620903084588
0
ELLIPSE
5
1BB
100
AcDbEntity
8
1
62
256
6
ByLayer
370
13
48
1
60
0
100
AcDbEllipse
10
107.846577
20
3.528914
30
0
11
0.026167978121471
21
-0.499314767377285
31
0
210
0
220
0
230
1
40
0.995725
41
-1.46607657167506
42
-0.069027315927689
0
ELLIPSE
5
1BC
100
AcDbEntity
8
1
62
256
6
ByLayer
370
13
48
1
60
0
100
AcDbEllipse
10
115.84032
20
4.284178
30
0
11
0.0227256651740008
21
0.0714740802137335
31
0
210
0
220
0
230
1
40
0.086488
41
-3.10902911829051
42
-1.53823279150091
0
ELLIPSE
5
1BD
100
AcDbEntity
8
1
62
256
6
ByLayer
370
13
48
1
60
0
100
AcDbEllipse
10
115.04377
20
2.746844
30
0
11
0.0732703387401189
21
-1.3980813486564
31
0
210
0
220
0
230
1
40
0.995725
41
2.21707198701733
42
2.88221331534715
0
ELLIPSE
5
1BE
100
AcDbEntity
8
1
62
256
6
ByLayer
370
13
48
1
60
0
100
AcDbEllipse
10
114.878951
20
11.980873
30
0
11
-0.0785039343647332
21
1.49794430213184
31
0
210
0
220
0
230
1
40
0.995725
41
-2.4651519012847
42
-2.0884763601574
0
ELLIPSE
5
1BF
100
AcDbEntity
8
1
62
256
6
ByLayer
370
13
48
1
60
0
100
AcDbEllipse
10
116.391897
20
11.217737
30
0
11
0.0104671912485885
21
-0.199725906950917
31
0
210
0
220
0
230
1
40
0.995725
41
3.13286600732924
42
-2.0884763601574
0
ELLIPSE
5
1C0
100
AcDbEntity
8
1
62
256
6
ByLayer
370
13
48
1
60
0
100
AcDbEllipse
10
117.352558
20
7.589313
30
0
11
0.0261679781214709
21
-0.499314767377284
31
0
210
0
220
0
230
1
40
0.995725
41
1.38753675533525
42
1.6755160819143
0
ELLIPSE
5
1C1
100
AcDbEntity
8
1
62
256
6
ByLayer
370
13
48
1
60
0
100
AcDbEllipse
10
114.878951
20
11.980873
30
0
11
-0.0732703387404176
21
1.39808134865639
31
0
210
0
220
0
230
1
40
0.995725
41
3.14159265358957
42
-2.0884763601574
0
ELLIPSE
5
1C2
100
AcDbEntity
8
1
62
256
6
ByLayer
370
13
48
1
60
0
100
AcDbEllipse
10
108.832227
20
10.16839
30
0
11
0.00392519671822067
21
-0.0748972151065931
31
0
210
0
220
0
230
1
40
0.995725
41
-3.14157648440021
42
-1.75405589825412
0
ELLIPSE
5
1C3
100
AcDbEntity
8
1
62
256
6
ByLayer
370
13
48
1
60
0
100
AcDbEllipse
10
108.832227
20
10.16839
30
0
11
-0.0227256651740051
21
-0.0714740802137321
31
0
210
0
220
0
230
1
40
0.086488
41
1.60335986208907
42
-3.10902911829489
0
ELLIPSE
5
1C4
100
AcDbEntity
8
1
62
256
6
ByLayer
370
13
48
1
60
0
100
AcDbEllipse
10
114.923425
20
11.983204
30
0
11
-1.25140277681749
21
-1.09295639775081
31
0
210
0
220
0
230
1
40
0.728886
41
1.28682181422399
42
1.75405022699105
0
ELLIPSE
5
1C5
100
AcDbEntity
8
1
62
256
6
ByLayer
370
13
48
1
60
0
100
AcDbEllipse
10
107.379875
20
10.006847
30
0
11
0.00785039343644137
21
-0.149794430213187
31
0
210
0
220
0
230
1
40
0.995725
41
-3.04559954473044
42
-1.75405589825412
0
ELLIPSE
5
1C6
100
AcDbEntity
8
1
62
256
6
ByLayer
370
13
48
1
60
0
100
AcDbEllipse
10
109.011841
20
6.884388
30
0
11
0.0444855628065009
21
-0.848835104541388
31
0
210
0
220
0
230
1
40
0.995725
41
-1.75405589825428
42
-1.46607657167522
0
ELLIPSE
5
1C7
100
AcDbEntity
8
1
62
256
6
ByLayer
370
13
48
1
60
0
100
AcDbEllipse
10
117.334109
20
7.588346
30
0
11
-0.0183175846851042
21
0.349520337164094
31
0
210
0
220
0
230
1
40
0.995725
41
-1.75405589825432
42
-1.46607657167528
0
ELLIPSE
5
1C8
100
AcDbEntity
8
1
62
256
6
ByLayer
370
13
48
1
60
0
100
AcDbEllipse
10
112.246331
20
7.22157
30
0
11
0.0919468753966951
21
-1.75445089745391
31
0
210
0
220
0
230
1
40
0.995725
41
-3.13286081871852
42
-1.6229327626228
0
ELLIPSE
5
1C9
100
AcDbEntity
8
1
62
256
6
ByLayer
370
13
48
1
60
0
100
AcDbEllipse
10
112.246331
20
7.22157
30
0
11
0.0919468753966951
21
-1.75445089745391
31
0
210
0
220
0
230
1
40
0.995725
41
-1.62293276262279
42
0
0
ELLIPSE
5
1CA
100
AcDbEntity
8
1
62
256
6
ByLayer
370
13
48
1
60
0
100
AcDbEllipse
10
112.246331
20
7.22157
30
0
11
0.0919468753966951
21
-1.75445089745391
31
0
210
0
220
0
230
1
40
0.995725
41
0
42
0.471233373569919
0
ELLIPSE
5
1CB
100
AcDbEntity
8
1
62
256
6
ByLayer
370
13
48
1
60
0
100
AcDbEllipse
10
116.566098
20
9.52368
30
0
11
0.0994383168615901
21
-1.89739611603369
31
0
210
0
220
0
230
1
40
0.995725
41
3.10590021439804
42
3.13286600732983
0
ELLIPSE
5
1CC
100
AcDbEntity
8
1
62
256
6
ByLayer
370
13
48
1
60
0
100
AcDbEllipse
10
116.385102
20
11.267448
30
0
11
-0.00653729335064158
21
0.149857478277354
31
0
210
0
220
0
230
1
40
0.092367
41
0.000809536044630439
42
1.57160586284012
0
ELLIPSE
5
1CD
100
AcDbEntity
8
1
62
256
6
ByLayer
370
13
48
1
60
0
100
AcDbEllipse
10
108.262201
20
3.233863
30
0
11
-0.00261679781215791
21
0.0499314767377309
31
0
210
0
220
0
230
1
40
0.995725
41
3.13286600732853
42
-2.08847636015698
0
ELLIPSE
5
1CE
100
AcDbEntity
8
1
62
256
6
ByLayer
370
13
48
1
60
0
100
AcDbEllipse
10
108.186517
20
6.996247
30
0
11
-0.148731686424787
21
0.0194649801756592
31
0
210
0
220
0
230
1
40
0.016833
41
1.47983423648422
42
3.05063056327886
0
ELLIPSE
5
1CF
100
AcDbEntity
8
1
62
256
6
ByLayer
370
13
48
1
60
0
100
AcDbEllipse
10
115.642257
20
7.567212
30
0
11
0.0366351693700595
21
-0.699040674328202
31
0
210
0
220
0
230
1
40
0.995725
41
1.3875367553355
42
1.67551608191457
0
ELLIPSE
5
1D0
100
AcDbEntity
8
1
62
256
6
ByLayer
370
13
48
1
60
0
100
AcDbEllipse
10
115.782471
20
10.668964
30
0
11
-0.0740818329315805
21
-0.0116996593752721
31
0
210
0
220
0
230
1
40
0.009655
41
1.66279490126808
42
3.14137689877422
0
ELLIPSE
5
1D1
100
AcDbEntity
8
1
62
256
6
ByLayer
370
13
48
1
60
0
100
AcDbEllipse
10
108.662576
20
10.250091
30
0
11
0.00523359562429433
21
-0.0998629534754595
31
0
210
0
220
0
230
1
40
0.995725
41
1.38753675533548
42
3.11053874309602
0
ELLIPSE
5
1D2
100
AcDbEntity
8
1
62
256
6
ByLayer
370
13
48
1
60
0
100
AcDbEllipse
10
109.310535
20
11.689045
30
0
11
-0.0732703387404176
21
1.39808134865639
31
0
210
0
220
0
230
1
40
0.995725
41
2.60309189589369
42
-3.14159265358959
0
ELLIPSE
5
1D3
100
AcDbEntity
8
1
62
256
6
ByLayer
370
13
48
1
60
0
100
AcDbEllipse
10
108.604605
20
10.190847
30
0
11
-0.0435852065165367
21
-0.158111345862945
31
0
210
0
220
0
230
1
40
0.080185
41
-3.11490714533287
42
-1.54411081853225
0
ELLIPSE
5
1D4
100
AcDbEntity
8
1
62
256
6
ByLayer
370
13
48
1
60
0
100
AcDbEllipse
10
116.473571
20
7.699751
30
0
11
0.148163665863162
21
0.0233993187505381
31
0
210
0
220
0
230
1
40
0.009655
41
1.66279490126842
42
-3.0495940791199
0
ELLIPSE
5
1D5
100
AcDbEntity
8
1
62
256
6
ByLayer
370
13
48
1
60
0
100
AcDbEllipse
10
112.178219
20
10.242145
30
0
11
0.00392519671822067
21
-0.0748972151065931
31
0
210
0
220
0
230
1
40
0.092371
41
1.5707963267949
42
3.14159265358979
0
ELLIPSE
5
1D6
100
AcDbEntity
8
1
62
256
6
ByLayer
370
13
48
1
60
0
100
AcDbEllipse
10
116.82597
20
10.923653
30
0
11
0.026167978121471
21
-0.499314767377285
31
0
210
0
220
0
230
1
40
0.995725
41
1.6755160819143
42
3.0725653376617
0
ELLIPSE
5
1D7
100
AcDbEntity
8
1
62
256
6
ByLayer
370
13
48
1
60
0
100
AcDbEllipse
10
117.693482
20
7.54331
30
0
11
0.148731686424788
21
-0.019464980175656
31
0
210
0
220
0
230
1
40
0.016833
41
-1.66175841710548
42
-0.0909620903098687
0
ELLIPSE
5
1D8
100
AcDbEntity
8
1
62
256
6
ByLayer
370
13
48
1
60
0
100
AcDbEllipse
10
117.293992
20
4.456105
30
0
11
-0.0435995590914076
21
-0.257560367418939
31
0
210
0
220
0
230
1
40
0.953152
41
0.302534642205226
42
1.61019614906983
0
ELLIPSE
5
1D9
100
AcDbEntity
8
1
62
256
6
ByLayer
370
13
48
1
60
0
100
AcDbEllipse
10
115.84032
20
4.284178
30
0
11
-0.0743658432123935
21
0.0097324900878296
31
0
210
0
220
0
230
1
40
0.016833
41
-3.14153918962762
42
-1.66175841710626
0
ELLIPSE
5
1DA
100
AcDbEntity
8
1
62
256
6
ByLayer
370
13
48
1
60
0
100
AcDbEllipse
10
115.649175
20
7.567575
30
0
11
-0.0327099726519721
21
0.624143459221602
31
0
210
0
220
0
230
1
40
0.995725
41
-1.75405589825429
42
-1.46607657167523
0
ELLIPSE
5
1DB
100
AcDbEntity
8
1
62
256
6
ByLayer
370
13
48
1
60
0
100
AcDbEllipse
10
109.793595
20
2.471694
30
0
11
-0.0732703387404176
21
1.39808134865639
31
0
210
0
220
0
230
1
40
0.995725
41
0
42
1.05311629343281
0
ELLIPSE
5
1DC
100
AcDbEntity
8
1
62
256
6
ByLayer
370
13
48
1
60
0
100
AcDbEllipse
10
108.595362
20
11.651564
30
0
11
-1.72345177231711
21
1.06098336991674
31
0
210
0
220
0
230
1
40
0.479615
41
1.48125048711913
42
1.52934131035743
0
ELLIPSE
5
1DD
100
AcDbEntity
8
1
62
256
6
ByLayer
370
13
48
1
60
0
100
AcDbEllipse
10
108.727699
20
3.665234
30
0
11
0.00523359562429434
21
-0.0998629534754598
31
0
210
0
220
0
230
1
40
0.995725
41
0.676440752305905
42
1.6755160819149
0
ELLIPSE
5
1DE
100
AcDbEntity
8
1
62
256
6
ByLayer
370
13
48
1
60
0
100
AcDbEllipse
10
114.560709
20
11.964195
30
0
11
0.0732703387401189
21
-1.3980813486564
31
0
210
0
220
0
230
1
40
0.995725
41
0
42
0.538500757696072
0
ELLIPSE
5
1DF
100
AcDbEntity
8
1
62
256
6
ByLayer
370
13
48
1
60
0
100
AcDbEllipse
10
116.005358
20
4.202234
30
0
11
0.00523359562429433
21
-0.0998629534754595
31
0
210
0
220
0
230
1
40
0.995725
41
-1.75405589825445
42
0.095993108859206
0
ELLIPSE
5
1E0
100
AcDbEntity
8
1
62
256
6
ByLayer
370
13
48
1
60
0
100
AcDbEllipse
10
107.30154
20
6.862287
30
0
11
-0.0183175846851042
21
0.349520337164094
31
0
210
0
220
0
230
1
40
0.995725
41
1.38753675533544
42
1.67551608191451
0
ELLIPSE
5
1E1
100
AcDbEntity
8
1
62
256
6
ByLayer
370
13
48
1
60
0
100
AcDbEllipse
10
107.378554
20
9.996462
30
0
11
-0.0435995590924343
21
-0.257560367418693
31
0
210
0
220
0
230
1
40
0.953152
41
-2.83905801138104
42
-1.53139650451592
0
ELLIPSE
5
1E2
100
AcDbEntity
8
1
62
256
6
ByLayer
370
13
48
1
60
0
100
AcDbEllipse
10
114.999296
20
2.744513
30
0
11
-1.11484466994494
21
-1.17454029862125
31
0
210
0
220
0
230
1
40
0.721129
41
2.78578457534765
42
-3.03017231909144
0
ELLIPSE
5
1E3
100
AcDbEntity
8
1
62
256
6
ByLayer
370
13
48
1
60
0
100
AcDbEllipse
10
109.037208
20
6.885717
30
0
11
-0.0327099726519721
21
0.624143459221602
31
0
210
0
220
0
230
1
40
0.995725
41
1.3875367553355
42
1.67551608191456
0
ELLIPSE
5
1E4
100
AcDbEntity
8
1
62
256
6
ByLayer
370
13
48
1
60
0
100
AcDbEllipse
10
116.821357
20
10.923412
30
0
11
0.026167978121471
21
-0.499314767377285
31
0
210
0
220
0
230
1
40
0.995725
41
1.6755160819145
42
3.07256533766193
0
ELLIPSE
5
1E5
100
AcDbEntity
8
1
62
256
6
ByLayer
370
13
48
1
60
0
100
AcDbEllipse
10
107.377034
20
3.936379
30
0
11
-0.0702831055585527
21
0.251592029862729
31
0
210
0
220
0
230
1
40
0.953152
41
1.5313965044818
42
1.87271600614658
0
ELLIPSE
5
1E6
100
AcDbEntity
8
1
62
256
6
ByLayer
370
13
48
1
60
0
100
AcDbEllipse
10
115.782471
20
10.668964
30
0
11
0.00392519671822067
21
-0.0748972151065931
31
0
210
0
220
0
230
1
40
0.995725
41
3.14156568617677
42
-2.58884312732216
0
ELLIPSE
5
1E7
100
AcDbEntity
8
1
62
256
6
ByLayer
370
13
48
1
60
0
100
AcDbEllipse
10
108.173623
20
3.180073
30
0
11
0.00653729335064122
21
-0.149857478277354
31
0
210
0
220
0
230
1
40
0.092367
41
-1.56998679074968
42
0.000809536044662491
0
ELLIPSE
5
1E8
100
AcDbEntity
8
1
62
256
6
ByLayer
370
13
48
1
60
0
100
AcDbEllipse
10
107.965655
20
11.926651
30
0
11
-0.457939617127609
21
8.73800842910242
31
0
210
0
220
0
230
1
40
0.995725
41
3.0725653376619
42
3.10590021439804
0
ELLIPSE
5
1E9
100
AcDbEntity
8
1
62
256
6
ByLayer
370
13
48
1
60
0
100
AcDbEllipse
10
108.28065
20
3.23483
30
0
11
0.0104671912485885
21
-0.199725906950917
31
0
210
0
220
0
230
1
40
0.995725
41
-0.00872664626005335
42
1.0531162934328
0
ELLIPSE
5
1EA
100
AcDbEntity
8
1
62
256
6
ByLayer
370
13
48
1
60
0
100
AcDbEllipse
10
114.71983
20
11.972534
30
0
11
0.0732703387401189
21
-1.3980813486564
31
0
210
0
220
0
230
1
40
0.995725
41
1.00502546446206
42
1.00572917046051
0
ELLIPSE
5
1EB
100
AcDbEntity
8
1
62
256
6
ByLayer
370
13
48
1
60
0
100
AcDbEllipse
10
117.288059
20
4.445478
30
0
11
-0.0222321776352923
21
0.148343285246056
31
0
210
0
220
0
230
1
40
0.091945
41
1.56190521945469
42
3.13270154624937
0
ELLIPSE
5
1EC
100
AcDbEntity
8
1
62
256
6
ByLayer
370
13
48
1
60
0
100
AcDbEllipse
10
116.058717
20
4.261237
30
0
11
-0.0435852065178809
21
-0.158111345867145
31
0
210
0
220
0
230
1
40
0.080185
41
-1.54411081851615
42
0.0266855082534377
0
ELLIPSE
5
1ED
100
AcDbEntity
8
1
62
256
6
ByLayer
370
13
48
1
60
0
100
AcDbEllipse
10
106.971171
20
6.808338
30
0
11
-0.148163665863161
21
-0.0233993187505441
31
0
210
0
220
0
230
1
40
0.009655
41
-1.47879775232119
42
0.0919985744723613
0
ELLIPSE
5
1EE
100
AcDbEntity
8
1
62
256
6
ByLayer
370
13
48
1
60
0
100
AcDbEllipse
10
115.275882
20
12.001675
30
0
11
-1.60310702662742
21
-1.23532060896384
31
0
210
0
220
0
230
1
40
0.479615
41
1.6122513037702
42
1.66034214207699
0
ELLIPSE
5
1EF
100
AcDbEntity
8
1
62
256
6
ByLayer
370
13
48
1
60
0
100
AcDbEllipse
10
116.827088
20
11.273358
30
0
11
0.00254430870317406
21
0.149978420091768
31
0
210
0
220
0
230
1
40
0.092151
41
0.00639829921253762
42
1.5771946260066
0
ELLIPSE
5
1F0
100
AcDbEntity
8
1
62
256
6
ByLayer
370
13
48
1
60
0
100
AcDbEllipse
10
116.476805
20
7.455836
30
0
11
0.148731686424788
21
-0.019464980175656
31
0
210
0
220
0
230
1
40
0.016833
41
3.05063056327992
42
-1.66175841710548
0
ELLIPSE
5
1F1
100
AcDbEntity
8
1
62
256
6
ByLayer
370
13
48
1
60
0
100
AcDbEllipse
10
108.320536
20
3.212143
30
0
11
-0.134175336907998
21
0.067059518083754
31
0
210
0
220
0
230
1
40
0.045711
41
1.490358390351
42
3.06115471714526
0
ELLIPSE
5
1F2
100
AcDbEntity
8
1
62
256
6
ByLayer
370
13
48
1
60
0
100
AcDbEllipse
10
116.342786
20
11.239941
30
0
11
0.134175336907998
21
-0.0670595180837541
31
0
210
0
220
0
230
1
40
0.045711
41
-2.89614378097784
42
-1.65123426323879
0
ELLIPSE
5
1F3
100
AcDbEntity
8
1
62
256
6
ByLayer
370
13
48
1
60
0
100
AcDbEllipse
10
116.256908
20
7.664845
30
0
11
0.074081832931581
21
0.0116996593752691
31
0
210
0
220
0
230
1
40
0.009655
41
-1.47879775232104
42
-0.000215754751796641
0
ELLIPSE
5
1F4
100
AcDbEntity
8
1
62
256
6
ByLayer
370
13
48
1
60
0
100
AcDbEllipse
10
116.669994
20
2.523983
30
0
11
-0.457939617127609
21
8.73800842910242
31
0
210
0
220
0
230
1
40
0.995725
41
-0.0690273159278986
42
-0.0356924391917563
0
ELLIPSE
5
1F5
100
AcDbEntity
8
1
62
256
6
ByLayer
370
13
48
1
60
0
100
AcDbEllipse
10
107.772562
20
10.74479
30
0
11
-0.422044512751525
21
0.259817086971581
31
0
210
0
220
0
230
1
40
0.479615
41
-1.66034215711392
42
-0.958391421165451
0
ELLIPSE
5
1F6
100
AcDbEntity
8
1
62
256
6
ByLayer
370
13
48
1
60
0
100
AcDbEllipse
10
115.84032
20
4.284178
30
0
11
0.00392519671822067
21
-0.0748972151065931
31
0
210
0
220
0
230
1
40
0.995725
41
-0.358797302493614
42
1.91341726796079E-05
0
ELLIPSE
5
1F7
100
AcDbEntity
8
1
62
256
6
ByLayer
370
13
48
1
60
0
100
AcDbEllipse
10
107.375263
20
10.006606
30
0
11
0.022232177635305
21
-0.148343285246054
31
0
210
0
220
0
230
1
40
0.091945
41
-3.0544852985644
42
-1.57968743413501
0
ELLIPSE
5
1F8
100
AcDbEntity
8
1
62
256
6
ByLayer
370
13
48
1
60
0
100
AcDbEllipse
10
109.793595
20
2.471694
30
0
11
-0.0785039343647332
21
1.49794430213184
31
0
210
0
220
0
230
1
40
0.995725
41
0.676440752305518
42
1.05311629343281
0
ELLIPSE
5
1F9
100
AcDbEntity
8
1
62
256
6
ByLayer
370
13
48
1
60
0
100
AcDbEllipse
10
108.890075
20
3.783603
30
0
11
0.0427820306099567
21
-0.0616011189580898
31
0
210
0
220
0
230
1
40
0.078615
41
-3.97559200125754E-05
42
1.52212929101447
0
ELLIPSE
5
1FA
100
AcDbEntity
8
1
62
256
6
ByLayer
370
13
48
1
60
0
100
AcDbEllipse
10
117.288059
20
4.445478
30
0
11
0.00785039343644137
21
-0.149794430213187
31
0
210
0
220
0
230
1
40
0.995725
41
0.0959931088590459
42
1.38753675533558
0
ELLIPSE
5
1FB
100
AcDbEntity
8
1
62
256
6
ByLayer
370
13
48
1
60
0
100
AcDbEllipse
10
112.343192
20
7.226646
30
0
11
0.100225027559622
21
-1.91240745039653
31
0
210
0
220
0
230
1
40
0.995725
41
0
42
6.28318530717959
0
ELLIPSE
5
1FC
100
AcDbEntity
8
1
62
256
6
ByLayer
370
13
48
1
60
0
100
AcDbEllipse
10
116.188959
20
11.185874
30
0
11
-0.392574227917188
21
-0.302509446128951
31
0
210
0
220
0
230
1
40
0.479615
41
-2.18320123242358
42
-1.48125049646949
0
ELLIPSE
5
1FD
100
AcDbEntity
8
1
62
256
6
ByLayer
370
13
48
1
60
0
100
AcDbEllipse
10
116.43002
20
11.198508
30
0
11
0.0179426826979015
21
-0.342366781103206
31
0
210
0
220
0
230
1
40
0.995725
41
-2.79042709611073
42
-2.0884763601573
0
ELLIPSE
5
1FE
100
AcDbEntity
8
1
62
256
6
ByLayer
370
13
48
1
60
0
100
AcDbEllipse
10
107.828128
20
3.527947
30
0
11
-0.0183175846851043
21
0.349520337164095
31
0
210
0
220
0
230
1
40
0.995725
41
1.67551608191451
42
3.07256533766197
0
ELLIPSE
5
1FF
100
AcDbEntity
8
1
62
256
6
ByLayer
370
13
48
1
60
0
100
AcDbEllipse
10
116.552261
20
9.522955
30
0
11
-0.0915879234255217
21
1.74760168582048
31
0
210
0
220
0
230
1
40
0.995725
41
-0.0356924391917543
42
-0.00872664625996416
0
ELLIPSE
5
200
100
AcDbEntity
8
1
62
256
6
ByLayer
370
13
48
1
60
0
100
AcDbEllipse
10
107.375263
20
10.006606
30
0
11
-0.148731686424787
21
0.0194649801756592
31
0
210
0
220
0
230
1
40
0.016833
41
-0.0909620903084588
42
1.47983423648419
0
ELLIPSE
5
201
100
AcDbEntity
8
1
62
256
6
ByLayer
370
13
48
1
60
0
100
AcDbEllipse
10
107.317044
20
10.502892
30
0
11
-0.043599559088427
21
-0.257560367419821
31
0
210
0
220
0
230
1
40
0.953152
41
-2.83905801139567
42
-1.7440558352803
0
ELLIPSE
5
202
100
AcDbEntity
8
1
62
256
6
ByLayer
370
13
48
1
60
0
100
AcDbEllipse
10
107.836234
20
3.178726
30
0
11
-0.00254430870317447
21
-0.149978420091768
31
0
210
0
220
0
230
1
40
0.092151
41
-1.56439802758329
42
-0.0688194685923245
0
ELLIPSE
5
203
100
AcDbEntity
8
1
62
256
6
ByLayer
370
13
48
1
60
0
100
AcDbEllipse
10
108.415638
20
6.787722
30
0
11
-0.0740818329315805
21
-0.0116996593752721
31
0
210
0
220
0
230
1
40
0.009655
41
0.0919985744748214
42
1.66279490126875
0
ELLIPSE
5
204
100
AcDbEntity
8
1
62
256
6
ByLayer
370
13
48
1
60
0
100
AcDbEllipse
10
107.319988
20
6.863254
30
0
11
0.0261679781214709
21
-0.499314767377284
31
0
210
0
220
0
230
1
40
0.995725
41
-1.75405589825411
42
-1.46607657167506
0
ELLIPSE
5
205
100
AcDbEntity
8
1
62
256
6
ByLayer
370
13
48
1
60
0
100
AcDbEllipse
10
117.037261
20
3.932996
30
0
11
-0.0435995590914364
21
-0.257560367418987
31
0
210
0
220
0
230
1
40
0.953152
41
0.302534642204768
42
1.26887668594341
0
ELLIPSE
5
206
100
AcDbEntity
8
1
62
256
6
ByLayer
370
13
48
1
60
0
100
AcDbEllipse
10
108.604605
20
10.190847
30
0
11
-0.157303252987116
21
-0.0460731444180677
31
0
210
0
220
0
230
1
40
0.019548
41
-3.0592445104963
42
-1.48844818369607
0
ELLIPSE
5
207
100
AcDbEntity
8
1
62
256
6
ByLayer
370
13
48
1
60
0
100
AcDbEllipse
10
117.292672
20
4.44572
30
0
11
0.00785039343644137
21
-0.149794430213187
31
0
210
0
220
0
230
1
40
0.995725
41
0.0959931088588624
42
1.38753675533529
0
ELLIPSE
5
208
100
AcDbEntity
8
1
62
256
6
ByLayer
370
13
48
1
60
0
100
AcDbEllipse
10
108.276038
20
3.234588
30
0
11
0.0104671912485885
21
-0.199725906950917
31
0
210
0
220
0
230
1
40
0.995725
41
0.0114010574349297
42
1.05311629343255
0
ELLIPSE
5
209
100
AcDbEntity
8
1
62
256
6
ByLayer
370
13
48
1
60
0
100
AcDbEllipse
10
108.832227
20
10.16839
30
0
11
0.0743658432123938
21
-0.00973249008782796
31
0
210
0
220
0
230
1
40
0.016833
41
1.47983423648435
42
3.05063056328133
0
ELLIPSE
5
20A
100
AcDbEntity
8
1
62
256
6
ByLayer
370
13
48
1
60
0
100
AcDbEllipse
10
108.947819
20
11.670036
30
0
11
-1.35879251415553
21
0.956161859058609
31
0
210
0
220
0
230
1
40
0.728886
41
1.38754242659636
42
1.85477083936057
0
ELLIPSE
5
20B
100
AcDbEntity
8
1
62
256
6
ByLayer
370
13
48
1
60
0
100
AcDbEllipse
10
114.860502
20
11.979906
30
0
11
0.0863543278008547
21
-1.64773873234505
31
0
210
0
220
0
230
1
40
0.995725
41
0.693066877088723
42
1.0531162934326
0
ELLIPSE
5
20C
100
AcDbEntity
8
1
62
256
6
ByLayer
370
18
48
1
60
0
100
AcDbEllipse
10
113.525415
20
-2.774916
30
0
11
1.25
21
0
31
0
210
0
220
0
230
1
40
0.993166
41
0.366192287780056
42
-3.14159240798556
0
ELLIPSE
5
20D
100
AcDbEntity
8
1
62
256
6
ByLayer
370
18
48
1
60
0
100
AcDbEllipse
10
113.525415
20
-2.739902
30
0
11
-0.950000000000001
21
9.60107102328246E-16
31
0
210
0
220
0
230
1
40
0.993166
41
-3.14159232319556
42
-9.41357892150878E-16
0
ELLIPSE
5
20E
100
AcDbEntity
8
1
62
256
6
ByLayer
370
18
48
1
60
0
100
AcDbEllipse
10
113.525415
20
-2.739902
30
0
11
-0.950000000000001
21
9.60107102328246E-16
31
0
210
0
220
0
230
1
40
0.993166
41
0
42
0.78736201030665
0
ELLIPSE
5
20F
100
AcDbEntity
8
1
62
256
6
ByLayer
370
18
48
1
60
0
100
AcDbEllipse
10
113.525415
20
-2.739902
30
0
11
-0.950000000000001
21
9.60107102328246E-16
31
0
210
0
220
0
230
1
40
0.993166
41
2.94485093557644
42
-3.14159232319556
0
ELLIPSE
5
210
100
AcDbEntity
8
1
62
256
6
ByLayer
370
18
48
1
60
0
100
AcDbEllipse
10
113.525415
20
-3.186178
30
0
11
-1.4
21
1.41489467711531E-15
31
0
210
0
220
0
230
1
40
0.993166
41
-0.512864789354117
42
-0.293149718956699
0
ELLIPSE
5
211
100
AcDbEntity
8
1
62
256
6
ByLayer
370
18
48
1
60
0
100
AcDbEllipse
10
113.525415
20
-3.2863
30
0
11
-1.4
21
1.41489467711531E-15
31
0
210
0
220
0
230
1
40
0.993166
41
-0.477522237867326
42
-0.350385843350366
0
ELLIPSE
5
212
100
AcDbEntity
8
1
62
256
6
ByLayer
370
18
48
1
60
0
100
AcDbEllipse
10
112.244148
20
7.221455
30
0
11
0.0414082085794159
21
-0.790115687897819
31
0
210
0
220
0
230
1
40
0.995725
41
-1.89406959464849
42
-1.23165158891768
0
ELLIPSE
5
213
100
AcDbEntity
8
1
62
256
6
ByLayer
370
18
48
1
60
0
100
AcDbEllipse
10
112.244148
20
7.221455
30
0
11
0.0414082085794159
21
-0.790115687897819
31
0
210
0
220
0
230
1
40
0.995725
41
3.14159265358978
42
-2.35432971300053
0
ELLIPSE
5
214
100
AcDbEntity
8
1
62
256
6
ByLayer
370
18
48
1
60
0
100
AcDbEllipse
10
112.244148
20
7.221455
30
0
11
0.0414082085794159
21
-0.790115687897819
31
0
210
0
220
0
230
1
40
0.995725
41
2.09439510239318
42
3.14159265358979
0
ELLIPSE
5
215
100
AcDbEntity
8
1
62
256
6
ByLayer
370
18
48
1
60
0
100
AcDbEllipse
10
112.318797
20
7.225368
30
0
11
0.0902795245190752
21
-1.72263594745164
31
0
210
0
220
0
230
1
40
0.995725
41
0
42
6.28318530717959
0
ELLIPSE
5
216
100
AcDbEntity
8
1
62
256
6
ByLayer
370
18
48
1
60
0
100
AcDbEllipse
10
113.00652
20
7.718561
30
0
11
-0.130868635434209
21
0.202898866255108
31
0
210
0
220
0
230
1
40
0.503053
41
0.218194667830511
42
1.57329528828408
0
ELLIPSE
5
217
100
AcDbEntity
8
1
62
256
6
ByLayer
370
18
48
1
60
0
100
AcDbEllipse
10
112.244148
20
7.221455
30
0
11
-0.0414082085795845
21
0.79011568789781
31
0
210
0
220
0
230
1
40
0.995725
41
-3.03621793493416
42
-2.09439510239322
0
ELLIPSE
5
218
100
AcDbEntity
8
1
62
256
6
ByLayer
370
18
48
1
60
0
100
AcDbEllipse
10
112.656782
20
8.03502
30
0
11
-0.214323340834702
21
0.110049228609665
31
0
210
0
220
0
230
1
40
0.505213
41
3.08653893110321
42
-0.692117992087543
0
ELLIPSE
5
219
100
AcDbEntity
8
1
62
256
6
ByLayer
370
18
48
1
60
0
100
AcDbEllipse
10
113.054305
20
6.806762
30
0
11
-0.10894301666781
21
-0.215466862387948
31
0
210
0
220
0
230
1
40
0.503053
41
-1.57329528828438
42
-0.218194667830405
0
ELLIPSE
5
21A
100
AcDbEntity
8
1
62
256
6
ByLayer
370
18
48
1
60
0
100
AcDbEllipse
10
112.336392
20
7.22629
30
0
11
0.0541703315092572
21
-1.03363149994772
31
0
210
0
220
0
230
1
40
0.995725
41
1.5707963267949
42
2.6179938779915
0
ELLIPSE
5
21B
100
AcDbEntity
8
1
62
256
6
ByLayer
370
18
48
1
60
0
100
AcDbEllipse
10
111.748733
20
7.987432
30
0
11
-0.201645978398242
21
-0.131849256880539
31
0
210
0
220
0
230
1
40
0.505213
41
3.08150487165721
42
-2.56336325251481
0
ELLIPSE
5
21C
100
AcDbEntity
8
1
62
256
6
ByLayer
370
18
48
1
60
0
100
AcDbEllipse
10
112.336392
20
7.22629
30
0
11
0.0541703315092572
21
-1.03363149994772
31
0
210
0
220
0
230
1
40
0.995725
41
2.6179938779915
42
-2.61799387799151
0
ELLIPSE
5
21D
100
AcDbEntity
8
1
62
256
6
ByLayer
370
18
48
1
60
0
100
AcDbEllipse
10
112.336392
20
7.22629
30
0
11
0.0541703315092572
21
-1.03363149994772
31
0
210
0
220
0
230
1
40
0.995725
41
-1.5707963267949
42
-0.523598775598299
0
ELLIPSE
5
21E
100
AcDbEntity
8
1
62
256
6
ByLayer
370
18
48
1
60
0
100
AcDbEllipse
10
113.054305
20
6.806762
30
0
11
-0.108943016668411
21
-0.215466862390193
31
0
210
0
220
0
230
1
40
0.503053
41
-2.92839590873245
42
-1.57329528828859
0
ELLIPSE
5
21F
100
AcDbEntity
8
1
62
256
6
ByLayer
370
18
48
1
60
0
100
AcDbEllipse
10
112.196362
20
8.133254
30
0
11
-0.240336834258011
21
-0.0125955197630432
31
0
210
0
220
0
230
1
40
0.506302
41
0.215695706344412
42
1.5707963267949
0
ELLIPSE
5
220
100
AcDbEntity
8
1
62
256
6
ByLayer
370
18
48
1
60
0
100
AcDbEllipse
10
112.336392
20
7.22629
30
0
11
0.0541703315092572
21
-1.03363149994772
31
0
210
0
220
0
230
1
40
0.995725
41
-0.523598775598299
42
0.523598775598298
0
ELLIPSE
5
221
100
AcDbEntity
8
1
62
256
6
ByLayer
370
18
48
1
60
0
100
AcDbEllipse
10
112.336392
20
7.22629
30
0
11
0.0541703315092572
21
-1.03363149994772
31
0
210
0
220
0
230
1
40
0.995725
41
-2.61799387799151
42
-1.5707963267949
0
ELLIPSE
5
222
100
AcDbEntity
8
1
62
256
6
ByLayer
370
18
48
1
60
0
100
AcDbEllipse
10
112.244148
20
7.221455
30
0
11
0.0902795245190752
21
-1.72263594745164
31
0
210
0
220
0
230
1
40
0.995725
41
3.14158687387697
42
-1.62293302890917
0
ELLIPSE
5
223
100
AcDbEntity
8
1
62
256
6
ByLayer
370
18
48
1
60
0
100
AcDbEllipse
10
112.244148
20
7.221455
30
0
11
0.0902795245190752
21
-1.72263594745164
31
0
210
0
220
0
230
1
40
0.995725
41
-1.62293302890917
42
0
0
ELLIPSE
5
224
100
AcDbEntity
8
1
62
256
6
ByLayer
370
18
48
1
60
0
100
AcDbEllipse
10
112.336392
20
7.22629
30
0
11
0.0654199453036778
21
-1.24828691844322
31
0
210
0
220
0
230
1
40
0.995725
41
0
42
6.28318530717959
0
ELLIPSE
5
225
100
AcDbEntity
8
1
62
256
6
ByLayer
370
18
48
1
60
0
100
AcDbEllipse
10
113.00652
20
7.718561
30
0
11
-0.130868635434731
21
0.202898866254081
31
0
210
0
220
0
230
1
40
0.503053
41
1.5732952882742
42
2.92839590872967
0
ELLIPSE
5
226
100
AcDbEntity
8
1
62
256
6
ByLayer
370
18
48
1
60
0
100
AcDbEllipse
10
112.336392
20
7.22629
30
0
11
0.0541703315092572
21
-1.03363149994772
31
0
210
0
220
0
230
1
40
0.995725
41
0.523598775598299
42
1.5707963267949
0
ELLIPSE
5
227
100
AcDbEntity
8
1
62
256
6
ByLayer
370
18
48
1
60
0
100
AcDbEllipse
10
113.152197
20
7.269044
30
0
11
-0.0126496006239262
21
0.241368758550177
31
0
210
0
220
0
230
1
40
0.501982
41
3.08402190138044
42
-0.604617605997135
0
ELLIPSE
5
228
100
AcDbEntity
8
1
62
256
6
ByLayer
370
18
48
1
60
0
100
AcDbEllipse
10
112.244148
20
7.221455
30
0
11
0.0414082085794159
21
-0.790115687897819
31
0
210
0
220
0
230
1
40
0.995725
41
-0.770704124409231
42
0
0
ELLIPSE
5
229
100
AcDbEntity
8
1
62
256
6
ByLayer
370
18
48
1
60
0
100
AcDbEllipse
10
112.291933
20
6.309657
30
0
11
-0.240336834258468
21
-0.0125955197634606
31
0
210
0
220
0
230
1
40
0.506302
41
-1.5707963267949
42
-0.21569570634428
0
ELLIPSE
5
22A
100
AcDbEntity
8
1
62
256
6
ByLayer
370
18
48
1
60
0
100
AcDbEllipse
10
112.244148
20
7.221455
30
0
11
0.0414082085794159
21
-0.790115687897819
31
0
210
0
220
0
230
1
40
0.995725
41
1.04719755119659
42
2.0943951023932
0
ELLIPSE
5
22B
100
AcDbEntity
8
1
62
256
6
ByLayer
370
18
48
1
60
0
100
AcDbEllipse
10
112.739563
20
6.455479
30
0
11
-0.201645978398231
21
-0.131849256880539
31
0
210
0
220
0
230
1
40
0.505213
41
0.578233011004798
42
-3.08653893110317
0
ELLIPSE
5
22C
100
AcDbEntity
8
1
62
256
6
ByLayer
370
13
48
1
60
0
100
AcDbEllipse
10
108.017792
20
4.181098
30
0
11
-1.01885656567525
21
-1.26453320173444
31
0
210
0
220
0
230
1
40
0.966608
41
1.64275761242493
42
1.84161819992065
0
ELLIPSE
5
22D
100
AcDbEntity
8
1
62
256
6
ByLayer
370
13
48
1
60
0
100
AcDbEllipse
10
106.186756
20
4.964622
30
0
11
-0.0261679781215777
21
0.499314767377281
31
0
210
0
220
0
230
1
40
0.995725
41
-2.00229017063666
42
-1.46607657167523
0
ELLIPSE
5
22E
100
AcDbEntity
8
1
62
256
6
ByLayer
370
13
48
1
60
0
100
AcDbEllipse
10
106.053413
20
3.176915
30
0
11
-3.96879667262382
21
-0.704906652352854
31
0
210
0
220
0
230
1
40
0.015321
41
-3.01817314101462
42
-2.81830214071563
0
ELLIPSE
5
22F
100
AcDbEntity
8
1
62
256
6
ByLayer
370
13
48
1
60
0
100
AcDbEllipse
10
107.608044
20
4.159624
30
0
11
-1.4113756840625
21
1.13717012664359
31
0
210
0
220
0
230
1
40
0.775936
41
3.10057582077499
42
-2.8696274663165
0
ELLIPSE
5
230
100
AcDbEntity
8
1
62
256
6
ByLayer
370
13
48
1
60
0
100
AcDbEllipse
10
116.879134
20
-6.865573
30
0
11
-0.0633961364047244
21
-0.515849950131092
31
0
210
0
220
0
230
1
40
0.114484
41
-1.65364902180267
42
-0.0828526950068254
0
ELLIPSE
5
231
100
AcDbEntity
8
1
62
256
6
ByLayer
370
13
48
1
60
0
100
AcDbEllipse
10
117.194098
20
3.168417
30
0
11
-0.0101421198662258
21
0.500151817774559
31
0
210
0
220
0
230
1
40
0.104743
41
1.9232239450623
42
-2.7891650353233
0
ELLIPSE
5
232
100
AcDbEntity
8
1
62
256
6
ByLayer
370
13
48
1
60
0
100
AcDbEllipse
10
112.168197
20
4.248406
30
0
11
0.0523359562429422
21
-0.998629534754574
31
0
210
0
220
0
230
1
40
0.092371
41
-1.10403098774763
42
-1.34614737047361E-13
0
ELLIPSE
5
233
100
AcDbEntity
8
1
62
256
6
ByLayer
370
13
48
1
60
0
100
AcDbEllipse
10
112.639221
20
-4.73926
30
0
11
-0.418687649945243
21
7.9890362780365
31
0
210
0
220
0
230
1
40
0.995725
41
0
42
0.252842860728312
0
ELLIPSE
5
234
100
AcDbEntity
8
1
62
256
6
ByLayer
370
13
48
1
60
0
100
AcDbEllipse
10
107.831995
20
4.171361
30
0
11
0.0837375299887076
21
-1.59780725560732
31
0
210
0
220
0
230
1
40
0.995725
41
0.0514385024983692
42
0.985698104016621
0
ELLIPSE
5
235
100
AcDbEntity
8
1
62
256
6
ByLayer
370
13
48
1
60
0
100
AcDbEllipse
10
114.147374
20
3.601101
30
0
11
-0.318392675441923
21
-0.395166626768561
31
0
210
0
220
0
230
1
40
0.966608
41
-2.22744988596295
42
-1.98788378518625
0
ELLIPSE
5
236
100
AcDbEntity
8
1
62
256
6
ByLayer
370
13
48
1
60
0
100
AcDbEllipse
10
118.101191
20
0
30
0
11
-1.34756542374314
21
-11.2113734073803
31
0
210
0
220
0
230
1
40
0.117948
41
-1.29763025161301
42
-0.0929924879082251
0
ELLIPSE
5
237
100
AcDbEntity
8
1
62
256
6
ByLayer
370
13
48
1
60
0
100
AcDbEllipse
10
113.247692
20
-3.206104
30
0
11
-4.02200189184377
21
-0.0156101317997219
31
0
210
0
220
0
230
1
40
0.987726
41
3.00756669534396
42
-2.98919526746855
0
ELLIPSE
5
238
100
AcDbEntity
8
1
62
256
6
ByLayer
370
13
48
1
60
0
100
AcDbEllipse
10
116.522347
20
-6.77993
30
0
11
-0.176269064056829
21
-1.4898000520376
31
0
210
0
220
0
230
1
40
0.118476
41
0
42
6.28318530717959
0
ELLIPSE
5
239
100
AcDbEntity
8
1
62
256
6
ByLayer
370
13
48
1
60
0
100
AcDbEllipse
10
113.364025
20
-2.987814
30
0
11
1.25
21
0
31
0
210
0
220
0
230
1
40
0.993166
41
2.38869009487263
42
2.92747338663094
0
ELLIPSE
5
23A
100
AcDbEntity
8
1
62
256
6
ByLayer
370
13
48
1
60
0
100
AcDbEllipse
10
85.904055
20
0
30
0
11
-121.034377613364
21
0.054907930168788
31
0
210
0
220
0
230
1
40
0.092638
41
-1.81724464346748
42
-1.75609186396422
0
ELLIPSE
5
23B
100
AcDbEntity
8
1
62
256
6
ByLayer
370
13
48
1
60
0
100
AcDbEllipse
10
108.129482
20
4.186952
30
0
11
0.0837375299887076
21
-1.59780725560732
31
0
210
0
220
0
230
1
40
0.995725
41
-2.00229017063666
42
-1.25237984428109
0
ELLIPSE
5
23C
100
AcDbEntity
8
1
62
256
6
ByLayer
370
13
48
1
60
0
100
AcDbEllipse
10
126.286088
20
-1E-06
30
0
11
-121.034383084046
21
0.0549080802797963
31
0
210
0
220
0
230
1
40
0.092638
41
-1.41149263696872
42
-1.39729235722727
0
ELLIPSE
5
23D
100
AcDbEntity
8
1
62
256
6
ByLayer
370
13
48
1
60
0
100
AcDbEllipse
10
117.118971
20
0.123552
30
0
11
-0.0112743981397724
21
0.505668316415593
31
0
210
0
220
0
230
1
40
0.102006
41
-0.13164343539843
42
0.271016274371596
0
ELLIPSE
5
23E
100
AcDbEntity
8
1
62
256
6
ByLayer
370
13
48
1
60
0
100
AcDbEllipse
10
107.511778
20
0
30
0
11
-0.59271582383239
21
11.2123655583876
31
0
210
0
220
0
230
1
40
0.092638
41
-0.159303682851921
42
-0.00327706046205763
0
ELLIPSE
5
23F
100
AcDbEntity
8
1
62
256
6
ByLayer
370
13
48
1
60
0
100
AcDbEllipse
10
117.243116
20
-1.12153
30
0
11
-1.38629539270679
21
2.3250094715653
31
0
210
0
220
0
230
1
40
0.343596
41
-0.954871913111253
42
-0.787838205347811
0
ELLIPSE
5
240
100
AcDbEntity
8
1
62
256
6
ByLayer
370
13
48
1
60
0
100
AcDbEllipse
10
103
20
2.106696
30
0
11
-0.246098321808159
21
7.18816413540755
31
0
210
0
220
0
230
1
40
0.346105
41
-0.538577759744838
42
-0.441849102112343
0
ELLIPSE
5
241
100
AcDbEntity
8
1
62
256
6
ByLayer
370
13
48
1
60
0
100
AcDbEllipse
10
108.067915
20
6.458191
30
0
11
0.0837375299887076
21
-1.59780725560732
31
0
210
0
220
0
230
1
40
0.995725
41
-1.98769354243477
42
-1.46607657167526
0
ELLIPSE
5
242
100
AcDbEntity
8
1
62
256
6
ByLayer
370
13
48
1
60
0
100
AcDbEllipse
10
117.227079
20
-0.334546
30
0
11
-0.0225487962881632
21
1.01133663314199
31
0
210
0
220
0
230
1
40
0.102006
41
-0.13164343537835
42
0.465966964069804
0
ELLIPSE
5
243
100
AcDbEntity
8
1
62
256
6
ByLayer
370
13
48
1
60
0
100
AcDbEllipse
10
109.944454
20
3.845318
30
0
11
0.301478001314455
21
-0.953473132669947
31
0
210
0
220
0
230
1
40
0.089434
41
-1.42395316306653
42
-0.0232022394726371
0
ELLIPSE
5
244
100
AcDbEntity
8
1
62
256
6
ByLayer
370
13
48
1
60
0
100
AcDbEllipse
10
108.967496
20
3.95675
30
0
11
0.026167978121471
21
-0.499314767377286
31
0
210
0
220
0
230
1
40
0.092371
41
-0.752144203761006
42
-0.444248267805201
0
ELLIPSE
5
245
100
AcDbEntity
8
1
62
256
6
ByLayer
370
13
48
1
60
0
100
AcDbEllipse
10
113.364025
20
-2.590992
30
0
11
-1.35
21
1.36436272436119E-15
31
0
210
0
220
0
230
1
40
0.993166
41
-2.96497592621263
42
-0.165326274684947
0
ELLIPSE
5
246
100
AcDbEntity
8
1
62
256
6
ByLayer
370
13
48
1
60
0
100
AcDbEllipse
10
110.279443
20
3.398391
30
0
11
-3.9687966797844
21
-0.704906653650259
31
0
210
0
220
0
230
1
40
0.015321
41
-3.01817314112616
42
-2.81830214100855
0
ELLIPSE
5
247
100
AcDbEntity
8
1
62
256
6
ByLayer
370
13
48
1
60
0
100
AcDbEllipse
10
120.805062
20
0.468431
30
0
11
-4.02200186391228
21
-0.0156100342059508
31
0
210
0
220
0
230
1
40
0.987726
41
0.0204065307876791
42
0.152397410598723
0
ELLIPSE
5
248
100
AcDbEntity
8
1
62
256
6
ByLayer
370
13
48
1
60
0
100
AcDbEllipse
10
113.364025
20
-2.590992
30
0
11
1.25
21
0
31
0
210
0
220
0
230
1
40
0.993166
41
0
42
3.14159240798556
0
ELLIPSE
5
249
100
AcDbEntity
8
1
62
256
6
ByLayer
370
13
48
1
60
0
100
AcDbEllipse
10
120.122388
20
1.220615
30
0
11
-3.92998062174228
21
-1.25592900907275
31
0
210
0
220
0
230
1
40
0.806809
41
-0.369728693680138
42
-0.222176624393461
0
ELLIPSE
5
24A
100
AcDbEntity
8
1
62
256
6
ByLayer
370
13
48
1
60
0
100
AcDbEllipse
10
113.222344
20
5.45523
30
0
11
-1.01885656504599
21
-1.26453320210206
31
0
210
0
220
0
230
1
40
0.966608
41
0.713732916758791
42
1.15370887154909
0
ELLIPSE
5
24B
100
AcDbEntity
8
1
62
256
6
ByLayer
370
13
48
1
60
0
100
AcDbEllipse
10
1094.076436
20
1E-06
30
0
11
-1766.52400028204
21
9.42050748155536
31
0
210
0
220
0
230
1
40
0.003442
41
0.976820590569739
42
0.984104327590423
0
ELLIPSE
5
24C
100
AcDbEntity
8
1
62
256
6
ByLayer
370
13
48
1
60
0
100
AcDbEllipse
10
107.229593
20
8.240287
30
0
11
-0.143594274768009
21
2.7399419844452
31
0
210
0
220
0
230
1
40
0.016833
41
0.314106799244644
42
0.8829041361488
0
ELLIPSE
5
24D
100
AcDbEntity
8
1
62
256
6
ByLayer
370
13
48
1
60
0
100
AcDbEllipse
10
109.921343
20
3.379624
30
0
11
-0.318392676578666
21
-0.395166625655777
31
0
210
0
220
0
230
1
40
0.966608
41
-2.22744988287033
42
-1.29997445410728
0
ELLIPSE
5
24E
100
AcDbEntity
8
1
62
256
6
ByLayer
370
13
48
1
60
0
100
AcDbEllipse
10
103
20
3.103741
30
0
11
-1.5
21
1.51595858262354E-15
31
0
210
0
220
0
230
1
40
0.752854
41
-2.96244235007968
42
-1.69238771346091
0
ELLIPSE
5
24F
100
AcDbEntity
8
1
62
256
6
ByLayer
370
13
48
1
60
0
100
AcDbEllipse
10
191.032197
20
-0.029123
30
0
11
-156.469881512405
21
0.0708796775071378
31
0
210
0
220
0
230
1
40
0.084335
41
-0.991624306751651
42
-0.972492786074882
0
ELLIPSE
5
250
100
AcDbEntity
8
1
62
256
6
ByLayer
370
13
48
1
60
0
100
AcDbEllipse
10
106.814377
20
4.578712
30
0
11
0.464792933756589
21
-0.184302818019538
31
0
210
0
220
0
230
1
40
0.038632
41
-2.02873541903093
42
-1.65486207236208
0
ELLIPSE
5
251
100
AcDbEntity
8
1
62
256
6
ByLayer
370
13
48
1
60
0
100
AcDbEllipse
10
114.746431
20
0
30
0
11
-23.4830603211049
21
10.049274409782
31
0
210
0
220
0
230
1
40
0.200491
41
0.871274588708411
42
1.01692245976805
0
ELLIPSE
5
252
100
AcDbEntity
8
1
62
256
6
ByLayer
370
13
48
1
60
0
100
AcDbEllipse
10
105.843147
20
4.946615
30
0
11
0.0523359562429422
21
-0.998629534754574
31
0
210
0
220
0
230
1
40
0.995725
41
1.13930248295315
42
1.67551608191457
0
ELLIPSE
5
253
100
AcDbEntity
8
1
62
256
6
ByLayer
370
13
48
1
60
0
100
AcDbEllipse
10
106.688642
20
6.270767
30
0
11
0.49387888621054
21
0.0779977291684604
31
0
210
0
220
0
230
1
40
0.009655
41
1.82031632992281
42
1.98495510800378
0
ELLIPSE
5
254
100
AcDbEntity
8
1
62
256
6
ByLayer
370
13
48
1
60
0
100
AcDbEllipse
10
106.872712
20
5.105244
30
0
11
0.49387888621054
21
0.0779977291684604
31
0
210
0
220
0
230
1
40
0.009655
41
1.66279490126854
42
1.98583982387692
0
ELLIPSE
5
255
100
AcDbEntity
8
1
62
256
6
ByLayer
370
13
48
1
60
0
100
AcDbEllipse
10
105.812144
20
3.828615
30
0
11
-0.293690420649016
21
-0.955900589401955
31
0
210
0
220
0
230
1
40
0.0868
41
-1.53907871771949
42
-0.862652527266309
0
ELLIPSE
5
256
100
AcDbEntity
8
1
62
256
6
ByLayer
370
13
48
1
60
0
100
AcDbEllipse
10
107.756281
20
10.517378
30
0
11
-0.366351693702088
21
6.99040674328194
31
0
210
0
220
0
230
1
40
0.995725
41
2.7925268031957
42
2.92884667747943
0
ELLIPSE
5
257
100
AcDbEntity
8
1
62
256
6
ByLayer
370
13
48
1
60
0
100
AcDbEllipse
10
116.822374
20
4.492321
30
0
11
-0.020284239723172
21
1.0003036352814
31
0
210
0
220
0
230
1
40
0.104743
41
-3.13823088572131
42
-2.82067045638686
0
ELLIPSE
5
258
100
AcDbEntity
8
1
62
256
6
ByLayer
370
13
48
1
60
0
100
AcDbEllipse
10
107.785873
20
4.168944
30
0
11
-0.057569551867471
21
1.09849248823002
31
0
210
0
220
0
230
1
40
0.995725
41
1.13930248295312
42
2.68071944023138
0
ELLIPSE
5
259
100
AcDbEntity
8
1
62
256
6
ByLayer
370
13
48
1
60
0
100
AcDbEllipse
10
107.848525
20
10.522213
30
0
11
0.418687649943537
21
-7.98903627803659
31
0
210
0
220
0
230
1
40
0.995725
41
4.81651164291455E-06
42
0.252842860728317
0
ELLIPSE
5
25A
100
AcDbEntity
8
1
62
256
6
ByLayer
370
13
48
1
60
0
100
AcDbEllipse
10
114.158149
20
-4.659656
30
0
11
-6.48703353859706
21
5.6039020554646
31
0
210
0
220
0
230
1
40
0.867199
41
-0.734798441590533
42
-0.542094117213873
0
ELLIPSE
5
25B
100
AcDbEntity
8
1
62
256
6
ByLayer
370
13
48
1
60
0
100
AcDbEllipse
10
117.075778
20
0
30
0
11
-1.91506113755573
21
11.2113563913756
31
0
210
0
220
0
230
1
40
0.083619
41
1.54299987885151
42
1.7081361607012
0
POINT
5
70
100
AcDbEntity
8
1
62
256
6
ByLayer
370
18
48
1
60
0
100
AcDbPoint
10
0
20
0
30
0
39
0
210
0
220
0
230
1
50
360
0
POINT
5
72
100
AcDbEntity
8
80
62
256
6
ByLayer
370
18
48
1
60
0
100
AcDbPoint
10
0
20
0
30
0
39
0
210
0
220
0
230
1
50
360
0
POINT
5
74
100
AcDbEntity
8
81
62
256
6
ByLayer
370
18
48
1
60
0
100
AcDbPoint
10
118
20
0
30
0
39
0
210
0
220
0
230
1
50
360
0
POINT
5
76
100
AcDbEntity
8
1
62
256
6
ByLayer
370
18
48
1
60
1
100
AcDbPoint
10
0
20
-16
30
0
39
0
210
0
220
0
230
1
50
360
0
POINT
5
77
100
AcDbEntity
8
1
62
256
6
ByLayer
370
18
48
1
60
1
100
AcDbPoint
10
118
20
-11.5
30
0
39
0
210
0
220
0
230
1
50
360
0
POINT
5
78
100
AcDbEntity
8
1
62
256
6
ByLayer
370
18
48
1
60
1
100
AcDbPoint
10
-56
20
-12.5
30
0
39
0
210
0
220
0
230
1
50
360
0
POINT
5
79
100
AcDbEntity
8
1
62
256
6
ByLayer
370
18
48
1
60
1
100
AcDbPoint
10
0
20
-16
30
0
39
0
210
0
220
0
230
1
50
360
0
POINT
5
7A
100
AcDbEntity
8
1
62
256
6
ByLayer
370
18
48
1
60
1
100
AcDbPoint
10
118
20
-11.5
30
0
39
0
210
0
220
0
230
1
50
360
0
POINT
5
7B
100
AcDbEntity
8
1
62
256
6
ByLayer
370
18
48
1
60
1
100
AcDbPoint
10
6.3337
20
-16
30
0
39
0
210
0
220
0
230
1
50
360
0
POINT
5
7C
100
AcDbEntity
8
1
62
256
6
ByLayer
370
18
48
1
60
1
100
AcDbPoint
10
22
20
-11.5
30
0
39
0
210
0
220
0
230
1
50
360
0
POINT
5
7D
100
AcDbEntity
8
1
62
256
6
ByLayer
370
18
48
1
60
1
100
AcDbPoint
10
118
20
-11.5
30
0
39
0
210
0
220
0
230
1
50
360
0
POINT
5
7E
100
AcDbEntity
8
1
62
256
6
ByLayer
370
18
48
1
60
1
100
AcDbPoint
10
117.335
20
-5.75
30
0
39
0
210
0
220
0
230
1
50
360
0
SPLINE
5
25C
100
AcDbEntity
8
SK1
62
256
6
ByLayer
370
13
48
1
60
0
100
AcDbSpline
70
4
71
3
72
18
73
14
40
0
40
0
40
0
40
0
40
0.249999999999993
40
0.249999999999993
40
0.499999999999985
40
0.499999999999985
40
0.624999999999989
40
0.624999999999989
40
0.749999999999993
40
0.749999999999993
40
0.874999999999996
40
0.874999999999996
40
1
40
1
40
1
40
1
41
1
10
-54.5162221138916
20
6.81202898183318
30
0
41
1
10
-54.4772970244431
20
6.72457714976824
30
0
41
1
10
-54.4307065013895
20
6.63918003305162
30
0
41
1
10
-54.319110443676
20
6.4826126999028
30
0
41
1
10
-54.2534817600869
20
6.41019877906004
30
0
41
1
10
-54.1362837870009
20
6.32619750079633
30
0
41
1
10
-54.0935094971742
20
6.30217611468402
30
0
41
1
10
-54.0030350925562
20
6.26802830974705
30
0
41
1
10
-53.954986307026
20
6.25793437821719
30
0
41
1
10
-53.8587999994146
20
6.25505426790869
30
0
41
1
10
-53.8097812214382
20
6.26239551321621
30
0
41
1
10
-53.7180788416409
20
6.29165811737894
30
0
41
1
10
-53.6739760596325
20
6.31382117969852
30
0
41
1
10
-53.63381319928
20
6.34032812085832
30
0
0
SPLINE
5
25D
100
AcDbEntity
8
SK1
62
256
6
ByLayer
370
13
48
1
60
0
100
AcDbSpline
70
4
71
3
72
8
73
4
40
0
40
0
40
0
40
0
40
1
40
1
40
1
40
1
41
1
10
-55
20
-6.99857202024091
30
0
41
1
10
-55.3647894321562
20
-6.34719880823223
30
0
41
1
10
-55.7025751082723
20
-5.68271935719741
30
0
41
1
10
-56
20
-4.99865085022941
30
0
0
SPLINE
5
25E
100
AcDbEntity
8
SK1
62
256
6
ByLayer
370
13
48
1
60
0
100
AcDbSpline
70
4
71
3
72
18
73
14
40
0
40
0
40
0
40
0
40
0.125
40
0.125
40
0.25
40
0.25
40
0.375
40
0.375
40
0.5
40
0.5
40
0.75
40
0.75
40
1
40
1
40
1
40
1
41
1
10
-53.6338131992802
20
-6.3403281208584
30
0
41
1
10
-53.6738141958612
20
-6.31392800758456
30
0
41
1
10
-53.7178002036947
20
-6.29177848365677
30
0
41
1
10
-53.8095125775276
20
-6.2624499739369
30
0
41
1
10
-53.8584225384109
20
-6.25510027396828
30
0
41
1
10
-53.954380672524
20
-6.25785951942993
30
0
41
1
10
-54.0027856924058
20
-6.26797384899598
30
0
41
1
10
-54.0930673480266
20
-6.30196986632177
30
0
41
1
10
-54.1359763206845
20
-6.32601182555067
30
0
41
1
10
-54.2531658331207
20
-6.40990335070128
30
0
41
1
10
-54.3191410537013
20
-6.48264182751294
30
0
41
1
10
-54.4307896521674
20
-6.63931052396157
30
0
41
1
10
-54.4773867263329
20
-6.72477868031578
30
0
41
1
10
-54.5162221138916
20
-6.81202898183304
30
0
0
SPLINE
5
25F
100
AcDbEntity
8
SK1
62
256
6
ByLayer
370
13
48
1
60
0
100
AcDbSpline
70
4
71
3
72
8
73
4
40
0
40
0
40
0
40
0
40
1
40
1
40
1
40
1
41
1
10
-52.5998571439056
20
-6.99857202024091
30
0
41
1
10
-52.9479487851792
20
-6.78433420177186
30
0
41
1
10
-53.2928798234837
20
-6.56533950830294
30
0
41
1
10
-53.6338131992802
20
-6.34032812085843
30
0
0
SPLINE
5
260
100
AcDbEntity
8
1
62
256
6
ByLayer
370
13
48
1
60
0
100
AcDbSpline
70
4
71
2
72
6
73
3
40
0
40
0
40
0
40
1
40
1
40
1
41
0.999764304477951
10
106.597750375057
20
6.92554030007283
30
0
41
0.997533251692163
10
106.588906330575
20
6.96365429094877
30
0
41
1
10
106.585332269106
20
7.00262224783921
30
0
0
SPLINE
5
261
100
AcDbEntity
8
1
62
256
6
ByLayer
370
13
48
1
60
0
100
AcDbSpline
70
4
71
1
72
4
73
2
40
0
40
0
40
1
40
1
41
1
10
116.749675077619
20
3.5382539298665
30
0
41
1
10
116.766856763138
20
3.56506968618117
30
0
0
SPLINE
5
262
100
AcDbEntity
8
1
62
256
6
ByLayer
370
13
48
1
60
0
100
AcDbSpline
70
4
71
2
72
6
73
3
40
0
40
0
40
0
40
1
40
1
40
1
41
1
10
117.94994704578
20
7.59703273588229
30
0
41
0.997409491337352
10
117.949373383796
20
7.64030033614956
30
0
41
1
10
117.942623511713
20
7.68304028950362
30
0
0
SPLINE
5
263
100
AcDbEntity
8
1
62
256
6
ByLayer
370
13
48
1
60
0
100
AcDbSpline
70
4
71
1
72
4
73
2
40
0
40
0
40
1
40
1
41
1
10
106.729923029172
20
6.76952679326516
30
0
41
1
10
106.602593248112
20
6.76595234867978
30
0
0
SPLINE
5
264
100
AcDbEntity
8
1
62
256
6
ByLayer
370
13
48
1
60
0
100
AcDbSpline
70
4
71
3
72
10
73
6
40
0
40
0
40
0
40
0
40
0.0523557546004796
40
0.0523557546004796
40
1
40
1
40
1
40
1
41
1
10
107.09285911274
20
11.0128207117385
30
0
41
1
10
107.098044040453
20
11.0135338810663
30
0
41
1
10
107.10323450726
20
11.0141995299179
30
0
41
1
10
107.202459446948
20
11.0261712291043
30
0
41
1
10
107.296676154968
20
11.0359138650003
30
0
41
1
10
107.391050390156
20
11.0443050587253
30
0
0
SPLINE
5
265
100
AcDbEntity
8
1
62
256
6
ByLayer
370
13
48
1
60
0
100
AcDbSpline
70
4
71
3
72
10
73
6
40
0
40
0
40
0
40
0
40
0.5
40
0.5
40
1
40
1
40
1
40
1
41
1
10
115.869292869701
20
10.8614606560661
30
0
41
1
10
115.865612288149
20
10.8612677649605
30
0
41
1
10
115.875067467609
20
10.8505726801744
30
0
41
1
10
115.914191285962
20
10.8154311904076
30
0
41
1
10
115.943896260584
20
10.7910890515649
30
0
41
1
10
115.975172505951
20
10.7672527417794
30
0
0
SPLINE
5
266
100
AcDbEntity
8
1
62
256
6
ByLayer
370
13
48
1
60
0
100
AcDbSpline
70
4
71
1
72
4
73
2
40
0
40
0
40
1
40
1
41
1
10
116.620307350017
20
3.56493333823534
30
0
41
1
10
116.562005813313
20
3.47730152133079
30
0
0
SPLINE
5
267
100
AcDbEntity
8
1
62
256
6
ByLayer
370
13
48
1
60
0
100
AcDbSpline
70
4
71
3
72
8
73
4
40
0
40
0
40
0
40
0
40
1
40
1
40
1
40
1
41
1
10
106.722599663274
20
6.85559398366976
30
0
41
1
10
106.72222099904
20
6.88434459825464
30
0
41
1
10
106.723909898985
20
6.91319566520167
30
0
41
1
10
106.72764025445
20
6.94170167501463
30
0
0
SPLINE
5
268
100
AcDbEntity
8
1
62
256
6
ByLayer
370
13
48
1
60
0
100
AcDbSpline
70
4
71
3
72
14
73
10
40
0
40
0
40
0
40
0
40
0.248695977282486
40
0.248695977282486
40
0.496731428084415
40
0.496731428084415
40
0.748365550121286
40
0.748365550121286
40
1
40
1
40
1
40
1
41
1
10
116.766856763138
20
3.56506968618117
30
0
41
1
10
116.753934710784
20
3.5645183064666
30
0
41
1
10
116.741343429005
20
3.56423977966216
30
0
41
1
10
116.716986396237
20
3.56416430473081
30
0
41
1
10
116.705131531821
20
3.56432194431841
30
0
41
1
10
116.68107504669
20
3.56452868759314
30
0
41
1
10
116.668908075707
20
3.56460156759635
30
0
41
1
10
116.644598473404
20
3.56476186956374
30
0
41
1
10
116.632452901655
20
3.56484759969152
30
0
41
1
10
116.620307350017
20
3.56493333823534
30
0
0
SPLINE
5
269
100
AcDbEntity
8
1
62
256
6
ByLayer
370
13
48
1
60
0
100
AcDbSpline
70
4
71
3
72
16
73
12
40
0
40
0
40
0
40
0
40
0.500000000000006
40
0.500000000000006
40
0.750000000000009
40
0.750000000000009
40
0.81250000000001
40
0.81250000000001
40
0.875000000000011
40
0.875000000000011
40
1
40
1
40
1
40
1
41
1
10
112.498253055015
20
4.13552513131901
30
0
41
1
10
113.051353038263
20
4.16451187316255
30
0
41
1
10
113.604454189791
20
4.19347632066084
30
0
41
1
10
114.434103948453
20
4.23696055937782
30
0
41
1
10
114.710651523908
20
4.25151505897608
30
0
41
1
10
115.056339565016
20
4.26960320058151
30
0
41
1
10
115.125478070481
20
4.27319324705016
30
0
41
1
10
115.263752656922
20
4.28044787036004
30
0
41
1
10
115.332864016406
20
4.28487240158432
30
0
41
1
10
115.540822575794
20
4.27894905368686
30
0
41
1
10
115.680097594131
20
4.25646317626257
30
0
41
1
10
115.817807446817
20
4.21267740114035
30
0
0
SPLINE
5
26A
100
AcDbEntity
8
1
62
256
6
ByLayer
370
13
48
1
60
0
100
AcDbSpline
70
4
71
3
72
22
73
18
40
0
40
0
40
0
40
0
40
0.125
40
0.125
40
0.25
40
0.25
40
0.375
40
0.375
40
0.5
40
0.5
40
0.625
40
0.625
40
0.6875
40
0.6875
40
0.75
40
0.75
40
1
40
1
40
1
40
1
41
1
10
107.256511570416
20
3.43518661422192
30
0
41
1
10
107.26339892615
20
3.3879169919208
30
0
41
1
10
107.275659041467
20
3.34223289242033
30
0
41
1
10
107.311936427373
20
3.25433427687298
30
0
41
1
10
107.335620750674
20
3.2129732914799
30
0
41
1
10
107.391153325169
20
3.13700301648336
30
0
41
1
10
107.424115049619
20
3.10191763949129
30
0
41
1
10
107.496221363404
20
3.04119250873609
30
0
41
1
10
107.535327524998
20
3.01508090539727
30
0
41
1
10
107.620386466748
20
2.97239083687467
30
0
41
1
10
107.66479336283
20
2.95634751961887
30
0
41
1
10
107.733414848643
20
2.93995345272603
30
0
41
1
10
107.756683440659
20
2.93578924988836
30
0
41
1
10
107.803979237988
20
2.9302427066996
30
0
41
1
10
107.827645346378
20
2.92907815898121
30
0
41
1
10
107.946021225665
20
2.92726071176304
30
0
41
1
10
108.040740187459
20
2.9274197747493
30
0
41
1
10
108.135474549297
20
2.92893934263779
30
0
0
SPLINE
5
26B
100
AcDbEntity
8
1
62
256
6
ByLayer
370
13
48
1
60
0
100
AcDbSpline
70
4
71
3
72
11
73
7
40
0
40
0
40
0
40
0
40
0.25
40
0.5
40
0.75
40
1
40
1
40
1
40
1
41
1
10
116.537071991588
20
11.523627740131
30
0
41
1
10
116.523873918658
20
11.5234097631391
30
0
41
1
10
116.49748188777
20
11.5227131246156
30
0
41
1
10
116.457923939046
20
11.5208816742512
30
0
41
1
10
116.418361381867
20
11.5191769804227
30
0
41
1
10
116.391986855879
20
11.5180264338144
30
0
41
1
10
116.378799592764
20
11.5174511605049
30
0
0
SPLINE
5
26C
100
AcDbEntity
8
1
62
256
6
ByLayer
370
13
48
1
60
0
100
AcDbSpline
70
4
71
3
72
20
73
16
40
0
40
0
40
0
40
0
40
0.0625000000000156
40
0.0625000000000156
40
0.125000000000031
40
0.125000000000031
40
0.187500000000047
40
0.187500000000047
40
0.218750000000049
40
0.218750000000049
40
0.250000000000051
40
0.250000000000051
40
0.500000000000034
40
0.500000000000034
40
1
40
1
40
1
40
1
41
1
10
115.739975553844
20
10.7306554301052
30
0
41
1
10
115.678039010104
20
10.6876404466934
30
0
41
1
10
115.613364004756
20
10.6495715430773
30
0
41
1
10
115.478607896873
20
10.5831979728094
30
0
41
1
10
115.407992897637
20
10.5547399853536
30
0
41
1
10
115.263683918425
20
10.5088974443857
30
0
41
1
10
115.190555287921
20
10.4915321608089
30
0
41
1
10
115.079414817502
20
10.4737401541668
30
0
41
1
10
115.042122056276
20
10.4692121847664
30
0
41
1
10
114.967046038621
20
10.4629537724246
30
0
41
1
10
114.929224849826
20
10.4614396757288
30
0
41
1
10
114.589574456434
20
10.443590491056
30
0
41
1
10
114.287665845346
20
10.4277991036081
30
0
41
1
10
113.381934834142
20
10.3803317526831
30
0
41
1
10
112.778114160007
20
10.3486868520665
30
0
41
1
10
112.174293485871
20
10.3170419514498
30
0
0
SPLINE
5
26D
100
AcDbEntity
8
1
62
256
6
ByLayer
370
13
48
1
60
0
100
AcDbSpline
70
4
71
3
72
18
73
14
40
0
40
0
40
0
40
0
40
0.12500000000001
40
0.12500000000001
40
0.187500000000015
40
0.187500000000015
40
0.218750000000012
40
0.218750000000012
40
0.250000000000008
40
0.250000000000008
40
0.500000000000006
40
0.500000000000006
40
1
40
1
40
1
40
1
41
1
10
115.789389639248
20
10.669326202008
30
0
41
1
10
115.661570976162
20
10.5805560294989
30
0
41
1
10
115.524141598861
20
10.5124675607707
30
0
41
1
10
115.30393894237
20
10.4405881352773
30
0
41
1
10
115.22820305529
20
10.4218436072407
30
0
41
1
10
115.114993123778
20
10.4024023642897
30
0
41
1
10
115.077156366431
20
10.397328570485
30
0
41
1
10
115.001285089722
20
10.3899595899503
30
0
41
1
10
114.963219598222
20
10.3880995697157
30
0
41
1
10
114.620708594002
20
10.3702575765457
30
0
41
1
10
114.316268804196
20
10.3541951952124
30
0
41
1
10
113.402926594832
20
10.3063289582942
30
0
41
1
10
112.794031788589
20
10.2744181336821
30
0
41
1
10
112.185136982347
20
10.2425073090699
30
0
0
SPLINE
5
26E
100
AcDbEntity
8
1
62
256
6
ByLayer
370
13
48
1
60
0
100
AcDbSpline
70
4
71
3
72
18
73
14
40
0
40
0
40
0
40
0
40
0.5
40
0.5
40
0.75
40
0.75
40
0.81249999999999
40
0.81249999999999
40
0.843749999999992
40
0.843749999999992
40
0.874999999999993
40
0.874999999999993
40
1
40
1
40
1
40
1
41
1
10
112.185136982346
20
10.2425073090699
30
0
41
1
10
111.625489342876
20
10.2131774191042
30
0
41
1
10
111.06584046197
20
10.183871275709
30
0
41
1
10
110.226369339932
20
10.1398699496482
30
0
41
1
10
109.946549040387
20
10.1251375848963
30
0
41
1
10
109.596767110268
20
10.1068476639851
30
0
41
1
10
109.526808732497
20
10.1032278198376
30
0
41
1
10
109.421877148601
20
10.0976834895473
30
0
41
1
10
109.386864228607
20
10.0955308319224
30
0
41
1
10
109.316924784999
20
10.0940130330207
30
0
41
1
10
109.282127589313
20
10.0945026083422
30
0
41
1
10
109.108903117379
20
10.1024610804794
30
0
41
1
10
108.972734735511
20
10.126276329304
30
0
41
1
10
108.839145038323
20
10.1687520732365
30
0
0
SPLINE
5
26F
100
AcDbEntity
8
1
62
256
6
ByLayer
370
13
48
1
60
0
100
AcDbSpline
70
4
71
3
72
24
73
20
40
0
40
0
40
0
40
0
40
0.250000000000035
40
0.250000000000035
40
0.50000000000007
40
0.50000000000007
40
0.625000000000087
40
0.625000000000087
40
0.750000000000104
40
0.750000000000104
40
0.812500000000078
40
0.812500000000078
40
0.843750000000065
40
0.843750000000065
40
0.875000000000052
40
0.875000000000052
40
0.937500000000026
40
0.937500000000026
40
1
40
1
40
1
40
1
41
1
10
117.36622465611
20
3.66999560581357
30
0
41
1
10
117.341106539162
20
3.6560779688385
30
0
41
1
10
117.312973409144
20
3.64199682159725
30
0
41
1
10
117.247889658838
20
3.61506694427564
30
0
41
1
10
117.210759638416
20
3.60199991265804
30
0
41
1
10
117.146802947533
20
3.58608557515873
30
0
41
1
10
117.124436736722
20
3.58165932211205
30
0
41
1
10
117.080369925634
20
3.5757968902748
30
0
41
1
10
117.059160124721
20
3.57436124961998
30
0
41
1
10
117.028778787324
20
3.57315219508232
30
0
41
1
10
117.019071222447
20
3.57306822604298
30
0
41
1
10
117.004095381449
20
3.57262518759595
30
0
41
1
10
116.998947574933
20
3.57234363269023
30
0
41
1
10
116.988235215505
20
3.57142255852449
30
0
41
1
10
116.982721466085
20
3.5708266769854
30
0
41
1
10
116.966911036117
20
3.56966676854785
30
0
41
1
10
116.956805563675
20
3.56926697980484
30
0
41
1
10
116.936377838474
20
3.56828119892759
30
0
41
1
10
116.926185768187
20
3.56780702699101
30
0
41
1
10
116.916103334469
20
3.5674270273592
30
0
0
SPLINE
5
270
100
AcDbEntity
8
1
62
256
6
ByLayer
370
13
48
1
60
0
100
AcDbSpline
70
4
71
1
72
4
73
2
40
0
40
0
40
1
40
1
41
1
10
107.706019856657
20
10.8694891580826
30
0
41
1
10
107.549101384595
20
11.0547062856754
30
0
0
SPLINE
5
271
100
AcDbEntity
8
1
62
256
6
ByLayer
370
13
48
1
60
0
100
AcDbSpline
70
4
71
1
72
4
73
2
40
0
40
0
40
1
40
1
41
1
10
106.593457554335
20
6.84758256974882
30
0
41
1
10
106.722599495106
20
6.85553434688651
30
0
0
SPLINE
5
272
100
AcDbEntity
8
1
62
256
6
ByLayer
370
13
48
1
60
0
100
AcDbSpline
70
4
71
2
72
6
73
3
40
0
40
0
40
0
40
1
40
1
40
1
41
0.998720635644481
10
106.595103169658
20
6.81114314999897
30
0
41
0.998848208416404
10
106.593699467063
20
6.82933666269798
30
0
41
1
10
106.593457554335
20
6.84758256974882
30
0
0
SPLINE
5
273
100
AcDbEntity
8
1
62
256
6
ByLayer
370
13
48
1
60
0
100
AcDbSpline
70
4
71
2
72
6
73
3
40
0
40
0
40
0
40
1
40
1
40
1
41
0.998720635644481
10
106.583159913027
20
7.03903406227575
30
0
41
0.998848208416405
10
106.583665639986
20
7.02079348866788
30
0
41
1
10
106.585332269106
20
7.00262224783921
30
0
0
SPLINE
5
274
100
AcDbEntity
8
1
62
256
6
ByLayer
370
13
48
1
60
0
100
AcDbSpline
70
4
71
2
72
6
73
3
40
0
40
0
40
0
40
1
40
1
40
1
41
0.999764304478467
10
106.597750375058
20
6.92554030008084
30
0
41
0.997533251691878
10
106.592938776071
20
6.88671064725168
30
0
41
1
10
106.593457554335
20
6.84758256974882
30
0
0
SPLINE
5
275
100
AcDbEntity
8
1
62
256
6
ByLayer
370
13
48
1
60
0
100
AcDbSpline
70
4
71
3
72
10
73
6
40
0
40
0
40
0
40
0
40
0.5
40
0.5
40
1
40
1
40
1
40
1
41
1
10
108.794029271508
20
3.59062299640044
30
0
41
1
10
108.790348689956
20
3.59043010529484
30
0
41
1
10
108.773695239368
20
3.60074794467644
30
0
41
1
10
108.724393777188
20
3.63535604673191
30
0
41
1
10
108.691752681595
20
3.65954430999488
30
0
41
1
10
108.660476436228
20
3.68338061978031
30
0
0
SPLINE
5
276
100
AcDbEntity
8
1
62
256
6
ByLayer
370
13
48
1
60
0
100
AcDbSpline
70
4
71
1
72
4
73
2
40
0
40
0
40
1
40
1
41
1
10
106.544437928402
20
6.9173047013989
30
0
41
1
10
106.598648778794
20
6.92172788812283
30
0
0
SPLINE
5
277
100
AcDbEntity
8
1
62
256
6
ByLayer
370
13
48
1
60
0
100
AcDbSpline
70
4
71
2
72
6
73
3
40
0
40
0
40
0
40
1
40
1
40
1
41
1
10
106.598245351682
20
6.92942573599243
30
0
41
0.999876239645474
10
106.597991214307
20
6.92748387527027
30
0
41
0.999764304478467
10
106.597750375058
20
6.92554030008084
30
0
0
SPLINE
5
278
100
AcDbEntity
8
1
62
256
6
ByLayer
370
13
48
1
60
0
100
AcDbSpline
70
4
71
3
72
20
73
16
40
0
40
0
40
0
40
0
40
0.0624999999999999
40
0.0624999999999999
40
0.125
40
0.125
40
0.1875
40
0.1875
40
0.21875
40
0.21875
40
0.25
40
0.25
40
0.5
40
0.5
40
1
40
1
40
1
40
1
41
1
10
108.932570987042
20
3.72191165266358
30
0
41
1
10
108.994507530781
20
3.76492663607542
30
0
41
1
10
109.059182536129
20
3.80299553969147
30
0
41
1
10
109.193938644013
20
3.86936910995939
30
0
41
1
10
109.264553643248
20
3.89782709741519
30
0
41
1
10
109.408862622461
20
3.94366963838308
30
0
41
1
10
109.481991252964
20
3.96103492195988
30
0
41
1
10
109.593131723383
20
3.97882692860196
30
0
41
1
10
109.630424484609
20
3.98335489800243
30
0
41
1
10
109.705500502264
20
3.98961331034417
30
0
41
1
10
109.743321691059
20
3.99112740703993
30
0
41
1
10
110.082972084451
20
4.00897659171278
30
0
41
1
10
110.384880695539
20
4.02476797916074
30
0
41
1
10
111.290611706744
20
4.07223533008573
30
0
41
1
10
111.894432380878
20
4.10388023070232
30
0
41
1
10
112.498253055014
20
4.13552513131896
30
0
0
SPLINE
5
279
100
AcDbEntity
8
1
62
256
6
ByLayer
370
13
48
1
60
0
100
AcDbSpline
70
4
71
3
72
26
73
22
40
0
40
0
40
0
40
0
40
0.100758089065777
40
0.100758089065777
40
0.190682280159157
40
0.190682280159157
40
0.280606471252538
40
0.280606471252538
40
0.370530662345919
40
0.370530662345919
40
0.415492757892609
40
0.415492757892609
40
0.4604548534393
40
0.4604548534393
40
0.505416948985991
40
0.505416948985991
40
0.550379044532682
40
0.550379044532682
40
0.640303235626145
40
0.640303235626145
40
1
40
1
40
1
40
1
41
1
10
107.078360999001
20
10.8278661731619
30
0
41
1
10
107.090977674484
20
10.8323001631232
30
0
41
1
10
107.10447495553
20
10.8365189306685
30
0
41
1
10
107.132062514685
20
10.8439094389552
30
0
41
1
10
107.145731279159
20
10.8470423296402
30
0
41
1
10
107.174285916325
20
10.8522773145538
30
0
41
1
10
107.189223449003
20
10.8543412112013
30
0
41
1
10
107.218534302362
20
10.8572519444569
30
0
41
1
10
107.233220982518
20
10.8581833629876
30
0
41
1
10
107.254769922032
20
10.8591414000728
30
0
41
1
10
107.261893800966
20
10.8593881785932
30
0
41
1
10
107.276025158127
20
10.8597388127594
30
0
41
1
10
107.283013702303
20
10.8598024886207
30
0
41
1
10
107.297389093935
20
10.8605116397677
30
0
41
1
10
107.304843520054
20
10.8612827780884
30
0
41
1
10
107.319585290222
20
10.8625641167114
30
0
41
1
10
107.32679216693
20
10.8629486478228
30
0
41
1
10
107.348369291977
20
10.8640342976015
30
0
41
1
10
107.362743543442
20
10.8647416681063
30
0
41
1
10
107.434227633041
20
10.8676738658694
30
0
41
1
10
107.48974354636
20
10.8681431797928
30
0
41
1
10
107.545137384679
20
10.8686016463518
30
0
0
SPLINE
5
27A
100
AcDbEntity
8
1
62
256
6
ByLayer
370
13
48
1
60
0
100
AcDbSpline
70
4
71
3
72
8
73
4
40
0
40
0
40
0
40
0
40
1
40
1
40
1
40
1
41
1
10
116.916103334469
20
3.5674270273592
30
0
41
1
10
116.864692395766
20
3.56548938627714
30
0
41
1
10
116.815725959849
20
3.56526764148572
30
0
41
1
10
116.766856763138
20
3.56506968618112
30
0
0
SPLINE
5
27B
100
AcDbEntity
8
1
62
256
6
ByLayer
370
13
48
1
60
0
100
AcDbSpline
70
4
71
1
72
4
73
2
40
0
40
0
40
1
40
1
41
1
10
106.72764025445
20
6.94170167501463
30
0
41
1
10
106.598245351682
20
6.92942573599243
30
0
0
SPLINE
5
27C
100
AcDbEntity
8
1
62
256
6
ByLayer
370
13
48
1
60
0
100
AcDbSpline
70
4
71
3
72
22
73
18
40
0
40
0
40
0
40
0
40
0.125000000000005
40
0.125000000000005
40
0.25000000000001
40
0.25000000000001
40
0.500000000000021
40
0.500000000000021
40
0.625000000000026
40
0.625000000000026
40
0.750000000000031
40
0.750000000000031
40
0.812500000000034
40
0.812500000000034
40
0.875000000000037
40
0.875000000000037
40
1
40
1
40
1
40
1
41
1
10
117.41603497047
20
11.0173804685469
30
0
41
1
10
117.410052592832
20
11.0584390028118
30
0
41
1
10
117.400032248453
20
11.0983059169721
30
0
41
1
10
117.371164232537
20
11.1754347658113
30
0
41
1
10
117.352196663581
20
11.2125790134771
30
0
41
1
10
117.28595784888
20
11.3157987789097
30
0
41
1
10
117.226753761221
20
11.3757339269622
30
0
41
1
10
117.125051230379
20
11.4440551624654
30
0
41
1
10
117.088231365659
20
11.4635594695729
30
0
41
1
10
117.012189593635
20
11.4942611300975
30
0
41
1
10
116.973058239751
20
11.5058206545467
30
0
41
1
10
116.912604304288
20
11.5171616021957
30
0
41
1
10
116.892055384261
20
11.5198932829708
30
0
41
1
10
116.850959067382
20
11.5233817197056
30
0
41
1
10
116.830395745431
20
11.5237863295182
30
0
41
1
10
116.768699020438
20
11.5244030282288
30
0
41
1
10
116.727568065001
20
11.5248313487694
30
0
41
1
10
116.68643236679
20
11.5248406726323
30
0
0
SPLINE
5
27D
100
AcDbEntity
8
1
62
256
6
ByLayer
370
13
48
1
60
0
100
AcDbSpline
70
4
71
3
72
18
73
14
40
0
40
0
40
0
40
0
40
0.125000000000001
40
0.125000000000001
40
0.187500000000002
40
0.187500000000002
40
0.218749999999996
40
0.218749999999996
40
0.249999999999991
40
0.249999999999991
40
0.499999999999994
40
0.499999999999994
40
1
40
1
40
1
40
1
41
1
10
108.896993501152
20
3.78396602621422
30
0
41
1
10
109.024812164238
20
3.87273619872332
30
0
41
1
10
109.16224154154
20
3.94082466745147
30
0
41
1
10
109.38244419803
20
4.01270409294492
30
0
41
1
10
109.45818008511
20
4.03144862098151
30
0
41
1
10
109.571390016622
20
4.05088986393253
30
0
41
1
10
109.609226773969
20
4.05596365773718
30
0
41
1
10
109.685098050678
20
4.0633326382719
30
0
41
1
10
109.723163542178
20
4.06519265850645
30
0
41
1
10
110.065674546398
20
4.08303465167648
30
0
41
1
10
110.370114336205
20
4.09909703300974
30
0
41
1
10
111.283456545569
20
4.14696326992797
30
0
41
1
10
111.892351351811
20
4.17887409454011
30
0
41
1
10
112.501246158054
20
4.21078491915227
30
0
0
SPLINE
5
27E
100
AcDbEntity
8
1
62
256
6
ByLayer
370
13
48
1
60
0
100
AcDbSpline
70
4
71
3
72
18
73
14
40
0
40
0
40
0
40
0
40
0.499999999999982
40
0.499999999999982
40
0.749999999999973
40
0.749999999999973
40
0.81249999999997
40
0.81249999999997
40
0.843749999999975
40
0.843749999999975
40
0.87499999999998
40
0.87499999999998
40
1
40
1
40
1
40
1
41
1
10
112.501246158054
20
4.21078491915233
30
0
41
1
10
113.060893797525
20
4.24011480911798
30
0
41
1
10
113.62054267843
20
4.2694209525132
30
0
41
1
10
114.460013800468
20
4.31342227857397
30
0
41
1
10
114.739834100013
20
4.32815464332592
30
0
41
1
10
115.089616030132
20
4.34644456423709
30
0
41
1
10
115.159574407903
20
4.35006440838464
30
0
41
1
10
115.264505991799
20
4.35560873867493
30
0
41
1
10
115.299518911794
20
4.35776139629985
30
0
41
1
10
115.369458355401
20
4.35927919520151
30
0
41
1
10
115.404255551088
20
4.35878961987996
30
0
41
1
10
115.577480023022
20
4.35083114774284
30
0
41
1
10
115.71364840489
20
4.32701589891823
30
0
41
1
10
115.847238102077
20
4.28454015498568
30
0
0
SPLINE
5
27F
100
AcDbEntity
8
1
62
256
6
ByLayer
370
13
48
1
60
0
100
AcDbSpline
70
4
71
3
72
10
73
6
40
0
40
0
40
0
40
0
40
0.5
40
0.5
40
1
40
1
40
1
40
1
41
1
10
108.82604323486
20
3.68085556660498
30
0
41
1
10
108.8223610763
20
3.68066259285192
30
0
41
1
10
108.801991009857
20
3.68086861206712
30
0
41
1
10
108.740644021774
20
3.68184690786475
30
0
41
1
10
108.699738376685
20
3.68260613174084
30
0
41
1
10
108.660476436228
20
3.68338061978031
30
0
0
SPLINE
5
280
100
AcDbEntity
8
1
62
256
6
ByLayer
370
13
48
1
60
0
100
AcDbSpline
70
4
71
3
72
18
73
14
40
0
40
0
40
0
40
0
40
0.0690721630960384
40
0.0690721630960384
40
0.138144326192077
40
0.138144326192077
40
0.276288652384152
40
0.276288652384152
40
0.414432978576227
40
0.414432978576227
40
0.552577304768302
40
0.552577304768302
40
1
40
1
40
1
40
1
41
1
10
117.496198038842
20
3.97255666459816
30
0
41
1
10
117.495290037624
20
3.96014289665584
30
0
41
1
10
117.49411839378
20
3.94673757555154
30
0
41
1
10
117.491122789385
20
3.91985287226623
30
0
41
1
10
117.489297513883
20
3.90656338601661
30
0
41
1
10
117.483700982106
20
3.87092989013559
30
0
41
1
10
117.479977099306
20
3.8529070825285
30
0
41
1
10
117.47293681673
20
3.82265832315486
30
0
41
1
10
117.469580659694
20
3.81043206812674
30
0
41
1
10
117.463133208307
20
3.78905433897233
30
0
41
1
10
117.460016270889
20
3.77987710372909
30
0
41
1
10
117.447155642657
20
3.74499841941983
30
0
41
1
10
117.438108252996
20
3.72732513039315
30
0
41
1
10
117.429497764864
20
3.71405995527547
30
0
0
SPLINE
5
281
100
AcDbEntity
8
1
62
256
6
ByLayer
370
13
48
1
60
0
100
AcDbSpline
70
4
71
3
72
10
73
6
40
0
40
0
40
0
40
0
40
0.283552140828668
40
0.283552140828668
40
1
40
1
40
1
40
1
41
1
10
117.405211675166
20
3.68544494723039
30
0
41
1
10
117.401334417631
20
3.68220769689995
30
0
41
1
10
117.397524969534
20
3.67961732687223
30
0
41
1
10
117.384279009142
20
3.67218516365517
30
0
41
1
10
117.375134616506
20
3.67001917967468
30
0
41
1
10
117.36622465611
20
3.6699956058136
30
0
0
SPLINE
5
282
100
AcDbEntity
8
1
62
256
6
ByLayer
370
13
48
1
60
0
100
AcDbSpline
70
4
71
3
72
11
73
7
40
0
40
0
40
0
40
0
40
0.25
40
0.5
40
0.75
40
1
40
1
40
1
40
1
41
1
10
107.391050390156
20
11.0443050587253
30
0
41
1
10
107.404198947462
20
11.0454678501156
30
0
41
1
10
107.430519218597
20
11.047533746282
30
0
41
1
10
107.470051903431
20
11.0498472603845
30
0
41
1
10
107.509575921809
20
11.0522873183521
30
0
41
1
10
107.535926230253
20
11.0538999632294
30
0
41
1
10
107.549101384595
20
11.0547062856754
30
0
0
SPLINE
5
283
100
AcDbEntity
8
1
62
256
6
ByLayer
370
13
48
1
60
0
100
AcDbSpline
70
4
71
3
72
14
73
10
40
0
40
0
40
0
40
0
40
0.248695977282477
40
0.248695977282477
40
0.496731428084383
40
0.496731428084383
40
0.748365550121238
40
0.748365550121238
40
1
40
1
40
1
40
1
41
1
10
107.545137384679
20
10.8686016463517
30
0
41
1
10
107.5589690821
20
10.8692006985442
30
0
41
1
10
107.572616629808
20
10.8695345819003
30
0
41
1
10
107.599321187017
20
10.8697330853744
30
0
41
1
10
107.612446259254
20
10.8696420145579
30
0
41
1
10
107.639006013946
20
10.8695664620819
30
0
41
1
10
107.652418249755
20
10.8695588436428
30
0
41
1
10
107.679225535558
20
10.869529439721
30
0
41
1
10
107.692622704389
20
10.8695093030168
30
0
41
1
10
107.706019856657
20
10.8694891580826
30
0
0
SPLINE
5
284
100
AcDbEntity
8
1
62
256
6
ByLayer
370
13
48
1
60
0
100
AcDbSpline
70
4
71
3
72
8
73
4
40
0
40
0
40
0
40
0
40
1
40
1
40
1
40
1
41
1
10
117.94994923133
20
7.59697322245216
30
0
41
1
10
117.950327110991
20
7.5682225667496
30
0
41
1
10
117.948637426473
20
7.53937145868485
30
0
41
1
10
117.944906286435
20
7.51086540775415
30
0
0
SPLINE
5
285
100
AcDbEntity
8
1
62
256
6
ByLayer
370
13
48
1
60
0
100
AcDbSpline
70
4
71
3
72
11
73
7
40
0
40
0
40
0
40
0
40
0.25
40
0.5
40
0.75
40
1
40
1
40
1
40
1
41
1
10
108.135474549297
20
2.92893934263779
30
0
41
1
10
108.148672622227
20
2.9291573196297
30
0
41
1
10
108.175064653115
20
2.92985395815324
30
0
41
1
10
108.214622601839
20
2.93168540851758
30
0
41
1
10
108.254185159018
20
2.93339010234607
30
0
41
1
10
108.280559685006
20
2.93454064895443
30
0
41
1
10
108.293746948121
20
2.93511592226386
30
0
0
SPLINE
5
286
100
AcDbEntity
8
1
62
256
6
ByLayer
370
13
48
1
60
0
100
AcDbSpline
70
4
71
2
72
6
73
3
40
0
40
0
40
0
40
1
40
1
40
1
41
1
10
106.722599495106
20
6.85553434688651
30
0
41
0.997409491337352
10
106.723173157089
20
6.81226674661925
30
0
41
1
10
106.729923029172
20
6.76952679326516
30
0
0
SPLINE
5
287
100
AcDbEntity
8
1
62
256
6
ByLayer
370
13
48
1
60
0
100
AcDbSpline
70
4
71
3
72
12
73
8
40
0
40
0
40
0
40
0
40
0.0360142839896281
40
0.0360142839896281
40
0.659819209740453
40
0.659819209740453
40
1
40
1
40
1
40
1
41
1
10
117.307336565243
20
3.5932545766241
30
0
41
1
10
117.305473885231
20
3.59126491180413
30
0
41
1
10
117.303598946077
20
3.58928943419485
30
0
41
1
10
117.269030212144
20
3.55336371785614
30
0
41
1
10
117.232867683966
20
3.52330744963686
30
0
41
1
10
117.1709534529
20
3.48363314565043
30
0
41
1
10
117.148384478871
20
3.47114214987326
30
0
41
1
10
117.125185175237
20
3.46013962964375
30
0
0
SPLINE
5
288
100
AcDbEntity
8
1
62
256
6
ByLayer
370
13
48
1
60
0
100
AcDbSpline
70
4
71
3
72
8
73
4
40
0
40
0
40
0
40
0
40
1
40
1
40
1
40
1
41
1
10
116.68643236679
20
11.5248406726323
30
0
41
1
10
116.63665027932
20
11.5248519562955
30
0
41
1
10
116.586863247179
20
11.524426406968
30
0
41
1
10
116.537071991588
20
11.523627740131
30
0
0
SPLINE
5
289
100
AcDbEntity
8
1
62
256
6
ByLayer
370
13
48
1
60
0
100
AcDbSpline
70
4
71
1
72
4
73
2
40
0
40
0
40
1
40
1
41
1
10
107.256511570416
20
3.43518661422192
30
0
41
1
10
107.226480391294
20
3.43434356882634
30
0
0
SPLINE
5
28A
100
AcDbEntity
8
1
62
256
6
ByLayer
370
13
48
1
60
0
100
AcDbSpline
70
4
71
3
72
8
73
4
40
0
40
0
40
0
40
0
40
1
40
1
40
1
40
1
41
1
10
106.595103169658
20
6.81114314999894
30
0
41
1
10
106.597051914946
20
6.79764543841304
30
0
41
1
10
106.59943618867
20
6.78281130637859
30
0
41
1
10
106.602593248112
20
6.76595234867978
30
0
0
SPLINE
5
28B
100
AcDbEntity
8
1
62
256
6
ByLayer
370
13
48
1
60
0
100
AcDbSpline
70
4
71
3
72
20
73
16
40
0
40
0
40
0
40
0
40
0.0479988698163029
40
0.0479988698163029
40
0.095997739632606
40
0.095997739632606
40
0.191995479265202
40
0.191995479265202
40
0.287993218897799
40
0.287993218897799
40
0.383990958530395
40
0.383990958530395
40
0.767981917060768
40
0.767981917060768
40
1
40
1
40
1
40
1
41
1
10
107.226480391294
20
3.43434356882634
30
0
41
1
10
107.228681010473
20
3.42209271677567
30
0
41
1
10
107.231247473544
20
3.40888330155343
30
0
41
1
10
107.237036884425
20
3.38245900140973
30
0
41
1
10
107.240241290451
20
3.36943310959958
30
0
41
1
10
107.249531878407
20
3.33457981460364
30
0
41
1
10
107.25511925777
20
3.31704498956887
30
0
41
1
10
107.265282829275
20
3.28769784598276
30
0
41
1
10
107.269898592581
20
3.2758893815963
30
0
41
1
10
107.278545305332
20
3.25530270406452
30
0
41
1
10
107.282604450137
20
3.24650155135458
30
0
41
1
10
107.301991974595
20
3.20717053192459
30
0
41
1
10
107.314888732194
20
3.18919888703445
30
0
41
1
10
107.333857830551
20
3.16839117085712
30
0
41
1
10
107.340576190112
20
3.16261174320448
30
0
41
1
10
107.346979763169
20
3.15831528091198
30
0
0
SPLINE
5
28C
100
AcDbEntity
8
1
62
256
6
ByLayer
370
13
48
1
60
0
100
AcDbSpline
70
4
71
1
72
4
73
2
40
0
40
0
40
1
40
1
41
1
10
107.391050390156
20
11.0443050587253
30
0
41
1
10
107.545137384679
20
10.8686016463517
30
0
0
SPLINE
5
28D
100
AcDbEntity
8
1
62
256
6
ByLayer
370
13
48
1
60
0
100
AcDbSpline
70
4
71
3
72
16
73
12
40
0
40
0
40
0
40
0
40
0.499999999999994
40
0.499999999999994
40
0.749999999999991
40
0.749999999999991
40
0.81249999999999
40
0.81249999999999
40
0.874999999999989
40
0.874999999999989
40
1
40
1
40
1
40
1
41
1
10
112.174293485871
20
10.3170419514498
30
0
41
1
10
111.621193502622
20
10.2880552096062
30
0
41
1
10
111.068092351094
20
10.259090762108
30
0
41
1
10
110.238442592432
20
10.215606523391
30
0
41
1
10
109.961895016978
20
10.2010520237927
30
0
41
1
10
109.61620697587
20
10.1829638821873
30
0
41
1
10
109.547068470404
20
10.1793738357186
30
0
41
1
10
109.408793883963
20
10.1721192124088
30
0
41
1
10
109.339682524479
20
10.1676946811845
30
0
41
1
10
109.131723965091
20
10.1736180290819
30
0
41
1
10
108.992448946755
20
10.1961039065062
30
0
41
1
10
108.854739094069
20
10.2398896816284
30
0
0
SPLINE
5
28E
100
AcDbEntity
8
1
62
256
6
ByLayer
370
13
48
1
60
0
100
AcDbSpline
70
4
71
3
72
10
73
6
40
0
40
0
40
0
40
0
40
0.470496236631988
40
0.470496236631988
40
1
40
1
40
1
40
1
41
1
10
115.836669655302
20
10.7711493314906
30
0
41
1
10
115.83668657636
20
10.7709029699096
30
0
41
1
10
115.849619611509
20
10.7703676133758
30
0
41
1
10
115.897941243157
20
10.7689403398497
30
0
41
1
10
115.935910565493
20
10.7680272298189
30
0
41
1
10
115.975172505951
20
10.7672527417794
30
0
0
SPLINE
5
28F
100
AcDbEntity
8
SK1
62
256
6
ByLayer
370
13
48
1
60
0
100
AcDbSpline
70
4
71
3
72
8
73
4
40
0
40
0
40
0
40
0
40
1
40
1
40
1
40
1
41
1
10
-56
20
4.99865085022955
30
0
41
1
10
-55.7014870272612
20
5.68522191153457
30
0
41
1
10
-55.3636283470437
20
6.34927205836655
30
0
41
1
10
-55
20
6.99857202024106
30
0
0
SPLINE
5
290
100
AcDbEntity
8
SK1
62
256
6
ByLayer
370
13
48
1
60
0
100
AcDbSpline
70
4
71
3
72
71
73
67
40
0
40
0
40
0
40
0
40
0.0312500000000003
40
0.0312500000000003
40
0.0468750000000004
40
0.0468750000000004
40
0.0625000000000005
40
0.0625000000000005
40
0.0781250000000005
40
0.0781250000000005
40
0.0937500000000006
40
0.0937500000000006
40
0.125000000000001
40
0.125000000000001
40
0.140625000000001
40
0.140625000000001
40
0.156250000000001
40
0.156250000000001
40
0.187500000000001
40
0.187500000000001
40
0.218750000000001
40
0.218750000000001
40
0.250000000000001
40
0.250000000000001
40
0.312500000000001
40
0.312500000000001
40
0.375000000000002
40
0.375000000000002
40
0.406250000000002
40
0.406250000000002
40
0.437500000000002
40
0.437500000000002
40
0.500000000000002
40
0.562500000000002
40
0.562500000000002
40
0.593750000000002
40
0.593750000000002
40
0.625000000000002
40
0.625000000000002
40
0.687500000000002
40
0.687500000000002
40
0.750000000000002
40
0.750000000000002
40
0.781250000000002
40
0.781250000000002
40
0.812500000000001
40
0.812500000000001
40
0.843750000000001
40
0.843750000000001
40
0.859375000000001
40
0.859375000000001
40
0.875000000000001
40
0.875000000000001
40
0.906250000000001
40
0.906250000000001
40
0.921875000000001
40
0.921875000000001
40
0.937500000000001
40
0.937500000000001
40
0.953125
40
0.953125
40
0.96875
40
0.96875
40
0.984375
40
0.984375
40
1
40
1
40
1
40
1
41
1
10
-6.50000000009538
20
6.998572020241
30
0
41
1
10
-6.31571533004515
20
6.99857202024967
30
0
41
1
10
-6.13743573179397
20
6.97387109270571
30
0
41
1
10
-5.87807007883168
20
6.90321966844968
30
0
41
1
10
-5.79249754001009
20
6.87371201184882
30
0
41
1
10
-5.6293361169906
20
6.80569256211214
30
0
41
1
10
-5.55109427743696
20
6.76707109549224
30
0
41
1
10
-5.40055384552451
20
6.68141826816264
30
0
41
1
10
-5.32815416062539
20
6.63430399969613
30
0
41
1
10
-5.18925210594989
20
6.53244521628065
30
0
41
1
10
-5.12377844902809
20
6.47848470758717
30
0
41
1
10
-4.93748624451072
20
6.3085827822143
30
0
41
1
10
-4.8267115899061
20
6.1846770027818
30
0
41
1
10
-4.6761911608582
20
5.98533103669445
30
0
41
1
10
-4.62855056556253
20
5.91642308507087
30
0
41
1
10
-4.53922153852642
20
5.77634068999626
30
0
41
1
10
-4.49736020419419
20
5.70496414000004
30
0
41
1
10
-4.37902027112833
20
5.48717552116739
30
0
41
1
10
-4.30973548429904
20
5.33712034908373
30
0
41
1
10
-4.18597550641348
20
5.02855833309758
30
0
41
1
10
-4.13152858900258
20
4.87004242457732
30
0
41
1
10
-4.03445407647325
20
4.54538526361949
30
0
41
1
10
-3.99218870828807
20
4.38036541349672
30
0
41
1
10
-3.8806630298719
20
3.8815043831257
30
0
41
1
10
-3.82597090267365
20
3.54235643247728
30
0
41
1
10
-3.74047959020675
20
2.85273429591121
30
0
41
1
10
-3.70981920131712
20
2.50224542423098
30
0
41
1
10
-3.67535340381019
20
1.96866904162033
30
0
41
1
10
-3.66582822790039
20
1.78937635765021
30
0
41
1
10
-3.65011537208733
20
1.4316899722499
30
0
41
1
10
-3.64389707389739
20
1.25286356942047
30
0
41
1
10
-3.62929622079273
20
0.716432949039586
30
0
41
1
10
-3.62042488526302
20
0.0013212454733491
30
0
41
1
10
-3.62924953065914
20
-0.713539660438329
30
0
41
1
10
-3.64379211765163
20
-1.24958871665936
30
0
41
1
10
-3.64998697783565
20
-1.42825557634492
30
0
41
1
10
-3.66563837164477
20
-1.78555583380015
30
0
41
1
10
-3.67511786137808
20
-1.96455406997464
30
0
41
1
10
-3.70953832715443
20
-2.49881887149942
30
0
41
1
10
-3.74017720125841
20
-2.84981522124173
30
0
41
1
10
-3.82568979373829
20
-3.54056541591115
30
0
41
1
10
-3.88042216361382
20
-3.88033387025806
30
0
41
1
10
-3.99214803643076
20
-4.3802299370825
30
0
41
1
10
-4.03457139272209
20
-4.54577117988887
30
0
41
1
10
-4.13137165046336
20
-4.86952399241147
30
0
41
1
10
-4.18572933619737
20
-5.02789660502796
30
0
41
1
10
-4.30959364920602
20
-5.33681454089182
30
0
41
1
10
-4.37906730976638
20
-5.48736926922894
30
0
41
1
10
-4.49817195127201
20
-5.70640389482426
30
0
41
1
10
-4.54042880204571
20
-5.77832989383157
30
0
41
1
10
-4.62961647910464
20
-5.917996111653
30
0
41
1
10
-4.67665158712001
20
-5.98594616406356
30
0
41
1
10
-4.82600204453692
20
-6.18372658725997
30
0
41
1
10
-4.9364153318723
20
-6.30756945151506
30
0
41
1
10
-5.12387444002081
20
-6.47859050811525
30
0
41
1
10
-5.18982034314945
20
-6.53284983481481
30
0
41
1
10
-5.32716069139138
20
-6.63358751533818
30
0
41
1
10
-5.39883736540122
20
-6.68033932325883
30
0
41
1
10
-5.54894893429449
20
-6.76595018463183
30
0
41
1
10
-5.62776164553696
20
-6.80497288448146
30
0
41
1
10
-5.79153203652811
20
-6.87337183942776
30
0
41
1
10
-5.87542610285047
20
-6.90235315140345
30
0
41
1
10
-6.04744974985599
20
-6.94949997275469
30
0
41
1
10
-6.13557688289623
20
-6.9676718536326
30
0
41
1
10
-6.31646604914351
20
-6.99230795215647
30
0
41
1
10
-6.40810473763941
20
-6.99857202024529
30
0
41
1
10
-6.50000000009538
20
-6.99857202024097
30
0
0
SPLINE
5
291
100
AcDbEntity
8
SK1
62
256
6
ByLayer
370
13
48
1
60
0
100
AcDbSpline
70
4
71
3
72
8
73
4
40
0
40
0
40
0
40
0
40
1
40
1
40
1
40
1
41
1
10
-54.6000398733642
20
6.99857202024106
30
0
41
1
10
-54.571876118047
20
6.93646953235279
30
0
41
1
10
-54.5439344142792
20
6.87428937670879
30
0
41
1
10
-54.5162221138915
20
6.81202898183318
30
0
0
SPLINE
5
292
100
AcDbEntity
8
SK1
62
256
6
ByLayer
370
13
48
1
60
0
100
AcDbSpline
70
4
71
3
72
8
73
4
40
0
40
0
40
0
40
0
40
1
40
1
40
1
40
1
41
1
10
-53.6338131992802
20
6.34032812085854
30
0
41
1
10
-53.2931973263098
20
6.56512996075952
30
0
41
1
10
-52.9482491695224
20
6.7841493260708
30
0
41
1
10
-52.5998571439059
20
6.99857202024131
30
0
0
SPLINE
5
293
100
AcDbEntity
8
SK1
62
256
6
ByLayer
370
13
48
1
60
0
100
AcDbSpline
70
4
71
3
72
8
73
4
40
0
40
0
40
0
40
0
40
1
40
1
40
1
40
1
41
1
10
-54.5162221138915
20
-6.81202898183307
30
0
41
1
10
-54.5439351414378
20
-6.87429101039413
30
0
41
1
10
-54.5718768490337
20
-6.93647114421498
30
0
41
1
10
-54.6000398733642
20
-6.99857202024091
30
0
0
SPLINE
5
294
100
AcDbEntity
8
1
62
256
6
ByLayer
370
18
48
1
60
0
100
AcDbSpline
70
4
71
1
72
4
73
2
40
0
40
0
40
1
40
1
41
1
10
117.682503505795
20
-3.11550296680315
30
0
41
1
10
117.992648177156
20
-3.4032517532996
30
0
0
SPLINE
5
295
100
AcDbEntity
8
1
62
256
6
ByLayer
370
18
48
1
60
0
100
AcDbSpline
70
4
71
2
72
6
73
3
40
0
40
0
40
0
40
1
40
1
40
1
41
1
10
116.784582439775
20
-6.84717480788785
30
0
41
1
10
116.820828203871
20
-6.84147327664414
30
0
41
1
10
116.856104174241
20
-6.8314271848445
30
0
0
SPLINE
5
296
100
AcDbEntity
8
1
62
256
6
ByLayer
370
18
48
1
60
0
100
AcDbSpline
70
4
71
2
72
6
73
3
40
0
40
0
40
0
40
1
40
1
40
1
41
1
10
117.182226087128
20
0.0215374999853282
30
0
41
1
10
117.176485322077
20
0.0575355515082947
30
0
41
1
10
117.166370100332
20
0.0925704371642553
30
0
0
SPLINE
5
297
100
AcDbEntity
8
1
62
256
6
ByLayer
370
18
48
1
60
0
100
AcDbSpline
70
4
71
2
72
12
73
9
40
0
40
0
40
0
40
0.25
40
0.5
40
0.5
40
0.75
40
0.75
40
0.875
40
1
40
1
40
1
41
1
10
117.008341145996
20
-6.78807227279259
30
0
41
1
10
117.056825266144
20
-6.77426468886145
30
0
41
1
10
117.142555244764
20
-6.72022457619801
30
0
41
1
10
117.176820771628
20
-6.68105914443936
30
0
41
1
10
117.209591110728
20
-6.64360270943939
30
0
41
1
10
117.231157804887
20
-6.59631709305523
30
0
41
1
10
117.241173749084
20
-6.57435683843551
30
0
41
1
10
117.255456730905
20
-6.52507958301041
30
0
41
1
10
117.258873772939
20
-6.49930195491504
30
0
0
SPLINE
5
298
100
AcDbEntity
8
1
62
256
6
ByLayer
370
18
48
1
60
0
100
AcDbSpline
70
4
71
1
72
4
73
2
40
0
40
0
40
1
40
1
41
1
10
117.992648177156
20
-3.4032517532996
30
0
41
1
10
117.974282064926
20
-3.28808517745492
30
0
0
SPLINE
5
299
100
AcDbEntity
8
1
62
256
6
ByLayer
370
18
48
1
60
0
100
AcDbSpline
70
4
71
1
72
4
73
2
40
0
40
0
40
1
40
1
41
1
10
117.946018303703
20
-3.94302305001989
30
0
41
1
10
117.97765705132
20
-3.70434531022718
30
0
0
SPLINE
5
29A
100
AcDbEntity
8
1
62
256
6
ByLayer
370
18
48
1
60
0
100
AcDbSpline
70
4
71
3
72
12
73
8
40
0
40
0
40
0
40
0
40
0.125000000053594
40
0.249999999840241
40
0.499999999470851
40
0.749999999387085
40
1
40
1
40
1
40
1
41
1
10
117.288650461474
20
-7.31719063126732
30
0
41
1
10
117.273401147236
20
-7.32153295733985
30
0
41
1
10
117.242902518794
20
-7.33021760947562
30
0
41
1
10
117.181905260295
20
-7.34758812233977
30
0
41
1
10
117.105658686711
20
-7.36930157095006
30
0
41
1
10
117.014162802643
20
-7.39535479194347
30
0
41
1
10
116.953165546551
20
-7.41272377725136
30
0
41
1
10
116.922666918462
20
-7.42140826991741
30
0
0
SPLINE
5
29B
100
AcDbEntity
8
1
62
256
6
ByLayer
370
18
48
1
60
0
100
AcDbSpline
70
4
71
1
72
4
73
2
40
0
40
0
40
1
40
1
41
1
10
117.536940327409
20
-7.02904301399272
30
0
41
1
10
117.887182730184
20
-4.38686937026606
30
0
0
SPLINE
5
29C
100
AcDbEntity
8
1
62
256
6
ByLayer
370
18
48
1
60
0
100
AcDbSpline
70
4
71
1
72
4
73
2
40
0
40
0
40
1
40
1
41
1
10
117.872711299493
20
-2.65117535598691
30
0
41
1
10
117.482471296325
20
-0.204135701548381
30
0
0
SPLINE
5
29D
100
AcDbEntity
8
1
62
256
6
ByLayer
370
18
48
1
60
0
100
AcDbSpline
70
4
71
1
72
4
73
2
40
0
40
0
40
1
40
1
41
1
10
117.994902089622
20
-3.57425145143878
30
0
41
1
10
117.684757418257
20
-3.28650266494225
30
0
0
SPLINE
5
29E
100
AcDbEntity
8
1
62
256
6
ByLayer
370
18
48
1
60
0
100
AcDbSpline
70
4
71
1
72
4
73
2
40
0
40
0
40
1
40
1
41
1
10
116.856104174241
20
-6.83142718484447
30
0
41
1
10
116.922666934611
20
-7.42140149926186
30
0
0
SPLINE
5
29F
100
AcDbEntity
8
1
62
256
6
ByLayer
370
18
48
1
60
0
100
AcDbSpline
70
4
71
1
72
4
73
2
40
0
40
0
40
1
40
1
41
1
10
117.258873772939
20
-6.49930195491467
30
0
41
1
10
117.536940327409
20
-7.02904301399272
30
0
0
SPLINE
5
2A0
100
AcDbEntity
8
1
62
256
6
ByLayer
370
18
48
1
60
0
100
AcDbSpline
70
4
71
1
72
4
73
2
40
0
40
0
40
1
40
1
41
1
10
117.362314323318
20
0.228152106750457
30
0
41
1
10
117.122716851147
20
0.243766983642359
30
0
0
SPLINE
5
2A1
100
AcDbEntity
8
1
62
256
6
ByLayer
370
18
48
1
60
0
100
AcDbSpline
70
4
71
1
72
4
73
2
40
0
40
0
40
1
40
1
41
1
10
117.939180077727
20
-3.06797459440312
30
0
41
1
10
117.872711299493
20
-2.65117535598691
30
0
0
SPLINE
5
2A2
100
AcDbEntity
8
1
62
256
6
ByLayer
370
18
48
1
60
0
100
AcDbSpline
70
4
71
3
72
12
73
8
40
0
40
0
40
0
40
0
40
0.499999999999969
40
0.499999999999969
40
0.749999999999985
40
0.749999999999985
40
1
40
1
40
1
40
1
41
1
10
117.536940327409
20
-7.02906284095963
30
0
41
1
10
117.528045752066
20
-7.09573652736395
30
0
41
1
10
117.49903125907
20
-7.15949591723861
30
0
41
1
10
117.43292352994
20
-7.23619521250299
30
0
41
1
10
117.407109911404
20
-7.2586727494843
30
0
41
1
10
117.350060868317
20
-7.29463753888115
30
0
41
1
10
117.318689951588
20
-7.30748968591988
30
0
41
1
10
117.286407700465
20
-7.31782925180457
30
0
0
SPLINE
5
2A3
100
AcDbEntity
8
1
62
256
6
ByLayer
370
18
48
1
60
0
100
AcDbSpline
70
4
71
1
72
4
73
2
40
0
40
0
40
1
40
1
41
1
10
117.887182730184
20
-4.38686937026606
30
0
41
1
10
117.946018303703
20
-3.94302305001989
30
0
0
SPLINE
5
2A4
100
AcDbEntity
8
1
62
256
6
ByLayer
370
18
48
1
60
0
100
AcDbSpline
70
4
71
3
72
8
73
4
40
0
40
0
40
0
40
0
40
1
40
1
40
1
40
1
41
1
10
117.993317187265
20
-3.4031647670995
30
0
41
1
10
117.997060006051
20
-3.43156096632165
30
0
41
1
10
117.999638871264
20
-3.46004098152352
30
0
41
1
10
118.000016230658
20
-3.48867046029019
30
0
0
SPLINE
5
2A5
100
AcDbEntity
8
1
62
256
6
ByLayer
370
18
48
1
60
0
100
AcDbSpline
70
4
71
1
72
4
73
2
40
0
40
0
40
1
40
1
41
1
10
117.071556897015
20
0.476972531534301
30
0
41
1
10
116.785277681279
20
0.514404326757671
30
0
0
SPLINE
5
2A6
100
AcDbEntity
8
1
62
256
6
ByLayer
370
18
48
1
60
0
100
AcDbSpline
70
4
71
3
72
24
73
20
40
0
40
0
40
0
40
0
40
0.0154283754704779
40
0.0470439295573004
40
0.110275037730946
40
0.236737254078236
40
0.363199470425526
40
0.48175779825111
40
0.489661686772816
40
0.505469463816227
40
0.521277240859639
40
0.552892794946461
40
0.616123903120106
40
0.742586119467396
40
0.869048335814687
40
0.932279443988332
40
0.963894998075154
40
0.995510552161977
40
1
40
1
40
1
40
1
41
1
10
116.889944514053
20
-6.42207166546774
30
0
41
1
10
116.910610871884
20
-6.39836400483932
30
0
41
1
10
116.961654325098
20
-6.31480089339024
30
0
41
1
10
116.972825512448
20
-6.07222813696146
30
0
41
1
10
117.05045667682
20
-5.59079773069715
30
0
41
1
10
117.135669614581
20
-4.89505707495866
30
0
41
1
10
117.245427144692
20
-4.08009398090479
30
0
41
1
10
117.319936689698
20
-3.52566348725475
30
0
41
1
10
117.361276497567
20
-3.21589286547297
30
0
41
1
10
117.3582013896
20
-3.13418804754011
30
0
41
1
10
117.328735679286
20
-2.99698172577919
30
0
41
1
10
117.294998382155
20
-2.75475448419203
30
0
41
1
10
117.214778174209
20
-2.2711360189567
30
0
41
1
10
117.106575367569
20
-1.58005190681092
30
0
41
1
10
116.99464660906
20
-0.889696875342281
30
0
41
1
10
116.920010370965
20
-0.4049731412087
30
0
41
1
10
116.871361197847
20
-0.130087812433175
30
0
41
1
10
116.856698605458
20
0.0160985917719074
30
0
41
1
10
116.819497635304
20
0.0786805614082198
30
0
41
1
10
116.814456170706
20
0.0861991057646776
30
0
0
SPLINE
5
2A7
100
AcDbEntity
8
1
62
256
6
ByLayer
370
18
48
1
60
0
100
AcDbSpline
70
4
71
3
72
9
73
5
40
0
40
0
40
0
40
0
40
0.487857806392414
40
1
40
1
40
1
40
1
41
1
10
117.466615309525
20
-0.133109530427276
30
0
41
1
10
117.469729876819
20
-0.144542238905473
30
0
41
1
10
117.476114047069
20
-0.167976748568691
30
0
41
1
10
117.480318181629
20
-0.191894039796921
30
0
41
1
10
117.482471296325
20
-0.204143093791714
30
0
0
SPLINE
5
2A8
100
AcDbEntity
8
1
62
256
6
ByLayer
370
18
48
1
60
0
100
AcDbSpline
70
4
71
3
72
8
73
4
40
0
40
0
40
0
40
0
40
1
40
1
40
1
40
1
41
1
10
118.000016230658
20
-3.48867046029019
30
0
41
1
10
118.000393649301
20
-3.51730443437086
30
0
41
1
10
117.998666439992
20
-3.54584833861543
30
0
41
1
10
117.995767837083
20
-3.57433833859642
30
0
0
SPLINE
5
2A9
100
AcDbEntity
8
1
62
256
6
ByLayer
370
18
48
1
60
0
100
AcDbSpline
70
4
71
2
72
6
73
3
40
0
40
0
40
0
40
1
40
1
40
1
41
1
10
117.684757418257
20
-3.28650266494219
30
0
41
1
10
117.696112656559
20
-3.2008405317178
30
0
41
1
10
117.682503505795
20
-3.11550296680321
30
0
0
SPLINE
5
2AA
100
AcDbEntity
8
1
62
256
6
ByLayer
370
18
48
1
60
0
100
AcDbSpline
70
4
71
3
72
12
73
8
40
0
40
0
40
0
40
0
40
0.124999999558944
40
0.249999999555709
40
0.499999999681548
40
0.749999999339132
40
1
40
1
40
1
40
1
41
1
10
117.361628199423
20
0.23051254064012
30
0
41
1
10
117.366002662463
20
0.215361697220715
30
0
41
1
10
117.374751588559
20
0.185060010328812
30
0
41
1
10
117.392249441244
20
0.124455422432561
30
0
41
1
10
117.414121757236
20
0.0486993775258782
30
0
41
1
10
117.440368535207
20
-0.0422049555901935
30
0
41
1
10
117.457866387186
20
-0.102808013909396
30
0
41
1
10
117.466615313192
20
-0.13310954312982
30
0
0
SPLINE
5
2AB
100
AcDbEntity
8
1
62
256
6
ByLayer
370
18
48
1
60
0
100
AcDbSpline
70
4
71
1
72
4
73
2
40
0
40
0
40
1
40
1
41
1
10
116.831959424842
20
0.492587408424839
30
0
41
1
10
117.071556897015
20
0.476972531534301
30
0
0
SPLINE
5
2AC
100
AcDbEntity
8
1
62
256
6
ByLayer
370
18
48
1
60
0
100
AcDbSpline
70
4
71
1
72
4
73
2
40
0
40
0
40
1
40
1
41
1
10
117.974282064926
20
-3.28808517745492
30
0
41
1
10
117.939180077727
20
-3.06797459440312
30
0
0
SPLINE
5
2AD
100
AcDbEntity
8
1
62
256
6
ByLayer
370
18
48
1
60
0
100
AcDbSpline
70
4
71
1
72
4
73
2
40
0
40
0
40
1
40
1
41
1
10
117.482471296325
20
-0.204135701548353
30
0
41
1
10
117.182226087128
20
0.0215374999853282
30
0
0
SPLINE
5
2AE
100
AcDbEntity
8
1
62
256
6
ByLayer
370
18
48
1
60
0
100
AcDbSpline
70
4
71
1
72
4
73
2
40
0
40
0
40
1
40
1
41
1
10
117.97765705132
20
-3.70434531022718
30
0
41
1
10
117.994902089622
20
-3.57425145143878
30
0
0
SPLINE
5
2AF
100
AcDbEntity
8
1
62
256
6
ByLayer
370
18
48
1
60
0
100
AcDbSpline
70
4
71
1
72
4
73
2
40
0
40
0
40
1
40
1
41
1
10
117.166370100332
20
0.0925704371642553
30
0
41
1
10
117.466615309525
20
-0.133102764370477
30
0
0
SPLINE
5
2B0
100
AcDbEntity
8
1
62
256
6
ByLayer
370
18
48
1
60
0
100
AcDbSpline
70
4
71
2
72
12
73
9
40
0
40
0
40
0
40
0.25
40
0.5
40
0.5
40
0.75
40
0.75
40
0.875
40
1
40
1
40
1
41
1
10
117.122716851147
20
0.243766983642359
30
0
41
1
10
117.10881425341
20
0.291919751280545
30
0
41
1
10
117.054402275781
20
0.377063829947474
30
0
41
1
10
117.014967335858
20
0.411095177691379
30
0
41
1
10
116.977253152765
20
0.443641556161595
30
0
41
1
10
116.92964215098
20
0.465060858177594
30
0
41
1
10
116.907530781773
20
0.475008350926544
30
0
41
1
10
116.857914435926
20
0.489193719304097
30
0
41
1
10
116.831959424842
20
0.492587408424782
30
0
0
SPLINE
5
2B1
100
AcDbEntity
8
1
62
256
6
ByLayer
370
18
48
1
60
0
100
AcDbSpline
70
4
71
1
72
4
73
2
40
0
40
0
40
1
40
1
41
1
10
116.851145200145
20
-7.43714912230601
30
0
41
1
10
116.784582439775
20
-6.84717480788788
30
0
0
SPLINE
5
2B2
100
AcDbEntity
8
1
62
256
6
ByLayer
370
18
48
1
60
0
100
AcDbSpline
70
4
71
3
72
25
73
21
40
0
40
0
40
0
40
0
40
0.0085552420460602
40
0.0386793518367668
40
0.0688034616274734
40
0.129051681208887
40
0.249548120371713
40
0.37004455953454
40
0.483009971249689
40
0.490540998697366
40
0.505603053592719
40
0.520665108488073
40
0.550789218278779
40
0.611037437860192
40
0.731533877023019
40
0.852030316185845
40
0.912278535767258
40
0.942402645557965
40
0.972526755348672
40
1
40
1
40
1
40
1
41
1
10
116.820408998989
20
-6.64999100791482
30
0
41
1
10
116.843369338128
20
-6.64243558517887
30
0
41
1
10
116.945817444306
20
-6.59930879822153
30
0
41
1
10
117.102452716409
20
-6.41988708427607
30
0
41
1
10
117.117188327864
20
-6.09991591413936
30
0
41
1
10
117.193955071955
20
-5.62384621848992
30
0
41
1
10
117.279394021845
20
-4.92626023467247
30
0
41
1
10
117.389039751076
20
-4.11212727583029
30
0
41
1
10
117.463560752935
20
-3.55761153097794
30
0
41
1
10
117.506523038326
20
-3.23568323608353
30
0
41
1
10
117.502520439768
20
-3.12933523467962
30
0
41
1
10
117.471536134406
20
-2.98505761416058
30
0
41
1
10
117.438264333831
20
-2.7461725474482
30
0
41
1
10
117.357846171595
20
-2.26136068777257
30
0
41
1
10
117.249683673798
20
-1.57053402551895
30
0
41
1
10
117.137783883803
20
-0.880357666268708
30
0
41
1
10
117.062990602422
20
-0.394614017273398
30
0
41
1
10
117.014999787681
20
-0.123448650165898
30
0
41
1
10
116.990041728968
20
0.125383804718723
30
0
41
1
10
116.844742250566
20
0.257070291714854
30
0
41
1
10
116.772306427552
20
0.294803409893376
30
0
0
SPLINE
5
2B3
100
AcDbEntity
8
1
62
256
6
ByLayer
370
18
48
1
60
0
100
AcDbSpline
70
4
71
3
72
12
73
8
40
0
40
0
40
0
40
0
40
0.5
40
0.5
40
0.75
40
0.75
40
1
40
1
40
1
40
1
41
1
10
117.071556897015
20
0.476952704567424
30
0
41
1
10
117.138689447833
20
0.468118980858037
30
0
41
1
10
117.202883454335
20
0.439298678962786
30
0
41
1
10
117.280115939522
20
0.373648110410954
30
0
41
1
10
117.302748443046
20
0.348011198947006
30
0
41
1
10
117.338961433077
20
0.291352755251552
30
0
41
1
10
117.351902818805
20
0.26019702920118
30
0
41
1
10
117.362314323318
20
0.228136186816926
30
0
0
SPLINE
5
2B4
100
AcDbEntity
8
1
62
256
6
ByLayer
370
18
48
1
60
0
100
AcDbSpline
70
4
71
1
72
4
73
2
40
0
40
0
40
1
40
1
41
1
10
117.286407700464
20
-7.31781333187075
30
0
41
1
10
117.008341145996
20
-6.78807227279256
30
0
0
SPLINE
5
2B5
100
AcDbEntity
8
1
62
256
6
ByLayer
370
18
48
1
60
0
100
AcDbSpline
70
4
71
3
72
14
73
10
40
0
40
0
40
0
40
0
40
0.125000000000029
40
0.125000000000029
40
0.250000000000057
40
0.250000000000057
40
0.500000000000023
40
0.500000000000023
40
1
40
1
40
1
40
1
41
1
10
111.442761073186
20
6.93782583846578
30
0
41
1
10
111.432260125149
20
6.93599026537495
30
0
41
1
10
111.421253848503
20
6.93733983638143
30
0
41
1
10
111.400425979739
20
6.94572594346118
30
0
41
1
10
111.390739668769
20
6.95257415407619
30
0
41
1
10
111.36475984232
20
6.97745946593059
30
0
41
1
10
111.351301806943
20
6.99961478640586
30
0
41
1
10
111.319983249125
20
7.06916445959254
30
0
41
1
10
111.309876404476
20
7.1208847672834
30
0
41
1
10
111.307179173245
20
7.17235100507699
30
0
0
SPLINE
5
2B6
100
AcDbEntity
8
1
62
256
6
ByLayer
370
18
48
1
60
0
100
AcDbSpline
70
4
71
3
72
8
73
4
40
0
40
0
40
0
40
0
40
1
40
1
40
1
40
1
41
1
10
111.707636509234
20
6.52829385874409
30
0
41
1
10
111.710970153613
20
6.53386880323578
30
0
41
1
10
111.714304069629
20
6.53944406944967
30
0
41
1
10
111.717638275342
20
6.54501967872309
30
0
0
SPLINE
5
2B7
100
AcDbEntity
8
1
62
256
6
ByLayer
370
18
48
1
60
0
100
AcDbSpline
70
4
71
3
72
14
73
10
40
0
40
0
40
0
40
0
40
0.125000000000002
40
0.125000000000002
40
0.250000000000004
40
0.250000000000004
40
0.500000000000024
40
0.500000000000024
40
1
40
1
40
1
40
1
41
1
10
111.638120458284
20
7.85473912890862
30
0
41
1
10
111.631553561368
20
7.86348838929001
30
0
41
1
10
111.627467667838
20
7.87424319886668
30
0
41
1
10
111.624724784024
20
7.89742964770284
30
0
41
1
10
111.625971538411
20
7.90964648958919
30
0
41
1
10
111.634903073506
20
7.94560506505977
30
0
41
1
10
111.647474096544
20
7.96877277591653
30
0
41
1
10
111.692210510871
20
8.03161116862336
30
0
41
1
10
111.731840597709
20
8.06641250756979
30
0
41
1
10
111.774872496686
20
8.09447151067982
30
0
0
SPLINE
5
2B8
100
AcDbEntity
8
1
62
256
6
ByLayer
370
18
48
1
60
0
100
AcDbSpline
70
4
71
3
72
14
73
10
40
0
40
0
40
0
40
0
40
0.499999999999965
40
0.499999999999965
40
0.74999999999999
40
0.74999999999999
40
0.874999999999995
40
0.874999999999995
40
1
40
1
40
1
40
1
41
1
10
112.804084910006
20
8.14841024767244
30
0
41
1
10
112.849835295098
20
8.12499213331424
30
0
41
1
10
112.892475082908
20
8.0945332576554
30
0
41
1
10
112.941676059763
20
8.03655071984829
30
0
41
1
10
112.95568456096
20
8.01481341946396
30
0
41
1
10
112.966242077918
20
7.97991958746275
30
0
41
1
10
112.967948013728
20
7.96770982691103
30
0
41
1
10
112.965630870272
20
7.94423523674749
30
0
41
1
10
112.961592895404
20
7.93319457544868
30
0
41
1
10
112.954784462949
20
7.923742565455
30
0
0
SPLINE
5
2B9
100
AcDbEntity
8
1
62
256
6
ByLayer
370
18
48
1
60
0
100
AcDbSpline
70
4
71
3
72
8
73
4
40
0
40
0
40
0
40
0
40
1
40
1
40
1
40
1
41
1
10
111.417503786089
20
7.41976358593445
30
0
41
1
10
111.423818781514
20
7.4193328330326
30
0
41
1
10
111.430134218331
20
7.41890205989196
30
0
41
1
10
111.436450125859
20
7.41847126517285
30
0
0
SPLINE
5
2BA
100
AcDbEntity
8
1
62
256
6
ByLayer
370
18
48
1
60
0
100
AcDbSpline
70
4
71
3
72
18
73
14
40
0
40
0
40
0
40
0
40
0.125000000000007
40
0.125000000000007
40
0.250000000000014
40
0.250000000000014
40
0.500000000000027
40
0.500000000000027
40
0.750000000000041
40
0.750000000000041
40
0.875000000000021
40
0.875000000000021
40
1
40
1
40
1
40
1
41
1
10
111.717638275342
20
6.54501967872309
30
0
41
1
10
111.727768042386
20
6.56195913235638
30
0
41
1
10
111.73104341843
20
6.58288450512762
30
0
41
1
10
111.730513759033
20
6.62565292143333
30
0
41
1
10
111.72663002816
20
6.64772291971079
30
0
41
1
10
111.708587714023
20
6.71297812773727
30
0
41
1
10
111.688103701768
20
6.75568257924542
30
0
41
1
10
111.637435416314
20
6.83401958319388
30
0
41
1
10
111.607229509985
20
6.86968531840461
30
0
41
1
10
111.556122363325
20
6.91133485972176
30
0
41
1
10
111.538022960931
20
6.92327099304345
30
0
41
1
10
111.500161870945
20
6.93975248201721
30
0
41
1
10
111.480412857549
20
6.94439849928435
30
0
41
1
10
111.461468538622
20
6.94109151153981
30
0
0
SPLINE
5
2BB
100
AcDbEntity
8
1
62
256
6
ByLayer
370
18
48
1
60
0
100
AcDbSpline
70
4
71
3
72
8
73
4
40
0
40
0
40
0
40
0
40
1
40
1
40
1
40
1
41
1
10
112.621343209237
20
6.33454848490919
30
0
41
1
10
112.61800836204
20
6.34053565635443
30
0
41
1
10
112.614673406779
20
6.34652317299387
30
0
41
1
10
112.611338336335
20
6.3525110577213
30
0
0
SPLINE
5
2BC
100
AcDbEntity
8
1
62
256
6
ByLayer
370
18
48
1
60
0
100
AcDbSpline
70
4
71
3
72
14
73
10
40
0
40
0
40
0
40
0
40
0.500000000000008
40
0.500000000000008
40
0.750000000000007
40
0.750000000000007
40
0.875000000000004
40
0.875000000000004
40
1
40
1
40
1
40
1
41
1
10
111.307179173245
20
7.17235100507699
30
0
41
1
10
111.304480688342
20
7.22384116436021
30
0
41
1
10
111.309115839711
20
7.2762943186689
30
0
41
1
10
111.333025256308
20
7.34880774132569
30
0
41
1
10
111.344081747932
20
7.37219895812228
30
0
41
1
10
111.367286737661
20
7.39963478750803
30
0
41
1
10
111.376314167614
20
7.4075502861771
30
0
41
1
10
111.396191285068
20
7.41804405900277
30
0
41
1
10
111.406866413878
20
7.42049159794436
30
0
41
1
10
111.417503786089
20
7.41976358593445
30
0
0
SPLINE
5
2BD
100
AcDbEntity
8
1
62
256
6
ByLayer
370
18
48
1
60
0
100
AcDbSpline
70
4
71
3
72
18
73
14
40
0
40
0
40
0
40
0
40
0.124999999999976
40
0.124999999999976
40
0.249999999999952
40
0.249999999999952
40
0.499999999999969
40
0.499999999999969
40
0.749999999999986
40
0.749999999999986
40
0.874999999999993
40
0.874999999999993
40
1
40
1
40
1
40
1
41
1
10
112.048962037371
20
8.09941423062085
30
0
41
1
10
112.056947268398
20
8.08110970045027
30
0
41
1
10
112.071927026811
20
8.06685865602694
30
0
41
1
10
112.106619478784
20
8.04431888851781
30
0
41
1
10
112.126559569406
20
8.03598006618654
30
0
41
1
10
112.189363021287
20
8.01739987356837
30
0
41
1
10
112.235570936406
20
8.01329093783625
30
0
41
1
10
112.328439014168
20
8.01815958371739
30
0
41
1
10
112.375138632621
20
8.02713939723816
30
0
41
1
10
112.439072217959
20
8.05236701613259
30
0
41
1
10
112.459439176309
20
8.0628082126172
30
0
41
1
10
112.495026910546
20
8.08909326244935
30
0
41
1
10
112.510323108047
20
8.10487242935031
30
0
41
1
10
112.518497406161
20
8.124021536594
30
0
0
SPLINE
5
2BE
100
AcDbEntity
8
1
62
256
6
ByLayer
370
18
48
1
60
0
100
AcDbSpline
70
4
71
3
72
8
73
4
40
0
40
0
40
0
40
0
40
1
40
1
40
1
40
1
41
1
10
112.041077762946
20
8.1174879392899
30
0
41
1
10
112.04370561784
20
8.1114637159481
30
0
41
1
10
112.046333704183
20
8.10543915387842
30
0
41
1
10
112.048962037371
20
8.09941423062088
30
0
0
SPLINE
5
2BF
100
AcDbEntity
8
1
62
256
6
ByLayer
370
18
48
1
60
0
100
AcDbSpline
70
4
71
3
72
8
73
4
40
0
40
0
40
0
40
0
40
1
40
1
40
1
40
1
41
1
10
112.518497406161
20
8.124021536594
30
0
41
1
10
112.521188302351
20
8.13032522885075
30
0
41
1
10
112.523879122465
20
8.13662854299602
30
0
41
1
10
112.526569871189
20
8.14293150254238
30
0
0
SPLINE
5
2C0
100
AcDbEntity
8
1
62
256
6
ByLayer
370
18
48
1
60
0
100
AcDbSpline
70
4
71
3
72
14
73
10
40
0
40
0
40
0
40
0
40
0.499999999999934
40
0.499999999999934
40
0.749999999999967
40
0.749999999999967
40
0.874999999999984
40
0.874999999999984
40
1
40
1
40
1
40
1
41
1
10
112.897910676443
20
6.35810797345937
30
0
41
1
10
112.854858776254
20
6.3300359285343
30
0
41
1
10
112.807012359845
20
6.30801170003195
30
0
41
1
10
112.731045060435
20
6.29333109108535
30
0
41
1
10
112.704662431406
20
6.29160812028556
30
0
41
1
10
112.667789219146
20
6.29890309772995
30
0
41
1
10
112.655798181748
20
6.30313144783514
30
0
41
1
10
112.635277173528
20
6.31595708394508
30
0
41
1
10
112.626958586134
20
6.32446208610907
30
0
41
1
10
112.621343209237
20
6.33454848490919
30
0
0
SPLINE
5
2C1
100
AcDbEntity
8
1
62
256
6
ByLayer
370
18
48
1
60
0
100
AcDbSpline
70
4
71
3
72
8
73
4
40
0
40
0
40
0
40
0
40
1
40
1
40
1
40
1
41
1
10
113.223850247846
20
7.0334540231693
30
0
41
1
10
113.230872892631
20
7.03306026698036
30
0
41
1
10
113.237895198367
20
7.03266653926994
30
0
41
1
10
113.244917186094
20
7.03227283826465
30
0
0
SPLINE
5
2C2
100
AcDbEntity
8
1
62
256
6
ByLayer
370
18
48
1
60
0
100
AcDbSpline
70
4
71
3
72
14
73
10
40
0
40
0
40
0
40
0
40
0.5
40
0.5
40
0.75
40
0.75
40
0.875
40
0.875
40
1
40
1
40
1
40
1
41
1
10
111.868698263123
20
6.30416923646675
30
0
41
1
10
111.822947878031
20
6.32758735082493
30
0
41
1
10
111.779927105401
20
6.35802625991542
30
0
41
1
10
111.728821524574
20
6.41590898165794
30
0
41
1
10
111.713934599239
20
6.4376002457839
30
0
41
1
10
111.701303278565
20
6.47238539433775
30
0
41
1
10
111.698758894999
20
6.48455121370449
30
0
41
1
10
111.69910201564
20
6.50792234971607
30
0
41
1
10
111.702019034873
20
6.5189042642194
30
0
41
1
10
111.707636509234
20
6.52829385874409
30
0
0
SPLINE
5
2C3
100
AcDbEntity
8
1
62
256
6
ByLayer
370
18
48
1
60
0
100
AcDbSpline
70
4
71
3
72
14
73
10
40
0
40
0
40
0
40
0
40
0.124999999999972
40
0.124999999999972
40
0.249999999999944
40
0.249999999999944
40
0.500000000000006
40
0.500000000000006
40
1
40
1
40
1
40
1
41
1
10
112.135851100994
20
6.30910492165674
30
0
41
1
10
112.132512412491
20
6.29855128981723
30
0
41
1
10
112.126159171976
20
6.28917577393128
30
0
41
1
10
112.109058799212
20
6.27442703351295
30
0
41
1
10
112.098539798673
20
6.26908010245921
30
0
41
1
10
112.064666785502
20
6.25806125637541
30
0
41
1
10
112.039077344248
20
6.25707190535312
30
0
41
1
10
111.963973371095
20
6.26383302557815
30
0
41
1
10
111.914427393331
20
6.28076200178319
30
0
41
1
10
111.868698263123
20
6.30416923646675
30
0
0
SPLINE
5
2C4
100
AcDbEntity
8
1
62
256
6
ByLayer
370
18
48
1
60
0
100
AcDbSpline
70
4
71
3
72
8
73
4
40
0
40
0
40
0
40
0
40
1
40
1
40
1
40
1
41
1
10
112.141802967545
20
6.32790375174818
30
0
41
1
10
112.139818808611
20
6.32163709802157
30
0
41
1
10
112.137834857415
20
6.31537082930652
30
0
41
1
10
112.135851100994
20
6.30910492165674
30
0
0
SPLINE
5
2C5
100
AcDbEntity
8
1
62
256
6
ByLayer
370
18
48
1
60
0
100
AcDbSpline
70
4
71
3
72
18
73
14
40
0
40
0
40
0
40
0
40
0.12500000000002
40
0.12500000000002
40
0.25000000000004
40
0.25000000000004
40
0.500000000000021
40
0.500000000000021
40
0.750000000000003
40
0.750000000000003
40
0.875000000000001
40
0.875000000000001
40
1
40
1
40
1
40
1
41
1
10
113.198831835084
20
7.51083377680237
30
0
41
1
10
113.177709573765
20
7.5074092417554
30
0
41
1
10
113.155880075307
20
7.51200056661668
30
0
41
1
10
113.114679787977
20
7.5283249891969
30
0
41
1
10
113.095125586803
20
7.54021873444637
30
0
41
1
10
113.040556909749
20
7.58178033437494
30
0
41
1
10
113.009155551892
20
7.61746150681677
30
0
41
1
10
112.958496892597
20
7.69593493977476
30
0
41
1
10
112.939326397812
20
7.73860636042451
30
0
41
1
10
112.92480153933
20
7.80357315290274
30
0
41
1
10
112.922316568251
20
7.82578879529166
30
0
41
1
10
112.925107749293
20
7.86857816829763
30
0
41
1
10
112.930301925501
20
7.88973800848973
30
0
41
1
10
112.942662098364
20
7.90690560961909
30
0
0
SPLINE
5
2C6
100
AcDbEntity
8
1
62
256
6
ByLayer
370
18
48
1
60
0
100
AcDbSpline
70
4
71
3
72
8
73
4
40
0
40
0
40
0
40
0
40
1
40
1
40
1
40
1
41
1
10
113.219659898997
20
7.51421058573334
30
0
41
1
10
113.212717531414
20
7.51308504387706
30
0
41
1
10
113.205774850356
20
7.51195944222113
30
0
41
1
10
113.198831835084
20
7.51083377680237
30
0
0
SPLINE
5
2C7
100
AcDbEntity
8
1
62
256
6
ByLayer
370
18
48
1
60
0
100
AcDbSpline
70
4
71
3
72
14
73
10
40
0
40
0
40
0
40
0
40
0.499999999999997
40
0.499999999999997
40
0.75000000000006
40
0.75000000000006
40
0.87500000000003
40
0.87500000000003
40
1
40
1
40
1
40
1
41
1
10
111.774872496686
20
8.09447151067982
30
0
41
1
10
111.817924396875
20
8.12254355560486
30
0
41
1
10
111.865389828465
20
8.14454781753889
30
0
41
1
10
111.939452523902
20
8.15912861042088
30
0
41
1
10
111.964956728792
20
8.16080554496233
30
0
41
1
10
111.999756137338
20
8.15340188407055
30
0
41
1
10
112.010908726979
20
8.14912959278038
30
0
41
1
10
112.029455712384
20
8.13620050251848
30
0
41
1
10
112.036653344144
20
8.12763675355899
30
0
41
1
10
112.041077762946
20
8.1174879392899
30
0
0
SPLINE
5
2C8
100
AcDbEntity
8
1
62
256
6
ByLayer
370
18
48
1
60
0
100
AcDbSpline
70
4
71
3
72
8
73
4
40
0
40
0
40
0
40
0
40
1
40
1
40
1
40
1
41
1
10
111.461468538622
20
6.94109151153981
30
0
41
1
10
111.455232260606
20
6.94000288465119
30
0
41
1
10
111.448996448467
20
6.93891432842548
30
0
41
1
10
111.442761073186
20
6.93782583846578
30
0
0
SPLINE
5
2C9
100
AcDbEntity
8
1
62
256
6
ByLayer
370
18
48
1
60
0
100
AcDbSpline
70
4
71
3
72
18
73
14
40
0
40
0
40
0
40
0
40
0.125000000000001
40
0.125000000000001
40
0.250000000000003
40
0.250000000000003
40
0.500000000000006
40
0.500000000000006
40
0.750000000000009
40
0.750000000000009
40
0.875000000000004
40
0.875000000000004
40
1
40
1
40
1
40
1
41
1
10
111.436450125859
20
7.41847126517285
30
0
41
1
10
111.455638705525
20
7.41716245266275
30
0
41
1
10
111.474876141082
20
7.42388826122991
30
0
41
1
10
111.510725673369
20
7.44420530830897
30
0
41
1
10
111.527491719884
20
7.45797367736256
30
0
41
1
10
111.573960132929
20
7.50473816727799
30
0
41
1
10
111.600269864425
20
7.54336438503171
30
0
41
1
10
111.642469516985
20
7.6265700275375
30
0
41
1
10
111.658377238248
20
7.67118486578917
30
0
41
1
10
111.669496029186
20
7.73797253197495
30
0
41
1
10
111.67105455032
20
7.76031270284079
30
0
41
1
10
111.667090365367
20
7.80299062904297
30
0
41
1
10
111.661659227998
20
7.82336454155521
30
0
41
1
10
111.64981575793
20
7.83915040396272
30
0
0
SPLINE
5
2CA
100
AcDbEntity
8
1
62
256
6
ByLayer
370
18
48
1
60
0
100
AcDbSpline
70
4
71
3
72
8
73
4
40
0
40
0
40
0
40
0
40
1
40
1
40
1
40
1
41
1
10
111.64981575793
20
7.83915040396272
30
0
41
1
10
111.645917007476
20
7.84434695006578
30
0
41
1
10
111.642018580991
20
7.84954318527022
30
0
41
1
10
111.638120458284
20
7.85473912890862
30
0
0
SPLINE
5
2CB
100
AcDbEntity
8
1
62
256
6
ByLayer
370
18
48
1
60
0
100
AcDbSpline
70
4
71
3
72
18
73
14
40
0
40
0
40
0
40
0
40
0.125000000000027
40
0.125000000000027
40
0.250000000000053
40
0.250000000000053
40
0.500000000000036
40
0.500000000000036
40
0.750000000000019
40
0.750000000000019
40
0.875000000000009
40
0.875000000000009
40
1
40
1
40
1
40
1
41
1
10
112.611338336335
20
6.35251105772133
30
0
41
1
10
112.60120594212
20
6.37070305983747
30
0
41
1
10
112.584261581508
20
6.38485114382235
30
0
41
1
10
112.546195650112
20
6.40721411476653
30
0
41
1
10
112.524836185958
20
6.41547855088299
30
0
41
1
10
112.458618183476
20
6.43387979448693
30
0
41
1
10
112.411238611092
20
6.43792732626369
30
0
41
1
10
112.318370812824
20
6.43305869503016
30
0
41
1
10
112.272843176096
20
6.424140302469
30
0
41
1
10
112.212324886237
20
6.3990916716262
30
0
41
1
10
112.19337599753
20
6.38872479302248
30
0
41
1
10
112.161169921702
20
6.36261696839782
30
0
41
1
10
112.14783036715
20
6.34694034480861
30
0
41
1
10
112.141802967545
20
6.32790375174818
30
0
0
SPLINE
5
2CC
100
AcDbEntity
8
1
62
256
6
ByLayer
370
18
48
1
60
0
100
AcDbSpline
70
4
71
3
72
14
73
10
40
0
40
0
40
0
40
0
40
0.124999999999991
40
0.124999999999991
40
0.249999999999981
40
0.249999999999981
40
0.499999999999962
40
0.499999999999962
40
1
40
1
40
1
40
1
41
1
10
113.024300513899
20
6.5972972952905
30
0
41
1
10
113.032058136052
20
6.58861043817453
30
0
41
1
10
113.037278314784
20
6.57791507396635
30
0
41
1
10
113.04199042297
20
6.55483182780642
30
0
41
1
10
113.041571798219
20
6.54265838635524
30
0
41
1
10
113.034716959871
20
6.5068086459494
30
0
41
1
10
113.023025171156
20
6.48368701381105
30
0
41
1
10
112.980190754811
20
6.4209483005946
30
0
41
1
10
112.94094257542
20
6.3861669765694
30
0
41
1
10
112.897910676443
20
6.35810797345937
30
0
0
SPLINE
5
2CD
100
AcDbEntity
8
1
62
256
6
ByLayer
370
18
48
1
60
0
100
AcDbSpline
70
4
71
3
72
8
73
4
40
0
40
0
40
0
40
0
40
1
40
1
40
1
40
1
41
1
10
112.954784462949
20
7.923742565455
30
0
41
1
10
112.950743826267
20
7.91813056906676
30
0
41
1
10
112.946703041333
20
7.91251825742262
30
0
41
1
10
112.942662098364
20
7.90690560961909
30
0
0
SPLINE
5
2CE
100
AcDbEntity
8
1
62
256
6
ByLayer
370
18
48
1
60
0
100
AcDbSpline
70
4
71
3
72
8
73
4
40
0
40
0
40
0
40
0
40
1
40
1
40
1
40
1
41
1
10
113.010484615776
20
6.61277488437946
30
0
41
1
10
113.015090103486
20
6.60761537680654
30
0
41
1
10
113.019695398889
20
6.60245618703232
30
0
41
1
10
113.024300513899
20
6.5972972952905
30
0
0
SPLINE
5
2CF
100
AcDbEntity
8
1
62
256
6
ByLayer
370
18
48
1
60
0
100
AcDbSpline
70
4
71
3
72
20
73
16
40
0
40
0
40
0
40
0
40
0.124999999999992
40
0.124999999999992
40
0.249999999999985
40
0.249999999999985
40
0.374999999999977
40
0.374999999999977
40
0.499999999999969
40
0.499999999999969
40
0.749999999999958
40
0.749999999999958
40
0.874999999999979
40
0.874999999999979
40
1
40
1
40
1
40
1
41
1
10
113.010484615776
20
6.61277488437946
30
0
41
1
10
112.996407380574
20
6.62854554890041
30
0
41
1
10
112.989027563429
20
6.64900154182538
30
0
41
1
10
112.981758355004
20
6.69140995102654
30
0
41
1
10
112.981915915569
20
6.71367376668317
30
0
41
1
10
112.987043073735
20
6.75788718090468
30
0
41
1
10
112.992135369557
20
6.78030671742619
30
0
41
1
10
113.005949436616
20
6.82375399946699
30
0
41
1
10
113.01469950086
20
6.8450229880857
30
0
41
1
10
113.04633127788
20
6.90754306741491
30
0
41
1
10
113.073807920775
20
6.94631221437498
30
0
41
1
10
113.123852043589
20
6.99345029153559
30
0
41
1
10
113.141965766507
20
7.00725461792601
30
0
41
1
10
113.181325469639
20
7.02783675868818
30
0
41
1
10
113.202479623117
20
7.03465226343459
30
0
41
1
10
113.223850247846
20
7.0334540231693
30
0
0
SPLINE
5
2D0
100
AcDbEntity
8
1
62
256
6
ByLayer
370
18
48
1
60
0
100
AcDbSpline
70
4
71
3
72
14
73
10
40
0
40
0
40
0
40
0
40
0.125000000000017
40
0.125000000000017
40
0.250000000000034
40
0.250000000000034
40
0.500000000000067
40
0.500000000000067
40
1
40
1
40
1
40
1
41
1
10
112.526569871189
20
8.14293150254238
30
0
41
1
10
112.531099284929
20
8.15354753764728
30
0
41
1
10
112.538586810646
20
8.16298249890176
30
0
41
1
10
112.557656407782
20
8.17783444199631
30
0
41
1
10
112.569003537957
20
8.18322477348522
30
0
41
1
10
112.604953247874
20
8.19435245463376
30
0
41
1
10
112.631421923452
20
8.19538788437444
30
0
41
1
10
112.708427894587
20
8.18872644363981
30
0
41
1
10
112.758355779798
20
8.171817482356
30
0
41
1
10
112.804084910006
20
8.14841024767244
30
0
0
SPLINE
5
2D1
100
AcDbEntity
8
1
62
256
6
ByLayer
370
18
48
1
60
0
100
AcDbSpline
70
4
71
3
72
14
73
10
40
0
40
0
40
0
40
0
40
0.500000000000033
40
0.500000000000033
40
0.750000000000017
40
0.750000000000017
40
0.875000000000008
40
0.875000000000008
40
1
40
1
40
1
40
1
41
1
10
113.365603999884
20
7.2802284790622
30
0
41
1
10
113.362905514981
20
7.33171863834548
30
0
41
1
10
113.352431923023
20
7.38337997696866
30
0
41
1
10
113.319169164103
20
7.45289713286994
30
0
41
1
10
113.304849769013
20
7.4749584557965
30
0
41
1
10
113.276830269846
20
7.49970972347424
30
0
41
1
10
113.26618645043
20
7.50659429564814
30
0
41
1
10
113.243347301143
20
7.51484940379461
30
0
41
1
10
113.231353858687
20
7.51610893325656
30
0
41
1
10
113.219659898997
20
7.51421058573334
30
0
0
SPLINE
5
2D2
100
AcDbEntity
8
1
62
256
6
ByLayer
370
18
48
1
60
0
100
AcDbSpline
70
4
71
3
72
14
73
10
40
0
40
0
40
0
40
0
40
0.12500000000003
40
0.12500000000003
40
0.25000000000006
40
0.25000000000006
40
0.500000000000025
40
0.500000000000025
40
1
40
1
40
1
40
1
41
1
10
113.244917186094
20
7.03227283826465
30
0
41
1
10
113.256743203711
20
7.03160737186187
30
0
41
1
10
113.26868240344
20
7.03415946432975
30
0
41
1
10
113.290488812446
20
7.04477993922873
30
0
41
1
10
113.300234357495
20
7.05264653026512
30
0
41
1
10
113.325547337078
20
7.08021998417678
30
0
41
1
10
113.33749502065
20
7.10370676196322
30
0
41
1
10
113.363274089654
20
7.17624879497407
30
0
41
1
10
113.368301231115
20
7.22876224126861
30
0
41
1
10
113.365603999884
20
7.2802284790622
30
0
0
SPLINE
5
2D3
100
AcDbEntity
8
1
62
256
6
ByLayer
370
13
48
1
60
0
100
AcDbSpline
70
4
71
3
72
14
73
10
40
0
40
0
40
0
40
0
40
0.25
40
0.25
40
0.5
40
0.5
40
0.75
40
0.75
40
1
40
1
40
1
40
1
41
1
10
115.062196410172
20
4.14973102725057
30
0
41
1
10
115.104023651344
20
4.15192310007393
30
0
41
1
10
115.145350063368
20
4.14885003572238
30
0
41
1
10
115.227045470538
20
4.13294374536025
30
0
41
1
10
115.266036346988
20
4.12024190488893
30
0
41
1
10
115.337870497161
20
4.08858942695846
30
0
41
1
10
115.369341583373
20
4.07030648646881
30
0
41
1
10
115.423470714337
20
4.03416424751299
30
0
41
1
10
115.444835071455
20
4.0172962732413
30
0
41
1
10
115.461834490756
20
4.00377978057119
30
0
0
SPLINE
5
2D4
100
AcDbEntity
8
1
62
256
6
ByLayer
370
13
48
1
60
0
100
AcDbSpline
70
4
71
3
72
10
73
6
40
0
40
0
40
0
40
0
40
0.5
40
0.5
40
1
40
1
40
1
40
1
41
1
10
110.836166018782
20
3.9282541592552
30
0
41
1
10
110.873752340718
20
3.93022397491927
30
0
41
1
10
110.911610621482
20
3.92787109095622
30
0
41
1
10
110.98533846659
20
3.91524734854204
30
0
41
1
10
111.02058301465
20
3.90515366168461
30
0
41
1
10
111.05416204493
20
3.89199444944964
30
0
0
SPLINE
5
2D5
100
AcDbEntity
8
1
62
256
6
ByLayer
370
13
48
1
60
0
100
AcDbSpline
70
4
71
3
72
20
73
16
40
0
40
0
40
0
40
0
40
0.250603017169108
40
0.250603017169108
40
0.375904525753662
40
0.375904525753662
40
0.501206034338216
40
0.501206034338216
40
0.62650754292277
40
0.62650754292277
40
0.751809051507323
40
0.751809051507323
40
0.877110560091877
40
0.877110560091877
40
1
40
1
40
1
40
1
41
1
10
102.396356155012
20
10.9349558543912
30
0
41
1
10
100.686543206913
20
11.066273670471
30
0
41
1
10
98.9814486841318
20
11.1182658181625
30
0
41
1
10
96.4216945741723
20
11.0759305808552
30
0
41
1
10
95.5676924939374
20
11.0417548499197
30
0
41
1
10
93.8592023363998
20
10.9333877029134
30
0
41
1
10
93.0061353431106
20
10.8592705546787
30
0
41
1
10
91.3001735221463
20
10.6723183863049
30
0
41
1
10
90.4472708900304
20
10.5594918875154
30
0
41
1
10
88.7395612212353
20
10.2968681247056
30
0
41
1
10
87.8842039249444
20
10.1470241997241
30
0
41
1
10
86.1765407426729
20
9.80880084143521
30
0
41
1
10
85.3245812298313
20
9.62058699189649
30
0
41
1
10
83.6337569587731
20
9.21837138821977
30
0
41
1
10
82.7946548061605
20
9.00527516561706
30
0
41
1
10
81.949849436072
20
8.78526305842684
30
0
0
SPLINE
5
2D6
100
AcDbEntity
8
1
62
256
6
ByLayer
370
13
48
1
60
0
100
AcDbSpline
70
4
71
3
72
12
73
8
40
0
40
0
40
0
40
0
40
0.250000000000063
40
0.250000000000063
40
0.500000000000125
40
0.500000000000125
40
1
40
1
40
1
40
1
41
1
10
103.401770719768
20
5.22434926616438
30
0
41
1
10
103.40460279122
20
5.23537537867119
30
0
41
1
10
103.411157966405
20
5.24517000746729
30
0
41
1
10
103.427629959706
20
5.26086603443341
30
0
41
1
10
103.437575734087
20
5.26699725449302
30
0
41
1
10
103.469142758094
20
5.28120490320575
30
0
41
1
10
103.492801890167
20
5.28549887116094
30
0
41
1
10
103.516796557226
20
5.28617151608984
30
0
0
SPLINE
5
2D7
100
AcDbEntity
8
1
62
256
6
ByLayer
370
13
48
1
60
0
100
AcDbSpline
70
4
71
3
72
10
73
6
40
0
40
0
40
0
40
0
40
0.5
40
0.5
40
1
40
1
40
1
40
1
41
1
10
104.475993187615
20
3.3049712523563
30
0
41
1
10
104.265464317474
20
3.44062607129902
30
0
41
1
10
104.045361255697
20
3.56493836365396
30
0
41
1
10
103.590939059525
20
3.79672119422352
30
0
41
1
10
103.356566463639
20
3.90412839671114
30
0
41
1
10
103.116326266895
20
4.00458426364349
30
0
0
SPLINE
5
2D8
100
AcDbEntity
8
1
62
256
6
ByLayer
370
13
48
1
60
0
100
AcDbSpline
70
4
71
3
72
10
73
6
40
0
40
0
40
0
40
0
40
0.187001853461426
40
0.187001853461426
40
1
40
1
40
1
40
1
41
1
10
93.5151858885295
20
4.79360653000953
30
0
41
1
10
93.863839174186
20
4.65959676298729
30
0
41
1
10
94.2124943577363
20
4.52413760085005
30
0
41
1
10
96.0759344021365
20
3.79303734678996
30
0
41
1
10
97.5884190667829
20
3.17461513907523
30
0
41
1
10
99.1020972298198
20
2.54045255228411
30
0
0
SPLINE
5
2D9
100
AcDbEntity
8
1
62
256
6
ByLayer
370
13
48
1
60
0
100
AcDbSpline
70
4
71
3
72
12
73
8
40
0
40
0
40
0
40
0
40
0.32710924374108
40
0.32710924374108
40
0.66355462187054
40
0.66355462187054
40
1
40
1
40
1
40
1
41
1
10
22.4501338416996
20
-3.84086363863321
30
0
41
1
10
22.4502876507517
20
-4.09431347159523
30
0
41
1
10
22.4503937910203
20
-4.37553457117176
30
0
41
1
10
22.4504988063404
20
-4.96687027882351
30
0
41
1
10
22.4504945016107
20
-5.27740125046122
30
0
41
1
10
22.450371356683
20
-5.87897744264518
30
0
41
1
10
22.4502525532876
20
-6.16984287841356
30
0
41
1
10
22.4500843412144
20
-6.43163449025951
30
0
0
SPLINE
5
2DA
100
AcDbEntity
8
1
62
256
6
ByLayer
370
13
48
1
60
0
100
AcDbSpline
70
4
71
3
72
10
73
6
40
0
40
0
40
0
40
0
40
0.5
40
0.5
40
1
40
1
40
1
40
1
41
1
10
104.064800592521
20
5.25797963829433
30
0
41
1
10
104.095983864323
20
5.26148520304011
30
0
41
1
10
104.127382074511
20
5.26402195853399
30
0
41
1
10
104.190904254853
20
5.26582419264938
30
0
41
1
10
104.223098105119
20
5.2651573208525
30
0
41
1
10
104.255223132589
20
5.26122293900102
30
0
0
SPLINE
5
2DB
100
AcDbEntity
8
1
62
256
6
ByLayer
370
13
48
1
60
0
100
AcDbSpline
70
4
71
3
72
12
73
8
40
0
40
0
40
0
40
0
40
0.25
40
0.25
40
0.5
40
0.5
40
1
40
1
40
1
40
1
41
1
10
113.374972417837
20
3.86103289545963
30
0
41
1
10
113.428959515974
20
3.86386223938291
30
0
41
1
10
113.483529797653
20
3.86983835875864
30
0
41
1
10
113.591423002796
20
3.88801484251294
30
0
41
1
10
113.64526828365
20
3.90028092456919
30
0
41
1
10
113.804624652874
20
3.94637316501152
30
0
41
1
10
113.908568889988
20
3.98930067160288
30
0
41
1
10
114.011470784703
20
4.04698043315548
30
0
0
SPLINE
5
2DC
100
AcDbEntity
8
1
62
256
6
ByLayer
370
13
48
1
60
0
100
AcDbSpline
70
4
71
3
72
8
73
4
40
0
40
0
40
0
40
0
40
1
40
1
40
1
40
1
41
1
10
27
20
-3.83840182632781
30
0
41
1
10
25.3333312190708
20
-3.83798017750956
30
0
41
1
10
23.6666640867897
20
-3.83910830908599
30
0
41
1
10
22
20
-3.84309788877931
30
0
0
SPLINE
5
2DD
100
AcDbEntity
8
1
62
256
6
ByLayer
370
13
48
1
60
0
100
AcDbSpline
70
4
71
3
72
38
73
34
40
0
40
0
40
0
40
0
40
0.124999999999999
40
0.124999999999999
40
0.187499999999999
40
0.187499999999999
40
0.218749999999999
40
0.218749999999999
40
0.249999999999999
40
0.249999999999999
40
0.375
40
0.375
40
0.437500000000001
40
0.437500000000001
40
0.500000000000001
40
0.500000000000001
40
0.625000000000003
40
0.625000000000003
40
0.656250000000003
40
0.656250000000003
40
0.687500000000003
40
0.687500000000003
40
0.750000000000002
40
0.750000000000002
40
0.812500000000002
40
0.812500000000002
40
0.843750000000002
40
0.843750000000002
40
0.875000000000002
40
0.875000000000002
40
0.937500000000001
40
0.937500000000001
40
1
40
1
40
1
40
1
41
1
10
10.9996654670644
20
-7.10303985721811
30
0
41
1
10
10.6762813730622
20
-7.17919818899097
30
0
41
1
10
10.3590545412047
20
-7.27742214133954
30
0
41
1
10
9.89188415490378
20
-7.45619501678911
30
0
41
1
10
9.73761654987601
20
-7.52106640487636
30
0
41
1
10
9.50843107269111
20
-7.62647462599023
30
0
41
1
10
9.43240597999616
20
-7.66296370419477
30
0
41
1
10
9.28111122331055
20
-7.7387156232333
30
0
41
1
10
9.20564287742269
20
-7.77809140352267
30
0
41
1
10
8.83382235506559
20
-7.98014969327744
30
0
41
1
10
8.55239819978249
20
-8.15872253896708
30
0
41
1
10
8.15520090915015
20
-8.45255475785484
30
0
41
1
10
8.02699644107787
20
-8.5548679261978
30
0
41
1
10
7.77969294887697
20
-8.76892056042684
30
0
41
1
10
7.65992217175923
20
-8.88145087229643
30
0
41
1
10
7.32352563478747
20
-9.22585727016354
30
0
41
1
10
7.12768608123125
20
-9.465684978159
30
0
41
1
10
6.92257692120788
20
-9.77916262418523
30
0
41
1
10
6.88343062040587
20
-9.84280629936347
30
0
41
1
10
6.8103177794971
20
-9.96989437573677
30
0
41
1
10
6.77629483722774
20
-10.0333916620356
30
0
41
1
10
6.68189622123739
20
-10.2237363437292
30
0
41
1
10
6.62911025505986
20
-10.3504296506235
30
0
41
1
10
6.54433651988219
20
-10.6033096557628
30
0
41
1
10
6.51233752521759
20
-10.7294964338141
30
0
41
1
10
6.48127411372795
20
-10.9183476711879
30
0
41
1
10
6.47384508322421
20
-10.9808014543534
30
0
41
1
10
6.46495208292546
20
-11.1033985830313
30
0
41
1
10
6.46341938062972
20
-11.1637541533722
30
0
41
1
10
6.46796061187379
20
-11.3419533921133
30
0
41
1
10
6.48303743172903
20
-11.4569555673023
30
0
41
1
10
6.53672950586923
20
-11.6794737704186
30
0
41
1
10
6.57565758748609
20
-11.7873959048817
30
0
41
1
10
6.62547704516729
20
-11.8892995998292
30
0
0
SPLINE
5
2DE
100
AcDbEntity
8
1
62
256
6
ByLayer
370
13
48
1
60
0
100
AcDbSpline
70
4
71
3
72
16
73
12
40
0
40
0
40
0
40
0
40
0.125
40
0.125
40
0.25
40
0.25
40
0.5
40
0.5
40
0.75
40
0.75
40
1
40
1
40
1
40
1
41
1
10
19.83069899894
20
-4.4102813150092
30
0
41
1
10
19.9071849462485
20
-4.36464665997894
30
0
41
1
10
19.9853771379003
20
-4.32143160838245
30
0
41
1
10
20.1452349206189
20
-4.23996165582764
30
0
41
1
10
20.2268085052354
20
-4.20178270655887
30
0
41
1
10
20.4732683117371
20
-4.09630572975755
30
0
41
1
10
20.6410007601612
20
-4.03743803570714
30
0
41
1
10
20.9832130008964
20
-3.94223079404063
30
0
41
1
10
21.1576922890312
20
-3.90588963243502
30
0
41
1
10
21.5136541275101
20
-3.85657527105207
30
0
41
1
10
21.6930688846164
20
-3.8439327959222
30
0
41
1
10
21.8729851503767
20
-3.84342806128967
30
0
0
SPLINE
5
2DF
100
AcDbEntity
8
1
62
256
6
ByLayer
370
13
48
1
60
0
100
AcDbSpline
70
4
71
3
72
8
73
4
40
0
40
0
40
0
40
0
40
1
40
1
40
1
40
1
41
1
10
0
20
3.54400902933392
30
0
41
1
10
0.0316790368941895
20
3.68613527180352
30
0
41
1
10
0.0650361897271239
20
3.82766613327232
30
0
41
1
10
0.0999999999999943
20
3.96862696659682
30
0
0
SPLINE
5
2E0
100
AcDbEntity
8
1
62
256
6
ByLayer
370
13
48
1
60
0
100
AcDbSpline
70
4
71
3
72
38
73
34
40
0
40
0
40
0
40
0
40
0.124999999999995
40
0.124999999999995
40
0.249999999999989
40
0.249999999999989
40
0.374999999999984
40
0.374999999999984
40
0.406249999999984
40
0.406249999999984
40
0.437499999999984
40
0.437499999999984
40
0.499999999999987
40
0.499999999999987
40
0.562499999999991
40
0.562499999999991
40
0.624999999999994
40
0.624999999999994
40
0.656249999999996
40
0.656249999999996
40
0.687499999999998
40
0.687499999999998
40
0.749999999999998
40
0.749999999999998
40
0.781249999999998
40
0.781249999999998
40
0.812499999999999
40
0.812499999999999
40
0.874999999999999
40
0.874999999999999
40
0.9375
40
0.9375
40
1
40
1
40
1
40
1
41
1
10
104.16080898176
20
1.01455920706877
30
0
41
1
10
104.552599570391
20
0.948495090238708
30
0
41
1
10
104.947409884658
20
0.889637823043245
30
0
41
1
10
105.746687979811
20
0.794971710309568
30
0
41
1
10
106.151208030876
20
0.759057667985388
30
0
41
1
10
106.974429269623
20
0.721997550041465
30
0
41
1
10
107.384278392651
20
0.721248838350817
30
0
41
1
10
107.893575552343
20
0.750740103012447
30
0
41
1
10
107.995282592789
20
0.758176665151439
30
0
41
1
10
108.198362479777
20
0.776423295075205
30
0
41
1
10
108.299931891254
20
0.78726796404041
30
0
41
1
10
108.60030339971
20
0.824867157927997
30
0
41
1
10
108.795887994334
20
0.856735869901399
30
0
41
1
10
109.176614634827
20
0.935707074315701
30
0
41
1
10
109.361890498653
20
0.982824427063036
30
0
41
1
10
109.71973986031
20
1.09474157852438
30
0
41
1
10
109.887533243891
20
1.15805570961461
30
0
41
1
10
110.121681107062
20
1.26461879083376
30
0
41
1
10
110.196797023491
20
1.30207818811309
30
0
41
1
10
110.340876742083
20
1.38106229654019
30
0
41
1
10
110.41019710825
20
1.42283587809752
30
0
41
1
10
110.60526557943
20
1.5525633832041
30
0
41
1
10
110.718107774899
20
1.64460229303208
30
0
41
1
10
110.862036653764
20
1.79083953760974
30
0
41
1
10
110.905772075041
20
1.84095439500629
30
0
41
1
10
110.98461261307
20
1.94397028921185
30
0
41
1
10
111.019757220038
20
1.99703646443265
30
0
41
1
10
111.110109046802
20
2.15703328039416
30
0
41
1
10
111.151233790137
20
2.26577157008768
30
0
41
1
10
111.197868943653
20
2.48711292255504
30
0
41
1
10
111.203041194128
20
2.6003390291624
30
0
41
1
10
111.179711748301
20
2.82316982804426
30
0
41
1
10
111.151555329779
20
2.93362537872611
30
0
41
1
10
111.10842929929
20
3.04320966887712
30
0
0
SPLINE
5
2E1
100
AcDbEntity
8
1
62
256
6
ByLayer
370
13
48
1
60
0
100
AcDbSpline
70
4
71
3
72
8
73
4
40
0
40
0
40
0
40
0
40
1
40
1
40
1
40
1
41
1
10
102.645754607547
20
10.4204742737649
30
0
41
1
10
102.734641059093
20
10.5841290119146
30
0
41
1
10
102.821602107561
20
10.7488134215727
30
0
41
1
10
102.906803857903
20
10.9144386727497
30
0
0
SPLINE
5
2E2
100
AcDbEntity
8
1
62
256
6
ByLayer
370
13
48
1
60
0
100
AcDbSpline
70
4
71
3
72
10
73
6
40
0
40
0
40
0
40
0
40
0.5
40
0.5
40
1
40
1
40
1
40
1
41
1
10
112.109372111034
20
3.79470559392013
30
0
41
1
10
111.742684951322
20
3.77548833418803
30
0
41
1
10
111.375286699861
20
3.75623380771648
30
0
41
1
10
110.63981607208
20
3.71768942538657
30
0
41
1
10
110.271797198923
20
3.69840237351016
30
0
41
1
10
109.904210559902
20
3.67913797406493
30
0
0
SPLINE
5
2E3
100
AcDbEntity
8
1
62
256
6
ByLayer
370
13
48
1
60
0
100
AcDbSpline
70
4
71
3
72
42
73
38
40
0
40
0
40
0
40
0
40
0.0161037501077075
40
0.0161037501077075
40
0.0361832654116323
40
0.0361832654116323
40
0.0763422960194814
40
0.0763422960194814
40
0.11650132662733
40
0.11650132662733
40
0.196819387843028
40
0.196819387843028
40
0.236978418450877
40
0.236978418450877
40
0.277137449058725
40
0.277137449058725
40
0.317296479666574
40
0.317296479666574
40
0.357455510274423
40
0.357455510274423
40
0.397614540882272
40
0.397614540882272
40
0.43777357149012
40
0.43777357149012
40
0.477932602097969
40
0.477932602097969
40
0.518091632705818
40
0.518091632705818
40
0.558250663313666
40
0.558250663313666
40
0.598409693921515
40
0.598409693921515
40
0.678727755137212
40
0.678727755137212
40
0.839363877568606
40
0.839363877568606
40
1
40
1
40
1
40
1
41
1
10
82.867284859362
20
-8.98421395254209
30
0
41
1
10
82.5638115237421
20
-9.05335752532503
30
0
41
1
10
82.260340192491
20
-9.12028694727437
30
0
41
1
10
81.5782649135945
20
-9.26487880262252
30
0
41
1
10
81.1995799582852
20
-9.34120821750636
30
0
41
1
10
80.0619045462256
20
-9.55928152180394
30
0
41
1
10
79.3008835222303
20
-9.69017902399077
30
0
41
1
10
77.7700417329723
20
-9.92482951919447
30
0
41
1
10
77.0006023428576
20
-10.029122990463
30
0
41
1
10
74.6794799829086
20
-10.3003713203618
30
0
41
1
10
73.1147896160655
20
-10.4234732539113
30
0
41
1
10
70.7415446063136
20
-10.5475767025818
30
0
41
1
10
69.9467673558764
20
-10.5789700677274
30
0
41
1
10
68.352733397457
20
-10.6272267671309
30
0
41
1
10
67.5530488740592
20
-10.6443036415021
30
0
41
1
10
65.9478855192621
20
-10.6685026679715
30
0
41
1
10
65.1423987448573
20
-10.6755475225669
30
0
41
1
10
63.5250773358022
20
-10.6825233843886
30
0
41
1
10
62.7126933029741
20
-10.6823568649591
30
0
41
1
10
61.085564868079
20
-10.6780208072202
30
0
41
1
10
60.2704698672302
20
-10.6739492550434
30
0
41
1
10
58.6370759276187
20
-10.6638958857652
30
0
41
1
10
57.8187439890202
20
-10.6573023320237
30
0
41
1
10
56.1789161491255
20
-10.6479014904349
30
0
41
1
10
55.3572692767688
20
-10.645834539683
30
0
41
1
10
53.7123956261132
20
-10.6443007171399
30
0
41
1
10
52.8898636704024
20
-10.6447058524241
30
0
41
1
10
51.244673883846
20
-10.6458637023983
30
0
41
1
10
50.422016808545
20
-10.6467490967448
30
0
41
1
10
48.7766483227621
20
-10.6486239484504
30
0
41
1
10
47.9539386309267
20
-10.6499208707698
30
0
41
1
10
45.4858188783888
20
-10.6514961943845
30
0
41
1
10
43.8404067990209
20
-10.6472345513054
30
0
41
1
10
38.9041650868051
20
-10.640416170413
30
0
41
1
10
35.6133307421402
20
-10.6408556223706
30
0
41
1
10
29.0316627940522
20
-10.6417288415173
30
0
41
1
10
25.7408291754227
20
-10.6421741138579
30
0
41
1
10
22.4499999999999
20
-10.6427946859951
30
0
0
SPLINE
5
2E4
100
AcDbEntity
8
1
62
256
6
ByLayer
370
13
48
1
60
0
100
AcDbSpline
70
2053
71
3
72
80
73
76
40
0
40
0
40
0
40
0
40
0.0312499999999966
40
0.0312499999999966
40
0.0624999999999933
40
0.0624999999999933
40
0.0937499999999899
40
0.0937499999999899
40
0.10937499999999
40
0.10937499999999
40
0.12499999999999
40
0.12499999999999
40
0.156249999999988
40
0.156249999999988
40
0.187499999999985
40
0.187499999999985
40
0.218749999999982
40
0.218749999999982
40
0.249999999999979
40
0.249999999999979
40
0.281249999999977
40
0.281249999999977
40
0.312499999999974
40
0.312499999999974
40
0.343749999999971
40
0.343749999999971
40
0.374999999999968
40
0.374999999999968
40
0.406249999999966
40
0.406249999999966
40
0.421874999999966
40
0.421874999999966
40
0.437499999999967
40
0.437499999999967
40
0.468749999999968
40
0.468749999999968
40
0.499999999999969
40
0.499999999999969
40
0.531249999999969
40
0.531249999999969
40
0.54687499999997
40
0.54687499999997
40
0.56249999999997
40
0.56249999999997
40
0.593749999999971
40
0.593749999999971
40
0.624999999999972
40
0.624999999999972
40
0.656249999999973
40
0.656249999999973
40
0.687499999999974
40
0.687499999999974
40
0.718749999999975
40
0.718749999999975
40
0.749999999999976
40
0.749999999999976
40
0.781249999999977
40
0.781249999999977
40
0.796874999999977
40
0.796874999999977
40
0.812499999999977
40
0.812499999999977
40
0.843749999999978
40
0.843749999999978
40
0.874999999999978
40
0.874999999999978
40
0.906249999999978
40
0.906249999999978
40
0.92187499999998
40
0.92187499999998
40
0.937499999999983
40
0.937499999999983
40
0.968749999999991
40
0.968749999999991
40
1
40
1
40
1
40
1
41
1
10
113.364025201613
20
-0.732411296687331
30
0
41
1
10
113.455548585927
20
-0.732411296687332
30
0
41
1
10
113.545474656982
20
-0.741756390322536
30
0
41
1
10
113.722263051052
20
-0.778361848305963
30
0
41
1
10
113.81008582462
20
-0.806119733081488
30
0
41
1
10
113.976393130293
20
-0.878110889867514
30
0
41
1
10
114.055085867336
20
-0.922121501607762
30
0
41
1
10
114.166454908866
20
-1.00008676591455
30
0
41
1
10
114.202641201508
20
-1.02825589844903
30
0
41
1
10
114.271369418986
20
-1.08758199103775
30
0
41
1
10
114.304008023031
20
-1.11877242995729
30
0
41
1
10
114.39689757445
20
-1.21677969957079
30
0
41
1
10
114.452301438649
20
-1.28820501438443
30
0
41
1
10
114.548893688759
20
-1.44216145250095
30
0
41
1
10
114.5888092054
20
-1.52256597713304
30
0
41
1
10
114.652829074785
20
-1.68976443509331
30
0
41
1
10
114.677024968627
20
-1.77750164091267
30
0
41
1
10
114.708005694132
20
-1.95364343641506
30
0
41
1
10
114.715063861388
20
-2.04218441696054
30
0
41
1
10
114.712742826839
20
-2.22015613924373
30
0
41
1
10
114.703135882384
20
-2.30974044207426
30
0
41
1
10
114.668267803859
20
-2.48287291619718
30
0
41
1
10
114.643054832862
20
-2.56733079256961
30
0
41
1
10
114.576755582273
20
-2.73201301321552
30
0
41
1
10
114.535940317998
20
-2.81119235677372
30
0
41
1
10
114.44124732591
20
-2.95938719935097
30
0
41
1
10
114.387127257014
20
-3.02905770413619
30
0
41
1
10
114.264259913838
20
-3.15900909039414
30
0
41
1
10
114.197224443075
20
-3.21740912507138
30
0
41
1
10
114.088979945741
20
-3.29455936728877
30
0
41
1
10
114.05156880784
20
-3.31856260324406
30
0
41
1
10
113.973965914872
20
-3.36300939835905
30
0
41
1
10
113.933525963119
20
-3.38355931888177
30
0
41
1
10
113.80959445302
20
-3.43867276031057
30
0
41
1
10
113.724326992893
20
-3.46653912632689
30
0
41
1
10
113.548445353932
20
-3.50447539348139
30
0
41
1
10
113.456617054819
20
-3.51443655932914
30
0
41
1
10
113.275485831608
20
-3.51472134058952
30
0
41
1
10
113.185732276945
20
-3.50541033194827
30
0
41
1
10
113.05232246662
20
-3.47719862490848
30
0
41
1
10
113.008097244979
20
-3.46537295496108
30
0
41
1
10
112.922175873136
20
-3.43755863899071
30
0
41
1
10
112.880200845735
20
-3.42151909474231
30
0
41
1
10
112.757130873262
20
-3.36719603053399
30
0
41
1
10
112.678107275119
20
-3.32216140646321
30
0
41
1
10
112.532250575312
20
-3.21863904465002
30
0
41
1
10
112.465309379027
20
-3.16038030345624
30
0
41
1
10
112.342827816193
20
-3.03130094875286
30
0
41
1
10
112.28765943062
20
-2.96058413992884
30
0
41
1
10
112.192581327131
20
-2.81207111929606
30
0
41
1
10
112.152052167091
20
-2.73366182346152
30
0
41
1
10
112.08527493556
20
-2.56825350914241
30
0
41
1
10
112.059973792177
20
-2.48356477519627
30
0
41
1
10
112.025050152178
20
-2.31066898003775
30
0
41
1
10
112.015401760087
20
-2.22176251997564
30
0
41
1
10
112.012923718517
20
-2.04290993937602
30
0
41
1
10
112.019992229939
20
-1.95438379313197
30
0
41
1
10
112.042992410272
20
-1.82295712173001
30
0
41
1
10
112.052739000778
20
-1.77937709935625
30
0
41
1
10
112.076554448749
20
-1.69269965505396
30
0
41
1
10
112.090698652339
20
-1.64946755884276
30
0
41
1
10
112.138835544617
20
-1.52338157247425
30
0
41
1
10
112.178665991466
20
-1.44321046751847
30
0
41
1
10
112.273962694286
20
-1.29079154642716
30
0
41
1
10
112.330153422688
20
-1.21796668099316
30
0
41
1
10
112.454132904134
20
-1.08689355036162
30
0
41
1
10
112.522178159448
20
-1.02791451691098
30
0
41
1
10
112.633568122243
20
-0.949590148535094
30
0
41
1
10
112.672444838926
20
-0.925107093928119
30
0
41
1
10
112.751657307714
20
-0.880697168187538
30
0
41
1
10
112.792158186828
20
-0.860630681878888
30
0
41
1
10
112.916297074402
20
-0.806740238711569
30
0
41
1
10
113.002931769478
20
-0.779080508636184
30
0
41
1
10
113.181907388141
20
-0.741769873693045
30
0
41
1
10
113.272501817299
20
-0.732411296687332
30
0
41
1
10
113.364025201613
20
-0.732411296687332
30
0
0
SPLINE
5
2E5
100
AcDbEntity
8
1
62
256
6
ByLayer
370
13
48
1
60
0
100
AcDbSpline
70
4
71
3
72
14
73
10
40
0
40
0
40
0
40
0
40
0.25
40
0.25
40
0.5
40
0.5
40
0.75
40
0.75
40
1
40
1
40
1
40
1
41
1
10
105.382734684391
20
3.71278923525958
30
0
41
1
10
105.386985561649
20
3.66736691204829
30
0
41
1
10
105.394716972909
20
3.622339184731
30
0
41
1
10
105.415418042797
20
3.53592067079927
30
0
41
1
10
105.428414758456
20
3.49412036972154
30
0
41
1
10
105.458856127927
20
3.41290603472032
30
0
41
1
10
105.476421914052
20
3.37328239266543
30
0
41
1
10
105.514946820364
20
3.29731444626216
30
0
41
1
10
105.535830731632
20
3.26104523775649
30
0
41
1
10
105.558097725412
20
3.22623664149438
30
0
0
SPLINE
5
2E6
100
AcDbEntity
8
1
62
256
6
ByLayer
370
13
48
1
60
0
100
AcDbSpline
70
4
71
3
72
8
73
4
40
0
40
0
40
0
40
0
40
1
40
1
40
1
40
1
41
1
10
109.904210559902
20
3.67913797406493
30
0
41
1
10
109.819556476883
20
3.6747014415667
30
0
41
1
10
109.734944722447
20
3.67026712741546
30
0
41
1
10
109.650363143428
20
3.66583439469082
30
0
0
SPLINE
5
2E7
100
AcDbEntity
8
1
62
256
6
ByLayer
370
13
48
1
60
0
100
AcDbSpline
70
4
71
3
72
8
73
4
40
0
40
0
40
0
40
0
40
1
40
1
40
1
40
1
41
1
10
102.906803857903
20
10.9144386727503
30
0
41
1
10
102.736679434216
20
10.9220180529341
30
0
41
1
10
102.566531964841
20
10.9288568508235
30
0
41
1
10
102.396356155011
20
10.9349558543912
30
0
0
SPLINE
5
2E8
100
AcDbEntity
8
1
62
256
6
ByLayer
370
13
48
1
60
0
100
AcDbSpline
70
4
71
3
72
8
73
4
40
0
40
0
40
0
40
0
40
1
40
1
40
1
40
1
41
1
10
108.971301254482
20
3.50486288794031
30
0
41
1
10
108.994269598212
20
3.49990791328457
30
0
41
1
10
109.016289462229
20
3.49477058546287
30
0
41
1
10
109.037459759697
20
3.48992557479883
30
0
0
SPLINE
5
2E9
100
AcDbEntity
8
1
62
256
6
ByLayer
370
13
48
1
60
0
100
AcDbSpline
70
4
71
3
72
10
73
6
40
0
40
0
40
0
40
0
40
0.5
40
0.5
40
1
40
1
40
1
40
1
41
1
10
114.011470784703
20
4.04698043315548
30
0
41
1
10
114.040783780603
20
4.06341129303971
30
0
41
1
10
114.07349900295
20
4.07724630364217
30
0
41
1
10
114.143029705979
20
4.09728991656928
30
0
41
1
10
114.179191523516
20
4.10343428735345
30
0
41
1
10
114.216721994888
20
4.10542155432069
30
0
0
SPLINE
5
2EA
100
AcDbEntity
8
1
62
256
6
ByLayer
370
13
48
1
60
0
100
AcDbSpline
70
4
71
3
72
8
73
4
40
0
40
0
40
0
40
0
40
1
40
1
40
1
40
1
41
1
10
105.221789102543
20
3.46701816059655
30
0
41
1
10
105.275923662194
20
3.54937246265726
30
0
41
1
10
105.329461430023
20
3.63137670707113
30
0
41
1
10
105.38273468439
20
3.71278923525958
30
0
0
SPLINE
5
2EB
100
AcDbEntity
8
1
62
256
6
ByLayer
370
13
48
1
60
0
100
AcDbSpline
70
4
71
3
72
8
73
4
40
0
40
0
40
0
40
0
40
1
40
1
40
1
40
1
41
1
10
106.775685050538
20
7.47862514110221
30
0
41
1
10
106.761696626208
20
7.44320619261839
30
0
41
1
10
106.744661485678
20
7.41110267985783
30
0
41
1
10
106.725791555743
20
7.38225927487889
30
0
0
SPLINE
5
2EC
100
AcDbEntity
8
1
62
256
6
ByLayer
370
13
48
1
60
0
100
AcDbSpline
70
4
71
3
72
12
73
8
40
0
40
0
40
0
40
0
40
0.250000000000005
40
0.250000000000005
40
0.50000000000001
40
0.50000000000001
40
1
40
1
40
1
40
1
41
1
10
104.255223132588
20
5.26122293900121
30
0
41
1
10
104.382969498036
20
5.24836101941685
30
0
41
1
10
104.506961598151
20
5.24370783124365
30
0
41
1
10
104.750833551412
20
5.24519791801885
30
0
41
1
10
104.870607846146
20
5.25130173363303
30
0
41
1
10
105.222368058405
20
5.27965072237353
30
0
41
1
10
105.448772826317
20
5.31160223589399
30
0
41
1
10
105.671337484678
20
5.35028433788111
30
0
0
SPLINE
5
2ED
100
AcDbEntity
8
1
62
256
6
ByLayer
370
13
48
1
60
0
100
AcDbSpline
70
4
71
3
72
20
73
16
40
0
40
0
40
0
40
0
40
0.124999999999998
40
0.124999999999998
40
0.249999999999996
40
0.249999999999996
40
0.374999999999995
40
0.374999999999995
40
0.499999999999993
40
0.499999999999993
40
0.749999999999996
40
0.749999999999996
40
0.874999999999998
40
0.874999999999998
40
1
40
1
40
1
40
1
41
1
10
104.058455138631
20
5.25713914658678
30
0
41
1
10
104.143000355408
20
5.20011085126393
30
0
41
1
10
104.224762733369
20
5.1367257421438
30
0
41
1
10
104.378146031927
20
5.0044048009774
30
0
41
1
10
104.450034641859
20
4.9356178206109
30
0
41
1
10
104.585400314421
20
4.7939506927884
30
0
41
1
10
104.648818846304
20
4.72098421489716
30
0
41
1
10
104.767155312354
20
4.57066789602746
30
0
41
1
10
104.822365272286
20
4.49279016566524
30
0
41
1
10
104.97140082433
20
4.2588909495918
30
0
41
1
10
105.050432244899
20
4.10170499037488
30
0
41
1
10
105.139632640416
20
3.86294678535987
30
0
41
1
10
105.164317496114
20
3.78259821286261
30
0
41
1
10
105.201777729194
20
3.62406763019123
30
0
41
1
10
105.214755537697
20
3.54538403952216
30
0
41
1
10
105.221789102544
20
3.46701816059741
30
0
0
SPLINE
5
2EE
100
AcDbEntity
8
1
62
256
6
ByLayer
370
13
48
1
60
0
100
AcDbSpline
70
4
71
3
72
18
73
14
40
0
40
0
40
0
40
0
40
0.0625
40
0.0625
40
0.125
40
0.125
40
0.25
40
0.25
40
0.375
40
0.375
40
0.5
40
0.5
40
1
40
1
40
1
40
1
41
1
10
60.4
20
-11.0936853023601
30
0
41
1
10
59.7086927793375
20
-11.0937374535957
30
0
41
1
10
59.0166244405813
20
-11.0930537503086
30
0
41
1
10
57.6308991304724
20
-11.0917621281645
30
0
41
1
10
56.9372386872093
20
-11.0911686512158
30
0
41
1
10
54.8542584032212
20
-11.0906783200508
30
0
41
1
10
53.4628830895109
20
-11.0922321296227
30
0
41
1
10
50.6772217588258
20
-11.0992186363133
30
0
41
1
10
49.2844484596504
20
-11.1044324523267
30
0
41
1
10
46.498908067639
20
-11.1150582639375
30
0
41
1
10
45.1061416084533
20
-11.1204758362155
30
0
41
1
10
38.1422862633992
20
-11.1468469961511
30
0
41
1
10
32.5711285331752
20
-11.1648028943871
30
0
41
1
10
27
20
-11.1842364996566
30
0
0
SPLINE
5
2EF
100
AcDbEntity
8
1
62
256
6
ByLayer
370
13
48
1
60
0
100
AcDbSpline
70
4
71
3
72
10
73
6
40
0
40
0
40
0
40
0
40
0.5
40
0.5
40
1
40
1
40
1
40
1
41
1
10
115.461834490754
20
4.00377978056997
30
0
41
1
10
115.474505468082
20
3.99370489688442
30
0
41
1
10
115.485403016094
20
3.98584774199895
30
0
41
1
10
115.501977858929
20
3.97544077121796
30
0
41
1
10
115.507740795797
20
3.97280654987358
30
0
41
1
10
115.510638909411
20
3.97295843357222
30
0
0
SPLINE
5
2F0
100
AcDbEntity
8
1
62
256
6
ByLayer
370
13
48
1
60
0
100
AcDbSpline
70
4
71
3
72
39
73
35
40
0
40
0
40
0
40
0
40
0.125
40
0.125
40
0.187500000000001
40
0.187500000000001
40
0.250000000000001
40
0.250000000000001
40
0.281250000000001
40
0.281250000000001
40
0.312500000000001
40
0.312500000000001
40
0.375000000000001
40
0.375000000000001
40
0.406250000000001
40
0.406250000000001
40
0.437500000000001
40
0.437500000000001
40
0.500000000000001
40
0.500000000000001
40
0.562500000000001
40
0.562500000000001
40
0.593750000000001
40
0.593750000000001
40
0.625000000000001
40
0.625000000000001
40
0.750000000000001
40
0.750000000000001
40
0.812500000000001
40
0.812500000000001
40
0.875
40
0.9375
40
0.9375
40
1
40
1
40
1
40
1
41
1
10
6.62343662944448
20
-13.3991139825267
30
0
41
1
10
6.52526156691491
20
-13.5862863200702
30
0
41
1
10
6.47095085132426
20
-13.7627529858168
30
0
41
1
10
6.46190409774917
20
-14.009990536697
30
0
41
1
10
6.47118208555287
20
-14.0878540409004
30
0
41
1
10
6.51186433905386
20
-14.2335227843499
30
0
41
1
10
6.54338456268184
20
-14.3015860084727
30
0
41
1
10
6.60716095938588
20
-14.3966619264681
30
0
41
1
10
6.63127999642418
20
-14.4272845218037
30
0
41
1
10
6.68457187283528
20
-14.4856074445191
30
0
41
1
10
6.71367947707941
20
-14.5132745322005
30
0
41
1
10
6.80809734235322
20
-14.5919981459427
30
0
41
1
10
6.8804837755134
20
-14.6387894559014
30
0
41
1
10
7.0024091577655
20
-14.7010190511094
30
0
41
1
10
7.04528929163868
20
-14.7204295790887
30
0
41
1
10
7.13549325249093
20
-14.7566297831876
30
0
41
1
10
7.18285324067239
20
-14.7734155942327
30
0
41
1
10
7.32970237082117
20
-14.8193626381123
30
0
41
1
10
7.43448902642615
20
-14.8443700005423
30
0
41
1
10
7.65688643321815
20
-14.8841381775889
30
0
41
1
10
7.7744605633192
20
-14.8989139515756
30
0
41
1
10
7.96033740991228
20
-14.9137109833957
30
0
41
1
10
8.02399374910507
20
-14.9174126649037
30
0
41
1
10
8.15311441490638
20
-14.9223726084987
30
0
41
1
10
8.21871768179309
20
-14.9236463415495
30
0
41
1
10
8.55173457094952
20
-14.9243002484977
30
0
41
1
10
8.83393464372446
20
-14.9067732585408
30
0
41
1
10
9.2796345435174
20
-14.85627600244
30
0
41
1
10
9.43102192746582
20
-14.8354454136978
30
0
41
1
10
9.73609663033071
20
-14.7867814312013
30
0
41
1
10
10.044438109725
20
-14.7310046949687
30
0
41
1
10
10.3592381909287
20
-14.6616615302167
30
0
41
1
10
10.6773433111122
20
-14.5855998436478
30
0
41
1
10
10.8384048809671
20
-14.5441020433362
30
0
41
1
10
10.9996776061055
20
-14.4995882553566
30
0
0
SPLINE
5
2F1
100
AcDbEntity
8
1
62
256
6
ByLayer
370
13
48
1
60
0
100
AcDbSpline
70
4
71
3
72
8
73
4
40
0
40
0
40
0
40
0
40
1
40
1
40
1
40
1
41
1
10
116.784212478732
20
0.371761788381974
30
0
41
1
10
116.783708677028
20
0.392286486856989
30
0
41
1
10
116.783477792116
20
0.412909958308148
30
0
41
1
10
116.783526506104
20
0.433192917056346
30
0
0
SPLINE
5
2F2
100
AcDbEntity
8
1
62
256
6
ByLayer
370
13
48
1
60
0
100
AcDbSpline
70
4
71
3
72
8
73
4
40
0
40
0
40
0
40
0
40
1
40
1
40
1
40
1
41
1
10
104.146844416203
20
0.274144241958766
30
0
41
1
10
104.56334671479
20
0.260472012187279
30
0
41
1
10
104.979850641116
20
0.246817174456765
30
0
41
1
10
105.396356155011
20
0.233179376639413
30
0
0
SPLINE
5
2F3
100
AcDbEntity
8
1
62
256
6
ByLayer
370
13
48
1
60
0
100
AcDbSpline
70
4
71
3
72
8
73
4
40
0
40
0
40
0
40
0
40
1
40
1
40
1
40
1
41
1
10
116.409316524183
20
-1.69355661168092
30
0
41
1
10
116.481428486423
20
-2.08818888370351
30
0
41
1
10
116.498224756333
20
-2.48098260492873
30
0
41
1
10
116.464319185231
20
-2.87157203771176
30
0
0
SPLINE
5
2F4
100
AcDbEntity
8
1
62
256
6
ByLayer
370
13
48
1
60
0
100
AcDbSpline
70
4
71
3
72
8
73
4
40
0
40
0
40
0
40
0
40
1
40
1
40
1
40
1
41
1
10
104.064800592506
20
5.25797963834688
30
0
41
1
10
104.062692675112
20
5.2576811195118
30
0
41
1
10
104.060577512478
20
5.25740102469612
30
0
41
1
10
104.058455138632
20
5.25713914658712
30
0
0
SPLINE
5
2F5
100
AcDbEntity
8
1
62
256
6
ByLayer
370
13
48
1
60
0
100
AcDbSpline
70
4
71
3
72
8
73
4
40
0
40
0
40
0
40
0
40
1
40
1
40
1
40
1
41
1
10
115.584130970514
20
4.01523163554867
30
0
41
1
10
115.559892083016
20
3.98736925020631
30
0
41
1
10
115.535812678108
20
3.96134140243285
30
0
41
1
10
115.511525852843
20
3.93738048960949
30
0
0
SPLINE
5
2F6
100
AcDbEntity
8
1
62
256
6
ByLayer
370
13
48
1
60
0
100
AcDbSpline
70
4
71
3
72
8
73
4
40
0
40
0
40
0
40
0
40
1
40
1
40
1
40
1
41
1
10
22
20
-11.1845749488469
30
0
41
1
10
21.9576541968611
20
-11.1845826325546
30
0
41
1
10
21.9153158453613
20
-11.1848323556977
30
0
41
1
10
21.8729849389094
20
-11.1853238980714
30
0
0
SPLINE
5
2F7
100
AcDbEntity
8
1
62
256
6
ByLayer
370
13
48
1
60
0
100
AcDbSpline
70
4
71
3
72
8
73
4
40
0
40
0
40
0
40
0
40
1
40
1
40
1
40
1
41
1
10
109.17633392512
20
3.12513893500039
30
0
41
1
10
109.222552006954
20
3.17410171306423
30
0
41
1
10
109.267611791397
20
3.22863281545085
30
0
41
1
10
109.310191876869
20
3.28973093489861
30
0
0
SPLINE
5
2F8
100
AcDbEntity
8
1
62
256
6
ByLayer
370
13
48
1
60
0
100
AcDbSpline
70
4
71
3
72
20
73
16
40
0
40
0
40
0
40
0
40
0.250000000000004
40
0.250000000000004
40
0.375000000000004
40
0.375000000000004
40
0.500000000000003
40
0.500000000000003
40
0.625000000000002
40
0.625000000000002
40
0.750000000000002
40
0.750000000000002
40
0.875000000000001
40
0.875000000000001
40
1
40
1
40
1
40
1
41
1
10
103.182795105216
20
4.22745280387144
30
0
41
1
10
103.204985224662
20
4.29402840309572
30
0
41
1
10
103.225094429475
20
4.36755160521921
30
0
41
1
10
103.254192818922
20
4.48796778718582
30
0
41
1
10
103.263656345956
20
4.52972201830141
30
0
41
1
10
103.281839100193
20
4.61414350376506
30
0
41
1
10
103.290628882792
20
4.65710784829415
30
0
41
1
10
103.307842195167
20
4.74450197133842
30
0
41
1
10
103.316322047332
20
4.78926037245847
30
0
41
1
10
103.332894388142
20
4.87853603728118
30
0
41
1
10
103.340955148317
20
4.92288514807024
30
0
41
1
10
103.357123807461
20
5.01092495628808
30
0
41
1
10
103.365211611359
20
5.0546196014929
30
0
41
1
10
103.382375840267
20
5.14114722627971
30
0
41
1
10
103.39132846395
20
5.18369439940778
30
0
41
1
10
103.401770719771
20
5.22434926616361
30
0
0
SPLINE
5
2F9
100
AcDbEntity
8
1
62
256
6
ByLayer
370
13
48
1
60
0
100
AcDbSpline
70
4
71
3
72
18
73
14
40
0
40
0
40
0
40
0
40
0.250000000000006
40
0.250000000000006
40
0.375000000000006
40
0.375000000000006
40
0.500000000000007
40
0.500000000000007
40
0.750000000000003
40
0.750000000000003
40
0.875000000000002
40
0.875000000000002
40
1
40
1
40
1
40
1
41
1
10
21.8729849051877
20
-10.6562298142222
30
0
41
1
10
21.6818408881548
20
-10.6556883299309
30
0
41
1
10
21.4942588718859
20
-10.6716680175848
30
0
41
1
10
21.2178140343148
20
-10.7184953268927
30
0
41
1
10
21.1264909590386
20
-10.7379318676249
30
0
41
1
10
20.9454668902872
20
-10.7843284433629
30
0
41
1
10
20.8553571472537
20
-10.81143613419
30
0
41
1
10
20.5905290278147
20
-10.9029140999531
30
0
41
1
10
20.4225877476613
20
-10.97673026946
30
0
41
1
10
20.181879429103
20
-11.1041488891833
30
0
41
1
10
20.1035219186867
20
-11.1494210376269
30
0
41
1
10
19.9503893968545
20
-11.2453035774589
30
0
41
1
10
19.875400050872
20
-11.2960909955778
30
0
41
1
10
19.8031511836472
20
-11.348684073945
30
0
0
SPLINE
5
2FA
100
AcDbEntity
8
1
62
256
6
ByLayer
370
13
48
1
60
0
100
AcDbSpline
70
4
71
3
72
10
73
6
40
0
40
0
40
0
40
0
40
0.5
40
0.5
40
1
40
1
40
1
40
1
41
1
10
100.681109338237
20
1.281534018233
30
0
41
1
10
100.951089007088
20
1.12417432417774
30
0
41
1
10
101.228971271946
20
0.985141163578362
30
0
41
1
10
101.800596839078
20
0.744212896459032
30
0
41
1
10
102.094331780166
20
0.642297467947657
30
0
41
1
10
102.396356155012
20
0.559930564248873
30
0
0
SPLINE
5
2FB
100
AcDbEntity
8
1
62
256
6
ByLayer
370
13
48
1
60
0
100
AcDbSpline
70
4
71
3
72
12
73
8
40
0
40
0
40
0
40
0
40
0.499999999999998
40
0.499999999999998
40
0.749999999999999
40
0.749999999999999
40
1
40
1
40
1
40
1
41
1
10
105.451438349501
20
3.90626292255459
30
0
41
1
10
105.54529548801
20
4.13261378083658
30
0
41
1
10
105.619211056274
20
4.36534714660184
30
0
41
1
10
105.683808699717
20
4.72925821840758
30
0
41
1
10
105.697441868436
20
4.85430389535415
30
0
41
1
10
105.70245904558
20
5.10295610165619
30
0
41
1
10
105.694126306307
20
5.22705054776259
30
0
41
1
10
105.671337484661
20
5.35028433787514
30
0
0
SPLINE
5
2FC
100
AcDbEntity
8
1
62
256
6
ByLayer
370
13
48
1
60
0
100
AcDbSpline
70
4
71
3
72
12
73
8
40
0
40
0
40
0
40
0
40
0.5
40
0.5
40
0.75
40
0.75
40
1
40
1
40
1
40
1
41
1
10
111.05416204493
20
3.89199444944964
30
0
41
1
10
111.171846992614
20
3.84587515444619
30
0
41
1
10
111.290329051809
20
3.81460451609857
30
0
41
1
10
111.470529252351
20
3.78630768141863
30
0
41
1
10
111.531183240233
20
3.78004225176639
30
0
41
1
10
111.652137311643
20
3.77385914557124
30
0
41
1
10
111.713020817262
20
3.77393370279759
30
0
41
1
10
111.77291351275
20
3.77707254596336
30
0
0
SPLINE
5
2FD
100
AcDbEntity
8
1
62
256
6
ByLayer
370
13
48
1
60
0
100
AcDbSpline
70
4
71
3
72
14
73
10
40
0
40
0
40
0
40
0
40
0.25
40
0.25
40
0.5
40
0.5
40
0.75
40
0.75
40
1
40
1
40
1
40
1
41
1
10
109.037459759697
20
3.48992557479895
30
0
41
1
10
109.067843543201
20
3.48297197599732
30
0
41
1
10
109.095367406817
20
3.47454633430547
30
0
41
1
10
109.142169448369
20
3.45525191316932
30
0
41
1
10
109.161056583873
20
3.44462045253081
30
0
41
1
10
109.18995266894
20
3.42142164794899
30
0
41
1
10
109.199488471694
20
3.40912332885355
30
0
41
1
10
109.208975074852
20
3.38415855565472
30
0
41
1
10
109.208977204678
20
3.37116214055544
30
0
41
1
10
109.204571456679
20
3.35843214568703
30
0
0
SPLINE
5
2FE
100
AcDbEntity
8
1
62
256
6
ByLayer
370
13
48
1
60
0
100
AcDbSpline
70
4
71
3
72
8
73
4
40
0
40
0
40
0
40
0
40
1
40
1
40
1
40
1
41
1
10
100.572439883811
20
1.83566502573979
30
0
41
1
10
100.08121609372
20
2.06664903857993
30
0
41
1
10
99.591122410851
20
2.30165122820699
30
0
41
1
10
99.1020972298198
20
2.54045255228411
30
0
0
SPLINE
5
2FF
100
AcDbEntity
8
1
62
256
6
ByLayer
370
13
48
1
60
0
100
AcDbSpline
70
4
71
3
72
33
73
29
40
0
40
0
40
0
40
0
40
0.10819445198811
40
0.22814928266219
40
0.358361627263109
40
0.498805336389658
40
0.514018439164792
40
0.52994230812779
40
0.546579412736281
40
0.56393210746151
40
0.582002613408273
40
0.600792997416467
40
0.620305148861272
40
0.640540754327357
40
0.661501270306142
40
0.683187894050563
40
0.705601532716003
40
0.72874277091716
40
0.752611836837525
40
0.777208567039543
40
0.802532370139104
40
0.828582189526974
40
0.855356465341944
40
0.882853095925367
40
0.911069399014431
40
0.940002072961376
40
0.969647158298125
40
1
40
1
40
1
40
1
41
1
10
20.4030776199107
20
-4.17216385789894
30
0
41
1
10
20.4427307735927
20
-4.25535765392209
30
0
41
1
10
20.5314684809962
20
-4.43328228693991
30
0
41
1
10
20.688300567964
20
-4.71785519015137
30
0
41
1
10
20.8786124779111
20
-5.03006159283382
30
0
41
1
10
21.031257840137
20
-5.25701416858769
30
0
41
1
10
21.1261212427018
20
-5.39139556217287
30
0
41
1
10
21.1526782033399
20
-5.42874267479431
30
0
41
1
10
21.1806078625319
20
-5.46764872891833
30
0
41
1
10
21.2099420638613
20
-5.50808728452395
30
0
41
1
10
21.2407161216782
20
-5.55002310969911
30
0
41
1
10
21.2729620500202
20
-5.59341872345837
30
0
41
1
10
21.3067099377969
20
-5.63823221004776
30
0
41
1
10
21.3419869682508
20
-5.6844175248595
30
0
41
1
10
21.3788170782885
20
-5.73192409415876
30
0
41
1
10
21.4172204059293
20
-5.78069662089274
30
0
41
1
10
21.4572127687398
20
-5.83067484044062
30
0
41
1
10
21.498805105752
20
-5.8817933003881
30
0
41
1
10
21.5420029041081
20
-5.9339811510757
30
0
41
1
10
21.5868056054848
20
-5.98716193486882
30
0
41
1
10
21.6332060013863
20
-6.04125345428656
30
0
41
1
10
21.6811895990713
20
-6.09616741289267
30
0
41
1
10
21.7307340413285
20
-6.15181003572292
30
0
41
1
10
21.7818082728975
20
-6.20807898785748
30
0
41
1
10
21.8343726654233
20
-6.26487479289048
30
0
41
1
10
21.8883754192096
20
-6.32205613269696
30
0
41
1
10
21.9437634120491
20
-6.37961276368964
30
0
41
1
10
21.9811076289032
20
-6.41742464329141
30
0
41
1
10
22
20
-6.43655360411807
30
0
0
SPLINE
5
300
100
AcDbEntity
8
1
62
256
6
ByLayer
370
13
48
1
60
0
100
AcDbSpline
70
4
71
3
72
8
73
4
40
0
40
0
40
0
40
0
40
1
40
1
40
1
40
1
41
1
10
109.650363143462
20
3.66583439417221
30
0
41
1
10
109.632134807571
20
3.63823720808659
30
0
41
1
10
109.616592875747
20
3.60848395885708
30
0
41
1
10
109.604380582877
20
3.57759263543537
30
0
0
SPLINE
5
301
100
AcDbEntity
8
1
62
256
6
ByLayer
370
13
48
1
60
0
100
AcDbSpline
70
4
71
3
72
8
73
4
40
0
40
0
40
0
40
0
40
1
40
1
40
1
40
1
41
1
10
103.181937996191
20
4.22468349297662
30
0
41
1
10
103.182203200043
20
4.2256117875817
30
0
41
1
10
103.182489137898
20
4.22653482965527
30
0
41
1
10
103.182795105215
20
4.22745280387156
30
0
0
SPLINE
5
302
100
AcDbEntity
8
1
62
256
6
ByLayer
370
13
48
1
60
0
100
AcDbSpline
70
4
71
3
72
8
73
4
40
0
40
0
40
0
40
0
40
1
40
1
40
1
40
1
41
1
10
103.116326266907
20
4.0045842636577
30
0
41
1
10
103.139167300332
20
4.07776913725451
30
0
41
1
10
103.160931802518
20
4.15115538954743
30
0
41
1
10
103.181937996191
20
4.22468349297662
30
0
0
SPLINE
5
303
100
AcDbEntity
8
1
62
256
6
ByLayer
370
13
48
1
60
0
100
AcDbSpline
70
4
71
3
72
8
73
4
40
0
40
0
40
0
40
0
40
1
40
1
40
1
40
1
41
1
10
21.8729849051877
20
-10.6562298142246
30
0
41
1
10
21.8729849161744
20
-10.8325945089811
30
0
41
1
10
21.872984927415
20
-11.0089592035963
30
0
41
1
10
21.8729849389094
20
-11.1853238980703
30
0
0
SPLINE
5
304
100
AcDbEntity
8
1
62
256
6
ByLayer
370
13
48
1
60
0
100
AcDbSpline
70
4
71
3
72
20
73
16
40
0
40
0
40
0
40
0
40
0.125
40
0.125
40
0.249999999999999
40
0.249999999999999
40
0.312499999999999
40
0.312499999999999
40
0.375
40
0.375
40
0.5
40
0.5
40
0.75
40
0.75
40
1
40
1
40
1
40
1
41
1
10
19.8306989989389
20
-4.41028131500769
30
0
41
1
10
19.4445325026669
20
-4.47066840842552
30
0
41
1
10
19.0625639395634
20
-4.54697290751835
30
0
41
1
10
18.3070159740646
20
-4.73139129115907
30
0
41
1
10
17.9321388112965
20
-4.84006810664431
30
0
41
1
10
17.3864047701948
20
-5.02390673318712
30
0
41
1
10
17.2068882462043
20
-5.08872562686901
30
0
41
1
10
16.8525731651305
20
-5.22533618130254
30
0
41
1
10
16.678645916948
20
-5.29841556495049
30
0
41
1
10
16.1520235609872
20
-5.51049969033127
30
0
41
1
10
15.7974378585844
20
-5.64671028869717
30
0
41
1
10
14.7233326597789
20
-6.04004845547121
30
0
41
1
10
13.992599239955
20
-6.28213806675839
30
0
41
1
10
12.5111597200889
20
-6.72400248714035
30
0
41
1
10
11.759886118021
20
-6.92403700782842
30
0
41
1
10
10.9981689781638
20
-7.10339225292742
30
0
0
SPLINE
5
305
100
AcDbEntity
8
1
62
256
6
ByLayer
370
13
48
1
60
0
100
AcDbSpline
70
4
71
3
72
8
73
4
40
0
40
0
40
0
40
0
40
1
40
1
40
1
40
1
41
1
10
116.785950217055
20
0.568784580536033
30
0
41
1
10
116.888482878116
20
0.593947288290735
30
0
41
1
10
116.990960180527
20
0.60718621854781
30
0
41
1
10
117.094299473961
20
0.610455039842861
30
0
0
SPLINE
5
306
100
AcDbEntity
8
1
62
256
6
ByLayer
370
13
48
1
60
0
100
AcDbSpline
70
4
71
3
72
8
73
4
40
0
40
0
40
0
40
0
40
1
40
1
40
1
40
1
41
1
10
103.182795105216
20
4.22745280387142
30
0
41
1
10
100.432961181501
20
4.31967010084196
30
0
41
1
10
97.6865404302776
20
4.32933787419063
30
0
41
1
10
94.9390983876728
20
4.25952023580453
30
0
0
SPLINE
5
307
100
AcDbEntity
8
1
62
256
6
ByLayer
370
13
48
1
60
0
100
AcDbSpline
70
4
71
2
72
12
73
9
40
0
40
0
40
0
40
0.302479972353771
40
0.302479972353771
40
0.604959944707542
40
0.604959944707542
40
0.907439917061313
40
0.907439917061313
40
1
40
1
40
1
41
1
10
21.9999999999991
20
-6.43655360411807
30
0
41
1
10
19.7396905032209
20
-6.84124913222703
30
0
41
1
10
17.7406734587793
20
-7.78476847993971
30
0
41
1
10
15.6712686946773
20
-8.76151024340197
30
0
41
1
10
14.0714310860172
20
-10.2188744711079
30
0
41
1
10
12.4840541813905
20
-11.664887681553
30
0
41
1
10
11.5069430037329
20
-13.4478331032547
30
0
41
1
10
11.2225001777263
20
-13.9668590298439
30
0
41
1
10
10.9984104059742
20
-14.499612540149
30
0
0
SPLINE
5
308
100
AcDbEntity
8
1
62
256
6
ByLayer
370
13
48
1
60
0
100
AcDbSpline
70
4
71
3
72
8
73
4
40
0
40
0
40
0
40
0
40
1
40
1
40
1
40
1
41
1
10
103.995868882572
20
1.04400385896915
30
0
41
1
10
104.047311305657
20
1.03472135950739
30
0
41
1
10
104.098803547808
20
1.02552025978187
30
0
41
1
10
104.150349587623
20
1.01640706045251
30
0
0
SPLINE
5
309
100
AcDbEntity
8
1
62
256
6
ByLayer
370
13
48
1
60
0
100
AcDbSpline
70
4
71
3
72
20
73
16
40
0
40
0
40
0
40
0
40
0.167915600494774
40
0.167915600494774
40
0.335831200989547
40
0.335831200989547
40
0.503746801484321
40
0.503746801484321
40
0.671662401979094
40
0.671662401979094
40
0.755620202226481
40
0.755620202226481
40
0.839578002473867
40
0.839578002473867
40
1
40
1
40
1
40
1
41
1
10
22.01
20
-6.43163444918753
30
0
41
1
10
22.01
20
-6.29956776493614
30
0
41
1
10
22.01
20
-6.15990494631316
30
0
41
1
10
22.01
20
-5.87379300989713
30
0
41
1
10
22.01
20
-5.72720293727875
30
0
41
1
10
22.01
20
-5.42698804521919
30
0
41
1
10
22.01
20
-5.27227250487553
30
0
41
1
10
22.01
20
-4.96770996894406
30
0
41
1
10
22.01
20
-4.81654797217342
30
0
41
1
10
22.01
20
-4.59150353233181
30
0
41
1
10
22.01
20
-4.51639090727895
30
0
41
1
10
22.01
20
-4.36926895299337
30
0
41
1
10
22.0100000000001
20
-4.29715755505458
30
0
41
1
10
22.01
20
-4.09133614821351
30
0
41
1
10
22.01
20
-3.96132783674793
30
0
41
1
10
22.01
20
-3.83655844917524
30
0
0
SPLINE
5
30A
100
AcDbEntity
8
1
62
256
6
ByLayer
370
13
48
1
60
0
100
AcDbSpline
70
4
71
3
72
8
73
4
40
0
40
0
40
0
40
0
40
1
40
1
40
1
40
1
41
1
10
105.396356155011
20
-11.1481734565859
30
0
41
1
10
104.39635615428
20
-11.1101002705093
30
0
41
1
10
103.396356154272
20
-11.0720270656688
30
0
41
1
10
102.396356155011
20
-11.033953841475
30
0
0
SPLINE
5
30B
100
AcDbEntity
8
1
62
256
6
ByLayer
370
13
48
1
60
0
100
AcDbSpline
70
4
71
3
72
38
73
34
40
0
40
0
40
0
40
0
40
0.0625
40
0.0625
40
0.125
40
0.125
40
0.25
40
0.25
40
0.3125
40
0.3125
40
0.375
40
0.375
40
0.4375
40
0.4375
40
0.5
40
0.5
40
0.5625
40
0.5625
40
0.59375
40
0.59375
40
0.625
40
0.625
40
0.6875
40
0.6875
40
0.75
40
0.75
40
0.8125
40
0.8125
40
0.875000000000001
40
0.875000000000001
40
0.937500000000001
40
0.937500000000001
40
1
40
1
40
1
40
1
41
1
10
98.0852043504012
20
2.86780868357118
30
0
41
1
10
97.3190594975306
20
3.20082178637705
30
0
41
1
10
96.5526983080324
20
3.52955525057183
30
0
41
1
10
95.018478226844
20
4.17619120935788
30
0
41
1
10
94.2504135916134
20
4.49416218336088
30
0
41
1
10
91.9495291246142
20
5.42550162771485
30
0
41
1
10
90.417581967748
20
6.0171338663323
30
0
41
1
10
88.1171856329836
20
6.85017308510885
30
0
41
1
10
87.3493670550446
20
7.11897856920768
30
0
41
1
10
85.815658115292
20
7.6352030073283
30
0
41
1
10
85.04970582132
20
7.88265149476234
30
0
41
1
10
83.5186637628269
20
8.35459024311263
30
0
41
1
10
82.7537630451975
20
8.57933451076406
30
0
41
1
10
81.222989387463
20
9.00298559330531
30
0
41
1
10
80.4565747764894
20
9.20155310356517
30
0
41
1
10
78.9183302706871
20
9.56613727321189
30
0
41
1
10
78.1478047114867
20
9.73192299040284
30
0
41
1
10
76.9854067209978
20
9.9532963994385
30
0
41
1
10
76.5967984521411
20
10.0225170258398
30
0
41
1
10
75.8162845054126
20
10.1515275312001
30
0
41
1
10
75.4242756885161
20
10.2112231389527
30
0
41
1
10
74.2429398698087
20
10.3773010877573
30
0
41
1
10
73.4485339955473
20
10.4709996004912
30
0
41
1
10
71.8485054075342
20
10.6327617166849
30
0
41
1
10
71.0436086966309
20
10.7006362293369
30
0
41
1
10
69.428411946281
20
10.8162964471345
30
0
41
1
10
68.6177347618888
20
10.8641789737517
30
0
41
1
10
66.9910174207206
20
10.9442639251897
30
0
41
1
10
66.1743719875232
20
10.9762222596407
30
0
41
1
10
64.5357773847853
20
11.0265010019022
30
0
41
1
10
63.7136622165289
20
11.0448372639854
30
0
41
1
10
62.0622032819686
20
11.0716114231773
30
0
41
1
10
61.2329498275512
20
11.0801418213655
30
0
41
1
10
60.4
20
11.085806355212
30
0
0
SPLINE
5
30C
100
AcDbEntity
8
1
62
256
6
ByLayer
370
13
48
1
60
0
100
AcDbSpline
70
4
71
3
72
10
73
6
40
0
40
0
40
0
40
0
40
0.41256397918951
40
0.41256397918951
40
1
40
1
40
1
40
1
41
1
10
22.45
20
-10.6427946859951
30
0
41
1
10
22.45
20
-10.0636702224399
30
0
41
1
10
22.45
20
-9.48454580945983
30
0
41
1
10
22.45
20
-8.08082567911561
30
0
41
1
10
22.45
20
-7.25623001346702
30
0
41
1
10
22.45
20
-6.43163444918753
30
0
0
SPLINE
5
30D
100
AcDbEntity
8
1
62
256
6
ByLayer
370
13
48
1
60
0
100
AcDbSpline
70
4
71
3
72
10
73
6
40
0
40
0
40
0
40
0
40
0.5
40
0.5
40
1
40
1
40
1
40
1
41
1
10
102.396356155011
20
0.559930564248901
30
0
41
1
10
102.683316905789
20
0.474704931371349
30
0
41
1
10
102.972709459507
20
0.408362526053366
30
0
41
1
10
103.556208273826
20
0.312954928271097
30
0
41
1
10
103.85031324178
20
0.283878263511298
30
0
41
1
10
104.146844416203
20
0.274144241958766
30
0
0
SPLINE
5
30E
100
AcDbEntity
8
1
62
256
6
ByLayer
370
13
48
1
60
0
100
AcDbSpline
70
4
71
3
72
8
73
4
40
0
40
0
40
0
40
0
40
1
40
1
40
1
40
1
41
1
10
22.0099999999998
20
-10.6566179324474
30
0
41
1
10
21.9643283003681
20
-10.656488913197
30
0
41
1
10
21.9186566034245
20
-10.6563591957444
30
0
41
1
10
21.8729849051877
20
-10.6562298142051
30
0
0
SPLINE
5
30F
100
AcDbEntity
8
1
62
256
6
ByLayer
370
13
48
1
60
0
100
AcDbSpline
70
4
71
3
72
8
73
4
40
0
40
0
40
0
40
0
40
1
40
1
40
1
40
1
41
1
10
110.58711455132
20
2.90946497622332
30
0
41
1
10
110.769903438988
20
2.96215601215238
30
0
41
1
10
110.943762670984
20
3.00603426417627
30
0
41
1
10
111.108429299291
20
3.04320966887761
30
0
0
SPLINE
5
310
100
AcDbEntity
8
1
62
256
6
ByLayer
370
13
48
1
60
0
100
AcDbSpline
70
4
71
3
72
18
73
14
40
0
40
0
40
0
40
0
40
0.249999999999987
40
0.249999999999987
40
0.374999999999987
40
0.374999999999987
40
0.499999999999986
40
0.499999999999986
40
0.750000000000019
40
0.750000000000019
40
0.875000000000009
40
0.875000000000009
40
1
40
1
40
1
40
1
41
1
10
109.640580693627
20
3.66532171822078
30
0
41
1
10
109.635260143786
20
3.66504288001485
30
0
41
1
10
109.636524088004
20
3.67530133214396
30
0
41
1
10
109.651789183663
20
3.70371966301059
30
0
41
1
10
109.659147838137
20
3.7152241717875
30
0
41
1
10
109.679090097328
20
3.74072253137067
30
0
41
1
10
109.691941178099
20
3.7549673162697
30
0
41
1
10
109.738024439712
20
3.79743432502551
30
0
41
1
10
109.780212133789
20
3.82612706415693
30
0
41
1
10
109.853501099203
20
3.8573123330377
30
0
41
1
10
109.880013212996
20
3.86599031531398
30
0
41
1
10
109.934157935783
20
3.87847185336455
30
0
41
1
10
109.962023259157
20
3.88242667571589
30
0
41
1
10
109.990691603496
20
3.88394468632524
30
0
0
SPLINE
5
311
100
AcDbEntity
8
1
62
256
6
ByLayer
370
13
48
1
60
0
100
AcDbSpline
70
4
71
3
72
8
73
4
40
0
40
0
40
0
40
0
40
1
40
1
40
1
40
1
41
1
10
103.786150605046
20
1.08421941410066
30
0
41
1
10
103.855983145075
20
1.07004426770499
30
0
41
1
10
103.925885711819
20
1.05663193334581
30
0
41
1
10
103.995868882563
20
1.04400385897066
30
0
0
SPLINE
5
312
100
AcDbEntity
8
1
62
256
6
ByLayer
370
13
48
1
60
0
100
AcDbSpline
70
4
71
3
72
12
73
8
40
0
40
0
40
0
40
0
40
0.555741952313922
40
0.555741952313922
40
0.833612928470883
40
0.833612928470883
40
1
40
1
40
1
40
1
41
1
10
6.62547704516732
20
-11.8892995998294
30
0
41
1
10
6.79912358738807
20
-11.2429239589283
30
0
41
1
10
7.02555942028297
20
-10.6074889445152
30
0
41
1
10
7.44725825450456
20
-9.67046873193743
30
0
41
1
10
7.60160872094727
20
-9.36084133150311
30
0
41
1
10
7.87182868242675
20
-8.87032501869874
30
0
41
1
10
7.97778148201439
20
-8.68866311686384
30
0
41
1
10
8.08837525093614
20
-8.50917523752901
30
0
0
SPLINE
5
313
100
AcDbEntity
8
1
62
256
6
ByLayer
370
13
48
1
60
0
100
AcDbSpline
70
4
71
3
72
8
73
4
40
0
40
0
40
0
40
0
40
1
40
1
40
1
40
1
41
1
10
27
20
-11.1842364996567
30
0
41
1
10
25.3333312261663
20
-11.1841933849377
30
0
41
1
10
23.6666640900203
20
-11.1842725302185
30
0
41
1
10
22
20
-11.1845749488469
30
0
0
SPLINE
5
314
100
AcDbEntity
8
1
62
256
6
ByLayer
370
13
48
1
60
0
100
AcDbSpline
70
4
71
3
72
12
73
8
40
0
40
0
40
0
40
0
40
0.499999999999998
40
0.499999999999998
40
0.749999999999999
40
0.749999999999999
40
1
40
1
40
1
40
1
41
1
10
21.8729849389094
20
-11.1853238980714
30
0
41
1
10
21.5070532652694
20
-11.1895730611196
30
0
41
1
10
21.1494262375718
20
-11.2083809911806
30
0
41
1
10
20.6250256790867
20
-11.2530264514219
30
0
41
1
10
20.4514041612131
20
-11.2707196765394
30
0
41
1
10
20.1183868506147
20
-11.3084854070326
30
0
41
1
10
19.9578260958018
20
-11.3286348822869
30
0
41
1
10
19.8031511836472
20
-11.348684073945
30
0
0
SPLINE
5
315
100
AcDbEntity
8
1
62
256
6
ByLayer
370
13
48
1
60
0
100
AcDbSpline
70
4
71
3
72
8
73
4
40
0
40
0
40
0
40
0
40
1
40
1
40
1
40
1
41
1
10
22.45
20
-10.6427959542729
30
0
41
1
10
22.3033332446425
20
-10.642433528031
30
0
41
1
10
22.156666570662
20
-10.6420459660685
30
0
41
1
10
22.01
20
-10.6416322585536
30
0
0
SPLINE
5
316
100
AcDbEntity
8
1
62
256
6
ByLayer
370
13
48
1
60
0
100
AcDbSpline
70
4
71
3
72
10
73
6
40
0
40
0
40
0
40
0
40
0.5
40
0.5
40
1
40
1
40
1
40
1
41
1
10
103.516891931517
20
5.28617418845275
30
0
41
1
10
103.610107036887
20
5.28878480597649
30
0
41
1
10
103.703199779564
20
5.28768667988274
30
0
41
1
10
103.884089732487
20
5.27799080746257
30
0
41
1
10
103.97235155419
20
5.26943826940843
30
0
41
1
10
104.058455138632
20
5.25713914658675
30
0
0
SPLINE
5
317
100
AcDbEntity
8
1
62
256
6
ByLayer
370
13
48
1
60
0
100
AcDbSpline
70
4
71
1
72
4
73
2
40
0
40
0
40
1
40
1
41
1
10
22.4499999999992
20
-6.43163444918753
30
0
41
1
10
22.01
20
-6.43163444918753
30
0
0
SPLINE
5
318
100
AcDbEntity
8
1
62
256
6
ByLayer
370
13
48
1
60
0
100
AcDbSpline
70
4
71
3
72
14
73
10
40
0
40
0
40
0
40
0
40
0.25
40
0.25
40
0.5
40
0.5
40
0.75
40
0.75
40
1
40
1
40
1
40
1
41
1
10
116.783526506104
20
0.433192917056346
30
0
41
1
10
116.783675844155
20
0.49537254218194
30
0
41
1
10
116.784879697745
20
0.553713390058874
30
0
41
1
10
116.789526634486
20
0.662243566785634
30
0
41
1
10
116.792851918776
20
0.709517161443046
30
0
41
1
10
116.801534668306
20
0.788247291152061
30
0
41
1
10
116.806684149633
20
0.81778115082497
30
0
41
1
10
116.81849448141
20
0.855041326029351
30
0
41
1
10
116.824840860219
20
0.861777723221707
30
0
41
1
10
116.83151085243
20
0.8561176428274
30
0
0
SPLINE
5
319
100
AcDbEntity
8
1
62
256
6
ByLayer
370
13
48
1
60
0
100
AcDbSpline
70
4
71
3
72
8
73
4
40
0
40
0
40
0
40
0
40
1
40
1
40
1
40
1
41
1
10
98.0852043504011
20
2.86780868357115
30
0
41
1
10
98.4258036131893
20
2.75029793606529
30
0
41
1
10
98.7661558425395
20
2.64007260249329
30
0
41
1
10
99.1020972298198
20
2.54045255228411
30
0
0
SPLINE
5
31A
100
AcDbEntity
8
1
62
256
6
ByLayer
370
13
48
1
60
0
100
AcDbSpline
70
4
71
3
72
12
73
8
40
0
40
0
40
0
40
0
40
0.500000000000004
40
0.500000000000004
40
0.750000000000002
40
0.750000000000002
40
1
40
1
40
1
40
1
41
1
10
105.671337484661
20
5.35028433788258
30
0
41
1
10
105.681208567747
20
5.45977504872357
30
0
41
1
10
105.678178510997
20
5.57205551177702
30
0
41
1
10
105.646979850595
20
5.73275224626417
30
0
41
1
10
105.632202863778
20
5.78531939814198
30
0
41
1
10
105.592612351263
20
5.88816451930558
30
0
41
1
10
105.567672850401
20
5.9383989571281
30
0
41
1
10
105.538240421249
20
5.98566446269223
30
0
0
SPLINE
5
31B
100
AcDbEntity
8
1
62
256
6
ByLayer
370
13
48
1
60
0
100
AcDbSpline
70
4
71
3
72
8
73
4
40
0
40
0
40
0
40
0
40
1
40
1
40
1
40
1
41
1
10
0.0999999999999659
20
-3.96862696659682
30
0
41
1
10
0.0650328392778476
20
-3.82765262553048
30
0
41
1
10
0.0316759574587309
20
-3.68612145608716
30
0
41
1
10
0
20
-3.54400902933392
30
0
0
SPLINE
5
31C
100
AcDbEntity
8
1
62
256
6
ByLayer
370
13
48
1
60
0
100
AcDbSpline
70
4
71
3
72
12
73
8
40
0
40
0
40
0
40
0
40
0.0456876493006272
40
0.0456876493006272
40
0.522843824650314
40
0.522843824650314
40
1
40
1
40
1
40
1
41
1
10
92.9380435598333
20
5.02623657719269
30
0
41
1
10
93.0973623703006
20
5.0363863374626
30
0
41
1
10
93.2566763396853
20
5.04622365231972
30
0
41
1
10
95.0798043699799
20
5.1551937230835
30
0
41
1
10
96.7432284247544
20
5.22015297273816
30
0
41
1
10
100.072275343444
20
5.27722717105939
30
0
41
1
10
101.737019248896
20
5.26929702082259
30
0
41
1
10
103.401770719771
20
5.22434926616364
30
0
0
SPLINE
5
31D
100
AcDbEntity
8
1
62
256
6
ByLayer
370
13
48
1
60
0
100
AcDbSpline
70
4
71
3
72
8
73
4
40
0
40
0
40
0
40
0
40
1
40
1
40
1
40
1
41
1
10
105.38273468439
20
3.71278923525955
30
0
41
1
10
105.401985013681
20
3.77692619449854
30
0
41
1
10
105.424583647891
20
3.84149869838277
30
0
41
1
10
105.451438349501
20
3.90626292255459
30
0
0
SPLINE
5
31E
100
AcDbEntity
8
1
62
256
6
ByLayer
370
13
48
1
60
0
100
AcDbSpline
70
4
71
3
72
28
73
24
40
0
40
0
40
0
40
0
40
0.215326577839495
40
0.215326577839495
40
0.322989866759242
40
0.322989866759242
40
0.376821511219119
40
0.376821511219119
40
0.430653155678995
40
0.430653155678995
40
0.645979733518502
40
0.645979733518502
40
0.699811377978381
40
0.699811377978381
40
0.753643022438259
40
0.753643022438259
40
0.861306311358016
40
0.861306311358016
40
0.915137955817891
40
0.915137955817891
40
0.968969600277766
40
0.968969600277766
40
1
40
1
40
1
40
1
41
1
10
103.116326266901
20
4.00458426364111
30
0
41
1
10
102.668743961233
20
4.11250070913195
30
0
41
1
10
102.211889359865
20
4.18400161160801
30
0
41
1
10
101.513824016449
20
4.24905078968067
30
0
41
1
10
101.278946015823
20
4.26350656734999
30
0
41
1
10
100.92304468399
20
4.27464304449381
30
0
41
1
10
100.803810878836
20
4.27659094377276
30
0
41
1
10
100.564060252574
20
4.27693531140503
30
0
41
1
10
100.443270278895
20
4.2753206851138
30
0
41
1
10
99.8403354124194
20
4.25835714460848
30
0
41
1
10
99.3602515110994
20
4.21687417859886
30
0
41
1
10
98.7627085451355
20
4.12944711892834
30
0
41
1
10
98.6433297791364
20
4.1101572027321
30
0
41
1
10
98.4048336927402
20
4.06782219810083
30
0
41
1
10
98.2853365865817
20
4.04469205403728
30
0
41
1
10
97.9312098543378
20
3.97018829256669
30
0
41
1
10
97.7003820410097
20
3.91371694524352
30
0
41
1
10
97.3631419027357
20
3.818101955922
30
0
41
1
10
97.252236275859
20
3.78440090013501
30
0
41
1
10
97.0337706679125
20
3.71300864093178
30
0
41
1
10
96.9257150219929
20
3.67512437499306
30
0
41
1
10
96.7608623258751
20
3.61276815537451
30
0
41
1
10
96.7016944810215
20
3.58942720554018
30
0
41
1
10
96.6437204154425
20
3.56549401596095
30
0
0
SPLINE
5
31F
100
AcDbEntity
8
1
62
256
6
ByLayer
370
13
48
1
60
0
100
AcDbSpline
70
4
71
3
72
24
73
20
40
0
40
0
40
0
40
0
40
0.0503063917870718
40
0.0503063917870718
40
0.15582790381073
40
0.15582790381073
40
0.261349415834389
40
0.261349415834389
40
0.366870927858047
40
0.366870927858047
40
0.472392439881706
40
0.472392439881706
40
0.577913951905364
40
0.577913951905364
40
0.683435463929023
40
0.683435463929023
40
0.788956975952681
40
0.788956975952681
40
1
40
1
40
1
40
1
41
1
10
83.4227470609463
20
-9.12138664063588
30
0
41
1
10
83.0519720039302
20
-9.21456908573799
30
0
41
1
10
82.6811599731412
20
-9.30473434196446
30
0
41
1
10
81.5320860443284
20
-9.57426343031801
30
0
41
1
10
80.7531645463967
20
-9.74261243373093
30
0
41
1
10
79.1882055689773
20
-10.0463792027785
30
0
41
1
10
78.4027637656676
20
-10.1812814665336
30
0
41
1
10
76.8230534069114
20
-10.4153609637724
30
0
41
1
10
76.0286545054927
20
-10.5151043228075
30
0
41
1
10
74.4291788965083
20
-10.6848655713947
30
0
41
1
10
73.6241978116433
20
-10.7549982327182
30
0
41
1
10
72.0034676359244
20
-10.8714151558232
30
0
41
1
10
71.1874500922868
20
-10.9177170219898
30
0
41
1
10
69.5510940569942
20
-10.9915553759125
30
0
41
1
10
68.7299882207058
20
-11.0191578600245
30
0
41
1
10
67.0817969620368
20
-11.0605164019012
30
0
41
1
10
66.2546830367223
20
-11.0742407840153
30
0
41
1
10
63.7634578797123
20
-11.1008573228395
30
0
41
1
10
62.0893902358625
20
-11.0994244483981
30
0
41
1
10
60.4000000000001
20
-11.0936853023601
30
0
0
SPLINE
5
320
100
AcDbEntity
8
1
62
256
6
ByLayer
370
13
48
1
60
0
100
AcDbSpline
70
4
71
3
72
8
73
4
40
0
40
0
40
0
40
0
40
1
40
1
40
1
40
1
41
1
10
22
20
11.2120600809839
30
0
41
1
10
21.9831631979407
20
11.2120600809839
30
0
41
1
10
21.9663263462285
20
11.2120977210998
30
0
41
1
10
21.9494897427832
20
11.2121730002392
30
0
0
SPLINE
5
321
100
AcDbEntity
8
1
62
256
6
ByLayer
370
13
48
1
60
0
100
AcDbSpline
70
4
71
3
72
8
73
4
40
0
40
0
40
0
40
0
40
1
40
1
40
1
40
1
41
1
10
102.041278267024
20
1.20954137401324
30
0
41
1
10
101.546271238171
20
1.40365712877164
30
0
41
1
10
101.055091206995
20
1.60871197159162
30
0
41
1
10
100.572439883811
20
1.83566502573981
30
0
0
SPLINE
5
322
100
AcDbEntity
8
1
62
256
6
ByLayer
370
13
48
1
60
0
100
AcDbSpline
70
4
71
3
72
18
73
14
40
0
40
0
40
0
40
0
40
0.499999999999997
40
0.499999999999997
40
0.624999999999997
40
0.624999999999997
40
0.656249999999997
40
0.656249999999997
40
0.687499999999997
40
0.687499999999997
40
0.749999999999998
40
0.749999999999998
40
1
40
1
40
1
40
1
41
1
10
10.9982555217562
20
-14.4999807403208
30
0
41
1
10
12.5129985993096
20
-14.0819562624108
30
0
41
1
10
13.985385010685
20
-13.5689657565881
30
0
41
1
10
15.7694400570641
20
-12.8051050266236
30
0
41
1
10
16.123280087856
20
-12.6462136152442
30
0
41
1
10
16.5617793858999
20
-12.4397710413974
30
0
41
1
10
16.6492890824416
20
-12.398090851535
30
0
41
1
10
16.8239254449776
20
-12.3139415513977
30
0
41
1
10
16.9115736325102
20
-12.2725466086792
30
0
41
1
10
17.1763074259796
20
-12.1520470238197
30
0
41
1
10
17.3548379550042
20
-12.0759184610698
30
0
41
1
10
18.2577387269627
20
-11.716383510659
30
0
41
1
10
19.0124628380186
20
-11.495496382411
30
0
41
1
10
19.8031511836472
20
-11.348684073945
30
0
0
SPLINE
5
323
100
AcDbEntity
8
1
62
256
6
ByLayer
370
13
48
1
60
0
100
AcDbSpline
70
4
71
3
72
8
73
4
40
0
40
0
40
0
40
0
40
1
40
1
40
1
40
1
41
1
10
22
20
-3.84309788877923
30
0
41
1
10
21.9576544641137
20
-3.84319925347017
30
0
41
1
10
21.9153161829657
20
-3.8433093063895
30
0
41
1
10
21.8729851503768
20
-3.84342806128967
30
0
0
SPLINE
5
324
100
AcDbEntity
8
1
62
256
6
ByLayer
370
13
48
1
60
0
100
AcDbSpline
70
4
71
3
72
20
73
16
40
0
40
0
40
0
40
0
40
0.125
40
0.125
40
0.1875
40
0.1875
40
0.25
40
0.25
40
0.375
40
0.375
40
0.499999999999999
40
0.499999999999999
40
0.75
40
0.75
40
1
40
1
40
1
40
1
41
1
10
60.4
20
-4.30024201072092
30
0
41
1
10
59.015963443104
20
-4.15538335314005
30
0
41
1
10
57.6296073695004
20
-4.04361893212825
30
0
41
1
10
55.5467130791395
20
-3.92610950633551
30
0
41
1
10
54.8518532724246
20
-3.89530565227605
30
0
41
1
10
53.4610120137064
20
-3.85061012884884
30
0
41
1
10
52.7650342200988
20
-3.83666397027167
30
0
41
1
10
50.6759911554643
20
-3.81164806653251
30
0
41
1
10
49.2832620030892
20
-3.81688479972289
30
0
41
1
10
46.4978501039458
20
-3.82909012626041
30
0
41
1
10
45.1051451537251
20
-3.83705527490133
30
0
41
1
10
40.9270248951654
20
-3.85102574792967
30
0
41
1
10
38.1416196687492
20
-3.84903595073888
30
0
41
1
10
32.5708107697264
20
-3.84335271139807
30
0
41
1
10
29.7854104863247
20
-3.83874556353371
30
0
41
1
10
27
20
-3.83840182632781
30
0
0
SPLINE
5
325
100
AcDbEntity
8
1
62
256
6
ByLayer
370
13
48
1
60
0
100
AcDbSpline
70
4
71
3
72
18
73
14
40
0
40
0
40
0
40
0
40
0.0809910287223742
40
0.0809910287223742
40
0.234159190601977
40
0.234159190601977
40
0.310743271541779
40
0.310743271541779
40
0.387327352481581
40
0.387327352481581
40
0.693663676240791
40
0.693663676240791
40
1
40
1
40
1
40
1
41
1
10
10.0282705124453
20
-7.39551620196696
30
0
41
1
10
9.89250985047633
20
-7.53512142518073
30
0
41
1
10
9.75989642931458
20
-7.67707530188036
30
0
41
1
10
9.38550315638
20
-8.094230965994
30
0
41
1
10
9.15181946426074
20
-8.37544635832808
30
0
41
1
10
8.81856599541084
20
-8.81003641929442
30
0
41
1
10
8.71014360689239
20
-8.95735633500036
30
0
41
1
10
8.50058332419496
20
-9.25438458318226
30
0
41
1
10
8.39941775745143
20
-9.40409555105111
30
0
41
1
10
7.91158990512679
20
-10.1585629815487
30
0
41
1
10
7.57986484069005
20
-10.7815610268198
30
0
41
1
10
7.02289039365607
20
-12.0640453499142
30
0
41
1
10
6.79712856058876
20
-12.7230725469974
30
0
41
1
10
6.62343662944448
20
-13.3991139825267
30
0
0
SPLINE
5
326
100
AcDbEntity
8
1
62
256
6
ByLayer
370
13
48
1
60
0
100
AcDbSpline
70
4
71
3
72
42
73
38
40
0
40
0
40
0
40
0
40
0.0625000000000006
40
0.0625000000000006
40
0.0937500000000009
40
0.0937500000000009
40
0.125000000000001
40
0.125000000000001
40
0.156250000000001
40
0.156250000000001
40
0.187500000000002
40
0.187500000000002
40
0.203125000000002
40
0.203125000000002
40
0.218750000000002
40
0.218750000000002
40
0.250000000000002
40
0.250000000000002
40
0.312500000000002
40
0.312500000000002
40
0.375000000000002
40
0.375000000000002
40
0.437500000000002
40
0.437500000000002
40
0.500000000000001
40
0.500000000000001
40
0.562500000000001
40
0.562500000000001
40
0.625000000000001
40
0.625000000000001
40
0.750000000000001
40
0.750000000000001
40
0.812500000000001
40
0.812500000000001
40
0.875000000000001
40
0.875000000000001
40
1
40
1
40
1
40
1
41
1
10
100.888828036426
20
-11.033953841475
30
0
41
1
10
100.033424424708
20
-11.020571364096
30
0
41
1
10
99.1708469508038
20
-11.0098349623724
30
0
41
1
10
97.8761529757253
20
-10.9935471216444
30
0
41
1
10
97.4443932228085
20
-10.9880676868439
30
0
41
1
10
96.5829785116191
20
-10.9749058395929
30
0
41
1
10
96.1533629825492
20
-10.9672133218221
30
0
41
1
10
95.2992124925823
20
-10.9462555325692
30
0
41
1
10
94.8746381379492
20
-10.9330772641338
30
0
41
1
10
94.0338510590359
20
-10.8956287465119
30
0
41
1
10
93.6175563959237
20
-10.8716246569342
30
0
41
1
10
93.0037481222329
20
-10.8177178884922
30
0
41
1
10
92.800614142703
20
-10.7969657988601
30
0
41
1
10
92.3936748637324
20
-10.7540716460479
30
0
41
1
10
92.1901628067258
20
-10.7316331065572
30
0
41
1
10
91.5797150420175
20
-10.661252288675
30
0
41
1
10
91.1729551370574
20
-10.6101927321632
30
0
41
1
10
89.9536342648314
20
-10.4443084576636
30
0
41
1
10
89.1420251342613
20
-10.3166957510287
30
0
41
1
10
87.5184161083126
20
-10.029410482478
30
0
41
1
10
86.7063591337641
20
-9.86977335970872
30
0
41
1
10
85.0783418296677
20
-9.52267622596898
30
0
41
1
10
84.2623021993936
20
-9.33501824248441
30
0
41
1
10
82.6270654471699
20
-8.94064922776425
30
0
41
1
10
81.8072192186582
20
-8.73388086120235
30
0
41
1
10
80.1589305649326
20
-8.3112309111564
30
0
41
1
10
79.330362595195
20
-8.09562050016876
30
0
41
1
10
77.662600806436
20
-7.66347956477335
30
0
41
1
10
76.8228581565432
20
-7.44673564710877
30
0
41
1
10
74.2933286807171
20
-6.80839706779051
30
0
41
1
10
72.5909123271724
20
-6.39972814680721
30
0
41
1
10
70.0117199712133
20
-5.83702504250664
30
0
41
1
10
69.1471456181984
20
-5.65765315014889
30
0
41
1
10
67.4122536864036
20
-5.32008473675845
30
0
41
1
10
66.5422437409932
20
-5.16192955186392
30
0
41
1
10
63.9239834622015
20
-4.72511568208051
30
0
41
1
10
62.1672429406498
20
-4.48570486956808
30
0
41
1
10
60.4
20
-4.30024201072092
30
0
0
SPLINE
5
327
100
AcDbEntity
8
1
62
256
6
ByLayer
370
13
48
1
60
0
100
AcDbSpline
70
4
71
3
72
8
73
4
40
0
40
0
40
0
40
0
40
1
40
1
40
1
40
1
41
1
10
106.499787373219
20
6.3492055185165
30
0
41
1
10
106.514342759399
20
6.34735966619564
30
0
41
1
10
106.529054752992
20
6.34542334880916
30
0
41
1
10
106.543921043099
20
6.34340020536752
30
0
0
SPLINE
5
328
100
AcDbEntity
8
1
62
256
6
ByLayer
370
13
48
1
60
0
100
AcDbSpline
70
4
71
3
72
18
73
14
40
0
40
0
40
0
40
0
40
0.125000000000013
40
0.125000000000013
40
0.250000000000026
40
0.250000000000026
40
0.500000000000025
40
0.500000000000025
40
0.750000000000024
40
0.750000000000024
40
0.875000000000012
40
0.875000000000012
40
1
40
1
40
1
40
1
41
1
10
116.764814127955
20
3.53800079860892
30
0
41
1
10
116.704268028835
20
3.53482771200979
30
0
41
1
10
116.644908243353
20
3.53515309339517
30
0
41
1
10
116.527682618518
20
3.54167078731624
30
0
41
1
10
116.47020581733
20
3.54790193560615
30
0
41
1
10
116.304534806513
20
3.5736609783809
30
0
41
1
10
116.199864352125
20
3.60030618697488
30
0
41
1
10
115.994631846382
20
3.67301562338676
30
0
41
1
10
115.895812080753
20
3.71872296517981
30
0
41
1
10
115.753843025676
20
3.80219296552684
30
0
41
1
10
115.70748751876
20
3.83256057401093
30
0
41
1
10
115.616720578925
20
3.89904288452678
30
0
41
1
10
115.572336922977
20
3.93517642045097
30
0
41
1
10
115.529730782631
20
3.97395899603978
30
0
0
SPLINE
5
329
100
AcDbEntity
8
1
62
256
6
ByLayer
370
13
48
1
60
0
100
AcDbSpline
70
4
71
1
72
4
73
2
40
0
40
0
40
1
40
1
41
1
10
22.0100000179281
20
-10.6416322585637
30
0
41
1
10
22.009999982072
20
-10.6566179324372
30
0
0
SPLINE
5
32A
100
AcDbEntity
8
1
62
256
6
ByLayer
370
13
48
1
60
0
100
AcDbSpline
70
4
71
3
72
38
73
34
40
0
40
0
40
0
40
0
40
0.125
40
0.125
40
0.187499999999999
40
0.187499999999999
40
0.218749999999999
40
0.218749999999999
40
0.249999999999999
40
0.249999999999999
40
0.312499999999999
40
0.312499999999999
40
0.374999999999999
40
0.374999999999999
40
0.437499999999999
40
0.437499999999999
40
0.499999999999999
40
0.499999999999999
40
0.562499999999999
40
0.562499999999999
40
0.624999999999999
40
0.624999999999999
40
0.687499999999999
40
0.687499999999999
40
0.718749999999999
40
0.718749999999999
40
0.749999999999999
40
0.749999999999999
40
0.875
40
0.875
40
0.9375
40
0.9375
40
1
40
1
40
1
40
1
41
1
10
5.83369999999999
20
-3.96862696659696
30
0
41
1
10
6.2015896428139
20
-3.76017797740406
30
0
41
1
10
6.54801870523443
20
-3.52410359878337
30
0
41
1
10
7.02927117510549
20
-3.12057259647594
30
0
41
1
10
7.18323740043687
20
-2.97775779463222
30
0
41
1
10
7.4029520654916
20
-2.74907362441581
30
0
41
1
10
7.47425889169173
20
-2.67044112948008
30
0
41
1
10
7.6110598210314
20
-2.510012418374
30
0
41
1
10
7.67678266034369
20
-2.42798646484016
30
0
41
1
10
7.86552491074434
20
-2.17620765387551
30
0
41
1
10
7.98016934870438
20
-2.00078855028158
30
0
41
1
10
8.18396883297189
20
-1.63270501401158
30
0
41
1
10
8.27351342275301
20
-1.43847864098063
30
0
41
1
10
8.41787106459839
20
-1.04298417119298
30
0
41
1
10
8.47347953989691
20
-0.840763201725537
30
0
41
1
10
8.54903776885212
20
-0.426693964756083
30
0
41
1
10
8.56869131080646
20
-0.213152622003548
30
0
41
1
10
8.56904035212662
20
0.207344652910081
30
0
41
1
10
8.55032972239894
20
0.415995787624382
30
0
41
1
10
8.47603802700121
20
0.830179171509201
30
0
41
1
10
8.41975072930529
20
1.03682225284515
30
0
41
1
10
8.27593105243486
20
1.43283759628659
30
0
41
1
10
8.18828653067411
20
1.62398087501694
30
0
41
1
10
8.03545307492075
20
1.90137439540112
30
0
41
1
10
7.98071516447152
20
1.992602904829
30
0
41
1
10
7.86554054856231
20
2.17021442572621
30
0
41
1
10
7.80517690452197
20
2.25655342188517
30
0
41
1
10
7.49062354725331
20
2.67693328074563
30
0
41
1
10
7.19888846642755
20
2.97761522393191
30
0
41
1
10
6.71322359084016
20
3.38593500441968
30
0
41
1
10
6.54457535682917
20
3.51361921999407
30
0
41
1
10
6.19704287624464
20
3.75267356200294
30
0
41
1
10
6.0178571348205
20
3.86428217365202
30
0
41
1
10
5.83369999999999
20
3.96862696659693
30
0
0
SPLINE
5
32B
100
AcDbEntity
8
1
62
256
6
ByLayer
370
13
48
1
60
0
100
AcDbSpline
70
4
71
3
72
8
73
4
40
0
40
0
40
0
40
0
40
1
40
1
40
1
40
1
41
1
10
103.516801289643
20
5.28621792756633
30
0
41
1
10
103.631043380285
20
6.40660680885193
30
0
41
1
10
103.740044995861
20
7.52447207995567
30
0
41
1
10
103.841804004324
20
8.64063988557911
30
0
0
SPLINE
5
32C
100
AcDbEntity
8
1
62
256
6
ByLayer
370
13
48
1
60
0
100
AcDbSpline
70
4
71
3
72
8
73
4
40
0
40
0
40
0
40
0
40
1
40
1
40
1
40
1
41
1
10
108.982050986734
20
2.97850427411606
30
0
41
1
10
108.975173902188
20
2.97083603095038
30
0
41
1
10
108.969687610295
20
2.96448164384651
30
0
41
1
10
108.965985214015
20
2.95966831388475
30
0
0
SPLINE
5
32D
100
AcDbEntity
8
1
62
256
6
ByLayer
370
13
48
1
60
0
100
AcDbSpline
70
4
71
3
72
14
73
10
40
0
40
0
40
0
40
0
40
0.151192057386366
40
0.151192057386366
40
0.320953645909093
40
0.320953645909093
40
0.660476822954546
40
0.660476822954546
40
1
40
1
40
1
40
1
41
1
10
108.961933677587
20
2.94865591081339
30
0
41
1
10
108.963995260473
20
2.94859312356922
30
0
41
1
10
108.968181236116
20
2.95028975225023
30
0
41
1
10
108.980749449387
20
2.95718004905709
30
0
41
1
10
108.9896863692
20
2.96282305758842
30
0
41
1
10
109.021563812366
20
2.98486377482533
30
0
41
1
10
109.049112357984
20
3.00603087571852
30
0
41
1
10
109.110012924906
20
3.05865966019419
30
0
41
1
10
109.142682819831
20
3.08948943301903
30
0
41
1
10
109.176333925119
20
3.12513893499934
30
0
0
SPLINE
5
32E
100
AcDbEntity
8
1
62
256
6
ByLayer
370
13
48
1
60
0
100
AcDbSpline
70
4
71
3
72
40
73
36
40
0
40
0
40
0
40
0
40
0.0625000000000027
40
0.0625000000000027
40
0.125000000000005
40
0.125000000000005
40
0.187500000000008
40
0.187500000000008
40
0.250000000000011
40
0.250000000000011
40
0.312500000000014
40
0.312500000000014
40
0.375000000000016
40
0.375000000000016
40
0.437500000000019
40
0.437500000000019
40
0.46875000000002
40
0.46875000000002
40
0.500000000000022
40
0.500000000000022
40
0.531250000000023
40
0.531250000000023
40
0.562500000000025
40
0.562500000000025
40
0.625000000000027
40
0.625000000000027
40
0.750000000000024
40
0.750000000000024
40
0.812500000000018
40
0.812500000000018
40
0.875000000000012
40
0.875000000000012
40
0.937500000000006
40
0.937500000000006
40
1
40
1
40
1
40
1
41
1
10
109.604380582877
20
3.57759263543539
30
0
41
1
10
109.573840119748
20
3.50033971216897
30
0
41
1
10
109.537626319159
20
3.42546049148021
30
0
41
1
10
109.457831792938
20
3.28679133420718
30
0
41
1
10
109.413980344441
20
3.22213241284203
30
0
41
1
10
109.318595481701
20
3.10105565669383
30
0
41
1
10
109.266935306294
20
3.04467574857716
30
0
41
1
10
109.159185942716
20
2.94279037641093
30
0
41
1
10
109.102715870431
20
2.89675282083192
30
0
41
1
10
108.984123077162
20
2.81357684239342
30
0
41
1
10
108.921771539323
20
2.77631607060206
30
0
41
1
10
108.791002500121
20
2.71109238824144
30
0
41
1
10
108.723221845052
20
2.68335037491303
30
0
41
1
10
108.579499893836
20
2.63746044382077
30
0
41
1
10
108.503111981293
20
2.61931123055615
30
0
41
1
10
108.38245032982
20
2.60122165682867
30
0
41
1
10
108.340574182328
20
2.59664611901397
30
0
41
1
10
108.256202806312
20
2.59093628874655
30
0
41
1
10
108.214081044908
20
2.58978699843095
30
0
41
1
10
108.129946329731
20
2.59069407918855
30
0
41
1
10
108.087677453693
20
2.59277453221466
30
0
41
1
10
108.004438707348
20
2.59993548607488
30
0
41
1
10
107.963761760404
20
2.60496302748189
30
0
41
1
10
107.843681330073
20
2.62401661734873
30
0
41
1
10
107.766168287733
20
2.64197511717021
30
0
41
1
10
107.537983234661
20
2.71133418338729
30
0
41
1
10
107.396919352807
20
2.77617771930301
30
0
41
1
10
107.197794291404
20
2.90377984283998
30
0
41
1
10
107.133099105123
20
2.95194737264828
30
0
41
1
10
107.011511761697
20
3.05759447130492
30
0
41
1
10
106.954487026124
20
3.11501579321012
30
0
41
1
10
106.848411922255
20
3.24020289573525
30
0
41
1
10
106.799001780423
20
3.30870610543633
30
0
41
1
10
106.712786733479
20
3.45239825421066
30
0
41
1
10
106.675541713675
20
3.52790369443392
30
0
41
1
10
106.644695544253
20
3.60754917131601
30
0
0
SPLINE
5
32F
100
AcDbEntity
8
1
62
256
6
ByLayer
370
13
48
1
60
0
100
AcDbSpline
70
4
71
3
72
24
73
20
40
0
40
0
40
0
40
0
40
0.0169956352418787
40
0.0169956352418787
40
0.068732707071254
40
0.068732707071254
40
0.172206850730004
40
0.172206850730004
40
0.223943922559379
40
0.223943922559379
40
0.275680994388754
40
0.275680994388754
40
0.379155138047504
40
0.379155138047504
40
0.482629281706253
40
0.482629281706253
40
0.586103425365003
40
0.586103425365003
40
1
40
1
40
1
40
1
41
1
10
70.189135144996
20
-5.89644722562718
30
0
41
1
10
69.9223377001677
20
-5.91631125777545
30
0
41
1
10
69.6553910173863
20
-5.93554280040391
30
0
41
1
10
68.5752284767534
20
-6.01105412018202
30
0
41
1
10
67.7608172995422
20
-6.0628462271178
30
0
41
1
10
65.3131309369833
20
-6.20212333436282
30
0
41
1
10
63.6752792675276
20
-6.27268281176435
30
0
41
1
10
61.2078232052113
20
-6.34423207823306
30
0
41
1
10
60.3836818541145
20
-6.36266214604217
30
0
41
1
10
58.7360924837765
20
-6.39152845700505
30
0
41
1
10
57.9121248570325
20
-6.40189840027548
30
0
41
1
10
55.4396983765773
20
-6.42564287450764
30
0
41
1
10
53.7907126848187
20
-6.43159679674494
30
0
41
1
10
50.4920943127987
20
-6.43539294544581
30
0
41
1
10
48.8424682284097
20
-6.43357194546763
30
0
41
1
10
45.5432899762214
20
-6.43156027586645
30
0
41
1
10
43.8937263072008
20
-6.43041935633633
30
0
41
1
10
35.646047781385
20
-6.42825256343158
30
0
41
1
10
29.0480615184529
20
-6.43484757354102
30
0
41
1
10
22.45
20
-6.43163444918753
30
0
0
SPLINE
5
330
100
AcDbEntity
8
1
62
256
6
ByLayer
370
13
48
1
60
0
100
AcDbSpline
70
4
71
3
72
8
73
4
40
0
40
0
40
0
40
0
40
1
40
1
40
1
40
1
41
1
10
102.645754607549
20
10.4204742737683
30
0
41
1
10
103.002059076204
20
9.79998650087879
30
0
41
1
10
103.398370725775
20
9.20512237808808
30
0
41
1
10
103.841784509663
20
8.64042605470465
30
0
0
SPLINE
5
331
100
AcDbEntity
8
1
62
256
6
ByLayer
370
13
48
1
60
0
100
AcDbSpline
70
4
71
3
72
18
73
14
40
0
40
0
40
0
40
0
40
0.249999999999999
40
0.249999999999999
40
0.374999999999999
40
0.374999999999999
40
0.499999999999999
40
0.499999999999999
40
0.75
40
0.75
40
0.875
40
0.875
40
1
40
1
40
1
40
1
41
1
10
6.62547704516734
20
-11.8892995998294
30
0
41
1
10
6.55317911338574
20
-12.031308615742
30
0
41
1
10
6.49731803516986
20
-12.1714668487025
30
0
41
1
10
6.44012984991187
20
-12.3787068782036
30
0
41
1
10
6.42548985818101
20
-12.4476594611522
30
0
41
1
10
6.4060996898678
20
-12.5823475515474
30
0
41
1
10
6.40129681894513
20
-12.6480480886238
30
0
41
1
10
6.40152710976548
20
-12.840282310054
30
0
41
1
10
6.42031896463988
20
-12.9620971820165
30
0
41
1
10
6.47641183651487
20
-13.1353113173506
30
0
41
1
10
6.49985763619037
20
-13.191479702845
30
0
41
1
10
6.55523081319936
20
-13.2987011710841
30
0
41
1
10
6.58722658044613
20
-13.3500192249015
30
0
41
1
10
6.62343662944448
20
-13.3991139825267
30
0
0
SPLINE
5
332
100
AcDbEntity
8
1
62
256
6
ByLayer
370
13
48
1
60
0
100
AcDbSpline
70
4
71
3
72
16
73
12
40
0
40
0
40
0
40
0
40
0.250000000000011
40
0.250000000000011
40
0.375000000000017
40
0.375000000000017
40
0.500000000000022
40
0.500000000000022
40
0.750000000000011
40
0.750000000000011
40
1
40
1
40
1
40
1
41
1
10
105.558097725412
20
3.22623664149438
30
0
41
1
10
105.611849678025
20
3.14220958174795
30
0
41
1
10
105.673812463066
20
3.0677334565741
30
0
41
1
10
105.777464121122
20
2.96798631779487
30
0
41
1
10
105.813910272837
20
2.93674381489274
30
0
41
1
10
105.888707412335
20
2.87938053209783
30
0
41
1
10
105.927246262376
20
2.85306416394852
30
0
41
1
10
106.046109743204
20
2.78065435742872
30
0
41
1
10
106.129657282066
20
2.74104457584579
30
0
41
1
10
106.305205287732
20
2.67799626946794
30
0
41
1
10
106.395757852845
20
2.65513227635432
30
0
41
1
10
106.488295577532
20
2.64041151084206
30
0
0
SPLINE
5
333
100
AcDbEntity
8
1
62
256
6
ByLayer
370
13
48
1
60
0
100
AcDbSpline
70
4
71
3
72
10
73
6
40
0
40
0
40
0
40
0
40
0.718221990568997
40
0.718221990568997
40
1
40
1
40
1
40
1
41
1
10
106.725791555743
20
7.38225927487889
30
0
41
1
10
106.681488318714
20
7.31454009352115
30
0
41
1
10
106.644868946922
20
7.24572629331826
30
0
41
1
10
106.604658335354
20
7.15249736228563
30
0
41
1
10
106.59462725286
20
7.12672500156054
30
0
41
1
10
106.586398272226
20
7.10291415142365
30
0
0
SPLINE
5
334
100
AcDbEntity
8
1
62
256
6
ByLayer
370
13
48
1
60
0
100
AcDbSpline
70
4
71
3
72
12
73
8
40
0
40
0
40
0
40
0
40
0.318601450797634
40
0.318601450797634
40
0.637202901595268
40
0.637202901595268
40
1
40
1
40
1
40
1
41
1
10
60.4
20
11.0858063552121
30
0
41
1
10
59.7101522174486
20
11.0928218603475
30
0
41
1
10
59.0193153208643
20
11.0978937246987
30
0
41
1
10
57.6356050958453
20
11.1059761586505
30
0
41
1
10
56.9427291744431
20
11.1089976580384
30
0
41
1
10
55.4589822768965
20
11.1146624906337
30
0
41
1
10
54.6677953094885
20
11.1172572422552
30
0
41
1
10
53.8757303520341
20
11.1197626026615
30
0
0
SPLINE
5
335
100
AcDbEntity
8
1
62
256
6
ByLayer
370
13
48
1
60
0
100
AcDbSpline
70
4
71
3
72
10
73
6
40
0
40
0
40
0
40
0
40
0.655762321702886
40
0.655762321702886
40
1
40
1
40
1
40
1
41
1
10
108.208067138039
20
11.0103144681337
30
0
41
1
10
108.138232050843
20
10.9992819911893
30
0
41
1
10
108.063597648337
20
10.9893651279741
30
0
41
1
10
107.942695307907
20
10.9763540001327
30
0
41
1
10
107.899497946174
20
10.9722431628925
30
0
41
1
10
107.855324790877
20
10.9685917552286
30
0
0
SPLINE
5
336
100
AcDbEntity
8
1
62
256
6
ByLayer
370
13
48
1
60
0
100
AcDbSpline
70
4
71
3
72
22
73
18
40
0
40
0
40
0
40
0
40
0.125
40
0.125
40
0.25
40
0.25
40
0.375
40
0.375
40
0.5
40
0.5
40
0.625
40
0.625
40
0.75
40
0.75
40
0.875
40
0.875
40
1
40
1
40
1
40
1
41
1
10
105.221789102544
20
3.46701816059644
30
0
41
1
10
105.202087174998
20
3.43373515534591
30
0
41
1
10
105.179762626205
20
3.40145818997132
30
0
41
1
10
105.13048119722
20
3.34181306810802
30
0
41
1
10
105.10359992592
20
3.31441254887409
30
0
41
1
10
105.044396262224
20
3.26557877662529
30
0
41
1
10
105.012222807505
20
3.2444391619062
30
0
41
1
10
104.94492277342
20
3.21168858232505
30
0
41
1
10
104.90895044809
20
3.19980872856795
30
0
41
1
10
104.837405413722
20
3.18701756446109
30
0
41
1
10
104.801016428816
20
3.18586142438696
30
0
41
1
10
104.730079633651
20
3.19273863918167
30
0
41
1
10
104.695897162281
20
3.20056502600809
30
0
41
1
10
104.629322228094
20
3.22251063280817
30
0
41
1
10
104.596904523631
20
3.23670240074114
30
0
41
1
10
104.53497572088
20
3.26848628384076
30
0
41
1
10
104.505157839213
20
3.28617893408944
30
0
41
1
10
104.475993187615
20
3.30497125235627
30
0
0
SPLINE
5
337
100
AcDbEntity
8
1
62
256
6
ByLayer
370
13
48
1
60
0
100
AcDbSpline
70
4
71
3
72
32
73
28
40
0
40
0
40
0
40
0
40
0.235072873857238
40
0.235072873857238
40
0.352609310785858
40
0.352609310785858
40
0.470145747714478
40
0.470145747714478
40
0.587682184643098
40
0.587682184643098
40
0.646450403107407
40
0.646450403107407
40
0.705218621571717
40
0.705218621571717
40
0.763986840036026
40
0.763986840036026
40
0.822755058500335
40
0.822755058500335
40
0.881523276964644
40
0.881523276964644
40
0.940291495428953
40
0.940291495428953
40
0.969675604661108
40
0.969675604661108
40
0.999059713893264
40
0.999059713893264
40
1
40
1
40
1
40
1
41
1
10
102.645754607538
20
10.4204742737692
30
0
41
1
10
101.05853260357
20
10.5581161472798
30
0
41
1
10
99.4744891813939
20
10.6307844045178
30
0
41
1
10
97.0963868637086
20
10.6400729819108
30
0
41
1
10
96.3029598534578
20
10.6264988331994
30
0
41
1
10
94.7158126780884
20
10.5654539618114
30
0
41
1
10
93.9231192987468
20
10.5177993520624
30
0
41
1
10
92.3381100508922
20
10.3899584335847
30
0
41
1
10
91.5457731744002
20
10.3099970721388
30
0
41
1
10
90.3566885000599
20
10.1684860178408
30
0
41
1
10
89.9602338665067
20
10.1177191111616
30
0
41
1
10
89.1670405090898
20
10.0093588035855
30
0
41
1
10
88.7703071468606
20
9.95176483271317
30
0
41
1
10
87.9764142671631
20
9.8278246218693
30
0
41
1
10
87.5797038744496
20
9.76155480457066
30
0
41
1
10
86.7868522213626
20
9.61885187581083
30
0
41
1
10
86.3906782104272
20
9.54231681623295
30
0
41
1
10
85.5984501404486
20
9.3821425847249
30
0
41
1
10
85.2023958113141
20
9.29851122981762
30
0
41
1
10
84.4102580208814
20
9.12710524612456
30
0
41
1
10
84.0143617556937
20
9.03985776459288
30
0
41
1
10
83.419564928993
20
8.90505842050894
30
0
41
1
10
83.2211100291418
20
8.85938677236396
30
0
41
1
10
82.8234912191775
20
8.7661501877401
30
0
41
1
10
82.6242983240632
20
8.71851893626894
30
0
41
1
10
82.4184227687231
20
8.6688535559845
30
0
41
1
10
82.4120388032987
20
8.66731321557015
30
0
41
1
10
82.4056545763765
20
8.66577253893709
30
0
0
SPLINE
5
338
100
AcDbEntity
8
1
62
256
6
ByLayer
370
13
48
1
60
0
100
AcDbSpline
70
4
71
3
72
16
73
12
40
0
40
0
40
0
40
0
40
0.25
40
0.25
40
0.5
40
0.5
40
0.625
40
0.625
40
0.75
40
0.75
40
1
40
1
40
1
40
1
41
1
10
106.488295577534
20
2.6404115108472
30
0
41
1
10
106.858469720469
20
2.58152475114667
30
0
41
1
10
107.222828969914
20
2.54726569431782
30
0
41
1
10
107.939298887852
20
2.52089203470939
30
0
41
1
10
108.291407169861
20
2.52883225798561
30
0
41
1
10
108.80919823726
20
2.56850283097526
30
0
41
1
10
108.980353024275
20
2.58640429861708
30
0
41
1
10
109.31738102941
20
2.63067451127819
30
0
41
1
10
109.483079225948
20
2.65700017077131
30
0
41
1
10
109.971508833713
20
2.74727721395254
30
0
41
1
10
110.285627409879
20
2.82255777959619
30
0
41
1
10
110.58711455132
20
2.90946497622332
30
0
0
SPLINE
5
339
100
AcDbEntity
8
1
62
256
6
ByLayer
370
13
48
1
60
0
100
AcDbSpline
70
4
71
3
72
18
73
14
40
0
40
0
40
0
40
0
40
0.25
40
0.25
40
0.375
40
0.375
40
0.5
40
0.5
40
0.625000000000001
40
0.625000000000001
40
0.750000000000001
40
0.750000000000001
40
1
40
1
40
1
40
1
41
1
10
102.04159724192
20
1.20941631022305
30
0
41
1
10
102.181477196423
20
1.15458151612538
30
0
41
1
10
102.325348866017
20
1.11043939826959
30
0
41
1
10
102.547131106631
20
1.06058327846668
30
0
41
1
10
102.622505807185
20
1.04665476150441
30
0
41
1
10
102.772462733482
20
1.02488019098405
30
0
41
1
10
102.847131719094
20
1.01697216895309
30
0
41
1
10
102.995898695471
20
1.00687831799914
30
0
41
1
10
103.06999650786
20
1.00469332883552
30
0
41
1
10
103.217640370073
20
1.00594855495967
30
0
41
1
10
103.291465433195
20
1.00941557399011
30
0
41
1
10
103.510121144482
20
1.02810351385182
30
0
41
1
10
103.650599894209
20
1.05131760230916
30
0
41
1
10
103.786150605046
20
1.08421941410066
30
0
0
SPLINE
5
33A
100
AcDbEntity
8
1
62
256
6
ByLayer
370
18
48
1
60
0
100
AcDbSpline
70
4
71
3
72
8
73
4
40
0
40
0
40
0
40
0
40
1
40
1
40
1
40
1
41
1
10
112.237823950573
20
-2.74577658176347
30
0
41
1
10
112.253851806883
20
-2.70936890397482
30
0
41
1
10
112.271262185786
20
-2.67361991829174
30
0
41
1
10
112.290103451211
20
-2.63865332040319
30
0
0
SPLINE
5
33B
100
AcDbEntity
8
1
62
256
6
ByLayer
370
13
48
1
60
0
100
AcDbSpline
70
4
71
2
72
6
73
3
40
0
40
0
40
0
40
1
40
1
40
1
41
1
10
93.517082394006
20
4.79288255990784
30
0
41
1
10
93.4328283809807
20
4.82505292373983
30
0
41
1
10
93.3485947350172
20
4.85929940499815
30
0
0
SPLINE
5
33C
100
AcDbEntity
8
1
62
256
6
ByLayer
370
13
48
1
60
0
100
AcDbSpline
70
4
71
3
72
15
73
11
40
0
40
0
40
0
40
0
40
0.186383288999657
40
0.373440137863818
40
0.560346887089098
40
0.648198049036117
40
0.735784492844192
40
0.82397709730947
40
0.912304388235624
40
1
40
1
40
1
40
1
41
1
10
5.83369999999999
20
-16
30
0
41
1
10
6.88115720019721
20
-15.8525703731449
30
0
41
1
10
8.95566019629234
20
-15.4613438420064
30
0
41
1
10
12.0075599522523
20
-14.5824562931344
30
0
41
1
10
14.4432405601284
20
-13.6264759626694
30
0
41
1
10
16.2937406760859
20
-12.7454320607739
30
0
41
1
10
17.6161722621605
20
-12.0509800811966
30
0
41
1
10
19.0379450490568
20
-11.5737852912301
30
0
41
1
10
20.5082118332918
20
-11.2774210064945
30
0
41
1
10
21.5007310504792
20
-11.2127813074952
30
0
41
1
10
22
20
-11.2125
30
0
0
SPLINE
5
33D
100
AcDbEntity
8
1
62
256
6
ByLayer
370
13
48
1
60
0
100
AcDbSpline
70
4
71
3
72
15
73
11
40
0
40
0
40
0
40
0
40
0.111712546031164
40
0.224109599335408
40
0.335724826435369
40
0.447520189393399
40
0.559652905741184
40
0.706694048100913
40
0.853609279150654
40
1
40
1
40
1
40
1
41
1
10
22
20
11.2125
30
0
41
1
10
21.3615223297955
20
11.2132401443947
30
0
41
1
10
20.1027220385334
20
11.3217639739499
30
0
41
1
10
18.2437149034345
20
11.7828090502342
30
0
41
1
10
16.5294855383696
20
12.6118520019839
30
0
41
1
10
14.8286089670513
20
13.4525668240709
30
0
41
1
10
12.8824905113649
20
14.2425547402538
30
0
41
1
10
10.7044723727119
20
14.976718860909
30
0
41
1
10
8.28783716576001
20
15.5932965011899
30
0
41
1
10
6.65532178597692
20
15.884445226312
30
0
41
1
10
5.83370000000002
20
16
30
0
0
SPLINE
5
33E
100
AcDbEntity
8
1
62
256
6
ByLayer
370
13
48
1
60
0
100
AcDbSpline
70
4
71
2
72
6
73
3
40
0
40
0
40
0
40
1
40
1
40
1
41
1
10
117.305572351642
20
3.59140593918679
30
0
41
1
10
117.355304654705
20
3.64399701250446
30
0
41
1
10
117.406301295765
20
3.68502351374363
30
0
0
SPLINE
5
33F
100
AcDbEntity
8
1
62
256
6
ByLayer
370
13
48
1
60
0
100
AcDbSpline
70
4
71
2
72
6
73
3
40
0
40
0
40
0
40
1
40
1
40
1
41
1
10
107.345940069004
20
3.15778232306394
30
0
41
1
10
107.400945782256
20
3.12231116981297
30
0
41
1
10
107.455902910635
20
3.07520663711159
30
0
0
LINE
5
7F
100
AcDbEntity
8
SK1
62
256
6
ByLayer
370
13
48
1
60
0
100
AcDbLine
10
-54.60004
20
-12.49675
30
0
11
-54.60004
21
-6.998572
31
0
39
0
210
0
220
0
230
1
0
LINE
5
81
100
AcDbEntity
8
SK1
62
256
6
ByLayer
370
13
48
1
60
0
100
AcDbLine
10
-54.60004
20
6.998572
30
0
11
-54.60004
21
12.49675
31
0
39
0
210
0
220
0
230
1
0
LINE
5
82
100
AcDbEntity
8
SK1
62
256
6
ByLayer
370
13
48
1
60
0
100
AcDbLine
10
-6.5
20
-6.998572
30
0
11
-52.599857
21
-6.998572
31
0
39
0
210
0
220
0
230
1
0
LINE
5
83
100
AcDbEntity
8
SK1
62
256
6
ByLayer
370
13
48
1
60
0
100
AcDbLine
10
-53.633813
20
12.140367
30
0
11
-53.633813
21
6.340328
31
0
39
0
210
0
220
0
230
1
0
LINE
5
84
100
AcDbEntity
8
SK1
62
256
6
ByLayer
370
13
48
1
60
0
100
AcDbLine
10
-53.633813
20
-6.340328
30
0
11
-53.633813
21
-12.140367
31
0
39
0
210
0
220
0
230
1
0
LINE
5
85
100
AcDbEntity
8
SK1
62
256
6
ByLayer
370
13
48
1
60
0
100
AcDbLine
10
-56
20
-11.49675
30
0
11
-56
21
-4.998651
31
0
39
0
210
0
220
0
230
1
0
LINE
5
86
100
AcDbEntity
8
SK1
62
256
6
ByLayer
370
13
48
1
60
0
100
AcDbLine
10
-56
20
4.998651
30
0
11
-56
21
11.49675
31
0
39
0
210
0
220
0
230
1
0
LINE
5
87
100
AcDbEntity
8
1
62
256
6
ByLayer
370
13
48
1
60
0
100
AcDbLine
10
117.068784
20
3.674752
30
0
11
117.35697
21
3.717942
31
0
39
0
210
0
220
0
230
1
0
LINE
5
88
100
AcDbEntity
8
1
62
256
6
ByLayer
370
13
48
1
60
0
100
AcDbLine
10
108.758183
20
10.178195
30
0
11
108.765913
21
10.237258
31
0
39
0
210
0
220
0
230
1
0
LINE
5
89
100
AcDbEntity
8
1
62
256
6
ByLayer
370
13
48
1
60
0
100
AcDbLine
10
106.826365
20
6.928627
30
0
11
107.231788
21
10.026459
31
0
39
0
210
0
220
0
230
1
0
LINE
5
8A
100
AcDbEntity
8
1
62
256
6
ByLayer
370
13
48
1
60
0
100
AcDbLine
10
117.528282
20
4.370753
30
0
11
117.496198
21
3.972557
31
0
39
0
210
0
220
0
230
1
0
LINE
5
8B
100
AcDbEntity
8
1
62
256
6
ByLayer
370
13
48
1
60
0
100
AcDbLine
10
117.844279
20
7.667419
30
0
11
117.839667
21
7.667177
31
0
39
0
210
0
220
0
230
1
0
LINE
5
8C
100
AcDbEntity
8
1
62
256
6
ByLayer
370
13
48
1
60
0
100
AcDbLine
10
115.841891
20
10.77147
30
0
11
115.855165
21
10.687421
31
0
39
0
210
0
220
0
230
1
0
LINE
5
8D
100
AcDbEntity
8
1
62
256
6
ByLayer
370
13
48
1
60
0
100
AcDbLine
10
117.274223
20
4.444753
30
0
11
117.679646
21
7.542585
31
0
39
0
210
0
220
0
230
1
0
LINE
5
8E
100
AcDbEntity
8
1
62
256
6
ByLayer
370
13
48
1
60
0
100
AcDbLine
10
108.765913
20
10.237258
30
0
11
108.761301
21
10.237017
31
0
39
0
210
0
220
0
230
1
0
LINE
5
8F
100
AcDbEntity
8
1
62
256
6
ByLayer
370
13
48
1
60
0
100
AcDbLine
10
117.314782
20
4.297364
30
0
11
116.020098
21
4.10333
31
0
39
0
210
0
220
0
230
1
0
LINE
5
90
100
AcDbEntity
8
1
62
256
6
ByLayer
370
13
48
1
60
0
100
AcDbLine
10
116.044881
20
4.260512
30
0
11
117.274223
21
4.444753
31
0
39
0
210
0
220
0
230
1
0
LINE
5
91
100
AcDbEntity
8
1
62
256
6
ByLayer
370
13
48
1
60
0
100
AcDbLine
10
116.916103
20
3.567427
30
0
11
117.072411
21
4.159927
31
0
39
0
210
0
220
0
230
1
0
LINE
5
92
100
AcDbEntity
8
1
62
256
6
ByLayer
370
13
48
1
60
0
100
AcDbLine
10
108.339217
20
6.976877
30
0
11
108.334605
21
6.976636
31
0
39
0
210
0
220
0
230
1
0
LINE
5
93
100
AcDbEntity
8
1
62
256
6
ByLayer
370
13
48
1
60
0
100
AcDbLine
10
107.285521
20
10.761137
30
0
11
107.347031
21
10.254707
31
0
39
0
210
0
220
0
230
1
0
LINE
5
94
100
AcDbEntity
8
1
62
256
6
ByLayer
370
13
48
1
60
0
100
AcDbLine
10
116.263827
20
7.665207
30
0
11
115.78939
21
10.669326
31
0
39
0
210
0
220
0
230
1
0
LINE
5
95
100
AcDbEntity
8
1
62
256
6
ByLayer
370
13
48
1
60
0
100
AcDbLine
10
115.847238
20
4.28454
30
0
11
116.266205
21
7.485858
31
0
39
0
210
0
220
0
230
1
0
LINE
5
96
100
AcDbEntity
8
1
62
256
6
ByLayer
370
13
48
1
60
0
100
AcDbLine
10
117.072411
20
4.159927
30
0
11
117.325516
21
4.19786
31
0
39
0
210
0
220
0
230
1
0
LINE
5
97
100
AcDbEntity
8
1
62
256
6
ByLayer
370
13
48
1
60
0
100
AcDbLine
10
117.678314
20
7.64302
30
0
11
117.151726
21
10.977361
31
0
39
0
210
0
220
0
230
1
0
LINE
5
98
100
AcDbEntity
8
1
62
256
6
ByLayer
370
13
48
1
60
0
100
AcDbLine
10
116.383165
20
11.417547
30
0
11
116.487762
21
11.422109
31
0
39
0
210
0
220
0
230
1
0
LINE
5
99
100
AcDbEntity
8
1
62
256
6
ByLayer
370
13
48
1
60
0
100
AcDbLine
10
107.361426
20
10.00588
30
0
11
106.956003
21
6.908048
31
0
39
0
210
0
220
0
230
1
0
LINE
5
9A
100
AcDbEntity
8
1
62
256
6
ByLayer
370
13
48
1
60
0
100
AcDbLine
10
108.798641
20
3.590865
30
0
11
108.794029
21
3.590623
31
0
39
0
210
0
220
0
230
1
0
LINE
5
9B
100
AcDbEntity
8
1
62
256
6
ByLayer
370
13
48
1
60
0
100
AcDbLine
10
115.935327
20
11.285491
30
0
11
115.93477
21
11.285516
31
0
39
0
210
0
220
0
230
1
0
LINE
5
9C
100
AcDbEntity
8
1
62
256
6
ByLayer
370
13
48
1
60
0
100
AcDbLine
10
116.487762
20
11.422109
30
0
11
116.48315
21
11.421868
31
0
39
0
210
0
220
0
230
1
0
LINE
5
9D
100
AcDbEntity
8
1
62
256
6
ByLayer
370
13
48
1
60
0
100
AcDbLine
10
107.357765
20
10.155203
30
0
11
108.652448
21
10.349237
31
0
39
0
210
0
220
0
230
1
0
LINE
5
9E
100
AcDbEntity
8
1
62
256
6
ByLayer
370
13
48
1
60
0
100
AcDbLine
10
108.659496
20
10.451406
30
0
11
107.347031
21
10.254707
31
0
39
0
210
0
220
0
230
1
0
LINE
5
9F
100
AcDbEntity
8
1
62
256
6
ByLayer
370
13
48
1
60
0
100
AcDbLine
10
107.631921
20
11.059775
30
0
11
107.549101
21
11.054706
31
0
39
0
210
0
220
0
230
1
0
LINE
5
A0
100
AcDbEntity
8
1
62
256
6
ByLayer
370
13
48
1
60
0
100
AcDbLine
10
117.314782
20
4.297364
30
0
11
117.310169
21
4.297122
31
0
39
0
210
0
220
0
230
1
0
LINE
5
A1
100
AcDbEntity
8
1
62
256
6
ByLayer
370
13
48
1
60
0
100
AcDbLine
10
117.068784
20
3.674752
30
0
11
117.325516
21
4.19786
31
0
39
0
210
0
220
0
230
1
0
LINE
5
A2
100
AcDbEntity
8
1
62
256
6
ByLayer
370
13
48
1
60
0
100
AcDbLine
10
116.379166
20
11.417332
30
0
11
116.48315
21
11.421868
31
0
39
0
210
0
220
0
230
1
0
LINE
5
A3
100
AcDbEntity
8
1
62
256
6
ByLayer
370
13
48
1
60
0
100
AcDbLine
10
116.834156
20
11.423576
30
0
11
116.829543
21
11.423334
31
0
39
0
210
0
220
0
230
1
0
LINE
5
A4
100
AcDbEntity
8
1
62
256
6
ByLayer
370
13
48
1
60
0
100
AcDbLine
10
106.635663
20
7.215335
30
0
11
106.598245
21
6.929426
31
0
39
0
210
0
220
0
230
1
0
LINE
5
A5
100
AcDbEntity
8
1
62
256
6
ByLayer
370
13
48
1
60
0
100
AcDbLine
10
117.317691
20
11.001759
30
0
11
117.313079
21
11.001518
31
0
39
0
210
0
220
0
230
1
0
LINE
5
A6
100
AcDbEntity
8
1
62
256
6
ByLayer
370
13
48
1
60
0
100
AcDbLine
10
108.761301
20
10.237017
30
0
11
108.334605
21
6.976636
31
0
39
0
210
0
220
0
230
1
0
LINE
5
A7
100
AcDbEntity
8
1
62
256
6
ByLayer
370
13
48
1
60
0
100
AcDbLine
10
117.846182
20
7.52394
30
0
11
117.440759
21
4.426108
31
0
39
0
210
0
220
0
230
1
0
LINE
5
A8
100
AcDbEntity
8
1
62
256
6
ByLayer
370
13
48
1
60
0
100
AcDbLine
10
108.422556
20
6.788085
30
0
11
108.896994
21
3.783966
31
0
39
0
210
0
220
0
230
1
0
LINE
5
A9
100
AcDbEntity
8
1
62
256
6
ByLayer
370
13
48
1
60
0
100
AcDbLine
10
116.383165
20
11.417547
30
0
11
116.378553
21
11.417305
31
0
39
0
210
0
220
0
230
1
0
LINE
5
AA
100
AcDbEntity
8
1
62
256
6
ByLayer
370
13
48
1
60
0
100
AcDbLine
10
108.34188
20
6.776007
30
0
11
108.337268
21
6.775765
31
0
39
0
210
0
220
0
230
1
0
LINE
5
AB
100
AcDbEntity
8
1
62
256
6
ByLayer
370
13
48
1
60
0
100
AcDbLine
10
106.602593
20
6.765952
30
0
11
107.22648
21
3.434344
31
0
39
0
210
0
220
0
230
1
0
LINE
5
AC
100
AcDbEntity
8
1
62
256
6
ByLayer
370
13
48
1
60
0
100
AcDbLine
10
117.944906
20
7.510865
30
0
11
117.541013
21
4.424725
31
0
39
0
210
0
220
0
230
1
0
LINE
5
AD
100
AcDbEntity
8
1
62
256
6
ByLayer
370
13
48
1
60
0
100
AcDbLine
10
116.295904
20
11.513835
30
0
11
116.3788
21
11.517451
31
0
39
0
210
0
220
0
230
1
0
LINE
5
AE
100
AcDbEntity
8
1
62
256
6
ByLayer
370
13
48
1
60
0
100
AcDbLine
10
108.337268
20
6.775765
30
0
11
108.826043
21
3.680856
31
0
39
0
210
0
220
0
230
1
0
LINE
5
AF
100
AcDbEntity
8
1
62
256
6
ByLayer
370
13
48
1
60
0
100
AcDbLine
10
115.975173
20
10.767253
30
0
11
116.459734
21
7.699025
31
0
39
0
210
0
220
0
230
1
0
LINE
5
B0
100
AcDbEntity
8
1
62
256
6
ByLayer
370
13
48
1
60
0
100
AcDbLine
10
115.288742
20
4.161604
30
0
11
109.720325
21
3.869775
31
0
39
0
210
0
220
0
230
1
0
LINE
5
B1
100
AcDbEntity
8
1
62
256
6
ByLayer
370
13
48
1
60
0
100
AcDbLine
10
117.317691
20
11.001759
30
0
11
117.844279
21
7.667419
31
0
39
0
210
0
220
0
230
1
0
LINE
5
B2
100
AcDbEntity
8
1
62
256
6
ByLayer
370
13
48
1
60
0
100
AcDbLine
10
106.957335
20
6.807613
30
0
11
107.483923
21
3.473273
31
0
39
0
210
0
220
0
230
1
0
LINE
5
B3
100
AcDbEntity
8
1
62
256
6
ByLayer
370
13
48
1
60
0
100
AcDbLine
10
115.913494
20
4.26773
30
0
11
115.906634
21
4.215309
31
0
39
0
210
0
220
0
230
1
0
LINE
5
B4
100
AcDbEntity
8
1
62
256
6
ByLayer
370
13
48
1
60
0
100
AcDbLine
10
108.660476
20
3.683381
30
0
11
108.175915
21
6.751608
31
0
39
0
210
0
220
0
230
1
0
LINE
5
B5
100
AcDbEntity
8
1
62
256
6
ByLayer
370
13
48
1
60
0
100
AcDbLine
10
117.440759
20
4.426108
30
0
11
117.436146
21
4.425866
31
0
39
0
210
0
220
0
230
1
0
LINE
5
B6
100
AcDbEntity
8
1
62
256
6
ByLayer
370
13
48
1
60
0
100
AcDbLine
10
117.942624
20
7.68304
30
0
11
117.416035
21
11.01738
31
0
39
0
210
0
220
0
230
1
0
LINE
5
B7
100
AcDbEntity
8
1
62
256
6
ByLayer
370
13
48
1
60
0
100
AcDbLine
10
108.839145
20
10.168752
30
0
11
108.420179
21
6.967434
31
0
39
0
210
0
220
0
230
1
0
LINE
5
B8
100
AcDbEntity
8
1
62
256
6
ByLayer
370
13
48
1
60
0
100
AcDbLine
10
117.310169
20
4.297122
30
0
11
116.015486
21
4.103089
31
0
39
0
210
0
220
0
230
1
0
LINE
5
B9
100
AcDbEntity
8
1
62
256
6
ByLayer
370
13
48
1
60
0
100
AcDbLine
10
116.008283
20
4.102277
30
0
11
116.015486
21
4.103089
31
0
39
0
210
0
220
0
230
1
0
LINE
5
BA
100
AcDbEntity
8
1
62
256
6
ByLayer
370
13
48
1
60
0
100
AcDbLine
10
116.475862
20
11.271286
30
0
11
116.371265
21
11.266723
31
0
39
0
210
0
220
0
230
1
0
LINE
5
BB
100
AcDbEntity
8
1
62
256
6
ByLayer
370
13
48
1
60
0
100
AcDbLine
10
107.131533
20
10.027842
30
0
11
107.088545
21
10.381773
31
0
39
0
210
0
220
0
230
1
0
LINE
5
BC
100
AcDbEntity
8
1
62
256
6
ByLayer
370
13
48
1
60
0
100
AcDbLine
10
108.590768
20
10.190122
30
0
11
107.361426
21
10.00588
31
0
39
0
210
0
220
0
230
1
0
LINE
5
BD
100
AcDbEntity
8
1
62
256
6
ByLayer
370
13
48
1
60
0
100
AcDbLine
10
116.462968
20
7.455111
30
0
11
116.044881
21
4.260512
31
0
39
0
210
0
220
0
230
1
0
LINE
5
BE
100
AcDbEntity
8
1
62
256
6
ByLayer
370
13
48
1
60
0
100
AcDbLine
10
106.58316
20
7.039034
30
0
11
106.591262
21
7.111003
31
0
39
0
210
0
220
0
230
1
0
LINE
5
BF
100
AcDbEntity
8
1
62
256
6
ByLayer
370
13
48
1
60
0
100
AcDbLine
10
107.134646
20
3.879351
30
0
11
107.14676
21
3.860069
31
0
39
0
210
0
220
0
230
1
0
LINE
5
C0
100
AcDbEntity
8
1
62
256
6
ByLayer
370
13
48
1
60
0
100
AcDbLine
10
117.400665
20
4.106067
30
0
11
117.35697
21
3.717942
31
0
39
0
210
0
220
0
230
1
0
LINE
5
C1
100
AcDbEntity
8
1
62
256
6
ByLayer
370
13
48
1
60
0
100
AcDbLine
10
108.830655
20
3.681097
30
0
11
108.816317
21
3.771888
31
0
39
0
210
0
220
0
230
1
0
LINE
5
C2
100
AcDbEntity
8
1
62
256
6
ByLayer
370
13
48
1
60
0
100
AcDbLine
10
107.285521
20
10.761137
30
0
11
107.079837
21
10.730311
31
0
39
0
210
0
220
0
230
1
0
LINE
5
C3
100
AcDbEntity
8
1
62
256
6
ByLayer
370
13
48
1
60
0
100
AcDbLine
10
116.020098
20
4.10333
30
0
11
116.015486
21
4.103089
31
0
39
0
210
0
220
0
230
1
0
LINE
5
C4
100
AcDbEntity
8
1
62
256
6
ByLayer
370
13
48
1
60
0
100
AcDbLine
10
109.383805
20
10.290963
30
0
11
114.952221
21
10.582792
31
0
39
0
210
0
220
0
230
1
0
LINE
5
C5
100
AcDbEntity
8
1
62
256
6
ByLayer
370
13
48
1
60
0
100
AcDbLine
10
108.005492
20
10.869039
30
0
11
108.014943
21
10.870455
31
0
39
0
210
0
220
0
230
1
0
LINE
5
C6
100
AcDbEntity
8
1
62
256
6
ByLayer
370
13
48
1
60
0
100
AcDbLine
10
117.313079
20
11.001518
30
0
11
117.839667
21
7.667177
31
0
39
0
210
0
220
0
230
1
0
LINE
5
C7
100
AcDbEntity
8
1
62
256
6
ByLayer
370
13
48
1
60
0
100
AcDbLine
10
117.841569
20
7.523698
30
0
11
117.436146
21
4.425866
31
0
39
0
210
0
220
0
230
1
0
LINE
5
C8
100
AcDbEntity
8
1
62
256
6
ByLayer
370
13
48
1
60
0
100
AcDbLine
10
108.005492
20
10.869039
30
0
11
107.70602
21
10.869489
31
0
39
0
210
0
220
0
230
1
0
LINE
5
C9
100
AcDbEntity
8
1
62
256
6
ByLayer
370
13
48
1
60
0
100
AcDbLine
10
108.816317
20
3.771888
30
0
11
108.34188
21
6.776007
31
0
39
0
210
0
220
0
230
1
0
LINE
5
CA
100
AcDbEntity
8
1
62
256
6
ByLayer
370
13
48
1
60
0
100
AcDbLine
10
108.289381
20
3.035021
30
0
11
108.184784
21
3.030458
31
0
39
0
210
0
220
0
230
1
0
LINE
5
CB
100
AcDbEntity
8
1
62
256
6
ByLayer
370
13
48
1
60
0
100
AcDbLine
10
108.458644
20
3.145049
30
0
11
108.454031
21
3.144807
31
0
39
0
210
0
220
0
230
1
0
LINE
5
CC
100
AcDbEntity
8
1
62
256
6
ByLayer
370
13
48
1
60
0
100
AcDbLine
10
108.159787
20
3.179348
30
0
11
108.264384
21
3.183911
31
0
39
0
210
0
220
0
230
1
0
LINE
5
CD
100
AcDbEntity
8
1
62
256
6
ByLayer
370
13
48
1
60
0
100
AcDbLine
10
108.376642
20
2.938732
30
0
11
108.293747
21
2.935116
31
0
39
0
210
0
220
0
230
1
0
LINE
5
CE
100
AcDbEntity
8
1
62
256
6
ByLayer
370
13
48
1
60
0
100
AcDbLine
10
117.366225
20
3.669996
30
0
11
117.35697
21
3.717942
31
0
39
0
210
0
220
0
230
1
0
LINE
5
CF
100
AcDbEntity
8
1
62
256
6
ByLayer
370
13
48
1
60
0
100
AcDbLine
10
108.172681
20
6.995522
30
0
11
108.590768
21
10.190122
31
0
39
0
210
0
220
0
230
1
0
LINE
5
D0
100
AcDbEntity
8
1
62
256
6
ByLayer
370
13
48
1
60
0
100
AcDbLine
10
106.729923
20
6.769527
30
0
11
107.256512
21
3.435187
31
0
39
0
210
0
220
0
230
1
0
LINE
5
D1
100
AcDbEntity
8
1
62
256
6
ByLayer
370
13
48
1
60
0
100
AcDbLine
10
106.481705
20
6.608253
30
0
11
107.134646
21
3.879351
31
0
39
0
210
0
220
0
230
1
0
LINE
5
D2
100
AcDbEntity
8
1
62
256
6
ByLayer
370
13
48
1
60
0
100
AcDbLine
10
106.72764
20
6.941702
30
0
11
107.131533
21
10.027842
31
0
39
0
210
0
220
0
230
1
0
LINE
5
D3
100
AcDbEntity
8
1
62
256
6
ByLayer
370
13
48
1
60
0
100
AcDbLine
10
116.009346
20
11.346352
30
0
11
116.124906
21
11.352408
31
0
39
0
210
0
220
0
230
1
0
LINE
5
D4
100
AcDbEntity
8
1
62
256
6
ByLayer
370
13
48
1
60
0
100
AcDbLine
10
108.830655
20
3.681097
30
0
11
108.826043
21
3.680856
31
0
39
0
210
0
220
0
230
1
0
LINE
5
D5
100
AcDbEntity
8
1
62
256
6
ByLayer
370
13
48
1
60
0
100
AcDbLine
10
116.538754
20
11.423642
30
0
11
116.534142
21
11.423401
31
0
39
0
210
0
220
0
230
1
0
LINE
5
D6
100
AcDbEntity
8
1
62
256
6
ByLayer
370
13
48
1
60
0
100
AcDbLine
10
108.339217
20
6.976877
30
0
11
108.758183
21
10.178195
31
0
39
0
210
0
220
0
230
1
0
LINE
5
D7
100
AcDbEntity
8
1
62
256
6
ByLayer
370
13
48
1
60
0
100
AcDbLine
10
116.013051
20
4.001161
30
0
11
117.072411
21
4.159927
31
0
39
0
210
0
220
0
230
1
0
LINE
5
D8
100
AcDbEntity
8
1
62
256
6
ByLayer
370
13
48
1
60
0
100
AcDbLine
10
107.354856
20
3.450808
30
0
11
106.828267
21
6.785148
31
0
39
0
210
0
220
0
230
1
0
LINE
5
D9
100
AcDbEntity
8
1
62
256
6
ByLayer
370
13
48
1
60
0
100
AcDbLine
10
117.846182
20
7.52394
30
0
11
117.841569
21
7.523698
31
0
39
0
210
0
220
0
230
1
0
LINE
5
DA
100
AcDbEntity
8
SK1
62
256
6
ByLayer
370
13
48
1
60
0
100
AcDbLine
10
-6.5
20
-6.998572
30
0
11
-6.5
21
6.998572
31
0
39
0
210
0
220
0
230
1
0
LINE
5
DB
100
AcDbEntity
8
SK1
62
256
6
ByLayer
370
13
48
1
60
0
100
AcDbLine
10
-54.516222
20
12.393244
30
0
11
-54.516222
21
6.812029
31
0
39
0
210
0
220
0
230
1
0
LINE
5
DC
100
AcDbEntity
8
SK1
62
256
6
ByLayer
370
13
48
1
60
0
100
AcDbLine
10
-54.516222
20
-6.812029
30
0
11
-54.516222
21
-12.393244
31
0
39
0
210
0
220
0
230
1
0
LINE
5
DD
100
AcDbEntity
8
SK1
62
256
6
ByLayer
370
13
48
1
60
0
100
AcDbLine
10
-0.15
20
-12.24675
30
0
11
-0.15
21
12.24675
31
0
39
0
210
0
220
0
230
1
0
LINE
5
DE
100
AcDbEntity
8
SK1
62
256
6
ByLayer
370
13
48
1
60
0
100
AcDbLine
10
-52.599857
20
6.998572
30
0
11
-6.5
21
6.998572
31
0
39
0
210
0
220
0
230
1
0
LINE
5
DF
100
AcDbEntity
8
SK1
62
256
6
ByLayer
370
13
48
1
60
0
100
AcDbLine
10
-1.544243
20
-12.284227
30
0
11
-1.544243
21
12.284227
31
0
39
0
210
0
220
0
230
1
0
LINE
5
E0
100
AcDbEntity
8
SK1
62
256
6
ByLayer
370
13
48
1
60
0
100
AcDbLine
10
-2
20
-12.49675
30
0
11
-2
21
12.49675
31
0
39
0
210
0
220
0
230
1
0
LINE
5
E1
100
AcDbEntity
8
SK1
62
256
6
ByLayer
370
13
48
1
60
0
100
AcDbLine
10
-54.60004
20
-6.998572
30
0
11
-55
21
-6.998572
31
0
39
0
210
0
220
0
230
1
0
LINE
5
E2
100
AcDbEntity
8
SK1
62
256
6
ByLayer
370
13
48
1
60
0
100
AcDbLine
10
-1.375195
20
-12.24675
30
0
11
-1.375195
21
12.24675
31
0
39
0
210
0
220
0
230
1
0
LINE
5
E3
100
AcDbEntity
8
SK1
62
256
6
ByLayer
370
13
48
1
60
0
100
AcDbLine
10
-52.599857
20
12.49675
30
0
11
-52.599857
21
6.998572
31
0
39
0
210
0
220
0
230
1
0
LINE
5
E4
100
AcDbEntity
8
SK1
62
256
6
ByLayer
370
13
48
1
60
0
100
AcDbLine
10
-52.599857
20
-6.998572
30
0
11
-52.599857
21
-12.49675
31
0
39
0
210
0
220
0
230
1
0
LINE
5
E5
100
AcDbEntity
8
1
62
256
6
ByLayer
370
18
48
1
60
0
100
AcDbLine
10
117.122717
20
0.243767
30
0
11
117.16637
21
0.09257
31
0
39
0
210
0
220
0
230
1
0
LINE
5
E6
100
AcDbEntity
8
1
62
256
6
ByLayer
370
18
48
1
60
0
100
AcDbLine
10
117.684757
20
-3.286503
30
0
11
117.258874
21
-6.499302
31
0
39
0
210
0
220
0
230
1
0
LINE
5
E7
100
AcDbEntity
8
1
62
256
6
ByLayer
370
18
48
1
60
0
100
AcDbLine
10
117.008341
20
-6.788072
30
0
11
116.856104
21
-6.831427
31
0
39
0
210
0
220
0
230
1
0
LINE
5
E8
100
AcDbEntity
8
1
62
256
6
ByLayer
370
18
48
1
60
0
100
AcDbLine
10
117.182226
20
0.021537
30
0
11
117.682504
21
-3.115503
31
0
39
0
210
0
220
0
230
1
0
LINE
5
E9
100
AcDbEntity
8
1
62
256
6
ByLayer
370
18
48
1
60
0
100
AcDbLine
10
116.784902
20
0.49874
30
0
11
116.831959
21
0.492587
31
0
39
0
210
0
220
0
230
1
0
LINE
5
EA
100
AcDbEntity
8
1
62
256
6
ByLayer
370
18
48
1
60
0
100
AcDbLine
10
111.962959
20
8.094907
30
0
11
111.954015
21
8.112925
31
0
39
0
210
0
220
0
230
1
0
LINE
5
EB
100
AcDbEntity
8
1
62
256
6
ByLayer
370
18
48
1
60
0
100
AcDbLine
10
112.141803
20
6.327904
30
0
11
112.0558
21
6.323397
31
0
39
0
210
0
220
0
230
1
0
LINE
5
EC
100
AcDbEntity
8
1
62
256
6
ByLayer
370
18
48
1
60
0
100
AcDbLine
10
113.024301
20
6.597297
30
0
11
112.937238
21
6.592735
31
0
39
0
210
0
220
0
230
1
0
LINE
5
ED
100
AcDbEntity
8
1
62
256
6
ByLayer
370
18
48
1
60
0
100
AcDbLine
10
112.937238
20
6.592735
30
0
11
112.924482
21
6.608268
31
0
39
0
210
0
220
0
230
1
0
LINE
5
EE
100
AcDbEntity
8
1
62
256
6
ByLayer
370
18
48
1
60
0
100
AcDbLine
10
112.135851
20
6.309105
30
0
11
112.048788
21
6.304542
31
0
39
0
210
0
220
0
230
1
0
LINE
5
EF
100
AcDbEntity
8
1
62
256
6
ByLayer
370
18
48
1
60
0
100
AcDbLine
10
111.43645
20
7.418471
30
0
11
111.397984
21
7.416455
31
0
39
0
210
0
220
0
230
1
0
LINE
5
F0
100
AcDbEntity
8
1
62
256
6
ByLayer
370
18
48
1
60
0
100
AcDbLine
10
112.942662
20
7.906906
30
0
11
112.85666
21
7.902398
31
0
39
0
210
0
220
0
230
1
0
LINE
5
F1
100
AcDbEntity
8
1
62
256
6
ByLayer
370
18
48
1
60
0
100
AcDbLine
10
113.198832
20
7.510834
30
0
11
113.112829
21
7.506327
31
0
39
0
210
0
220
0
230
1
0
LINE
5
F2
100
AcDbEntity
8
1
62
256
6
ByLayer
370
18
48
1
60
0
100
AcDbLine
10
112.048788
20
6.304542
30
0
11
112.0558
21
6.323397
31
0
39
0
210
0
220
0
230
1
0
LINE
5
F3
100
AcDbEntity
8
1
62
256
6
ByLayer
370
18
48
1
60
0
100
AcDbLine
10
112.85666
20
7.902398
30
0
11
112.867722
21
7.91918
31
0
39
0
210
0
220
0
230
1
0
LINE
5
F4
100
AcDbEntity
8
1
62
256
6
ByLayer
370
18
48
1
60
0
100
AcDbLine
10
112.041078
20
8.117488
30
0
11
111.954015
21
8.112925
31
0
39
0
210
0
220
0
230
1
0
LINE
5
F5
100
AcDbEntity
8
1
62
256
6
ByLayer
370
18
48
1
60
0
100
AcDbLine
10
111.442761
20
6.937826
30
0
11
111.432153
21
6.93727
31
0
39
0
210
0
220
0
230
1
0
LINE
5
F6
100
AcDbEntity
8
1
62
256
6
ByLayer
370
18
48
1
60
0
100
AcDbLine
10
112.334427
20
5.498819
30
0
11
112.334586
21
5.498828
31
0
39
0
210
0
220
0
230
1
0
LINE
5
F7
100
AcDbEntity
8
1
62
256
6
ByLayer
370
18
48
1
60
0
100
AcDbLine
10
113.010485
20
6.612775
30
0
11
112.924482
21
6.608268
31
0
39
0
210
0
220
0
230
1
0
LINE
5
F8
100
AcDbEntity
8
1
62
256
6
ByLayer
370
18
48
1
60
0
100
AcDbLine
10
111.461469
20
6.941092
30
0
11
111.422118
21
6.939029
31
0
39
0
210
0
220
0
230
1
0
LINE
5
F9
100
AcDbEntity
8
1
62
256
6
ByLayer
370
18
48
1
60
0
100
AcDbLine
10
113.22385
20
7.033454
30
0
11
113.137848
21
7.028947
31
0
39
0
210
0
220
0
230
1
0
LINE
5
FA
100
AcDbEntity
8
1
62
256
6
ByLayer
370
18
48
1
60
0
100
AcDbLine
10
112.048962
20
8.099414
30
0
11
111.962959
21
8.094907
31
0
39
0
210
0
220
0
230
1
0
LINE
5
FB
100
AcDbEntity
8
1
62
256
6
ByLayer
370
18
48
1
60
0
100
AcDbLine
10
112.954784
20
7.923743
30
0
11
112.867722
21
7.91918
31
0
39
0
210
0
220
0
230
1
0
LINE
5
FC
100
AcDbEntity
8
SK1
62
256
6
ByLayer
370
13
48
1
60
0
100
AcDbLine
10
-55
20
6.998572
30
0
11
-54.60004
21
6.998572
31
0
39
0
210
0
220
0
230
1
0
LINE
5
FD
100
AcDbEntity
8
SK1
62
256
6
ByLayer
370
13
48
1
60
0
100
AcDbLine
10
-55
20
-12.49675
30
0
11
-55
21
-6.998572
31
0
39
0
210
0
220
0
230
1
0
LINE
5
FE
100
AcDbEntity
8
SK1
62
256
6
ByLayer
370
13
48
1
60
0
100
AcDbLine
10
-55
20
6.998572
30
0
11
-55
21
12.49675
31
0
39
0
210
0
220
0
230
1
0
LINE
5
FF
100
AcDbEntity
8
SK1
62
256
6
ByLayer
370
13
48
1
60
0
100
AcDbLine
10
-56
20
4.998651
30
0
11
-56
21
-4.998651
31
0
39
0
210
0
220
0
230
1
0
LINE
5
100
100
AcDbEntity
8
1
62
256
6
ByLayer
370
13
48
1
60
0
100
AcDbLine
10
112.603115
20
3.269827
30
0
11
116.408743
21
3.469271
31
0
39
0
210
0
220
0
230
1
0
LINE
5
101
100
AcDbEntity
8
1
62
256
6
ByLayer
370
13
48
1
60
0
100
AcDbLine
10
109.604381
20
3.577593
30
0
11
109.468117
21
3.570451
31
0
39
0
210
0
220
0
230
1
0
LINE
5
102
100
AcDbEntity
8
1
62
256
6
ByLayer
370
13
48
1
60
0
100
AcDbLine
10
22.01
20
-6.431634
30
0
11
22.01
21
-10.641632
31
0
39
0
210
0
220
0
230
1
0
LINE
5
103
100
AcDbEntity
8
1
62
256
6
ByLayer
370
13
48
1
60
0
100
AcDbLine
10
116.408743
20
3.469271
30
0
11
116.091807
21
1.195343
31
0
39
0
210
0
220
0
230
1
0
LINE
5
104
100
AcDbEntity
8
1
62
256
6
ByLayer
370
13
48
1
60
0
100
AcDbLine
10
108.172348
20
10.737386
30
0
11
108.208067
21
11.010314
31
0
39
0
210
0
220
0
230
1
0
LINE
5
105
100
AcDbEntity
8
1
62
256
6
ByLayer
370
13
48
1
60
0
100
AcDbLine
10
0
20
15.9
30
0
11
0
21
3.544009
31
0
39
0
210
0
220
0
230
1
0
LINE
5
106
100
AcDbEntity
8
1
62
256
6
ByLayer
370
13
48
1
60
0
100
AcDbLine
10
117.259066
20
0.617757
30
0
11
117.161725
21
0.574156
31
0
39
0
210
0
220
0
230
1
0
LINE
5
107
100
AcDbEntity
8
1
62
256
6
ByLayer
370
13
48
1
60
0
100
AcDbLine
10
117.150716
20
0.569225
30
0
11
116.973409
21
0.489806
31
0
39
0
210
0
220
0
230
1
0
LINE
5
108
100
AcDbEntity
8
1
62
256
6
ByLayer
370
13
48
1
60
0
100
AcDbLine
10
0
20
-3.544009
30
0
11
0
21
3.544009
31
0
39
0
210
0
220
0
230
1
0
LINE
5
109
100
AcDbEntity
8
1
62
256
6
ByLayer
370
13
48
1
60
0
100
AcDbLine
10
102.396356
20
11.0975
30
0
11
102.396356
21
10.934956
31
0
39
0
210
0
220
0
230
1
0
LINE
5
10A
100
AcDbEntity
8
1
62
256
6
ByLayer
370
13
48
1
60
0
100
AcDbLine
10
116.065723
20
0.69424
30
0
11
116.085438
21
0.151523
31
0
39
0
210
0
220
0
230
1
0
LINE
5
10B
100
AcDbEntity
8
1
62
256
6
ByLayer
370
13
48
1
60
0
100
AcDbLine
10
116.832016
20
-0.150077
30
0
11
116.065723
21
0.69424
31
0
39
0
210
0
220
0
230
1
0
LINE
5
10C
100
AcDbEntity
8
1
62
256
6
ByLayer
370
13
48
1
60
0
100
AcDbLine
10
0
20
-15.9
30
0
11
0
21
-3.544009
31
0
39
0
210
0
220
0
230
1
0
LINE
5
10D
100
AcDbEntity
8
1
62
256
6
ByLayer
370
13
48
1
60
0
100
AcDbLine
10
105.396356
20
-11.148173
30
0
11
105.396356
21
0.233179
31
0
39
0
210
0
220
0
230
1
0
LINE
5
10E
100
AcDbEntity
8
1
62
256
6
ByLayer
370
13
48
1
60
0
100
AcDbLine
10
117.218267
20
0.668342
30
0
11
117.194231
21
0.671485
31
0
39
0
210
0
220
0
230
1
0
LINE
5
10F
100
AcDbEntity
8
1
62
256
6
ByLayer
370
13
48
1
60
0
100
AcDbLine
10
102.396356
20
-11.033954
30
0
11
102.396356
21
0.559931
31
0
39
0
210
0
220
0
230
1
0
LINE
5
110
100
AcDbEntity
8
1
62
256
6
ByLayer
370
13
48
1
60
0
100
AcDbLine
10
115.529731
20
3.973959
30
0
11
112.109372
21
3.794706
31
0
39
0
210
0
220
0
230
1
0
LINE
5
111
100
AcDbEntity
8
1
62
256
6
ByLayer
370
13
48
1
60
0
100
AcDbLine
10
5.8337
20
-3.968627
30
0
11
5.8337
21
-16
31
0
39
0
210
0
220
0
230
1
0
LINE
5
112
100
AcDbEntity
8
1
62
256
6
ByLayer
370
13
48
1
60
0
100
AcDbLine
10
27
20
11.2125
30
0
11
27
21
-3.838402
31
0
39
0
210
0
220
0
230
1
0
LINE
5
113
100
AcDbEntity
8
1
62
256
6
ByLayer
370
13
48
1
60
0
100
AcDbLine
10
60.4
20
-11.093685
30
0
11
60.4
21
-11.0975
31
0
39
0
210
0
220
0
230
1
0
LINE
5
114
100
AcDbEntity
8
1
62
256
6
ByLayer
370
13
48
1
60
0
100
AcDbLine
10
117.100548
20
-7.64864
30
0
11
116.811068
21
-7.379053
31
0
39
0
210
0
220
0
230
1
0
LINE
5
115
100
AcDbEntity
8
1
62
256
6
ByLayer
370
13
48
1
60
0
100
AcDbLine
10
105.451438
20
3.906263
30
0
11
105.7199
21
3.823781
31
0
39
0
210
0
220
0
230
1
0
LINE
5
116
100
AcDbEntity
8
1
62
256
6
ByLayer
370
13
48
1
60
0
100
AcDbLine
10
109.990692
20
3.883945
30
0
11
110.836166
21
3.928254
31
0
39
0
210
0
220
0
230
1
0
LINE
5
117
100
AcDbEntity
8
1
62
256
6
ByLayer
370
13
48
1
60
0
100
AcDbLine
10
117.145662
20
3.041859
30
0
11
117.255905
21
2.829432
31
0
39
0
210
0
220
0
230
1
0
LINE
5
118
100
AcDbEntity
8
1
62
256
6
ByLayer
370
13
48
1
60
0
100
AcDbLine
10
117.148432
20
2.994779
30
0
11
117.115384
21
3.556373
31
0
39
0
210
0
220
0
230
1
0
LINE
5
119
100
AcDbEntity
8
1
62
256
6
ByLayer
370
13
48
1
60
0
100
AcDbLine
10
106.579299
20
7.028946
30
0
11
107.096488
21
10.980778
31
0
39
0
210
0
220
0
230
1
0
LINE
5
11A
100
AcDbEntity
8
1
62
256
6
ByLayer
370
13
48
1
60
0
100
AcDbLine
10
27
20
-11.184236
30
0
11
27
21
-11.2125
31
0
39
0
210
0
220
0
230
1
0
LINE
5
11B
100
AcDbEntity
8
1
62
256
6
ByLayer
370
13
48
1
60
0
100
AcDbLine
10
22
20
-11.184575
30
0
11
22
21
-11.2125
31
0
39
0
210
0
220
0
230
1
0
LINE
5
11C
100
AcDbEntity
8
1
62
256
6
ByLayer
370
13
48
1
60
0
100
AcDbLine
10
106.678478
20
5.042728
30
0
11
106.494408
21
6.208252
31
0
39
0
210
0
220
0
230
1
0
LINE
5
11D
100
AcDbEntity
8
1
62
256
6
ByLayer
370
13
48
1
60
0
100
AcDbLine
10
0.1
20
16
30
0
11
0.1
21
3.968627
31
0
39
0
210
0
220
0
230
1
0
LINE
5
11E
100
AcDbEntity
8
1
62
256
6
ByLayer
370
13
48
1
60
0
100
AcDbLine
10
117.114565
20
0.624996
30
0
11
117.160585
21
0.567937
31
0
39
0
210
0
220
0
230
1
0
LINE
5
11F
100
AcDbEntity
8
1
62
256
6
ByLayer
370
13
48
1
60
0
100
AcDbLine
10
117.115384
20
3.556373
30
0
11
116.874673
21
3.543758
31
0
39
0
210
0
220
0
230
1
0
LINE
5
120
100
AcDbEntity
8
1
62
256
6
ByLayer
370
13
48
1
60
0
100
AcDbLine
10
116.874673
20
3.543758
30
0
11
116.764814
21
3.538001
31
0
39
0
210
0
220
0
230
1
0
LINE
5
121
100
AcDbEntity
8
1
62
256
6
ByLayer
370
13
48
1
60
0
100
AcDbLine
10
104.255223
20
5.261223
30
0
11
105.53824
21
5.985664
31
0
39
0
210
0
220
0
230
1
0
LINE
5
122
100
AcDbEntity
8
1
62
256
6
ByLayer
370
13
48
1
60
0
100
AcDbLine
10
117.255905
20
2.829432
30
0
11
117.259066
21
0.617757
31
0
39
0
210
0
220
0
230
1
0
LINE
5
123
100
AcDbEntity
8
1
62
256
6
ByLayer
370
13
48
1
60
0
100
AcDbLine
10
105.396356
20
11.2125
30
0
11
105.396356
21
11.053501
31
0
39
0
210
0
220
0
230
1
0
LINE
5
124
100
AcDbEntity
8
1
62
256
6
ByLayer
370
13
48
1
60
0
100
AcDbLine
10
5.8337
20
-3.968627
30
0
11
0.1
21
-3.968627
31
0
39
0
210
0
220
0
230
1
0
LINE
5
125
100
AcDbEntity
8
1
62
256
6
ByLayer
370
13
48
1
60
0
100
AcDbLine
10
105.53824
20
5.985664
30
0
11
104.064801
21
8.320985
31
0
39
0
210
0
220
0
230
1
0
LINE
5
126
100
AcDbEntity
8
1
62
256
6
ByLayer
370
13
48
1
60
0
100
AcDbLine
10
116.832016
20
-0.150077
30
0
11
117.220738
21
-2.587597
31
0
39
0
210
0
220
0
230
1
0
LINE
5
127
100
AcDbEntity
8
1
62
256
6
ByLayer
370
13
48
1
60
0
100
AcDbLine
10
116.408743
20
3.469271
30
0
11
116.843011
21
3.49203
31
0
39
0
210
0
220
0
230
1
0
LINE
5
128
100
AcDbEntity
8
1
62
256
6
ByLayer
370
13
48
1
60
0
100
AcDbLine
10
117.114565
20
0.624996
30
0
11
117.102564
21
0.626565
31
0
39
0
210
0
220
0
230
1
0
LINE
5
129
100
AcDbEntity
8
1
62
256
6
ByLayer
370
13
48
1
60
0
100
AcDbLine
10
117.235685
20
-3.721478
30
0
11
116.464319
21
-2.871572
31
0
39
0
210
0
220
0
230
1
0
LINE
5
12A
100
AcDbEntity
8
1
62
256
6
ByLayer
370
13
48
1
60
0
100
AcDbLine
10
110.243873
20
2.891476
30
0
11
110.587115
21
2.909465
31
0
39
0
210
0
220
0
230
1
0
LINE
5
12B
100
AcDbEntity
8
1
62
256
6
ByLayer
370
13
48
1
60
0
100
AcDbLine
10
117.235685
20
-3.721478
30
0
11
116.825526
21
-6.815649
31
0
39
0
210
0
220
0
230
1
0
LINE
5
12C
100
AcDbEntity
8
1
62
256
6
ByLayer
370
13
48
1
60
0
100
AcDbLine
10
22
20
11.2125
30
0
11
22
21
-3.843098
31
0
39
0
210
0
220
0
230
1
0
LINE
5
12D
100
AcDbEntity
8
1
62
256
6
ByLayer
370
13
48
1
60
0
100
AcDbLine
10
100.57244
20
1.835665
30
0
11
100.681109
21
1.281534
31
0
39
0
210
0
220
0
230
1
0
LINE
5
12E
100
AcDbEntity
8
1
62
256
6
ByLayer
370
13
48
1
60
0
100
AcDbLine
10
116.409317
20
-1.693557
30
0
11
117.220738
21
-2.587597
31
0
39
0
210
0
220
0
230
1
0
LINE
5
12F
100
AcDbEntity
8
1
62
256
6
ByLayer
370
13
48
1
60
0
100
AcDbLine
10
107.096488
20
10.980778
30
0
11
107.091335
21
11.079104
31
0
39
0
210
0
220
0
230
1
0
LINE
5
130
100
AcDbEntity
8
1
62
256
6
ByLayer
370
13
48
1
60
0
100
AcDbLine
10
5.8337
20
16
30
0
11
5.8337
21
3.968627
31
0
39
0
210
0
220
0
230
1
0
LINE
5
131
100
AcDbEntity
8
1
62
256
6
ByLayer
370
13
48
1
60
0
100
AcDbLine
10
102.396356
20
-11.033954
30
0
11
100.888828
21
-11.033954
31
0
39
0
210
0
220
0
230
1
0
LINE
5
132
100
AcDbEntity
8
1
62
256
6
ByLayer
370
13
48
1
60
0
100
AcDbLine
10
116.636656
20
-11.148173
30
0
11
117.100548
21
-7.64864
31
0
39
0
210
0
220
0
230
1
0
LINE
5
133
100
AcDbEntity
8
1
62
256
6
ByLayer
370
13
48
1
60
0
100
AcDbLine
10
106.796848
20
5.29115
30
0
11
106.82659
21
5.102827
31
0
39
0
210
0
220
0
230
1
0
LINE
5
134
100
AcDbEntity
8
1
62
256
6
ByLayer
370
13
48
1
60
0
100
AcDbLine
10
107.102791
20
9.978036
30
0
11
106.775685
21
7.478625
31
0
39
0
210
0
220
0
230
1
0
LINE
5
135
100
AcDbEntity
8
1
62
256
6
ByLayer
370
13
48
1
60
0
100
AcDbLine
10
60.4
20
-4.300242
30
0
11
60.4
21
11.085806
31
0
39
0
210
0
220
0
230
1
0
LINE
5
136
100
AcDbEntity
8
1
62
256
6
ByLayer
370
13
48
1
60
0
100
AcDbLine
10
109.640581
20
3.665322
30
0
11
109.650363
21
3.665834
31
0
39
0
210
0
220
0
230
1
0
LINE
5
137
100
AcDbEntity
8
1
62
256
6
ByLayer
370
13
48
1
60
0
100
AcDbLine
10
117.255905
20
2.829432
30
0
11
117.2217
21
2.699373
31
0
39
0
210
0
220
0
230
1
0
LINE
5
138
100
AcDbEntity
8
1
62
256
6
ByLayer
370
13
48
1
60
0
100
AcDbLine
10
109.44049
20
3.511048
30
0
11
109.03746
21
3.489926
31
0
39
0
210
0
220
0
230
1
0
LINE
5
139
100
AcDbEntity
8
1
62
256
6
ByLayer
370
13
48
1
60
0
100
AcDbLine
10
116.091807
20
1.195343
30
0
11
116.783527
21
0.433193
31
0
39
0
210
0
220
0
230
1
0
LINE
5
13A
100
AcDbEntity
8
1
62
256
6
ByLayer
370
13
48
1
60
0
100
AcDbLine
10
114.011471
20
4.04698
30
0
11
113.927128
21
4.04256
31
0
39
0
210
0
220
0
230
1
0
LINE
5
13B
100
AcDbEntity
8
1
62
256
6
ByLayer
370
13
48
1
60
0
100
AcDbLine
10
114.216722
20
4.105422
30
0
11
115.062196
21
4.149731
31
0
39
0
210
0
220
0
230
1
0
LINE
5
13C
100
AcDbEntity
8
1
62
256
6
ByLayer
370
13
48
1
60
0
100
AcDbLine
10
117.2217
20
2.699373
30
0
11
117.185886
21
2.697496
31
0
39
0
210
0
220
0
230
1
0
LINE
5
13D
100
AcDbEntity
8
1
62
256
6
ByLayer
370
13
48
1
60
0
100
AcDbLine
10
0.1
20
3.968627
30
0
11
5.8337
21
3.968627
31
0
39
0
210
0
220
0
230
1
0
LINE
5
13E
100
AcDbEntity
8
1
62
256
6
ByLayer
370
13
48
1
60
0
100
AcDbLine
10
117.160585
20
0.567937
30
0
11
116.986044
21
0.590758
31
0
39
0
210
0
220
0
230
1
0
LINE
5
13F
100
AcDbEntity
8
1
62
256
6
ByLayer
370
13
48
1
60
0
100
AcDbLine
10
103.995869
20
1.044004
30
0
11
104.146844
21
0.274144
31
0
39
0
210
0
220
0
230
1
0
LINE
5
140
100
AcDbEntity
8
1
62
256
6
ByLayer
370
13
48
1
60
0
100
AcDbLine
10
112.220533
20
3.249777
30
0
11
112.603115
21
3.269827
31
0
39
0
210
0
220
0
230
1
0
LINE
5
141
100
AcDbEntity
8
1
62
256
6
ByLayer
370
13
48
1
60
0
100
AcDbLine
10
104.064801
20
5.25798
30
0
11
104.064801
21
8.320985
31
0
39
0
210
0
220
0
230
1
0
LINE
5
142
100
AcDbEntity
8
1
62
256
6
ByLayer
370
13
48
1
60
0
100
AcDbLine
10
116.636656
20
-11.148173
30
0
11
105.396356
21
-11.148173
31
0
39
0
210
0
220
0
230
1
0
LINE
5
143
100
AcDbEntity
8
1
62
256
6
ByLayer
370
13
48
1
60
0
100
AcDbLine
10
0.1
20
-16
30
0
11
0.1
21
-3.968627
31
0
39
0
210
0
220
0
230
1
0
LINE
5
144
100
AcDbEntity
8
1
62
256
6
ByLayer
370
13
48
1
60
0
100
AcDbLine
10
117.218267
20
0.668342
30
0
11
117.259066
21
0.617757
31
0
39
0
210
0
220
0
230
1
0
LINE
5
145
100
AcDbEntity
8
4
62
256
6
ByLayer
370
18
48
0.05
60
0
100
AcDbLine
10
118
20
0
30
0
11
0
21
0
31
0
39
0
210
0
220
0
230
1
0
LINE
5
147
100
AcDbEntity
8
SK4
62
256
6
ByLayer
370
13
48
0.05
60
0
100
AcDbLine
10
118
20
0
30
0
11
-56
21
0
31
0
39
0
210
0
220
0
230
1
0
LINE
5
149
100
AcDbEntity
8
SK1
62
256
6
ByLayer
370
13
48
1
60
0
100
AcDbLine
10
-53.633813
20
-12.140367
30
0
11
-52.599857
21
-12.49675
31
0
39
0
210
0
220
0
230
1
0
LINE
5
14A
100
AcDbEntity
8
SK1
62
256
6
ByLayer
370
13
48
1
60
0
100
AcDbLine
10
-52.599857
20
12.49675
30
0
11
-53.633813
21
12.140367
31
0
39
0
210
0
220
0
230
1
0
LINE
5
14B
100
AcDbEntity
8
SK1
62
256
6
ByLayer
370
13
48
1
60
0
100
AcDbLine
10
-54.60004
20
12.49675
30
0
11
-55
21
12.49675
31
0
39
0
210
0
220
0
230
1
0
LINE
5
14C
100
AcDbEntity
8
SK1
62
256
6
ByLayer
370
13
48
1
60
0
100
AcDbLine
10
-55
20
-12.49675
30
0
11
-54.60004
21
-12.49675
31
0
39
0
210
0
220
0
230
1
0
LINE
5
14D
100
AcDbEntity
8
SK1
62
256
6
ByLayer
370
13
48
1
60
0
100
AcDbLine
10
-54.516222
20
12.393244
30
0
11
-54.60004
21
12.49675
31
0
39
0
210
0
220
0
230
1
0
LINE
5
14E
100
AcDbEntity
8
SK1
62
256
6
ByLayer
370
13
48
1
60
0
100
AcDbLine
10
-54.60004
20
-12.49675
30
0
11
-54.516222
21
-12.393244
31
0
39
0
210
0
220
0
230
1
0
LINE
5
14F
100
AcDbEntity
8
SK1
62
256
6
ByLayer
370
13
48
1
60
0
100
AcDbLine
10
-56
20
-11.49675
30
0
11
-55
21
-12.49675
31
0
39
0
210
0
220
0
230
1
0
LINE
5
150
100
AcDbEntity
8
SK1
62
256
6
ByLayer
370
13
48
1
60
0
100
AcDbLine
10
-55
20
12.49675
30
0
11
-56
21
11.49675
31
0
39
0
210
0
220
0
230
1
0
LINE
5
151
100
AcDbEntity
8
SK1
62
256
6
ByLayer
370
13
48
1
60
0
100
AcDbLine
10
-0.15
20
12.24675
30
0
11
-1.375195
21
12.24675
31
0
39
0
210
0
220
0
230
1
0
LINE
5
152
100
AcDbEntity
8
SK1
62
256
6
ByLayer
370
13
48
1
60
0
100
AcDbLine
10
-1.375195
20
-12.24675
30
0
11
-0.15
21
-12.24675
31
0
39
0
210
0
220
0
230
1
0
LINE
5
153
100
AcDbEntity
8
SK1
62
256
6
ByLayer
370
13
48
1
60
0
100
AcDbLine
10
-2
20
12.49675
30
0
11
-52.599857
21
12.49675
31
0
39
0
210
0
220
0
230
1
0
LINE
5
154
100
AcDbEntity
8
SK1
62
256
6
ByLayer
370
13
48
1
60
0
100
AcDbLine
10
-52.599857
20
-12.49675
30
0
11
-2
21
-12.49675
31
0
39
0
210
0
220
0
230
1
0
LINE
5
155
100
AcDbEntity
8
SK1
62
256
6
ByLayer
370
13
48
1
60
0
100
AcDbLine
10
-1.544243
20
12.284227
30
0
11
-2
21
12.49675
31
0
39
0
210
0
220
0
230
1
0
LINE
5
156
100
AcDbEntity
8
SK1
62
256
6
ByLayer
370
13
48
1
60
0
100
AcDbLine
10
-2
20
-12.49675
30
0
11
-1.544243
21
-12.284227
31
0
39
0
210
0
220
0
230
1
0
LINE
5
157
100
AcDbEntity
8
1
62
256
6
ByLayer
370
18
48
1
60
0
100
AcDbLine
10
112.364813
20
6.435493
30
0
11
112.285556
21
6.43134
31
0
39
0
210
0
220
0
230
1
0
LINE
5
158
100
AcDbEntity
8
1
62
256
6
ByLayer
370
18
48
1
60
0
100
AcDbLine
10
112.202739
20
8.011571
30
0
11
112.281997
21
8.015725
31
0
39
0
210
0
220
0
230
1
0
LINE
5
159
100
AcDbEntity
8
1
62
256
6
ByLayer
370
18
48
1
60
0
100
AcDbLine
10
112.228517
20
8.948004
30
0
11
112.153868
21
8.944091
31
0
39
0
210
0
220
0
230
1
0
LINE
5
15A
100
AcDbEntity
8
1
62
256
6
ByLayer
370
18
48
1
60
0
100
AcDbLine
10
112.334427
20
5.498819
30
0
11
112.409076
21
5.502732
31
0
39
0
210
0
220
0
230
1
0
LINE
5
15B
100
AcDbEntity
8
1
62
256
6
ByLayer
370
18
48
1
60
0
100
AcDbLine
10
111.393734
20
7.415735
30
0
11
111.444881
21
7.418415
31
0
39
0
210
0
220
0
230
1
0
LINE
5
15C
100
AcDbEntity
8
1
62
256
6
ByLayer
370
18
48
1
60
0
100
AcDbLine
10
111.46987
20
6.94203
30
0
11
111.420691
21
6.939452
31
0
39
0
210
0
220
0
230
1
0
LINE
5
15D
100
AcDbEntity
8
1
62
256
6
ByLayer
370
13
48
1
60
0
100
AcDbLine
10
22
20
-11.2125
30
0
11
27
21
-11.2125
31
0
39
0
210
0
220
0
230
1
0
LINE
5
15E
100
AcDbEntity
8
1
62
256
6
ByLayer
370
13
48
1
60
0
100
AcDbLine
10
27
20
-11.2125
30
0
11
60.4
21
-11.0975
31
0
39
0
210
0
220
0
230
1
0
LINE
5
15F
100
AcDbEntity
8
1
62
256
6
ByLayer
370
13
48
1
60
0
100
AcDbLine
10
106.906574
20
11.2125
30
0
11
105.396356
21
11.2125
31
0
39
0
210
0
220
0
230
1
0
LINE
5
160
100
AcDbEntity
8
1
62
256
6
ByLayer
370
13
48
1
60
0
100
AcDbLine
10
105.396356
20
11.2125
30
0
11
102.396356
21
11.0975
31
0
39
0
210
0
220
0
230
1
0
LINE
5
161
100
AcDbEntity
8
1
62
256
6
ByLayer
370
13
48
1
60
0
100
AcDbLine
10
60.4
20
-11.0975
30
0
11
62.29577
21
-11.0975
31
0
39
0
210
0
220
0
230
1
0
LINE
5
162
100
AcDbEntity
8
1
62
256
6
ByLayer
370
13
48
1
60
0
100
AcDbLine
10
102.396356
20
11.0975
30
0
11
98.177812
21
11.0975
31
0
39
0
210
0
220
0
230
1
0
LINE
5
163
100
AcDbEntity
8
1
62
256
6
ByLayer
370
13
48
1
60
0
100
AcDbLine
10
27
20
11.2125
30
0
11
22
21
11.2125
31
0
39
0
210
0
220
0
230
1
0
LINE
5
164
100
AcDbEntity
8
1
62
256
6
ByLayer
370
13
48
1
60
0
100
AcDbLine
10
53.867435
20
11.119992
30
0
11
27
21
11.2125
31
0
39
0
210
0
220
0
230
1
0
LINE
5
165
100
AcDbEntity
8
1
62
256
6
ByLayer
370
13
48
1
60
0
100
AcDbLine
10
0.1
20
16
30
0
11
0
21
15.9
31
0
39
0
210
0
220
0
230
1
0
LINE
5
166
100
AcDbEntity
8
1
62
256
6
ByLayer
370
13
48
1
60
0
100
AcDbLine
10
0.1
20
-16
30
0
11
5.8337
21
-16
31
0
39
0
210
0
220
0
230
1
0
LINE
5
167
100
AcDbEntity
8
1
62
256
6
ByLayer
370
13
48
1
60
0
100
AcDbLine
10
0
20
-15.9
30
0
11
0.1
21
-16
31
0
39
0
210
0
220
0
230
1
0
LINE
5
168
100
AcDbEntity
8
1
62
256
6
ByLayer
370
13
48
1
60
0
100
AcDbLine
10
5.8337
20
16
30
0
11
0.1
21
16
31
0
39
0
210
0
220
0
230
1
0
LINE
5
169
100
AcDbEntity
8
1
62
256
6
ByLayer
370
13
48
1
60
0
100
AcDbLine
10
117.258687
20
3.816735
30
0
11
117.515419
21
4.339843
31
0
39
0
210
0
220
0
230
1
0
LINE
5
16A
100
AcDbEntity
8
1
62
256
6
ByLayer
370
13
48
1
60
0
100
AcDbLine
10
116.33099
20
7.676544
30
0
11
115.856553
21
10.680663
31
0
39
0
210
0
220
0
230
1
0
LINE
5
16B
100
AcDbEntity
8
1
62
256
6
ByLayer
370
13
48
1
60
0
100
AcDbLine
10
115.914686
20
4.274445
30
0
11
116.333652
21
7.475763
31
0
39
0
210
0
220
0
230
1
0
LINE
5
16C
100
AcDbEntity
8
81
62
256
6
ByLayer
370
18
48
1
60
0
100
AcDbLine
10
118
20
0
30
0
11
125
21
0
31
0
39
0
210
0
220
0
230
1
0
LINE
5
16D
100
AcDbEntity
8
80
62
256
6
ByLayer
370
18
48
1
60
0
100
AcDbLine
10
0
20
0
30
0
11
-7
21
0
31
0
39
0
210
0
220
0
230
1
0
LINE
5
16E
100
AcDbEntity
8
SK2
62
256
6
ByLayer
370
13
48
1
60
0
100
AcDbLine
10
-76.725
20
23.75
30
0
11
-76.725
21
-23.75
31
0
39
0
210
0
220
0
230
1
0
LINE
5
170
100
AcDbEntity
8
SK2
62
256
6
ByLayer
370
13
48
1
60
0
100
AcDbLine
10
-57.5875
20
-12.5
30
0
11
-79.9
21
-12.5
31
0
39
0
210
0
220
0
230
1
0
LINE
5
171
100
AcDbEntity
8
SK2
62
256
6
ByLayer
370
13
48
1
60
0
100
AcDbLine
10
-57.5875
20
12.5
30
0
11
-79.9
21
12.5
31
0
39
0
210
0
220
0
230
1
0
LINE
5
172
100
AcDbEntity
8
1
62
256
6
ByLayer
370
18
48
1
60
1
100
AcDbLine
10
-76.725
20
-12.5
30
0
11
-75.799425
21
-16.674997
31
0
39
0
210
0
220
0
230
1
0
LINE
5
173
100
AcDbEntity
8
1
62
256
6
ByLayer
370
18
48
1
60
1
100
AcDbLine
10
-75.799425
20
-16.674997
30
0
11
-77.650575
21
-16.675003
31
0
39
0
210
0
220
0
230
1
0
LINE
5
174
100
AcDbEntity
8
1
62
256
6
ByLayer
370
18
48
1
60
1
100
AcDbLine
10
-77.650575
20
-16.675003
30
0
11
-76.725
21
-12.5
31
0
39
0
210
0
220
0
230
1
0
LINE
5
175
100
AcDbEntity
8
1
62
256
6
ByLayer
370
18
48
1
60
1
100
AcDbLine
10
-76.725
20
12.5
30
0
11
-77.650575
21
16.674997
31
0
39
0
210
0
220
0
230
1
0
LINE
5
176
100
AcDbEntity
8
1
62
256
6
ByLayer
370
18
48
1
60
1
100
AcDbLine
10
-77.650575
20
16.674997
30
0
11
-75.799425
21
16.675003
31
0
39
0
210
0
220
0
230
1
0
LINE
5
177
100
AcDbEntity
8
1
62
256
6
ByLayer
370
18
48
1
60
1
100
AcDbLine
10
-75.799425
20
16.675003
30
0
11
-76.725
21
12.5
31
0
39
0
210
0
220
0
230
1
0
LINE
5
178
100
AcDbEntity
8
SK2
62
256
6
ByLayer
370
13
48
1
60
0
100
AcDbLine
10
-86.725
20
-16
30
0
11
-86.725
21
16
31
0
39
0
210
0
220
0
230
1
0
LINE
5
179
100
AcDbEntity
8
SK2
62
256
6
ByLayer
370
13
48
1
60
0
100
AcDbLine
10
-1.5875
20
16
30
0
11
-89.9
21
16
31
0
39
0
210
0
220
0
230
1
0
LINE
5
17A
100
AcDbEntity
8
SK2
62
256
6
ByLayer
370
13
48
1
60
0
100
AcDbLine
10
-1.5875
20
-16
30
0
11
-89.9
21
-16
31
0
39
0
210
0
220
0
230
1
0
LINE
5
17B
100
AcDbEntity
8
1
62
256
6
ByLayer
370
18
48
1
60
1
100
AcDbLine
10
-86.725
20
16
30
0
11
-85.799425
21
11.825003
31
0
39
0
210
0
220
0
230
1
0
LINE
5
17C
100
AcDbEntity
8
1
62
256
6
ByLayer
370
18
48
1
60
1
100
AcDbLine
10
-85.799425
20
11.825003
30
0
11
-87.650575
21
11.824997
31
0
39
0
210
0
220
0
230
1
0
LINE
5
17D
100
AcDbEntity
8
1
62
256
6
ByLayer
370
18
48
1
60
1
100
AcDbLine
10
-87.650575
20
11.824997
30
0
11
-86.725
21
16
31
0
39
0
210
0
220
0
230
1
0
LINE
5
17E
100
AcDbEntity
8
1
62
256
6
ByLayer
370
18
48
1
60
1
100
AcDbLine
10
-86.725
20
-16
30
0
11
-87.650575
21
-11.825003
31
0
39
0
210
0
220
0
230
1
0
LINE
5
17F
100
AcDbEntity
8
1
62
256
6
ByLayer
370
18
48
1
60
1
100
AcDbLine
10
-87.650575
20
-11.825003
30
0
11
-85.799425
21
-11.824997
31
0
39
0
210
0
220
0
230
1
0
LINE
5
180
100
AcDbEntity
8
1
62
256
6
ByLayer
370
18
48
1
60
1
100
AcDbLine
10
-85.799425
20
-11.824997
30
0
11
-86.725
21
-16
31
0
39
0
210
0
220
0
230
1
0
LINE
5
181
100
AcDbEntity
8
2
62
256
6
ByLayer
370
13
48
1
60
0
100
AcDbLine
10
144.975
20
22.75
30
0
11
144.975
21
-22.75
31
0
39
0
210
0
220
0
230
1
0
LINE
5
183
100
AcDbEntity
8
2
62
256
6
ByLayer
370
13
48
1
60
0
100
AcDbLine
10
119.5875
20
-11.5
30
0
11
148.15
21
-11.5
31
0
39
0
210
0
220
0
230
1
0
LINE
5
184
100
AcDbEntity
8
2
62
256
6
ByLayer
370
13
48
1
60
0
100
AcDbLine
10
119.5875
20
11.5
30
0
11
148.15
21
11.5
31
0
39
0
210
0
220
0
230
1
0
LINE
5
185
100
AcDbEntity
8
1
62
256
6
ByLayer
370
18
48
1
60
1
100
AcDbLine
10
144.975
20
-11.5
30
0
11
145.900575
21
-15.674997
31
0
39
0
210
0
220
0
230
1
0
LINE
5
186
100
AcDbEntity
8
1
62
256
6
ByLayer
370
18
48
1
60
1
100
AcDbLine
10
145.900575
20
-15.674997
30
0
11
144.049425
21
-15.675003
31
0
39
0
210
0
220
0
230
1
0
LINE
5
187
100
AcDbEntity
8
1
62
256
6
ByLayer
370
18
48
1
60
1
100
AcDbLine
10
144.049425
20
-15.675003
30
0
11
144.975
21
-11.5
31
0
39
0
210
0
220
0
230
1
0
LINE
5
188
100
AcDbEntity
8
1
62
256
6
ByLayer
370
18
48
1
60
1
100
AcDbLine
10
144.975
20
11.5
30
0
11
144.049425
21
15.674997
31
0
39
0
210
0
220
0
230
1
0
LINE
5
189
100
AcDbEntity
8
1
62
256
6
ByLayer
370
18
48
1
60
1
100
AcDbLine
10
144.049425
20
15.674997
30
0
11
145.900575
21
15.675003
31
0
39
0
210
0
220
0
230
1
0
LINE
5
18A
100
AcDbEntity
8
1
62
256
6
ByLayer
370
18
48
1
60
1
100
AcDbLine
10
145.900575
20
15.675003
30
0
11
144.975
21
11.5
31
0
39
0
210
0
220
0
230
1
0
LINE
5
344
100
AcDbEntity
8
1
62
256
6
ByLayer
370
18
48
1
60
1
100
AcDbLine
10
-76.725
20
-12.5
30
0
11
-75.799425
21
-16.674997
31
0
39
0
210
0
220
0
230
1
0
LINE
5
345
100
AcDbEntity
8
1
62
256
6
ByLayer
370
18
48
1
60
1
100
AcDbLine
10
-75.799425
20
-16.674997
30
0
11
-77.650575
21
-16.675003
31
0
39
0
210
0
220
0
230
1
0
LINE
5
346
100
AcDbEntity
8
1
62
256
6
ByLayer
370
18
48
1
60
1
100
AcDbLine
10
-77.650575
20
-16.675003
30
0
11
-76.725
21
-12.5
31
0
39
0
210
0
220
0
230
1
0
LINE
5
348
100
AcDbEntity
8
1
62
256
6
ByLayer
370
18
48
1
60
1
100
AcDbLine
10
-76.725
20
12.5
30
0
11
-77.650575
21
16.674997
31
0
39
0
210
0
220
0
230
1
0
LINE
5
349
100
AcDbEntity
8
1
62
256
6
ByLayer
370
18
48
1
60
1
100
AcDbLine
10
-77.650575
20
16.674997
30
0
11
-75.799425
21
16.675003
31
0
39
0
210
0
220
0
230
1
0
LINE
5
34A
100
AcDbEntity
8
1
62
256
6
ByLayer
370
18
48
1
60
1
100
AcDbLine
10
-75.799425
20
16.675003
30
0
11
-76.725
21
12.5
31
0
39
0
210
0
220
0
230
1
0
LINE
5
34E
100
AcDbEntity
8
1
62
256
6
ByLayer
370
18
48
1
60
1
100
AcDbLine
10
-86.725
20
16
30
0
11
-85.799425
21
11.825003
31
0
39
0
210
0
220
0
230
1
0
LINE
5
34F
100
AcDbEntity
8
1
62
256
6
ByLayer
370
18
48
1
60
1
100
AcDbLine
10
-85.799425
20
11.825003
30
0
11
-87.650575
21
11.824997
31
0
39
0
210
0
220
0
230
1
0
LINE
5
350
100
AcDbEntity
8
1
62
256
6
ByLayer
370
18
48
1
60
1
100
AcDbLine
10
-87.650575
20
11.824997
30
0
11
-86.725
21
16
31
0
39
0
210
0
220
0
230
1
0
LINE
5
352
100
AcDbEntity
8
1
62
256
6
ByLayer
370
18
48
1
60
1
100
AcDbLine
10
-86.725
20
-16
30
0
11
-87.650575
21
-11.825003
31
0
39
0
210
0
220
0
230
1
0
LINE
5
353
100
AcDbEntity
8
1
62
256
6
ByLayer
370
18
48
1
60
1
100
AcDbLine
10
-87.650575
20
-11.825003
30
0
11
-85.799425
21
-11.824997
31
0
39
0
210
0
220
0
230
1
0
LINE
5
354
100
AcDbEntity
8
1
62
256
6
ByLayer
370
18
48
1
60
1
100
AcDbLine
10
-85.799425
20
-11.824997
30
0
11
-86.725
21
-16
31
0
39
0
210
0
220
0
230
1
0
LINE
5
358
100
AcDbEntity
8
1
62
256
6
ByLayer
370
18
48
1
60
1
100
AcDbLine
10
144.975
20
-11.5
30
0
11
145.900575
21
-15.674997
31
0
39
0
210
0
220
0
230
1
0
LINE
5
359
100
AcDbEntity
8
1
62
256
6
ByLayer
370
18
48
1
60
1
100
AcDbLine
10
145.900575
20
-15.674997
30
0
11
144.049425
21
-15.675003
31
0
39
0
210
0
220
0
230
1
0
LINE
5
35A
100
AcDbEntity
8
1
62
256
6
ByLayer
370
18
48
1
60
1
100
AcDbLine
10
144.049425
20
-15.675003
30
0
11
144.975
21
-11.5
31
0
39
0
210
0
220
0
230
1
0
LINE
5
35C
100
AcDbEntity
8
1
62
256
6
ByLayer
370
18
48
1
60
1
100
AcDbLine
10
144.975
20
11.5
30
0
11
144.049425
21
15.674997
31
0
39
0
210
0
220
0
230
1
0
LINE
5
35D
100
AcDbEntity
8
1
62
256
6
ByLayer
370
18
48
1
60
1
100
AcDbLine
10
144.049425
20
15.674997
30
0
11
145.900575
21
15.675003
31
0
39
0
210
0
220
0
230
1
0
LINE
5
35E
100
AcDbEntity
8
1
62
256
6
ByLayer
370
18
48
1
60
1
100
AcDbLine
10
145.900575
20
15.675003
30
0
11
144.975
21
11.5
31
0
39
0
210
0
220
0
230
1
0
MTEXT
5
340
100
AcDbEntity
8
SK2
62
256
6
ByLayer
370
18
48
1
60
0
100
AcDbMText
10
-78.736672
20
-6.949399
30
0
210
0
220
0
230
1
1
%%c
40
4.5
41
0
44
1.084337
50
90
71
7
72
5
7
iso_b_vert
0
MTEXT
5
343
100
AcDbEntity
8
SK2
62
256
6
ByLayer
370
18
48
1
60
0
100
AcDbMText
10
-78.736672
20
4.265444
30
0
210
0
220
0
230
1
1
\W0.6740;25
40
4.5
41
0
44
1.084337
50
90
71
7
72
5
7
iso_b_vert
0
MTEXT
5
34C
100
AcDbEntity
8
SK2
62
256
6
ByLayer
370
18
48
1
60
0
100
AcDbMText
10
-88.736672
20
-6.949399
30
0
210
0
220
0
230
1
1
%%c
40
4.5
41
0
44
1.084337
50
90
71
7
72
5
7
iso_b_vert
0
MTEXT
5
34D
100
AcDbEntity
8
SK2
62
256
6
ByLayer
370
18
48
1
60
0
100
AcDbMText
10
-88.736672
20
4.265444
30
0
210
0
220
0
230
1
1
\W0.6740;32
40
4.5
41
0
44
1.084337
50
90
71
7
72
5
7
iso_b_vert
0
MTEXT
5
356
100
AcDbEntity
8
2
62
256
6
ByLayer
370
18
48
1
60
0
100
AcDbMText
10
142.963328
20
-6.949399
30
0
210
0
220
0
230
1
1
%%c
40
4.5
41
0
44
1.084337
50
90
71
7
72
5
7
iso_b_vert
0
MTEXT
5
357
100
AcDbEntity
8
2
62
256
6
ByLayer
370
18
48
1
60
0
100
AcDbMText
10
142.963328
20
4.265444
30
0
210
0
220
0
230
1
1
\W0.6740;23
40
4.5
41
0
44
1.084337
50
90
71
7
72
5
7
iso_b_vert
0
MTEXT
5
360
100
AcDbEntity
8
SK6
62
256
6
ByLayer
370
18
48
1
60
0
100
AcDbMText
10
9.308916
20
-94.592562
30
0
210
0
220
0
230
1
1
\W0.7699;DS20-D2300L25-04
40
3.5
41
0
44
1.084337
50
0
71
7
72
5
7
iso_b_vert
0
HATCH
5
347
100
AcDbEntity
8
SK2
62
256
6
ByLayer
370
13
48
1
60
0
100
AcDbHatch
10
0
20
0
30
0
210
0
220
0
230
1
2
ANSI31
70
0
71
0
91
1
92
5
93
3
72
1
10
-76.725
20
-12.4999999999999
11
-75.799424783472
21
-16.6749966001723
72
1
10
-75.799424783472
20
-16.6749966001723
11
-77.650575216528
21
-16.6750033998275
72
1
10
-77.650575216528
20
-16.6750033998275
11
-76.725
21
-12.4999999999999
97
0
75
0
76
1
52
0
41
0.0062
77
0
78
1
53
45
43
0
44
0
45
-0.0139193969876572
46
0.0139193969876572
79
0
47
0
98
1
10
0
20
0
0
HATCH
5
34B
100
AcDbEntity
8
SK2
62
256
6
ByLayer
370
13
48
1
60
0
100
AcDbHatch
10
0
20
0
30
0
210
0
220
0
230
1
2
ANSI31
70
0
71
0
91
1
92
5
93
3
72
1
10
-76.725
20
12.5000000000001
11
-77.650575216528
21
16.6749966001725
72
1
10
-77.650575216528
20
16.6749966001725
11
-75.799424783472
21
16.6750033998277
72
1
10
-75.799424783472
20
16.6750033998277
11
-76.725
21
12.5000000000001
97
0
75
0
76
1
52
0
41
0.0062
77
0
78
1
53
45
43
0
44
0
45
-0.0139193969876572
46
0.0139193969876572
79
0
47
0
98
1
10
0
20
0
0
HATCH
5
351
100
AcDbEntity
8
SK2
62
256
6
ByLayer
370
13
48
1
60
0
100
AcDbHatch
10
0
20
0
30
0
210
0
220
0
230
1
2
ANSI31
70
0
71
0
91
1
92
5
93
3
72
1
10
-86.725
20
16
11
-85.799424783472
21
11.8250033998276
72
1
10
-85.799424783472
20
11.8250033998276
11
-87.650575216528
21
11.8249966001724
72
1
10
-87.650575216528
20
11.8249966001724
11
-86.725
21
16
97
0
75
0
76
1
52
0
41
0.0062
77
0
78
1
53
45
43
0
44
0
45
-0.0139193969876572
46
0.0139193969876572
79
0
47
0
98
1
10
0
20
0
0
HATCH
5
355
100
AcDbEntity
8
SK2
62
256
6
ByLayer
370
13
48
1
60
0
100
AcDbHatch
10
0
20
0
30
0
210
0
220
0
230
1
2
ANSI31
70
0
71
0
91
1
92
5
93
3
72
1
10
-86.725
20
-16
11
-87.650575216528
21
-11.8250033998276
72
1
10
-87.650575216528
20
-11.8250033998276
11
-85.799424783472
21
-11.8249966001724
72
1
10
-85.799424783472
20
-11.8249966001724
11
-86.725
21
-16
97
0
75
0
76
1
52
0
41
0.0062
77
0
78
1
53
45
43
0
44
0
45
-0.0139193969876572
46
0.0139193969876572
79
0
47
0
98
1
10
0
20
0
0
HATCH
5
35B
100
AcDbEntity
8
2
62
256
6
ByLayer
370
13
48
1
60
0
100
AcDbHatch
10
0
20
0
30
0
210
0
220
0
230
1
2
ANSI31
70
0
71
0
91
1
92
5
93
3
72
1
10
144.975
20
-11.5000000000001
11
145.900575216528
21
-15.6749966001725
72
1
10
145.900575216528
20
-15.6749966001725
11
144.049424783472
21
-15.6750033998277
72
1
10
144.049424783472
20
-15.6750033998277
11
144.975
21
-11.5000000000001
97
0
75
0
76
1
52
0
41
0.0062
77
0
78
1
53
45
43
0
44
0
45
-0.0139193969876572
46
0.0139193969876572
79
0
47
0
98
1
10
0
20
0
0
HATCH
5
35F
100
AcDbEntity
8
2
62
256
6
ByLayer
370
13
48
1
60
0
100
AcDbHatch
10
0
20
0
30
0
210
0
220
0
230
1
2
ANSI31
70
0
71
0
91
1
92
5
93
3
72
1
10
144.975
20
11.4999999999999
11
144.049424783472
21
15.6749966001723
72
1
10
144.049424783472
20
15.6749966001723
11
145.900575216528
21
15.6750033998275
72
1
10
145.900575216528
20
15.6750033998275
11
144.975
21
11.4999999999999
97
0
75
0
76
1
52
0
41
0.0062
77
0
78
1
53
45
43
0
44
0
45
-0.0139193969876572
46
0.0139193969876572
79
0
47
0
98
1
10
0
20
0
0
DIMENSION
5
363
100
AcDbEntity
8
2
62
256
6
ByLayer
370
18
48
1
60
0
100
AcDbDimension
2
_U0
10
118
20
-64.861103
30
0
11
59
21
-64.861103
31
0
70
32
71
1
72
1
41
1
210
0
220
0
230
1
3
Standard
100
AcDbAlignedDimension
13
0
23
-16
33
0
14
118
24
-11.5
34
0
50
0
100
AcDbRotatedDimension
1001
ACAD
1000
DSTYLE
1002
{
1070
   371
1070
    13
1070
   372
1070
    13
1070
   170
1070
     0
1070
   144
1040
1.0
1070
   277
1070
     2
1070
   284
1070
     8
1070
   278
1070
    46
1070
   146
1040
0.777778
1070
   345
1005
16
1070
   347
1005
16
1070
   346
1005
16
1070
   344
1005
0
1070
   343
1005
0
1070
   172
1070
     1
1070
    76
1070
     0
1070
    75
1070
     0
1070
   282
1070
     0
1070
   281
1070
     0
1070
    71
1070
     0
1070
    74
1070
     0
1070
   279
1070
     0
1070
   173
1070
     1
1070
   340
1005
341
1070
   271
1070
     1
1070
   272
1070
     2
1070
    77
1070
     1
1070
    73
1070
     1
1070
   171
1070
     3
1070
   274
1070
     4
1070
   177
1070
   150
1070
   176
1070
     9
1070
   178
1070
    43
1070
    78
1070
     8
1070
    48
1040
-0.1
1070
    41
1040
4.175
1070
   147
1040
2.25
1070
    42
1040
1.5875
1070
    44
1040
3.175
1070
   140
1040
4.5
1002
}
1001
ACAD_DSTYLE_DIM_LINETYPE
1070
   380
1005
16
1001
ACAD_DSTYLE_DIM_EXT1_LINETYPE
1070
   381
1005
16
1001
ACAD_DSTYLE_DIM_EXT2_LINETYPE
1070
   382
1005
16
0
DIMENSION
5
37C
100
AcDbEntity
8
SK2
62
256
6
ByLayer
370
18
48
1
60
0
100
AcDbDimension
2
_U1
10
0
20
-64.861103
30
0
11
-28
21
-64.861103
31
0
70
32
71
1
72
1
41
1
210
0
220
0
230
1
3
Standard
100
AcDbAlignedDimension
13
-56
23
-12.5
33
0
14
0
24
-16
34
0
50
0
100
AcDbRotatedDimension
1001
ACAD
1000
DSTYLE
1002
{
1070
   371
1070
    13
1070
   372
1070
    13
1070
   170
1070
     0
1070
   144
1040
1.0
1070
   277
1070
     2
1070
   284
1070
     8
1070
   278
1070
    46
1070
   146
1040
0.777778
1070
   345
1005
16
1070
   347
1005
16
1070
   346
1005
16
1070
   344
1005
0
1070
   343
1005
0
1070
   172
1070
     1
1070
    76
1070
     0
1070
    75
1070
     0
1070
   282
1070
     0
1070
   281
1070
     0
1070
    71
1070
     0
1070
    74
1070
     0
1070
   279
1070
     0
1070
   173
1070
     1
1070
   340
1005
341
1070
   271
1070
     1
1070
   272
1070
     2
1070
    77
1070
     1
1070
    73
1070
     1
1070
   171
1070
     3
1070
   274
1070
     4
1070
   177
1070
   150
1070
   176
1070
     9
1070
   178
1070
    43
1070
    78
1070
     8
1070
    48
1040
-0.1
1070
    41
1040
4.175
1070
   147
1040
2.25
1070
    42
1040
1.5875
1070
    44
1040
3.175
1070
   140
1040
4.5
1002
}
1001
ACAD_DSTYLE_DIM_LINETYPE
1070
   380
1005
16
1001
ACAD_DSTYLE_DIM_EXT1_LINETYPE
1070
   381
1005
16
1001
ACAD_DSTYLE_DIM_EXT2_LINETYPE
1070
   382
1005
16
0
DIMENSION
5
394
100
AcDbEntity
8
SK2
62
256
6
ByLayer
370
18
48
1
60
0
100
AcDbDimension
2
_U2
10
6.3337
20
-54.861103
30
0
11
62.16685
21
-54.861103
31
0
70
32
71
1
72
1
41
1
210
0
220
0
230
1
3
Standard
100
AcDbAlignedDimension
13
118
23
-11.5
33
0
14
6.3337
24
-16
34
0
50
0
100
AcDbRotatedDimension
1001
ACAD
1000
DSTYLE
1002
{
1070
   371
1070
    13
1070
   372
1070
    13
1070
   170
1070
     0
1070
   144
1040
1.0
1070
   277
1070
     2
1070
   284
1070
     8
1070
   278
1070
    46
1070
   146
1040
0.777778
1070
   345
1005
16
1070
   347
1005
16
1070
   346
1005
16
1070
   344
1005
0
1070
   343
1005
0
1070
   172
1070
     1
1070
    76
1070
     0
1070
    75
1070
     0
1070
   282
1070
     0
1070
   281
1070
     0
1070
    71
1070
     0
1070
    74
1070
     0
1070
   279
1070
     0
1070
   173
1070
     1
1070
   340
1005
341
1070
   271
1070
     1
1070
   272
1070
     2
1070
    77
1070
     1
1070
    73
1070
     1
1070
   171
1070
     3
1070
   274
1070
     4
1070
   177
1070
   150
1070
   176
1070
     9
1070
   178
1070
    43
1070
    78
1070
     8
1070
    48
1040
-0.1
1070
    41
1040
4.175
1070
   147
1040
2.25
1070
    42
1040
1.5875
1070
    44
1040
3.175
1070
   140
1040
4.5
1002
}
1001
ACAD_DSTYLE_DIM_LINETYPE
1070
   380
1005
16
1001
ACAD_DSTYLE_DIM_EXT1_LINETYPE
1070
   381
1005
16
1001
ACAD_DSTYLE_DIM_EXT2_LINETYPE
1070
   382
1005
16
0
DIMENSION
5
3AC
100
AcDbEntity
8
SK2
62
256
6
ByLayer
370
18
48
1
60
0
100
AcDbDimension
2
_U3
10
118
20
-44.861103
30
0
11
70
21
-44.861103
31
0
70
32
71
1
72
1
41
1
210
0
220
0
230
1
3
Standard
100
AcDbAlignedDimension
13
22
23
-11.5
33
0
14
118
24
-11.5
34
0
50
0
100
AcDbRotatedDimension
1001
ACAD
1000
DSTYLE
1002
{
1070
   371
1070
    13
1070
   372
1070
    13
1070
   170
1070
     0
1070
   144
1040
1.0
1070
   277
1070
     2
1070
   284
1070
     8
1070
   278
1070
    46
1070
   146
1040
0.777778
1070
   345
1005
16
1070
   347
1005
16
1070
   346
1005
16
1070
   344
1005
0
1070
   343
1005
0
1070
   172
1070
     1
1070
    76
1070
     0
1070
    75
1070
     0
1070
   282
1070
     0
1070
   281
1070
     0
1070
    71
1070
     0
1070
    74
1070
     0
1070
   279
1070
     0
1070
   173
1070
     1
1070
   340
1005
341
1070
   271
1070
     1
1070
   272
1070
     2
1070
    77
1070
     1
1070
    73
1070
     1
1070
   171
1070
     3
1070
   274
1070
     4
1070
   177
1070
   150
1070
   176
1070
     9
1070
   178
1070
    43
1070
    78
1070
     8
1070
    48
1040
-0.1
1070
    41
1040
4.175
1070
   147
1040
2.25
1070
    42
1040
1.5875
1070
    44
1040
3.175
1070
   140
1040
4.5
1002
}
1001
ACAD_DSTYLE_DIM_LINETYPE
1070
   380
1005
16
1001
ACAD_DSTYLE_DIM_EXT1_LINETYPE
1070
   381
1005
16
1001
ACAD_DSTYLE_DIM_EXT2_LINETYPE
1070
   382
1005
16
0
DIMENSION
5
3C4
100
AcDbEntity
8
2
62
256
6
ByLayer
370
18
48
1
60
0
100
AcDbDimension
2
_U4
10
118
20
-34.861103
30
0
11
140.350893
21
-34.861103
31
0
70
32
71
1
72
1
41
1
210
0
220
0
230
1
3
Standard
100
AcDbAlignedDimension
13
117.335
23
-5.75
33
0
14
118
24
0
34
0
50
0
100
AcDbRotatedDimension
1001
ACAD
1000
DSTYLE
1002
{
1070
   371
1070
    13
1070
   372
1070
    13
1070
   170
1070
     0
1070
   144
1040
1.0
1070
   277
1070
     2
1070
   284
1070
     8
1070
   278
1070
    46
1070
   146
1040
0.777778
1070
   345
1005
16
1070
   347
1005
16
1070
   346
1005
16
1070
   344
1005
0
1070
   343
1005
0
1070
   172
1070
     1
1070
    76
1070
     0
1070
    75
1070
     0
1070
   282
1070
     0
1070
   281
1070
     0
1070
    71
1070
     0
1070
    74
1070
     0
1070
   279
1070
     0
1070
   173
1070
     1
1070
   340
1005
341
1070
   271
1070
     2
1070
   272
1070
     2
1070
    77
1070
     1
1070
    73
1070
     1
1070
   171
1070
     3
1070
   274
1070
     4
1070
   177
1070
   150
1070
   176
1070
     9
1070
   178
1070
    43
1070
    78
1070
     8
1070
    48
1040
-0.1
1070
    41
1040
4.175
1070
   147
1040
2.25
1070
    42
1040
1.5875
1070
    44
1040
3.175
1070
   140
1040
4.5
1002
}
1001
ACAD_DSTYLE_DIM_LINETYPE
1070
   380
1005
16
1001
ACAD_DSTYLE_DIM_EXT1_LINETYPE
1070
   381
1005
16
1001
ACAD_DSTYLE_DIM_EXT2_LINETYPE
1070
   382
1005
16
0
ENDSEC
0
SECTION
2
OBJECTS
0
DICTIONARY
5
44e
330
0
100
AcDbDictionary
280
0
281
1
3
ACAD_GROUP
350
44f
3
ACAD_MLINESTYLE
350
450
0
DICTIONARY
5
44f
330
0
100
AcDbDictionary
280
0
281
1
0
DICTIONARY
5
450
330
0
100
AcDbDictionary
280
0
281
1
3
Standard
350
18
0
MLINESTYLE
5
18
330
450
100
AcDbMlineStyle
2
Standard
70
0
3

62
256
51
90
52
90
71
2
49
-0.5
62
256
6
ByLayer
49
0.5
62
256
6
ByLayer
0
RASTERVARIABLES
5
43c
330

100
AcDbRasterVariables
90
0
70
1
71
1
72
1
0
ENDSEC
0
EOF
