0
SECTION
2
HEADER
9
$ACADVER
1
AC1015
9
$DWGCODEPAGE
3
ANSI_1252
9
$HANDSEED
5
463
9
$ANGBASE
50
0
9
$ANGDIR
70
0
9
$ATTMODE
70
1
9
$AUNITS
70
0
9
$AUPREC
70
0
9
$CECOLOR
62
256
9
$CELTSCALE
40
1
9
$CELTYPE
6
ByLayer
9
$CELWEIGHT
370
18
9
$CLAYER
8
0
9
$CMLJUST
70
0
9
$CMLSCALE
40
1
9
$CMLSTYLE
2
Standard
9
$DIMSTYLE
2
Standard
9
$TEXTSIZE
40
0.2
9
$TEXTSTYLE
7
Standard
9
$LUNITS
70
2
9
$LUPREC
70
4
9
$EXTNAMES
290
1
9
$INSUNITS
70
4
9
$LTSCALE
40
1
9
$LWDISPLAY
290
1
9
$PDMODE
70
0
9
$PDSIZE
40
0
9
$PLINEGEN
70
0
0
ENDSEC
0
SECTION
2
CLASSES
0
CLASS
1
RASTERVARIABLES
2
AcDbRasterVariables
3
ISM
90
0
280
0
281
0
0
ENDSEC
0
SECTION
2
TABLES
0
TABLE
2
VPORT
5
459
100
AcDbSymbolTable
0
VPORT
5
1
100
AcDbSymbolTableRecord
100
AcDbViewportTableRecord
2
*Active
70
0
10
0
20
0
11
1
21
1
12
-1
22
1
13
0
23
0
14
0.5
24
0.5
15
10
25
10
16
0
26
0
36
1
17
0
27
0
37
0
0
ENDTAB
0
TABLE
2
LTYPE
5
45a
100
AcDbSymbolTable
0
LTYPE
5
14
100
AcDbSymbolTableRecord
100
AcDbLinetypeTableRecord
70
0
2
ByBlock
3

72
65
73
0
40
0
0
LTYPE
5
15
100
AcDbSymbolTableRecord
100
AcDbLinetypeTableRecord
70
0
2
ByLayer
3

72
65
73
0
40
0
0
LTYPE
5
16
100
AcDbSymbolTableRecord
100
AcDbLinetypeTableRecord
70
0
2
Continuous
3
Solid line
72
65
73
0
40
0
0
LTYPE
5
6E
100
AcDbSymbolTableRecord
100
AcDbLinetypeTableRecord
70
0
2
CENTER
3
____ _ ____ _ ____ _ ____
72
65
73
4
40
47.5
49
22
74
0
49
-8.5
74
0
49
8.5
74
0
49
-8.5
74
0
0
LTYPE
5
6F
100
AcDbSymbolTableRecord
100
AcDbLinetypeTableRecord
70
0
2
DASHED
3
__ __ __ __ __ __ __ __ __
72
65
73
2
40
25.72
49
12.86
74
0
49
-12.86
74
0
0
ENDTAB
0
TABLE
2
LAYER
5
45b
100
AcDbSymbolTable
0
LAYER
5
10
100
AcDbSymbolTableRecord
100
AcDbLayerTableRecord
2
0
70
0
62
7
6
Continuous
290
1
370
-3
390
0
0
LAYER
5
71
100
AcDbSymbolTableRecord
100
AcDbLayerTableRecord
2
1
70
0
62
4
6
Continuous
290
1
370
-3
390
0
0
LAYER
5
73
100
AcDbSymbolTableRecord
100
AcDbLayerTableRecord
2
80
70
0
62
-6
6
Continuous
290
1
370
-3
390
0
0
LAYER
5
75
100
AcDbSymbolTableRecord
100
AcDbLayerTableRecord
2
81
70
0
62
-3
6
Continuous
290
1
370
-3
390
0
0
LAYER
5
14B
100
AcDbSymbolTableRecord
100
AcDbLayerTableRecord
2
4
70
0
62
-2
6
CENTER
290
1
370
-3
390
0
0
LAYER
5
186
100
AcDbSymbolTableRecord
100
AcDbLayerTableRecord
2
2
70
0
62
7
6
Continuous
290
1
370
-3
390
0
0
LAYER
5
36E
100
AcDbSymbolTableRecord
100
AcDbLayerTableRecord
2
Defpoints
70
0
62
7
6
Continuous
290
0
370
-3
390
0
0
LAYER
5
445
100
AcDbSymbolTableRecord
100
AcDbLayerTableRecord
2
SK1
70
0
62
4
6
Continuous
290
1
370
-3
390
0
0
LAYER
5
446
100
AcDbSymbolTableRecord
100
AcDbLayerTableRecord
2
SK4
70
0
62
2
6
CENTER
290
1
370
-3
390
0
0
LAYER
5
447
100
AcDbSymbolTableRecord
100
AcDbLayerTableRecord
2
SK2
70
0
62
7
6
Continuous
290
1
370
-3
390
0
0
LAYER
5
448
100
AcDbSymbolTableRecord
100
AcDbLayerTableRecord
2
SK6
70
0
62
5
6
Continuous
290
1
370
-3
390
0
0
ENDTAB
0
TABLE
2
STYLE
5
45c
100
AcDbSymbolTable
0
STYLE
5
11
100
AcDbSymbolTableRecord
100
AcDbTextStyleTableRecord
2
Standard
3
txt
70
0
71
0
40
0
41
1
42
0
50
0
0
STYLE
5
349
100
AcDbSymbolTableRecord
100
AcDbTextStyleTableRecord
2
iso_b_vert
3
simplex.shx
70
0
71
0
40
0
41
1
42
0
50
0
0
STYLE
5
34A
100
AcDbSymbolTableRecord
100
AcDbTextStyleTableRecord
2
DWGDirectTextStyle
3
simplex
70
0
71
0
40
0
41
1
42
0
50
0
0
ENDTAB
0
TABLE
2
DIMSTYLE
5
45d
100
AcDbSymbolTable
100
AcDbDimStyleTable
0
DIMSTYLE
105
27
100
AcDbSymbolTableRecord
100
AcDbDimStyleTableRecord
2
Standard
70
0
3
<>
41
0.18
42
0.0625
44
0.18
140
0.18
147
0.09
73
0
74
0
77
1
271
2
275
0
278
52
280
0
340
11
0
ENDTAB
0
TABLE
2
VIEW
5
45e
100
AcDbSymbolTable
0
ENDTAB
0
TABLE
2
UCS
5
45f
100
AcDbSymbolTable
0
ENDTAB
0
TABLE
2
APPID
5
460
100
AcDbSymbolTable
0
APPID
5
12
100
AcDbSymbolTableRecord
100
AcDbRegAppTableRecord
2
ACAD
70
0
0
APPID
5
36A
100
AcDbSymbolTableRecord
100
AcDbRegAppTableRecord
2
ACAD_DSTYLE_DIMBREAK
70
0
0
APPID
5
404
100
AcDbSymbolTableRecord
100
AcDbRegAppTableRecord
2
ACAD_DSTYLE_DIM_LINETYPE
70
0
0
APPID
5
405
100
AcDbSymbolTableRecord
100
AcDbRegAppTableRecord
2
ACAD_DSTYLE_DIM_EXT1_LINETYPE
70
0
0
APPID
5
406
100
AcDbSymbolTableRecord
100
AcDbRegAppTableRecord
2
ACAD_DSTYLE_DIM_EXT2_LINETYPE
70
0
0
APPID
5
441
100
AcDbSymbolTableRecord
100
AcDbRegAppTableRecord
2
ACAD_MLEADERVER
70
0
0
ENDTAB
0
TABLE
2
BLOCK_RECORD
5
461
100
AcDbSymbolTable
0
BLOCK_RECORD
5
1F
100
AcDbSymbolTableRecord
100
AcDbBlockTableRecord
2
*Model_Space
340
0
70
0
0
BLOCK_RECORD
5
1B
100
AcDbSymbolTableRecord
100
AcDbBlockTableRecord
2
*Paper_Space
340
0
70
0
0
BLOCK_RECORD
5
23
100
AcDbSymbolTableRecord
100
AcDbBlockTableRecord
2
*Paper_Space0
340
0
70
0
0
BLOCK_RECORD
5
36F
100
AcDbSymbolTableRecord
100
AcDbBlockTableRecord
2
*D1
340
0
70
0
0
BLOCK_RECORD
5
37B
100
AcDbSymbolTableRecord
100
AcDbBlockTableRecord
2
_U0
340
0
70
0
0
BLOCK_RECORD
5
387
100
AcDbSymbolTableRecord
100
AcDbBlockTableRecord
2
*D3
340
0
70
0
0
BLOCK_RECORD
5
393
100
AcDbSymbolTableRecord
100
AcDbBlockTableRecord
2
_U1
340
0
70
0
0
BLOCK_RECORD
5
39F
100
AcDbSymbolTableRecord
100
AcDbBlockTableRecord
2
*D5
340
0
70
0
0
BLOCK_RECORD
5
3AB
100
AcDbSymbolTableRecord
100
AcDbBlockTableRecord
2
_U2
340
0
70
0
0
BLOCK_RECORD
5
3B7
100
AcDbSymbolTableRecord
100
AcDbBlockTableRecord
2
*D7
340
0
70
0
0
BLOCK_RECORD
5
3C3
100
AcDbSymbolTableRecord
100
AcDbBlockTableRecord
2
_U3
340
0
70
0
0
BLOCK_RECORD
5
3CF
100
AcDbSymbolTableRecord
100
AcDbBlockTableRecord
2
*D9
340
0
70
0
0
BLOCK_RECORD
5
3DD
100
AcDbSymbolTableRecord
100
AcDbBlockTableRecord
2
_U4
340
0
70
0
0
ENDTAB
0
ENDSEC
0
SECTION
2
BLOCKS
0
BLOCK
5
20
100
AcDbEntity
8
0
100
AcDbBlockBegin
2
*Model_Space
70
0
10
0
20
0
30
0
3
*Model_Space
0
ENDBLK
5
21
100
AcDbEntity
8
0
100
AcDbBlockEnd
0
BLOCK
5
1C
100
AcDbEntity
8
0
100
AcDbBlockBegin
2
*Paper_Space
70
0
10
0
20
0
30
0
3
*Paper_Space
0
ENDBLK
5
1D
100
AcDbEntity
8
0
100
AcDbBlockEnd
0
BLOCK
5
24
100
AcDbEntity
8
0
100
AcDbBlockBegin
2
*Paper_Space0
70
0
10
0
20
0
30
0
3
*Paper_Space0
0
ENDBLK
5
25
100
AcDbEntity
8
0
100
AcDbBlockEnd
0
BLOCK
5
370
100
AcDbEntity
8
0
100
AcDbBlockBegin
2
*D1
70
1
10
0
20
0
30
0
3
*D1
0
LINE
5
372
100
AcDbEntity
8
0
62
256
6
ByLayer
370
-2
48
1
60
0
100
AcDbLine
10
0
20
-17.5875
30
0
11
0
21
-68.037171
31
0
39
0
210
0
220
0
230
1
0
LINE
5
373
100
AcDbEntity
8
0
62
256
6
ByLayer
370
-2
48
1
60
0
100
AcDbLine
10
172
20
-12.0875
30
0
11
172
21
-68.037171
31
0
39
0
210
0
220
0
230
1
0
LINE
5
374
100
AcDbEntity
8
0
62
256
6
ByLayer
370
-2
48
1
60
0
100
AcDbLine
10
4.175
20
-64.862171
30
0
11
167.825
21
-64.862171
31
0
39
0
210
0
220
0
230
1
0
SOLID
5
375
100
AcDbEntity
8
0
62
256
6
ByLayer
370
-1
48
1
60
0
100
AcDbTrace
10
4.175
20
-64.166338
30
0
11
4.175
21
-65.558004
31
0
12
0
22
-64.862171
32
0
13
0
23
-64.862171
33
0
39
0
210
0
220
0
230
1
0
SOLID
5
376
100
AcDbEntity
8
0
62
256
6
ByLayer
370
-1
48
1
60
0
100
AcDbTrace
10
167.825
20
-65.558004
30
0
11
167.825
21
-64.166338
31
0
12
172
22
-64.862171
32
0
13
172
23
-64.862171
33
0
39
0
210
0
220
0
230
1
0
MTEXT
5
377
100
AcDbEntity
8
0
62
256
6
ByLayer
370
18
48
1
60
0
100
AcDbMText
10
86
20
-55.468421
30
0
210
0
220
0
230
1
1
\A1;172
40
4.5
41
0
44
1
50
0
71
5
72
5
7
iso_b_vert
0
POINT
5
378
100
AcDbEntity
8
Defpoints
62
0
6
ByLayer
370
-1
48
1
60
0
100
AcDbPoint
10
0
20
-16
30
0
39
0
210
0
220
0
230
1
50
360
0
POINT
5
379
100
AcDbEntity
8
Defpoints
62
0
6
ByLayer
370
-1
48
1
60
0
100
AcDbPoint
10
172
20
-10.5
30
0
39
0
210
0
220
0
230
1
50
360
0
POINT
5
37A
100
AcDbEntity
8
Defpoints
62
0
6
ByLayer
370
-1
48
1
60
0
100
AcDbPoint
10
172
20
-64.862171
30
0
39
0
210
0
220
0
230
1
50
360
0
ENDBLK
5
371
100
AcDbEntity
8
0
100
AcDbBlockEnd
0
BLOCK
5
382
100
AcDbEntity
8
0
100
AcDbBlockBegin
2
_U0
70
0
10
0
20
0
30
0
3
_U0
0
MTEXT
5
37C
100
AcDbEntity
8
2
62
256
6
ByLayer
370
18
48
1
60
0
100
AcDbMText
10
82.431801
20
-63.534499
30
0
210
0
220
0
230
1
1
\W0.6217;172
40
4.5
41
0
44
1.084337
50
0
71
7
72
5
7
iso_b_vert
0
LINE
5
37D
100
AcDbEntity
8
2
62
256
6
ByLayer
370
13
48
1
60
0
100
AcDbLine
10
0
20
-17.5875
30
0
11
0
21
-68.037171
31
0
39
0
210
0
220
0
230
1
0
LINE
5
37E
100
AcDbEntity
8
2
62
256
6
ByLayer
370
13
48
1
60
0
100
AcDbLine
10
172
20
-12.0875
30
0
11
172
21
-68.037171
31
0
39
0
210
0
220
0
230
1
0
LINE
5
37F
100
AcDbEntity
8
2
62
256
6
ByLayer
370
13
48
1
60
0
100
AcDbLine
10
0
20
-64.862171
30
0
11
172
21
-64.862171
31
0
39
0
210
0
220
0
230
1
0
SOLID
5
380
100
AcDbEntity
8
2
62
256
6
ByLayer
370
18
48
1
60
0
100
AcDbTrace
10
0
20
-64.862171
30
0
11
4.174997
21
-63.936596
31
0
12
4.175003
22
-65.787746
32
0
13
4.175003
23
-65.787746
33
0
39
0
210
0
220
0
230
1
0
SOLID
5
381
100
AcDbEntity
8
2
62
256
6
ByLayer
370
18
48
1
60
0
100
AcDbTrace
10
172
20
-64.862171
30
0
11
167.825003
21
-65.787746
31
0
12
167.824997
22
-63.936596
32
0
13
167.824997
23
-63.936596
33
0
39
0
210
0
220
0
230
1
0
ENDBLK
5
383
100
AcDbEntity
8
0
100
AcDbBlockEnd
0
BLOCK
5
388
100
AcDbEntity
8
0
100
AcDbBlockBegin
2
*D3
70
1
10
0
20
0
30
0
3
*D3
0
LINE
5
38A
100
AcDbEntity
8
0
62
256
6
ByLayer
370
-2
48
1
60
0
100
AcDbLine
10
-56
20
-14.0875
30
0
11
-56
21
-68.037171
31
0
39
0
210
0
220
0
230
1
0
LINE
5
38B
100
AcDbEntity
8
0
62
256
6
ByLayer
370
-2
48
1
60
0
100
AcDbLine
10
0
20
-17.5875
30
0
11
0
21
-68.037171
31
0
39
0
210
0
220
0
230
1
0
LINE
5
38C
100
AcDbEntity
8
0
62
256
6
ByLayer
370
-2
48
1
60
0
100
AcDbLine
10
-51.825
20
-64.862171
30
0
11
-4.175
21
-64.862171
31
0
39
0
210
0
220
0
230
1
0
SOLID
5
38D
100
AcDbEntity
8
0
62
256
6
ByLayer
370
-1
48
1
60
0
100
AcDbTrace
10
-51.825
20
-64.166338
30
0
11
-51.825
21
-65.558004
31
0
12
-56
22
-64.862171
32
0
13
-56
23
-64.862171
33
0
39
0
210
0
220
0
230
1
0
SOLID
5
38E
100
AcDbEntity
8
0
62
256
6
ByLayer
370
-1
48
1
60
0
100
AcDbTrace
10
-4.175
20
-65.558004
30
0
11
-4.175
21
-64.166338
31
0
12
0
22
-64.862171
32
0
13
0
23
-64.862171
33
0
39
0
210
0
220
0
230
1
0
MTEXT
5
38F
100
AcDbEntity
8
0
62
256
6
ByLayer
370
18
48
1
60
0
100
AcDbMText
10
-28
20
-55.468421
30
0
210
0
220
0
230
1
1
\A1;56
40
4.5
41
0
44
1
50
0
71
5
72
5
7
iso_b_vert
0
POINT
5
390
100
AcDbEntity
8
Defpoints
62
0
6
ByLayer
370
-1
48
1
60
0
100
AcDbPoint
10
-56
20
-12.5
30
0
39
0
210
0
220
0
230
1
50
360
0
POINT
5
391
100
AcDbEntity
8
Defpoints
62
0
6
ByLayer
370
-1
48
1
60
0
100
AcDbPoint
10
0
20
-16
30
0
39
0
210
0
220
0
230
1
50
360
0
POINT
5
392
100
AcDbEntity
8
Defpoints
62
0
6
ByLayer
370
-1
48
1
60
0
100
AcDbPoint
10
0
20
-64.862171
30
0
39
0
210
0
220
0
230
1
50
360
0
ENDBLK
5
389
100
AcDbEntity
8
0
100
AcDbBlockEnd
0
BLOCK
5
39A
100
AcDbEntity
8
0
100
AcDbBlockBegin
2
_U1
70
0
10
0
20
0
30
0
3
_U1
0
MTEXT
5
394
100
AcDbEntity
8
SK2
62
256
6
ByLayer
370
18
48
1
60
0
100
AcDbMText
10
-30.449242
20
-63.534499
30
0
210
0
220
0
230
1
1
\W0.6740;56
40
4.5
41
0
44
1.084337
50
0
71
7
72
5
7
iso_b_vert
0
LINE
5
395
100
AcDbEntity
8
SK2
62
256
6
ByLayer
370
13
48
1
60
0
100
AcDbLine
10
-56
20
-14.0875
30
0
11
-56
21
-68.037171
31
0
39
0
210
0
220
0
230
1
0
LINE
5
396
100
AcDbEntity
8
SK2
62
256
6
ByLayer
370
13
48
1
60
0
100
AcDbLine
10
0
20
-17.5875
30
0
11
0
21
-68.037171
31
0
39
0
210
0
220
0
230
1
0
LINE
5
397
100
AcDbEntity
8
SK2
62
256
6
ByLayer
370
13
48
1
60
0
100
AcDbLine
10
-56
20
-64.862171
30
0
11
0
21
-64.862171
31
0
39
0
210
0
220
0
230
1
0
SOLID
5
398
100
AcDbEntity
8
SK2
62
256
6
ByLayer
370
18
48
1
60
0
100
AcDbTrace
10
-56
20
-64.862171
30
0
11
-51.825003
21
-63.936596
31
0
12
-51.824997
22
-65.787746
32
0
13
-51.824997
23
-65.787746
33
0
39
0
210
0
220
0
230
1
0
SOLID
5
399
100
AcDbEntity
8
SK2
62
256
6
ByLayer
370
18
48
1
60
0
100
AcDbTrace
10
0
20
-64.862171
30
0
11
-4.174997
21
-65.787746
31
0
12
-4.175003
22
-63.936596
32
0
13
-4.175003
23
-63.936596
33
0
39
0
210
0
220
0
230
1
0
ENDBLK
5
39B
100
AcDbEntity
8
0
100
AcDbBlockEnd
0
BLOCK
5
3A0
100
AcDbEntity
8
0
100
AcDbBlockBegin
2
*D5
70
1
10
0
20
0
30
0
3
*D5
0
LINE
5
3A2
100
AcDbEntity
8
0
62
256
6
ByLayer
370
-2
48
1
60
0
100
AcDbLine
10
172
20
-12.0875
30
0
11
172
21
-58.037171
31
0
39
0
210
0
220
0
230
1
0
LINE
5
3A3
100
AcDbEntity
8
0
62
256
6
ByLayer
370
-2
48
1
60
0
100
AcDbLine
10
6.1777
20
-17.5875
30
0
11
6.1777
21
-58.037171
31
0
39
0
210
0
220
0
230
1
0
LINE
5
3A4
100
AcDbEntity
8
0
62
256
6
ByLayer
370
-2
48
1
60
0
100
AcDbLine
10
167.825
20
-54.862171
30
0
11
10.3527
21
-54.862171
31
0
39
0
210
0
220
0
230
1
0
SOLID
5
3A5
100
AcDbEntity
8
0
62
256
6
ByLayer
370
-1
48
1
60
0
100
AcDbTrace
10
167.825
20
-55.558004
30
0
11
167.825
21
-54.166338
31
0
12
172
22
-54.862171
32
0
13
172
23
-54.862171
33
0
39
0
210
0
220
0
230
1
0
SOLID
5
3A6
100
AcDbEntity
8
0
62
256
6
ByLayer
370
-1
48
1
60
0
100
AcDbTrace
10
10.3527
20
-54.166338
30
0
11
10.3527
21
-55.558004
31
0
12
6.1777
22
-54.862171
32
0
13
6.1777
23
-54.862171
33
0
39
0
210
0
220
0
230
1
0
MTEXT
5
3A7
100
AcDbEntity
8
0
62
256
6
ByLayer
370
18
48
1
60
0
100
AcDbMText
10
89.08885
20
-45.468421
30
0
210
0
220
0
230
1
1
\A1;165.8
40
4.5
41
0
44
1
50
0
71
5
72
5
7
iso_b_vert
0
POINT
5
3A8
100
AcDbEntity
8
Defpoints
62
0
6
ByLayer
370
-1
48
1
60
0
100
AcDbPoint
10
172
20
-10.5
30
0
39
0
210
0
220
0
230
1
50
360
0
POINT
5
3A9
100
AcDbEntity
8
Defpoints
62
0
6
ByLayer
370
-1
48
1
60
0
100
AcDbPoint
10
6.1777
20
-16
30
0
39
0
210
0
220
0
230
1
50
360
0
POINT
5
3AA
100
AcDbEntity
8
Defpoints
62
0
6
ByLayer
370
-1
48
1
60
0
100
AcDbPoint
10
6.1777
20
-54.862171
30
0
39
0
210
0
220
0
230
1
50
360
0
ENDBLK
5
3A1
100
AcDbEntity
8
0
100
AcDbBlockEnd
0
BLOCK
5
3B2
100
AcDbEntity
8
0
100
AcDbBlockBegin
2
_U2
70
0
10
0
20
0
30
0
3
_U2
0
MTEXT
5
3AC
100
AcDbEntity
8
SK2
62
256
6
ByLayer
370
18
48
1
60
0
100
AcDbMText
10
82.927709
20
-53.534499
30
0
210
0
220
0
230
1
1
\W0.6864;165.8
40
4.5
41
0
44
1.084337
50
0
71
7
72
5
7
iso_b_vert
0
LINE
5
3AD
100
AcDbEntity
8
SK2
62
256
6
ByLayer
370
13
48
1
60
0
100
AcDbLine
10
172
20
-12.0875
30
0
11
172
21
-58.037171
31
0
39
0
210
0
220
0
230
1
0
LINE
5
3AE
100
AcDbEntity
8
SK2
62
256
6
ByLayer
370
13
48
1
60
0
100
AcDbLine
10
6.1777
20
-17.5875
30
0
11
6.1777
21
-58.037171
31
0
39
0
210
0
220
0
230
1
0
LINE
5
3AF
100
AcDbEntity
8
SK2
62
256
6
ByLayer
370
13
48
1
60
0
100
AcDbLine
10
172
20
-54.862171
30
0
11
6.1777
21
-54.862171
31
0
39
0
210
0
220
0
230
1
0
SOLID
5
3B0
100
AcDbEntity
8
SK2
62
256
6
ByLayer
370
18
48
1
60
0
100
AcDbTrace
10
172
20
-54.862171
30
0
11
167.825003
21
-55.787746
31
0
12
167.824997
22
-53.936596
32
0
13
167.824997
23
-53.936596
33
0
39
0
210
0
220
0
230
1
0
SOLID
5
3B1
100
AcDbEntity
8
SK2
62
256
6
ByLayer
370
18
48
1
60
0
100
AcDbTrace
10
6.1777
20
-54.862171
30
0
11
10.352697
21
-53.936596
31
0
12
10.352703
22
-55.787746
32
0
13
10.352703
23
-55.787746
33
0
39
0
210
0
220
0
230
1
0
ENDBLK
5
3B3
100
AcDbEntity
8
0
100
AcDbBlockEnd
0
BLOCK
5
3B8
100
AcDbEntity
8
0
100
AcDbBlockBegin
2
*D7
70
1
10
0
20
0
30
0
3
*D7
0
LINE
5
3BA
100
AcDbEntity
8
0
62
256
6
ByLayer
370
-2
48
1
60
0
100
AcDbLine
10
22
20
-12.0875
30
0
11
22
21
-48.037171
31
0
39
0
210
0
220
0
230
1
0
LINE
5
3BB
100
AcDbEntity
8
0
62
256
6
ByLayer
370
-2
48
1
60
0
100
AcDbLine
10
172
20
-12.0875
30
0
11
172
21
-48.037171
31
0
39
0
210
0
220
0
230
1
0
LINE
5
3BC
100
AcDbEntity
8
0
62
256
6
ByLayer
370
-2
48
1
60
0
100
AcDbLine
10
26.175
20
-44.862171
30
0
11
167.825
21
-44.862171
31
0
39
0
210
0
220
0
230
1
0
SOLID
5
3BD
100
AcDbEntity
8
0
62
256
6
ByLayer
370
-1
48
1
60
0
100
AcDbTrace
10
26.175
20
-44.166338
30
0
11
26.175
21
-45.558004
31
0
12
22
22
-44.862171
32
0
13
22
23
-44.862171
33
0
39
0
210
0
220
0
230
1
0
SOLID
5
3BE
100
AcDbEntity
8
0
62
256
6
ByLayer
370
-1
48
1
60
0
100
AcDbTrace
10
167.825
20
-45.558004
30
0
11
167.825
21
-44.166338
31
0
12
172
22
-44.862171
32
0
13
172
23
-44.862171
33
0
39
0
210
0
220
0
230
1
0
MTEXT
5
3BF
100
AcDbEntity
8
0
62
256
6
ByLayer
370
18
48
1
60
0
100
AcDbMText
10
97
20
-35.468421
30
0
210
0
220
0
230
1
1
\A1;150
40
4.5
41
0
44
1
50
0
71
5
72
5
7
iso_b_vert
0
POINT
5
3C0
100
AcDbEntity
8
Defpoints
62
0
6
ByLayer
370
-1
48
1
60
0
100
AcDbPoint
10
22
20
-10.5
30
0
39
0
210
0
220
0
230
1
50
360
0
POINT
5
3C1
100
AcDbEntity
8
Defpoints
62
0
6
ByLayer
370
-1
48
1
60
0
100
AcDbPoint
10
172
20
-10.5
30
0
39
0
210
0
220
0
230
1
50
360
0
POINT
5
3C2
100
AcDbEntity
8
Defpoints
62
0
6
ByLayer
370
-1
48
1
60
0
100
AcDbPoint
10
172
20
-44.862171
30
0
39
0
210
0
220
0
230
1
50
360
0
ENDBLK
5
3B9
100
AcDbEntity
8
0
100
AcDbBlockEnd
0
BLOCK
5
3CA
100
AcDbEntity
8
0
100
AcDbBlockBegin
2
_U3
70
0
10
0
20
0
30
0
3
_U3
0
MTEXT
5
3C4
100
AcDbEntity
8
SK2
62
256
6
ByLayer
370
18
48
1
60
0
100
AcDbMText
10
93.431801
20
-43.534499
30
0
210
0
220
0
230
1
1
\W0.6217;150
40
4.5
41
0
44
1.084337
50
0
71
7
72
5
7
iso_b_vert
0
LINE
5
3C5
100
AcDbEntity
8
SK2
62
256
6
ByLayer
370
13
48
1
60
0
100
AcDbLine
10
22
20
-12.0875
30
0
11
22
21
-48.037171
31
0
39
0
210
0
220
0
230
1
0
LINE
5
3C6
100
AcDbEntity
8
SK2
62
256
6
ByLayer
370
13
48
1
60
0
100
AcDbLine
10
172
20
-12.0875
30
0
11
172
21
-48.037171
31
0
39
0
210
0
220
0
230
1
0
LINE
5
3C7
100
AcDbEntity
8
SK2
62
256
6
ByLayer
370
13
48
1
60
0
100
AcDbLine
10
22
20
-44.862171
30
0
11
172
21
-44.862171
31
0
39
0
210
0
220
0
230
1
0
SOLID
5
3C8
100
AcDbEntity
8
SK2
62
256
6
ByLayer
370
18
48
1
60
0
100
AcDbTrace
10
22
20
-44.862171
30
0
11
26.174997
21
-43.936596
31
0
12
26.175003
22
-45.787746
32
0
13
26.175003
23
-45.787746
33
0
39
0
210
0
220
0
230
1
0
SOLID
5
3C9
100
AcDbEntity
8
SK2
62
256
6
ByLayer
370
18
48
1
60
0
100
AcDbTrace
10
172
20
-44.862171
30
0
11
167.825003
21
-45.787746
31
0
12
167.824997
22
-43.936596
32
0
13
167.824997
23
-43.936596
33
0
39
0
210
0
220
0
230
1
0
ENDBLK
5
3CB
100
AcDbEntity
8
0
100
AcDbBlockEnd
0
BLOCK
5
3D0
100
AcDbEntity
8
0
100
AcDbBlockBegin
2
*D9
70
1
10
0
20
0
30
0
3
*D9
0
LINE
5
3D2
100
AcDbEntity
8
0
62
256
6
ByLayer
370
-2
48
1
60
0
100
AcDbLine
10
171.4423
20
-6.8375
30
0
11
171.4423
21
-38.037171
31
0
39
0
210
0
220
0
230
1
0
LINE
5
3D3
100
AcDbEntity
8
0
62
256
6
ByLayer
370
-2
48
1
60
0
100
AcDbLine
10
172
20
-1.5875
30
0
11
172
21
-38.037171
31
0
39
0
210
0
220
0
230
1
0
LINE
5
3D4
100
AcDbEntity
8
0
62
256
6
ByLayer
370
-2
48
1
60
0
100
AcDbLine
10
172
20
-34.862171
30
0
11
208.351786
21
-34.862171
31
0
39
0
210
0
220
0
230
1
0
LINE
5
3D5
100
AcDbEntity
8
0
62
256
6
ByLayer
370
-2
48
1
60
0
100
AcDbLine
10
167.2673
20
-34.862171
30
0
11
163.0923
21
-34.862171
31
0
39
0
210
0
220
0
230
1
0
LINE
5
3D6
100
AcDbEntity
8
0
62
256
6
ByLayer
370
-2
48
1
60
0
100
AcDbLine
10
176.175
20
-34.862171
30
0
11
180.35
21
-34.862171
31
0
39
0
210
0
220
0
230
1
0
SOLID
5
3D7
100
AcDbEntity
8
0
62
256
6
ByLayer
370
-1
48
1
60
0
100
AcDbTrace
10
167.2673
20
-35.558004
30
0
11
167.2673
21
-34.166338
31
0
12
171.4423
22
-34.862171
32
0
13
171.4423
23
-34.862171
33
0
39
0
210
0
220
0
230
1
0
SOLID
5
3D8
100
AcDbEntity
8
0
62
256
6
ByLayer
370
-1
48
1
60
0
100
AcDbTrace
10
176.175
20
-34.166338
30
0
11
176.175
21
-35.558004
31
0
12
172
22
-34.862171
32
0
13
172
23
-34.862171
33
0
39
0
210
0
220
0
230
1
0
MTEXT
5
3D9
100
AcDbEntity
8
0
62
256
6
ByLayer
370
18
48
1
60
0
100
AcDbMText
10
194.350893
20
-25.468421
30
0
210
0
220
0
230
1
1
\A1;0.56
40
4.5
41
0
44
1
50
0
71
5
72
5
7
iso_b_vert
0
POINT
5
3DA
100
AcDbEntity
8
Defpoints
62
0
6
ByLayer
370
-1
48
1
60
0
100
AcDbPoint
10
171.4423
20
-5.25
30
0
39
0
210
0
220
0
230
1
50
360
0
POINT
5
3DB
100
AcDbEntity
8
Defpoints
62
0
6
ByLayer
370
-1
48
1
60
0
100
AcDbPoint
10
172
20
0
30
0
39
0
210
0
220
0
230
1
50
360
0
POINT
5
3DC
100
AcDbEntity
8
Defpoints
62
0
6
ByLayer
370
-1
48
1
60
0
100
AcDbPoint
10
172
20
-34.862171
30
0
39
0
210
0
220
0
230
1
50
360
0
ENDBLK
5
3D1
100
AcDbEntity
8
0
100
AcDbBlockEnd
0
BLOCK
5
3E4
100
AcDbEntity
8
0
100
AcDbBlockBegin
2
_U4
70
0
10
0
20
0
30
0
3
_U4
0
MTEXT
5
3DE
100
AcDbEntity
8
2
62
256
6
ByLayer
370
18
48
1
60
0
100
AcDbMText
10
184.351
20
-33.534499
30
0
210
0
220
0
230
1
1
\W0.7346;0.56
40
4.5
41
0
44
1.084337
50
0
71
7
72
5
7
iso_b_vert
0
LINE
5
3DF
100
AcDbEntity
8
2
62
256
6
ByLayer
370
13
48
1
60
0
100
AcDbLine
10
171.4423
20
-6.8375
30
0
11
171.4423
21
-38.037171
31
0
39
0
210
0
220
0
230
1
0
LINE
5
3E0
100
AcDbEntity
8
2
62
256
6
ByLayer
370
13
48
1
60
0
100
AcDbLine
10
172
20
-1.5875
30
0
11
172
21
-38.037171
31
0
39
0
210
0
220
0
230
1
0
LINE
5
3E1
100
AcDbEntity
8
2
62
256
6
ByLayer
370
13
48
1
60
0
100
AcDbLine
10
194.673869
20
-34.862171
30
0
11
160.1923
21
-34.862171
31
0
39
0
210
0
220
0
230
1
0
SOLID
5
3E2
100
AcDbEntity
8
2
62
256
6
ByLayer
370
18
48
1
60
0
100
AcDbTrace
10
171.4423
20
-34.862171
30
0
11
167.267303
21
-35.787746
31
0
12
167.267297
22
-33.936596
32
0
13
167.267297
23
-33.936596
33
0
39
0
210
0
220
0
230
1
0
SOLID
5
3E3
100
AcDbEntity
8
2
62
256
6
ByLayer
370
18
48
1
60
0
100
AcDbTrace
10
172
20
-34.862171
30
0
11
176.174997
21
-33.936596
31
0
12
176.175003
22
-35.787746
32
0
13
176.175003
23
-35.787746
33
0
39
0
210
0
220
0
230
1
0
ENDBLK
5
3E5
100
AcDbEntity
8
0
100
AcDbBlockEnd
0
ENDSEC
0
SECTION
2
ENTITIES
0
ARC
5
18F
100
AcDbEntity
8
SK1
62
256
6
ByLayer
370
13
48
1
60
0
100
AcDbCircle
39
0
10
-53.894505
20
-12.8967
30
0
40
0.800000000000004
210
0
220
0
230
1
100
AcDbArc
50
70.982
51
141
0
ARC
5
190
100
AcDbEntity
8
SK1
62
256
6
ByLayer
370
13
48
1
60
0
100
AcDbCircle
39
0
10
-53.894505
20
12.8967
30
0
40
0.800000000000004
210
0
220
0
230
1
100
AcDbArc
50
219
51
289.018
0
ARC
5
191
100
AcDbEntity
8
SK1
62
256
6
ByLayer
370
13
48
1
60
0
100
AcDbCircle
39
0
10
-0.15
20
12.64675
30
0
40
0.400000000000002
210
0
220
0
230
1
100
AcDbArc
50
270
51
292.024313
0
ARC
5
192
100
AcDbEntity
8
SK1
62
256
6
ByLayer
370
13
48
1
60
0
100
AcDbCircle
39
0
10
-0.15
20
-12.64675
30
0
40
0.400000000000002
210
0
220
0
230
1
100
AcDbArc
50
67.975687
51
90
0
ARC
5
193
100
AcDbEntity
8
SK1
62
256
6
ByLayer
370
13
48
1
60
0
100
AcDbCircle
39
0
10
-1.375195
20
12.64675
30
0
40
0.400000000000001
210
0
220
0
230
1
100
AcDbArc
50
245
51
270
0
ARC
5
194
100
AcDbEntity
8
SK1
62
256
6
ByLayer
370
13
48
1
60
0
100
AcDbCircle
39
0
10
-1.375195
20
-12.64675
30
0
40
0.400000000000001
210
0
220
0
230
1
100
AcDbArc
50
90
51
115
0
ARC
5
195
100
AcDbEntity
8
1
62
256
6
ByLayer
370
13
48
1
60
0
100
AcDbCircle
39
0
10
170.047632
20
9.791139
30
0
40
0.1
210
0
220
0
230
1
100
AcDbArc
50
8.974534
51
93
0
ARC
5
196
100
AcDbEntity
8
1
62
256
6
ByLayer
370
13
48
1
60
0
100
AcDbCircle
39
0
10
170.08906
20
4.540305
30
0
40
0.1
210
0
220
0
230
1
100
AcDbArc
50
273
51
352.543899
0
ARC
5
197
100
AcDbEntity
8
1
62
256
6
ByLayer
370
13
48
1
60
0
100
AcDbCircle
39
0
10
164.075302
20
9.363847
30
0
40
0.1
210
0
220
0
230
1
100
AcDbArc
50
71.611938
51
93
0
ARC
5
198
100
AcDbEntity
8
1
62
256
6
ByLayer
370
13
48
1
60
0
100
AcDbCircle
39
0
10
164.116729
20
4.113013
30
0
40
0.1
210
0
220
0
230
1
100
AcDbArc
50
273
51
303.659979
0
ELLIPSE
5
199
100
AcDbEntity
8
1
62
256
6
ByLayer
370
13
48
1
60
0
100
AcDbEllipse
10
171.319365
20
3.731768
30
0
11
-0.00984092611042946
21
0.500167488628334
31
0
210
0
220
0
230
1
40
0.104862
41
1.92329103534357
42
-2.99948583615821
0
ELLIPSE
5
19A
100
AcDbEntity
8
1
62
256
6
ByLayer
370
13
48
1
60
0
100
AcDbEllipse
10
163.40262
20
4.38098
30
0
11
-0.859662425302452
21
-1.06694862794481
31
0
210
0
220
0
230
1
40
0.966609
41
1.76533485044189
42
1.83734231741249
0
ELLIPSE
5
19B
100
AcDbEntity
8
1
62
256
6
ByLayer
370
13
48
1
60
0
100
AcDbEllipse
10
174.354375
20
1.064492
30
0
11
-3.90661382214253
21
-1.26358939277572
31
0
210
0
220
0
230
1
40
0.854378
41
-0.356763521333676
42
-0.209211452044829
0
ELLIPSE
5
19C
100
AcDbEntity
8
1
62
256
6
ByLayer
370
13
48
1
60
0
100
AcDbEllipse
10
164.720155
20
4.090277
30
0
11
0.294086657459336
21
-0.955778759914864
31
0
210
0
220
0
230
1
40
0.089609
41
-1.25821643154265
42
-0.0225091052269235
0
ELLIPSE
5
19D
100
AcDbEntity
8
1
62
256
6
ByLayer
370
13
48
1
60
0
100
AcDbEllipse
10
171.345288
20
-0.070214
30
0
11
-0.0219622815166812
21
1.0112733954235
31
0
210
0
220
0
230
1
40
0.102137
41
-0.12596155196366
42
0.830263559926856
0
ELLIPSE
5
19E
100
AcDbEntity
8
1
62
256
6
ByLayer
370
13
48
1
60
0
100
AcDbEllipse
10
158.499978
20
2.558405
30
0
11
-1.99983225424997
21
0.0347460007739376
31
0
210
0
220
0
230
1
40
0.815426
41
1.97044226590195
42
1.98573659168142
0
ELLIPSE
5
19F
100
AcDbEntity
8
1
62
256
6
ByLayer
370
13
48
1
60
0
100
AcDbEllipse
10
161.020235
20
0.000329
30
0
11
-1.36702720273176
21
-10.2364252502641
31
0
210
0
220
0
230
1
40
0.0904
41
3.00107203449887
42
3.01193217268444
0
ELLIPSE
5
1A0
100
AcDbEntity
8
1
62
256
6
ByLayer
370
13
48
1
60
0
100
AcDbEllipse
10
171.014442
20
-5.571066
30
0
11
-0.0637210384129835
21
-0.515917434085511
31
0
210
0
220
0
230
1
40
0.113789
41
-1.64813112186792
42
-0.0773347950688388
0
ELLIPSE
5
1A1
100
AcDbEntity
8
1
62
256
6
ByLayer
370
13
48
1
60
0
100
AcDbEllipse
10
170.957646
20
4.626715
30
0
11
-0.0196818522166093
21
1.00033497713731
31
0
210
0
220
0
230
1
40
0.104862
41
-3.13816379545534
42
-2.58335276244676
0
ELLIPSE
5
1A2
100
AcDbEntity
8
1
62
256
6
ByLayer
370
13
48
1
60
0
100
AcDbEllipse
10
168.705719
20
3.857805
30
0
11
-0.318392675033568
21
-0.395166627165506
31
0
210
0
220
0
230
1
40
0.966608
41
-2.21492179384422
42
-1.95857478075893
0
ELLIPSE
5
1A3
100
AcDbEntity
8
1
62
256
6
ByLayer
370
13
48
1
60
0
100
AcDbEllipse
10
172.025347
20
0
30
0
11
-1.2372404879457
21
-10.2364719478862
31
0
210
0
220
0
230
1
40
0.117261
41
-1.32891169048582
42
-0.0951556022140509
0
ELLIPSE
5
1A4
100
AcDbEntity
8
1
62
256
6
ByLayer
370
13
48
1
60
0
100
AcDbEllipse
10
162.900801
20
0
30
0
11
-0.541175318362057
21
10.2373772694853
31
0
210
0
220
0
230
1
40
0.092638
41
-0.13874661151557
42
-0.00897551488991103
0
ELLIPSE
5
1A5
100
AcDbEntity
8
1
62
256
6
ByLayer
370
13
48
1
60
0
100
AcDbEllipse
10
174.967446
20
0.422022
30
0
11
-4.02199842061313
21
-0.0164816387980387
31
0
210
0
220
0
230
1
40
0.988371
41
0.054898301861982
42
0.152180717073924
0
ELLIPSE
5
1A6
100
AcDbEntity
8
1
62
256
6
ByLayer
370
13
48
1
60
0
100
AcDbEllipse
10
167.754911
20
-2.550739
30
0
11
-4.71613784505872
21
4.19478971599531
31
0
210
0
220
0
230
1
40
0.899792
41
-0.738750139553674
42
-0.644820793872196
0
ELLIPSE
5
1A7
100
AcDbEntity
8
1
62
256
6
ByLayer
370
13
48
1
60
0
100
AcDbEllipse
10
166.398395
20
4.387775
30
0
11
0.052335956242959
21
-0.998629534754573
31
0
210
0
220
0
230
1
40
0.092371
41
-1.21322522314942
42
0
0
ELLIPSE
5
1A8
100
AcDbEntity
8
1
62
256
6
ByLayer
370
13
48
1
60
0
100
AcDbEllipse
10
231.681835
20
-0.023322
30
0
11
-137.240744156995
21
0.0621841500566154
31
0
210
0
220
0
230
1
40
0.085772
41
-1.02912414904709
42
-1.00781624624637
0
ELLIPSE
5
1A9
100
AcDbEntity
8
1
62
256
6
ByLayer
370
13
48
1
60
0
100
AcDbEllipse
10
171.206403
20
0
30
0
11
-1.74373495836535
21
10.236438096717
31
0
210
0
220
0
230
1
40
0.08457
41
1.58467796606787
42
1.66799913130537
0
ELLIPSE
5
1AA
100
AcDbEntity
8
1
62
256
6
ByLayer
370
13
48
1
60
0
100
AcDbEllipse
10
161.218521
20
3.465418
30
0
11
-3.96879667801735
21
-0.704906653329117
31
0
210
0
220
0
230
1
40
0.015321
41
-3.01817314104411
42
-2.80577404770298
0
ELLIPSE
5
1AB
100
AcDbEntity
8
1
62
256
6
ByLayer
370
13
48
1
60
0
100
AcDbEllipse
10
158.5
20
2.923005
30
0
11
-1.5
21
1.51595858262354E-15
31
0
210
0
220
0
230
1
40
0.751582
41
-3.13804258982155
42
-1.69721580920478
0
ELLIPSE
5
1AC
100
AcDbEntity
8
1
62
256
6
ByLayer
370
13
48
1
60
0
100
AcDbEllipse
10
163.075515
20
4.363836
30
0
11
-1.19084822159779
21
0.959487289326895
31
0
210
0
220
0
230
1
40
0.775936
41
-3.08479702108719
42
-2.88746812060991
0
ELLIPSE
5
1AD
100
AcDbEntity
8
1
62
256
6
ByLayer
370
13
48
1
60
0
100
AcDbEllipse
10
161.698492
20
4.605988
30
0
11
-0.0261679781214714
21
0.499314767377287
31
0
210
0
220
0
230
1
40
0.995725
41
-1.74128991378715
42
-1.46607657167521
0
ELLIPSE
5
1AE
100
AcDbEntity
8
1
62
256
6
ByLayer
370
13
48
1
60
0
100
AcDbEllipse
10
179.830844
20
-2.6E-05
30
0
11
-110.509795792135
21
0.0501376950693546
31
0
210
0
220
0
230
1
40
0.092638
41
-1.41330900769848
42
-1.39886928989164
0
ELLIPSE
5
1AF
100
AcDbEntity
8
1
62
256
6
ByLayer
370
13
48
1
60
0
100
AcDbEllipse
10
171.239384
20
0.131486
30
0
11
-0.0109811407649941
21
0.505636697888453
31
0
210
0
220
0
230
1
40
0.102137
41
-0.125961551942019
42
0.467125856913365
0
ELLIPSE
5
1B0
100
AcDbEntity
8
1
62
256
6
ByLayer
370
13
48
1
60
0
100
AcDbEllipse
10
473.087475
20
0
30
0
11
-476.66413573857
21
7.72235951995563
31
0
210
0
220
0
230
1
40
0.0141
41
0.856999836877416
42
0.882905591227453
0
ELLIPSE
5
1B1
100
AcDbEntity
8
1
62
256
6
ByLayer
370
13
48
1
60
0
100
AcDbEllipse
10
164.847936
20
3.655627
30
0
11
-3.96879667878629
21
-0.704906653469597
31
0
210
0
220
0
230
1
40
0.015321
41
-3.01817314120546
42
-2.80577404773606
0
ELLIPSE
5
1B2
100
AcDbEntity
8
1
62
256
6
ByLayer
370
13
48
1
60
0
100
AcDbEllipse
10
161.394087
20
4.590034
30
0
11
0.052335956242959
21
-0.998629534754573
31
0
210
0
220
0
230
1
40
0.995725
41
1.40030273980262
42
1.67551608191456
0
ELLIPSE
5
1B3
100
AcDbEntity
8
1
62
256
6
ByLayer
370
13
48
1
60
0
100
AcDbEllipse
10
171.110888
20
0
30
0
11
-20.5752950615074
21
8.59070279333327
31
0
210
0
220
0
230
1
40
0.261131
41
0.796524396115835
42
0.915938055955147
0
ELLIPSE
5
1B4
100
AcDbEntity
8
1
62
256
6
ByLayer
370
13
48
1
60
0
100
AcDbEllipse
10
167.298149
20
-2.552604
30
0
11
-4.0219984559526
21
-0.0164817830281785
31
0
210
0
220
0
230
1
40
0.988371
41
3.00734999020249
42
-2.98941197260362
0
ELLIPSE
5
1B5
100
AcDbEntity
8
1
62
256
6
ByLayer
370
13
48
1
60
0
100
AcDbEllipse
10
158.5
20
2.768526
30
0
11
-0.196739579277594
21
5.78053656600673
31
0
210
0
220
0
230
1
40
0.344311
41
-0.540925684275132
42
-0.446255908472854
0
ELLIPSE
5
1B6
100
AcDbEntity
8
1
62
256
6
ByLayer
370
13
48
1
60
0
100
AcDbEllipse
10
170.652698
20
-5.778612
30
0
11
-0.118312710112912
21
-0.9929790184003
31
0
210
0
220
0
230
1
40
0.118027
41
0
42
6.28318530717959
0
ELLIPSE
5
1B7
100
AcDbEntity
8
1
62
256
6
ByLayer
370
13
48
1
60
0
100
AcDbEllipse
10
163.167489
20
8.866091
30
0
11
-0.261679781214713
21
4.99314767377287
31
0
210
0
220
0
230
1
40
0.995725
41
2.79252680319534
42
2.90488366949345
0
ELLIPSE
5
1B8
100
AcDbEntity
8
1
62
256
6
ByLayer
370
13
48
1
60
0
100
AcDbEllipse
10
171.367297
20
3.73428
30
0
11
-0.0190690707470538
21
-0.501607026527419
31
0
210
0
220
0
230
1
40
0.195483
41
-0.331356153794951
42
-0.120968262645154
0
ELLIPSE
5
1B9
100
AcDbEntity
8
1
62
256
6
ByLayer
370
13
48
1
60
0
100
AcDbEllipse
10
167.842821
20
5.464847
30
0
11
-0.859660226823457
21
-1.06694988920926
31
0
210
0
220
0
230
1
40
0.966608
41
0.713732916824948
42
1.18301787718882
0
ELLIPSE
5
1BA
100
AcDbEntity
8
1
62
256
6
ByLayer
370
13
48
1
60
0
100
AcDbEllipse
10
161.805175
20
4.089785
30
0
11
-0.29369042064903
21
-0.95590058940195
31
0
210
0
220
0
230
1
40
0.0868
41
-1.53907871771949
42
-0.491660520467689
0
ELLIPSE
5
1BB
100
AcDbEntity
8
1
62
256
6
ByLayer
370
13
48
1
60
0
100
AcDbEllipse
10
166.764746
20
-2.602631
30
0
11
-0.314015737457656
21
5.99177720852744
31
0
210
0
220
0
230
1
40
0.995725
41
0
42
0.24512931267292
0
ELLIPSE
5
1BC
100
AcDbEntity
8
1
62
256
6
ByLayer
370
13
48
1
60
0
100
AcDbEllipse
10
171.507203
20
-0.980665
30
0
11
-1.11934001112188
21
1.83356710803512
31
0
210
0
220
0
230
1
40
0.360564
41
-0.803728925698778
42
-0.631941726889968
0
ELLIPSE
5
1BD
100
AcDbEntity
8
1
62
256
6
ByLayer
370
13
48
1
60
0
100
AcDbEllipse
10
165.076305
20
3.667595
30
0
11
-0.318392676549448
21
-0.395166625685153
31
0
210
0
220
0
230
1
40
0.966608
41
-2.21492178970916
42
-1.30425215534667
0
ELLIPSE
5
1BE
100
AcDbEntity
8
1
62
256
6
ByLayer
370
13
48
1
60
0
100
AcDbEllipse
10
163.304692
20
6.244755
30
0
11
0.0706535409279945
21
-1.34814987191867
31
0
210
0
220
0
230
1
40
0.995725
41
-2.01983957028341
42
-1.46607657167526
0
ELLIPSE
5
1BF
100
AcDbEntity
8
1
62
256
6
ByLayer
370
13
48
1
60
0
100
AcDbEllipse
10
163.527815
20
4.38754
30
0
11
0.0706535409279945
21
-1.34814987191867
31
0
210
0
220
0
230
1
40
0.995725
41
-1.74128991378718
42
-1.29370592484071
0
ELLIPSE
5
1C0
100
AcDbEntity
8
1
62
256
6
ByLayer
370
13
48
1
60
0
100
AcDbEllipse
10
167.080004
20
6.951962
30
0
11
0.0541703315092747
21
-1.03363149994772
31
0
210
0
220
0
230
1
40
0.995725
41
-0.523598775598325
42
0.523598775598273
0
ELLIPSE
5
1C1
100
AcDbEntity
8
1
62
256
6
ByLayer
370
13
48
1
60
0
100
AcDbEllipse
10
167.080004
20
6.951962
30
0
11
0.0643732261788393
21
-1.22831432774812
31
0
210
0
220
0
230
1
40
0.995725
41
0
42
6.28318530717959
0
ELLIPSE
5
1C2
100
AcDbEntity
8
1
62
256
6
ByLayer
370
13
48
1
60
0
100
AcDbEllipse
10
167.754745
20
7.444475
30
0
11
-0.130868635438076
21
0.202898866257149
31
0
210
0
220
0
230
1
40
0.503053
41
0.341645026536058
42
1.57329528826515
0
ELLIPSE
5
1C3
100
AcDbEntity
8
1
62
256
6
ByLayer
370
13
48
1
60
0
100
AcDbEllipse
10
167.040158
20
6.035571
30
0
11
-0.240336834257839
21
-0.0125955197637593
31
0
210
0
220
0
230
1
40
0.506302
41
-1.5707963267949
42
-0.339146065052669
0
ELLIPSE
5
1C4
100
AcDbEntity
8
1
62
256
6
ByLayer
370
13
48
1
60
0
100
AcDbEllipse
10
167.080004
20
6.951962
30
0
11
0.0541703315092747
21
-1.03363149994772
31
0
210
0
220
0
230
1
40
0.995725
41
2.61799387799152
42
-2.61799387799147
0
ELLIPSE
5
1C5
100
AcDbEntity
8
1
62
256
6
ByLayer
370
13
48
1
60
0
100
AcDbEllipse
10
167.064535
20
6.951151
30
0
11
0.0811207321765866
21
-1.54787577886959
31
0
210
0
220
0
230
1
40
0.995725
41
0
42
6.28318530717959
0
ELLIPSE
5
1C6
100
AcDbEntity
8
1
62
256
6
ByLayer
370
13
48
1
60
0
100
AcDbEllipse
10
167.080004
20
6.951962
30
0
11
0.0541703315092747
21
-1.03363149994772
31
0
210
0
220
0
230
1
40
0.995725
41
1.5707963267949
42
2.61799387799152
0
ELLIPSE
5
1C7
100
AcDbEntity
8
1
62
256
6
ByLayer
370
13
48
1
60
0
100
AcDbEllipse
10
166.944587
20
7.859168
30
0
11
-0.240336834257589
21
-0.0125955197627975
31
0
210
0
220
0
230
1
40
0.506302
41
0.339146065053558
42
1.5707963267949
0
ELLIPSE
5
1C8
100
AcDbEntity
8
1
62
256
6
ByLayer
370
13
48
1
60
0
100
AcDbEllipse
10
167.080004
20
6.951962
30
0
11
0.0541703315092747
21
-1.03363149994772
31
0
210
0
220
0
230
1
40
0.995725
41
0.523598775598273
42
1.5707963267949
0
ELLIPSE
5
1C9
100
AcDbEntity
8
1
62
256
6
ByLayer
370
13
48
1
60
0
100
AcDbEllipse
10
166.992373
20
6.947369
30
0
11
0.0414082085794292
21
-0.790115687897818
31
0
210
0
220
0
230
1
40
0.995725
41
2.0943951023932
42
3.14159265358979
0
ELLIPSE
5
1CA
100
AcDbEntity
8
1
62
256
6
ByLayer
370
13
48
1
60
0
100
AcDbEllipse
10
167.80253
20
6.532677
30
0
11
-0.108943016673511
21
-0.215466862391744
31
0
210
0
220
0
230
1
40
0.503053
41
-1.57329528825441
42
-0.341645026533078
0
ELLIPSE
5
1CB
100
AcDbEntity
8
1
62
256
6
ByLayer
370
13
48
1
60
0
100
AcDbEllipse
10
166.992373
20
6.947369
30
0
11
0.0414082085794292
21
-0.790115687897818
31
0
210
0
220
0
230
1
40
0.995725
41
1.04719755119663
42
2.0943951023932
0
ELLIPSE
5
1CC
100
AcDbEntity
8
1
62
256
6
ByLayer
370
13
48
1
60
0
100
AcDbEllipse
10
167.754745
20
7.444475
30
0
11
-0.130868635434534
21
0.202898866250258
31
0
210
0
220
0
230
1
40
0.503053
41
1.57329528825769
42
2.80494555001829
0
ELLIPSE
5
1CD
100
AcDbEntity
8
1
62
256
6
ByLayer
370
13
48
1
60
0
100
AcDbEllipse
10
167.80253
20
6.532677
30
0
11
-0.108943016668551
21
-0.215466862387989
31
0
210
0
220
0
230
1
40
0.503053
41
-2.80494555002327
42
-1.57329528827896
0
ELLIPSE
5
1CE
100
AcDbEntity
8
1
62
256
6
ByLayer
370
13
48
1
60
0
100
AcDbEllipse
10
167.080004
20
6.951962
30
0
11
0.0541703315092747
21
-1.03363149994772
31
0
210
0
220
0
230
1
40
0.995725
41
-2.61799387799147
42
-1.5707963267949
0
ELLIPSE
5
1CF
100
AcDbEntity
8
1
62
256
6
ByLayer
370
13
48
1
60
0
100
AcDbEllipse
10
167.080004
20
6.951962
30
0
11
0.0541703315092747
21
-1.03363149994772
31
0
210
0
220
0
230
1
40
0.995725
41
-1.5707963267949
42
-0.523598775598325
0
ELLIPSE
5
1D0
100
AcDbEntity
8
1
62
256
6
ByLayer
370
13
48
1
60
0
100
AcDbEllipse
10
165.008422
20
2.762803
30
0
11
-0.0785039343644139
21
1.49794430213185
31
0
210
0
220
0
230
1
40
0.995725
41
0.681851009804892
42
0.948264232194271
0
ELLIPSE
5
1D1
100
AcDbEntity
8
1
62
256
6
ByLayer
370
13
48
1
60
0
100
AcDbEllipse
10
164.321925
20
6.64372
30
0
11
0.0366351693700713
21
-0.699040674328201
31
0
210
0
220
0
230
1
40
0.995725
41
-1.75405589825423
42
-1.46607657167516
0
ELLIPSE
5
1D2
100
AcDbEntity
8
1
62
256
6
ByLayer
370
13
48
1
60
0
100
AcDbEllipse
10
163.940724
20
3.950804
30
0
11
0.00523359562429629
21
-0.0998629534754647
31
0
210
0
220
0
230
1
40
0.995725
41
0.681851009805446
42
1.67551608191504
0
ELLIPSE
5
1D3
100
AcDbEntity
8
1
62
256
6
ByLayer
370
13
48
1
60
0
100
AcDbEllipse
10
164.33115
20
6.644204
30
0
11
-0.0314015737457655
21
0.599177720852745
31
0
210
0
220
0
230
1
40
0.995725
41
1.38753675533558
42
1.67551608191462
0
ELLIPSE
5
1D4
100
AcDbEntity
8
1
62
256
6
ByLayer
370
13
48
1
60
0
100
AcDbEllipse
10
164.18199
20
10.880676
30
0
11
-1.38057267979334
21
0.959665598701411
31
0
210
0
220
0
230
1
40
0.713274
41
1.49691563329924
42
1.90195345770944
0
ELLIPSE
5
1D5
100
AcDbEntity
8
1
62
256
6
ByLayer
370
13
48
1
60
0
100
AcDbEllipse
10
163.564796
20
3.679766
30
0
11
-0.00261679781214717
21
0.0499314767377296
31
0
210
0
220
0
230
1
40
0.995725
41
3.13286600733052
42
-2.19332842139592
0
ELLIPSE
5
1D6
100
AcDbEntity
8
1
62
256
6
ByLayer
370
13
48
1
60
0
100
AcDbEllipse
10
165.00381
20
2.762561
30
0
11
-0.0785039343644139
21
1.49794430213185
31
0
210
0
220
0
230
1
40
0.995725
41
0.681851009804585
42
0.948264232193968
0
ELLIPSE
5
1D7
100
AcDbEntity
8
1
62
256
6
ByLayer
370
13
48
1
60
0
100
AcDbEllipse
10
163.474925
20
3.625919
30
0
11
0.00653729335064122
21
-0.149857478277354
31
0
210
0
220
0
230
1
40
0.092367
41
-1.56998679074977
42
0.000809536045688095
0
ELLIPSE
5
1D8
100
AcDbEntity
8
1
62
256
6
ByLayer
370
13
48
1
60
0
100
AcDbEllipse
10
171.433683
20
7.280266
30
0
11
-0.0130839890607359
21
0.249657383688647
31
0
210
0
220
0
230
1
40
0.995725
41
-1.75405589825443
42
-1.46607657167544
0
ELLIPSE
5
1D9
100
AcDbEntity
8
1
62
256
6
ByLayer
370
13
48
1
60
0
100
AcDbEllipse
10
171.694331
20
7.248305
30
0
11
0.148731686424787
21
-0.0194649801756611
31
0
210
0
220
0
230
1
40
0.016833
41
-1.66175841710567
42
-0.0909620903081085
0
ELLIPSE
5
1DA
100
AcDbEntity
8
1
62
256
6
ByLayer
370
13
48
1
60
0
100
AcDbEllipse
10
170.282589
20
4.484202
30
0
11
0.00523359562429675
21
-0.0998629534754735
31
0
210
0
220
0
230
1
40
0.995725
41
-1.75405589825428
42
0.0959931088590278
0
ELLIPSE
5
1DB
100
AcDbEntity
8
1
62
256
6
ByLayer
370
13
48
1
60
0
100
AcDbEllipse
10
162.79935
20
9.207172
30
0
11
0.00785039343644375
21
-0.149794430213184
31
0
210
0
220
0
230
1
40
0.995725
41
-3.0455995447291
42
-1.75405589825374
0
ELLIPSE
5
1DC
100
AcDbEntity
8
1
62
256
6
ByLayer
370
13
48
1
60
0
100
AcDbEllipse
10
169.842437
20
7.260432
30
0
11
0.0366351693700713
21
-0.699040674328201
31
0
210
0
220
0
230
1
40
0.995725
41
1.38753675533556
42
1.67551608191464
0
ELLIPSE
5
1DD
100
AcDbEntity
8
1
62
256
6
ByLayer
370
13
48
1
60
0
100
AcDbEllipse
10
169.851661
20
7.260915
30
0
11
-0.0314015737457655
21
0.599177720852745
31
0
210
0
220
0
230
1
40
0.995725
41
-1.75405589825422
42
-1.46607657167518
0
ELLIPSE
5
1DE
100
AcDbEntity
8
1
62
256
6
ByLayer
370
13
48
1
60
0
100
AcDbEllipse
10
166.953696
20
9.403712
30
0
11
0.0052335956242959
21
-0.0998629534754573
31
0
210
0
220
0
230
1
40
0.092371
41
1.5707963267949
42
3.14159265358672
0
ELLIPSE
5
1DF
100
AcDbEntity
8
1
62
256
6
ByLayer
370
13
48
1
60
0
100
AcDbEllipse
10
170.08906
20
4.540305
30
0
11
0.0315451332107711
21
0.0948941756416837
31
0
210
0
220
0
230
1
40
0.086058
41
-3.10790031584125
42
-1.53710398905378
0
ELLIPSE
5
1E0
100
AcDbEntity
8
1
62
256
6
ByLayer
370
13
48
1
60
0
100
AcDbEllipse
10
163.729577
20
6.722168
30
0
11
-0.0991544576165244
21
0.0129766534504419
31
0
210
0
220
0
230
1
40
0.016833
41
-1.66175841710491
42
-0.0909620903148074
0
ELLIPSE
5
1E1
100
AcDbEntity
8
1
62
256
6
ByLayer
370
13
48
1
60
0
100
AcDbEllipse
10
170.373274
20
10.187283
30
0
11
-0.39302843938135
21
-0.302859451938738
31
0
210
0
220
0
230
1
40
0.479615
41
-2.21479145067828
42
-1.58610255772612
0
ELLIPSE
5
1E2
100
AcDbEntity
8
1
62
256
6
ByLayer
370
13
48
1
60
0
100
AcDbEllipse
10
170.617362
20
10.200075
30
0
11
0.0179634425224165
21
-0.342762902152278
31
0
210
0
220
0
230
1
40
0.995725
41
-2.82201731435991
42
-2.19332842139638
0
ELLIPSE
5
1E3
100
AcDbEntity
8
1
62
256
6
ByLayer
370
13
48
1
60
0
100
AcDbEllipse
10
164.075302
20
9.363847
30
0
11
0.0991544576165246
21
-0.0129766534504407
31
0
210
0
220
0
230
1
40
0.016833
41
1.47983423648686
42
3.05063056327922
0
ELLIPSE
5
1E4
100
AcDbEntity
8
1
62
256
6
ByLayer
370
13
48
1
60
0
100
AcDbEllipse
10
163.73186
20
6.549993
30
0
11
-0.0987757772421058
21
-0.015599545833706
31
0
210
0
220
0
230
1
40
0.009655
41
0.0919985744735826
42
1.66279490126838
0
ELLIPSE
5
1E5
100
AcDbEntity
8
1
62
256
6
ByLayer
370
13
48
1
60
0
100
AcDbEllipse
10
170.335948
20
4.543205
30
0
11
-0.0435852065163462
21
-0.158111345862887
31
0
210
0
220
0
230
1
40
0.080185
41
-1.54411081854324
42
0.0266855082577534
0
ELLIPSE
5
1E6
100
AcDbEntity
8
1
62
256
6
ByLayer
370
13
48
1
60
0
100
AcDbEllipse
10
170.756612
20
8.529419
30
0
11
0.0994383168616222
21
-1.89739611603369
31
0
210
0
220
0
230
1
40
0.995725
41
3.10590021439803
42
3.13286600732983
0
ELLIPSE
5
1E7
100
AcDbEntity
8
1
62
256
6
ByLayer
370
13
48
1
60
0
100
AcDbEllipse
10
171.452132
20
7.281233
30
0
11
0.0209343824971838
21
-0.399451813901833
31
0
210
0
220
0
230
1
40
0.995725
41
1.38753675533498
42
1.67551608191419
0
ELLIPSE
5
1E8
100
AcDbEntity
8
1
62
256
6
ByLayer
370
13
48
1
60
0
100
AcDbEllipse
10
171.3604
20
4.696739
30
0
11
0.148731686424787
21
-0.0194649801756611
31
0
210
0
220
0
230
1
40
0.016833
41
-1.66175841710567
42
-0.0909620903098601
0
ELLIPSE
5
1E9
100
AcDbEntity
8
1
62
256
6
ByLayer
370
13
48
1
60
0
100
AcDbEllipse
10
171.69338
20
7.320044
30
0
11
0.148163665863164
21
0.023399318750525
31
0
210
0
220
0
230
1
40
0.009655
41
0.0919985744742108
42
1.66279490126851
0
ELLIPSE
5
1EA
100
AcDbEntity
8
1
62
256
6
ByLayer
370
13
48
1
60
0
100
AcDbEllipse
10
170.047632
20
9.791139
30
0
11
-0.0554263173694296
21
0.0832341476971037
31
0
210
0
220
0
230
1
40
0.079546
41
-1.6179174222715
42
-0.0471210954781868
0
ELLIPSE
5
1EB
100
AcDbEntity
8
1
62
256
6
ByLayer
370
13
48
1
60
0
100
AcDbEllipse
10
167.210666
20
4.500441
30
0
11
0.0052335956242959
21
-0.0998629534754573
31
0
210
0
220
0
230
1
40
0.092371
41
0
42
1.5707963267949
0
ELLIPSE
5
1EC
100
AcDbEntity
8
1
62
256
6
ByLayer
370
13
48
1
60
0
100
AcDbEllipse
10
164.075302
20
9.363847
30
0
11
-0.0315451332107883
21
-0.0948941756416779
31
0
210
0
220
0
230
1
40
0.086058
41
1.60448866453572
42
-3.10790031584786
0
ELLIPSE
5
1ED
100
AcDbEntity
8
1
62
256
6
ByLayer
370
13
48
1
60
0
100
AcDbEllipse
10
171.013508
20
10.029135
30
0
11
0.0209343824971848
21
-0.399451813901851
31
0
210
0
220
0
230
1
40
0.995725
41
1.67551608191454
42
3.0725653376618
0
ELLIPSE
5
1EE
100
AcDbEntity
8
1
62
256
6
ByLayer
370
13
48
1
60
0
100
AcDbEllipse
10
163.583245
20
3.680733
30
0
11
0.0104671912485919
21
-0.199725906950916
31
0
210
0
220
0
230
1
40
0.995725
41
-0.00872664625926843
42
0.948264232194546
0
ELLIPSE
5
1EF
100
AcDbEntity
8
1
62
256
6
ByLayer
370
13
48
1
60
0
100
AcDbEllipse
10
167.091405
20
6.95256
30
0
11
0.0876992016581199
21
-1.67340045424274
31
0
210
0
220
0
230
1
40
0.995725
41
0
42
6.28318530717959
0
ELLIPSE
5
1F0
100
AcDbEntity
8
1
62
256
6
ByLayer
370
13
48
1
60
0
100
AcDbEllipse
10
164.116729
20
4.113013
30
0
11
0.0987757772421094
21
0.0155995458336833
31
0
210
0
220
0
230
1
40
0.009655
41
-3.04959407911621
42
-1.47879775231632
0
ELLIPSE
5
1F1
100
AcDbEntity
8
1
62
256
6
ByLayer
370
13
48
1
60
0
100
AcDbEllipse
10
163.620549
20
3.653493
30
0
11
-0.126435160183936
21
0.0807102860189615
31
0
210
0
220
0
230
1
40
0.053861
41
1.49557403044839
42
3.06637035724706
0
ELLIPSE
5
1F2
100
AcDbEntity
8
1
62
256
6
ByLayer
370
13
48
1
60
0
100
AcDbEllipse
10
169.582478
20
3.002519
30
0
11
-0.07327033874012
21
1.3980813486564
31
0
210
0
220
0
230
1
40
0.995725
41
-0.496200779837808
42
-3.06144288738578E-13
0
ELLIPSE
5
1F3
100
AcDbEntity
8
1
62
256
6
ByLayer
370
13
48
1
60
0
100
AcDbEllipse
10
163.547
20
3.704077
30
0
11
0.0179634425224165
21
-0.342762902152278
31
0
210
0
220
0
230
1
40
0.995725
41
0.319575339230469
42
0.948264232194024
0
ELLIPSE
5
1F4
100
AcDbEntity
8
1
62
256
6
ByLayer
370
13
48
1
60
0
100
AcDbEllipse
10
164.317313
20
6.643479
30
0
11
-0.0366351693700599
21
0.699040674328202
31
0
210
0
220
0
230
1
40
0.995725
41
1.38753675533556
42
1.67551608191464
0
ELLIPSE
5
1F5
100
AcDbEntity
8
1
62
256
6
ByLayer
370
13
48
1
60
0
100
AcDbEllipse
10
163.194214
20
9.811045
30
0
11
-0.422532821562702
21
0.260117697379273
31
0
210
0
220
0
230
1
40
0.479615
41
-1.55549009587439
42
-0.926801202919146
0
ELLIPSE
5
1F6
100
AcDbEntity
8
1
62
256
6
ByLayer
370
13
48
1
60
0
100
AcDbEllipse
10
164.303477
20
6.642754
30
0
11
0.0444855628065152
21
-0.848835104541387
31
0
210
0
220
0
230
1
40
0.995725
41
-1.75405589825425
42
-1.46607657167515
0
ELLIPSE
5
1F7
100
AcDbEntity
8
1
62
256
6
ByLayer
370
13
48
1
60
0
100
AcDbEllipse
10
164.989973
20
2.761836
30
0
11
0.0863543278008821
21
-1.64773873234504
31
0
210
0
220
0
230
1
40
0.995725
41
-2.44322184791083
42
-2.19332842139582
0
ELLIPSE
5
1F8
100
AcDbEntity
8
1
62
256
6
ByLayer
370
13
48
1
60
0
100
AcDbEllipse
10
169.137491
20
11.140383
30
0
11
0.0863543278008821
21
-1.64773873234504
31
0
210
0
220
0
230
1
40
0.995725
41
0.698370805678985
42
0.94826423219398
0
ELLIPSE
5
1F9
100
AcDbEntity
8
1
62
256
6
ByLayer
370
13
48
1
60
0
100
AcDbEllipse
10
171.018121
20
10.029377
30
0
11
0.0209343824971848
21
-0.399451813901851
31
0
210
0
220
0
230
1
40
0.995725
41
1.67551608191425
42
3.07256533766151
0
ELLIPSE
5
1FA
100
AcDbEntity
8
1
62
256
6
ByLayer
370
13
48
1
60
0
100
AcDbEllipse
10
170.874345
20
1.530447
30
0
11
0.465790010562336
21
-8.88780285931571
31
0
210
0
220
0
230
1
40
0.995725
41
3.0725653376619
42
3.10590021439804
0
ELLIPSE
5
1FB
100
AcDbEntity
8
1
62
256
6
ByLayer
370
13
48
1
60
0
100
AcDbEllipse
10
162.740906
20
9.609377
30
0
11
-0.0436352238475066
21
-0.256157131814586
31
0
210
0
220
0
230
1
40
0.958209
41
-2.83654843605918
42
-1.53052250828285
0
ELLIPSE
5
1FC
100
AcDbEntity
8
1
62
256
6
ByLayer
370
13
48
1
60
0
100
AcDbEllipse
10
163.481387
20
6.510699
30
0
11
-0.148163665863159
21
-0.0233993187505589
31
0
210
0
220
0
230
1
40
0.009655
41
-3.04959407911497
42
-1.47879775232091
0
ELLIPSE
5
1FD
100
AcDbEntity
8
1
62
256
6
ByLayer
370
13
48
1
60
0
100
AcDbEllipse
10
171.44752
20
7.280991
30
0
11
0.0209343824971838
21
-0.399451813901833
31
0
210
0
220
0
230
1
40
0.995725
41
1.38753675533526
42
1.67551608191447
0
ELLIPSE
5
1FE
100
AcDbEntity
8
1
62
256
6
ByLayer
370
13
48
1
60
0
100
AcDbEllipse
10
170.860508
20
1.529722
30
0
11
-0.457939617125749
21
8.73800842910253
31
0
210
0
220
0
230
1
40
0.995725
41
-0.0690273159278905
42
-0.0356924391917493
0
ELLIPSE
5
1FF
100
AcDbEntity
8
1
62
256
6
ByLayer
370
13
48
1
60
0
100
AcDbEllipse
10
170.999672
20
10.02841
30
0
11
-0.0130839890607368
21
0.249657383688665
31
0
210
0
220
0
230
1
40
0.995725
41
-1.46607657167522
42
-0.0690273159279686
0
ELLIPSE
5
200
100
AcDbEntity
8
1
62
256
6
ByLayer
370
13
48
1
60
0
100
AcDbEllipse
10
170.581117
20
10.22342
30
0
11
0.0104671912485919
21
-0.199725906950916
31
0
210
0
220
0
230
1
40
0.995725
41
3.13286600732967
42
-2.19332842139579
0
ELLIPSE
5
201
100
AcDbEntity
8
1
62
256
6
ByLayer
370
13
48
1
60
0
100
AcDbEllipse
10
168.795509
20
2.961276
30
0
11
-1.58689046794747
21
-1.24226400173316
31
0
210
0
220
0
230
1
40
0.477356
41
2.79074212974575
42
2.84145042886754
0
ELLIPSE
5
202
100
AcDbEntity
8
1
62
256
6
ByLayer
370
13
48
1
60
0
100
AcDbEllipse
10
171.3604
20
4.696739
30
0
11
-0.0222321776354451
21
0.148343285246033
31
0
210
0
220
0
230
1
40
0.091945
41
1.56190521945469
42
3.1327015462504
0
ELLIPSE
5
203
100
AcDbEntity
8
1
62
256
6
ByLayer
370
13
48
1
60
0
100
AcDbEllipse
10
162.693781
20
6.621953
30
0
11
-0.0130839890607359
21
0.249657383688647
31
0
210
0
220
0
230
1
40
0.995725
41
1.38753675533525
42
1.67551608191436
0
ELLIPSE
5
204
100
AcDbEntity
8
1
62
256
6
ByLayer
370
13
48
1
60
0
100
AcDbEllipse
10
163.794914
20
10.86039
30
0
11
-1.72345192541868
21
1.06098351642624
31
0
210
0
220
0
230
1
40
0.479615
41
1.58610258016893
42
1.63681085878812
0
ELLIPSE
5
205
100
AcDbEntity
8
1
62
256
6
ByLayer
370
13
48
1
60
0
100
AcDbEllipse
10
171.366164
20
4.70607
30
0
11
-0.0436352238541617
21
-0.256157131812903
31
0
210
0
220
0
230
1
40
0.958209
41
0.305044217554902
42
1.61107014533418
0
ELLIPSE
5
206
100
AcDbEntity
8
1
62
256
6
ByLayer
370
13
48
1
60
0
100
AcDbEllipse
10
162.71223
20
6.622919
30
0
11
0.0209343824971838
21
-0.399451813901833
31
0
210
0
220
0
230
1
40
0.995725
41
-1.75405589825417
42
-1.46607657167504
0
ELLIPSE
5
207
100
AcDbEntity
8
1
62
256
6
ByLayer
370
13
48
1
60
0
100
AcDbEllipse
10
169.66618
20
11.168088
30
0
11
-1.60310545914834
21
-1.23531919567197
31
0
210
0
220
0
230
1
40
0.479614
41
1.50478185994643
42
1.55549021231316
0
ELLIPSE
5
208
100
AcDbEntity
8
1
62
256
6
ByLayer
370
13
48
1
60
0
100
AcDbEllipse
10
163.403138
20
5.374492
30
0
11
0.0994383168616222
21
-1.89739611603369
31
0
210
0
220
0
230
1
40
0.995725
41
-0.0356924391914591
42
-0.00872664625969067
0
ELLIPSE
5
209
100
AcDbEntity
8
1
62
256
6
ByLayer
370
13
48
1
60
0
100
AcDbEllipse
10
163.478153
20
6.754613
30
0
11
-0.148731686424787
21
0.0194649801756628
31
0
210
0
220
0
230
1
40
0.016833
41
1.47983423648356
42
3.05063056327851
0
ELLIPSE
5
20A
100
AcDbEntity
8
1
62
256
6
ByLayer
370
13
48
1
60
0
100
AcDbEllipse
10
169.444112
20
2.995267
30
0
11
-0.07327033874012
21
1.3980813486564
31
0
210
0
220
0
230
1
40
0.995725
41
-0.901238604216687
42
-0.897555942335451
0
ELLIPSE
5
20B
100
AcDbEntity
8
1
62
256
6
ByLayer
370
13
48
1
60
0
100
AcDbEllipse
10
163.881773
20
9.41995
30
0
11
0.00523359562429675
21
-0.0998629534754735
31
0
210
0
220
0
230
1
40
0.995725
41
1.38753675533609
42
-3.04559954472985
0
ELLIPSE
5
20C
100
AcDbEntity
8
1
62
256
6
ByLayer
370
13
48
1
60
0
100
AcDbEllipse
10
171.017601
20
10.279096
30
0
11
0.00254430870317409
21
0.149978420091768
31
0
210
0
220
0
230
1
40
0.092151
41
0.00639829920945343
42
1.5771946260066
0
ELLIPSE
5
20D
100
AcDbEntity
8
1
62
256
6
ByLayer
370
13
48
1
60
0
100
AcDbEllipse
10
170.562669
20
10.222453
30
0
11
-0.00261679781214717
21
0.0499314767377296
31
0
210
0
220
0
230
1
40
0.995725
41
-0.00872664625926942
42
0.948264232193809
0
ELLIPSE
5
20E
100
AcDbEntity
8
1
62
256
6
ByLayer
370
13
48
1
60
0
100
AcDbEllipse
10
171.3604
20
4.696739
30
0
11
0.00785039343644375
21
-0.149794430213184
31
0
210
0
220
0
230
1
40
0.995725
41
0.0959931088600968
42
1.38753675533567
0
ELLIPSE
5
20F
100
AcDbEntity
8
1
62
256
6
ByLayer
370
13
48
1
60
0
100
AcDbEllipse
10
170.574322
20
10.27313
30
0
11
-0.00653729335064158
21
0.149857478277354
31
0
210
0
220
0
230
1
40
0.092367
41
0.000809536045656042
42
1.57160586284002
0
ELLIPSE
5
210
100
AcDbEntity
8
1
62
256
6
ByLayer
370
13
48
1
60
0
100
AcDbEllipse
10
171.365012
20
4.696981
30
0
11
0.00785039343644375
21
-0.149794430213184
31
0
210
0
220
0
230
1
40
0.995725
41
0.0959931088599015
42
1.38753675533528
0
ELLIPSE
5
211
100
AcDbEntity
8
1
62
256
6
ByLayer
370
13
48
1
60
0
100
AcDbEllipse
10
169.15594
20
11.14135
30
0
11
-0.0732703387401196
21
1.39808134865641
31
0
210
0
220
0
230
1
40
0.995725
41
3.14159265358943
42
-2.19332842139616
0
ELLIPSE
5
212
100
AcDbEntity
8
1
62
256
6
ByLayer
370
13
48
1
60
0
100
AcDbEllipse
10
163.384689
20
5.373525
30
0
11
-0.0915879234251501
21
1.74760168582051
31
0
210
0
220
0
230
1
40
0.995725
41
3.10590021439802
42
3.13286600732979
0
ELLIPSE
5
213
100
AcDbEntity
8
1
62
256
6
ByLayer
370
13
48
1
60
0
100
AcDbEllipse
10
162.798198
20
9.198082
30
0
11
-0.0436352238349375
21
-0.256157131818142
31
0
210
0
220
0
230
1
40
0.958209
41
-2.83654843610749
42
-1.53052250833594
0
ELLIPSE
5
214
100
AcDbEntity
8
1
62
256
6
ByLayer
370
13
48
1
60
0
100
AcDbEllipse
10
164.581884
20
10.901633
30
0
11
-0.07327033874012
21
1.3980813486564
31
0
210
0
220
0
230
1
40
0.995725
41
2.64539187375259
42
-3.14159265358947
0
ELLIPSE
5
215
100
AcDbEntity
8
1
62
256
6
ByLayer
370
13
48
1
60
0
100
AcDbEllipse
10
169.279102
20
11.147804
30
0
11
-1.27269738791206
21
-1.09871759078706
31
0
210
0
220
0
230
1
40
0.713274
41
1.2396391958764
42
1.64467702028806
0
ELLIPSE
5
216
100
AcDbEntity
8
1
62
256
6
ByLayer
370
13
48
1
60
0
100
AcDbEllipse
10
170.727178
20
10.279161
30
0
11
-0.00247703513348025
21
0.149979546261974
31
0
210
0
220
0
230
1
40
0.092312
41
0.00331037239983202
42
1.5741066991944
0
ELLIPSE
5
217
100
AcDbEntity
8
1
62
256
6
ByLayer
370
13
48
1
60
0
100
AcDbEllipse
10
169.017574
20
11.134098
30
0
11
0.0732703387401425
21
-1.3980813486564
31
0
210
0
220
0
230
1
40
0.995725
41
0.897555942335398
42
0.901238604216634
0
ELLIPSE
5
218
100
AcDbEntity
8
1
62
256
6
ByLayer
370
13
48
1
60
0
100
AcDbEllipse
10
169.15594
20
11.14135
30
0
11
-0.0785039343644139
21
1.49794430213185
31
0
210
0
220
0
230
1
40
0.995725
41
-2.45974164378551
42
-2.19332842139615
0
ELLIPSE
5
219
100
AcDbEntity
8
1
62
256
6
ByLayer
370
13
48
1
60
0
100
AcDbEllipse
10
169.182585
20
2.981561
30
0
11
-1.13371805640576
21
-1.17994814669277
31
0
210
0
220
0
230
1
40
0.704685
41
2.88504843523968
42
-2.99309904757293
0
ELLIPSE
5
21A
100
AcDbEntity
8
1
62
256
6
ByLayer
370
13
48
1
60
0
100
AcDbEllipse
10
163.819189
20
9.360464
30
0
11
-0.043585206515456
21
-0.158111345857998
31
0
210
0
220
0
230
1
40
0.080185
41
-3.11490714533691
42
-1.54411081850066
0
ELLIPSE
5
21B
100
AcDbEntity
8
1
62
256
6
ByLayer
370
13
48
1
60
0
100
AcDbEllipse
10
169.305746
20
2.988016
30
0
11
0.0732703387401425
21
-1.3980813486564
31
0
210
0
220
0
230
1
40
0.995725
41
2.19332842139548
42
3.14159265358949
0
ELLIPSE
5
21C
100
AcDbEntity
8
1
62
256
6
ByLayer
370
13
48
1
60
0
100
AcDbEllipse
10
170.742775
20
8.528693
30
0
11
-0.0915879234251501
21
1.74760168582051
31
0
210
0
220
0
230
1
40
0.995725
41
-0.0356924391917476
42
-0.00872664625997129
0
ELLIPSE
5
21D
100
AcDbEntity
8
1
62
256
6
ByLayer
370
13
48
1
60
0
100
AcDbEllipse
10
165.008422
20
2.762803
30
0
11
-0.0732703387401196
21
1.39808134865641
31
0
210
0
220
0
230
1
40
0.995725
41
0
42
0.948264232194284
0
ELLIPSE
5
21E
100
AcDbEntity
8
1
62
256
6
ByLayer
370
13
48
1
60
0
100
AcDbEllipse
10
169.823988
20
7.259465
30
0
11
0.0444855628065152
21
-0.848835104541387
31
0
210
0
220
0
230
1
40
0.995725
41
1.38753675533555
42
1.67551608191464
0
ELLIPSE
5
21F
100
AcDbEntity
8
1
62
256
6
ByLayer
370
13
48
1
60
0
100
AcDbEllipse
10
163.146241
20
3.874776
30
0
11
0.0209343824971848
21
-0.399451813901851
31
0
210
0
220
0
230
1
40
0.995725
41
-1.4660765716749
42
-0.0690273159276447
0
ELLIPSE
5
220
100
AcDbEntity
8
1
62
256
6
ByLayer
370
13
48
1
60
0
100
AcDbEllipse
10
163.819189
20
9.360464
30
0
11
-0.157303253000512
21
-0.0460731444222444
31
0
210
0
220
0
230
1
40
0.019548
41
-3.05924451048446
42
-1.48844818378784
0
ELLIPSE
5
221
100
AcDbEntity
8
1
62
256
6
ByLayer
370
13
48
1
60
0
100
AcDbEllipse
10
163.127793
20
3.873809
30
0
11
-0.0130839890607368
21
0.249657383688665
31
0
210
0
220
0
230
1
40
0.995725
41
1.67551608191446
42
3.07256533766183
0
ELLIPSE
5
222
100
AcDbEntity
8
1
62
256
6
ByLayer
370
13
48
1
60
0
100
AcDbEllipse
10
163.266956
20
12.372497
30
0
11
-0.457939617125749
21
8.73800842910253
31
0
210
0
220
0
230
1
40
0.995725
41
3.07256533766189
42
3.10590021439804
0
ELLIPSE
5
223
100
AcDbEntity
8
1
62
256
6
ByLayer
370
13
48
1
60
0
100
AcDbEllipse
10
170.223637
20
9.953348
30
0
11
0.00523359562429629
21
-0.0998629534754647
31
0
210
0
220
0
230
1
40
0.995725
41
-2.45974164378528
42
-1.46607657167533
0
ELLIPSE
5
224
100
AcDbEntity
8
1
62
256
6
ByLayer
370
13
48
1
60
0
100
AcDbEllipse
10
163.936112
20
3.950562
30
0
11
0.00523359562429629
21
-0.0998629534754647
31
0
210
0
220
0
230
1
40
0.995725
41
0.681851009805335
42
1.67551608191532
0
ELLIPSE
5
225
100
AcDbEntity
8
1
62
256
6
ByLayer
370
13
48
1
60
0
100
AcDbEllipse
10
163.285405
20
12.373464
30
0
11
0.465790010562336
21
-8.88780285931571
31
0
210
0
220
0
230
1
40
0.995725
41
-0.0690273159275927
42
-0.0356924391914478
0
ELLIPSE
5
226
100
AcDbEntity
8
1
62
256
6
ByLayer
370
13
48
1
60
0
100
AcDbEllipse
10
170.680212
20
10.277749
30
0
11
-0.00653729335064158
21
0.149857478277354
31
0
210
0
220
0
230
1
40
0.092367
41
0.000809536043604682
42
1.57160586284002
0
ELLIPSE
5
227
100
AcDbEntity
8
1
62
256
6
ByLayer
370
13
48
1
60
0
100
AcDbEllipse
10
168.879208
20
11.126847
30
0
11
0.0732703387401425
21
-1.3980813486564
31
0
210
0
220
0
230
1
40
0.995725
41
0
42
0.496200779837233
0
ELLIPSE
5
228
100
AcDbEntity
8
1
62
256
6
ByLayer
370
13
48
1
60
0
100
AcDbEllipse
10
171.259369
20
10.068188
30
0
11
0.148163665863164
21
0.023399318750525
31
0
210
0
220
0
230
1
40
0.009655
41
0.0919985744748214
42
1.66279490126894
0
ELLIPSE
5
229
100
AcDbEntity
8
1
62
256
6
ByLayer
370
13
48
1
60
0
100
AcDbEllipse
10
170.878957
20
1.530688
30
0
11
0.465790010562336
21
-8.88780285931571
31
0
210
0
220
0
230
1
40
0.995725
41
3.07256533766159
42
3.10590021439773
0
ELLIPSE
5
22A
100
AcDbEntity
8
1
62
256
6
ByLayer
370
13
48
1
60
0
100
AcDbEllipse
10
170.761224
20
8.52966
30
0
11
0.0994383168616222
21
-1.89739611603369
31
0
210
0
220
0
230
1
40
0.995725
41
3.10590021439773
42
3.13286600732952
0
ELLIPSE
5
22B
100
AcDbEntity
8
1
62
256
6
ByLayer
370
13
48
1
60
0
100
AcDbEllipse
10
162.779706
20
4.256073
30
0
11
-0.070171896844733
21
0.250192753360883
31
0
210
0
220
0
230
1
40
0.958209
41
1.53052250838945
42
1.89045646714704
0
ELLIPSE
5
22C
100
AcDbEntity
8
1
62
256
6
ByLayer
370
13
48
1
60
0
100
AcDbEllipse
10
171.146724
20
4.280272
30
0
11
-0.0436352238453177
21
-0.256157131815194
31
0
210
0
220
0
230
1
40
0.958209
41
0.305044217522651
42
1.25113576950969
0
ELLIPSE
5
22D
100
AcDbEntity
8
1
62
256
6
ByLayer
370
13
48
1
60
0
100
AcDbEllipse
10
170.534588
20
10.250176
30
0
11
0.126435160183932
21
-0.0807102860189666
31
0
210
0
220
0
230
1
40
0.053861
41
-2.90515367206348
42
-1.64601862314084
0
ELLIPSE
5
22E
100
AcDbEntity
8
1
62
256
6
ByLayer
370
13
48
1
60
0
100
AcDbEllipse
10
170.67375
20
7.39297
30
0
11
0.148163665863164
21
0.023399318750525
31
0
210
0
220
0
230
1
40
0.009655
41
1.66279490126889
42
2.86621140934581
0
ELLIPSE
5
22F
100
AcDbEntity
8
1
62
256
6
ByLayer
370
13
48
1
60
0
100
AcDbEllipse
10
167.014179
20
6.948512
30
0
11
0.0810185496333257
21
-1.54592601979453
31
0
210
0
220
0
230
1
40
0.995725
41
-2.90578250564739
42
-1.6229330677897
0
ELLIPSE
5
230
100
AcDbEntity
8
1
62
256
6
ByLayer
370
13
48
1
60
0
100
AcDbEllipse
10
167.014179
20
6.948512
30
0
11
0.0810185496333257
21
-1.54592601979453
31
0
210
0
220
0
230
1
40
0.995725
41
-1.62293306778968
42
-0.0763856142116232
0
ELLIPSE
5
231
100
AcDbEntity
8
1
62
256
6
ByLayer
370
13
48
1
60
0
100
AcDbEllipse
10
170.676984
20
7.149056
30
0
11
0.148731686424787
21
-0.0194649801756611
31
0
210
0
220
0
230
1
40
0.016833
41
3.05063056327993
42
-1.66175841710529
0
ELLIPSE
5
232
100
AcDbEntity
8
1
62
256
6
ByLayer
370
13
48
1
60
0
100
AcDbEllipse
10
170.335948
20
4.543205
30
0
11
-0.157303252995125
21
-0.0460731444202937
31
0
210
0
220
0
230
1
40
0.019548
41
-1.48844818365223
42
0.0823481430934764
0
ELLIPSE
5
233
100
AcDbEntity
8
1
62
256
6
ByLayer
370
13
48
1
60
0
100
AcDbEllipse
10
170.432502
20
7.354159
30
0
11
0.0987757772421094
21
0.0155995458336833
31
0
210
0
220
0
230
1
40
0.009655
41
-1.47879775232113
42
0.000129454942323087
0
ELLIPSE
5
234
100
AcDbEntity
8
1
62
256
6
ByLayer
370
13
48
1
60
0
100
AcDbEllipse
10
170.047632
20
9.791139
30
0
11
-0.0987757772421058
21
-0.015599545833706
31
0
210
0
220
0
230
1
40
0.009655
41
1.66279490126385
42
-3.14146319914606
0
ELLIPSE
5
235
100
AcDbEntity
8
1
62
256
6
ByLayer
370
13
48
1
60
0
100
AcDbEllipse
10
170.434785
20
7.181984
30
0
11
0.0991544576165246
21
-0.0129766534504407
31
0
210
0
220
0
230
1
40
0.016833
41
-0.000144555489490745
42
1.47983423648403
0
ELLIPSE
5
236
100
AcDbEntity
8
1
62
256
6
ByLayer
370
13
48
1
60
0
100
AcDbEllipse
10
170.08906
20
4.540305
30
0
11
-0.0991544576165244
21
0.0129766534504419
31
0
210
0
220
0
230
1
40
0.016833
41
3.14144809798844
42
-1.66175841710779
0
ELLIPSE
5
237
100
AcDbEntity
8
1
62
256
6
ByLayer
370
13
48
1
60
0
100
AcDbEllipse
10
167.037048
20
6.949711
30
0
11
0.08554263055665
21
-1.6322506262788
31
0
210
0
220
0
230
1
40
0.995725
41
-0.853733178408458
42
0
0
ELLIPSE
5
238
100
AcDbEntity
8
1
62
256
6
ByLayer
370
13
48
1
60
0
100
AcDbEllipse
10
167.037048
20
6.949711
30
0
11
0.08554263055665
21
-1.6322506262788
31
0
210
0
220
0
230
1
40
0.995725
41
0
42
-2.28787052676345
0
ELLIPSE
5
239
100
AcDbEntity
8
1
62
256
6
ByLayer
370
13
48
1
60
0
100
AcDbEllipse
10
163.877161
20
9.419709
30
0
11
0.00523359562429675
21
-0.0998629534754735
31
0
210
0
220
0
230
1
40
0.995725
41
1.38753675533551
42
3.14158141713603
0
ELLIPSE
5
23A
100
AcDbEntity
8
1
62
256
6
ByLayer
370
13
48
1
60
0
100
AcDbEllipse
10
163.580815
20
3.630539
30
0
11
0.00653729335064122
21
-0.149857478277354
31
0
210
0
220
0
230
1
40
0.092367
41
-1.56998679074977
42
-0.0232440763770944
0
ELLIPSE
5
23B
100
AcDbEntity
8
1
62
256
6
ByLayer
370
13
48
1
60
0
100
AcDbEllipse
10
163.427959
20
3.624507
30
0
11
0.00247703513347986
21
-0.149979546261974
31
0
210
0
220
0
230
1
40
0.092312
41
-1.56748595439539
42
-0.0473509076690926
0
ELLIPSE
5
23C
100
AcDbEntity
8
1
62
256
6
ByLayer
370
13
48
1
60
0
100
AcDbEllipse
10
163.578632
20
3.680491
30
0
11
0.0104671912485919
21
-0.199725906950916
31
0
210
0
220
0
230
1
40
0.995725
41
0.0113995454451781
42
0.948264232194187
0
ELLIPSE
5
23D
100
AcDbEntity
8
1
62
256
6
ByLayer
370
13
48
1
60
0
100
AcDbEllipse
10
162.794738
20
9.20693
30
0
11
0.0222321776354599
21
-0.148343285246031
31
0
210
0
220
0
230
1
40
0.091945
41
-3.05448529856531
42
-1.57968743413511
0
ELLIPSE
5
23E
100
AcDbEntity
8
1
62
256
6
ByLayer
370
13
48
1
60
0
100
AcDbEllipse
10
163.137536
20
3.624573
30
0
11
-0.00254430870317447
21
-0.149978420091768
31
0
210
0
220
0
230
1
40
0.092151
41
-1.56439802758319
42
-0.0696307375421937
0
ELLIPSE
5
23F
100
AcDbEntity
8
1
62
256
6
ByLayer
370
13
48
1
60
0
100
AcDbEllipse
10
162.794738
20
9.20693
30
0
11
-0.148731686424787
21
0.0194649801756628
31
0
210
0
220
0
230
1
40
0.016833
41
0.263130755735051
42
1.47983423648391
0
ELLIPSE
5
240
100
AcDbEntity
8
1
62
256
6
ByLayer
370
13
48
1
60
0
100
AcDbEllipse
10
162.895769
20
3.835481
30
0
11
-0.148163665863159
21
-0.0233993187505589
31
0
210
0
220
0
230
1
40
0.009655
41
-1.47879775232144
42
-0.264793552091358
0
ELLIPSE
5
241
100
AcDbEntity
8
1
62
256
6
ByLayer
370
13
48
1
60
0
100
AcDbEllipse
10
162.460806
20
6.655364
30
0
11
-0.148731686424787
21
0.0194649801756628
31
0
210
0
220
0
230
1
40
0.016833
41
0.263411998290313
42
1.47983423648432
0
ELLIPSE
5
242
100
AcDbEntity
8
1
62
256
6
ByLayer
370
13
48
1
60
0
100
AcDbEllipse
10
162.461757
20
6.583625
30
0
11
-0.148163665863159
21
-0.0233993187505589
31
0
210
0
220
0
230
1
40
0.009655
41
-1.4787977523211
42
0.0919985744711225
0
ELLIPSE
5
243
100
AcDbEntity
8
1
62
256
6
ByLayer
370
13
48
1
60
0
100
AcDbEllipse
10
170.047632
20
9.791139
30
0
11
0.0052335956242959
21
-0.0998629534754573
31
0
210
0
220
0
230
1
40
0.995725
41
3.14157742130916
42
-2.60835254622893
0
ELLIPSE
5
244
100
AcDbEntity
8
1
62
256
6
ByLayer
370
13
48
1
60
0
100
AcDbEllipse
10
170.08906
20
4.540305
30
0
11
0.0052335956242959
21
-0.0998629534754573
31
0
210
0
220
0
230
1
40
0.995725
41
-0.371839530754638
42
1.8867343657858E-05
0
ELLIPSE
5
245
100
AcDbEntity
8
1
62
256
6
ByLayer
370
13
48
1
60
0
100
AcDbEllipse
10
164.116729
20
4.113013
30
0
11
0.0052335956242959
21
-0.0998629534754573
31
0
210
0
220
0
230
1
40
0.995725
41
-1.46607657167503
42
-1.2237608221627E-05
0
ELLIPSE
5
246
100
AcDbEntity
8
1
62
256
6
ByLayer
370
13
48
1
60
0
100
AcDbEllipse
10
164.075302
20
9.363847
30
0
11
0.0052335956242959
21
-0.0998629534754573
31
0
210
0
220
0
230
1
40
0.995725
41
-3.14157313675462
42
-1.75405589825403
0
ELLIPSE
5
247
100
AcDbEntity
8
1
62
256
6
ByLayer
370
13
48
1
60
0
100
AcDbEllipse
10
164.116729
20
4.113013
30
0
11
0.0554263173694231
21
-0.083234147697108
31
0
210
0
220
0
230
1
40
0.079546
41
7.03908396026874E-06
42
1.5236752313183
0
ELLIPSE
5
248
100
AcDbEntity
8
1
62
256
6
ByLayer
370
13
48
1
60
0
100
AcDbEllipse
10
166.992373
20
6.947369
30
0
11
0.0414082085794292
21
-0.790115687897818
31
0
210
0
220
0
230
1
40
0.995725
41
3.14159265358976
42
-2.34312059445266
0
ELLIPSE
5
249
100
AcDbEntity
8
1
62
256
6
ByLayer
370
13
48
1
60
0
100
AcDbEllipse
10
166.992373
20
6.947369
30
0
11
0.0414082085794292
21
-0.790115687897818
31
0
210
0
220
0
230
1
40
0.995725
41
-0.778411789590745
42
-3.7203899869749E-14
0
ELLIPSE
5
24A
100
AcDbEntity
8
1
62
256
6
ByLayer
370
13
48
1
60
0
100
AcDbEllipse
10
166.992373
20
6.947369
30
0
11
-0.0414082085794161
21
0.790115687897819
31
0
210
0
220
0
230
1
40
0.995725
41
-3.0360872002058
42
-2.09439510239316
0
ELLIPSE
5
24B
100
AcDbEntity
8
1
62
256
6
ByLayer
370
13
48
1
60
0
100
AcDbEllipse
10
166.992373
20
6.947369
30
0
11
0.0414082085794292
21
-0.790115687897818
31
0
210
0
220
0
230
1
40
0.995725
41
-1.89951813695368
42
-1.22654676685739
0
ELLIPSE
5
24C
100
AcDbEntity
8
1
62
256
6
ByLayer
370
13
48
1
60
0
100
AcDbEllipse
10
167.900422
20
6.994958
30
0
11
-0.0126496006239056
21
0.241368758550164
31
0
210
0
220
0
230
1
40
0.501982
41
-2.88888761101807
42
-0.554556224962307
0
ELLIPSE
5
24D
100
AcDbEntity
8
1
62
256
6
ByLayer
370
13
48
1
60
0
100
AcDbEllipse
10
167.405007
20
7.760934
30
0
11
-0.214323340834711
21
0.110049228609682
31
0
210
0
220
0
230
1
40
0.505213
41
2.94906700001424
42
-0.705168385471025
0
ELLIPSE
5
24E
100
AcDbEntity
8
1
62
256
6
ByLayer
370
13
48
1
60
0
100
AcDbEllipse
10
167.487788
20
6.181393
30
0
11
-0.201645978398251
21
-0.131849256880549
31
0
210
0
220
0
230
1
40
0.505213
41
0.601424803180103
42
-2.94906700001393
0
ELLIPSE
5
24F
100
AcDbEntity
8
1
62
256
6
ByLayer
370
13
48
1
60
0
100
AcDbEllipse
10
167.015434
20
6.948578
30
0
11
0.0811207321765866
21
-1.54787577886959
31
0
210
0
220
0
230
1
40
0.995725
41
3.14158679875449
42
-1.62293299150808
0
ELLIPSE
5
250
100
AcDbEntity
8
1
62
256
6
ByLayer
370
13
48
1
60
0
100
AcDbEllipse
10
167.015434
20
6.948578
30
0
11
0.0811207321765866
21
-1.54787577886959
31
0
210
0
220
0
230
1
40
0.995725
41
-1.62293299150808
42
0
0
ELLIPSE
5
251
100
AcDbEntity
8
1
62
256
6
ByLayer
370
13
48
1
60
0
100
AcDbEllipse
10
166.496958
20
7.713346
30
0
11
-0.201645978398244
21
-0.131849256880537
31
0
210
0
220
0
230
1
40
0.505213
41
2.94403294056837
42
-2.54016254484596
0
ELLIPSE
5
252
100
AcDbEntity
8
1
62
256
6
ByLayer
370
13
48
1
60
0
100
AcDbEllipse
10
166.579738
20
6.133804
30
0
11
-0.214323340834723
21
0.110049228609672
31
0
210
0
220
0
230
1
40
0.505213
41
2.43642482912282
42
-2.94403294056795
0
ELLIPSE
5
253
100
AcDbEntity
8
1
62
256
6
ByLayer
370
13
48
1
60
0
100
AcDbEllipse
10
168.297345
20
-2.149884
30
0
11
-1.1
21
1.1117029605906E-15
31
0
210
0
220
0
230
1
40
0.993815
41
-2.83705478592789
42
-4.06229996025477E-16
0
ELLIPSE
5
254
100
AcDbEntity
8
1
62
256
6
ByLayer
370
13
48
1
60
0
100
AcDbEllipse
10
168.297345
20
-2.11727
30
0
11
-0.75
21
7.57979291311772E-16
31
0
210
0
220
0
230
1
40
0.993815
41
-3.14159240295912
42
0
0
ELLIPSE
5
255
100
AcDbEntity
8
1
62
256
6
ByLayer
370
13
48
1
60
0
100
AcDbEllipse
10
168.297345
20
-2.11727
30
0
11
-0.75
21
7.57979291311772E-16
31
0
210
0
220
0
230
1
40
0.993815
41
0
42
1.28569666615712
0
ELLIPSE
5
256
100
AcDbEntity
8
1
62
256
6
ByLayer
370
13
48
1
60
0
100
AcDbEllipse
10
168.297345
20
-2.11727
30
0
11
-0.75
21
7.57979291311772E-16
31
0
210
0
220
0
230
1
40
0.993815
41
2.45859063825198
42
-3.14159240295912
0
ELLIPSE
5
257
100
AcDbEntity
8
1
62
256
6
ByLayer
370
18
48
1
60
0
100
AcDbEllipse
10
168.297345
20
-2.641974
30
0
11
-1.25
21
1.26329881885295E-15
31
0
210
0
220
0
230
1
40
0.993815
41
-0.503833092621513
42
-0.357355994464405
0
ELLIPSE
5
258
100
AcDbEntity
8
1
62
256
6
ByLayer
370
18
48
1
60
0
100
AcDbEllipse
10
168.297345
20
-2.558544
30
0
11
-1.25
21
1.26329881885295E-15
31
0
210
0
220
0
230
1
40
0.993815
41
-0.532107400903163
42
-0.304145738817323
0
ELLIPSE
5
259
100
AcDbEntity
8
1
62
256
6
ByLayer
370
13
48
1
60
0
100
AcDbEllipse
10
164.171221
20
4.264229
30
0
11
0.0261679781214795
21
-0.499314767377286
31
0
210
0
220
0
230
1
40
0.092371
41
-0.684395096575712
42
-0.462193096516717
0
ELLIPSE
5
25A
100
AcDbEntity
8
1
62
256
6
ByLayer
370
13
48
1
60
0
100
AcDbEllipse
10
163.223409
20
4.371587
30
0
11
-0.0444855628065013
21
0.848835104541388
31
0
210
0
220
0
230
1
40
0.995725
41
1.40030273980259
42
2.2925893929354
0
ELLIPSE
5
25B
100
AcDbEntity
8
1
62
256
6
ByLayer
370
13
48
1
60
0
100
AcDbEllipse
10
162.429032
20
4.474372
30
0
11
0.496557167385188
21
-0.0585745637491125
31
0
210
0
220
0
230
1
40
0.015672
41
-2.07611590382617
42
-1.66196507056991
0
ELLIPSE
5
25C
100
AcDbEntity
8
1
62
256
6
ByLayer
370
13
48
1
60
0
100
AcDbEllipse
10
162.423652
20
4.748664
30
0
11
0.493878886210547
21
0.0779977291684166
31
0
210
0
220
0
230
1
40
0.009655
41
1.66279490126863
42
2.07294360323004
0
ELLIPSE
5
25D
100
AcDbEntity
8
1
62
256
6
ByLayer
370
13
48
1
60
0
100
AcDbEllipse
10
162.210483
20
6.098439
30
0
11
0.493878886210547
21
0.0779977291684166
31
0
210
0
220
0
230
1
40
0.009655
41
1.82323785567456
42
2.0721112609136
0
ELLIPSE
5
25E
100
AcDbEntity
8
1
62
256
6
ByLayer
370
13
48
1
60
0
100
AcDbEllipse
10
164.275802
20
3.92722
30
0
11
0.0261679781214795
21
-0.499314767377287
31
0
210
0
220
0
230
1
40
0.092371
41
-0.190832052365756
42
-6.07364113838284E-06
0
ELLIPSE
5
25F
100
AcDbEntity
8
1
62
256
6
ByLayer
370
13
48
1
60
0
100
AcDbEllipse
10
144.056112
20
0
30
0
11
-110.509649175488
21
0.0501333256517842
31
0
210
0
220
0
230
1
40
0.092638
41
-1.80434989882654
42
-1.74492003657542
0
ELLIPSE
5
260
100
AcDbEntity
8
1
62
256
6
ByLayer
370
13
48
1
60
0
100
AcDbEllipse
10
163.269531
20
4.374004
30
0
11
0.0706535409279945
21
-1.34814987191867
31
0
210
0
220
0
230
1
40
0.995725
41
0.0592770815293997
42
0.967857446913126
0
ELLIPSE
5
261
100
AcDbEntity
8
1
62
256
6
ByLayer
370
13
48
1
60
0
100
AcDbEllipse
10
163.259733
20
8.870926
30
0
11
0.314015737457754
21
-5.99177720852744
31
0
210
0
220
0
230
1
40
0.995725
41
2.10289489482846E-06
42
0.245129312672913
0
ELLIPSE
5
262
100
AcDbEntity
8
1
62
256
6
ByLayer
370
13
48
1
60
0
100
AcDbEllipse
10
168.160163
20
-2.385702
30
0
11
1.1
21
0
31
0
210
0
220
0
230
1
40
0.993815
41
2.49246132815936
42
2.93542602047201
0
ELLIPSE
5
263
100
AcDbEntity
8
1
62
256
6
ByLayer
370
13
48
1
60
0
100
AcDbEllipse
10
168.160163
20
-2.063652
30
0
11
1.1
21
0
31
0
210
0
220
0
230
1
40
0.993815
41
0.932955291762116
42
-3.14159203705954
0
ELLIPSE
5
264
100
AcDbEntity
8
1
62
256
6
ByLayer
370
13
48
1
60
0
100
AcDbEllipse
10
168.160163
20
-2.063652
30
0
11
-1.2
21
1.21276686609884E-15
31
0
210
0
220
0
230
1
40
0.993815
41
-2.85295866864023
42
-0.179266992839638
0
POINT
5
70
100
AcDbEntity
8
1
62
256
6
ByLayer
370
18
48
1
60
0
100
AcDbPoint
10
0
20
0
30
0
39
0
210
0
220
0
230
1
50
360
0
POINT
5
72
100
AcDbEntity
8
80
62
256
6
ByLayer
370
18
48
1
60
0
100
AcDbPoint
10
0
20
0
30
0
39
0
210
0
220
0
230
1
50
360
0
POINT
5
74
100
AcDbEntity
8
81
62
256
6
ByLayer
370
18
48
1
60
0
100
AcDbPoint
10
172
20
0
30
0
39
0
210
0
220
0
230
1
50
360
0
POINT
5
76
100
AcDbEntity
8
1
62
256
6
ByLayer
370
18
48
1
60
1
100
AcDbPoint
10
0
20
-16
30
0
39
0
210
0
220
0
230
1
50
360
0
POINT
5
77
100
AcDbEntity
8
1
62
256
6
ByLayer
370
18
48
1
60
1
100
AcDbPoint
10
172
20
-10.5
30
0
39
0
210
0
220
0
230
1
50
360
0
POINT
5
78
100
AcDbEntity
8
1
62
256
6
ByLayer
370
18
48
1
60
1
100
AcDbPoint
10
-56
20
-12.5
30
0
39
0
210
0
220
0
230
1
50
360
0
POINT
5
79
100
AcDbEntity
8
1
62
256
6
ByLayer
370
18
48
1
60
1
100
AcDbPoint
10
0
20
-16
30
0
39
0
210
0
220
0
230
1
50
360
0
POINT
5
7A
100
AcDbEntity
8
1
62
256
6
ByLayer
370
18
48
1
60
1
100
AcDbPoint
10
172
20
-10.5
30
0
39
0
210
0
220
0
230
1
50
360
0
POINT
5
7B
100
AcDbEntity
8
1
62
256
6
ByLayer
370
18
48
1
60
1
100
AcDbPoint
10
6.1777
20
-16
30
0
39
0
210
0
220
0
230
1
50
360
0
POINT
5
7C
100
AcDbEntity
8
1
62
256
6
ByLayer
370
18
48
1
60
1
100
AcDbPoint
10
22
20
-10.5
30
0
39
0
210
0
220
0
230
1
50
360
0
POINT
5
7D
100
AcDbEntity
8
1
62
256
6
ByLayer
370
18
48
1
60
1
100
AcDbPoint
10
172
20
-10.5
30
0
39
0
210
0
220
0
230
1
50
360
0
POINT
5
7E
100
AcDbEntity
8
1
62
256
6
ByLayer
370
18
48
1
60
1
100
AcDbPoint
10
171.4423
20
-5.25
30
0
39
0
210
0
220
0
230
1
50
360
0
SPLINE
5
265
100
AcDbEntity
8
SK1
62
256
6
ByLayer
370
13
48
1
60
0
100
AcDbSpline
70
4
71
3
72
18
73
14
40
0
40
0
40
0
40
0
40
0.249999999999993
40
0.249999999999993
40
0.499999999999985
40
0.499999999999985
40
0.624999999999989
40
0.624999999999989
40
0.749999999999993
40
0.749999999999993
40
0.874999999999996
40
0.874999999999996
40
1
40
1
40
1
40
1
41
1
10
-54.5162221138916
20
6.81202898183318
30
0
41
1
10
-54.4772970244431
20
6.72457714976824
30
0
41
1
10
-54.4307065013895
20
6.63918003305162
30
0
41
1
10
-54.319110443676
20
6.4826126999028
30
0
41
1
10
-54.2534817600869
20
6.41019877906004
30
0
41
1
10
-54.1362837870009
20
6.32619750079633
30
0
41
1
10
-54.0935094971742
20
6.30217611468402
30
0
41
1
10
-54.0030350925562
20
6.26802830974705
30
0
41
1
10
-53.954986307026
20
6.25793437821719
30
0
41
1
10
-53.8587999994146
20
6.25505426790869
30
0
41
1
10
-53.8097812214382
20
6.26239551321621
30
0
41
1
10
-53.7180788416409
20
6.29165811737894
30
0
41
1
10
-53.6739760596325
20
6.31382117969852
30
0
41
1
10
-53.63381319928
20
6.34032812085832
30
0
0
SPLINE
5
266
100
AcDbEntity
8
SK1
62
256
6
ByLayer
370
13
48
1
60
0
100
AcDbSpline
70
4
71
3
72
8
73
4
40
0
40
0
40
0
40
0
40
1
40
1
40
1
40
1
41
1
10
-52.5998571439056
20
-6.99857202024091
30
0
41
1
10
-52.9479487851792
20
-6.78433420177186
30
0
41
1
10
-53.2928798234837
20
-6.56533950830294
30
0
41
1
10
-53.6338131992802
20
-6.34032812085843
30
0
0
SPLINE
5
267
100
AcDbEntity
8
SK1
62
256
6
ByLayer
370
13
48
1
60
0
100
AcDbSpline
70
4
71
3
72
8
73
4
40
0
40
0
40
0
40
0
40
1
40
1
40
1
40
1
41
1
10
-55
20
-6.99857202024091
30
0
41
1
10
-55.3647894321562
20
-6.34719880823223
30
0
41
1
10
-55.7025751082723
20
-5.68271935719741
30
0
41
1
10
-56
20
-4.99865085022941
30
0
0
SPLINE
5
268
100
AcDbEntity
8
SK1
62
256
6
ByLayer
370
13
48
1
60
0
100
AcDbSpline
70
4
71
3
72
8
73
4
40
0
40
0
40
0
40
0
40
1
40
1
40
1
40
1
41
1
10
-54.5162221138915
20
-6.81202898183307
30
0
41
1
10
-54.5439351414378
20
-6.87429101039413
30
0
41
1
10
-54.5718768490337
20
-6.93647114421498
30
0
41
1
10
-54.6000398733642
20
-6.99857202024091
30
0
0
SPLINE
5
269
100
AcDbEntity
8
SK1
62
256
6
ByLayer
370
13
48
1
60
0
100
AcDbSpline
70
4
71
3
72
8
73
4
40
0
40
0
40
0
40
0
40
1
40
1
40
1
40
1
41
1
10
-54.6000398733642
20
6.99857202024106
30
0
41
1
10
-54.571876118047
20
6.93646953235279
30
0
41
1
10
-54.5439344142792
20
6.87428937670879
30
0
41
1
10
-54.5162221138915
20
6.81202898183318
30
0
0
SPLINE
5
26A
100
AcDbEntity
8
SK1
62
256
6
ByLayer
370
13
48
1
60
0
100
AcDbSpline
70
4
71
3
72
18
73
14
40
0
40
0
40
0
40
0
40
0.125
40
0.125
40
0.25
40
0.25
40
0.375
40
0.375
40
0.5
40
0.5
40
0.75
40
0.75
40
1
40
1
40
1
40
1
41
1
10
-53.6338131992802
20
-6.3403281208584
30
0
41
1
10
-53.6738141958612
20
-6.31392800758456
30
0
41
1
10
-53.7178002036947
20
-6.29177848365677
30
0
41
1
10
-53.8095125775276
20
-6.2624499739369
30
0
41
1
10
-53.8584225384109
20
-6.25510027396828
30
0
41
1
10
-53.954380672524
20
-6.25785951942993
30
0
41
1
10
-54.0027856924058
20
-6.26797384899598
30
0
41
1
10
-54.0930673480266
20
-6.30196986632177
30
0
41
1
10
-54.1359763206845
20
-6.32601182555067
30
0
41
1
10
-54.2531658331207
20
-6.40990335070128
30
0
41
1
10
-54.3191410537013
20
-6.48264182751294
30
0
41
1
10
-54.4307896521674
20
-6.63931052396157
30
0
41
1
10
-54.4773867263329
20
-6.72477868031578
30
0
41
1
10
-54.5162221138916
20
-6.81202898183304
30
0
0
SPLINE
5
26B
100
AcDbEntity
8
SK1
62
256
6
ByLayer
370
13
48
1
60
0
100
AcDbSpline
70
4
71
3
72
71
73
67
40
0
40
0
40
0
40
0
40
0.0312500000000003
40
0.0312500000000003
40
0.0468750000000004
40
0.0468750000000004
40
0.0625000000000005
40
0.0625000000000005
40
0.0781250000000005
40
0.0781250000000005
40
0.0937500000000006
40
0.0937500000000006
40
0.125000000000001
40
0.125000000000001
40
0.140625000000001
40
0.140625000000001
40
0.156250000000001
40
0.156250000000001
40
0.187500000000001
40
0.187500000000001
40
0.218750000000001
40
0.218750000000001
40
0.250000000000001
40
0.250000000000001
40
0.312500000000001
40
0.312500000000001
40
0.375000000000002
40
0.375000000000002
40
0.406250000000002
40
0.406250000000002
40
0.437500000000002
40
0.437500000000002
40
0.500000000000002
40
0.562500000000002
40
0.562500000000002
40
0.593750000000002
40
0.593750000000002
40
0.625000000000002
40
0.625000000000002
40
0.687500000000002
40
0.687500000000002
40
0.750000000000002
40
0.750000000000002
40
0.781250000000002
40
0.781250000000002
40
0.812500000000001
40
0.812500000000001
40
0.843750000000001
40
0.843750000000001
40
0.859375000000001
40
0.859375000000001
40
0.875000000000001
40
0.875000000000001
40
0.906250000000001
40
0.906250000000001
40
0.921875000000001
40
0.921875000000001
40
0.937500000000001
40
0.937500000000001
40
0.953125
40
0.953125
40
0.96875
40
0.96875
40
0.984375
40
0.984375
40
1
40
1
40
1
40
1
41
1
10
-6.50000000009538
20
6.998572020241
30
0
41
1
10
-6.31571533004515
20
6.99857202024967
30
0
41
1
10
-6.13743573179397
20
6.97387109270571
30
0
41
1
10
-5.87807007883168
20
6.90321966844968
30
0
41
1
10
-5.79249754001009
20
6.87371201184882
30
0
41
1
10
-5.6293361169906
20
6.80569256211214
30
0
41
1
10
-5.55109427743696
20
6.76707109549224
30
0
41
1
10
-5.40055384552451
20
6.68141826816264
30
0
41
1
10
-5.32815416062539
20
6.63430399969613
30
0
41
1
10
-5.18925210594989
20
6.53244521628065
30
0
41
1
10
-5.12377844902809
20
6.47848470758717
30
0
41
1
10
-4.93748624451072
20
6.3085827822143
30
0
41
1
10
-4.8267115899061
20
6.1846770027818
30
0
41
1
10
-4.6761911608582
20
5.98533103669445
30
0
41
1
10
-4.62855056556253
20
5.91642308507087
30
0
41
1
10
-4.53922153852642
20
5.77634068999626
30
0
41
1
10
-4.49736020419419
20
5.70496414000004
30
0
41
1
10
-4.37902027112833
20
5.48717552116739
30
0
41
1
10
-4.30973548429904
20
5.33712034908373
30
0
41
1
10
-4.18597550641348
20
5.02855833309758
30
0
41
1
10
-4.13152858900258
20
4.87004242457732
30
0
41
1
10
-4.03445407647325
20
4.54538526361949
30
0
41
1
10
-3.99218870828807
20
4.38036541349672
30
0
41
1
10
-3.8806630298719
20
3.8815043831257
30
0
41
1
10
-3.82597090267365
20
3.54235643247728
30
0
41
1
10
-3.74047959020675
20
2.85273429591121
30
0
41
1
10
-3.70981920131712
20
2.50224542423098
30
0
41
1
10
-3.67535340381019
20
1.96866904162033
30
0
41
1
10
-3.66582822790039
20
1.78937635765021
30
0
41
1
10
-3.65011537208733
20
1.4316899722499
30
0
41
1
10
-3.64389707389739
20
1.25286356942047
30
0
41
1
10
-3.62929622079273
20
0.716432949039586
30
0
41
1
10
-3.62042488526302
20
0.0013212454733491
30
0
41
1
10
-3.62924953065914
20
-0.713539660438329
30
0
41
1
10
-3.64379211765163
20
-1.24958871665936
30
0
41
1
10
-3.64998697783565
20
-1.42825557634492
30
0
41
1
10
-3.66563837164477
20
-1.78555583380015
30
0
41
1
10
-3.67511786137808
20
-1.96455406997464
30
0
41
1
10
-3.70953832715443
20
-2.49881887149942
30
0
41
1
10
-3.74017720125841
20
-2.84981522124173
30
0
41
1
10
-3.82568979373829
20
-3.54056541591115
30
0
41
1
10
-3.88042216361382
20
-3.88033387025806
30
0
41
1
10
-3.99214803643076
20
-4.3802299370825
30
0
41
1
10
-4.03457139272209
20
-4.54577117988887
30
0
41
1
10
-4.13137165046336
20
-4.86952399241147
30
0
41
1
10
-4.18572933619737
20
-5.02789660502796
30
0
41
1
10
-4.30959364920602
20
-5.33681454089182
30
0
41
1
10
-4.37906730976638
20
-5.48736926922894
30
0
41
1
10
-4.49817195127201
20
-5.70640389482426
30
0
41
1
10
-4.54042880204571
20
-5.77832989383157
30
0
41
1
10
-4.62961647910464
20
-5.917996111653
30
0
41
1
10
-4.67665158712001
20
-5.98594616406356
30
0
41
1
10
-4.82600204453692
20
-6.18372658725997
30
0
41
1
10
-4.9364153318723
20
-6.30756945151506
30
0
41
1
10
-5.12387444002081
20
-6.47859050811525
30
0
41
1
10
-5.18982034314945
20
-6.53284983481481
30
0
41
1
10
-5.32716069139138
20
-6.63358751533818
30
0
41
1
10
-5.39883736540122
20
-6.68033932325883
30
0
41
1
10
-5.54894893429449
20
-6.76595018463183
30
0
41
1
10
-5.62776164553696
20
-6.80497288448146
30
0
41
1
10
-5.79153203652811
20
-6.87337183942776
30
0
41
1
10
-5.87542610285047
20
-6.90235315140345
30
0
41
1
10
-6.04744974985599
20
-6.94949997275469
30
0
41
1
10
-6.13557688289623
20
-6.9676718536326
30
0
41
1
10
-6.31646604914351
20
-6.99230795215647
30
0
41
1
10
-6.40810473763941
20
-6.99857202024529
30
0
41
1
10
-6.50000000009538
20
-6.99857202024097
30
0
0
SPLINE
5
26C
100
AcDbEntity
8
SK1
62
256
6
ByLayer
370
13
48
1
60
0
100
AcDbSpline
70
4
71
3
72
8
73
4
40
0
40
0
40
0
40
0
40
1
40
1
40
1
40
1
41
1
10
-53.6338131992802
20
6.34032812085854
30
0
41
1
10
-53.2931973263098
20
6.56512996075952
30
0
41
1
10
-52.9482491695224
20
6.7841493260708
30
0
41
1
10
-52.5998571439059
20
6.99857202024131
30
0
0
SPLINE
5
26D
100
AcDbEntity
8
SK1
62
256
6
ByLayer
370
13
48
1
60
0
100
AcDbSpline
70
4
71
3
72
8
73
4
40
0
40
0
40
0
40
0
40
1
40
1
40
1
40
1
41
1
10
-56
20
4.99865085022955
30
0
41
1
10
-55.7014870272612
20
5.68522191153457
30
0
41
1
10
-55.3636283470437
20
6.34927205836655
30
0
41
1
10
-55
20
6.99857202024106
30
0
0
SPLINE
5
26E
100
AcDbEntity
8
1
62
256
6
ByLayer
370
13
48
1
60
0
100
AcDbSpline
70
4
71
3
72
58
73
54
40
0
40
0
40
0
40
0
40
0.0312500000000009
40
0.0312500000000009
40
0.0468750000000013
40
0.0468750000000013
40
0.0625000000000018
40
0.0625000000000018
40
0.0781250000000022
40
0.0781250000000022
40
0.0859375000000024
40
0.0859375000000024
40
0.0937500000000026
40
0.0937500000000026
40
0.109375000000003
40
0.109375000000003
40
0.125000000000003
40
0.125000000000003
40
0.156250000000003
40
0.156250000000003
40
0.187500000000003
40
0.187500000000003
40
0.218750000000003
40
0.218750000000003
40
0.250000000000003
40
0.250000000000003
40
0.281250000000003
40
0.281250000000003
40
0.312500000000003
40
0.312500000000003
40
0.343750000000003
40
0.343750000000003
40
0.375000000000003
40
0.375000000000003
40
0.406250000000002
40
0.406250000000002
40
0.437500000000002
40
0.437500000000002
40
0.468750000000002
40
0.468750000000002
40
0.500000000000002
40
0.500000000000002
40
0.531250000000002
40
0.531250000000002
40
0.562500000000002
40
0.562500000000002
40
0.625000000000002
40
0.625000000000002
40
0.750000000000001
40
0.750000000000001
40
0.875000000000001
40
0.875000000000001
40
1
40
1
40
1
40
1
41
1
10
157.929261594278
20
-10.0421902026415
30
0
41
1
10
157.129021589632
20
-10.031915422091
30
0
41
1
10
156.323481182905
20
-10.0241372697479
30
0
41
1
10
155.123381722757
20
-10.0062208857855
30
0
41
1
10
154.72472200223
20
-9.99916139639979
30
0
41
1
10
153.933085708553
20
-9.98011091883481
30
0
41
1
10
153.540194536632
20
-9.96812179573428
30
0
41
1
10
152.764935556277
20
-9.93344232520997
30
0
41
1
10
152.382625760551
20
-9.91078046927981
30
0
41
1
10
151.820315210774
20
-9.86183658596264
30
0
41
1
10
151.63512383639
20
-9.84253234992534
30
0
41
1
10
151.264392913442
20
-9.80218689632943
30
0
41
1
10
151.078819701082
20
-9.78126752079913
30
0
41
1
10
150.52221636024
20
-9.71552419346554
30
0
41
1
10
150.151379199539
20
-9.66756538643486
30
0
41
1
10
149.409285098674
20
-9.5644057652014
30
0
41
1
10
149.038385059896
20
-9.50912448359253
30
0
41
1
10
147.926230189629
20
-9.33235567400391
30
0
41
1
10
147.185431063726
20
-9.19993487483637
30
0
41
1
10
145.704474481326
20
-8.90653972012421
30
0
41
1
10
144.964476713281
20
-8.74524068150305
30
0
41
1
10
143.47993856965
20
-8.40051459055039
30
0
41
1
10
142.735217902381
20
-8.21712042530217
30
0
41
1
10
141.236838664396
20
-7.83817884487453
30
0
41
1
10
140.48505917183
20
-7.64301027764546
30
0
41
1
10
138.974419388866
20
-7.24839115889873
30
0
41
1
10
138.215534955878
20
-7.04898937387904
30
0
41
1
10
136.688918638354
20
-6.65328486354417
30
0
41
1
10
135.921266431432
20
-6.45683957361939
30
0
41
1
10
134.376463619573
20
-6.07232069475853
30
0
41
1
10
133.599031091477
20
-5.88422361773431
30
0
41
1
10
132.039108979191
20
-5.5232064658878
30
0
41
1
10
131.256006193602
20
-5.3500829363133
30
0
41
1
10
129.682879133596
20
-5.02354674678597
30
0
41
1
10
128.89275428631
20
-4.87051675808542
30
0
41
1
10
127.305537859984
20
-4.58673775215476
30
0
41
1
10
126.508175304418
20
-4.45557907917333
30
0
41
1
10
124.909108809404
20
-4.21401609398518
30
0
41
1
10
124.108158188923
20
-4.10356495724042
30
0
41
1
10
122.503529573466
20
-3.90349769781358
30
0
41
1
10
121.699954616079
20
-3.81302070637508
30
0
41
1
10
120.088975077732
20
-3.66282143541071
30
0
41
1
10
119.281385758573
20
-3.6046534908964
30
0
41
1
10
117.662682176965
20
-3.51735992339286
30
0
41
1
10
116.85180565116
20
-3.48824890181189
30
0
41
1
10
114.420622578114
20
-3.42574067059442
30
0
41
1
10
112.799661967869
20
-3.41662672669489
30
0
41
1
10
107.936695728632
20
-3.40542091363685
30
0
41
1
10
104.694580368085
20
-3.42415862007408
30
0
41
1
10
98.2104099396374
20
-3.45014714119904
30
0
41
1
10
94.9683357098688
20
-3.4593000377493
30
0
41
1
10
88.4841701375258
20
-3.46028113363875
30
0
41
1
10
85.2420847073182
20
-3.45370985593806
30
0
41
1
10
81.9999999999999
20
-3.44906763073843
30
0
0
SPLINE
5
26F
100
AcDbEntity
8
1
62
256
6
ByLayer
370
13
48
1
60
0
100
AcDbSpline
70
4
71
3
72
14
73
10
40
0
40
0
40
0
40
0
40
0.25
40
0.25
40
0.5
40
0.5
40
0.75
40
0.75
40
1
40
1
40
1
40
1
41
1
10
164.31024358972
20
3.43742782568305
30
0
41
1
10
164.323830254661
20
3.44722733325614
30
0
41
1
10
164.343431544595
20
3.46381082345343
30
0
41
1
10
164.387141767473
20
3.50566691152133
30
0
41
1
10
164.411196139987
20
3.5308222959475
30
0
41
1
10
164.461002767923
20
3.58903056752888
30
0
41
1
10
164.486494146401
20
3.62186545618982
30
0
41
1
10
164.535109103352
20
3.69243299234205
30
0
41
1
10
164.558570652602
20
3.73051872230226
30
0
41
1
10
164.58067222697
20
3.77195272745718
30
0
0
SPLINE
5
270
100
AcDbEntity
8
1
62
256
6
ByLayer
370
13
48
1
60
0
100
AcDbSpline
70
4
71
3
72
26
73
22
40
0
40
0
40
0
40
0
40
0.250000000000001
40
0.250000000000001
40
0.500000000000002
40
0.500000000000002
40
0.625000000000003
40
0.625000000000003
40
0.640625000000002
40
0.640625000000002
40
0.656250000000002
40
0.656250000000002
40
0.687500000000002
40
0.687500000000002
40
0.750000000000001
40
0.750000000000001
40
0.875
40
0.875
40
0.9375
40
0.9375
40
1
40
1
40
1
40
1
41
1
10
9.51118480490254
20
-14.6842683159012
30
0
41
1
10
10.4753567227619
20
-14.4275548902664
30
0
41
1
10
11.4127090028123
20
-14.1235441913221
30
0
41
1
10
13.2350730308187
20
-13.4232186217936
30
0
41
1
10
14.120094734707
20
-13.0269213088084
30
0
41
1
10
15.4073274623225
20
-12.3614053270105
30
0
41
1
10
15.8296669641145
20
-12.1276838612218
30
0
41
1
10
16.2969430356722
20
-11.8508931424211
30
0
41
1
10
16.3487533266062
20
-11.8199459124976
30
0
41
1
10
16.4521541142434
20
-11.7576638386242
30
0
41
1
10
16.5036259492557
20
-11.7261197310566
30
0
41
1
10
16.6586611700544
20
-11.6325802965567
30
0
41
1
10
16.7630516023079
20
-11.5720537112619
30
0
41
1
10
17.0792465212178
20
-11.3959612492692
30
0
41
1
10
17.2940899777242
20
-11.2858618766943
30
0
41
1
10
17.9507405730876
20
-10.977413958075
30
0
41
1
10
18.4045899567278
20
-10.8007750278064
30
0
41
1
10
19.1107828329918
20
-10.5816413443954
30
0
41
1
10
19.3510729146021
20
-10.5161226562924
30
0
41
1
10
19.8377759332322
20
-10.4019283783116
30
0
41
1
10
20.0825642630295
20
-10.3535867564536
30
0
41
1
10
20.3287834936929
20
-10.3139645795107
30
0
0
SPLINE
5
271
100
AcDbEntity
8
1
62
256
6
ByLayer
370
13
48
1
60
0
100
AcDbSpline
70
4
71
3
72
12
73
8
40
0
40
0
40
0
40
0
40
0.249999999999998
40
0.249999999999998
40
0.499999999999997
40
0.499999999999997
40
1
40
1
40
1
40
1
41
1
10
158.796914770137
20
4.54229010409776
30
0
41
1
10
158.799323875599
20
4.55067336926777
30
0
41
1
10
158.805619471629
20
4.55735529567218
30
0
41
1
10
158.819968688735
20
4.56732382436141
30
0
41
1
10
158.828217238086
20
4.57087582107735
30
0
41
1
10
158.853563553374
20
4.57886427569582
30
0
41
1
10
158.871298619437
20
4.58082500357349
30
0
41
1
10
158.889505700485
20
4.58090095614716
30
0
0
SPLINE
5
272
100
AcDbEntity
8
1
62
256
6
ByLayer
370
13
48
1
60
0
100
AcDbSpline
70
4
71
3
72
10
73
6
40
0
40
0
40
0
40
0
40
0.5
40
0.5
40
1
40
1
40
1
40
1
41
1
10
166.330302815678
20
4.03372637947436
30
0
41
1
10
166.078487292771
20
4.02052928712976
30
0
41
1
10
165.826303002819
20
4.00731286852334
30
0
41
1
10
165.321490814557
20
3.9808567827815
30
0
41
1
10
165.06887095643
20
3.96761753701426
30
0
41
1
10
164.816401847738
20
3.95438619169016
30
0
0
SPLINE
5
273
100
AcDbEntity
8
1
62
256
6
ByLayer
370
13
48
1
60
0
100
AcDbSpline
70
4
71
3
72
40
73
36
40
0
40
0
40
0
40
0
40
0.124999999999999
40
0.124999999999999
40
0.187499999999999
40
0.187499999999999
40
0.249999999999998
40
0.249999999999998
40
0.374999999999999
40
0.374999999999999
40
0.406249999999999
40
0.406249999999999
40
0.437499999999999
40
0.437499999999999
40
0.5
40
0.5
40
0.562500000000001
40
0.562500000000001
40
0.59375
40
0.59375
40
0.625
40
0.625
40
0.6875
40
0.6875
40
0.71875
40
0.71875
40
0.75
40
0.75
40
0.875
40
0.875
40
0.90625
40
0.90625
40
0.9375
40
0.9375
40
1
40
1
40
1
40
1
41
1
10
9.51410453871074
20
-7.68742146591384
30
0
41
1
10
9.24824494075037
20
-7.74784441468213
30
0
41
1
10
8.98859163888295
20
-7.8307044613762
30
0
41
1
10
8.60756484382972
20
-7.98587658977391
30
0
41
1
10
8.48198354469992
20
-8.04281585135212
30
0
41
1
10
8.2337600416665
20
-8.16748984804451
30
0
41
1
10
8.11254932725882
20
-8.2345508530843
30
0
41
1
10
7.76144497042682
20
-8.44754275106266
30
0
41
1
10
7.54215564815487
20
-8.60588803422854
30
0
41
1
10
7.2887320394818
20
-8.82656044336142
30
0
41
1
10
7.23898984758247
20
-8.8719664753649
30
0
41
1
10
7.14320406557491
20
-8.96380642479835
30
0
41
1
10
7.09698732973266
20
-9.01038761980374
30
0
41
1
10
6.96327395430711
20
-9.15205889439071
30
0
41
1
10
6.8806901919389
20
-9.24906675942975
30
0
41
1
10
6.72870997004708
20
-9.44813669926484
30
0
41
1
10
6.65930598834626
20
-9.55019585470504
30
0
41
1
10
6.56577829013824
20
-9.70728643021039
30
0
41
1
10
6.53636403296952
20
-9.76038270593443
30
0
41
1
10
6.48217133668095
20
-9.86611318875589
30
0
41
1
10
6.4572487494296
20
-9.91896987266747
30
0
41
1
10
6.38898526828302
20
-10.0775081386513
30
0
41
1
10
6.35210894445845
20
-10.1831563606114
30
0
41
1
10
6.31035923886051
20
-10.34156672635
30
0
41
1
10
6.29871297804885
20
-10.3943602425194
30
0
41
1
10
6.28019373837711
20
-10.4999329664193
30
0
41
1
10
6.27331199823746
20
-10.5529564025589
30
0
41
1
10
6.25191865648532
20
-10.8137480658414
30
0
41
1
10
6.27586419497771
20
-11.0101738371274
30
0
41
1
10
6.35560418904936
20
-11.240880857264
30
0
41
1
10
6.37410387321739
20
-11.2862535267112
30
0
41
1
10
6.41548729707418
20
-11.3739856873241
30
0
41
1
10
6.43843359199309
20
-11.4165473882028
30
0
41
1
10
6.51386109211569
20
-11.5404360826513
30
0
41
1
10
6.57290287345694
20
-11.6179822794166
30
0
41
1
10
6.64074872886297
20
-11.6905251157053
30
0
0
SPLINE
5
274
100
AcDbEntity
8
1
62
256
6
ByLayer
370
13
48
1
60
0
100
AcDbSpline
70
4
71
3
72
12
73
8
40
0
40
0
40
0
40
0
40
0.25
40
0.25
40
0.5
40
0.5
40
1
40
1
40
1
40
1
41
1
10
82
20
-3.44906763073843
30
0
41
1
10
77.4166747550152
20
-3.44284403231382
30
0
41
1
10
72.8333385602496
20
-3.44531559342619
30
0
41
1
10
63.6666696747895
20
-3.44901027887514
30
0
41
1
10
59.0833354694414
20
-3.45014256828634
30
0
41
1
10
45.3333339229757
20
-3.45162820622477
30
0
41
1
10
36.16666788827
20
-3.45018176362754
30
0
41
1
10
27
20
-3.45142172431542
30
0
0
SPLINE
5
275
100
AcDbEntity
8
1
62
256
6
ByLayer
370
13
48
1
60
0
100
AcDbSpline
70
4
71
3
72
8
73
4
40
0
40
0
40
0
40
0
40
1
40
1
40
1
40
1
41
1
10
170.963888539731
20
0.512668718882821
30
0
41
1
10
171.044547575775
20
0.545604463066809
30
0
41
1
10
171.12514775224
20
0.568154261259821
30
0
41
1
10
171.206322591677
20
0.582446586478625
30
0
0
SPLINE
5
276
100
AcDbEntity
8
1
62
256
6
ByLayer
370
13
48
1
60
0
100
AcDbSpline
70
4
71
3
72
8
73
4
40
0
40
0
40
0
40
0
40
1
40
1
40
1
40
1
41
1
10
155.120930466933
20
2.16537860866359
30
0
41
1
10
155.442215055025
20
2.06113407371188
30
0
41
1
10
155.762197442263
20
1.96430519576214
30
0
41
1
10
156.080620985364
20
1.87635348404495
30
0
0
SPLINE
5
277
100
AcDbEntity
8
1
62
256
6
ByLayer
370
13
48
1
60
0
100
AcDbSpline
70
4
71
3
72
14
73
10
40
0
40
0
40
0
40
0
40
0.250000000000005
40
0.250000000000005
40
0.375000000000005
40
0.375000000000005
40
0.500000000000005
40
0.500000000000005
40
1
40
1
40
1
40
1
41
1
10
20.3299717186305
20
-3.95908402501846
30
0
41
1
10
20.4526825187632
20
-3.87715080789243
30
0
41
1
10
20.5805809457579
20
-3.80470095842421
30
0
41
1
10
20.7800730141737
20
-3.71020316310523
30
0
41
1
10
20.8478495525547
20
-3.68107561204764
30
0
41
1
10
20.9860008995211
20
-3.62766650293503
30
0
41
1
10
21.0566289045923
20
-3.60332243544247
30
0
41
1
10
21.4112070465126
20
-3.49563035865845
30
0
41
1
10
21.7019921591212
20
-3.45213795417567
30
0
41
1
10
22
20
-3.45207712910317
30
0
0
SPLINE
5
278
100
AcDbEntity
8
1
62
256
6
ByLayer
370
13
48
1
60
0
100
AcDbSpline
70
4
71
3
72
8
73
4
40
0
40
0
40
0
40
0
40
1
40
1
40
1
40
1
41
1
10
158.190436587517
20
9.48992102668575
30
0
41
1
10
158.275421484184
20
9.64712992533427
30
0
41
1
10
158.358471905074
20
9.80537252124859
30
0
41
1
10
158.439763231907
20
9.96455509828715
30
0
0
SPLINE
5
279
100
AcDbEntity
8
1
62
256
6
ByLayer
370
13
48
1
60
0
100
AcDbSpline
70
4
71
3
72
10
73
6
40
0
40
0
40
0
40
0
40
0.5
40
0.5
40
1
40
1
40
1
40
1
41
1
10
161.507102009877
20
3.25914499613091
30
0
41
1
10
161.608224109157
20
3.1843362430088
30
0
41
1
10
161.71366759501
20
3.12327494661702
30
0
41
1
10
161.934172647566
20
3.02745477526554
30
0
41
1
10
162.050205032359
20
2.99260426073701
30
0
41
1
10
162.168771604458
20
2.97236824315496
30
0
0
SPLINE
5
27A
100
AcDbEntity
8
1
62
256
6
ByLayer
370
13
48
1
60
0
100
AcDbSpline
70
4
71
3
72
8
73
4
40
0
40
0
40
0
40
0
40
1
40
1
40
1
40
1
41
1
10
164.771655810984
20
3.86814238714868
30
0
41
1
10
164.758645995917
20
3.83522454159225
30
0
41
1
10
164.744437889456
20
3.80288868139334
30
0
41
1
10
164.729094450556
20
3.77128513341162
30
0
0
SPLINE
5
27B
100
AcDbEntity
8
1
62
256
6
ByLayer
370
13
48
1
60
0
100
AcDbSpline
70
4
71
3
72
8
73
4
40
0
40
0
40
0
40
0
40
1
40
1
40
1
40
1
41
1
10
162.26227777579
20
7.19179643989855
30
0
41
1
10
162.245081594289
20
7.14365721773382
30
0
41
1
10
162.221777193485
20
7.10058009852023
30
0
41
1
10
162.196150662733
20
7.06411637923389
30
0
0
SPLINE
5
27C
100
AcDbEntity
8
1
62
256
6
ByLayer
370
13
48
1
60
0
100
AcDbSpline
70
4
71
3
72
8
73
4
40
0
40
0
40
0
40
0
40
1
40
1
40
1
40
1
41
1
10
159.406983984219
20
0.0655268307174595
30
0
41
1
10
159.914398338849
20
0.0354440363938977
30
0
41
1
10
160.42182441612
20
0.0054781334438303
30
0
41
1
10
160.929261594278
20
-0.0243752987271648
30
0
0
SPLINE
5
27D
100
AcDbEntity
8
1
62
256
6
ByLayer
370
13
48
1
60
0
100
AcDbSpline
70
4
71
3
72
14
73
10
40
0
40
0
40
0
40
0
40
0.25
40
0.25
40
0.5
40
0.5
40
0.75
40
0.75
40
1
40
1
40
1
40
1
41
1
10
162.168771604458
20
2.97236824315533
30
0
41
1
10
162.443103141741
20
2.92554747644604
30
0
41
1
10
162.713676262585
20
2.89680982727577
30
0
41
1
10
163.247527550127
20
2.8706326008608
30
0
41
1
10
163.51079896546
20
2.87322923227347
30
0
41
1
10
164.029713668258
20
2.90668321797918
30
0
41
1
10
164.285988545373
20
2.93773680796491
30
0
41
1
10
164.784024064817
20
3.02464822419321
30
0
41
1
10
165.026469155984
20
3.08049121557778
30
0
41
1
10
165.262222710453
20
3.14724820582114
30
0
0
SPLINE
5
27E
100
AcDbEntity
8
1
62
256
6
ByLayer
370
13
48
1
60
0
100
AcDbSpline
70
4
71
3
72
12
73
8
40
0
40
0
40
0
40
0
40
0.249999999999985
40
0.249999999999985
40
0.499999999999971
40
0.499999999999971
40
1
40
1
40
1
40
1
41
1
10
160.940567518366
20
3.86602413656587
30
0
41
1
10
160.979571311055
20
3.8045794692153
30
0
41
1
10
161.0212287436
20
3.74595574947835
30
0
41
1
10
161.109165774219
20
3.63360246860395
30
0
41
1
10
161.155704354586
20
3.57964305089189
30
0
41
1
10
161.299236587488
20
3.42745184688855
30
0
41
1
10
161.400489280247
20
3.33801564287836
30
0
41
1
10
161.507102009877
20
3.25914499613088
30
0
0
SPLINE
5
27F
100
AcDbEntity
8
1
62
256
6
ByLayer
370
13
48
1
60
0
100
AcDbSpline
70
4
71
3
72
12
73
8
40
0
40
0
40
0
40
0
40
0.250000000000022
40
0.250000000000022
40
0.500000000000045
40
0.500000000000045
40
1
40
1
40
1
40
1
41
1
10
168.000906053843
20
4.12127898524963
30
0
41
1
10
168.049096121689
20
4.12380451968895
30
0
41
1
10
168.09803311357
20
4.1293527529952
30
0
41
1
10
168.194589963666
20
4.14643113272291
30
0
41
1
10
168.242524790672
20
4.15797285721061
30
0
41
1
10
168.384292297025
20
4.20146161921014
30
0
41
1
10
168.476617086792
20
4.24208465477196
30
0
41
1
10
168.567793234018
20
4.2971345177474
30
0
0
SPLINE
5
280
100
AcDbEntity
8
1
62
256
6
ByLayer
370
13
48
1
60
0
100
AcDbSpline
70
4
71
3
72
8
73
4
40
0
40
0
40
0
40
0
40
1
40
1
40
1
40
1
41
1
10
170.952400863408
20
0.187441744919141
30
0
41
1
10
170.951783824899
20
0.197775394146646
30
0
41
1
10
170.951243698928
20
0.208024598796669
30
0
41
1
10
170.950778644544
20
0.218190809017415
30
0
0
SPLINE
5
281
100
AcDbEntity
8
1
62
256
6
ByLayer
370
13
48
1
60
0
100
AcDbSpline
70
4
71
3
72
42
73
38
40
0
40
0
40
0
40
0
40
0.12500000000001
40
0.12500000000001
40
0.187500000000015
40
0.187500000000015
40
0.25000000000002
40
0.25000000000002
40
0.37500000000003
40
0.37500000000003
40
0.406250000000031
40
0.406250000000031
40
0.437500000000031
40
0.437500000000031
40
0.500000000000023
40
0.500000000000023
40
0.562500000000015
40
0.562500000000015
40
0.593750000000011
40
0.593750000000011
40
0.625000000000007
40
0.625000000000007
40
0.687500000000006
40
0.687500000000006
40
0.718750000000006
40
0.718750000000006
40
0.750000000000005
40
0.750000000000005
40
0.812500000000004
40
0.812500000000004
40
0.843750000000003
40
0.843750000000003
40
0.875000000000003
40
0.875000000000003
40
0.937500000000001
40
0.937500000000001
40
1
40
1
40
1
40
1
41
1
10
159.721227274427
20
0.958693979184062
30
0
41
1
10
160.089531865243
20
0.8889813830327
30
0
41
1
10
160.460892914355
20
0.829070061465814
30
0
41
1
10
161.024725473814
20
0.760980021564166
30
0
41
1
10
161.213804670884
20
0.741923028225699
30
0
41
1
10
161.594678350105
20
0.712516261497257
30
0
41
1
10
161.787238576774
20
0.702150327712701
30
0
41
1
10
162.363431839298
20
0.686853649956618
30
0
41
1
10
162.744621326302
20
0.697381121356926
30
0
41
1
10
163.216339551202
20
0.744163881714826
30
0
41
1
10
163.310442372512
20
0.755218470567257
30
0
41
1
10
163.498126222437
20
0.781006784897812
30
0
41
1
10
163.591536091733
20
0.795730677677909
30
0
41
1
10
163.867521042551
20
0.845201748623623
30
0
41
1
10
164.046921071019
20
0.885363480438826
30
0
41
1
10
164.395657654926
20
0.981431376290828
30
0
41
1
10
164.565005552643
20
1.03731979519023
30
0
41
1
10
164.810397804305
20
1.13465353511586
30
0
41
1
10
164.890258595902
20
1.16918339820094
30
0
41
1
10
165.04440653542
20
1.24181686178935
30
0
41
1
10
165.118942971469
20
1.28001724189909
30
0
41
1
10
165.334749709586
20
1.40041034386351
30
0
41
1
10
165.468268959576
20
1.48835678482479
30
0
41
1
10
165.651483688916
20
1.63294341067913
30
0
41
1
10
165.709405762137
20
1.68307668782578
30
0
41
1
10
165.817123602656
20
1.78563244067399
30
0
41
1
10
165.867204905515
20
1.83827387324692
30
0
41
1
10
166.006165237767
20
2.00027105295524
30
0
41
1
10
166.08382890689
20
2.11367505904201
30
0
41
1
10
166.176892622099
20
2.29223892820977
30
0
41
1
10
166.20390468037
20
2.35313145259772
30
0
41
1
10
166.248982319063
20
2.47517210466444
30
0
41
1
10
166.267226351479
20
2.53663764896791
30
0
41
1
10
166.309463481704
20
2.72232957025758
30
0
41
1
10
166.321025364082
20
2.84784462682637
30
0
41
1
10
166.311343803358
20
3.10227549778855
30
0
41
1
10
166.290172996087
20
3.22821368911195
30
0
41
1
10
166.25438280215
20
3.35237054692351
30
0
0
SPLINE
5
282
100
AcDbEntity
8
1
62
256
6
ByLayer
370
13
48
1
60
0
100
AcDbSpline
70
4
71
3
72
8
73
4
40
0
40
0
40
0
40
0
40
1
40
1
40
1
40
1
41
1
10
170.950778644544
20
0.218190809017472
30
0
41
1
10
170.948105405803
20
0.274996560619371
30
0
41
1
10
170.947345295436
20
0.330376716507345
30
0
41
1
10
170.948502221646
20
0.38406401521371
30
0
0
SPLINE
5
283
100
AcDbEntity
8
1
62
256
6
ByLayer
370
13
48
1
60
0
100
AcDbSpline
70
4
71
3
72
8
73
4
40
0
40
0
40
0
40
0
40
1
40
1
40
1
40
1
41
1
10
159.356213053525
20
4.57043968183839
30
0
41
1
10
159.327514154026
20
4.56082215920847
30
0
41
1
10
159.296396238208
20
4.55562835638068
30
0
41
1
10
159.26457213669
20
4.55419190352384
30
0
0
SPLINE
5
284
100
AcDbEntity
8
1
62
256
6
ByLayer
370
13
48
1
60
0
100
AcDbSpline
70
4
71
3
72
8
73
4
40
0
40
0
40
0
40
0
40
1
40
1
40
1
40
1
41
1
10
27
20
-10.216067453966
30
0
41
1
10
25.3333333300915
20
-10.2160689611809
30
0
41
1
10
23.6666666585512
20
-10.2160754510715
30
0
41
1
10
22
20
-10.2160881184733
30
0
0
SPLINE
5
285
100
AcDbEntity
8
1
62
256
6
ByLayer
370
13
48
1
60
0
100
AcDbSpline
70
4
71
1
72
4
73
2
40
0
40
0
40
1
40
1
41
1
10
22.0100000002927
20
-9.68391174172885
30
0
41
1
10
22.0099999997072
20
-9.69769513162063
30
0
0
SPLINE
5
286
100
AcDbEntity
8
1
62
256
6
ByLayer
370
13
48
1
60
0
100
AcDbSpline
70
4
71
3
72
10
73
6
40
0
40
0
40
0
40
0
40
0.5
40
0.5
40
1
40
1
40
1
40
1
41
1
10
160.958820370253
20
4.92469476379671
30
0
41
1
10
160.965126183844
20
4.9966139988168
30
0
41
1
10
160.963372899097
20
5.06877012843384
30
0
41
1
10
160.935640777332
20
5.21300884926387
30
0
41
1
10
160.910323883449
20
5.28074197635249
30
0
41
1
10
160.871975341526
20
5.34348334005279
30
0
0
SPLINE
5
287
100
AcDbEntity
8
1
62
256
6
ByLayer
370
13
48
1
60
0
100
AcDbSpline
70
4
71
3
72
8
73
4
40
0
40
0
40
0
40
0
40
1
40
1
40
1
40
1
41
1
10
164.306704309586
20
3.45834833186592
30
0
41
1
10
164.300329264522
20
3.44913064929131
30
0
41
1
10
164.29551960947
20
3.4417769637314
30
0
41
1
10
164.292747125834
20
3.43651087486546
30
0
0
SPLINE
5
288
100
AcDbEntity
8
1
62
256
6
ByLayer
370
13
48
1
60
0
100
AcDbSpline
70
4
71
3
72
8
73
4
40
0
40
0
40
0
40
0
40
1
40
1
40
1
40
1
41
1
10
170.514025950708
20
-1.14021536994102
30
0
41
1
10
170.584125483976
20
-1.53217556435845
30
0
41
1
10
170.599185553931
20
-1.92257853450289
30
0
41
1
10
170.563589689049
20
-2.31111419632856
30
0
0
SPLINE
5
289
100
AcDbEntity
8
1
62
256
6
ByLayer
370
13
48
1
60
0
100
AcDbSpline
70
4
71
3
72
20
73
16
40
0
40
0
40
0
40
0
40
0.124999999999998
40
0.124999999999998
40
0.249999999999997
40
0.249999999999997
40
0.374999999999995
40
0.374999999999995
40
0.499999999999994
40
0.499999999999994
40
0.624999999999993
40
0.624999999999993
40
0.749999999999992
40
0.749999999999992
40
1
40
1
40
1
40
1
41
1
10
159.264572136691
20
4.55419190352728
30
0
41
1
10
159.348820019822
20
4.51502346586906
30
0
41
1
10
159.430191407876
20
4.47020984818781
30
0
41
1
10
159.586021524036
20
4.36981448416711
30
0
41
1
10
159.658507075807
20
4.31558404678759
30
0
41
1
10
159.793895046223
20
4.20085324006018
30
0
41
1
10
159.856816555817
20
4.14038921618933
30
0
41
1
10
159.973856948313
20
4.01439616213929
30
0
41
1
10
160.02813822199
20
3.94854007813882
30
0
41
1
10
160.124710109476
20
3.81574470341937
30
0
41
1
10
160.167456792294
20
3.7483132796026
30
0
41
1
10
160.24171261714
20
3.61070993470048
30
0
41
1
10
160.273302936806
20
3.54025444354596
30
0
41
1
10
160.349700044695
20
3.32592488311121
30
0
41
1
10
160.375412375988
20
3.18356311730301
30
0
41
1
10
160.375495259758
20
3.04070824375424
30
0
0
SPLINE
5
28A
100
AcDbEntity
8
1
62
256
6
ByLayer
370
13
48
1
60
0
100
AcDbSpline
70
4
71
3
72
10
73
6
40
0
40
0
40
0
40
0
40
0.5
40
0.5
40
1
40
1
40
1
40
1
41
1
10
159.947793144697
20
-10.142240014355
30
0
41
1
10
159.613481429411
20
-10.1244032013144
30
0
41
1
10
159.27796330029
20
-10.107063751804
30
0
41
1
10
158.604906680295
20
-10.0737332021332
30
0
41
1
10
158.267364671092
20
-10.0577458647599
30
0
41
1
10
157.929261594278
20
-10.0421902026415
30
0
0
SPLINE
5
28B
100
AcDbEntity
8
1
62
256
6
ByLayer
370
13
48
1
60
0
100
AcDbSpline
70
4
71
3
72
10
73
6
40
0
40
0
40
0
40
0
40
0.448988012727642
40
0.448988012727642
40
1
40
1
40
1
40
1
41
1
10
22.45
20
-9.68396557869903
30
0
41
1
10
22.45
20
-9.08323046139796
30
0
41
1
10
22.45
20
-8.48249534421521
30
0
41
1
10
22.45
20
-7.14451949623009
30
0
41
1
10
22.45
20
-6.4072787654876
30
0
41
1
10
22.45
20
-5.67003803492332
30
0
0
SPLINE
5
28C
100
AcDbEntity
8
1
62
256
6
ByLayer
370
13
48
1
60
0
100
AcDbSpline
70
4
71
3
72
12
73
8
40
0
40
0
40
0
40
0
40
0.500000000000002
40
0.500000000000002
40
0.750000000000001
40
0.750000000000001
40
1
40
1
40
1
40
1
41
1
10
160.965835251469
20
4.31448771736459
30
0
41
1
10
160.981943045436
20
4.41454205505286
30
0
41
1
10
160.991303339398
20
4.51567440274837
30
0
41
1
10
160.99117794491
20
4.66963611989678
30
0
41
1
10
160.988699267863
20
4.72156611306778
30
0
41
1
10
160.978140117326
20
4.8239404055916
30
0
41
1
10
160.970081788581
20
4.8746137286121
30
0
41
1
10
160.95882037025
20
4.92469476379981
30
0
0
SPLINE
5
28D
100
AcDbEntity
8
1
62
256
6
ByLayer
370
13
48
1
60
0
100
AcDbSpline
70
4
71
3
72
8
73
4
40
0
40
0
40
0
40
0
40
1
40
1
40
1
40
1
41
1
10
159.280252399368
20
1.05206520287612
30
0
41
1
10
159.426872104771
20
1.02015360963367
30
0
41
1
10
159.573825272696
20
0.988948403221457
30
0
41
1
10
159.721227274426
20
0.958693979184119
30
0
0
SPLINE
5
28E
100
AcDbEntity
8
1
62
256
6
ByLayer
370
13
48
1
60
0
100
AcDbSpline
70
4
71
3
72
14
73
10
40
0
40
0
40
0
40
0
40
0.25
40
0.25
40
0.5
40
0.5
40
0.75
40
0.75
40
1
40
1
40
1
40
1
41
1
10
164.25326789314
20
3.79803736124998
30
0
41
1
10
164.283094167157
20
3.79105116145902
30
0
41
1
10
164.310294556569
20
3.78252787876758
30
0
41
1
10
164.355672191697
20
3.76344155880153
30
0
41
1
10
164.37455178432
20
3.75258557217407
30
0
41
1
10
164.402315696261
20
3.72968816518968
30
0
41
1
10
164.411395701105
20
3.71768944940862
30
0
41
1
10
164.420304344011
20
3.69263237244698
30
0
41
1
10
164.419913853351
20
3.6799451257632
30
0
41
1
10
164.415283301176
20
3.66746149713592
30
0
0
SPLINE
5
28F
100
AcDbEntity
8
1
62
256
6
ByLayer
370
13
48
1
60
0
100
AcDbSpline
70
4
71
3
72
14
73
10
40
0
40
0
40
0
40
0
40
0.25
40
0.25
40
0.5
40
0.5
40
0.75
40
0.75
40
1
40
1
40
1
40
1
41
1
10
160.375495259758
20
3.0407082437541
30
0
41
1
10
160.355700378355
20
3.00641459170765
30
0
41
1
10
160.331971536501
20
2.97434601339339
30
0
41
1
10
160.274989420012
20
2.92001966335638
30
0
41
1
10
160.241496521143
20
2.89812975053485
30
0
41
1
10
160.169597633996
20
2.87496466620107
30
0
41
1
10
160.131352311507
20
2.8743113391119
30
0
41
1
10
160.06147138934
20
2.89091048518935
30
0
41
1
10
160.029340372943
20
2.90728843996013
30
0
41
1
10
159.999990547801
20
2.92700765832561
30
0
0
SPLINE
5
290
100
AcDbEntity
8
1
62
256
6
ByLayer
370
13
48
1
60
0
100
AcDbSpline
70
4
71
3
72
8
73
4
40
0
40
0
40
0
40
0
40
1
40
1
40
1
40
1
41
1
10
164.174077446877
20
3.8162257292357
30
0
41
1
10
164.201792334127
20
3.81025919935874
30
0
41
1
10
164.228131657491
20
3.8039250146706
30
0
41
1
10
164.25326789314
20
3.79803736124987
30
0
0
SPLINE
5
291
100
AcDbEntity
8
1
62
256
6
ByLayer
370
13
48
1
60
0
100
AcDbSpline
70
4
71
2
72
12
73
9
40
0
40
0
40
0
40
0.284182088131893
40
0.284182088131893
40
0.568364176263785
40
0.568364176263785
40
0.852546264395678
40
0.852546264395678
40
1
40
1
40
1
41
1
10
21.9999999999989
20
-5.67519202432237
30
0
41
1
10
19.5270633326611
20
-5.85857173477172
30
0
41
1
10
17.2924227735065
20
-6.72678215049558
30
0
41
1
10
14.933929218482
20
-7.64311236812327
30
0
41
1
10
13.1263724340077
20
-9.19589823997242
30
0
41
1
10
11.3309481344714
20
-10.7382616723364
30
0
41
1
10
10.2986644642531
20
-12.7185053538165
30
0
41
1
10
9.79775476509212
20
-13.6794071828126
30
0
41
1
10
9.51137488815354
20
-14.6836017031343
30
0
0
SPLINE
5
292
100
AcDbEntity
8
1
62
256
6
ByLayer
370
13
48
1
60
0
100
AcDbSpline
70
4
71
3
72
8
73
4
40
0
40
0
40
0
40
0
40
1
40
1
40
1
40
1
41
1
10
162.495434652387
20
10.1348495334365
30
0
41
1
10
162.493473413375
20
10.1386777356622
30
0
41
1
10
162.493692515646
20
10.1423694159453
30
0
41
1
10
162.495987823316
20
10.1459308137651
30
0
0
SPLINE
5
293
100
AcDbEntity
8
1
62
256
6
ByLayer
370
13
48
1
60
0
100
AcDbSpline
70
4
71
1
72
4
73
2
40
0
40
0
40
1
40
1
41
1
10
22
20
-9.69769384568338
30
0
41
1
10
22
20
-10.2160881184733
30
0
0
SPLINE
5
294
100
AcDbEntity
8
1
62
256
6
ByLayer
370
13
48
1
60
0
100
AcDbSpline
70
4
71
3
72
8
73
4
40
0
40
0
40
0
40
0
40
1
40
1
40
1
40
1
41
1
10
165.262222710453
20
3.14724820582111
30
0
41
1
10
165.623027781968
20
3.24941532136484
30
0
41
1
10
165.955055399653
20
3.31194949813809
30
0
41
1
10
166.254382802146
20
3.3523705469143
30
0
0
SPLINE
5
295
100
AcDbEntity
8
1
62
256
6
ByLayer
370
13
48
1
60
0
100
AcDbSpline
70
4
71
3
72
12
73
8
40
0
40
0
40
0
40
0
40
0.499999999999986
40
0.499999999999986
40
0.749999999999993
40
0.749999999999993
40
1
40
1
40
1
40
1
41
1
10
158.689750554473
20
4.04369519553066
30
0
41
1
10
158.710154737434
20
4.11025416597965
30
0
41
1
10
158.728037568809
20
4.19307644933559
30
0
41
1
10
158.752906069114
20
4.32475003524326
30
0
41
1
10
158.760835144022
20
4.36983471667179
30
0
41
1
10
158.777137924045
20
4.45788566702674
30
0
41
1
10
158.785312384779
20
4.50191583474589
30
0
41
1
10
158.796914770107
20
4.54229010410913
30
0
0
SPLINE
5
296
100
AcDbEntity
8
1
62
256
6
ByLayer
370
13
48
1
60
0
100
AcDbSpline
70
4
71
3
72
40
73
36
40
0
40
0
40
0
40
0
40
0.125
40
0.125
40
0.1875
40
0.1875
40
0.25
40
0.25
40
0.3125
40
0.3125
40
0.375
40
0.375
40
0.4375
40
0.4375
40
0.46875
40
0.46875
40
0.499999999999999
40
0.499999999999999
40
0.624999999999999
40
0.624999999999999
40
0.656249999999999
40
0.656249999999999
40
0.687499999999999
40
0.687499999999999
40
0.749999999999999
40
0.749999999999999
40
0.781249999999999
40
0.781249999999999
40
0.812499999999999
40
0.812499999999999
40
0.875
40
0.875
40
0.9375
40
0.9375
40
1
40
1
40
1
40
1
41
1
10
5.67769999999999
20
-3.96862696659693
30
0
41
1
10
6.04021460919193
20
-3.7632235111592
30
0
41
1
10
6.37784108655177
20
-3.52639201595844
30
0
41
1
10
6.84235136829119
20
-3.11819745122401
30
0
41
1
10
6.99015539775576
20
-2.97321463845085
30
0
41
1
10
7.26975664885714
20
-2.6631852603154
30
0
41
1
10
7.39878137415784
20
-2.50118864516048
30
0
41
1
10
7.63416945576824
20
-2.1625126505655
30
0
41
1
10
7.74054543856329
20
-1.98584145208349
30
0
41
1
10
7.92836506882483
20
-1.61634488531394
30
0
41
1
10
8.0099525419692
20
-1.42232437726554
30
0
41
1
10
8.14038323138945
20
-1.03039983088817
30
0
41
1
10
8.19012818419895
20
-0.83109481546046
30
0
41
1
10
8.24078691192508
20
-0.526960451035819
30
0
41
1
10
8.25366880195108
20
-0.424717094957145
30
0
41
1
10
8.27114891192116
20
-0.218440500936765
30
0
41
1
10
8.27574586239965
20
-0.114034323120336
30
0
41
1
10
8.27705690709823
20
0.40842405378109
30
0
41
1
10
8.21026712563139
20
0.81554666717355
30
0
41
1
10
8.04713161364859
20
1.31171805554192
30
0
41
1
10
8.01065660822857
20
1.40964311834111
30
0
41
1
10
7.93100071873096
20
1.60137031884065
30
0
41
1
10
7.88773329559035
20
1.6954384515428
30
0
41
1
10
7.74809243832286
20
1.97250693565888
30
0
41
1
10
7.64191802155631
20
2.15039100365422
30
0
41
1
10
7.46416275364135
20
2.40756310244083
30
0
41
1
10
7.40180960222156
20
2.49163792898753
30
0
41
1
10
7.27271903925356
20
2.65461254442957
30
0
41
1
10
7.2057953447262
20
2.73379267538081
30
0
41
1
10
6.99828043679935
20
2.96479122937629
30
0
41
1
10
6.85097088468146
20
3.1100925358642
30
0
41
1
10
6.53976412831096
20
3.38460431643492
30
0
41
1
10
6.37531518771169
20
3.51412398092458
30
0
41
1
10
6.03527033686575
20
3.75447976315314
30
0
41
1
10
5.85928460076704
20
3.86573979044982
30
0
41
1
10
5.67770000000002
20
3.96862696659693
30
0
0
SPLINE
5
297
100
AcDbEntity
8
1
62
256
6
ByLayer
370
13
48
1
60
0
100
AcDbSpline
70
4
71
3
72
18
73
14
40
0
40
0
40
0
40
0
40
0.250000000000033
40
0.250000000000033
40
0.375000000000049
40
0.375000000000049
40
0.500000000000065
40
0.500000000000065
40
0.750000000000032
40
0.750000000000032
40
0.875000000000016
40
0.875000000000016
40
1
40
1
40
1
40
1
41
1
10
164.805689021906
20
3.95382475627844
30
0
41
1
10
164.800368472069
20
3.95354591807694
30
0
41
1
10
164.80163241629
20
3.96380437021082
30
0
41
1
10
164.816897511952
20
3.99222270107924
30
0
41
1
10
164.824256166426
20
4.0037272098555
30
0
41
1
10
164.844198425619
20
4.02922556943724
30
0
41
1
10
164.857049506389
20
4.04347035433494
30
0
41
1
10
164.903132767999
20
4.08593736308592
30
0
41
1
10
164.945320462072
20
4.11463010221374
30
0
41
1
10
165.018609427477
20
4.14581537109208
30
0
41
1
10
165.045121541267
20
4.15449335336797
30
0
41
1
10
165.099266264047
20
4.16697489141893
30
0
41
1
10
165.127131587417
20
4.17092971377105
30
0
41
1
10
165.155799931753
20
4.1724477243817
30
0
0
SPLINE
5
298
100
AcDbEntity
8
1
62
256
6
ByLayer
370
13
48
1
60
0
100
AcDbSpline
70
4
71
3
72
8
73
4
40
0
40
0
40
0
40
0
40
1
40
1
40
1
40
1
41
1
10
27
20
-3.45142172431534
30
0
41
1
10
25.333333321194
20
-3.45153064759611
30
0
41
1
10
23.6666666436521
20
-3.45173695308912
30
0
41
1
10
22
20
-3.45207712910315
30
0
0
SPLINE
5
299
100
AcDbEntity
8
1
62
256
6
ByLayer
370
13
48
1
60
0
100
AcDbSpline
70
4
71
3
72
8
73
4
40
0
40
0
40
0
40
0
40
1
40
1
40
1
40
1
41
1
10
22.0099999999997
20
-9.69769513164738
30
0
41
1
10
22.0066666666664
20
-9.69769470343755
30
0
41
1
10
22.0033333333332
20
-9.69769427477644
30
0
41
1
10
22
20
-9.69769384566388
30
0
0
SPLINE
5
29A
100
AcDbEntity
8
1
62
256
6
ByLayer
370
13
48
1
60
0
100
AcDbSpline
70
4
71
3
72
10
73
6
40
0
40
0
40
0
40
0
40
0.5
40
0.5
40
1
40
1
40
1
40
1
41
1
10
165.653248314833
20
4.19851792583106
30
0
41
1
10
165.693526061719
20
4.20062879309987
30
0
41
1
10
165.733826719469
20
4.19780817517068
30
0
41
1
10
165.812755091601
20
4.18306941613361
30
0
41
1
10
165.850090194868
20
4.17142824460706
30
0
41
1
10
165.88525696611
20
4.15654874910013
30
0
0
SPLINE
5
29B
100
AcDbEntity
8
1
62
256
6
ByLayer
370
13
48
1
60
0
100
AcDbSpline
70
4
71
3
72
8
73
4
40
0
40
0
40
0
40
0
40
1
40
1
40
1
40
1
41
1
10
156.800336193056
20
0.970758965208915
30
0
41
1
10
157.152999867462
20
0.732880375828017
30
0
41
1
10
157.528532362687
20
0.538917241313925
30
0
41
1
10
157.929261594278
20
0.393946431780563
30
0
0
SPLINE
5
29C
100
AcDbEntity
8
1
62
256
6
ByLayer
370
13
48
1
60
0
100
AcDbSpline
70
4
71
3
72
10
73
6
40
0
40
0
40
0
40
0
40
0.5
40
0.5
40
1
40
1
40
1
40
1
41
1
10
168.567793234018
20
4.2971345177474
30
0
41
1
10
168.598079551253
20
4.31542063384791
30
0
41
1
10
168.632240882871
20
4.33093629167709
30
0
41
1
10
168.706329254169
20
4.3536294323026
30
0
41
1
10
168.744990422788
20
4.36052738668835
30
0
41
1
10
168.785214267963
20
4.3626572698405
30
0
0
SPLINE
5
29D
100
AcDbEntity
8
1
62
256
6
ByLayer
370
13
48
1
60
0
100
AcDbSpline
70
4
71
3
72
32
73
28
40
0
40
0
40
0
40
0
40
0.124999999999992
40
0.124999999999992
40
0.249999999999984
40
0.249999999999984
40
0.31249999999999
40
0.31249999999999
40
0.374999999999995
40
0.374999999999995
40
0.437500000000001
40
0.437500000000001
40
0.500000000000007
40
0.500000000000007
40
0.562500000000013
40
0.562500000000013
40
0.625000000000019
40
0.625000000000019
40
0.687500000000025
40
0.687500000000025
40
0.75000000000003
40
0.75000000000003
40
0.875000000000023
40
0.875000000000023
40
0.937500000000011
40
0.937500000000011
40
1
40
1
40
1
40
1
41
1
10
164.729094450556
20
3.77128513341162
30
0
41
1
10
164.672066422168
20
3.65382202470829
30
0
41
1
10
164.599296012508
20
3.54663291470655
30
0
41
1
10
164.431889391834
20
3.36224437770062
30
0
41
1
10
164.335519239776
20
3.28286240366583
30
0
41
1
10
164.176865242999
20
3.18760572993503
30
0
41
1
10
164.121450356919
20
3.15962290791487
30
0
41
1
10
164.004089637081
20
3.11135073073538
30
0
41
1
10
163.941378477828
20
3.0909245037231
30
0
41
1
10
163.812458424213
20
3.06009643159376
30
0
41
1
10
163.745988105268
20
3.04947766350222
30
0
41
1
10
163.60836920041
20
3.03853158036478
30
0
41
1
10
163.539446358956
20
3.03842854219107
30
0
41
1
10
163.403160504833
20
3.04816042900211
30
0
41
1
10
163.33493629564
20
3.05814563768695
30
0
41
1
10
163.203672880911
20
3.08682444263312
30
0
41
1
10
163.140156837729
20
3.10547550317122
30
0
41
1
10
163.016462867831
20
3.15107305557118
30
0
41
1
10
162.955920447227
20
3.17823976844969
30
0
41
1
10
162.839873216223
20
3.24027020267655
30
0
41
1
10
162.784466190668
20
3.27500264556983
30
0
41
1
10
162.62559925439
20
3.39079837767994
30
0
41
1
10
162.528476873312
20
3.48476302338395
30
0
41
1
10
162.40700386956
20
3.64527690741872
30
0
41
1
10
162.370064837525
20
3.70257544343781
30
0
41
1
10
162.305195956951
20
3.82388054552891
30
0
41
1
10
162.277961360398
20
3.88649239772579
30
0
41
1
10
162.255961023131
20
3.95107496791235
30
0
0
SPLINE
5
29E
100
AcDbEntity
8
1
62
256
6
ByLayer
370
13
48
1
60
0
100
AcDbSpline
70
4
71
3
72
8
73
4
40
0
40
0
40
0
40
0
40
1
40
1
40
1
40
1
41
1
10
164.816401847738
20
3.95438619169013
30
0
41
1
10
164.798436868983
20
3.92698468489422
30
0
41
1
10
164.783532812609
20
3.89819395230165
30
0
41
1
10
164.771655810984
20
3.86814238714871
30
0
0
SPLINE
5
29F
100
AcDbEntity
8
1
62
256
6
ByLayer
370
13
48
1
60
0
100
AcDbSpline
70
4
71
3
72
10
73
6
40
0
40
0
40
0
40
0
40
0.5
40
0.5
40
1
40
1
40
1
40
1
41
1
10
159.9999905478
20
2.92700765832694
30
0
41
1
10
159.785415407014
20
3.07117390247393
30
0
41
1
10
159.558330884427
20
3.20073516356732
30
0
41
1
10
159.086708172809
20
3.43948013978971
30
0
41
1
10
158.842062892963
20
3.54853882399712
30
0
41
1
10
158.590395954741
20
3.64939956499447
30
0
0
SPLINE
5
2A0
100
AcDbEntity
8
1
62
256
6
ByLayer
370
13
48
1
60
0
100
AcDbSpline
70
4
71
3
72
8
73
4
40
0
40
0
40
0
40
0
40
1
40
1
40
1
40
1
41
1
10
22.45
20
-9.68396557656763
30
0
41
1
10
22.303333333193
20
-9.68394849483681
30
0
41
1
10
22.1566666665185
20
-9.68393055536234
30
0
41
1
10
22.01
20
-9.68391174172885
30
0
0
SPLINE
5
2A1
100
AcDbEntity
8
1
62
256
6
ByLayer
370
13
48
1
60
0
100
AcDbSpline
70
4
71
3
72
10
73
6
40
0
40
0
40
0
40
0
40
0.5
40
0.5
40
1
40
1
40
1
40
1
41
1
10
160.940567518366
20
3.86602413656573
30
0
41
1
10
160.937914370672
20
3.93592715924328
30
0
41
1
10
160.938228953693
20
4.01054593515164
30
0
41
1
10
160.946020202895
20
4.16073005652746
30
0
41
1
10
160.953363819197
20
4.23702081540554
30
0
41
1
10
160.965835251469
20
4.31448771736459
30
0
0
SPLINE
5
2A2
100
AcDbEntity
8
1
62
256
6
ByLayer
370
13
48
1
60
0
100
AcDbSpline
70
4
71
3
72
8
73
4
40
0
40
0
40
0
40
0
40
1
40
1
40
1
40
1
41
1
10
160.375495259758
20
3.0407082437541
30
0
41
1
10
160.56966159821
20
3.31979156889898
30
0
41
1
10
160.752683678895
20
3.59884283242869
30
0
41
1
10
160.940567518366
20
3.86602413656584
30
0
0
SPLINE
5
2A3
100
AcDbEntity
8
1
62
256
6
ByLayer
370
13
48
1
60
0
100
AcDbSpline
70
4
71
3
72
25
73
21
40
0
40
0
40
0
40
0
40
0.125000000000002
40
0.125000000000002
40
0.250000000000005
40
0.250000000000005
40
0.312500000000006
40
0.312500000000006
40
0.343750000000007
40
0.343750000000007
40
0.359375000000007
40
0.359375000000007
40
0.375000000000007
40
0.500000000000006
40
0.500000000000006
40
0.625000000000004
40
0.625000000000004
40
0.750000000000003
40
0.750000000000003
40
1
40
1
40
1
40
1
41
1
10
20.3299717186305
20
-3.95908402501846
30
0
41
1
10
19.8438098248767
20
-4.02578666665855
30
0
41
1
10
19.3645676938139
20
-4.12119430310133
30
0
41
1
10
18.4200137616564
20
-4.36979624688789
30
0
41
1
10
17.9650212872691
20
-4.52024869355324
30
0
41
1
10
17.3072015076813
20
-4.78292312933084
30
0
41
1
10
17.0918240249332
20
-4.87679040107756
30
0
41
1
10
16.7757957909112
20
-5.02646676581915
30
0
41
1
10
16.6716667610556
20
-5.07781607081492
30
0
41
1
10
16.5172868455512
20
-5.15701746774212
30
0
41
1
10
16.4661485564805
20
-5.1838041450232
30
0
41
1
10
16.3633299270305
20
-5.23672671394343
30
0
41
1
10
15.8994918317106
20
-5.47349246864135
30
0
41
1
10
15.425327644915
20
-5.69786073999759
30
0
41
1
10
14.5663453402877
20
-6.07749958648358
30
0
41
1
10
14.1288410390578
20
-6.25769844027514
30
0
41
1
10
13.2378547373077
20
-6.59891335626119
30
0
41
1
10
12.7844467643315
20
-6.75984289946649
30
0
41
1
10
11.4099463042719
20
-7.21065333290255
30
0
41
1
10
10.4715163110761
20
-7.46992714838086
30
0
41
1
10
9.51108289446634
20
-7.68810804312494
30
0
0
SPLINE
5
2A4
100
AcDbEntity
8
1
62
256
6
ByLayer
370
13
48
1
60
0
100
AcDbSpline
70
4
71
3
72
10
73
6
40
0
40
0
40
0
40
0
40
0.5
40
0.5
40
1
40
1
40
1
40
1
41
1
10
158.889505700484
20
4.58090095614727
30
0
41
1
10
158.953197749013
20
4.58116665359736
30
0
41
1
10
159.016335549611
20
4.57913120924979
30
0
41
1
10
159.141485181835
20
4.57029401312056
30
0
41
1
10
159.20383420095
20
4.56343227639925
30
0
41
1
10
159.26457213669
20
4.5541919035239
30
0
0
SPLINE
5
2A5
100
AcDbEntity
8
1
62
256
6
ByLayer
370
13
48
1
60
0
100
AcDbSpline
70
4
71
3
72
8
73
4
40
0
40
0
40
0
40
0
40
1
40
1
40
1
40
1
41
1
10
158.689124521664
20
4.04138102283542
30
0
41
1
10
158.689306135471
20
4.04215553012921
30
0
41
1
10
158.689515025546
20
4.04292689410659
30
0
41
1
10
158.689750554472
20
4.04369519553069
30
0
0
SPLINE
5
2A6
100
AcDbEntity
8
1
62
256
6
ByLayer
370
13
48
1
60
0
100
AcDbSpline
70
4
71
3
72
8
73
4
40
0
40
0
40
0
40
0
40
1
40
1
40
1
40
1
41
1
10
0.0999999999999659
20
-3.96862696659682
30
0
41
1
10
0.0650328392778476
20
-3.82765262553048
30
0
41
1
10
0.0316759574587309
20
-3.68612145608716
30
0
41
1
10
0
20
-3.54400902933392
30
0
0
SPLINE
5
2A7
100
AcDbEntity
8
1
62
256
6
ByLayer
370
13
48
1
60
0
100
AcDbSpline
70
4
71
3
72
36
73
32
40
0
40
0
40
0
40
0
40
0.125000000000002
40
0.125000000000002
40
0.250000000000005
40
0.250000000000005
40
0.281250000000005
40
0.281250000000005
40
0.312500000000005
40
0.312500000000005
40
0.375000000000005
40
0.375000000000005
40
0.437500000000005
40
0.437500000000005
40
0.500000000000005
40
0.500000000000005
40
0.531250000000005
40
0.531250000000005
40
0.562500000000005
40
0.562500000000005
40
0.625000000000004
40
0.625000000000004
40
0.687500000000004
40
0.687500000000004
40
0.750000000000003
40
0.750000000000003
40
0.875000000000001
40
0.875000000000001
40
0.937500000000001
40
0.937500000000001
40
1
40
1
40
1
40
1
41
1
10
6.64022231904792
20
-13.5059061805735
30
0
41
1
10
6.50510352259371
20
-13.6522913408732
30
0
41
1
10
6.40453939535689
20
-13.7956044613977
30
0
41
1
10
6.27625788533632
20
-14.0748324017792
30
0
41
1
10
6.25214535841599
20
-14.2038174485886
30
0
41
1
10
6.27291585511236
20
-14.3511079481719
30
0
41
1
10
6.27965247327597
20
-14.3799686008757
30
0
41
1
10
6.29792784467332
20
-14.4354241393618
30
0
41
1
10
6.30945958951324
20
-14.4621064425207
30
0
41
1
10
6.35091864161876
20
-14.5391412242062
30
0
41
1
10
6.38767234953408
20
-14.5864954515768
30
0
41
1
10
6.47871819593246
20
-14.6734843939345
30
0
41
1
10
6.53335738340024
20
-14.7132021528911
30
0
41
1
10
6.65684519217479
20
-14.7830046865509
30
0
41
1
10
6.72592265643476
20
-14.8134114199673
30
0
41
1
10
6.84017589002113
20
-14.8526021775507
30
0
41
1
10
6.88004075513811
20
-14.8645917549592
30
0
41
1
10
6.96335707986515
20
-14.8864304610922
30
0
41
1
10
7.00695093908533
20
-14.8963015956959
30
0
41
1
10
7.14158333690989
20
-14.9223854932053
30
0
41
1
10
7.2367718151861
20
-14.9351660896931
30
0
41
1
10
7.43726734547764
20
-14.9522615354648
30
0
41
1
10
7.54255227382373
20
-14.9565870726493
30
0
41
1
10
7.76289656171835
20
-14.9571417496516
30
0
41
1
10
7.87799425727547
20
-14.9533103158498
30
0
41
1
10
8.2296417926502
20
-14.9304912857984
30
0
41
1
10
8.47498593931471
20
-14.9004192936775
30
0
41
1
10
8.85936547349411
20
-14.8339302634524
30
0
41
1
10
8.98910485304799
20
-14.8083424781307
30
0
41
1
10
9.25006877873838
20
-14.750797776734
30
0
41
1
10
9.38157122389865
20
-14.7187936871126
30
0
41
1
10
9.51415379631678
20
-14.6834776409901
30
0
0
SPLINE
5
2A8
100
AcDbEntity
8
1
62
256
6
ByLayer
370
13
48
1
60
0
100
AcDbSpline
70
4
71
3
72
12
73
8
40
0
40
0
40
0
40
0
40
0.5
40
0.5
40
0.75
40
0.75
40
1
40
1
40
1
40
1
41
1
10
165.88525696611
20
4.15654874910013
30
0
41
1
10
165.990975987501
20
4.1118177246635
30
0
41
1
10
166.097487139916
20
4.08161523927302
30
0
41
1
10
166.259570305341
20
4.05405061621505
30
0
41
1
10
166.314136038278
20
4.04788071844925
30
0
41
1
10
166.423473560441
20
4.04159280553847
30
0
41
1
10
166.478597563781
20
4.04149817790179
30
0
41
1
10
166.532554445822
20
4.04432593826658
30
0
0
SPLINE
5
2A9
100
AcDbEntity
8
1
62
256
6
ByLayer
370
13
48
1
60
0
100
AcDbSpline
70
4
71
3
72
16
73
12
40
0
40
0
40
0
40
0
40
0.249999999999995
40
0.249999999999995
40
0.499999999999989
40
0.499999999999989
40
0.624999999999992
40
0.624999999999992
40
0.749999999999995
40
0.749999999999995
40
1
40
1
40
1
40
1
41
1
10
170.948502221646
20
0.384064015213738
30
0
41
1
10
170.949612918832
20
0.435606050558647
30
0
41
1
10
170.951447837198
20
0.485043944427673
30
0
41
1
10
170.956587198394
20
0.573448775304229
30
0
41
1
10
170.959964900587
20
0.613412191790758
30
0
41
1
10
170.965957288167
20
0.661532606181964
30
0
41
1
10
170.968117746157
20
0.675787309127628
30
0
41
1
10
170.972789927861
20
0.70044898719425
30
0
41
1
10
170.975293998031
20
0.710744333905893
30
0
41
1
10
170.983041853721
20
0.73432408703971
30
0
41
1
10
170.988702554484
20
0.740928012182962
30
0
41
1
10
170.994558701805
20
0.737214977241536
30
0
0
SPLINE
5
2AA
100
AcDbEntity
8
1
62
256
6
ByLayer
370
13
48
1
60
0
100
AcDbSpline
70
4
71
3
72
18
73
14
40
0
40
0
40
0
40
0
40
0.25
40
0.25
40
0.5
40
0.5
40
0.625
40
0.625
40
0.75
40
0.75
40
0.875
40
0.875
40
1
40
1
40
1
40
1
41
1
10
169.282662650968
20
4.38872747128593
30
0
41
1
10
169.331281235035
20
4.39127546330875
30
0
41
1
10
169.380527334425
20
4.38648588636809
30
0
41
1
10
169.473588290095
20
4.36451782036585
30
0
41
1
10
169.518049701786
20
4.34703603284547
30
0
41
1
10
169.575558015817
20
4.3171501548909
30
0
41
1
10
169.593582422723
20
4.30643205081952
30
0
41
1
10
169.625728461287
20
4.28554068596037
30
0
41
1
10
169.640004967929
20
4.27531244512411
30
0
41
1
10
169.665458402237
20
4.25618879836446
30
0
41
1
10
169.676552352476
20
4.24735428766064
30
0
41
1
10
169.695244045726
20
4.23247268418271
30
0
41
1
10
169.702996687579
20
4.22630393702397
30
0
41
1
10
169.70937246848
20
4.22164156300417
30
0
0
SPLINE
5
2AB
100
AcDbEntity
8
1
62
256
6
ByLayer
370
13
48
1
60
0
100
AcDbSpline
70
4
71
3
72
14
73
10
40
0
40
0
40
0
40
0
40
0.25
40
0.25
40
0.5
40
0.5
40
0.75
40
0.75
40
1
40
1
40
1
40
1
41
1
10
170.85003594654
20
3.76990938281583
30
0
41
1
10
170.742449452102
20
3.76427101356148
30
0
41
1
10
170.637535927653
20
3.77147477093496
30
0
41
1
10
170.431112555831
20
3.80776226652026
30
0
41
1
10
170.334166567291
20
3.83601786897464
30
0
41
1
10
170.14825169686
20
3.9110232789005
30
0
41
1
10
170.058590803314
20
3.95847566608285
30
0
41
1
10
169.892181785317
20
4.07097758936504
30
0
41
1
10
169.814644367765
20
4.13614112181779
30
0
41
1
10
169.743157309941
20
4.21258650440453
30
0
0
SPLINE
5
2AC
100
AcDbEntity
8
1
62
256
6
ByLayer
370
13
48
1
60
0
100
AcDbSpline
70
4
71
3
72
8
73
4
40
0
40
0
40
0
40
0
40
1
40
1
40
1
40
1
41
1
10
157.729043533104
20
1.1120229377029
30
0
41
1
10
157.381893608064
20
1.25639283431303
30
0
41
1
10
157.039934199904
20
1.40732969772338
30
0
41
1
10
156.70533825999
20
1.5696925842073
30
0
0
SPLINE
5
2AD
100
AcDbEntity
8
1
62
256
6
ByLayer
370
13
48
1
60
0
100
AcDbSpline
70
4
71
3
72
8
73
4
40
0
40
0
40
0
40
0
40
1
40
1
40
1
40
1
41
1
10
160.929261594278
20
-10.1763789997263
30
0
41
1
10
160.602105444415
20
-10.1649993380089
30
0
41
1
10
160.274949294555
20
-10.1536196762186
30
0
41
1
10
159.947793144697
20
-10.1422400143548
30
0
0
SPLINE
5
2AE
100
AcDbEntity
8
1
62
256
6
ByLayer
370
13
48
1
60
0
100
AcDbSpline
70
4
71
3
72
10
73
6
40
0
40
0
40
0
40
0
40
0.5
40
0.5
40
1
40
1
40
1
40
1
41
1
10
159.356213053526
20
4.57043968183766
30
0
41
1
10
159.395190060888
20
4.58166234621197
30
0
41
1
10
159.434436430246
20
4.59202202935793
30
0
41
1
10
159.51389106667
20
4.60965967039246
30
0
41
1
10
159.554043105562
20
4.61711777193739
30
0
41
1
10
159.595338970496
20
4.62091128673407
30
0
0
SPLINE
5
2AF
100
AcDbEntity
8
1
62
256
6
ByLayer
370
13
48
1
60
0
100
AcDbSpline
70
2053
71
3
72
74
73
70
40
0
40
0
40
0
40
0
40
0.0312499999999996
40
0.0312499999999996
40
0.0624999999999992
40
0.0624999999999992
40
0.0937499999999987
40
0.0937499999999987
40
0.124999999999998
40
0.124999999999998
40
0.156249999999998
40
0.156249999999998
40
0.187499999999997
40
0.187499999999997
40
0.218749999999997
40
0.218749999999997
40
0.249999999999997
40
0.249999999999997
40
0.281249999999996
40
0.281249999999996
40
0.312499999999996
40
0.312499999999996
40
0.343749999999995
40
0.343749999999995
40
0.374999999999995
40
0.374999999999995
40
0.406249999999994
40
0.406249999999994
40
0.437499999999994
40
0.437499999999994
40
0.468749999999993
40
0.468749999999993
40
0.499999999999993
40
0.499999999999993
40
0.531249999999992
40
0.531249999999992
40
0.562499999999992
40
0.562499999999992
40
0.593749999999991
40
0.593749999999991
40
0.624999999999991
40
0.624999999999991
40
0.656249999999991
40
0.656249999999991
40
0.68749999999999
40
0.68749999999999
40
0.71874999999999
40
0.71874999999999
40
0.749999999999989
40
0.749999999999989
40
0.781249999999988
40
0.781249999999988
40
0.796874999999988
40
0.796874999999988
40
0.812499999999988
40
0.812499999999988
40
0.843749999999991
40
0.843749999999991
40
0.874999999999994
40
0.874999999999994
40
0.906249999999997
40
0.906249999999997
40
0.921874999999994
40
0.921874999999994
40
0.937499999999991
40
0.937499999999991
40
0.968749999999996
40
0.968749999999996
40
1
40
1
40
1
40
1
41
1
10
168.16016302451
20
-0.388702296292223
30
0
41
1
10
168.241036769427
20
-0.388702296292223
30
0
41
1
10
168.320516018622
20
-0.396878570399849
30
0
41
1
10
168.476799104546
20
-0.428913098442592
30
0
41
1
10
168.554449100962
20
-0.453197198149269
30
0
41
1
10
168.701746962119
20
-0.51629565887086
30
0
41
1
10
168.771486742659
20
-0.554884626010846
30
0
41
1
10
168.903178856889
20
-0.646060636057172
30
0
41
1
10
168.964997063866
20
-0.698849434121087
30
0
41
1
10
169.075294372645
20
-0.813843934872608
30
0
41
1
10
169.124573144096
20
-0.876538561282786
30
0
41
1
10
169.211080462694
20
-1.01255337036341
30
0
41
1
10
169.246899527592
20
-1.08366440042602
30
0
41
1
10
169.304435497829
20
-1.23154936869281
30
0
41
1
10
169.326271844891
20
-1.30919780175265
30
0
41
1
10
169.354437040151
20
-1.46562652378654
30
0
41
1
10
169.360947862809
20
-1.54425312280375
30
0
41
1
10
169.359229210485
20
-1.70229039446508
30
0
41
1
10
169.350778214208
20
-1.78203736325784
30
0
41
1
10
169.319751260737
20
-1.93607919964316
30
0
41
1
10
169.297238848882
20
-2.0111645150748
30
0
41
1
10
169.23798252743
20
-2.15745082667297
30
0
41
1
10
169.201403260033
20
-2.2278672399604
30
0
41
1
10
169.116641746689
20
-2.35934461997601
30
0
41
1
10
169.068219476051
20
-2.42105305614999
30
0
41
1
10
168.958420572788
20
-2.53595443492833
30
0
41
1
10
168.898627968663
20
-2.58743887256205
30
0
41
1
10
168.770018910926
20
-2.67801415045486
30
0
41
1
10
168.700441840867
20
-2.71750558583358
30
0
41
1
10
168.553961153359
20
-2.78178338297954
30
0
41
1
10
168.478417486606
20
-2.80613045910815
30
0
41
1
10
168.322691443386
20
-2.83923103497787
30
0
41
1
10
168.241523387048
20
-2.84787537797516
30
0
41
1
10
168.081555296754
20
-2.84806616693771
30
0
41
1
10
168.002229746044
20
-2.83992655189653
30
0
41
1
10
167.844904154304
20
-2.807035148815
30
0
41
1
10
167.768193076177
20
-2.78239643201272
30
0
41
1
10
167.622695526742
20
-2.71892247425094
30
0
41
1
10
167.552540031396
20
-2.67942941774331
30
0
41
1
10
167.422617383397
20
-2.58823982472123
30
0
41
1
10
167.362944488926
20
-2.53686190685809
30
0
41
1
10
167.253711241019
20
-2.42290781625718
30
0
41
1
10
167.204282645625
20
-2.36017553869519
30
0
41
1
10
167.119230353777
20
-2.22844048553088
30
0
41
1
10
167.083009627434
20
-2.15887731764076
30
0
41
1
10
167.023394356949
20
-2.01213718799812
30
0
41
1
10
167.000702169474
20
-1.93652037694929
30
0
41
1
10
166.969660589445
20
-1.78278693074799
30
0
41
1
10
166.961183714917
20
-1.70392136988926
30
0
41
1
10
166.959315897055
20
-1.54479675090747
30
0
41
1
10
166.965860814287
20
-1.46615152231973
30
0
41
1
10
166.986755299798
20
-1.34955507459586
30
0
41
1
10
166.995578776637
20
-1.31091989763743
30
0
41
1
10
167.017075678082
20
-1.23413142306976
30
0
41
1
10
167.029819095065
20
-1.19585083605054
30
0
41
1
10
167.073113391014
20
-1.08426936908404
30
0
41
1
10
167.108842471689
20
-1.01342339949196
30
0
41
1
10
167.194104936003
20
-0.878899043563933
30
0
41
1
10
167.244249073224
20
-0.814763543786484
30
0
41
1
10
167.354623449933
20
-0.699482726245719
30
0
41
1
10
167.415123574632
20
-0.647655838671113
30
0
41
1
10
167.514042265049
20
-0.578883187839608
30
0
41
1
10
167.548509009154
20
-0.557421660908147
30
0
41
1
10
167.618668715347
20
-0.518515829443402
30
0
41
1
10
167.654530545125
20
-0.500937938946862
30
0
41
1
10
167.764421612704
20
-0.453736628379517
30
0
41
1
10
167.841126445954
20
-0.429510291410196
30
0
41
1
10
167.999268432415
20
-0.396886379090148
30
0
41
1
10
168.079289279594
20
-0.388702296292223
30
0
41
1
10
168.16016302451
20
-0.388702296292223
30
0
0
SPLINE
5
2B0
100
AcDbEntity
8
1
62
256
6
ByLayer
370
13
48
1
60
0
100
AcDbSpline
70
4
71
3
72
10
73
6
40
0
40
0
40
0
40
0
40
0.5
40
0.5
40
1
40
1
40
1
40
1
41
1
10
82
20
-10.1092573443589
30
0
41
1
10
72.8333352635665
20
-10.1272651734319
30
0
41
1
10
63.6666683560973
20
-10.1450708633124
30
0
41
1
10
45.3333340003283
20
-10.1805502546373
30
0
41
1
10
36.1666663907284
20
-10.1982345020129
30
0
41
1
10
27
20
-10.216067453966
30
0
0
SPLINE
5
2B1
100
AcDbEntity
8
1
62
256
6
ByLayer
370
13
48
1
60
0
100
AcDbSpline
70
4
71
3
72
8
73
4
40
0
40
0
40
0
40
0
40
1
40
1
40
1
40
1
41
1
10
158.8897645994
20
4.58377726445042
30
0
41
1
10
158.992825128438
20
5.72879857228858
30
0
41
1
10
159.090964000239
20
6.87122960551747
30
0
41
1
10
159.181842572636
20
8.01197403378168
30
0
0
SPLINE
5
2B2
100
AcDbEntity
8
1
62
256
6
ByLayer
370
13
48
1
60
0
100
AcDbSpline
70
4
71
3
72
10
73
6
40
0
40
0
40
0
40
0
40
0.5
40
0.5
40
1
40
1
40
1
40
1
41
1
10
164.292747125835
20
3.43651087486717
30
0
41
1
10
164.289503371123
20
3.43034964803434
30
0
41
1
10
164.289217561789
20
3.42726398604017
30
0
41
1
10
164.295103384958
20
3.42756770285678
30
0
41
1
10
164.301371630159
20
3.43102884291025
30
0
41
1
10
164.310243589722
20
3.43742782568472
30
0
0
SPLINE
5
2B3
100
AcDbEntity
8
1
62
256
6
ByLayer
370
13
48
1
60
0
100
AcDbSpline
70
4
71
3
72
24
73
20
40
0
40
0
40
0
40
0
40
0.249999999999997
40
0.249999999999997
40
0.312499999999997
40
0.312499999999997
40
0.374999999999997
40
0.374999999999997
40
0.499999999999997
40
0.499999999999997
40
0.562499999999998
40
0.562499999999998
40
0.624999999999998
40
0.624999999999998
40
0.749999999999999
40
0.749999999999999
40
0.874999999999999
40
0.874999999999999
40
1
40
1
40
1
40
1
41
1
10
6.64074872886297
20
-11.6905251157053
30
0
41
1
10
6.50489390094106
20
-11.8630628319552
30
0
41
1
10
6.39960631448926
20
-12.036127920913
30
0
41
1
10
6.30793818565172
20
-12.2527924627552
30
0
41
1
10
6.29159917166012
20
-12.2963137574203
30
0
41
1
10
6.26360399284087
20
-12.3821755955751
30
0
41
1
10
6.25189790049464
20
-12.4245925878527
30
0
41
1
10
6.2236527417756
20
-12.5503116096254
30
0
41
1
10
6.21394864803614
20
-12.632088410474
30
0
41
1
10
6.21376003892541
20
-12.7516204287044
30
0
41
1
10
6.2160649395247
20
-12.7909435766508
30
0
41
1
10
6.22544943057375
20
-12.8685301584185
30
0
41
1
10
6.23256606702469
20
-12.906848537207
30
0
41
1
10
6.26063778681595
20
-13.0182956143829
30
0
41
1
10
6.28831595259749
20
-13.0885913962322
30
0
41
1
10
6.36058465209854
20
-13.2216192020303
30
0
41
1
10
6.40522909120776
20
-13.2844072831028
30
0
41
1
10
6.51134774605927
20
-13.4021791077504
30
0
41
1
10
6.57205808309175
20
-13.4563230731466
30
0
41
1
10
6.64022231904792
20
-13.5059061805735
30
0
0
SPLINE
5
2B4
100
AcDbEntity
8
1
62
256
6
ByLayer
370
13
48
1
60
0
100
AcDbSpline
70
4
71
3
72
8
73
4
40
0
40
0
40
0
40
0
40
1
40
1
40
1
40
1
41
1
10
158.439763231907
20
9.96455509828752
30
0
41
1
10
158.269619441285
20
9.97278298930274
30
0
41
1
10
158.099454591525
20
9.98019597220758
30
0
41
1
10
157.929261594278
20
9.98679413082772
30
0
0
SPLINE
5
2B5
100
AcDbEntity
8
1
62
256
6
ByLayer
370
13
48
1
60
0
100
AcDbSpline
70
4
71
3
72
8
73
4
40
0
40
0
40
0
40
0
40
1
40
1
40
1
40
1
41
1
10
156.705338259991
20
1.56969258420733
30
0
41
1
10
156.496830415921
20
1.67087114431294
30
0
41
1
10
156.288593251879
20
1.77309891564172
30
0
41
1
10
156.080620985364
20
1.87635348404495
30
0
0
SPLINE
5
2B6
100
AcDbEntity
8
1
62
256
6
ByLayer
370
13
48
1
60
0
100
AcDbSpline
70
4
71
3
72
16
73
12
40
0
40
0
40
0
40
0
40
0.250000000000026
40
0.250000000000026
40
0.375000000000039
40
0.375000000000039
40
0.500000000000052
40
0.500000000000052
40
0.750000000000026
40
0.750000000000026
40
1
40
1
40
1
40
1
41
1
10
157.729230655583
20
1.11194512854442
30
0
41
1
10
157.851607586522
20
1.06106484824369
30
0
41
1
10
157.977270726746
20
1.02130077344881
30
0
41
1
10
158.170695550376
20
0.978225537141441
30
0
41
1
10
158.236380236997
20
0.966608142890919
30
0
41
1
10
158.367242445436
20
0.949405016295685
30
0
41
1
10
158.432386415559
20
0.943778801489685
30
0
41
1
10
158.627013364141
20
0.935496467641684
30
0
41
1
10
158.756046114998
20
0.941415876575888
30
0
41
1
10
159.010508764434
20
0.975928822564669
30
0
41
1
10
159.133408783707
20
1.00412102062583
30
0
41
1
10
159.251996985707
20
1.04267360560925
30
0
0
SPLINE
5
2B7
100
AcDbEntity
8
1
62
256
6
ByLayer
370
13
48
1
60
0
100
AcDbSpline
70
4
71
3
72
8
73
4
40
0
40
0
40
0
40
0
40
1
40
1
40
1
40
1
41
1
10
158.590395954747
20
3.6493995650024
30
0
41
1
10
158.626032045163
20
3.77965067306053
30
0
41
1
10
158.658408776425
20
3.9103911543919
30
0
41
1
10
158.689124521664
20
4.04138102283542
30
0
0
SPLINE
5
2B8
100
AcDbEntity
8
1
62
256
6
ByLayer
370
13
48
1
60
0
100
AcDbSpline
70
4
71
3
72
8
73
4
40
0
40
0
40
0
40
0
40
1
40
1
40
1
40
1
41
1
10
0
20
3.54400902933392
30
0
41
1
10
0.0316790368941895
20
3.68613527180352
30
0
41
1
10
0.0650361897271239
20
3.82766613327232
30
0
41
1
10
0.0999999999999943
20
3.96862696659682
30
0
0
SPLINE
5
2B9
100
AcDbEntity
8
1
62
256
6
ByLayer
370
13
48
1
60
0
100
AcDbSpline
70
4
71
3
72
14
73
10
40
0
40
0
40
0
40
0
40
0.500000000000006
40
0.500000000000006
40
0.625000000000003
40
0.625000000000003
40
0.75
40
0.75
40
1
40
1
40
1
40
1
41
1
10
22
20
-10.2160881184733
30
0
41
1
10
21.7015160229078
20
-10.2160903870832
30
0
41
1
10
21.410423983424
20
-10.2270622975847
30
0
41
1
10
21.0556428314591
20
-10.2503709805517
30
0
41
1
10
20.9848938575388
20
-10.255516876372
30
0
41
1
10
20.8464675233843
20
-10.2663723384785
30
0
41
1
10
20.7786070964702
20
-10.2720903094086
30
0
41
1
10
20.5790061439261
20
-10.2897196825905
30
0
41
1
10
20.4512250905786
20
-10.3021238592368
30
0
41
1
10
20.3287834936929
20
-10.3139645795107
30
0
0
SPLINE
5
2BA
100
AcDbEntity
8
1
62
256
6
ByLayer
370
13
48
1
60
0
100
AcDbSpline
70
4
71
1
72
4
73
2
40
0
40
0
40
1
40
1
41
1
10
22.4499999999716
20
-5.67003803493486
30
0
41
1
10
22.01
20
-5.67003803493486
30
0
0
SPLINE
5
2BB
100
AcDbEntity
8
1
62
256
6
ByLayer
370
13
48
1
60
0
100
AcDbSpline
70
4
71
3
72
12
73
8
40
0
40
0
40
0
40
0
40
0.25
40
0.25
40
0.5
40
0.5
40
1
40
1
40
1
40
1
41
1
10
159.595338970513
20
4.62091128669036
30
0
41
1
10
159.716798123096
20
4.63572940775302
30
0
41
1
10
159.83487993847
20
4.65483667473421
30
0
41
1
10
160.067168067086
20
4.69841693778827
30
0
41
1
10
160.181333554448
20
4.72291173878392
30
0
41
1
10
160.519993245899
20
4.80177717101841
30
0
41
1
10
160.74074441157
20
4.86137839921841
30
0
41
1
10
160.958820370233
20
4.92469476379728
30
0
0
SPLINE
5
2BC
100
AcDbEntity
8
1
62
256
6
ByLayer
370
13
48
1
60
0
100
AcDbSpline
70
4
71
3
72
8
73
4
40
0
40
0
40
0
40
0
40
1
40
1
40
1
40
1
41
1
10
158.190436587517
20
9.48992102668578
30
0
41
1
10
158.489053765846
20
8.97689530038741
30
0
41
1
10
158.817841800856
20
8.4831218132766
30
0
41
1
10
159.181829461552
20
8.01180945878167
30
0
0
SPLINE
5
2BD
100
AcDbEntity
8
1
62
256
6
ByLayer
370
13
48
1
60
0
100
AcDbSpline
70
4
71
3
72
10
73
6
40
0
40
0
40
0
40
0
40
0.5
40
0.5
40
1
40
1
40
1
40
1
41
1
10
157.929261594278
20
0.393946431780563
30
0
41
1
10
158.167106601202
20
0.300791117973802
30
0
41
1
10
158.409146446343
20
0.226580514313127
30
0
41
1
10
158.901618420714
20
0.116523008193099
30
0
41
1
10
159.152043038148
20
0.0806413736448235
30
0
41
1
10
159.406983984219
20
0.065526830716891
30
0
0
SPLINE
5
2BE
100
AcDbEntity
8
1
62
256
6
ByLayer
370
13
48
1
60
0
100
AcDbSpline
70
4
71
3
72
16
73
12
40
0
40
0
40
0
40
0
40
0.250000000000003
40
0.250000000000003
40
0.375000000000005
40
0.375000000000005
40
0.500000000000006
40
0.500000000000006
40
0.750000000000003
40
0.750000000000003
40
1
40
1
40
1
40
1
41
1
10
22
20
-9.69769384566388
30
0
41
1
10
21.8429655151062
20
-9.69767363002219
30
0
41
1
10
21.6891892729812
20
-9.71249649180317
30
0
41
1
10
21.4630096322515
20
-9.75516114748609
30
0
41
1
10
21.3883680259629
20
-9.77280668155413
30
0
41
1
10
21.2405649378734
20
-9.81484052605953
30
0
41
1
10
21.1671857888211
20
-9.8393493974643
30
0
41
1
10
20.9538993405373
20
-9.92101492376264
30
0
41
1
10
20.8192383452945
20
-9.98659752685293
30
0
41
1
10
20.5630196334033
20
-10.1371461239431
30
0
41
1
10
20.4411345135408
20
-10.2226347978365
30
0
41
1
10
20.3287834936928
20
-10.3139645795107
30
0
0
SPLINE
5
2BF
100
AcDbEntity
8
1
62
256
6
ByLayer
370
13
48
1
60
0
100
AcDbSpline
70
4
71
3
72
8
73
4
40
0
40
0
40
0
40
0
40
1
40
1
40
1
40
1
41
1
10
167.946068935429
20
7.23479321777796
30
0
41
1
10
167.939076535618
20
7.23500862851961
30
0
41
1
10
167.932082446356
20
7.23522412875897
30
0
41
1
10
167.925086563366
20
7.23543972418261
30
0
0
SPLINE
5
2C0
100
AcDbEntity
8
1
62
256
6
ByLayer
370
13
48
1
60
0
100
AcDbSpline
70
4
71
3
72
16
73
12
40
0
40
0
40
0
40
0
40
0.25
40
0.25
40
0.5
40
0.5
40
0.75
40
0.75
40
0.875
40
0.875
40
1
40
1
40
1
40
1
41
1
10
168.109216774725
20
7.00590080434679
30
0
41
1
10
168.107778888979
20
7.03333729882232
30
0
41
1
10
168.103978853069
20
7.06063868727469
30
0
41
1
10
168.091113445501
20
7.11401462517478
30
0
41
1
10
168.082088221585
20
7.14013634655137
30
0
41
1
10
168.056739258114
20
7.18844135528718
30
0
41
1
10
168.040348768338
20
7.2110424659522
30
0
41
1
10
168.007530774486
20
7.23343079814077
30
0
41
1
10
167.995234961116
20
7.23862132858139
30
0
41
1
10
167.97017871762
20
7.24180568541939
30
0
41
1
10
167.957578276813
20
7.23977823758031
30
0
41
1
10
167.946068935429
20
7.23479321777796
30
0
0
SPLINE
5
2C1
100
AcDbEntity
8
1
62
256
6
ByLayer
370
13
48
1
60
0
100
AcDbSpline
70
4
71
3
72
18
73
14
40
0
40
0
40
0
40
0
40
0.12499999999996
40
0.12499999999996
40
0.249999999999921
40
0.249999999999921
40
0.499999999999995
40
0.499999999999995
40
0.750000000000069
40
0.750000000000069
40
0.875000000000034
40
0.875000000000034
40
1
40
1
40
1
40
1
41
1
10
167.345218330086
20
6.09215124505545
30
0
41
1
10
167.332464058959
20
6.10726800077614
30
0
41
1
10
167.315561320296
20
6.11881199957179
30
0
41
1
10
167.278328046486
20
6.13752287851366
30
0
41
1
10
167.258148507735
20
6.14447567403363
30
0
41
1
10
167.195810605712
20
6.16002156908891
30
0
41
1
10
167.151729636311
20
6.16343319281927
30
0
41
1
10
167.065166560704
20
6.15890068672789
30
0
41
1
10
167.022708650099
20
6.15096507924761
30
0
41
1
10
166.965244383143
20
6.12912064101073
30
0
41
1
10
166.947080255998
20
6.12012073878057
30
0
41
1
10
166.915065283917
20
6.09784894054621
30
0
41
1
10
166.901105764639
20
6.08465926901701
30
0
41
1
10
166.891924267273
20
6.06839510986123
30
0
0
SPLINE
5
2C2
100
AcDbEntity
8
1
62
256
6
ByLayer
370
13
48
1
60
0
100
AcDbSpline
70
4
71
3
72
16
73
12
40
0
40
0
40
0
40
0
40
0.125
40
0.125
40
0.25
40
0.25
40
0.5
40
0.5
40
0.75
40
0.75
40
1
40
1
40
1
40
1
41
1
10
167.970888448592
20
6.76120869458035
30
0
41
1
10
167.982847087874
20
6.75745677571209
30
0
41
1
10
167.995666487772
20
6.75675773854459
30
0
41
1
10
168.020252445914
20
6.7625695872423
30
0
41
1
10
168.031917999496
20
6.76904306927614
30
0
41
1
10
168.061864129404
20
6.79439530877789
30
0
41
1
10
168.076119283435
20
6.81889805028288
30
0
41
1
10
168.096273554158
20
6.86958482153105
30
0
41
1
10
168.102518461282
20
6.89651718027906
30
0
41
1
10
168.109727688545
20
6.95091026892402
30
0
41
1
10
168.110654465569
20
6.97846802885275
30
0
41
1
10
168.109216774725
20
7.00590080434679
30
0
0
SPLINE
5
2C3
100
AcDbEntity
8
1
62
256
6
ByLayer
370
13
48
1
60
0
100
AcDbSpline
70
4
71
3
72
8
73
4
40
0
40
0
40
0
40
0
40
1
40
1
40
1
40
1
41
1
10
166.220728460167
20
6.66774055026841
30
0
41
1
10
166.214401123794
20
6.66799118273559
30
0
41
1
10
166.208076322904
20
6.66824175889226
30
0
41
1
10
166.201753906596
20
6.6684922819814
30
0
0
SPLINE
5
2C4
100
AcDbEntity
8
1
62
256
6
ByLayer
370
13
48
1
60
0
100
AcDbSpline
70
4
71
3
72
16
73
12
40
0
40
0
40
0
40
0
40
0.249999999999998
40
0.249999999999998
40
0.499999999999996
40
0.499999999999996
40
0.749999999999995
40
0.749999999999995
40
0.874999999999997
40
0.874999999999997
40
1
40
1
40
1
40
1
41
1
10
167.547697684847
20
7.87408257295698
30
0
41
1
10
167.572075744758
20
7.86160424750298
30
0
41
1
10
167.595334913302
20
7.84706857573178
30
0
41
1
10
167.638506462323
20
7.81380406817709
30
0
41
1
10
167.658479869705
20
7.79509012241144
30
0
41
1
10
167.691711389076
20
7.75282206227536
30
0
41
1
10
167.705325701054
20
7.72903183501015
30
0
41
1
10
167.711645626351
20
7.69090783826957
30
0
41
1
10
167.711083986344
20
7.67795580585357
30
0
41
1
10
167.703153885716
20
7.6546609115448
30
0
41
1
10
167.6958346637
20
7.64446801046836
30
0
41
1
10
167.686271557199
20
7.63647385763028
30
0
0
SPLINE
5
2C5
100
AcDbEntity
8
1
62
256
6
ByLayer
370
13
48
1
60
0
100
AcDbSpline
70
4
71
3
72
18
73
14
40
0
40
0
40
0
40
0
40
0.125
40
0.125
40
0.249999999999999
40
0.249999999999999
40
0.5
40
0.5
40
0.750000000000001
40
0.750000000000001
40
0.875
40
0.875
40
1
40
1
40
1
40
1
41
1
10
166.800596693447
20
7.81102902939557
30
0
41
1
10
166.811429471965
20
7.79581157251437
30
0
41
1
10
166.826643462772
20
7.78417907019383
30
0
41
1
10
166.8609303379
20
7.76531377704009
30
0
41
1
10
166.879878589762
20
7.7582964525086
30
0
41
1
10
166.939244059456
20
7.74259477887591
30
0
41
1
10
166.982305948529
20
7.7391297474087
30
0
41
1
10
167.068868328466
20
7.74366221704153
30
0
41
1
10
167.112343564578
20
7.75165114029244
30
0
41
1
10
167.172783446431
20
7.77365152389805
30
0
41
1
10
167.192184191853
20
7.78271623454597
30
0
41
1
10
167.227135735732
20
7.80514193198698
30
0
41
1
10
167.242788034267
20
7.81842031831778
30
0
41
1
10
167.25389075626
20
7.83478516458979
30
0
0
SPLINE
5
2C6
100
AcDbEntity
8
1
62
256
6
ByLayer
370
13
48
1
60
0
100
AcDbSpline
70
4
71
3
72
18
73
14
40
0
40
0
40
0
40
0
40
0.125000000000032
40
0.125000000000032
40
0.250000000000064
40
0.250000000000064
40
0.500000000000082
40
0.500000000000082
40
0.7500000000001
40
0.7500000000001
40
0.87500000000005
40
0.87500000000005
40
1
40
1
40
1
40
1
41
1
10
166.468037243372
20
6.28536890758298
30
0
41
1
10
166.47425441168
20
6.30315333322142
30
0
41
1
10
166.47536767634
20
6.32286504933791
30
0
41
1
10
166.472202348669
20
6.36327597524573
30
0
41
1
10
166.467820688808
20
6.38374871099774
30
0
41
1
10
166.449358092759
20
6.44440079509076
30
0
41
1
10
166.430010957275
20
6.48398701717679
30
0
41
1
10
166.382787112102
20
6.55700815105658
30
0
41
1
10
166.354929618133
20
6.59042580276028
30
0
41
1
10
166.308013881634
20
6.63082307675842
30
0
41
1
10
166.291444739742
20
6.64267835704868
30
0
41
1
10
166.25688611923
20
6.66071077683316
30
0
41
1
10
166.238911536948
20
6.66702029941936
30
0
41
1
10
166.220728460167
20
6.66774055026841
30
0
0
SPLINE
5
2C7
100
AcDbEntity
8
1
62
256
6
ByLayer
370
13
48
1
60
0
100
AcDbSpline
70
4
71
3
72
8
73
4
40
0
40
0
40
0
40
0
40
1
40
1
40
1
40
1
41
1
10
167.358528312405
20
6.07637758682975
30
0
41
1
10
167.354092577228
20
6.08163380693574
30
0
41
1
10
167.349655934881
20
6.08689165891323
30
0
41
1
10
167.345218330086
20
6.09215124505542
30
0
0
SPLINE
5
2C8
100
AcDbEntity
8
1
62
256
6
ByLayer
370
13
48
1
60
0
100
AcDbSpline
70
4
71
3
72
16
73
12
40
0
40
0
40
0
40
0
40
0.124999999999992
40
0.124999999999992
40
0.249999999999984
40
0.249999999999984
40
0.49999999999999
40
0.49999999999999
40
0.749999999999995
40
0.749999999999995
40
1
40
1
40
1
40
1
41
1
10
167.754501327592
20
6.33457228259437
30
0
41
1
10
167.764840116127
20
6.32762660936919
30
0
41
1
10
167.773230954502
20
6.31819606549368
30
0
41
1
10
167.783531563776
20
6.29584242099119
30
0
41
1
10
167.785410454722
20
6.28302017686264
30
0
41
1
10
167.783173636105
20
6.24491939003596
30
0
41
1
10
167.772061540111
20
6.2194071746315
30
0
41
1
10
167.743428959734
20
6.17390408481347
30
0
41
1
10
167.725512537461
20
6.15319912191703
30
0
41
1
10
167.68607909246
20
6.1156298874433
30
0
41
1
10
167.664460515938
20
6.09873644020757
30
0
41
1
10
167.641523451285
20
6.08378029874658
30
0
0
SPLINE
5
2C9
100
AcDbEntity
8
1
62
256
6
ByLayer
370
13
48
1
60
0
100
AcDbSpline
70
4
71
3
72
8
73
4
40
0
40
0
40
0
40
0
40
1
40
1
40
1
40
1
41
1
10
166.176934393432
20
7.14207680517899
30
0
41
1
10
166.183195988089
20
7.14298682833734
30
0
41
1
10
166.189459948718
20
7.14389715352911
30
0
41
1
10
166.195726425053
20
7.14480779975304
30
0
0
SPLINE
5
2CA
100
AcDbEntity
8
1
62
256
6
ByLayer
370
13
48
1
60
0
100
AcDbSpline
70
4
71
3
72
8
73
4
40
0
40
0
40
0
40
0
40
1
40
1
40
1
40
1
41
1
10
166.40171170466
20
7.55093557763269
30
0
41
1
10
166.398913613654
20
7.55686332116687
30
0
41
1
10
166.396116911347
20
7.56278916368575
30
0
41
1
10
166.393321514432
20
7.56871321716497
30
0
0
SPLINE
5
2CB
100
AcDbEntity
8
1
62
256
6
ByLayer
370
13
48
1
60
0
100
AcDbSpline
70
4
71
3
72
16
73
12
40
0
40
0
40
0
40
0
40
0.25
40
0.25
40
0.5
40
0.5
40
0.75
40
0.75
40
0.875
40
0.875
40
1
40
1
40
1
40
1
41
1
10
166.518485271529
20
7.82014383596362
30
0
41
1
10
166.541425445693
20
7.83510200498515
30
0
41
1
10
166.565545551716
20
7.84811199293097
30
0
41
1
10
166.61564065759
20
7.86926051895588
30
0
41
1
10
166.641635085254
20
7.87745683481194
30
0
41
1
10
166.694279412442
20
7.8858396484415
30
0
41
1
10
166.721314080287
20
7.88621285205997
30
0
41
1
10
166.756645875216
20
7.87371755334658
30
0
41
1
10
166.767251310648
20
7.86718568926929
30
0
41
1
10
166.782741436439
20
7.84961569593418
30
0
41
1
10
166.787524930742
20
7.83868998462498
30
0
41
1
10
166.789294529619
20
7.82690791292961
30
0
0
SPLINE
5
2CC
100
AcDbEntity
8
1
62
256
6
ByLayer
370
13
48
1
60
0
100
AcDbSpline
70
4
71
3
72
8
73
4
40
0
40
0
40
0
40
0
40
1
40
1
40
1
40
1
41
1
10
166.891924267273
20
6.06839510986123
30
0
41
1
10
166.888729295216
20
6.06273551731599
30
0
41
1
10
166.885535840819
20
6.05707778891244
30
0
41
1
10
166.882343813175
20
6.05142181469608
30
0
0
SPLINE
5
2CD
100
AcDbEntity
8
1
62
256
6
ByLayer
370
13
48
1
60
0
100
AcDbSpline
70
4
71
3
72
16
73
12
40
0
40
0
40
0
40
0
40
0.249999999999943
40
0.249999999999943
40
0.499999999999885
40
0.499999999999885
40
0.749999999999828
40
0.749999999999828
40
0.874999999999914
40
0.874999999999914
40
1
40
1
40
1
40
1
41
1
10
167.641523451285
20
6.08378029874658
30
0
41
1
10
167.618583277121
20
6.06882212972505
30
0
41
1
10
167.594334152585
20
6.05580538020547
30
0
41
1
10
167.543654910908
20
6.03462624092029
30
0
41
1
10
167.517211885004
20
6.02640641502668
30
0
41
1
10
167.463071471718
20
6.0179451948471
30
0
41
1
10
167.435001032424
20
6.01751770874711
30
0
41
1
10
167.397096985781
20
6.02987820146043
30
0
41
1
10
167.385453906332
20
6.03635568491916
30
0
41
1
10
167.367631979688
20
6.05380347374984
30
0
41
1
10
167.361567237462
20
6.06466203770066
30
0
41
1
10
167.358528312405
20
6.07637758682972
30
0
0
SPLINE
5
2CE
100
AcDbEntity
8
1
62
256
6
ByLayer
370
13
48
1
60
0
100
AcDbSpline
70
4
71
3
72
16
73
12
40
0
40
0
40
0
40
0
40
0.125000000000072
40
0.125000000000072
40
0.250000000000143
40
0.250000000000143
40
0.500000000000095
40
0.500000000000095
40
0.750000000000048
40
0.750000000000048
40
1
40
1
40
1
40
1
41
1
10
166.201753906596
20
6.6684922819814
30
0
41
1
10
166.191521360618
20
6.66357737237396
30
0
41
1
10
166.180134062258
20
6.66160971590708
30
0
41
1
10
166.157406575071
20
6.66494197200495
30
0
41
1
10
166.146163561638
20
6.67021486691505
30
0
41
1
10
166.116274422633
20
6.69243127285037
30
0
41
1
10
166.100598292611
20
6.71536538222705
30
0
41
1
10
166.076751791684
20
6.76374617074623
30
0
41
1
10
166.068174493576
20
6.78990173063391
30
0
41
1
10
166.055902783435
20
6.84327386661107
30
0
41
1
10
166.052229638932
20
6.8705905548677
30
0
41
1
10
166.050791948089
20
6.89802333036172
30
0
0
SPLINE
5
2CF
100
AcDbEntity
8
1
62
256
6
ByLayer
370
13
48
1
60
0
100
AcDbSpline
70
4
71
3
72
16
73
12
40
0
40
0
40
0
40
0
40
0.124999999999997
40
0.124999999999997
40
0.249999999999994
40
0.249999999999994
40
0.499999999999996
40
0.499999999999996
40
0.749999999999998
40
0.749999999999998
40
1
40
1
40
1
40
1
41
1
10
166.393321514432
20
7.56871321716497
30
0
41
1
10
166.38425112621
20
7.57572536443382
30
0
41
1
10
166.377149094079
20
7.58522345178247
30
0
41
1
10
166.369179774923
20
7.60769927402291
30
0
41
1
10
166.36833618213
20
7.6205757758286
30
0
41
1
10
166.373115974253
20
7.6588098342495
30
0
41
1
10
166.385290236946
20
7.68437771545189
30
0
41
1
10
166.415418390222
20
7.72995918492433
30
0
41
1
10
166.433783409329
20
7.7506876577846
30
0
41
1
10
166.473800504519
20
7.78828748006859
30
0
41
1
10
166.495548206876
20
7.80518769450265
30
0
41
1
10
166.518485271529
20
7.82014383596362
30
0
0
SPLINE
5
2D0
100
AcDbEntity
8
1
62
256
6
ByLayer
370
13
48
1
60
0
100
AcDbSpline
70
4
71
3
72
18
73
14
40
0
40
0
40
0
40
0
40
0.125
40
0.125
40
0.25
40
0.25
40
0.5
40
0.5
40
0.75
40
0.75
40
0.875
40
0.875
40
1
40
1
40
1
40
1
41
1
10
167.925086563366
20
7.23543972418261
30
0
41
1
10
167.904983645586
20
7.23605924527547
30
0
41
1
10
167.885224278843
20
7.24230194304482
30
0
41
1
10
167.847553796989
20
7.2603069746234
30
0
41
1
10
167.829803801552
20
7.27209723405375
30
0
41
1
10
167.779930218969
20
7.31238868803817
30
0
41
1
10
167.751026555994
20
7.34582523477914
30
0
41
1
10
167.703810928778
20
7.41897861973746
30
0
41
1
10
167.685745571713
20
7.45807044304797
30
0
41
1
10
167.670214512228
20
7.51896805839917
30
0
41
1
10
167.66708173542
20
7.53942362458636
30
0
41
1
10
167.666814331254
20
7.57977667973174
30
0
41
1
10
167.66959688662
20
7.59983343169981
30
0
41
1
10
167.677777780161
20
7.61781136686804
30
0
0
SPLINE
5
2D1
100
AcDbEntity
8
1
62
256
6
ByLayer
370
13
48
1
60
0
100
AcDbSpline
70
4
71
3
72
16
73
12
40
0
40
0
40
0
40
0
40
0.249999999999998
40
0.249999999999998
40
0.499999999999997
40
0.499999999999997
40
0.749999999999995
40
0.749999999999995
40
0.874999999999997
40
0.874999999999997
40
1
40
1
40
1
40
1
41
1
10
166.612311037967
20
6.02984156175322
30
0
41
1
10
166.587932978056
20
6.04231988720719
30
0
41
1
10
166.564544790999
20
6.0568487974046
30
0
41
1
10
166.520789106174
20
6.09008269169905
30
0
41
1
10
166.500367100553
20
6.10877312742718
30
0
41
1
10
166.465639495084
20
6.15096278101322
30
0
41
1
10
166.450989411657
20
6.17469872579696
30
0
41
1
10
166.442097234646
20
6.21268791653745
30
0
41
1
10
166.441621230637
20
6.22558556833488
30
0
41
1
10
166.447219530411
20
6.24875825813922
30
0
41
1
10
166.453257504504
20
6.25888401185725
30
0
41
1
10
166.461551284825
20
6.26681164212906
30
0
0
SPLINE
5
2D2
100
AcDbEntity
8
1
62
256
6
ByLayer
370
13
48
1
60
0
100
AcDbSpline
70
4
71
3
72
16
73
12
40
0
40
0
40
0
40
0
40
0.250000000000042
40
0.250000000000042
40
0.500000000000084
40
0.500000000000084
40
0.750000000000127
40
0.750000000000127
40
0.875000000000063
40
0.875000000000063
40
1
40
1
40
1
40
1
41
1
10
166.050791948089
20
6.89802333036172
30
0
41
1
10
166.049354062342
20
6.92545982483725
30
0
41
1
10
166.050150490565
20
6.95300210376735
30
0
41
1
10
166.056781979515
20
7.00739983071685
30
0
41
1
10
166.062578700678
20
7.0342983373198
30
0
41
1
10
166.081243465446
20
7.08491000781044
30
0
41
1
10
166.094145935588
20
7.1090462974534
30
0
41
1
10
166.121871679363
20
7.13460759248053
30
0
41
1
10
166.132519932795
20
7.14100057050996
30
0
41
1
10
166.154774258787
20
7.14666436923139
30
0
41
1
10
166.166236351144
20
7.14589798531944
30
0
41
1
10
166.176934393432
20
7.14207680517899
30
0
0
SPLINE
5
2D3
100
AcDbEntity
8
1
62
256
6
ByLayer
370
13
48
1
60
0
100
AcDbSpline
70
4
71
3
72
16
73
12
40
0
40
0
40
0
40
0
40
0.125000000000082
40
0.125000000000082
40
0.250000000000164
40
0.250000000000164
40
0.50000000000011
40
0.50000000000011
40
0.750000000000055
40
0.750000000000055
40
1
40
1
40
1
40
1
41
1
10
167.265479028849
20
7.85186368506325
30
0
41
1
10
167.267275386761
20
7.86382397896136
30
0
41
1
10
167.272205056111
20
7.87532349451342
30
0
41
1
10
167.288128869201
20
7.894528149525
30
0
41
1
10
167.299045938918
20
7.90215888525918
30
0
41
1
10
167.334986356799
20
7.91824317354184
30
0
41
1
10
167.363367832864
20
7.92090477826653
30
0
41
1
10
167.418090273516
20
7.91814464904692
30
0
41
1
10
167.445256889148
20
7.91272931700146
30
0
41
1
10
167.497837519573
20
7.89697229721344
30
0
41
1
10
167.523322929351
20
7.88655920699
30
0
41
1
10
167.547697684847
20
7.87408257295698
30
0
0
SPLINE
5
2D4
100
AcDbEntity
8
1
62
256
6
ByLayer
370
13
48
1
60
0
100
AcDbSpline
70
4
71
3
72
8
73
4
40
0
40
0
40
0
40
0
40
1
40
1
40
1
40
1
41
1
10
167.25389075626
20
7.83478516458979
30
0
41
1
10
167.257754274934
20
7.84047979417858
30
0
41
1
10
167.261617017703
20
7.84617259849944
30
0
41
1
10
167.265479028849
20
7.85186368506325
30
0
0
SPLINE
5
2D5
100
AcDbEntity
8
1
62
256
6
ByLayer
370
13
48
1
60
0
100
AcDbSpline
70
4
71
3
72
8
73
4
40
0
40
0
40
0
40
0
40
1
40
1
40
1
40
1
41
1
10
167.686271557199
20
7.63647385763028
30
0
41
1
10
167.683440722466
20
7.63025494584471
30
0
41
1
10
167.680609471627
20
7.62403415479952
30
0
41
1
10
167.677777780161
20
7.61781136686807
30
0
0
SPLINE
5
2D6
100
AcDbEntity
8
1
62
256
6
ByLayer
370
13
48
1
60
0
100
AcDbSpline
70
4
71
3
72
18
73
14
40
0
40
0
40
0
40
0
40
0.125000000000041
40
0.125000000000041
40
0.250000000000083
40
0.250000000000083
40
0.500000000000065
40
0.500000000000065
40
0.750000000000047
40
0.750000000000047
40
0.875000000000024
40
0.875000000000024
40
1
40
1
40
1
40
1
41
1
10
166.195726425053
20
7.14480779975304
30
0
41
1
10
166.213737118182
20
7.14742511909051
30
0
41
1
10
166.230908747578
20
7.15554858464893
30
0
41
1
10
166.263503494376
20
7.17717142450891
30
0
41
1
10
166.278685729821
20
7.19065910023522
30
0
41
1
10
166.321074819631
20
7.23568739998427
30
0
41
1
10
166.345299113384
20
7.27183529447149
30
0
41
1
10
166.384637995983
20
7.34938891621337
30
0
41
1
10
166.399747075373
20
7.39076883328266
30
0
41
1
10
166.411783413278
20
7.45308851820204
30
0
41
1
10
166.413996707669
20
7.47397610493138
30
0
41
1
10
166.412921345137
20
7.51435727255353
30
0
41
1
10
166.409752671762
20
7.53390082406975
30
0
41
1
10
166.40171170466
20
7.55093557763269
30
0
0
SPLINE
5
2D7
100
AcDbEntity
8
1
62
256
6
ByLayer
370
13
48
1
60
0
100
AcDbSpline
70
4
71
3
72
8
73
4
40
0
40
0
40
0
40
0
40
1
40
1
40
1
40
1
41
1
10
166.461551284825
20
6.26681164212906
30
0
41
1
10
166.463712136056
20
6.27299544156716
30
0
41
1
10
166.465874098523
20
6.27918115669505
30
0
41
1
10
166.468037243372
20
6.28536890758295
30
0
0
SPLINE
5
2D8
100
AcDbEntity
8
1
62
256
6
ByLayer
370
13
48
1
60
0
100
AcDbSpline
70
4
71
3
72
18
73
14
40
0
40
0
40
0
40
0
40
0.124999999999988
40
0.124999999999988
40
0.249999999999976
40
0.249999999999976
40
0.499999999999947
40
0.499999999999947
40
0.749999999999918
40
0.749999999999918
40
0.874999999999959
40
0.874999999999959
40
1
40
1
40
1
40
1
41
1
10
167.744103318873
20
6.3522446968185
30
0
41
1
10
167.734099023783
20
6.36925033196817
30
0
41
1
10
167.729233922979
20
6.38880124912214
30
0
41
1
10
167.725257706025
20
6.4292566617508
30
0
41
1
10
167.726262336741
20
6.44985503363384
30
0
41
1
10
167.735315307531
20
6.51181990074721
30
0
41
1
10
167.749216329338
20
6.55272749671965
30
0
41
1
10
167.788539102539
20
6.63042821854364
30
0
41
1
10
167.813747894487
20
6.66666094649162
30
0
41
1
10
167.859240068293
20
6.71203047002027
30
0
41
1
10
167.875725778582
20
6.72563845425688
30
0
41
1
10
167.911192467935
20
6.74738793165358
30
0
41
1
10
167.9301291023
20
6.75565073005575
30
0
41
1
10
167.95008859848
20
6.75837247469798
30
0
0
SPLINE
5
2D9
100
AcDbEntity
8
1
62
256
6
ByLayer
370
13
48
1
60
0
100
AcDbSpline
70
4
71
3
72
8
73
4
40
0
40
0
40
0
40
0
40
1
40
1
40
1
40
1
41
1
10
167.95008859848
20
6.75837247469798
30
0
41
1
10
167.957023621432
20
6.75931815796545
30
0
41
1
10
167.963956870433
20
6.76026355907453
30
0
41
1
10
167.970888448592
20
6.76120869458035
30
0
0
SPLINE
5
2DA
100
AcDbEntity
8
1
62
256
6
ByLayer
370
13
48
1
60
0
100
AcDbSpline
70
4
71
3
72
8
73
4
40
0
40
0
40
0
40
0
40
1
40
1
40
1
40
1
41
1
10
167.744103318873
20
6.35224469681833
30
0
41
1
10
167.747569956496
20
6.34635199032769
30
0
41
1
10
167.751035947176
20
6.34046122372612
30
0
41
1
10
167.754501327592
20
6.33457228259437
30
0
0
SPLINE
5
2DB
100
AcDbEntity
8
1
62
256
6
ByLayer
370
13
48
1
60
0
100
AcDbSpline
70
4
71
3
72
16
73
12
40
0
40
0
40
0
40
0
40
0.125000000000078
40
0.125000000000078
40
0.250000000000157
40
0.250000000000157
40
0.500000000000105
40
0.500000000000105
40
0.750000000000052
40
0.750000000000052
40
1
40
1
40
1
40
1
41
1
10
166.882343813175
20
6.05142181469608
30
0
41
1
10
166.881815855576
20
6.03952799484168
30
0
41
1
10
166.878174992469
20
6.02809602276267
30
0
41
1
10
166.864582469498
20
6.00901354548907
30
0
41
1
10
166.854700697934
20
6.00143706743205
30
0
41
1
10
166.821303253559
20
5.98548605074359
30
0
41
1
10
166.793983944194
20
5.98288011181685
30
0
41
1
10
166.74075707644
20
5.98571862069082
30
0
41
1
10
166.714039057642
20
5.99115746270013
30
0
41
1
10
166.662042077406
20
6.00694507029846
30
0
41
1
10
166.636685793464
20
6.01736492772017
30
0
41
1
10
166.612311037967
20
6.02984156175322
30
0
0
SPLINE
5
2DC
100
AcDbEntity
8
1
62
256
6
ByLayer
370
13
48
1
60
0
100
AcDbSpline
70
4
71
3
72
8
73
4
40
0
40
0
40
0
40
0
40
1
40
1
40
1
40
1
41
1
10
166.789294529619
20
7.82690791292958
30
0
41
1
10
166.793060281294
20
7.8216165804761
30
0
41
1
10
166.796827635269
20
7.81632365258133
30
0
41
1
10
166.800596693447
20
7.81102902939557
30
0
0
SPLINE
5
2DD
100
AcDbEntity
8
1
62
256
6
ByLayer
370
18
48
1
60
0
100
AcDbSpline
70
4
71
3
72
8
73
4
40
0
40
0
40
0
40
0
40
1
40
1
40
1
40
1
41
1
10
172.000013525548
20
-2.79961900901608
30
0
41
1
10
172.000328025633
20
-2.82349507111667
30
0
41
1
10
171.998861294842
20
-2.84729540490647
30
0
41
1
10
171.996419196304
20
-2.87105087034627
30
0
0
SPLINE
5
2DE
100
AcDbEntity
8
1
62
256
6
ByLayer
370
18
48
1
60
0
100
AcDbSpline
70
4
71
3
72
12
73
8
40
0
40
0
40
0
40
0
40
0.5
40
0.5
40
0.75
40
0.75
40
1
40
1
40
1
40
1
41
1
10
171.179345588188
20
0.485651260041862
30
0
41
1
10
171.246466996738
20
0.476812107281177
30
0
41
1
10
171.310660578308
20
0.447987762845287
30
0
41
1
10
171.387894761734
20
0.382301402666485
30
0
41
1
10
171.410528988845
20
0.356651913959979
30
0
41
1
10
171.446722543271
20
0.29994812568799
30
0
41
1
10
171.459659368218
20
0.268753777976286
30
0
41
1
10
171.470103014494
20
0.236675255530741
30
0
0
SPLINE
5
2DF
100
AcDbEntity
8
1
62
256
6
ByLayer
370
18
48
1
60
0
100
AcDbSpline
70
4
71
3
72
12
73
8
40
0
40
0
40
0
40
0
40
0.250320945444431
40
0.250320945444431
40
0.50064219152415
40
0.50064219152415
40
1
40
1
40
1
40
1
41
1
10
170.94339300555
20
-6.09115587837178
30
0
41
1
10
170.948427725705
20
-6.09036333638875
30
0
41
1
10
170.953450880597
20
-6.08949446057861
30
0
41
1
10
170.963466924172
20
-6.08760460388751
30
0
41
1
10
170.968460982098
20
-6.08658340184223
30
0
41
1
10
170.983361651622
20
-6.0832991853926
30
0
41
1
10
170.993222977641
20
-6.08080899098718
30
0
41
1
10
171.002994450938
20
-6.07802451008592
30
0
0
SPLINE
5
2E0
100
AcDbEntity
8
1
62
256
6
ByLayer
370
18
48
1
60
0
100
AcDbSpline
70
4
71
1
72
4
73
2
40
0
40
0
40
1
40
1
41
1
10
171.389571266377
20
-5.25046452169511
30
0
41
1
10
171.623147172131
20
-5.68368990348483
30
0
0
SPLINE
5
2E1
100
AcDbEntity
8
1
62
256
6
ByLayer
370
18
48
1
60
0
100
AcDbSpline
70
4
71
2
72
6
73
3
40
0
40
0
40
0
40
1
40
1
40
1
41
1
10
171.33709721761
20
-0.0121920876008801
30
0
41
1
10
171.332313246734
20
0.0178258882236264
30
0
41
1
10
171.323883895287
20
0.0470407014258285
30
0
0
SPLINE
5
2E2
100
AcDbEntity
8
1
62
256
6
ByLayer
370
18
48
1
60
0
100
AcDbSpline
70
4
71
1
72
4
73
2
40
0
40
0
40
1
40
1
41
1
10
171.470103014494
20
0.236733058807886
30
0
41
1
10
171.26884113787
20
0.237810286200471
30
0
0
SPLINE
5
2E3
100
AcDbEntity
8
1
62
256
6
ByLayer
370
18
48
1
60
0
100
AcDbSpline
70
4
71
1
72
4
73
2
40
0
40
0
40
1
40
1
41
1
10
171.589303193345
20
-0.189833591405431
30
0
41
1
10
171.33709721761
20
-0.0121920876009085
30
0
0
SPLINE
5
2E4
100
AcDbEntity
8
1
62
256
6
ByLayer
370
18
48
1
60
0
100
AcDbSpline
70
4
71
1
72
4
73
2
40
0
40
0
40
1
40
1
41
1
10
171.995751741347
20
-2.87098309722575
30
0
41
1
10
171.735230217407
20
-2.64116403389838
30
0
0
SPLINE
5
2E5
100
AcDbEntity
8
1
62
256
6
ByLayer
370
18
48
1
60
0
100
AcDbSpline
70
4
71
1
72
4
73
2
40
0
40
0
40
1
40
1
41
1
10
171.993873480963
20
-2.72839024600251
30
0
41
1
10
171.979786663199
20
-2.63999970899945
30
0
0
SPLINE
5
2E6
100
AcDbEntity
8
1
62
256
6
ByLayer
370
18
48
1
60
0
100
AcDbSpline
70
4
71
2
72
6
73
3
40
0
40
0
40
0
40
1
40
1
40
1
41
1
10
171.735230217407
20
-2.64116403389841
30
0
41
1
10
171.744692915997
20
-2.56973228313299
30
0
41
1
10
171.733351957012
20
-2.49857118267548
30
0
0
SPLINE
5
2E7
100
AcDbEntity
8
1
62
256
6
ByLayer
370
18
48
1
60
0
100
AcDbSpline
70
4
71
1
72
4
73
2
40
0
40
0
40
1
40
1
41
1
10
171.733351957012
20
-2.49857118267551
30
0
41
1
10
171.993873480963
20
-2.72839024600245
30
0
0
SPLINE
5
2E8
100
AcDbEntity
8
1
62
256
6
ByLayer
370
18
48
1
60
0
100
AcDbSpline
70
4
71
1
72
4
73
2
40
0
40
0
40
1
40
1
41
1
10
171.908130517858
20
-3.53241570445311
30
0
41
1
10
171.956206000981
20
-3.16950486071326
30
0
0
SPLINE
5
2E9
100
AcDbEntity
8
1
62
256
6
ByLayer
370
18
48
1
60
0
100
AcDbSpline
70
4
71
1
72
4
73
2
40
0
40
0
40
1
40
1
41
1
10
171.956206000981
20
-3.16950486071326
30
0
41
1
10
171.981918991595
20
-2.97540336629785
30
0
0
SPLINE
5
2EA
100
AcDbEntity
8
1
62
256
6
ByLayer
370
18
48
1
60
0
100
AcDbSpline
70
4
71
1
72
4
73
2
40
0
40
0
40
1
40
1
41
1
10
171.372614545192
20
-5.97264889059477
30
0
41
1
10
171.139038639437
20
-5.5394235088053
30
0
0
SPLINE
5
2EB
100
AcDbEntity
8
1
62
256
6
ByLayer
370
18
48
1
60
0
100
AcDbSpline
70
4
71
1
72
4
73
2
40
0
40
0
40
1
40
1
41
1
10
171.95205431046
20
-2.46598755153732
30
0
41
1
10
171.89868822437
20
-2.13113144094524
30
0
0
SPLINE
5
2EC
100
AcDbEntity
8
1
62
256
6
ByLayer
370
18
48
1
60
0
100
AcDbSpline
70
4
71
1
72
4
73
2
40
0
40
0
40
1
40
1
41
1
10
170.94339300555
20
-6.09111177348245
30
0
41
1
10
170.887480286845
20
-5.60725740015169
30
0
0
SPLINE
5
2ED
100
AcDbEntity
8
1
62
256
6
ByLayer
370
18
48
1
60
0
100
AcDbSpline
70
4
71
2
72
12
73
9
40
0
40
0
40
0
40
0.25
40
0.5
40
0.5
40
0.75
40
0.75
40
0.875
40
1
40
1
40
1
41
1
10
171.26884113787
20
0.237810286200471
30
0
41
1
10
171.254938540133
20
0.285994514640294
30
0
41
1
10
171.200526562505
20
0.371194222526782
30
0
41
1
10
171.16109162258
20
0.405247804787365
30
0
41
1
10
171.123377439487
20
0.437815447563452
30
0
41
1
10
171.075766437703
20
0.459248743964309
30
0
41
1
10
171.053655068494
20
0.469202735947448
30
0
41
1
10
171.004038722649
20
0.483397372391039
30
0
41
1
10
170.978083711565
20
0.486793278792021
30
0
0
SPLINE
5
2EE
100
AcDbEntity
8
1
62
256
6
ByLayer
370
18
48
1
60
0
100
AcDbSpline
70
4
71
3
72
8
73
4
40
0
40
0
40
0
40
0
40
1
40
1
40
1
40
1
41
1
10
171.994326207824
20
-2.72833040806191
30
0
41
1
10
171.997494067928
20
-2.75200466284665
30
0
41
1
10
171.999699096199
20
-2.77574831725966
30
0
41
1
10
172.000013525548
20
-2.79961900901608
30
0
0
SPLINE
5
2EF
100
AcDbEntity
8
1
62
256
6
ByLayer
370
18
48
1
60
0
100
AcDbSpline
70
4
71
1
72
4
73
2
40
0
40
0
40
1
40
1
41
1
10
171.323883895286
20
0.0470407014258569
30
0
41
1
10
171.576089871026
20
-0.130600802380286
30
0
0
SPLINE
5
2F0
100
AcDbEntity
8
1
62
256
6
ByLayer
370
18
48
1
60
0
100
AcDbSpline
70
4
71
1
72
4
73
2
40
0
40
0
40
1
40
1
41
1
10
171.89868822437
20
-2.13113144094524
30
0
41
1
10
171.589303193345
20
-0.189833591405375
30
0
0
SPLINE
5
2F1
100
AcDbEntity
8
1
62
256
6
ByLayer
370
18
48
1
60
0
100
AcDbSpline
70
4
71
3
72
12
73
8
40
0
40
0
40
0
40
0
40
0.500000000000069
40
0.500000000000069
40
0.750000000000034
40
0.750000000000034
40
1
40
1
40
1
40
1
41
1
10
171.623147172131
20
-5.68375469484147
30
0
41
1
10
171.614252882562
20
-5.75046081092165
30
0
41
1
10
171.585254237965
20
-5.81426239899406
30
0
41
1
10
171.51915172324
20
-5.8910115745006
30
0
41
1
10
171.493342055468
20
-5.91350526378753
30
0
41
1
10
171.436283876676
20
-5.94947348289452
30
0
41
1
10
171.404894004814
20
-5.96232892241954
30
0
41
1
10
171.372614545192
20
-5.97270669387228
30
0
0
SPLINE
5
2F2
100
AcDbEntity
8
1
62
256
6
ByLayer
370
18
48
1
60
0
100
AcDbSpline
70
4
71
1
72
4
73
2
40
0
40
0
40
1
40
1
41
1
10
171.979786663199
20
-2.63999970899945
30
0
41
1
10
171.95205431046
20
-2.46598755153732
30
0
0
SPLINE
5
2F3
100
AcDbEntity
8
1
62
256
6
ByLayer
370
18
48
1
60
0
100
AcDbSpline
70
4
71
1
72
4
73
2
40
0
40
0
40
1
40
1
41
1
10
171.981918991595
20
-2.97540336629785
30
0
41
1
10
171.995751741347
20
-2.87098309722572
30
0
0
SPLINE
5
2F4
100
AcDbEntity
8
1
62
256
6
ByLayer
370
18
48
1
60
0
100
AcDbSpline
70
4
71
1
72
4
73
2
40
0
40
0
40
1
40
1
41
1
10
170.978083711565
20
0.486793278792078
30
0
41
1
10
171.179345588188
20
0.485716051398526
30
0
0
SPLINE
5
2F5
100
AcDbEntity
8
1
62
256
6
ByLayer
370
18
48
1
60
0
100
AcDbSpline
70
4
71
1
72
4
73
2
40
0
40
0
40
1
40
1
41
1
10
171.623147172131
20
-5.68368990348481
30
0
41
1
10
171.908130517858
20
-3.53241570445311
30
0
0
SPLINE
5
2F6
100
AcDbEntity
8
1
62
256
6
ByLayer
370
18
48
1
60
0
100
AcDbSpline
70
4
71
2
72
6
73
3
40
0
40
0
40
0
40
1
40
1
40
1
41
1
10
170.887480286845
20
-5.60725740015172
30
0
41
1
10
170.917685090247
20
-5.60250301984831
30
0
41
1
10
170.947081732233
20
-5.59412580697128
30
0
0
SPLINE
5
2F7
100
AcDbEntity
8
1
62
256
6
ByLayer
370
18
48
1
60
0
100
AcDbSpline
70
4
71
2
72
12
73
9
40
0
40
0
40
0
40
0.25
40
0.5
40
0.5
40
0.75
40
0.75
40
0.875
40
1
40
1
40
1
41
1
10
171.139038639437
20
-5.53942350880538
30
0
41
1
10
171.187522759585
20
-5.52560690363447
30
0
41
1
10
171.27325273821
20
-5.47153148364558
30
0
41
1
10
171.307518265068
20
-5.43234046300054
30
0
41
1
10
171.340288604175
20
-5.39485955567841
30
0
41
1
10
171.361855298326
20
-5.34754304506092
30
0
41
1
10
171.371871242525
20
-5.32556844261498
30
0
41
1
10
171.386154224343
20
-5.27625899170732
30
0
41
1
10
171.389571266377
20
-5.25046452169545
30
0
0
SPLINE
5
2F8
100
AcDbEntity
8
1
62
256
6
ByLayer
370
18
48
1
60
0
100
AcDbSpline
70
4
71
3
72
10
73
6
40
0
40
0
40
0
40
0
40
0.623916152470249
40
0.623916152470249
40
1
40
1
40
1
40
1
41
1
10
171.002994450938
20
-6.0780245100859
30
0
41
1
10
171.080340625005
20
-6.05598392951254
30
0
41
1
10
171.157686786664
20
-6.033949475257
30
0
41
1
10
171.281655645897
20
-5.99862422315078
30
0
41
1
10
171.328278338075
20
-5.98533792018523
30
0
41
1
10
171.374901014661
20
-5.97205528289896
30
0
0
SPLINE
5
2F9
100
AcDbEntity
8
1
62
256
6
ByLayer
370
18
48
1
60
0
100
AcDbSpline
70
4
71
3
72
8
73
4
40
0
40
0
40
0
40
0
40
1
40
1
40
1
40
1
41
1
10
171.576089871026
20
-0.130600802380343
30
0
41
1
10
171.581709438638
20
-0.150077344458481
30
0
41
1
10
171.586113879411
20
-0.169821607466815
30
0
41
1
10
171.589303193345
20
-0.189833591405375
30
0
0
SPLINE
5
2FA
100
AcDbEntity
8
1
62
256
6
ByLayer
370
13
48
1
60
0
100
AcDbSpline
70
4
71
3
72
10
73
6
40
0
40
0
40
0
40
0
40
0.5
40
0.5
40
1
40
1
40
1
40
1
41
1
10
162.936792225741
20
9.96517498305357
30
0
41
1
10
162.965476464157
20
9.96625686725042
30
0
41
1
10
162.992499231428
20
9.96590243852592
30
0
41
1
10
163.046578826287
20
9.96533188867454
30
0
41
1
10
163.073734717465
20
9.96512817190032
30
0
41
1
10
163.100828184211
20
9.96488058787676
30
0
0
SPLINE
5
2FB
100
AcDbEntity
8
1
62
256
6
ByLayer
370
13
48
1
60
0
100
AcDbSpline
70
4
71
3
72
8
73
4
40
0
40
0
40
0
40
0
40
1
40
1
40
1
40
1
41
1
10
170.876946054949
20
10.5305804701104
30
0
41
1
10
170.82715879365
20
10.5305979865117
30
0
41
1
10
170.777372047078
20
10.5301722355099
30
0
41
1
10
170.727585741801
20
10.5293664550735
30
0
0
SPLINE
5
2FC
100
AcDbEntity
8
1
62
256
6
ByLayer
370
13
48
1
60
0
100
AcDbSpline
70
4
71
1
72
4
73
2
40
0
40
0
40
1
40
1
41
1
10
162.654520236018
20
3.7966697210536
30
0
41
1
10
162.624489056897
20
3.79582667565799
30
0
0
SPLINE
5
2FD
100
AcDbEntity
8
1
62
256
6
ByLayer
370
13
48
1
60
0
100
AcDbSpline
70
4
71
3
72
8
73
4
40
0
40
0
40
0
40
0
40
1
40
1
40
1
40
1
41
1
10
171.055351763602
20
3.92225666508622
30
0
41
1
10
171.004415209748
20
3.92107583554207
30
0
41
1
10
170.95624854955
20
3.92168118060977
30
0
41
1
10
170.908168788088
20
3.9222382008605
30
0
0
SPLINE
5
2FE
100
AcDbEntity
8
1
62
256
6
ByLayer
370
13
48
1
60
0
100
AcDbSpline
70
4
71
3
72
22
73
18
40
0
40
0
40
0
40
0
40
0.124999999999978
40
0.124999999999978
40
0.249999999999957
40
0.249999999999957
40
0.374999999999935
40
0.374999999999935
40
0.499999999999913
40
0.499999999999913
40
0.749999999999956
40
0.749999999999956
40
0.812499999999967
40
0.812499999999967
40
0.874999999999978
40
0.874999999999978
40
1
40
1
40
1
40
1
41
1
10
171.509841711292
20
10.1074825564852
30
0
41
1
10
171.505008263151
20
10.1429044694072
30
0
41
1
10
171.496249639558
20
10.176949350993
30
0
41
1
10
171.471102293055
20
10.2423623202263
30
0
41
1
10
171.454751738492
20
10.2742208178122
30
0
41
1
10
171.415711815732
20
10.3332171986958
30
0
41
1
10
171.393314356214
20
10.3602654606103
30
0
41
1
10
171.343006917792
20
10.4096685744507
30
0
41
1
10
171.314846720745
20
10.4318695674258
30
0
41
1
10
171.225997062092
20
10.4882379791984
30
0
41
1
10
171.158136385117
20
10.5133150429822
30
0
41
1
10
171.071545458334
20
10.5264348324439
30
0
41
1
10
171.054075858739
20
10.5281963205995
30
0
41
1
10
171.01878554191
20
10.5297192978179
30
0
41
1
10
171.001020602096
20
10.5297005261018
30
0
41
1
10
170.947845528032
20
10.5303085627461
30
0
41
1
10
170.912395648102
20
10.5305679980586
30
0
41
1
10
170.876946054949
20
10.5305804701104
30
0
0
SPLINE
5
2FF
100
AcDbEntity
8
1
62
256
6
ByLayer
370
13
48
1
60
0
100
AcDbSpline
70
4
71
2
72
6
73
3
40
0
40
0
40
0
40
1
40
1
40
1
41
0.999375529729891
10
162.09281127189
20
6.78167167806708
30
0
41
0.999636859374546
10
162.093152116995
20
6.77690433082398
30
0
41
1
10
162.093588650012
20
6.77214481564997
30
0
0
SPLINE
5
300
100
AcDbEntity
8
1
62
256
6
ByLayer
370
13
48
1
60
0
100
AcDbSpline
70
4
71
3
72
18
73
14
40
0
40
0
40
0
40
0
40
0.499999999999971
40
0.499999999999971
40
0.749999999999943
40
0.749999999999943
40
0.781249999999936
40
0.781249999999936
40
0.812499999999929
40
0.812499999999929
40
0.874999999999943
40
0.874999999999943
40
1
40
1
40
1
40
1
41
1
10
167.219890145908
20
4.50092406124912
30
0
41
1
10
167.701562992577
20
4.52616746548398
30
0
41
1
10
168.183237373996
20
4.5513810476927
30
0
41
1
10
168.905746253345
20
4.58925472136659
30
0
41
1
10
169.146578373636
20
4.60196143694427
30
0
41
1
10
169.417522060865
20
4.6161078045366
30
0
41
1
10
169.44762828447
20
4.61765266003798
30
0
41
1
10
169.507835491155
20
4.62084555040002
30
0
41
1
10
169.537942902019
20
4.62236703026934
30
0
41
1
10
169.628429990549
20
4.62368566394906
30
0
41
1
10
169.688541447575
20
4.62108084172735
30
0
41
1
10
169.866840674189
20
4.60346304299662
30
0
41
1
10
169.983649039754
20
4.57889588549517
30
0
41
1
10
170.098284317926
20
4.54078832940843
30
0
0
SPLINE
5
301
100
AcDbEntity
8
1
62
256
6
ByLayer
370
13
48
1
60
0
100
AcDbSpline
70
4
71
3
72
22
73
18
40
0
40
0
40
0
40
0
40
0.124999999999974
40
0.124999999999974
40
0.187499999999974
40
0.187499999999974
40
0.249999999999974
40
0.249999999999974
40
0.281249999999974
40
0.281249999999974
40
0.312499999999974
40
0.312499999999974
40
0.374999999999974
40
0.374999999999974
40
0.499999999999974
40
0.499999999999974
40
1
40
1
40
1
40
1
41
1
10
169.992579546805
20
9.87448862134897
30
0
41
1
10
169.88416874045
20
9.80229695572211
30
0
41
1
10
169.768103984683
20
9.74493003421568
30
0
41
1
10
169.582369463849
20
9.68141981754994
30
0
41
1
10
169.518907835715
20
9.66424693483307
30
0
41
1
10
169.392092289066
20
9.63851951940975
30
0
41
1
10
169.328289895786
20
9.62974703153617
30
0
41
1
10
169.231975027601
20
9.62292572320527
30
0
41
1
10
169.199783735872
20
9.62154703822824
30
0
41
1
10
169.135458115832
20
9.61819910041783
30
0
41
1
10
169.103296125877
20
9.61651662949578
30
0
41
1
10
169.006811087862
20
9.61145955576919
30
0
41
1
10
168.94248858244
20
9.60807932717435
30
0
41
1
10
168.749519550547
20
9.59795435465045
30
0
41
1
10
168.620872502898
20
9.59121493390998
30
0
41
1
10
167.977637371658
20
9.55751770948896
30
0
41
1
10
167.463050154367
20
9.53054299075254
30
0
41
1
10
166.948462605455
20
9.50357460006731
30
0
0
SPLINE
5
302
100
AcDbEntity
8
1
62
256
6
ByLayer
370
13
48
1
60
0
100
AcDbSpline
70
4
71
3
72
18
73
14
40
0
40
0
40
0
40
0
40
0.500000000000057
40
0.500000000000057
40
0.7500000000001
40
0.7500000000001
40
0.781250000000102
40
0.781250000000102
40
0.812500000000104
40
0.812500000000104
40
0.875000000000079
40
0.875000000000079
40
1
40
1
40
1
40
1
41
1
10
166.962920600755
20
9.40419507689415
30
0
41
1
10
166.481247754087
20
9.3789516726593
30
0
41
1
10
165.999573372668
20
9.35373809045061
30
0
41
1
10
165.277064493318
20
9.31586441677672
30
0
41
1
10
165.036232373028
20
9.30315770119904
30
0
41
1
10
164.765288685799
20
9.28901133360668
30
0
41
1
10
164.735182462194
20
9.2874664781053
30
0
41
1
10
164.674975255509
20
9.28427358774329
30
0
41
1
10
164.644867844644
20
9.28275210787396
30
0
41
1
10
164.554380756115
20
9.28143347419424
30
0
41
1
10
164.494269299088
20
9.28403829641596
30
0
41
1
10
164.315970072474
20
9.30165609514671
30
0
41
1
10
164.19916170691
20
9.32622325264819
30
0
41
1
10
164.084526428738
20
9.36433080873488
30
0
0
SPLINE
5
303
100
AcDbEntity
8
1
62
256
6
ByLayer
370
13
48
1
60
0
100
AcDbSpline
70
4
71
2
72
6
73
3
40
0
40
0
40
0
40
1
40
1
40
1
41
1
10
171.949955871483
20
7.28766579890831
30
0
41
0.997409491337352
10
171.94947781983
20
7.32372213246428
30
0
41
1
10
171.943852926427
20
7.35933876025953
30
0
0
SPLINE
5
304
100
AcDbEntity
8
1
62
256
6
ByLayer
370
13
48
1
60
0
100
AcDbSpline
70
4
71
3
72
11
73
7
40
0
40
0
40
0
40
0
40
0.25
40
0.5
40
0.75
40
1
40
1
40
1
40
1
41
1
10
163.43677620551
20
3.37478582246527
30
0
41
1
10
163.450082116677
20
3.37500558049408
30
0
41
1
10
163.476689697665
20
3.37571145346436
30
0
41
1
10
163.516570722888
20
3.37756086229607
30
0
41
1
10
163.556456564455
20
3.379278885936
30
0
41
1
10
163.58304659027
20
3.38043883338042
30
0
41
1
10
163.596341603299
20
3.38101880710789
30
0
0
SPLINE
5
305
100
AcDbEntity
8
1
62
256
6
ByLayer
370
13
48
1
60
0
100
AcDbSpline
70
4
71
2
72
6
73
3
40
0
40
0
40
0
40
1
40
1
40
1
41
1
10
162.214406075828
20
6.61648647863043
30
0
41
0.997409491337352
10
162.21488412748
20
6.58043014507451
30
0
41
1
10
162.220509020883
20
6.54481351727924
30
0
0
SPLINE
5
306
100
AcDbEntity
8
1
62
256
6
ByLayer
370
13
48
1
60
0
100
AcDbSpline
70
4
71
3
72
22
73
18
40
0
40
0
40
0
40
0
40
0.124999999999997
40
0.124999999999997
40
0.187499999999995
40
0.187499999999995
40
0.249999999999993
40
0.249999999999993
40
0.281249999999993
40
0.281249999999993
40
0.312499999999992
40
0.312499999999992
40
0.37499999999999
40
0.37499999999999
40
0.499999999999987
40
0.499999999999987
40
1
40
1
40
1
40
1
41
1
10
164.171782400505
20
4.02966365618977
30
0
41
1
10
164.280193206861
20
4.10185532181663
30
0
41
1
10
164.396257962628
20
4.15922224332306
30
0
41
1
10
164.581992483462
20
4.22273245998881
30
0
41
1
10
164.645454111596
20
4.2399053427057
30
0
41
1
10
164.772269658245
20
4.26563275812899
30
0
41
1
10
164.836072051524
20
4.27440524600257
30
0
41
1
10
164.93238691971
20
4.2812265543335
30
0
41
1
10
164.964578211438
20
4.28260523931053
30
0
41
1
10
165.028903831478
20
4.28595317712094
30
0
41
1
10
165.061065821434
20
4.28763564804299
30
0
41
1
10
165.157550859448
20
4.29269272176958
30
0
41
1
10
165.22187336487
20
4.29607295036442
30
0
41
1
10
165.414842396764
20
4.30619792288829
30
0
41
1
10
165.543489444413
20
4.31293734362879
30
0
41
1
10
166.186724575653
20
4.34663456804978
30
0
41
1
10
166.701311792943
20
4.37360928678621
30
0
41
1
10
167.215899341856
20
4.40057767747143
30
0
0
SPLINE
5
307
100
AcDbEntity
8
1
62
256
6
ByLayer
370
13
48
1
60
0
100
AcDbSpline
70
4
71
3
72
11
73
7
40
0
40
0
40
0
40
0
40
0.25
40
0.5
40
0.75
40
1
40
1
40
1
40
1
41
1
10
170.727585741801
20
10.5293664550735
30
0
41
1
10
170.714279830633
20
10.5291466970447
30
0
41
1
10
170.687672249645
20
10.5284408240744
30
0
41
1
10
170.647791224423
20
10.5265914152427
30
0
41
1
10
170.607905382855
20
10.5248733916027
30
0
41
1
10
170.58131535704
20
10.5237134441584
30
0
41
1
10
170.568020344012
20
10.5231334704308
30
0
0
SPLINE
5
308
100
AcDbEntity
8
1
62
256
6
ByLayer
370
13
48
1
60
0
100
AcDbSpline
70
4
71
3
72
10
73
6
40
0
40
0
40
0
40
0
40
0.5
40
0.5
40
1
40
1
40
1
40
1
41
1
10
170.908168788088
20
3.9222382008605
30
0
41
1
10
170.881604792223
20
3.92126743386729
30
0
41
1
10
170.857484788206
20
3.92177398996768
30
0
41
1
10
170.809122929624
20
3.9226441936799
30
0
41
1
10
170.78478362111
20
3.92299552129671
30
0
41
1
10
170.760529482699
20
3.92339190821292
30
0
0
SPLINE
5
309
100
AcDbEntity
8
1
62
256
6
ByLayer
370
13
48
1
60
0
100
AcDbSpline
70
4
71
1
72
4
73
2
40
0
40
0
40
1
40
1
41
1
10
163.100828184211
20
9.96488058787676
30
0
41
1
10
162.965428270679
20
10.1246985030727
30
0
0
SPLINE
5
30A
100
AcDbEntity
8
1
62
256
6
ByLayer
370
13
48
1
60
0
100
AcDbSpline
70
4
71
3
72
8
73
4
40
0
40
0
40
0
40
0
40
1
40
1
40
1
40
1
41
1
10
162.092811271891
20
6.78167167805643
30
0
41
1
10
162.089604263103
20
6.79797730773822
30
0
41
1
10
162.087144496065
20
6.8168560880458
30
0
41
1
10
162.087384935857
20
6.84012352593498
30
0
0
SPLINE
5
30B
100
AcDbEntity
8
1
62
256
6
ByLayer
370
13
48
1
60
0
100
AcDbSpline
70
4
71
3
72
8
73
4
40
0
40
0
40
0
40
0
40
1
40
1
40
1
40
1
41
1
10
162.102331444751
20
6.60001595841734
30
0
41
1
10
162.104269425683
20
6.5836438218038
30
0
41
1
10
162.10691375254
20
6.56477471386631
30
0
41
1
10
162.111218407419
20
6.54174547429551
30
0
0
SPLINE
5
30C
100
AcDbEntity
8
1
62
256
6
ByLayer
370
13
48
1
60
0
100
AcDbSpline
70
4
71
1
72
4
73
2
40
0
40
0
40
1
40
1
41
1
10
162.806085464529
20
10.1142182169517
30
0
41
1
10
162.936792225741
20
9.96517498305357
30
0
0
SPLINE
5
30D
100
AcDbEntity
8
1
62
256
6
ByLayer
370
13
48
1
60
0
100
AcDbSpline
70
4
71
3
72
22
73
18
40
0
40
0
40
0
40
0
40
0.124999999999923
40
0.124999999999923
40
0.187499999999897
40
0.187499999999897
40
0.24999999999987
40
0.24999999999987
40
0.28124999999987
40
0.28124999999987
40
0.31249999999987
40
0.31249999999987
40
0.37499999999987
40
0.37499999999987
40
0.499999999999896
40
0.499999999999896
40
1
40
1
40
1
40
1
41
1
10
170.056856869254
20
9.7916226152945
30
0
41
1
10
169.945644922225
20
9.7175656465879
30
0
41
1
10
169.827597593188
20
9.65864887782175
30
0
41
1
10
169.640574678402
20
9.59231698093535
30
0
41
1
10
169.576091874231
20
9.57383405588607
30
0
41
1
10
169.446856432131
20
9.54529615469136
30
0
41
1
10
169.38194609429
20
9.53515103195403
30
0
41
1
10
169.284159678154
20
9.52586519404886
30
0
41
1
10
169.251467946029
20
9.52412650128102
30
0
41
1
10
169.186081512004
20
9.52069096858204
30
0
41
1
10
169.153386387129
20
9.51900008959663
30
0
41
1
10
169.05530518723
20
9.5138686185291
30
0
41
1
10
168.989918901574
20
9.5104309948679
30
0
41
1
10
168.793758790233
20
9.5001358016732
30
0
41
1
10
168.662984543024
20
9.49328417265184
30
0
41
1
10
168.009113059096
20
9.45902952092649
30
0
41
1
10
167.486017035668
20
9.43160939939878
30
0
41
1
10
166.962920600755
20
9.40419507689413
30
0
0
SPLINE
5
30E
100
AcDbEntity
8
1
62
256
6
ByLayer
370
13
48
1
60
0
100
AcDbSpline
70
4
71
2
72
6
73
3
40
0
40
0
40
0
40
1
40
1
40
1
41
1
10
162.10608940186
20
6.67761785581817
30
0
41
0.997409491337352
10
162.101655717642
20
6.64374012643789
30
0
41
1
10
162.102108736027
20
6.60957188981507
30
0
0
SPLINE
5
30F
100
AcDbEntity
8
1
62
256
6
ByLayer
370
13
48
1
60
0
100
AcDbSpline
70
4
71
3
72
10
73
6
40
0
40
0
40
0
40
0
40
0.500000000000001
40
0.500000000000001
40
1
40
1
40
1
40
1
41
1
10
164.00284334958
20
3.87631205977874
30
0
41
1
10
163.999163134238
20
3.87611918786539
30
0
41
1
10
163.982469213195
20
3.88637599530318
30
0
41
1
10
163.933032660546
20
3.92078210323194
30
0
41
1
10
163.900288556755
20
3.94483651712935
30
0
41
1
10
163.868916645535
20
3.96853774230087
30
0
0
SPLINE
5
310
100
AcDbEntity
8
1
62
256
6
ByLayer
370
13
48
1
60
0
100
AcDbSpline
70
4
71
3
72
22
73
18
40
0
40
0
40
0
40
0
40
0.124999999999941
40
0.124999999999941
40
0.187499999999912
40
0.187499999999912
40
0.249999999999882
40
0.249999999999882
40
0.281249999999881
40
0.281249999999881
40
0.312499999999879
40
0.312499999999879
40
0.374999999999876
40
0.374999999999876
40
0.499999999999895
40
0.499999999999895
40
1
40
1
40
1
40
1
41
1
10
164.12595387741
20
4.11349652284881
30
0
41
1
10
164.237165824439
20
4.18755349155546
30
0
41
1
10
164.355213153475
20
4.24647026032156
30
0
41
1
10
164.542236068262
20
4.31280215720793
30
0
41
1
10
164.606718872433
20
4.33128508225724
30
0
41
1
10
164.735954314533
20
4.35982298345195
30
0
41
1
10
164.800864652374
20
4.36996810618928
30
0
41
1
10
164.89865106851
20
4.37925394409442
30
0
41
1
10
164.931342800635
20
4.38099263686229
30
0
41
1
10
164.99672923466
20
4.38442816956126
30
0
41
1
10
165.029424359535
20
4.38611904854668
30
0
41
1
10
165.127505559434
20
4.3912505196142
30
0
41
1
10
165.19289184509
20
4.3946881432754
30
0
41
1
10
165.389051956431
20
4.40498333647011
30
0
41
1
10
165.51982620364
20
4.41183496549144
30
0
41
1
10
166.173697687568
20
4.44608961721679
30
0
41
1
10
166.696793710996
20
4.47350973874453
30
0
41
1
10
167.219890145908
20
4.50092406124915
30
0
0
SPLINE
5
311
100
AcDbEntity
8
1
62
256
6
ByLayer
370
13
48
1
60
0
100
AcDbSpline
70
4
71
1
72
4
73
2
40
0
40
0
40
1
40
1
41
1
10
162.102108736027
20
6.60957188981507
30
0
41
1
10
162.214406075828
20
6.61648647863043
30
0
0
SPLINE
5
312
100
AcDbEntity
8
1
62
256
6
ByLayer
370
13
48
1
60
0
100
AcDbSpline
70
4
71
2
72
6
73
3
40
0
40
0
40
0
40
1
40
1
40
1
41
1
10
162.214406075827
20
6.61648647863043
30
0
41
0.997409491337352
10
162.213928024175
20
6.65254281218526
30
0
41
1
10
162.218606708614
20
6.68829258540376
30
0
0
SPLINE
5
313
100
AcDbEntity
8
1
62
256
6
ByLayer
370
13
48
1
60
0
100
AcDbSpline
70
4
71
2
72
6
73
3
40
0
40
0
40
0
40
1
40
1
40
1
41
1
10
171.949955871483
20
7.28766579890831
30
0
41
0.997409491337352
10
171.950433923136
20
7.25160946535351
30
0
41
1
10
171.945755238696
20
7.21585969213498
30
0
0
SPLINE
5
314
100
AcDbEntity
8
1
62
256
6
ByLayer
370
13
48
1
60
0
100
AcDbSpline
70
4
71
3
72
10
73
6
40
0
40
0
40
0
40
0
40
0.5
40
0.5
40
1
40
1
40
1
40
1
41
1
10
170.152294198054
20
10.0273567874577
30
0
41
1
10
170.148613982712
20
10.0271639155444
30
0
41
1
10
170.158110082271
20
10.0165298862669
30
0
41
1
10
170.197369014697
20
9.98159039186393
30
0
41
1
10
170.227175791849
20
9.95738203920038
30
0
41
1
10
170.258547703069
20
9.93368081402878
30
0
0
SPLINE
5
315
100
AcDbEntity
8
1
62
256
6
ByLayer
370
13
48
1
60
0
100
AcDbSpline
70
4
71
1
72
4
73
2
40
0
40
0
40
1
40
1
41
1
10
162.220509020883
20
6.54481351727924
30
0
41
1
10
162.111218407419
20
6.54174547429551
30
0
0
SPLINE
5
316
100
AcDbEntity
8
1
62
256
6
ByLayer
370
13
48
1
60
0
100
AcDbSpline
70
4
71
3
72
18
73
14
40
0
40
0
40
0
40
0
40
0.499999999999899
40
0.499999999999899
40
0.749999999999833
40
0.749999999999833
40
0.781249999999843
40
0.781249999999843
40
0.812499999999853
40
0.812499999999853
40
0.874999999999902
40
0.874999999999902
40
1
40
1
40
1
40
1
41
1
10
166.948462605454
20
9.50357460006734
30
0
41
1
10
166.474760147625
20
9.47874890621156
30
0
41
1
10
166.001056311765
20
9.45395050021278
30
0
41
1
10
165.290502770013
20
9.41670751728765
30
0
41
1
10
165.053655001128
20
9.40422044664669
30
0
41
1
10
164.787195810625
20
9.39028870589695
30
0
41
1
10
164.757589115858
20
9.38874325161513
30
0
41
1
10
164.698375414556
20
9.38565899043041
30
0
41
1
10
164.668782403515
20
9.38382177672031
30
0
41
1
10
164.579898824303
20
9.38053922924266
30
0
41
1
10
164.520380231774
20
9.38178014844891
30
0
41
1
10
164.34228423322
20
9.39632099799462
30
0
41
1
10
164.22410376906
20
9.41970279761657
30
0
41
1
10
164.106554166103
20
9.45877914618103
30
0
0
SPLINE
5
317
100
AcDbEntity
8
1
62
256
6
ByLayer
370
13
48
1
60
0
100
AcDbSpline
70
4
71
2
72
6
73
3
40
0
40
0
40
0
40
1
40
1
40
1
41
0.999375529729891
10
162.102331444751
20
6.60001595840659
30
0
41
0.999636859374546
10
162.10217209919
20
6.60479281763777
30
0
41
1
10
162.102108736027
20
6.60957188981507
30
0
0
SPLINE
5
318
100
AcDbEntity
8
1
62
256
6
ByLayer
370
13
48
1
60
0
100
AcDbSpline
70
4
71
3
72
18
73
14
40
0
40
0
40
0
40
0
40
0.499999999999899
40
0.499999999999899
40
0.749999999999833
40
0.749999999999833
40
0.781249999999843
40
0.781249999999843
40
0.812499999999853
40
0.812499999999853
40
0.874999999999902
40
0.874999999999902
40
1
40
1
40
1
40
1
41
1
10
167.215899341856
20
4.4005776774714
30
0
41
1
10
167.689601799686
20
4.42540337132718
30
0
41
1
10
168.163305635546
20
4.45020177732599
30
0
41
1
10
168.873859177297
20
4.48744476025109
30
0
41
1
10
169.110706946182
20
4.49993183089205
30
0
41
1
10
169.377166136685
20
4.51386357164179
30
0
41
1
10
169.406772831453
20
4.51540902592364
30
0
41
1
10
169.465986532754
20
4.51849328710836
30
0
41
1
10
169.495579543796
20
4.52033050081843
30
0
41
1
10
169.584463123008
20
4.52361304829608
30
0
41
1
10
169.643981715537
20
4.52237212908986
30
0
41
1
10
169.82207771409
20
4.50783127954412
30
0
41
1
10
169.940258178251
20
4.48444947992223
30
0
41
1
10
170.057807781207
20
4.44537313135771
30
0
0
SPLINE
5
319
100
AcDbEntity
8
1
62
256
6
ByLayer
370
13
48
1
60
0
100
AcDbSpline
70
4
71
1
72
4
73
2
40
0
40
0
40
1
40
1
41
1
10
170.804812502181
20
3.76092824245063
30
0
41
1
10
170.908168788088
20
3.9222382008605
30
0
0
SPLINE
5
31A
100
AcDbEntity
8
1
62
256
6
ByLayer
370
13
48
1
60
0
100
AcDbSpline
70
4
71
3
72
24
73
20
40
0
40
0
40
0
40
0
40
0.250000000000046
40
0.250000000000046
40
0.37500000000001
40
0.37500000000001
40
0.499999999999975
40
0.499999999999975
40
0.62499999999994
40
0.62499999999994
40
0.749999999999905
40
0.749999999999905
40
0.812499999999815
40
0.812499999999815
40
0.843749999999846
40
0.843749999999846
40
0.874999999999877
40
0.874999999999877
40
1
40
1
40
1
40
1
41
1
10
171.458537903448
20
4.01453908132478
30
0
41
1
10
171.436843885736
20
4.00226419078516
30
0
41
1
10
171.412562315647
20
3.98978916774999
30
0
41
1
10
171.370435122034
20
3.97155909140682
30
0
41
1
10
171.355449060021
20
3.96557723458668
30
0
41
1
10
171.322549040133
20
3.9539077653333
30
0
41
1
10
171.304942633635
20
3.94833232958388
30
0
41
1
10
171.26620603301
20
3.93836497292759
30
0
41
1
10
171.245419016218
20
3.93411338424363
30
0
41
1
10
171.205010690739
20
3.92869738145441
30
0
41
1
10
171.185656777185
20
3.92761414914395
30
0
41
1
10
171.158174581582
20
3.92675934394012
30
0
41
1
10
171.149527393753
20
3.9268265861339
30
0
41
1
10
171.135155271941
20
3.92597613073065
30
0
41
1
10
171.13007255628
20
3.92549527818784
30
0
41
1
10
171.120105739033
20
3.92466780405255
30
0
41
1
10
171.115338021566
20
3.92439952523586
30
0
41
1
10
171.09183834028
20
3.9232866833174
30
0
41
1
10
171.073453641204
20
3.92267630933498
30
0
41
1
10
171.055351763602
20
3.92225666508622
30
0
0
SPLINE
5
31B
100
AcDbEntity
8
1
62
256
6
ByLayer
370
13
48
1
60
0
100
AcDbSpline
70
4
71
3
72
10
73
6
40
0
40
0
40
0
40
0
40
0.5
40
0.5
40
1
40
1
40
1
40
1
41
1
10
164.034456495944
20
3.96618332432388
30
0
41
1
10
164.030774723208
20
3.96599037079099
30
0
41
1
10
164.010411179082
20
3.96617714498845
30
0
41
1
10
163.949081101211
20
3.96709167331443
30
0
41
1
10
163.908174463195
20
3.9678067582266
30
0
41
1
10
163.868916645535
20
3.96853774230087
30
0
0
SPLINE
5
31C
100
AcDbEntity
8
1
62
256
6
ByLayer
370
13
48
1
60
0
100
AcDbSpline
70
4
71
3
72
11
73
7
40
0
40
0
40
0
40
0
40
0.25
40
0.5
40
0.75
40
1
40
1
40
1
40
1
41
1
10
162.806085464529
20
10.1142182169517
30
0
41
1
10
162.819341455492
20
10.1153905092272
30
0
41
1
10
162.845877061184
20
10.1174697526548
30
0
41
1
10
162.885732929841
20
10.1197991773582
30
0
41
1
10
162.925579854966
20
10.1222597709567
30
0
41
1
10
162.952145465361
20
10.1238855923625
30
0
41
1
10
162.965428270679
20
10.1246985030727
30
0
0
SPLINE
5
31D
100
AcDbEntity
8
1
62
256
6
ByLayer
370
13
48
1
60
0
100
AcDbSpline
70
4
71
1
72
4
73
2
40
0
40
0
40
1
40
1
41
1
10
170.760529482699
20
3.92339190821292
30
0
41
1
10
170.64546969603
20
3.75044795632959
30
0
0
SPLINE
5
31E
100
AcDbEntity
8
1
62
256
6
ByLayer
370
13
48
1
60
0
100
AcDbSpline
70
4
71
2
72
6
73
3
40
0
40
0
40
0
40
1
40
1
40
1
41
1
10
162.104660249599
20
6.70488770545069
30
0
41
0.997409491337352
10
162.096709666576
20
6.73811640288685
30
0
41
1
10
162.093588650012
20
6.77214481564997
30
0
0
SPLINE
5
31F
100
AcDbEntity
8
1
62
256
6
ByLayer
370
13
48
1
60
0
100
AcDbSpline
70
4
71
3
72
22
73
18
40
0
40
0
40
0
40
0
40
0.12499999999999
40
0.12499999999999
40
0.24999999999998
40
0.24999999999998
40
0.374999999999969
40
0.374999999999969
40
0.499999999999959
40
0.499999999999959
40
0.624999999999949
40
0.624999999999949
40
0.687499999999944
40
0.687499999999944
40
0.749999999999938
40
0.749999999999938
40
1
40
1
40
1
40
1
41
1
10
162.654520236018
20
3.7966697210536
30
0
41
1
10
162.660202227556
20
3.75502925991461
30
0
41
1
10
162.671349867572
20
3.71530625936322
30
0
41
1
10
162.703952731358
20
3.63947636816394
30
0
41
1
10
162.725438865584
20
3.60292683669397
30
0
41
1
10
162.776114334192
20
3.53764455203907
30
0
41
1
10
162.80549290514
20
3.50791897243252
30
0
41
1
10
162.871079370148
20
3.45666305875793
30
0
41
1
10
162.906393690533
20
3.43544718946896
30
0
41
1
10
162.982057202986
20
3.40182684332086
30
0
41
1
10
163.02228918031
20
3.38961605908978
30
0
41
1
10
163.083095531226
20
3.37882902670864
30
0
41
1
10
163.103575957611
20
3.37643888623441
30
0
41
1
10
163.144999792107
20
3.37429579272685
30
0
41
1
10
163.165902221221
20
3.3744324431824
30
0
41
1
10
163.27008613271
20
3.37318201250213
30
0
41
1
10
163.353431804299
20
3.37343691160305
30
0
41
1
10
163.43677620551
20
3.3747858224653
30
0
0
SPLINE
5
320
100
AcDbEntity
8
1
62
256
6
ByLayer
370
13
48
1
60
0
100
AcDbSpline
70
4
71
1
72
4
73
2
40
0
40
0
40
1
40
1
41
1
10
162.218606708614
20
6.68829258540376
30
0
41
1
10
162.10608940186
20
6.67761785581817
30
0
0
SPLINE
5
321
100
AcDbEntity
8
1
62
256
6
ByLayer
370
13
48
1
60
0
100
AcDbSpline
70
4
71
1
72
4
73
2
40
0
40
0
40
1
40
1
41
1
10
162.074272306811
20
6.83965491040343
30
0
41
1
10
162.087384935857
20
6.84012352593498
30
0
0
SPLINE
5
322
100
AcDbEntity
8
1
62
256
6
ByLayer
370
13
48
1
60
0
100
AcDbSpline
70
4
71
1
72
4
73
2
40
0
40
0
40
1
40
1
41
1
10
162.04267822382
20
6.69983045083123
30
0
41
1
10
162.104660249599
20
6.70488770545069
30
0
0
SPLINE
5
323
100
AcDbEntity
8
1
62
256
6
ByLayer
370
13
48
1
60
0
100
AcDbSpline
70
4
71
3
72
10
73
6
40
0
40
0
40
0
40
0
40
0.470475711098281
40
0.470475711098281
40
1
40
1
40
1
40
1
41
1
10
170.120071698948
20
9.93740742327813
30
0
41
1
10
170.120089854987
20
9.93716479323393
30
0
41
1
10
170.133017001424
20
9.9366478394044
30
0
41
1
10
170.181320771189
20
9.93528083211402
30
0
41
1
10
170.219289885409
20
9.93441179810307
30
0
41
1
10
170.258547703069
20
9.9336808140288
30
0
0
SPLINE
5
324
100
AcDbEntity
8
1
62
256
6
ByLayer
370
13
48
1
60
0
100
AcDbSpline
70
4
71
3
72
24
73
20
40
0
40
0
40
0
40
0
40
0.116593406326592
40
0.116593406326592
40
0.204934065693831
40
0.204934065693831
40
0.293274725061071
40
0.293274725061071
40
0.381615384428311
40
0.381615384428311
40
0.42578571411193
40
0.42578571411193
40
0.46995604379555
40
0.46995604379555
40
0.558296703162958
40
0.558296703162958
40
0.646637362530367
40
0.646637362530367
40
1
40
1
40
1
40
1
41
1
10
162.493889040422
20
9.92944601392421
30
0
41
1
10
162.50689717515
20
9.93446359554565
30
0
41
1
10
162.52127882607
20
9.93926635282619
30
0
41
1
10
162.54960885521
20
9.9468150018902
30
0
41
1
10
162.562505496536
20
9.94970017916799
30
0
41
1
10
162.590047657405
20
9.95445350522323
30
0
41
1
10
162.603866955074
20
9.95612050176919
30
0
41
1
10
162.63158539057
20
9.95827939882793
30
0
41
1
10
162.645233817458
20
9.95890769141388
30
0
41
1
10
162.66524195373
20
9.95943290866825
30
0
41
1
10
162.671788369489
20
9.95947956764431
30
0
41
1
10
162.685356909192
20
9.96006967996712
30
0
41
1
10
162.692476891888
20
9.96071504511383
30
0
41
1
10
162.71360719122
20
9.96241164043559
30
0
41
1
10
162.726904503872
20
9.96272254649281
30
0
41
1
10
162.753891306295
20
9.9637517369199
30
0
41
1
10
162.767316624369
20
9.96419561002108
30
0
41
1
10
162.833777884794
20
9.96572385670299
30
0
41
1
10
162.885346178742
20
9.96543485659944
30
0
41
1
10
162.936792225741
20
9.96517498305357
30
0
0
SPLINE
5
325
100
AcDbEntity
8
1
62
256
6
ByLayer
370
13
48
1
60
0
100
AcDbSpline
70
4
71
3
72
18
73
14
40
0
40
0
40
0
40
0
40
0.0944468797052282
40
0.0944468797052282
40
0.188893759410457
40
0.188893759410457
40
0.377787518820913
40
0.377787518820913
40
0.56668127823137
40
0.56668127823137
40
0.755575037641826
40
0.755575037641826
40
1
40
1
40
1
40
1
41
1
10
162.624489056897
20
3.79582667565799
30
0
41
1
10
162.627844193122
20
3.77656170269964
30
0
41
1
10
162.632944118969
20
3.75328006929027
30
0
41
1
10
162.64300789947
20
3.7154755265579
30
0
41
1
10
162.647653854604
20
3.70127556418762
30
0
41
1
10
162.660351092037
20
3.66540005107103
30
0
41
1
10
162.667437623377
20
3.64972246159377
30
0
41
1
10
162.680583782101
20
3.6235433063475
30
0
41
1
10
162.686524141673
20
3.61369089739421
30
0
41
1
10
162.697690199585
20
3.59732015974169
30
0
41
1
10
162.702922767897
20
3.59083863060187
30
0
41
1
10
162.714427952157
20
3.5783923711638
30
0
41
1
10
162.720549774251
20
3.57317059830822
30
0
41
1
10
162.726399151557
20
3.56926328349877
30
0
0
SPLINE
5
326
100
AcDbEntity
8
1
62
256
6
ByLayer
370
13
48
1
60
0
100
AcDbSpline
70
4
71
3
72
9
73
5
40
0
40
0
40
0
40
0
40
0.952610929186238
40
1
40
1
40
1
40
1
41
1
10
170.3709705682
20
3.90584031837219
30
0
41
1
10
170.354236626308
20
3.89139645778803
30
0
41
1
10
170.33752828276
20
3.876255090955
30
0
41
1
10
170.321787270656
20
3.86120397811803
30
0
41
1
10
170.321043494583
20
3.86049092829737
30
0
0
SPLINE
5
327
100
AcDbEntity
8
1
62
256
6
ByLayer
370
18
48
1
60
0
100
AcDbSpline
70
4
71
1
72
4
73
2
40
0
40
0
40
1
40
1
41
1
10
171.179345588188
20
0.485716051398526
30
0
41
1
10
171.012395502749
20
0.507559496656228
30
0
0
SPLINE
5
328
100
AcDbEntity
8
1
62
256
6
ByLayer
370
13
48
1
60
0
100
AcDbSpline
70
4
71
3
72
12
73
8
40
0
40
0
40
0
40
0
40
0.0139516774443767
40
0.0139516774443767
40
0.211161341955347
40
0.211161341955347
40
1
40
1
40
1
40
1
41
1
10
162.491027311628
20
10.0802710096885
30
0
41
1
10
162.492472960704
20
10.0805124094473
30
0
41
1
10
162.493920440679
20
10.0807474060952
30
0
41
1
10
162.515856210793
20
10.0842066221453
30
0
41
1
10
162.536658418075
20
10.086255619069
30
0
41
1
10
162.640140893598
20
10.0983893839243
30
0
41
1
10
162.723056633089
20
10.1068478761586
30
0
41
1
10
162.806085464529
20
10.1142182169517
30
0
0
SPLINE
5
329
100
AcDbEntity
8
1
62
256
6
ByLayer
370
18
48
1
60
0
100
AcDbSpline
70
4
71
3
72
23
73
19
40
0
40
0
40
0
40
0
40
0.0124475413875055
40
0.0442016349637023
40
0.107709822116096
40
0.234726196420883
40
0.361742570725671
40
0.47288189824236
40
0.488758945030458
40
0.520513038606655
40
0.552267132182852
40
0.615775319335246
40
0.742791693640033
40
0.86980806794482
40
0.933316255097214
40
0.965070348673411
40
0.996824442249608
40
1
40
1
40
1
40
1
41
1
10
171.025512754934
20
-5.17153045816866
30
0
41
1
10
171.03844444167
20
-5.15574397805941
30
0
41
1
10
171.077799221882
20
-5.09438406583155
30
0
41
1
10
171.099508083537
20
-4.90716470746941
30
0
41
1
10
171.153480313021
20
-4.51570652340757
30
0
41
1
10
171.226938609606
20
-3.95133172472956
30
0
41
1
10
171.313896579977
20
-3.30394062375726
30
0
41
1
10
171.373639898734
20
-2.85367301709343
30
0
41
1
10
171.412585852129
20
-2.57485706183684
30
0
41
1
10
171.404398768315
20
-2.43985102580513
30
0
41
1
10
171.34826195454
20
-2.21613996577338
30
0
41
1
10
171.298672837902
20
-1.82262674020572
30
0
41
1
10
171.201011949638
20
-1.26262309613392
30
0
41
1
10
171.119941833071
20
-0.699151801742602
30
0
41
1
10
171.04413134846
20
-0.311094588109057
30
0
41
1
10
171.029168812666
20
-0.0778430593689166
30
0
41
1
10
170.998693570997
20
0.0275052334346526
30
0
41
1
10
170.967630485602
20
0.0750803429165501
30
0
41
1
10
170.964686092001
20
0.0793333300748031
30
0
0
SPLINE
5
32A
100
AcDbEntity
8
1
62
256
6
ByLayer
370
13
48
1
60
0
100
AcDbSpline
70
4
71
3
72
22
73
18
40
0
40
0
40
0
40
0
40
0.154852301021003
40
0.154852301021003
40
0.309704602042006
40
0.309704602042006
40
0.464556903063008
40
0.464556903063008
40
0.619409204084011
40
0.619409204084011
40
0.696835354594513
40
0.696835354594513
40
0.774261505105014
40
0.774261505105014
40
0.929113806126017
40
0.929113806126017
40
1
40
1
40
1
40
1
41
1
10
22.01
20
-5.67003803492332
30
0
41
1
10
22.01
20
-5.56436856211411
30
0
41
1
10
22.01
20
-5.45266928822372
30
0
41
1
10
22.01
20
-5.2237663601646
30
0
41
1
10
22.01
20
-5.10645872629311
30
0
41
1
10
22.01
20
-4.86629126088556
30
0
41
1
10
22.01
20
-4.74252216483811
30
0
41
1
10
22.01
20
-4.49887503935847
30
0
41
1
10
22.01
20
-4.37794873551377
30
0
41
1
10
22.01
20
-4.19792086581822
30
0
41
1
10
22.01
20
-4.13783396453508
30
0
41
1
10
22.01
20
-4.02014399194366
30
0
41
1
10
22.01
20
-3.96245880403234
30
0
41
1
10
22.01
20
-3.79276482753821
30
0
41
1
10
22.01
20
-3.68410778209542
30
0
41
1
10
22.01
20
-3.53241469477356
30
0
41
1
10
22.01
20
-3.48579781878729
30
0
41
1
10
22.01
20
-3.44095903493454
30
0
0
SPLINE
5
32B
100
AcDbEntity
8
1
62
256
6
ByLayer
370
13
48
1
60
0
100
AcDbSpline
70
4
71
3
72
44
73
40
40
0
40
0
40
0
40
0
40
0.111067916805575
40
0.111067916805575
40
0.166601875208361
40
0.166601875208361
40
0.222135833611148
40
0.222135833611148
40
0.277669792013934
40
0.277669792013934
40
0.333203750416721
40
0.333203750416721
40
0.444271667222296
40
0.444271667222296
40
0.499805625625082
40
0.499805625625082
40
0.527572604826476
40
0.527572604826476
40
0.555339584027869
40
0.555339584027869
40
0.610873542430655
40
0.610873542430655
40
0.666407500833442
40
0.666407500833442
40
0.721941459236228
40
0.721941459236228
40
0.777475417639015
40
0.777475417639015
40
0.833009376041801
40
0.833009376041801
40
0.888543334444586
40
0.888543334444586
40
0.916310313645979
40
0.916310313645979
40
0.944077292847372
40
0.944077292847372
40
0.999611251250156
40
0.999611251250156
40
1
40
1
40
1
40
1
41
1
10
155.120930466933
20
2.16537860866356
30
0
41
1
10
153.681084374448
20
2.79817050870378
30
0
41
1
10
152.241432011602
20
3.41556305822948
30
0
41
1
10
150.077156288973
20
4.30772735642719
30
0
41
1
10
149.355627530897
20
4.59918900428721
30
0
41
1
10
147.914972015954
20
5.16691620382369
30
0
41
1
10
147.195310917394
20
5.44337265319979
30
0
41
1
10
145.756175503899
20
5.9792268233617
30
0
41
1
10
145.036699685289
20
6.23862032317655
30
0
41
1
10
143.596702990254
20
6.73803166625609
30
0
41
1
10
142.875533387004
20
6.97824507151589
30
0
41
1
10
140.714274714203
20
7.66465243425765
30
0
41
1
10
139.276878348075
20
8.07667556577505
30
0
41
1
10
137.11372700871
20
8.61158466493086
30
0
41
1
10
136.391525307402
20
8.7759784461534
30
0
41
1
10
135.300399498265
20
8.99652102077204
30
0
41
1
10
134.935367641909
20
9.06570966788598
30
0
41
1
10
134.203273016155
20
9.1946672014704
30
0
41
1
10
133.8359551882
20
9.25441283032194
30
0
41
1
10
132.729304424258
20
9.41997691658355
30
0
41
1
10
131.985618332296
20
9.51269404113796
30
0
41
1
10
130.488805228356
20
9.67232934306159
30
0
41
1
10
129.735791326858
20
9.73931132175451
30
0
41
1
10
128.222461405686
20
9.85386438687709
30
0
41
1
10
127.461469480892
20
9.90127308327538
30
0
41
1
10
125.935310645423
20
9.98010334252263
30
0
41
1
10
125.170267793483
20
10.0116278224077
30
0
41
1
10
123.635051016016
20
10.0616172043765
30
0
41
1
10
122.864746171574
20
10.0799699849786
30
0
41
1
10
121.316369690834
20
10.1066411807745
30
0
41
1
10
120.538019942126
20
10.1149672273303
30
0
41
1
10
119.364736320506
20
10.12333872129
30
0
41
1
10
118.972776852471
20
10.1254356023545
30
0
41
1
10
118.189099935246
20
10.1286601812077
30
0
41
1
10
117.79712701363
20
10.129789228072
30
0
41
1
10
116.620851001361
20
10.1322129944177
30
0
41
1
10
115.836221386249
20
10.1325296616905
30
0
41
1
10
115.045379462794
20
10.1324976700292
30
0
41
1
10
115.039881860798
20
10.1324974345788
30
0
41
1
10
115.034384223565
20
10.132497186204
30
0
0
SPLINE
5
32C
100
AcDbEntity
8
1
62
256
6
ByLayer
370
13
48
1
60
0
100
AcDbSpline
70
4
71
3
72
10
73
6
40
0
40
0
40
0
40
0
40
0.11759736811013
40
0.11759736811013
40
1
40
1
40
1
40
1
41
1
10
169.921240724986
20
4.21589239257438
30
0
41
1
10
169.916176774911
20
4.20931306938417
30
0
41
1
10
169.911117024425
20
4.20288334019835
30
0
41
1
10
169.868087237592
20
4.14953383797845
30
0
41
1
10
169.831612527891
20
4.11313551195684
30
0
41
1
10
169.793209588974
20
4.08837340288352
30
0
0
SPLINE
5
32D
100
AcDbEntity
8
1
62
256
6
ByLayer
370
13
48
1
60
0
100
AcDbSpline
70
4
71
3
72
8
73
4
40
0
40
0
40
0
40
0
40
1
40
1
40
1
40
1
41
1
10
161.98924947695
20
6.33652565981862
30
0
41
1
10
162.000577784049
20
6.33795189600804
30
0
41
1
10
162.012091321112
20
6.33931539108866
30
0
41
1
10
162.023766307121
20
6.34060159554488
30
0
0
SPLINE
5
32E
100
AcDbEntity
8
1
62
256
6
ByLayer
370
13
48
1
60
0
100
AcDbSpline
70
4
71
3
72
12
73
8
40
0
40
0
40
0
40
0
40
0.367456493674879
40
0.367456493674879
40
0.734912987349757
40
0.734912987349757
40
1
40
1
40
1
40
1
41
1
10
162.196150662733
20
7.06411637923389
30
0
41
1
10
162.175600979713
20
7.03487645283343
30
0
41
1
10
162.15692093912
20
7.00543665129607
30
0
41
1
10
162.123137766847
20
6.94663005988954
30
0
41
1
10
162.107985681048
20
6.91712773601446
30
0
41
1
10
162.085617865685
20
6.86833572247315
30
0
41
1
10
162.077279411885
20
6.84831540237042
30
0
41
1
10
162.070391668352
20
6.82984066361058
30
0
0
SPLINE
5
32F
100
AcDbEntity
8
1
62
256
6
ByLayer
370
13
48
1
60
0
100
AcDbSpline
70
4
71
3
72
14
73
10
40
0
40
0
40
0
40
0
40
0.0217789730429322
40
0.0217789730429322
40
0.1615248340368
40
0.1615248340368
40
0.441016556024536
40
0.441016556024536
40
1
40
1
40
1
40
1
41
1
10
162.494276870454
20
10.0586348268628
30
0
41
1
10
162.494264577735
20
10.0527664498014
30
0
41
1
10
162.494264580242
20
10.0468364395678
30
0
41
1
10
162.494339649796
20
10.0024800110228
30
0
41
1
10
162.494816574533
20
9.96219441107348
30
0
41
1
10
162.496832162737
20
9.83962894160362
30
0
41
1
10
162.498957003357
20
9.75540170220901
30
0
41
1
10
162.506279422535
20
9.50087429036219
30
0
41
1
10
162.51247804953
20
9.32826846488609
30
0
41
1
10
162.519210726536
20
9.15501811891698
30
0
0
SPLINE
5
330
100
AcDbEntity
8
1
62
256
6
ByLayer
370
13
48
1
60
0
100
AcDbSpline
70
4
71
3
72
8
73
4
40
0
40
0
40
0
40
0
40
1
40
1
40
1
40
1
41
1
10
162.252978831731
20
10.237497441268
30
0
41
1
10
162.290603935819
20
10.237486598694
30
0
41
1
10
162.329120002008
20
10.2374507903262
30
0
41
1
10
162.368159800073
20
10.2374148553571
30
0
0
SPLINE
5
331
100
AcDbEntity
8
1
62
256
6
ByLayer
370
13
48
1
60
0
100
AcDbSpline
70
4
71
3
72
54
73
50
40
0
40
0
40
0
40
0
40
0.0072276237894704
40
0.0072276237894704
40
0.0246446830212331
40
0.0246446830212331
40
0.0333532126371147
40
0.0333532126371147
40
0.0420617422529963
40
0.0420617422529963
40
0.0594788014847595
40
0.0594788014847595
40
0.0943129199482867
40
0.0943129199482867
40
0.11172997918005
40
0.11172997918005
40
0.129147038411814
40
0.129147038411814
40
0.163981156875342
40
0.163981156875342
40
0.181398216107106
40
0.181398216107106
40
0.19881527533887
40
0.19881527533887
40
0.216232334570634
40
0.216232334570634
40
0.224940864186516
40
0.224940864186516
40
0.233649393802398
40
0.233649393802398
40
0.24235792341828
40
0.24235792341828
40
0.251066453034162
40
0.251066453034162
40
0.268483512265926
40
0.268483512265926
40
0.303317630729453
40
0.303317630729453
40
0.338151749192981
40
0.338151749192981
40
0.372985867656508
40
0.372985867656508
40
0.442654104583563
40
0.442654104583563
40
0.581990578437672
40
0.581990578437672
40
0.721327052291782
40
0.721327052291782
40
1
40
1
40
1
40
1
41
1
10
142.565830387326
20
-8.20365804657197
30
0
41
1
10
142.297041137847
20
-8.26466990968305
30
0
41
1
10
142.028290096196
20
-8.3237167195704
30
0
41
1
10
141.11174899967
20
-8.51745710015297
30
0
41
1
10
140.463418690995
20
-8.64150955819224
30
0
41
1
10
139.486054401126
20
-8.80855804486342
30
0
41
1
10
139.159478767402
20
-8.86130443571324
30
0
41
1
10
138.504385217682
20
-8.96231421975796
30
0
41
1
10
138.175891202355
20
-9.0104586794923
30
0
41
1
10
137.187399951709
20
-9.1470051986748
30
0
41
1
10
136.523775098353
20
-9.2274991471914
30
0
41
1
10
134.523970152284
20
-9.43045335662973
30
0
41
1
10
133.1792536075
20
-9.51739077838181
30
0
41
1
10
131.145446748688
20
-9.60886693521547
30
0
41
1
10
130.46474235955
20
-9.63270768948632
30
0
41
1
10
129.097777476119
20
-9.67031063184922
30
0
41
1
10
128.411141464625
20
-9.68407514697583
30
0
41
1
10
126.347182034816
20
-9.71500166214531
30
0
41
1
10
124.965106336707
20
-9.72034642237492
30
0
41
1
10
122.879404193664
20
-9.71567434662811
30
0
41
1
10
122.182031010584
20
-9.71184154965061
30
0
41
1
10
120.783030676836
20
-9.70817091535642
30
0
41
1
10
120.081100643768
20
-9.70943665536609
30
0
41
1
10
118.678029311327
20
-9.70162857374572
30
0
41
1
10
117.976359902206
20
-9.68970990106257
30
0
41
1
10
116.923470566691
20
-9.68198335296253
30
0
41
1
10
116.572435101172
20
-9.68191451165072
30
0
41
1
10
115.870246649755
20
-9.68505797098922
30
0
41
1
10
115.519098466303
20
-9.68788191337771
30
0
41
1
10
114.816751225128
20
-9.69221108464254
30
0
41
1
10
114.465554533187
20
-9.69340751368375
30
0
41
1
10
113.763148133065
20
-9.69312642339571
30
0
41
1
10
113.411935956638
20
-9.69194897719436
30
0
41
1
10
112.358293226726
20
-9.68777586463182
30
0
41
1
10
111.655865608555
20
-9.68522911884773
30
0
41
1
10
109.548610702424
20
-9.68128063169036
30
0
41
1
10
108.143790049345
20
-9.68102802222836
30
0
41
1
10
105.334154498574
20
-9.68198251432793
30
0
41
1
10
103.92933928682
20
-9.68332421871503
30
0
41
1
10
101.119706550652
20
-9.68533097108988
30
0
41
1
10
99.7148902625226
20
-9.68576212780937
30
0
41
1
10
95.5004415981267
20
-9.68558485583333
30
0
41
1
10
92.6908093531076
20
-9.68409339438031
30
0
41
1
10
84.261912348254
20
-9.68213544258452
30
0
41
1
10
78.6426475810217
20
-9.68161676638121
30
0
41
1
10
67.4041179383582
20
-9.68055985297053
30
0
41
1
10
61.7848531251329
20
-9.68032087495843
30
0
41
1
10
44.9270589033748
20
-9.68122636029219
30
0
41
1
10
33.6885296211136
20
-9.68377855907775
30
0
41
1
10
22.45
20
-9.683965578699
30
0
0
SPLINE
5
332
100
AcDbEntity
8
1
62
256
6
ByLayer
370
13
48
1
60
0
100
AcDbSpline
70
4
71
3
72
40
73
36
40
0
40
0
40
0
40
0
40
0.0197944686301556
40
0.0197944686301556
40
0.0574946813751488
40
0.0574946813751488
40
0.0951948941201421
40
0.0951948941201421
40
0.132895106865135
40
0.132895106865135
40
0.170595319610128
40
0.170595319610128
40
0.245995745100116
40
0.245995745100116
40
0.28369595784511
40
0.28369595784511
40
0.321396170590104
40
0.321396170590104
40
0.359096383335099
40
0.359096383335099
40
0.396796596080093
40
0.396796596080093
40
0.434496808825088
40
0.434496808825088
40
0.472197021570082
40
0.472197021570082
40
0.509897234315077
40
0.509897234315077
40
0.547597447060071
40
0.547597447060071
40
0.698398298040048
40
0.698398298040048
40
0.849199149020024
40
0.849199149020024
40
1
40
1
40
1
40
1
41
1
10
143.218546618969
20
-8.32040961056163
30
0
41
1
10
142.842790959301
20
-8.41572162754363
30
0
41
1
10
142.466964977111
20
-8.507659676228
30
0
41
1
10
141.375303321149
20
-8.76351174619194
30
0
41
1
10
140.659218645145
20
-8.9172195941228
30
0
41
1
10
139.220154210346
20
-9.19164224507423
30
0
41
1
10
138.497318024704
20
-9.31262781652242
30
0
41
1
10
137.041832647136
20
-9.52360471546803
30
0
41
1
10
136.309088032489
20
-9.61352107158555
30
0
41
1
10
134.830666738906
20
-9.76556461678592
30
0
41
1
10
134.086779626841
20
-9.82784792953143
30
0
41
1
10
131.845588838952
20
-9.98262229124964
30
0
41
1
10
130.337416536592
20
-10.0437029748683
30
0
41
1
10
128.054509516394
20
-10.0991702224125
30
0
41
1
10
127.289424856367
20
-10.1115404295088
30
0
41
1
10
125.756852415495
20
-10.1275240232108
30
0
41
1
10
124.989053065036
20
-10.1311312003611
30
0
41
1
10
123.449847630892
20
-10.1332066648953
30
0
41
1
10
122.678382013568
20
-10.1317103925742
30
0
41
1
10
121.131688946245
20
-10.1269505722577
30
0
41
1
10
120.356498268578
20
-10.1236853506264
30
0
41
1
10
118.802663163989
20
-10.1175356294236
30
0
41
1
10
118.024061926161
20
-10.1146171570771
30
0
41
1
10
116.46321055376
20
-10.1105663541557
30
0
41
1
10
115.680670880505
20
-10.1095547163988
30
0
41
1
10
114.114130577631
20
-10.1087420155632
30
0
41
1
10
113.33085836337
20
-10.1088629299694
30
0
41
1
10
111.764313850271
20
-10.1091286268024
30
0
41
1
10
110.981041633466
20
-10.1092506263922
30
0
41
1
10
107.064681605655
20
-10.1095902888114
30
0
41
1
10
103.931596298079
20
-10.10903208296
30
0
41
1
10
97.6654249815153
20
-10.1087383868142
30
0
41
1
10
94.5323401657747
20
-10.1089110315299
30
0
41
1
10
88.2661701852245
20
-10.1091231807693
30
0
41
1
10
85.1330851223403
20
-10.1092014792351
30
0
41
1
10
81.9999999999999
20
-10.1092573443589
30
0
0
SPLINE
5
333
100
AcDbEntity
8
1
62
256
6
ByLayer
370
13
48
1
60
0
100
AcDbSpline
70
4
71
3
72
14
73
10
40
0
40
0
40
0
40
0
40
0.0736613988040879
40
0.0736613988040879
40
0.382440932536059
40
0.382440932536059
40
0.691220466268029
40
0.691220466268029
40
1
40
1
40
1
40
1
41
1
10
22.4499868301953
20
-3.43609703573529
30
0
41
1
10
22.4499897907196
20
-3.4826287842306
30
0
41
1
10
22.4499926701588
20
-3.53069308779359
30
0
41
1
10
22.4500071370789
20
-3.78734384426045
30
0
41
1
10
22.4500171766217
20
-4.01849046781498
30
0
41
1
10
22.4500326518244
20
-4.49820370791096
30
0
41
1
10
22.4500380828594
20
-4.7466269621053
30
0
41
1
10
22.4500436166236
20
-5.22789369718521
30
0
41
1
10
22.4500437176991
20
-5.4605933514616
30
0
41
1
10
22.4500411463129
20
-5.67003803461617
30
0
0
SPLINE
5
334
100
AcDbEntity
8
1
62
256
6
ByLayer
370
13
48
1
60
0
100
AcDbSpline
70
4
71
3
72
14
73
10
40
0
40
0
40
0
40
0
40
0.230706644365945
40
0.230706644365945
40
0.461413288731891
40
0.461413288731891
40
0.92282657746379
40
0.92282657746379
40
1
40
1
40
1
40
1
41
1
10
171.568639103446
20
4.2645697171719
30
0
41
1
10
171.567316085026
20
4.24505957251696
30
0
41
1
10
171.564677690469
20
4.22137239092052
30
0
41
1
10
171.558620691167
20
4.18272299391839
30
0
41
1
10
171.555484487307
20
4.16811518587707
30
0
41
1
10
171.546606818924
20
4.13110897985854
30
0
41
1
10
171.54119786268
20
4.11477652962583
30
0
41
1
10
171.535164513662
20
4.09877937118111
30
0
41
1
10
171.534308139576
20
4.09657906892917
30
0
41
1
10
171.533459388978
20
4.09446323670602
30
0
0
SPLINE
5
335
100
AcDbEntity
8
1
62
256
6
ByLayer
370
13
48
1
60
0
100
AcDbSpline
70
4
71
3
72
10
73
6
40
0
40
0
40
0
40
0
40
0.260901105508258
40
0.260901105508258
40
1
40
1
40
1
40
1
41
1
10
171.490969342379
20
4.0285947380674
30
0
41
1
10
171.488018237277
20
4.02614100898541
30
0
41
1
10
171.485106888432
20
4.02408490035486
30
0
41
1
10
171.474072820133
20
4.01742201130176
30
0
41
1
10
171.466209682583
20
4.01512121354085
30
0
41
1
10
171.458537903448
20
4.01453908132484
30
0
0
SPLINE
5
336
100
AcDbEntity
8
1
62
256
6
ByLayer
370
13
48
1
60
0
100
AcDbSpline
70
4
71
3
72
22
73
18
40
0
40
0
40
0
40
0
40
0.241283908236031
40
0.241283908236031
40
0.361925862354047
40
0.361925862354047
40
0.482567816472063
40
0.482567816472063
40
0.723851724708094
40
0.723851724708094
40
0.784172701767103
40
0.784172701767103
40
0.844493678826111
40
0.844493678826111
40
0.965135632944129
40
0.965135632944129
40
1
40
1
40
1
40
1
41
1
10
157.929261594278
20
9.98679413082772
30
0
41
1
10
156.431369944081
20
10.1008483066947
30
0
41
1
10
154.937902358147
20
10.1480840229928
30
0
41
1
10
152.696522535653
20
10.1179567225578
30
0
41
1
10
151.949207658549
20
10.0911079212724
30
0
41
1
10
150.453029419908
20
10.0038246431939
30
0
41
1
10
149.704043580208
20
9.94333589369251
30
0
41
1
10
147.461227017417
20
9.71283036925826
30
0
41
1
10
145.968687173861
20
9.49366248858749
30
0
41
1
10
144.10024153001
20
9.14208084217125
30
0
41
1
10
143.726420111854
20
9.06788045162651
30
0
41
1
10
142.978360302909
20
8.91182422293443
30
0
41
1
10
142.603998022102
20
8.82995820847844
30
0
41
1
10
141.481169731471
20
8.57460289121914
30
0
41
1
10
140.732349162534
20
8.39118692257892
30
0
41
1
10
139.76358623259
20
8.14342560842277
30
0
41
1
10
139.546137283911
20
8.08718615674806
30
0
41
1
10
139.328423078601
20
8.03031387575723
30
0
0
SPLINE
5
337
100
AcDbEntity
8
1
62
256
6
ByLayer
370
13
48
1
60
0
100
AcDbSpline
70
4
71
3
72
28
73
24
40
0
40
0
40
0
40
0
40
0.21533161319586
40
0.21533161319586
40
0.322997419793791
40
0.322997419793791
40
0.430663226391721
40
0.430663226391721
40
0.645994839587585
40
0.645994839587585
40
0.753660646185519
40
0.753660646185519
40
0.807493549484484
40
0.807493549484484
40
0.861326452783449
40
0.861326452783449
40
0.915159356082415
40
0.915159356082415
40
0.96899225938138
40
0.96899225938138
40
0.995908711030864
40
0.995908711030864
40
1
40
1
40
1
40
1
41
1
10
158.190436587517
20
9.48992102668572
30
0
41
1
10
156.868832727401
20
9.60443120090625
30
0
41
1
10
155.549668722017
20
9.66955111821912
30
0
41
1
10
153.569828083746
20
9.69299411912411
30
0
41
1
10
152.909699843459
20
9.68840954279014
30
0
41
1
10
151.588262948218
20
9.65409150593112
30
0
41
1
10
150.926845400724
20
9.62427796053305
30
0
41
1
10
148.945741731916
20
9.49726543568704
30
0
41
1
10
147.627175185239
20
9.36278509925322
30
0
41
1
10
145.647576543252
20
9.08891876661573
30
0
41
1
10
144.987412196106
20
8.98555246829272
30
0
41
1
10
143.995968963714
20
8.81233767907761
30
0
41
1
10
143.665233206498
20
8.75155555871777
30
0
41
1
10
143.004258125272
20
8.62412389029492
30
0
41
1
10
142.67388922221
20
8.55749138523163
30
0
41
1
10
142.013180606698
20
8.41993037904746
30
0
41
1
10
141.682841031592
20
8.34900292458363
30
0
41
1
10
141.02207822358
20
8.20423673298959
30
0
41
1
10
140.691763428008
20
8.13075145888411
30
0
41
1
10
140.195774439355
20
8.01780639702409
30
0
41
1
10
140.030319622278
20
7.97957593948033
30
0
41
1
10
139.839403896179
20
7.93452790634478
30
0
41
1
10
139.814207597576
20
7.92856471236482
30
0
41
1
10
139.789005301721
20
7.92258307495086
30
0
0
SPLINE
5
338
100
AcDbEntity
8
1
62
256
6
ByLayer
370
13
48
1
60
0
100
AcDbSpline
70
4
71
3
72
10
73
6
40
0
40
0
40
0
40
0
40
0.0548184574953334
40
0.0548184574953334
40
1
40
1
40
1
40
1
41
1
10
149.889238123118
20
4.37992533222646
30
0
41
1
10
150.051976118827
20
4.38935729061916
30
0
41
1
10
150.214704947095
20
4.39843906301783
30
0
41
1
10
153.183027226985
20
4.55764745077761
30
0
41
1
10
155.989346701536
20
4.60402757306378
30
0
41
1
10
158.796914770144
20
4.54229010409762
30
0
0
SPLINE
5
339
100
AcDbEntity
8
1
62
256
6
ByLayer
370
13
48
1
60
0
100
AcDbSpline
70
4
71
3
72
8
73
4
40
0
40
0
40
0
40
0
40
1
40
1
40
1
40
1
41
1
10
158.689750554472
20
4.04369519553069
30
0
41
1
10
156.101315143565
20
4.11021131894697
30
0
41
1
10
153.517010343472
20
4.09457366755851
30
0
41
1
10
150.931281105228
20
3.99932316389695
30
0
0
SPLINE
5
33A
100
AcDbEntity
8
1
62
256
6
ByLayer
370
13
48
1
60
0
100
AcDbSpline
70
4
71
3
72
30
73
26
40
0
40
0
40
0
40
0
40
0.119179561569438
40
0.248040579302658
40
0.394694725241422
40
0.559176795526788
40
0.574631655358713
40
0.590938528262074
40
0.608099967605192
40
0.626118370682355
40
0.644995954787074
40
0.664734728649668
40
0.685336459753399
40
0.706802637938329
40
0.729134435643827
40
0.752332665116218
40
0.776397732908585
40
0.801329592019615
40
0.827127692053766
40
0.853790927833087
40
0.88131758695
40
0.909705296818524
40
0.938950971857695
40
0.969050761524176
40
1
40
1
40
1
40
1
41
1
10
20.9667077618605
20
-3.58986517084776
30
0
41
1
10
20.9906972111077
20
-3.6677707722782
30
0
41
1
10
21.0461992067486
20
-3.83471177564692
30
0
41
1
10
21.1506643345707
20
-4.11339575865969
30
0
41
1
10
21.2880797250774
20
-4.43369149469132
30
0
41
1
10
21.4053374444368
20
-4.67367987570205
30
0
41
1
10
21.4790614725049
20
-4.81598880258878
30
0
41
1
10
21.4975462035373
20
-4.85141296072109
30
0
41
1
10
21.5171497571247
20
-4.88859474591794
30
0
41
1
10
21.5379042489716
20
-4.927504760505
30
0
41
1
10
21.5598454716471
20
-4.96810322856328
30
0
41
1
10
21.58300498411
20
-5.01034624245716
30
0
41
1
10
21.6074115844733
20
-5.05418335822654
30
0
41
1
10
21.6330900290577
20
-5.09955768048786
30
0
41
1
10
21.6600604938249
20
-5.14640523235371
30
0
41
1
10
21.6883377766949
20
-5.19465454014042
30
0
41
1
10
21.7179305287872
20
-5.24422615451894
30
0
41
1
10
21.7488404411435
20
-5.29503226458564
30
0
41
1
10
21.7810613922022
20
-5.34697608814969
30
0
41
1
10
21.8145786402053
20
-5.39995223104236
30
0
41
1
10
21.8493677304543
20
-5.45384338633176
30
0
41
1
10
21.8853944461114
20
-5.50853152566128
30
0
41
1
10
21.9226106398767
20
-5.56385264178115
30
0
41
1
10
21.9609661412425
20
-5.61977201651391
30
0
41
1
10
21.9868685764664
20
-5.65654811828972
30
0
41
1
10
22
20
-5.67519202432237
30
0
0
SPLINE
5
33B
100
AcDbEntity
8
1
62
256
6
ByLayer
370
13
48
1
60
0
100
AcDbSpline
70
4
71
3
72
28
73
24
40
0
40
0
40
0
40
0
40
0.114054788576987
40
0.114054788576987
40
0.228109577153974
40
0.228109577153974
40
0.342164365730961
40
0.342164365730961
40
0.399191760019461
40
0.399191760019461
40
0.456219154307961
40
0.456219154307961
40
0.684328731461976
40
0.684328731461976
40
0.741356125750483
40
0.741356125750483
40
0.79838352003899
40
0.79838352003899
40
0.912438308616004
40
0.912438308616004
40
0.969465702904511
40
0.969465702904511
40
1
40
1
40
1
40
1
41
1
10
158.590395954745
20
3.64939956499302
30
0
41
1
10
158.375902549041
20
3.69821752022102
30
0
41
1
10
158.159258936184
20
3.73788749102351
30
0
41
1
10
157.722085826923
20
3.80194175982376
30
0
41
1
10
157.501550161209
20
3.82629645959255
30
0
41
1
10
157.056540007876
20
3.86107557771453
30
0
41
1
10
156.832063914778
20
3.87148761196553
30
0
41
1
10
156.492104554406
20
3.87695617624237
30
0
41
1
10
156.378241388111
20
3.87708092686529
30
0
41
1
10
156.149348714881
20
3.87391393906785
30
0
41
1
10
156.034098208885
20
3.87060717017479
30
0
41
1
10
155.459661861842
20
3.84563569215172
30
0
41
1
10
155.003058550535
20
3.79912330858809
30
0
41
1
10
154.436011592675
20
3.70705341568075
30
0
41
1
10
154.322790519035
20
3.6869157098912
30
0
41
1
10
154.096740811535
20
3.64303376165918
30
0
41
1
10
153.983874685488
20
3.61926535724726
30
0
41
1
10
153.650524501394
20
3.54331601413344
30
0
41
1
10
153.433746986656
20
3.48628317895162
30
0
41
1
10
153.118124589995
20
3.39020223271507
30
0
41
1
10
153.014516946402
20
3.35640693437006
30
0
41
1
10
152.858207795998
20
3.30148365137529
30
0
41
1
10
152.804284387862
20
3.28177954595088
30
0
41
1
10
152.751245171113
20
3.26159305785018
30
0
0
SPLINE
5
33C
100
AcDbEntity
8
1
62
256
6
ByLayer
370
13
48
1
60
0
100
AcDbSpline
70
4
71
3
72
12
73
8
40
0
40
0
40
0
40
0
40
0.0347489892763089
40
0.0347489892763089
40
0.356499326184204
40
0.356499326184204
40
1
40
1
40
1
40
1
41
1
10
150.017444786332
20
4.33371188085908
30
0
41
1
10
150.087711816441
20
4.3067163780818
30
0
41
1
10
150.157984613093
20
4.27965897851536
30
0
41
1
10
150.878995076101
20
4.00144395889362
30
0
41
1
10
151.530350041485
20
3.74503363634
30
0
41
1
10
153.481804104967
20
2.9636658633886
30
0
41
1
10
154.780914610133
20
2.42590479611368
30
0
41
1
10
156.080620985364
20
1.87635348404498
30
0
0
SPLINE
5
33D
100
AcDbEntity
8
1
62
256
6
ByLayer
370
13
48
1
60
0
100
AcDbSpline
70
4
71
3
72
18
73
14
40
0
40
0
40
0
40
0
40
0.0552541903873924
40
0.0552541903873924
40
0.285378650271265
40
0.285378650271265
40
0.515503110155138
40
0.515503110155138
40
0.630565340097075
40
0.630565340097075
40
0.745627570039012
40
0.745627570039012
40
1
40
1
40
1
40
1
41
1
10
171.409680800879
20
3.95185790670809
30
0
41
1
10
171.402941154779
20
3.94450361666946
30
0
41
1
10
171.395974126598
20
3.93734650749346
30
0
41
1
10
171.358851889402
20
3.90148836755156
30
0
41
1
10
171.325948686773
20
3.87669736937326
30
0
41
1
10
171.254213950075
20
3.83535220831692
30
0
41
1
10
171.215478742244
20
3.8190029292756
30
0
41
1
10
171.156133046798
20
3.80191899496842
30
0
41
1
10
171.136014652042
20
3.79740116043663
30
0
41
1
10
171.095041755917
20
3.79093983725704
30
0
41
1
10
171.074239548635
20
3.78889084033329
30
0
41
1
10
171.007788527878
20
3.78109917265064
30
0
41
1
10
170.961994366004
20
3.77611563090437
30
0
41
1
10
170.916163381703
20
3.7714863882708
30
0
0
SPLINE
5
33E
100
AcDbEntity
8
1
62
256
6
ByLayer
370
13
48
1
60
0
100
AcDbSpline
70
4
71
3
72
16
73
12
40
0
40
0
40
0
40
0
40
0.29156652882714
40
0.29156652882714
40
0.380120712723747
40
0.380120712723747
40
0.468674896620355
40
0.468674896620355
40
0.64578326441357
40
0.64578326441357
40
1
40
1
40
1
40
1
41
1
10
9.25807512928324
20
-7.76096447672762
30
0
41
1
10
8.84739225649261
20
-8.25384021389235
30
0
41
1
10
8.47771983359749
20
-8.77065077599713
30
0
41
1
10
8.05188457099197
20
-9.47685754616089
30
0
41
1
10
7.95648552284635
20
-9.64413761438854
30
0
41
1
10
7.77551067017322
20
-9.98087798543062
30
0
41
1
10
7.68989315834406
20
-10.1503920429468
30
0
41
1
10
7.44714264592989
20
-10.662265789545
30
0
41
1
10
7.30405861060515
20
-11.0079300475377
30
0
41
1
10
6.92831609750104
20
-12.0573939913893
30
0
41
1
10
6.74837614021567
20
-12.7734914730721
30
0
41
1
10
6.64022231904792
20
-13.5059061805735
30
0
0
SPLINE
5
33F
100
AcDbEntity
8
1
62
256
6
ByLayer
370
18
48
1
60
0
100
AcDbSpline
70
4
71
3
72
24
73
20
40
0
40
0
40
0
40
0
40
0.0120626507840204
40
0.0420692501980199
40
0.0720758496120194
40
0.132089048440019
40
0.252115446096016
40
0.372141843752015
40
0.477164941701013
40
0.492168241408013
40
0.522174840822012
40
0.552181440236012
40
0.612194639064011
40
0.732221036720009
40
0.852247434376007
40
0.912260633204006
40
0.942267232618005
40
0.972273832032005
40
1
40
1
40
1
40
1
41
1
10
170.955150794391
20
-5.40419941634048
30
0
41
1
10
170.981532888139
20
-5.3939603853126
30
0
41
1
10
171.07274363411
20
-5.34960682461585
30
0
41
1
10
171.212261043334
20
-5.20492366810001
30
0
41
1
10
171.243266561263
20
-4.93752903154137
30
0
41
1
10
171.29710199895
20
-4.54706299231006
30
0
41
1
10
171.370592532881
20
-3.98244051642874
30
0
41
1
10
171.457526849866
20
-3.33522551191953
30
0
41
1
10
171.517220611796
20
-2.88533140030785
30
0
41
1
10
171.558078632387
20
-2.592826863949
30
0
41
1
10
171.548220172802
20
-2.43025963242323
30
0
41
1
10
171.490947922623
20
-2.20202373985654
30
0
41
1
10
171.442015280496
20
-1.81371995175263
30
0
41
1
10
171.344138614786
20
-1.2524790042109
30
0
41
1
10
171.262861740109
20
-0.687570654276612
30
0
41
1
10
171.188135462451
20
-0.305063257816926
30
0
41
1
10
171.172763419941
20
-0.0654279136049354
30
0
41
1
10
171.115573863754
20
0.132267716697584
30
0
41
1
10
171.00196261314
20
0.244052746935324
30
0
41
1
10
170.943443784974
20
0.27768606147535
30
0
0
SPLINE
5
340
100
AcDbEntity
8
1
62
256
6
ByLayer
370
13
48
1
60
0
100
AcDbSpline
70
4
71
3
72
36
73
32
40
0
40
0
40
0
40
0
40
0.0072274046193783
40
0.0072274046193783
40
0.0270828565269906
40
0.0270828565269906
40
0.0469383084346029
40
0.0469383084346029
40
0.0667937603422152
40
0.0667937603422152
40
0.0866492122498275
40
0.0866492122498275
40
0.10650466415744
40
0.10650466415744
40
0.126360116065052
40
0.126360116065052
40
0.146215567972664
40
0.146215567972664
40
0.166071019880277
40
0.166071019880277
40
0.205781923695502
40
0.205781923695502
40
0.285203731325951
40
0.285203731325951
40
0.364625538956401
40
0.364625538956401
40
0.523469154217301
40
0.523469154217301
40
0.6823127694782
40
0.6823127694782
40
1
40
1
40
1
40
1
41
1
10
130.469308231335
20
-5.20852164735828
30
0
41
1
10
130.213189385634
20
-5.22653463352276
30
0
41
1
10
129.956975220967
20
-5.24393449872082
30
0
41
1
10
128.996532107559
20
-5.30715236305008
30
0
41
1
10
128.291715527623
20
-5.34960839984473
30
0
41
1
10
126.880783734731
20
-5.42908843422964
30
0
41
1
10
126.174638846482
20
-5.46592436454384
30
0
41
1
10
124.760538508931
20
-5.53028096644832
30
0
41
1
10
124.05257034589
20
-5.55764702628701
30
0
41
1
10
122.6344211036
20
-5.60002926607095
30
0
41
1
10
121.924283511795
20
-5.61545495483577
30
0
41
1
10
120.502125834706
20
-5.63719918112426
30
0
41
1
10
119.79014790821
20
-5.64390739446605
30
0
41
1
10
118.365342048188
20
-5.65742587002762
30
0
41
1
10
117.652424511725
20
-5.66355931243535
30
0
41
1
10
116.22378925845
20
-5.669314036679
30
0
41
1
10
115.508144831912
20
-5.66966552396872
30
0
41
1
10
114.076718466444
20
-5.67014729321272
30
0
41
1
10
113.360918117982
20
-5.66976370766747
30
0
41
1
10
111.213446037814
20
-5.668044919869
30
0
41
1
10
109.781757897003
20
-5.66668101318223
30
0
41
1
10
105.486753371546
20
-5.66566701857911
30
0
41
1
10
102.623417406735
20
-5.66727176491827
30
0
41
1
10
96.8967452412436
20
-5.66965483724064
30
0
41
1
10
94.0334091012639
20
-5.67074195221787
30
0
41
1
10
85.4434003052496
20
-5.67225600185873
30
0
41
1
10
79.716727472713
20
-5.6717163234207
30
0
41
1
10
68.2633819846849
20
-5.67131507714481
30
0
41
1
10
62.5367092343579
20
-5.67119222058403
30
0
41
1
10
45.3566909916166
20
-5.67053885588825
30
0
41
1
10
33.9033454987603
20
-5.66995253258247
30
0
41
1
10
22.45
20
-5.67003803492332
30
0
0
SPLINE
5
341
100
AcDbEntity
8
1
62
256
6
ByLayer
370
13
48
1
60
0
100
AcDbSpline
70
4
71
3
72
14
73
10
40
0
40
0
40
0
40
0
40
0.313879987179139
40
0.313879987179139
40
0.470819980768709
40
0.470819980768709
40
0.627759974358278
40
0.627759974358278
40
1
40
1
40
1
40
1
41
1
10
6.64074872886297
20
-11.6905251157053
30
0
41
1
10
6.69489118913012
20
-11.3456055131815
30
0
41
1
10
6.76743283172101
20
-11.0027892958076
30
0
41
1
10
6.90363505079884
20
-10.4916046880494
30
0
41
1
10
6.95370566907093
20
-10.3214476716067
30
0
41
1
10
7.06265942837723
20
-9.98357450333503
30
0
41
1
10
7.1214792330442
20
-9.81599848674267
30
0
41
1
10
7.33435908420134
20
-9.25549074100223
30
0
41
1
10
7.50837062518059
20
-8.86870469297952
30
0
41
1
10
7.70701107599234
20
-8.48960260100353
30
0
0
SPLINE
5
342
100
AcDbEntity
8
1
62
256
6
ByLayer
370
13
48
1
60
0
100
AcDbSpline
70
4
71
2
72
6
73
3
40
0
40
0
40
0
40
1
40
1
40
1
41
1
10
149.936727480146
20
4.36469836713997
30
0
41
1
10
149.852425980203
20
4.39678925438179
30
0
41
1
10
149.76814448775
20
4.43109684411405
30
0
0
SPLINE
5
343
100
AcDbEntity
8
1
62
256
6
ByLayer
370
13
48
1
60
0
100
AcDbSpline
70
4
71
3
72
16
73
12
40
0
40
0
40
0
40
0
40
0.139492414099311
40
0.279832377453665
40
0.420409808761995
40
0.560608422965647
40
0.648285669694927
40
0.73566406141305
40
0.824009607134968
40
0.912475850377186
40
1
40
1
40
1
40
1
41
1
10
5.67769999999999
20
-16
30
0
41
1
10
6.48555296048653
20
-15.8862977959408
30
0
41
1
10
8.08752851285601
20
-15.5845650685526
30
0
41
1
10
10.4482901545719
20
-14.9074502022996
30
0
41
1
10
12.7361033573292
20
-14.0097803668291
30
0
41
1
10
14.6603919753103
20
-13.0455764206127
30
0
41
1
10
16.2267687081118
20
-12.0852868809619
30
0
41
1
10
17.519685688571
20
-11.2500019659595
30
0
41
1
10
18.9577065605123
20
-10.6753309645583
30
0
41
1
10
20.4637780851733
20
-10.3160294760152
30
0
41
1
10
21.4852340277166
20
-10.237969675474
30
0
41
1
10
22
20
-10.2375
30
0
0
SPLINE
5
344
100
AcDbEntity
8
1
62
256
6
ByLayer
370
13
48
1
60
0
100
AcDbSpline
70
4
71
1
72
4
73
2
40
0
40
0
40
1
40
1
41
1
10
171.407681346831
20
3.94970614839889
30
0
41
1
10
171.496442397849
20
4.03014611023511
30
0
0
SPLINE
5
345
100
AcDbEntity
8
1
62
256
6
ByLayer
370
13
48
1
60
0
100
AcDbSpline
70
4
71
1
72
4
73
2
40
0
40
0
40
1
40
1
41
1
10
162.720794200773
20
3.57023387645717
30
0
41
1
10
162.817477275062
20
3.49951262940925
30
0
0
SPLINE
5
346
100
AcDbEntity
8
1
62
256
6
ByLayer
370
18
48
1
60
0
100
AcDbSpline
70
4
71
3
72
8
73
4
40
0
40
0
40
0
40
0
40
1
40
1
40
1
40
1
41
1
10
167.162988155414
20
-2.12524966080261
30
0
41
1
10
167.179579934231
20
-2.09044579335637
30
0
41
1
10
167.197613259477
20
-2.05638052407247
30
0
41
1
10
167.217126567004
20
-2.02319340645121
30
0
0
SPLINE
5
347
100
AcDbEntity
8
1
62
256
6
ByLayer
370
13
48
1
60
0
100
AcDbSpline
70
4
71
3
72
16
73
12
40
0
40
0
40
0
40
0
40
0.0928588197124487
40
0.186705138891741
40
0.280270033262346
40
0.372912107066318
40
0.46602994389053
40
0.559535691091052
40
0.706787381269399
40
0.853842911517622
40
1
40
1
40
1
40
1
41
1
10
22
20
10.2374999999999
30
0
41
1
10
21.4532619899396
20
10.238095023566
30
0
41
1
10
20.370372435233
20
10.3261542881417
30
0
41
1
10
18.7774916281332
20
10.7289936132945
30
0
41
1
10
17.2690487362232
20
11.3775659712964
30
0
41
1
10
15.9200696397634
20
12.2961150217039
30
0
41
1
10
14.5104848768225
20
13.1118021629001
30
0
41
1
10
12.7700027099134
20
13.9857446808656
30
0
41
1
10
10.6708650976057
20
14.834516234867
30
0
41
1
10
8.20224156589993
20
15.5610479503969
30
0
41
1
10
6.52440644184446
20
15.8808032500972
30
0
41
1
10
5.67770000000002
20
16
30
0
0
LINE
5
7F
100
AcDbEntity
8
SK1
62
256
6
ByLayer
370
13
48
1
60
0
100
AcDbLine
10
-56
20
4.998651
30
0
11
-56
21
-4.998651
31
0
39
0
210
0
220
0
230
1
0
LINE
5
81
100
AcDbEntity
8
SK1
62
256
6
ByLayer
370
13
48
1
60
0
100
AcDbLine
10
-52.599857
20
6.998572
30
0
11
-6.5
21
6.998572
31
0
39
0
210
0
220
0
230
1
0
LINE
5
82
100
AcDbEntity
8
SK1
62
256
6
ByLayer
370
13
48
1
60
0
100
AcDbLine
10
-6.5
20
-6.998572
30
0
11
-6.5
21
6.998572
31
0
39
0
210
0
220
0
230
1
0
LINE
5
83
100
AcDbEntity
8
SK1
62
256
6
ByLayer
370
13
48
1
60
0
100
AcDbLine
10
-54.60004
20
-6.998572
30
0
11
-55
21
-6.998572
31
0
39
0
210
0
220
0
230
1
0
LINE
5
84
100
AcDbEntity
8
SK1
62
256
6
ByLayer
370
13
48
1
60
0
100
AcDbLine
10
-6.5
20
-6.998572
30
0
11
-52.599857
21
-6.998572
31
0
39
0
210
0
220
0
230
1
0
LINE
5
85
100
AcDbEntity
8
SK1
62
256
6
ByLayer
370
13
48
1
60
0
100
AcDbLine
10
-55
20
6.998572
30
0
11
-54.60004
21
6.998572
31
0
39
0
210
0
220
0
230
1
0
LINE
5
86
100
AcDbEntity
8
1
62
256
6
ByLayer
370
13
48
1
60
0
100
AcDbLine
10
170.9944
20
-0.196889
30
0
11
170.308728
21
0.521663
31
0
39
0
210
0
220
0
230
1
0
LINE
5
87
100
AcDbEntity
8
1
62
256
6
ByLayer
370
13
48
1
60
0
100
AcDbLine
10
159.356213
20
4.57044
30
0
11
159.356213
21
7.75867
31
0
39
0
210
0
220
0
230
1
0
LINE
5
88
100
AcDbEntity
8
1
62
256
6
ByLayer
370
13
48
1
60
0
100
AcDbLine
10
170.569639
20
3.605009
30
0
11
170.316715
21
1.046147
31
0
39
0
210
0
220
0
230
1
0
LINE
5
89
100
AcDbEntity
8
1
62
256
6
ByLayer
370
13
48
1
60
0
100
AcDbLine
10
166.450731
20
3.389146
30
0
11
166.80979
21
3.407963
31
0
39
0
210
0
220
0
230
1
0
LINE
5
8A
100
AcDbEntity
8
1
62
256
6
ByLayer
370
13
48
1
60
0
100
AcDbLine
10
170.9944
20
-0.196889
30
0
11
171.271195
21
-1.933693
31
0
39
0
210
0
220
0
230
1
0
LINE
5
8B
100
AcDbEntity
8
1
62
256
6
ByLayer
370
13
48
1
60
0
100
AcDbLine
10
169.743157
20
4.212587
30
0
11
166.330303
21
4.033726
31
0
39
0
210
0
220
0
230
1
0
LINE
5
8C
100
AcDbEntity
8
1
62
256
6
ByLayer
370
13
48
1
60
0
100
AcDbLine
10
171.234978
20
0.633257
30
0
11
171.254232
21
0.610418
31
0
39
0
210
0
220
0
230
1
0
LINE
5
8D
100
AcDbEntity
8
1
62
256
6
ByLayer
370
13
48
1
60
0
100
AcDbLine
10
164.805689
20
3.953825
30
0
11
164.816402
21
3.954386
31
0
39
0
210
0
220
0
230
1
0
LINE
5
8E
100
AcDbEntity
8
1
62
256
6
ByLayer
370
13
48
1
60
0
100
AcDbLine
10
160.929262
20
-10.176379
30
0
11
160.929262
21
-0.024375
31
0
39
0
210
0
220
0
230
1
0
LINE
5
8F
100
AcDbEntity
8
1
62
256
6
ByLayer
370
13
48
1
60
0
100
AcDbLine
10
171.25994
20
3.791392
30
0
11
171.029904
21
3.779336
31
0
39
0
210
0
220
0
230
1
0
LINE
5
90
100
AcDbEntity
8
1
62
256
6
ByLayer
370
13
48
1
60
0
100
AcDbLine
10
156.705338
20
1.569693
30
0
11
156.800336
21
0.970759
31
0
39
0
210
0
220
0
230
1
0
LINE
5
91
100
AcDbEntity
8
1
62
256
6
ByLayer
370
13
48
1
60
0
100
AcDbLine
10
170.514026
20
-1.140215
30
0
11
171.271195
21
-1.933693
31
0
39
0
210
0
220
0
230
1
0
LINE
5
92
100
AcDbEntity
8
1
62
256
6
ByLayer
370
13
48
1
60
0
100
AcDbLine
10
171.336476
20
0.93333
30
0
11
171.338902
21
0.930451
31
0
39
0
210
0
220
0
230
1
0
LINE
5
93
100
AcDbEntity
8
1
62
256
6
ByLayer
370
13
48
1
60
0
100
AcDbLine
10
162.064715
20
6.766615
30
0
11
162.503393
21
10.118548
31
0
39
0
210
0
220
0
230
1
0
LINE
5
94
100
AcDbEntity
8
1
62
256
6
ByLayer
370
13
48
1
60
0
100
AcDbLine
10
159.251997
20
1.042674
30
0
11
159.406984
21
0.065527
31
0
39
0
210
0
220
0
230
1
0
LINE
5
95
100
AcDbEntity
8
1
62
256
6
ByLayer
370
13
48
1
60
0
100
AcDbLine
10
165.1558
20
4.172448
30
0
11
165.653248
21
4.198518
31
0
39
0
210
0
220
0
230
1
0
LINE
5
96
100
AcDbEntity
8
1
62
256
6
ByLayer
370
13
48
1
60
0
100
AcDbLine
10
171.286141
20
-3.068314
30
0
11
170.56359
21
-2.311114
31
0
39
0
210
0
220
0
230
1
0
LINE
5
97
100
AcDbEntity
8
1
62
256
6
ByLayer
370
13
48
1
60
0
100
AcDbLine
10
171.029904
20
3.779336
30
0
11
170.850036
21
3.769909
31
0
39
0
210
0
220
0
230
1
0
LINE
5
98
100
AcDbEntity
8
1
62
256
6
ByLayer
370
13
48
1
60
0
100
AcDbLine
10
171.273539
20
3.558122
30
0
11
171.25994
21
3.791392
31
0
39
0
210
0
220
0
230
1
0
LINE
5
99
100
AcDbEntity
8
1
62
256
6
ByLayer
370
13
48
1
60
0
100
AcDbLine
10
170.569639
20
3.605009
30
0
11
170.977688
21
3.626393
31
0
39
0
210
0
220
0
230
1
0
LINE
5
9A
100
AcDbEntity
8
1
62
256
6
ByLayer
370
13
48
1
60
0
100
AcDbLine
10
160.965835
20
4.314488
30
0
11
161.712931
21
4.08495
31
0
39
0
210
0
220
0
230
1
0
LINE
5
9B
100
AcDbEntity
8
1
62
256
6
ByLayer
370
13
48
1
60
0
100
AcDbLine
10
171.336535
20
3.236789
30
0
11
171.338902
21
0.930451
31
0
39
0
210
0
220
0
230
1
0
LINE
5
9C
100
AcDbEntity
8
1
62
256
6
ByLayer
370
13
48
1
60
0
100
AcDbLine
10
170.308728
20
0.521663
30
0
11
170.364999
21
-0.289547
31
0
39
0
210
0
220
0
230
1
0
LINE
5
9D
100
AcDbEntity
8
1
62
256
6
ByLayer
370
13
48
1
60
0
100
AcDbLine
10
162.519211
20
9.155018
30
0
11
162.262278
21
7.191796
31
0
39
0
210
0
220
0
230
1
0
LINE
5
9E
100
AcDbEntity
8
1
62
256
6
ByLayer
370
13
48
1
60
0
100
AcDbLine
10
157.929262
20
-10.04219
30
0
11
157.929262
21
0.393946
31
0
39
0
210
0
220
0
230
1
0
LINE
5
9F
100
AcDbEntity
8
1
62
256
6
ByLayer
370
13
48
1
60
0
100
AcDbLine
10
5.6777
20
-3.968627
30
0
11
0.1
21
-3.968627
31
0
39
0
210
0
220
0
230
1
0
LINE
5
A0
100
AcDbEntity
8
1
62
256
6
ByLayer
370
13
48
1
60
0
100
AcDbLine
10
170.316715
20
1.046147
30
0
11
170.948502
21
0.384064
31
0
39
0
210
0
220
0
230
1
0
LINE
5
A1
100
AcDbEntity
8
1
62
256
6
ByLayer
370
13
48
1
60
0
100
AcDbLine
10
0
20
-3.544009
30
0
11
0
21
3.544009
31
0
39
0
210
0
220
0
230
1
0
LINE
5
A2
100
AcDbEntity
8
1
62
256
6
ByLayer
370
13
48
1
60
0
100
AcDbLine
10
168.567793
20
4.297135
30
0
11
168.472503
21
4.292141
31
0
39
0
210
0
220
0
230
1
0
LINE
5
A3
100
AcDbEntity
8
1
62
256
6
ByLayer
370
13
48
1
60
0
100
AcDbLine
10
22.01
20
-5.670038
30
0
11
22.01
21
-9.683912
31
0
39
0
210
0
220
0
230
1
0
LINE
5
A4
100
AcDbEntity
8
1
62
256
6
ByLayer
370
13
48
1
60
0
100
AcDbLine
10
171.286141
20
-3.068314
30
0
11
170.960835
21
-5.523978
31
0
39
0
210
0
220
0
230
1
0
LINE
5
A5
100
AcDbEntity
8
1
62
256
6
ByLayer
370
13
48
1
60
0
100
AcDbLine
10
159.595339
20
4.620911
30
0
11
160.871975
21
5.343483
31
0
39
0
210
0
220
0
230
1
0
LINE
5
A6
100
AcDbEntity
8
1
62
256
6
ByLayer
370
13
48
1
60
0
100
AcDbLine
10
162.190214
20
4.684094
30
0
11
161.977045
21
6.033869
31
0
39
0
210
0
220
0
230
1
0
LINE
5
A7
100
AcDbEntity
8
1
62
256
6
ByLayer
370
13
48
1
60
0
100
AcDbLine
10
160.871975
20
5.343483
30
0
11
159.356213
21
7.75867
31
0
39
0
210
0
220
0
230
1
0
LINE
5
A8
100
AcDbEntity
8
1
62
256
6
ByLayer
370
13
48
1
60
0
100
AcDbLine
10
168.785215
20
4.362657
30
0
11
169.282663
21
4.388727
31
0
39
0
210
0
220
0
230
1
0
LINE
5
A9
100
AcDbEntity
8
1
62
256
6
ByLayer
370
13
48
1
60
0
100
AcDbLine
10
164.771656
20
3.868142
30
0
11
164.623958
21
3.860402
31
0
39
0
210
0
220
0
230
1
0
LINE
5
AA
100
AcDbEntity
8
1
62
256
6
ByLayer
370
13
48
1
60
0
100
AcDbLine
10
166.80979
20
3.407963
30
0
11
170.569639
21
3.605009
31
0
39
0
210
0
220
0
230
1
0
LINE
5
AB
100
AcDbEntity
8
1
62
256
6
ByLayer
370
13
48
1
60
0
100
AcDbLine
10
0.1
20
3.968627
30
0
11
5.6777
21
3.968627
31
0
39
0
210
0
220
0
230
1
0
LINE
5
AC
100
AcDbEntity
8
1
62
256
6
ByLayer
370
13
48
1
60
0
100
AcDbLine
10
170.679657
20
-10.176379
30
0
11
171.192971
21
-6.301485
31
0
39
0
210
0
220
0
230
1
0
LINE
5
AD
100
AcDbEntity
8
1
62
256
6
ByLayer
370
13
48
1
60
0
100
AcDbLine
10
170.679657
20
-10.176379
30
0
11
160.929262
21
-10.176379
31
0
39
0
210
0
220
0
230
1
0
LINE
5
AE
100
AcDbEntity
8
1
62
256
6
ByLayer
370
13
48
1
60
0
100
AcDbLine
10
171.192971
20
-6.301485
30
0
11
170.946376
21
-6.084881
31
0
39
0
210
0
220
0
230
1
0
LINE
5
AF
100
AcDbEntity
8
1
62
256
6
ByLayer
370
13
48
1
60
0
100
AcDbLine
10
165.012239
20
3.134147
30
0
11
165.262223
21
3.147248
31
0
39
0
210
0
220
0
230
1
0
LINE
5
B0
100
AcDbEntity
8
1
62
256
6
ByLayer
370
13
48
1
60
0
100
AcDbLine
10
166.800597
20
7.811029
30
0
11
166.720062
21
7.806808
31
0
39
0
210
0
220
0
230
1
0
LINE
5
B1
100
AcDbEntity
8
1
62
256
6
ByLayer
370
13
48
1
60
0
100
AcDbLine
10
167.86453
20
7.23052
30
0
11
167.844552
21
7.231219
31
0
39
0
210
0
220
0
230
1
0
LINE
5
B2
100
AcDbEntity
8
1
62
256
6
ByLayer
370
13
48
1
60
0
100
AcDbLine
10
167.925087
20
7.23544
30
0
11
167.844552
21
7.231219
31
0
39
0
210
0
220
0
230
1
0
LINE
5
B3
100
AcDbEntity
8
1
62
256
6
ByLayer
370
13
48
1
60
0
100
AcDbLine
10
167.869554
20
6.754152
30
0
11
167.88935
21
6.756935
31
0
39
0
210
0
220
0
230
1
0
LINE
5
B4
100
AcDbEntity
8
1
62
256
6
ByLayer
370
13
48
1
60
0
100
AcDbLine
10
167.677778
20
7.617811
30
0
11
167.597243
21
7.613591
31
0
39
0
210
0
220
0
230
1
0
LINE
5
B5
100
AcDbEntity
8
1
62
256
6
ByLayer
370
13
48
1
60
0
100
AcDbLine
10
167.744103
20
6.352245
30
0
11
167.663568
21
6.348024
31
0
39
0
210
0
220
0
230
1
0
LINE
5
B6
100
AcDbEntity
8
1
62
256
6
ByLayer
370
13
48
1
60
0
100
AcDbLine
10
167.946069
20
7.234793
30
0
11
167.86453
21
7.23052
31
0
39
0
210
0
220
0
230
1
0
LINE
5
B7
100
AcDbEntity
8
1
62
256
6
ByLayer
370
13
48
1
60
0
100
AcDbLine
10
167.686272
20
7.636474
30
0
11
167.604733
21
7.632201
31
0
39
0
210
0
220
0
230
1
0
LINE
5
B8
100
AcDbEntity
8
1
62
256
6
ByLayer
370
13
48
1
60
0
100
AcDbLine
10
166.720062
20
7.806808
30
0
11
166.707756
21
7.822635
31
0
39
0
210
0
220
0
230
1
0
LINE
5
B9
100
AcDbEntity
8
1
62
256
6
ByLayer
370
13
48
1
60
0
100
AcDbLine
10
167.754501
20
6.334572
30
0
11
167.672962
21
6.330299
31
0
39
0
210
0
220
0
230
1
0
LINE
5
BA
100
AcDbEntity
8
1
62
256
6
ByLayer
370
13
48
1
60
0
100
AcDbLine
10
166.800805
20
6.047149
30
0
11
166.811389
21
6.064174
31
0
39
0
210
0
220
0
230
1
0
LINE
5
BB
100
AcDbEntity
8
1
62
256
6
ByLayer
370
13
48
1
60
0
100
AcDbLine
10
167.970888
20
6.761209
30
0
11
167.88935
21
6.756935
31
0
39
0
210
0
220
0
230
1
0
LINE
5
BC
100
AcDbEntity
8
1
62
256
6
ByLayer
370
13
48
1
60
0
100
AcDbLine
10
167.597243
20
7.613591
30
0
11
167.604733
21
7.632201
31
0
39
0
210
0
220
0
230
1
0
LINE
5
BD
100
AcDbEntity
8
1
62
256
6
ByLayer
370
13
48
1
60
0
100
AcDbLine
10
166.882344
20
6.051422
30
0
11
166.800805
21
6.047149
31
0
39
0
210
0
220
0
230
1
0
LINE
5
BE
100
AcDbEntity
8
1
62
256
6
ByLayer
370
13
48
1
60
0
100
AcDbLine
10
166.789295
20
7.826908
30
0
11
166.707756
21
7.822635
31
0
39
0
210
0
220
0
230
1
0
LINE
5
BF
100
AcDbEntity
8
1
62
256
6
ByLayer
370
13
48
1
60
0
100
AcDbLine
10
167.672962
20
6.330299
30
0
11
167.663568
21
6.348024
31
0
39
0
210
0
220
0
230
1
0
LINE
5
C0
100
AcDbEntity
8
1
62
256
6
ByLayer
370
13
48
1
60
0
100
AcDbLine
10
166.891924
20
6.068395
30
0
11
166.811389
21
6.064174
31
0
39
0
210
0
220
0
230
1
0
LINE
5
C1
100
AcDbEntity
8
1
62
256
6
ByLayer
370
13
48
1
60
0
100
AcDbLine
10
167.950089
20
6.758372
30
0
11
167.869554
21
6.754152
31
0
39
0
210
0
220
0
230
1
0
LINE
5
C2
100
AcDbEntity
8
1
62
256
6
ByLayer
370
18
48
1
60
0
100
AcDbLine
10
171.73523
20
-2.641164
30
0
11
171.389571
21
-5.250465
31
0
39
0
210
0
220
0
230
1
0
LINE
5
C3
100
AcDbEntity
8
1
62
256
6
ByLayer
370
18
48
1
60
0
100
AcDbLine
10
171.268841
20
0.23781
30
0
11
171.323884
21
0.047041
31
0
39
0
210
0
220
0
230
1
0
LINE
5
C4
100
AcDbEntity
8
1
62
256
6
ByLayer
370
18
48
1
60
0
100
AcDbLine
10
171.337097
20
-0.012192
30
0
11
171.733352
21
-2.498571
31
0
39
0
210
0
220
0
230
1
0
LINE
5
C5
100
AcDbEntity
8
1
62
256
6
ByLayer
370
18
48
1
60
0
100
AcDbLine
10
171.57609
20
-0.130601
30
0
11
171.470103
21
0.236733
31
0
39
0
210
0
220
0
230
1
0
LINE
5
C6
100
AcDbEntity
8
1
62
256
6
ByLayer
370
18
48
1
60
0
100
AcDbLine
10
171.002994
20
-6.07798
30
0
11
171.372615
21
-5.972649
31
0
39
0
210
0
220
0
230
1
0
LINE
5
C7
100
AcDbEntity
8
1
62
256
6
ByLayer
370
13
48
1
60
0
100
AcDbLine
10
171.178821
20
4.023383
30
0
11
171.398261
21
4.449182
31
0
39
0
210
0
220
0
230
1
0
LINE
5
C8
100
AcDbEntity
8
1
62
256
6
ByLayer
370
13
48
1
60
0
100
AcDbLine
10
169.509208
20
4.4006
30
0
11
164.935151
21
4.160884
31
0
39
0
210
0
220
0
230
1
0
LINE
5
C9
100
AcDbEntity
8
1
62
256
6
ByLayer
370
13
48
1
60
0
100
AcDbLine
10
170.441726
20
7.354642
30
0
11
170.056857
21
9.791623
31
0
39
0
210
0
220
0
230
1
0
LINE
5
CA
100
AcDbEntity
8
1
62
256
6
ByLayer
370
13
48
1
60
0
100
AcDbLine
10
163.741084
20
6.550477
30
0
11
164.125954
21
4.113497
31
0
39
0
210
0
220
0
230
1
0
LINE
5
CB
100
AcDbEntity
8
1
62
256
6
ByLayer
370
13
48
1
60
0
100
AcDbLine
10
163.591976
20
3.480923
30
0
11
163.486086
21
3.476304
31
0
39
0
210
0
220
0
230
1
0
LINE
5
CC
100
AcDbEntity
8
1
62
256
6
ByLayer
370
13
48
1
60
0
100
AcDbLine
10
170.678276
20
10.427848
30
0
11
170.673664
21
10.427606
31
0
39
0
210
0
220
0
230
1
0
LINE
5
CD
100
AcDbEntity
8
1
62
256
6
ByLayer
370
13
48
1
60
0
100
AcDbLine
10
162.708808
20
9.866266
30
0
11
162.766101
21
9.454971
31
0
39
0
210
0
220
0
230
1
0
LINE
5
CE
100
AcDbEntity
8
1
62
256
6
ByLayer
370
13
48
1
60
0
100
AcDbLine
10
171.411497
20
10.091861
30
0
11
171.845509
21
7.343718
31
0
39
0
210
0
220
0
230
1
0
LINE
5
CF
100
AcDbEntity
8
1
62
256
6
ByLayer
370
13
48
1
60
0
100
AcDbLine
10
163.351524
20
9.96259
30
0
11
163.100828
21
9.964881
31
0
39
0
210
0
220
0
230
1
0
LINE
5
D0
100
AcDbEntity
8
1
62
256
6
ByLayer
370
13
48
1
60
0
100
AcDbLine
10
162.780901
20
9.206205
30
0
11
162.44697
21
6.654639
31
0
39
0
210
0
220
0
230
1
0
LINE
5
D1
100
AcDbEntity
8
1
62
256
6
ByLayer
370
13
48
1
60
0
100
AcDbLine
10
171.943853
20
7.359339
30
0
11
171.509842
21
10.107483
31
0
39
0
210
0
220
0
230
1
0
LINE
5
D2
100
AcDbEntity
8
1
62
256
6
ByLayer
370
13
48
1
60
0
100
AcDbLine
10
162.77724
20
9.355527
30
0
11
163.867033
21
9.518854
31
0
39
0
210
0
220
0
230
1
0
LINE
5
D3
100
AcDbEntity
8
1
62
256
6
ByLayer
370
13
48
1
60
0
100
AcDbLine
10
171.945755
20
7.21586
30
0
11
171.613173
21
4.674606
31
0
39
0
210
0
220
0
230
1
0
LINE
5
D4
100
AcDbEntity
8
1
62
256
6
ByLayer
370
13
48
1
60
0
100
AcDbLine
10
163.980497
20
9.406876
30
0
11
163.975885
21
9.406634
31
0
39
0
210
0
220
0
230
1
0
LINE
5
D5
100
AcDbEntity
8
1
62
256
6
ByLayer
370
13
48
1
60
0
100
AcDbLine
10
171.055352
20
3.922257
30
0
11
171.197238
21
4.419054
31
0
39
0
210
0
220
0
230
1
0
LINE
5
D6
100
AcDbEntity
8
1
62
256
6
ByLayer
370
13
48
1
60
0
100
AcDbLine
10
171.197238
20
4.419054
30
0
11
171.398261
21
4.449182
31
0
39
0
210
0
220
0
230
1
0
LINE
5
D7
100
AcDbEntity
8
1
62
256
6
ByLayer
370
13
48
1
60
0
100
AcDbLine
10
162.752864
20
3.812291
30
0
11
162.318853
21
6.560435
31
0
39
0
210
0
220
0
230
1
0
LINE
5
D8
100
AcDbEntity
8
1
62
256
6
ByLayer
370
13
48
1
60
0
100
AcDbLine
10
170.297329
20
4.385298
30
0
11
170.292717
21
4.385056
31
0
39
0
210
0
220
0
230
1
0
LINE
5
D9
100
AcDbEntity
8
1
62
256
6
ByLayer
370
13
48
1
60
0
100
AcDbLine
10
171.458538
20
4.014539
30
0
11
171.446707
21
4.063531
31
0
39
0
210
0
220
0
230
1
0
LINE
5
DA
100
AcDbEntity
8
1
62
256
6
ByLayer
370
13
48
1
60
0
100
AcDbLine
10
163.975885
20
9.406634
30
0
11
163.62624
21
6.735001
31
0
39
0
210
0
220
0
230
1
0
LINE
5
DB
100
AcDbEntity
8
1
62
256
6
ByLayer
370
13
48
1
60
0
100
AcDbLine
10
162.107891
20
6.691385
30
0
11
162.106089
21
6.677618
31
0
39
0
210
0
220
0
230
1
0
LINE
5
DC
100
AcDbEntity
8
1
62
256
6
ByLayer
370
13
48
1
60
0
100
AcDbLine
10
170.48954
20
3.867508
30
0
11
170.393975
21
3.8625
31
0
39
0
210
0
220
0
230
1
0
LINE
5
DD
100
AcDbEntity
8
1
62
256
6
ByLayer
370
13
48
1
60
0
100
AcDbLine
10
170.572386
20
10.423229
30
0
11
170.567774
21
10.422987
31
0
39
0
210
0
220
0
230
1
0
LINE
5
DE
100
AcDbEntity
8
1
62
256
6
ByLayer
370
13
48
1
60
0
100
AcDbLine
10
163.628904
20
6.53413
30
0
11
164.034456
21
3.966183
31
0
39
0
210
0
220
0
230
1
0
LINE
5
DF
100
AcDbEntity
8
1
62
256
6
ByLayer
370
13
48
1
60
0
100
AcDbLine
10
164.655154
20
9.503552
30
0
11
169.229211
21
9.743268
31
0
39
0
210
0
220
0
230
1
0
LINE
5
E0
100
AcDbEntity
8
1
62
256
6
ByLayer
370
13
48
1
60
0
100
AcDbLine
10
171.178821
20
4.023383
30
0
11
171.446707
21
4.063531
31
0
39
0
210
0
220
0
230
1
0
LINE
5
E1
100
AcDbEntity
8
1
62
256
6
ByLayer
370
13
48
1
60
0
100
AcDbLine
10
162.447921
20
6.5829
30
0
11
162.881932
21
3.834756
31
0
39
0
210
0
220
0
230
1
0
LINE
5
E2
100
AcDbEntity
8
1
62
256
6
ByLayer
370
13
48
1
60
0
100
AcDbLine
10
164.039069
20
3.966425
30
0
11
164.034456
21
3.966183
31
0
39
0
210
0
220
0
230
1
0
LINE
5
E3
100
AcDbEntity
8
1
62
256
6
ByLayer
370
13
48
1
60
0
100
AcDbLine
10
171.679544
20
7.319319
30
0
11
171.245532
21
10.067463
31
0
39
0
210
0
220
0
230
1
0
LINE
5
E4
100
AcDbEntity
8
1
62
256
6
ByLayer
370
13
48
1
60
0
100
AcDbLine
10
163.983553
20
9.63743
30
0
11
162.766101
21
9.454971
31
0
39
0
210
0
220
0
230
1
0
LINE
5
E5
100
AcDbEntity
8
1
62
256
6
ByLayer
370
13
48
1
60
0
100
AcDbLine
10
171.411497
20
10.091861
30
0
11
171.406885
21
10.09162
31
0
39
0
210
0
220
0
230
1
0
LINE
5
E6
100
AcDbEntity
8
1
62
256
6
ByLayer
370
13
48
1
60
0
100
AcDbLine
10
164.018385
20
4.097392
30
0
11
163.633516
21
6.534372
31
0
39
0
210
0
220
0
230
1
0
LINE
5
E7
100
AcDbEntity
8
1
62
256
6
ByLayer
370
13
48
1
60
0
100
AcDbLine
10
162.317331
20
6.675218
30
0
11
162.651263
21
9.226783
31
0
39
0
210
0
220
0
230
1
0
LINE
5
E8
100
AcDbEntity
8
1
62
256
6
ByLayer
370
13
48
1
60
0
100
AcDbLine
10
171.847031
20
7.228934
30
0
11
171.842418
21
7.228693
31
0
39
0
210
0
220
0
230
1
0
LINE
5
E9
100
AcDbEntity
8
1
62
256
6
ByLayer
370
13
48
1
60
0
100
AcDbLine
10
171.847031
20
7.228934
30
0
11
171.513099
21
4.677369
31
0
39
0
210
0
220
0
230
1
0
LINE
5
EA
100
AcDbEntity
8
1
62
256
6
ByLayer
370
13
48
1
60
0
100
AcDbLine
10
163.464317
20
6.753888
30
0
11
163.805353
21
9.359739
31
0
39
0
210
0
220
0
230
1
0
LINE
5
EB
100
AcDbEntity
8
1
62
256
6
ByLayer
370
13
48
1
60
0
100
AcDbLine
10
170.536106
20
3.92706
30
0
11
170.760529
21
3.923392
31
0
39
0
210
0
220
0
230
1
0
LINE
5
EC
100
AcDbEntity
8
1
62
256
6
ByLayer
370
13
48
1
60
0
100
AcDbLine
10
171.842418
20
7.228693
30
0
11
171.508487
21
4.677127
31
0
39
0
210
0
220
0
230
1
0
LINE
5
ED
100
AcDbEntity
8
1
62
256
6
ByLayer
370
13
48
1
60
0
100
AcDbLine
10
164.084526
20
9.364331
30
0
11
163.738802
21
6.722652
31
0
39
0
210
0
220
0
230
1
0
LINE
5
EE
100
AcDbEntity
8
1
62
256
6
ByLayer
370
13
48
1
60
0
100
AcDbLine
10
171.38251
20
4.548383
30
0
11
170.292717
21
4.385056
31
0
39
0
210
0
220
0
230
1
0
LINE
5
EF
100
AcDbEntity
8
1
62
256
6
ByLayer
370
13
48
1
60
0
100
AcDbLine
10
170.729268
20
10.429381
30
0
11
170.724655
21
10.429139
31
0
39
0
210
0
220
0
230
1
0
LINE
5
F0
100
AcDbEntity
8
1
62
256
6
ByLayer
370
13
48
1
60
0
100
AcDbLine
10
163.040295
20
10.12928
30
0
11
162.965428
21
10.124699
31
0
39
0
210
0
220
0
230
1
0
LINE
5
F1
100
AcDbEntity
8
1
62
256
6
ByLayer
370
13
48
1
60
0
100
AcDbLine
10
162.218607
20
6.688293
30
0
11
162.551188
21
9.229546
31
0
39
0
210
0
220
0
230
1
0
LINE
5
F2
100
AcDbEntity
8
1
62
256
6
ByLayer
370
13
48
1
60
0
100
AcDbLine
10
162.107891
20
6.691385
30
0
11
162.10466
21
6.704888
31
0
39
0
210
0
220
0
230
1
0
LINE
5
F3
100
AcDbEntity
8
1
62
256
6
ByLayer
370
13
48
1
60
0
100
AcDbLine
10
162.551188
20
9.229546
30
0
11
162.493896
21
9.640841
31
0
39
0
210
0
220
0
230
1
0
LINE
5
F4
100
AcDbEntity
8
1
62
256
6
ByLayer
370
13
48
1
60
0
100
AcDbLine
10
171.346563
20
4.696014
30
0
11
171.680495
21
7.247579
31
0
39
0
210
0
220
0
230
1
0
LINE
5
F5
100
AcDbEntity
8
1
62
256
6
ByLayer
370
13
48
1
60
0
100
AcDbLine
10
171.387122
20
4.548625
30
0
11
171.38251
21
4.548383
31
0
39
0
210
0
220
0
230
1
0
LINE
5
F6
100
AcDbEntity
8
1
62
256
6
ByLayer
370
13
48
1
60
0
100
AcDbLine
10
170.493084
20
10.519865
30
0
11
170.56802
21
10.523133
31
0
39
0
210
0
220
0
230
1
0
LINE
5
F7
100
AcDbEntity
8
1
62
256
6
ByLayer
370
13
48
1
60
0
100
AcDbLine
10
170.098284
20
4.540788
30
0
11
170.444009
21
7.182468
31
0
39
0
210
0
220
0
230
1
0
LINE
5
F8
100
AcDbEntity
8
1
62
256
6
ByLayer
370
13
48
1
60
0
100
AcDbLine
10
170.23405
20
10.380399
30
0
11
170.329615
21
10.385407
31
0
39
0
210
0
220
0
230
1
0
LINE
5
F9
100
AcDbEntity
8
1
62
256
6
ByLayer
370
13
48
1
60
0
100
AcDbLine
10
163.630853
20
6.735243
30
0
11
163.976577
21
9.376922
31
0
39
0
210
0
220
0
230
1
0
LINE
5
FA
100
AcDbEntity
8
1
62
256
6
ByLayer
370
13
48
1
60
0
100
AcDbLine
10
170.180808
20
4.266722
30
0
11
171.197238
21
4.419054
31
0
39
0
210
0
220
0
230
1
0
LINE
5
FB
100
AcDbEntity
8
1
62
256
6
ByLayer
370
13
48
1
60
0
100
AcDbLine
10
171.387122
20
4.548625
30
0
11
170.297329
21
4.385298
31
0
39
0
210
0
220
0
230
1
0
LINE
5
FC
100
AcDbEntity
8
1
62
256
6
ByLayer
370
13
48
1
60
0
100
AcDbLine
10
162.220509
20
6.544814
30
0
11
162.65452
21
3.79667
31
0
39
0
210
0
220
0
230
1
0
LINE
5
FD
100
AcDbEntity
8
1
62
256
6
ByLayer
370
13
48
1
60
0
100
AcDbLine
10
170.666376
20
10.277024
30
0
11
170.560486
21
10.272405
31
0
39
0
210
0
220
0
230
1
0
LINE
5
FE
100
AcDbEntity
8
1
62
256
6
ByLayer
370
13
48
1
60
0
100
AcDbLine
10
170.258548
20
9.933681
30
0
11
170.659914
21
7.392245
31
0
39
0
210
0
220
0
230
1
0
LINE
5
FF
100
AcDbEntity
8
1
62
256
6
ByLayer
370
13
48
1
60
0
100
AcDbLine
10
171.024669
20
10.429315
30
0
11
171.020057
21
10.429073
31
0
39
0
210
0
220
0
230
1
0
LINE
5
100
100
AcDbEntity
8
1
62
256
6
ByLayer
370
13
48
1
60
0
100
AcDbLine
10
170.663148
20
7.148331
30
0
11
170.322112
21
4.54248
31
0
39
0
210
0
220
0
230
1
0
LINE
5
101
100
AcDbEntity
8
1
62
256
6
ByLayer
370
13
48
1
60
0
100
AcDbLine
10
163.630853
20
6.735243
30
0
11
163.62624
21
6.735001
31
0
39
0
210
0
220
0
230
1
0
LINE
5
102
100
AcDbEntity
8
1
62
256
6
ByLayer
370
13
48
1
60
0
100
AcDbLine
10
163.351524
20
9.96259
30
0
11
163.397449
21
9.969472
31
0
39
0
210
0
220
0
230
1
0
LINE
5
103
100
AcDbEntity
8
1
62
256
6
ByLayer
370
13
48
1
60
0
100
AcDbLine
10
164.039069
20
3.966425
30
0
11
164.018385
21
4.097392
31
0
39
0
210
0
220
0
230
1
0
LINE
5
104
100
AcDbEntity
8
1
62
256
6
ByLayer
370
13
48
1
60
0
100
AcDbLine
10
163.976577
20
9.376922
30
0
11
163.980497
21
9.406876
31
0
39
0
210
0
220
0
230
1
0
LINE
5
105
100
AcDbEntity
8
1
62
256
6
ByLayer
370
13
48
1
60
0
100
AcDbLine
10
171.406885
20
10.09162
30
0
11
171.840896
21
7.343476
31
0
39
0
210
0
220
0
230
1
0
LINE
5
106
100
AcDbEntity
8
1
62
256
6
ByLayer
370
13
48
1
60
0
100
AcDbLine
10
170.536106
20
3.92706
30
0
11
170.490181
21
3.920177
31
0
39
0
210
0
220
0
230
1
0
LINE
5
107
100
AcDbEntity
8
1
62
256
6
ByLayer
370
13
48
1
60
0
100
AcDbLine
10
170.572386
20
10.423229
30
0
11
170.678276
21
10.427848
31
0
39
0
210
0
220
0
230
1
0
LINE
5
108
100
AcDbEntity
8
1
62
256
6
ByLayer
370
13
48
1
60
0
100
AcDbLine
10
164.007456
20
3.876554
30
0
11
164.002843
21
3.876312
31
0
39
0
210
0
220
0
230
1
0
LINE
5
109
100
AcDbEntity
8
1
62
256
6
ByLayer
370
13
48
1
60
0
100
AcDbLine
10
163.805353
20
9.359739
30
0
11
162.780901
21
9.206205
31
0
39
0
210
0
220
0
230
1
0
LINE
5
10A
100
AcDbEntity
8
1
62
256
6
ByLayer
370
13
48
1
60
0
100
AcDbLine
10
162.111218
20
6.541745
30
0
11
162.624489
21
3.795827
31
0
39
0
210
0
220
0
230
1
0
LINE
5
10B
100
AcDbEntity
8
1
62
256
6
ByLayer
370
13
48
1
60
0
100
AcDbLine
10
171.513099
20
4.677369
30
0
11
171.508487
21
4.677127
31
0
39
0
210
0
220
0
230
1
0
LINE
5
10C
100
AcDbEntity
8
1
62
256
6
ByLayer
370
13
48
1
60
0
100
AcDbLine
10
170.322112
20
4.54248
30
0
11
171.346563
21
4.696014
31
0
39
0
210
0
220
0
230
1
0
LINE
5
10D
100
AcDbEntity
8
1
62
256
6
ByLayer
370
13
48
1
60
0
100
AcDbLine
10
163.461088
20
3.625194
30
0
11
163.566979
21
3.629814
31
0
39
0
210
0
220
0
230
1
0
LINE
5
10E
100
AcDbEntity
8
1
62
256
6
ByLayer
370
13
48
1
60
0
100
AcDbLine
10
163.633516
20
6.534372
30
0
11
163.628904
21
6.53413
31
0
39
0
210
0
220
0
230
1
0
LINE
5
10F
100
AcDbEntity
8
1
62
256
6
ByLayer
370
13
48
1
60
0
100
AcDbLine
10
163.671278
20
3.384288
30
0
11
163.596342
21
3.381019
31
0
39
0
210
0
220
0
230
1
0
LINE
5
110
100
AcDbEntity
8
1
62
256
6
ByLayer
370
13
48
1
60
0
100
AcDbLine
10
163.750913
20
3.572741
30
0
11
163.7463
21
3.572499
31
0
39
0
210
0
220
0
230
1
0
LINE
5
111
100
AcDbEntity
8
1
62
256
6
ByLayer
370
13
48
1
60
0
100
AcDbLine
10
163.868917
20
3.968538
30
0
11
163.467551
21
6.509973
31
0
39
0
210
0
220
0
230
1
0
LINE
5
112
100
AcDbEntity
8
1
62
256
6
ByLayer
370
13
48
1
60
0
100
AcDbLine
10
171.845509
20
7.343718
30
0
11
171.840896
21
7.343476
31
0
39
0
210
0
220
0
230
1
0
LINE
5
113
100
AcDbEntity
8
1
62
256
6
ByLayer
370
13
48
1
60
0
100
AcDbLine
10
171.483901
20
4.388811
30
0
11
171.446707
21
4.063531
31
0
39
0
210
0
220
0
230
1
0
LINE
5
114
100
AcDbEntity
8
1
62
256
6
ByLayer
370
13
48
1
60
0
100
AcDbLine
10
170.157263
20
10.323482
30
0
11
170.154592
21
10.323599
31
0
39
0
210
0
220
0
230
1
0
LINE
5
115
100
AcDbEntity
8
1
62
256
6
ByLayer
370
13
48
1
60
0
100
AcDbLine
10
161.985563
20
6.505055
30
0
11
162.537338
21
4.198962
31
0
39
0
210
0
220
0
230
1
0
LINE
5
116
100
AcDbEntity
8
1
62
256
6
ByLayer
370
13
48
1
60
0
100
AcDbLine
10
162.537338
20
4.198962
30
0
11
162.553838
21
4.17381
31
0
39
0
210
0
220
0
230
1
0
LINE
5
117
100
AcDbEntity
8
1
62
256
6
ByLayer
370
13
48
1
60
0
100
AcDbLine
10
162.087385
20
6.840124
30
0
11
162.088504
21
6.948409
31
0
39
0
210
0
220
0
230
1
0
LINE
5
118
100
AcDbEntity
8
1
62
256
6
ByLayer
370
13
48
1
60
0
100
AcDbLine
10
162.092811
20
6.781672
30
0
11
162.10778
21
6.912583
31
0
39
0
210
0
220
0
230
1
0
LINE
5
119
100
AcDbEntity
8
1
62
256
6
ByLayer
370
13
48
1
60
0
100
AcDbLine
10
170.568386
20
10.423014
30
0
11
170.673664
21
10.427606
31
0
39
0
210
0
220
0
230
1
0
LINE
5
11A
100
AcDbEntity
8
1
62
256
6
ByLayer
370
13
48
1
60
0
100
AcDbLine
10
170.28321
20
4.384097
30
0
11
170.292717
21
4.385056
31
0
39
0
210
0
220
0
230
1
0
LINE
5
11B
100
AcDbEntity
8
1
62
256
6
ByLayer
370
13
48
1
60
0
100
AcDbLine
10
162.708808
20
9.866266
30
0
11
162.49735
21
9.834575
31
0
39
0
210
0
220
0
230
1
0
LINE
5
11C
100
AcDbEntity
8
1
62
256
6
ByLayer
370
13
48
1
60
0
100
AcDbLine
10
162.145822
20
6.981215
30
0
11
162.107891
21
6.691385
31
0
39
0
210
0
220
0
230
1
0
LINE
5
11D
100
AcDbEntity
8
1
62
256
6
ByLayer
370
13
48
1
60
0
100
AcDbLine
10
170.125293
20
9.937727
30
0
11
170.144557
21
9.815748
31
0
39
0
210
0
220
0
230
1
0
LINE
5
11E
100
AcDbEntity
8
1
62
256
6
ByLayer
370
13
48
1
60
0
100
AcDbLine
10
170.186626
20
4.518375
30
0
11
170.183864
21
4.497276
31
0
39
0
210
0
220
0
230
1
0
LINE
5
11F
100
AcDbEntity
8
1
62
256
6
ByLayer
370
13
48
1
60
0
100
AcDbLine
10
167.096554
20
5.400702
30
0
11
167.096697
21
5.40071
31
0
39
0
210
0
220
0
230
1
0
LINE
5
120
100
AcDbEntity
8
1
62
256
6
ByLayer
370
13
48
1
60
0
100
AcDbLine
10
166.201754
20
6.668492
30
0
11
166.159516
21
6.666279
31
0
39
0
210
0
220
0
230
1
0
LINE
5
121
100
AcDbEntity
8
1
62
256
6
ByLayer
370
13
48
1
60
0
100
AcDbLine
10
166.176934
20
7.142077
30
0
11
166.135119
21
7.139885
31
0
39
0
210
0
220
0
230
1
0
LINE
5
122
100
AcDbEntity
8
1
62
256
6
ByLayer
370
18
48
1
60
0
100
AcDbLine
10
171.139039
20
-5.539424
30
0
11
170.952271
21
-5.592647
31
0
39
0
210
0
220
0
230
1
0
LINE
5
123
100
AcDbEntity
8
1
62
256
6
ByLayer
370
13
48
1
60
0
100
AcDbLine
10
171.304058
20
3.286814
30
0
11
171.317366
21
3.261172
31
0
39
0
210
0
220
0
230
1
0
LINE
5
124
100
AcDbEntity
8
1
62
256
6
ByLayer
370
13
48
1
60
0
100
AcDbLine
10
162.321493
20
5.101069
30
0
11
162.37753
21
4.746246
31
0
39
0
210
0
220
0
230
1
0
LINE
5
125
100
AcDbEntity
8
1
62
256
6
ByLayer
370
13
48
1
60
0
100
AcDbLine
10
171.338902
20
0.930451
30
0
11
171.300526
21
0.914331
31
0
39
0
210
0
220
0
230
1
0
LINE
5
126
100
AcDbEntity
8
1
62
256
6
ByLayer
370
13
48
1
60
0
100
AcDbLine
10
171.317366
20
3.261172
30
0
11
171.310852
21
3.260831
31
0
39
0
210
0
220
0
230
1
0
LINE
5
127
100
AcDbEntity
8
1
62
256
6
ByLayer
370
13
48
1
60
0
100
AcDbLine
10
171.596341
20
4.609808
30
0
11
171.568639
21
4.26457
31
0
39
0
210
0
220
0
230
1
0
LINE
5
128
100
AcDbEntity
8
1
62
256
6
ByLayer
370
13
48
1
60
0
100
AcDbLine
10
164.60341
20
3.816388
30
0
11
164.253268
21
3.798037
31
0
39
0
210
0
220
0
230
1
0
LINE
5
129
100
AcDbEntity
8
1
62
256
6
ByLayer
370
13
48
1
60
0
100
AcDbLine
10
171.336476
20
0.93333
30
0
11
171.313637
21
0.936318
31
0
39
0
210
0
220
0
230
1
0
LINE
5
12A
100
AcDbEntity
8
1
62
256
6
ByLayer
370
13
48
1
60
0
100
AcDbLine
10
27
20
-10.216067
30
0
11
27
21
-10.2375
31
0
39
0
210
0
220
0
230
1
0
LINE
5
12B
100
AcDbEntity
8
1
62
256
6
ByLayer
370
13
48
1
60
0
100
AcDbLine
10
160.929262
20
10.2375
30
0
11
160.929262
21
10.095024
31
0
39
0
210
0
220
0
230
1
0
LINE
5
12C
100
AcDbEntity
8
1
62
256
6
ByLayer
370
13
48
1
60
0
100
AcDbLine
10
171.234978
20
0.633257
30
0
11
171.223548
21
0.634753
31
0
39
0
210
0
220
0
230
1
0
LINE
5
12D
100
AcDbEntity
8
1
62
256
6
ByLayer
370
13
48
1
60
0
100
AcDbLine
10
171.254232
20
0.610418
30
0
11
171.214066
21
0.615673
31
0
39
0
210
0
220
0
230
1
0
LINE
5
12E
100
AcDbEntity
8
1
62
256
6
ByLayer
370
13
48
1
60
0
100
AcDbLine
10
82
20
-10.109257
30
0
11
82
21
-10.1325
31
0
39
0
210
0
220
0
230
1
0
LINE
5
12F
100
AcDbEntity
8
1
62
256
6
ByLayer
370
13
48
1
60
0
100
AcDbLine
10
157.929262
20
10.1325
30
0
11
157.929262
21
9.986794
31
0
39
0
210
0
220
0
230
1
0
LINE
5
130
100
AcDbEntity
8
1
62
256
6
ByLayer
370
13
48
1
60
0
100
AcDbLine
10
82
20
10.1325
30
0
11
82
21
-3.449068
31
0
39
0
210
0
220
0
230
1
0
LINE
5
131
100
AcDbEntity
8
1
62
256
6
ByLayer
370
13
48
1
60
0
100
AcDbLine
10
27
20
10.2375
30
0
11
27
21
-3.451422
31
0
39
0
210
0
220
0
230
1
0
LINE
5
132
100
AcDbEntity
8
SK1
62
256
6
ByLayer
370
13
48
1
60
0
100
AcDbLine
10
-56
20
-11.49675
30
0
11
-56
21
-4.998651
31
0
39
0
210
0
220
0
230
1
0
LINE
5
133
100
AcDbEntity
8
SK1
62
256
6
ByLayer
370
13
48
1
60
0
100
AcDbLine
10
-56
20
4.998651
30
0
11
-56
21
11.49675
31
0
39
0
210
0
220
0
230
1
0
LINE
5
134
100
AcDbEntity
8
SK1
62
256
6
ByLayer
370
13
48
1
60
0
100
AcDbLine
10
-55
20
-12.49675
30
0
11
-55
21
-6.998572
31
0
39
0
210
0
220
0
230
1
0
LINE
5
135
100
AcDbEntity
8
SK1
62
256
6
ByLayer
370
13
48
1
60
0
100
AcDbLine
10
-55
20
6.998572
30
0
11
-55
21
12.49675
31
0
39
0
210
0
220
0
230
1
0
LINE
5
136
100
AcDbEntity
8
SK1
62
256
6
ByLayer
370
13
48
1
60
0
100
AcDbLine
10
-54.60004
20
-12.49675
30
0
11
-54.60004
21
-6.998572
31
0
39
0
210
0
220
0
230
1
0
LINE
5
137
100
AcDbEntity
8
SK1
62
256
6
ByLayer
370
13
48
1
60
0
100
AcDbLine
10
-54.60004
20
6.998572
30
0
11
-54.60004
21
12.49675
31
0
39
0
210
0
220
0
230
1
0
LINE
5
138
100
AcDbEntity
8
SK1
62
256
6
ByLayer
370
13
48
1
60
0
100
AcDbLine
10
-54.516222
20
12.393244
30
0
11
-54.516222
21
6.812029
31
0
39
0
210
0
220
0
230
1
0
LINE
5
139
100
AcDbEntity
8
SK1
62
256
6
ByLayer
370
13
48
1
60
0
100
AcDbLine
10
-54.516222
20
-6.812029
30
0
11
-54.516222
21
-12.393244
31
0
39
0
210
0
220
0
230
1
0
LINE
5
13A
100
AcDbEntity
8
SK1
62
256
6
ByLayer
370
13
48
1
60
0
100
AcDbLine
10
-53.633813
20
12.140367
30
0
11
-53.633813
21
6.340328
31
0
39
0
210
0
220
0
230
1
0
LINE
5
13B
100
AcDbEntity
8
SK1
62
256
6
ByLayer
370
13
48
1
60
0
100
AcDbLine
10
-53.633813
20
-6.340328
30
0
11
-53.633813
21
-12.140367
31
0
39
0
210
0
220
0
230
1
0
LINE
5
13C
100
AcDbEntity
8
SK1
62
256
6
ByLayer
370
13
48
1
60
0
100
AcDbLine
10
-1.375195
20
-12.24675
30
0
11
-1.375195
21
12.24675
31
0
39
0
210
0
220
0
230
1
0
LINE
5
13D
100
AcDbEntity
8
SK1
62
256
6
ByLayer
370
13
48
1
60
0
100
AcDbLine
10
-1.544243
20
-12.284227
30
0
11
-1.544243
21
12.284227
31
0
39
0
210
0
220
0
230
1
0
LINE
5
13E
100
AcDbEntity
8
SK1
62
256
6
ByLayer
370
13
48
1
60
0
100
AcDbLine
10
-2
20
-12.49675
30
0
11
-2
21
12.49675
31
0
39
0
210
0
220
0
230
1
0
LINE
5
13F
100
AcDbEntity
8
SK1
62
256
6
ByLayer
370
13
48
1
60
0
100
AcDbLine
10
-52.599857
20
12.49675
30
0
11
-52.599857
21
6.998572
31
0
39
0
210
0
220
0
230
1
0
LINE
5
140
100
AcDbEntity
8
SK1
62
256
6
ByLayer
370
13
48
1
60
0
100
AcDbLine
10
-52.599857
20
-6.998572
30
0
11
-52.599857
21
-12.49675
31
0
39
0
210
0
220
0
230
1
0
LINE
5
141
100
AcDbEntity
8
SK1
62
256
6
ByLayer
370
13
48
1
60
0
100
AcDbLine
10
-0.15
20
-12.24675
30
0
11
-0.15
21
12.24675
31
0
39
0
210
0
220
0
230
1
0
LINE
5
142
100
AcDbEntity
8
1
62
256
6
ByLayer
370
13
48
1
60
0
100
AcDbLine
10
0
20
-15.9
30
0
11
0
21
-3.544009
31
0
39
0
210
0
220
0
230
1
0
LINE
5
143
100
AcDbEntity
8
1
62
256
6
ByLayer
370
13
48
1
60
0
100
AcDbLine
10
0
20
15.9
30
0
11
0
21
3.544009
31
0
39
0
210
0
220
0
230
1
0
LINE
5
144
100
AcDbEntity
8
1
62
256
6
ByLayer
370
13
48
1
60
0
100
AcDbLine
10
0.1
20
16
30
0
11
0.1
21
3.968627
31
0
39
0
210
0
220
0
230
1
0
LINE
5
145
100
AcDbEntity
8
1
62
256
6
ByLayer
370
13
48
1
60
0
100
AcDbLine
10
0.1
20
-16
30
0
11
0.1
21
-3.968627
31
0
39
0
210
0
220
0
230
1
0
LINE
5
146
100
AcDbEntity
8
1
62
256
6
ByLayer
370
13
48
1
60
0
100
AcDbLine
10
5.6777
20
16
30
0
11
5.6777
21
3.968627
31
0
39
0
210
0
220
0
230
1
0
LINE
5
147
100
AcDbEntity
8
1
62
256
6
ByLayer
370
13
48
1
60
0
100
AcDbLine
10
5.6777
20
-3.968627
30
0
11
5.6777
21
-16
31
0
39
0
210
0
220
0
230
1
0
LINE
5
148
100
AcDbEntity
8
1
62
256
6
ByLayer
370
13
48
1
60
0
100
AcDbLine
10
22
20
10.2375
30
0
11
22
21
-3.452077
31
0
39
0
210
0
220
0
230
1
0
LINE
5
149
100
AcDbEntity
8
1
62
256
6
ByLayer
370
13
48
1
60
0
100
AcDbLine
10
22
20
-10.216088
30
0
11
22
21
-10.2375
31
0
39
0
210
0
220
0
230
1
0
LINE
5
14A
100
AcDbEntity
8
4
62
256
6
ByLayer
370
18
48
0.05
60
0
100
AcDbLine
10
172
20
0
30
0
11
0
21
0
31
0
39
0
210
0
220
0
230
1
0
LINE
5
14C
100
AcDbEntity
8
SK4
62
256
6
ByLayer
370
13
48
0.05
60
0
100
AcDbLine
10
172
20
0
30
0
11
-56
21
0
31
0
39
0
210
0
220
0
230
1
0
LINE
5
14E
100
AcDbEntity
8
1
62
256
6
ByLayer
370
13
48
1
60
0
100
AcDbLine
10
115.089143
20
10.1325
30
0
11
82
21
10.1325
31
0
39
0
210
0
220
0
230
1
0
LINE
5
14F
100
AcDbEntity
8
1
62
256
6
ByLayer
370
13
48
1
60
0
100
AcDbLine
10
82
20
-10.1325
30
0
11
123.602645
21
-10.1325
31
0
39
0
210
0
220
0
230
1
0
LINE
5
150
100
AcDbEntity
8
SK1
62
256
6
ByLayer
370
13
48
1
60
0
100
AcDbLine
10
-54.60004
20
12.49675
30
0
11
-55
21
12.49675
31
0
39
0
210
0
220
0
230
1
0
LINE
5
151
100
AcDbEntity
8
SK1
62
256
6
ByLayer
370
13
48
1
60
0
100
AcDbLine
10
-55
20
-12.49675
30
0
11
-54.60004
21
-12.49675
31
0
39
0
210
0
220
0
230
1
0
LINE
5
152
100
AcDbEntity
8
SK1
62
256
6
ByLayer
370
13
48
1
60
0
100
AcDbLine
10
-53.633813
20
-12.140367
30
0
11
-52.599857
21
-12.49675
31
0
39
0
210
0
220
0
230
1
0
LINE
5
153
100
AcDbEntity
8
SK1
62
256
6
ByLayer
370
13
48
1
60
0
100
AcDbLine
10
-52.599857
20
12.49675
30
0
11
-53.633813
21
12.140367
31
0
39
0
210
0
220
0
230
1
0
LINE
5
154
100
AcDbEntity
8
SK1
62
256
6
ByLayer
370
13
48
1
60
0
100
AcDbLine
10
-56
20
-11.49675
30
0
11
-55
21
-12.49675
31
0
39
0
210
0
220
0
230
1
0
LINE
5
155
100
AcDbEntity
8
SK1
62
256
6
ByLayer
370
13
48
1
60
0
100
AcDbLine
10
-55
20
12.49675
30
0
11
-56
21
11.49675
31
0
39
0
210
0
220
0
230
1
0
LINE
5
156
100
AcDbEntity
8
SK1
62
256
6
ByLayer
370
13
48
1
60
0
100
AcDbLine
10
-54.516222
20
12.393244
30
0
11
-54.60004
21
12.49675
31
0
39
0
210
0
220
0
230
1
0
LINE
5
157
100
AcDbEntity
8
SK1
62
256
6
ByLayer
370
13
48
1
60
0
100
AcDbLine
10
-54.60004
20
-12.49675
30
0
11
-54.516222
21
-12.393244
31
0
39
0
210
0
220
0
230
1
0
LINE
5
158
100
AcDbEntity
8
SK1
62
256
6
ByLayer
370
13
48
1
60
0
100
AcDbLine
10
-0.15
20
12.24675
30
0
11
-1.375195
21
12.24675
31
0
39
0
210
0
220
0
230
1
0
LINE
5
159
100
AcDbEntity
8
SK1
62
256
6
ByLayer
370
13
48
1
60
0
100
AcDbLine
10
-1.375195
20
-12.24675
30
0
11
-0.15
21
-12.24675
31
0
39
0
210
0
220
0
230
1
0
LINE
5
15A
100
AcDbEntity
8
SK1
62
256
6
ByLayer
370
13
48
1
60
0
100
AcDbLine
10
-1.544243
20
12.284227
30
0
11
-2
21
12.49675
31
0
39
0
210
0
220
0
230
1
0
LINE
5
15B
100
AcDbEntity
8
SK1
62
256
6
ByLayer
370
13
48
1
60
0
100
AcDbLine
10
-2
20
-12.49675
30
0
11
-1.544243
21
-12.284227
31
0
39
0
210
0
220
0
230
1
0
LINE
5
15C
100
AcDbEntity
8
SK1
62
256
6
ByLayer
370
13
48
1
60
0
100
AcDbLine
10
-2
20
12.49675
30
0
11
-52.599857
21
12.49675
31
0
39
0
210
0
220
0
230
1
0
LINE
5
15D
100
AcDbEntity
8
SK1
62
256
6
ByLayer
370
13
48
1
60
0
100
AcDbLine
10
-52.599857
20
-12.49675
30
0
11
-2
21
-12.49675
31
0
39
0
210
0
220
0
230
1
0
LINE
5
15E
100
AcDbEntity
8
1
62
256
6
ByLayer
370
13
48
1
60
0
100
AcDbLine
10
171.366031
20
4.160085
30
0
11
171.58547
21
4.585883
31
0
39
0
210
0
220
0
230
1
0
LINE
5
15F
100
AcDbEntity
8
1
62
256
6
ByLayer
370
13
48
1
60
0
100
AcDbLine
10
170.531278
20
7.369759
30
0
11
170.146408
21
9.806739
31
0
39
0
210
0
220
0
230
1
0
LINE
5
160
100
AcDbEntity
8
1
62
256
6
ByLayer
370
13
48
1
60
0
100
AcDbLine
10
170.188214
20
4.527328
30
0
11
170.533939
21
7.169008
31
0
39
0
210
0
220
0
230
1
0
LINE
5
161
100
AcDbEntity
8
1
62
256
6
ByLayer
370
13
48
1
60
0
100
AcDbLine
10
167.108426
20
6.161166
30
0
11
167.033781
21
6.157254
31
0
39
0
210
0
220
0
230
1
0
LINE
5
162
100
AcDbEntity
8
1
62
256
6
ByLayer
370
13
48
1
60
0
100
AcDbLine
10
166.950964
20
7.737485
30
0
11
167.025609
21
7.741397
31
0
39
0
210
0
220
0
230
1
0
LINE
5
163
100
AcDbEntity
8
1
62
256
6
ByLayer
370
13
48
1
60
0
100
AcDbLine
10
166.983415
20
8.499027
30
0
11
166.934313
21
8.496454
31
0
39
0
210
0
220
0
230
1
0
LINE
5
164
100
AcDbEntity
8
1
62
256
6
ByLayer
370
13
48
1
60
0
100
AcDbLine
10
167.096554
20
5.400702
30
0
11
167.145656
21
5.403276
31
0
39
0
210
0
220
0
230
1
0
LINE
5
165
100
AcDbEntity
8
1
62
256
6
ByLayer
370
13
48
1
60
0
100
AcDbLine
10
22
20
-10.2375
30
0
11
27
21
-10.2375
31
0
39
0
210
0
220
0
230
1
0
LINE
5
166
100
AcDbEntity
8
1
62
256
6
ByLayer
370
13
48
1
60
0
100
AcDbLine
10
27
20
-10.2375
30
0
11
82
21
-10.1325
31
0
39
0
210
0
220
0
230
1
0
LINE
5
167
100
AcDbEntity
8
1
62
256
6
ByLayer
370
13
48
1
60
0
100
AcDbLine
10
162.25753
20
10.2375
30
0
11
160.929262
21
10.2375
31
0
39
0
210
0
220
0
230
1
0
LINE
5
168
100
AcDbEntity
8
1
62
256
6
ByLayer
370
13
48
1
60
0
100
AcDbLine
10
160.929262
20
10.2375
30
0
11
157.929262
21
10.1325
31
0
39
0
210
0
220
0
230
1
0
LINE
5
169
100
AcDbEntity
8
1
62
256
6
ByLayer
370
13
48
1
60
0
100
AcDbLine
10
157.929262
20
10.1325
30
0
11
154.113458
21
10.1325
31
0
39
0
210
0
220
0
230
1
0
LINE
5
16A
100
AcDbEntity
8
1
62
256
6
ByLayer
370
13
48
1
60
0
100
AcDbLine
10
82
20
10.1325
30
0
11
27
21
10.2375
31
0
39
0
210
0
220
0
230
1
0
LINE
5
16B
100
AcDbEntity
8
1
62
256
6
ByLayer
370
13
48
1
60
0
100
AcDbLine
10
27
20
10.2375
30
0
11
22
21
10.2375
31
0
39
0
210
0
220
0
230
1
0
LINE
5
16C
100
AcDbEntity
8
1
62
256
6
ByLayer
370
13
48
1
60
0
100
AcDbLine
10
0
20
-15.9
30
0
11
0.1
21
-16
31
0
39
0
210
0
220
0
230
1
0
LINE
5
16D
100
AcDbEntity
8
1
62
256
6
ByLayer
370
13
48
1
60
0
100
AcDbLine
10
0.1
20
16
30
0
11
0
21
15.9
31
0
39
0
210
0
220
0
230
1
0
LINE
5
16E
100
AcDbEntity
8
1
62
256
6
ByLayer
370
13
48
1
60
0
100
AcDbLine
10
5.6777
20
16
30
0
11
0.1
21
16
31
0
39
0
210
0
220
0
230
1
0
LINE
5
16F
100
AcDbEntity
8
1
62
256
6
ByLayer
370
13
48
1
60
0
100
AcDbLine
10
0.1
20
-16
30
0
11
5.6777
21
-16
31
0
39
0
210
0
220
0
230
1
0
LINE
5
170
100
AcDbEntity
8
81
62
256
6
ByLayer
370
18
48
1
60
0
100
AcDbLine
10
172
20
0
30
0
11
179
21
0
31
0
39
0
210
0
220
0
230
1
0
LINE
5
171
100
AcDbEntity
8
80
62
256
6
ByLayer
370
18
48
1
60
0
100
AcDbLine
10
0
20
0
30
0
11
-7
21
0
31
0
39
0
210
0
220
0
230
1
0
LINE
5
172
100
AcDbEntity
8
SK2
62
256
6
ByLayer
370
13
48
1
60
0
100
AcDbLine
10
-76.725
20
23.75
30
0
11
-76.725
21
-23.75
31
0
39
0
210
0
220
0
230
1
0
LINE
5
174
100
AcDbEntity
8
SK2
62
256
6
ByLayer
370
13
48
1
60
0
100
AcDbLine
10
-57.5875
20
-12.5
30
0
11
-79.9
21
-12.5
31
0
39
0
210
0
220
0
230
1
0
LINE
5
175
100
AcDbEntity
8
SK2
62
256
6
ByLayer
370
13
48
1
60
0
100
AcDbLine
10
-57.5875
20
12.5
30
0
11
-79.9
21
12.5
31
0
39
0
210
0
220
0
230
1
0
LINE
5
176
100
AcDbEntity
8
1
62
256
6
ByLayer
370
18
48
1
60
1
100
AcDbLine
10
-76.725
20
-12.5
30
0
11
-75.799425
21
-16.674997
31
0
39
0
210
0
220
0
230
1
0
LINE
5
177
100
AcDbEntity
8
1
62
256
6
ByLayer
370
18
48
1
60
1
100
AcDbLine
10
-75.799425
20
-16.674997
30
0
11
-77.650575
21
-16.675003
31
0
39
0
210
0
220
0
230
1
0
LINE
5
178
100
AcDbEntity
8
1
62
256
6
ByLayer
370
18
48
1
60
1
100
AcDbLine
10
-77.650575
20
-16.675003
30
0
11
-76.725
21
-12.5
31
0
39
0
210
0
220
0
230
1
0
LINE
5
179
100
AcDbEntity
8
1
62
256
6
ByLayer
370
18
48
1
60
1
100
AcDbLine
10
-76.725
20
12.5
30
0
11
-77.650575
21
16.674997
31
0
39
0
210
0
220
0
230
1
0
LINE
5
17A
100
AcDbEntity
8
1
62
256
6
ByLayer
370
18
48
1
60
1
100
AcDbLine
10
-77.650575
20
16.674997
30
0
11
-75.799425
21
16.675003
31
0
39
0
210
0
220
0
230
1
0
LINE
5
17B
100
AcDbEntity
8
1
62
256
6
ByLayer
370
18
48
1
60
1
100
AcDbLine
10
-75.799425
20
16.675003
30
0
11
-76.725
21
12.5
31
0
39
0
210
0
220
0
230
1
0
LINE
5
17C
100
AcDbEntity
8
SK2
62
256
6
ByLayer
370
13
48
1
60
0
100
AcDbLine
10
-86.725
20
-16
30
0
11
-86.725
21
16
31
0
39
0
210
0
220
0
230
1
0
LINE
5
17D
100
AcDbEntity
8
SK2
62
256
6
ByLayer
370
13
48
1
60
0
100
AcDbLine
10
-1.5875
20
16
30
0
11
-89.9
21
16
31
0
39
0
210
0
220
0
230
1
0
LINE
5
17E
100
AcDbEntity
8
SK2
62
256
6
ByLayer
370
13
48
1
60
0
100
AcDbLine
10
-1.5875
20
-16
30
0
11
-89.9
21
-16
31
0
39
0
210
0
220
0
230
1
0
LINE
5
17F
100
AcDbEntity
8
1
62
256
6
ByLayer
370
18
48
1
60
1
100
AcDbLine
10
-86.725
20
16
30
0
11
-85.799425
21
11.825003
31
0
39
0
210
0
220
0
230
1
0
LINE
5
180
100
AcDbEntity
8
1
62
256
6
ByLayer
370
18
48
1
60
1
100
AcDbLine
10
-85.799425
20
11.825003
30
0
11
-87.650575
21
11.824997
31
0
39
0
210
0
220
0
230
1
0
LINE
5
181
100
AcDbEntity
8
1
62
256
6
ByLayer
370
18
48
1
60
1
100
AcDbLine
10
-87.650575
20
11.824997
30
0
11
-86.725
21
16
31
0
39
0
210
0
220
0
230
1
0
LINE
5
182
100
AcDbEntity
8
1
62
256
6
ByLayer
370
18
48
1
60
1
100
AcDbLine
10
-86.725
20
-16
30
0
11
-87.650575
21
-11.825003
31
0
39
0
210
0
220
0
230
1
0
LINE
5
183
100
AcDbEntity
8
1
62
256
6
ByLayer
370
18
48
1
60
1
100
AcDbLine
10
-87.650575
20
-11.825003
30
0
11
-85.799425
21
-11.824997
31
0
39
0
210
0
220
0
230
1
0
LINE
5
184
100
AcDbEntity
8
1
62
256
6
ByLayer
370
18
48
1
60
1
100
AcDbLine
10
-85.799425
20
-11.824997
30
0
11
-86.725
21
-16
31
0
39
0
210
0
220
0
230
1
0
LINE
5
185
100
AcDbEntity
8
2
62
256
6
ByLayer
370
13
48
1
60
0
100
AcDbLine
10
198.975
20
21.75
30
0
11
198.975
21
-21.75
31
0
39
0
210
0
220
0
230
1
0
LINE
5
187
100
AcDbEntity
8
2
62
256
6
ByLayer
370
13
48
1
60
0
100
AcDbLine
10
173.5875
20
-10.5
30
0
11
202.15
21
-10.5
31
0
39
0
210
0
220
0
230
1
0
LINE
5
188
100
AcDbEntity
8
2
62
256
6
ByLayer
370
13
48
1
60
0
100
AcDbLine
10
173.5875
20
10.5
30
0
11
202.15
21
10.5
31
0
39
0
210
0
220
0
230
1
0
LINE
5
189
100
AcDbEntity
8
1
62
256
6
ByLayer
370
18
48
1
60
1
100
AcDbLine
10
198.975
20
-10.5
30
0
11
199.900575
21
-14.674997
31
0
39
0
210
0
220
0
230
1
0
LINE
5
18A
100
AcDbEntity
8
1
62
256
6
ByLayer
370
18
48
1
60
1
100
AcDbLine
10
199.900575
20
-14.674997
30
0
11
198.049425
21
-14.675003
31
0
39
0
210
0
220
0
230
1
0
LINE
5
18B
100
AcDbEntity
8
1
62
256
6
ByLayer
370
18
48
1
60
1
100
AcDbLine
10
198.049425
20
-14.675003
30
0
11
198.975
21
-10.5
31
0
39
0
210
0
220
0
230
1
0
LINE
5
18C
100
AcDbEntity
8
1
62
256
6
ByLayer
370
18
48
1
60
1
100
AcDbLine
10
198.975
20
10.5
30
0
11
198.049425
21
14.674997
31
0
39
0
210
0
220
0
230
1
0
LINE
5
18D
100
AcDbEntity
8
1
62
256
6
ByLayer
370
18
48
1
60
1
100
AcDbLine
10
198.049425
20
14.674997
30
0
11
199.900575
21
14.675003
31
0
39
0
210
0
220
0
230
1
0
LINE
5
18E
100
AcDbEntity
8
1
62
256
6
ByLayer
370
18
48
1
60
1
100
AcDbLine
10
199.900575
20
14.675003
30
0
11
198.975
21
10.5
31
0
39
0
210
0
220
0
230
1
0
LINE
5
34C
100
AcDbEntity
8
1
62
256
6
ByLayer
370
18
48
1
60
1
100
AcDbLine
10
-76.725
20
-12.5
30
0
11
-75.799425
21
-16.674997
31
0
39
0
210
0
220
0
230
1
0
LINE
5
34D
100
AcDbEntity
8
1
62
256
6
ByLayer
370
18
48
1
60
1
100
AcDbLine
10
-75.799425
20
-16.674997
30
0
11
-77.650575
21
-16.675003
31
0
39
0
210
0
220
0
230
1
0
LINE
5
34E
100
AcDbEntity
8
1
62
256
6
ByLayer
370
18
48
1
60
1
100
AcDbLine
10
-77.650575
20
-16.675003
30
0
11
-76.725
21
-12.5
31
0
39
0
210
0
220
0
230
1
0
LINE
5
350
100
AcDbEntity
8
1
62
256
6
ByLayer
370
18
48
1
60
1
100
AcDbLine
10
-76.725
20
12.5
30
0
11
-77.650575
21
16.674997
31
0
39
0
210
0
220
0
230
1
0
LINE
5
351
100
AcDbEntity
8
1
62
256
6
ByLayer
370
18
48
1
60
1
100
AcDbLine
10
-77.650575
20
16.674997
30
0
11
-75.799425
21
16.675003
31
0
39
0
210
0
220
0
230
1
0
LINE
5
352
100
AcDbEntity
8
1
62
256
6
ByLayer
370
18
48
1
60
1
100
AcDbLine
10
-75.799425
20
16.675003
30
0
11
-76.725
21
12.5
31
0
39
0
210
0
220
0
230
1
0
LINE
5
356
100
AcDbEntity
8
1
62
256
6
ByLayer
370
18
48
1
60
1
100
AcDbLine
10
-86.725
20
16
30
0
11
-85.799425
21
11.825003
31
0
39
0
210
0
220
0
230
1
0
LINE
5
357
100
AcDbEntity
8
1
62
256
6
ByLayer
370
18
48
1
60
1
100
AcDbLine
10
-85.799425
20
11.825003
30
0
11
-87.650575
21
11.824997
31
0
39
0
210
0
220
0
230
1
0
LINE
5
358
100
AcDbEntity
8
1
62
256
6
ByLayer
370
18
48
1
60
1
100
AcDbLine
10
-87.650575
20
11.824997
30
0
11
-86.725
21
16
31
0
39
0
210
0
220
0
230
1
0
LINE
5
35A
100
AcDbEntity
8
1
62
256
6
ByLayer
370
18
48
1
60
1
100
AcDbLine
10
-86.725
20
-16
30
0
11
-87.650575
21
-11.825003
31
0
39
0
210
0
220
0
230
1
0
LINE
5
35B
100
AcDbEntity
8
1
62
256
6
ByLayer
370
18
48
1
60
1
100
AcDbLine
10
-87.650575
20
-11.825003
30
0
11
-85.799425
21
-11.824997
31
0
39
0
210
0
220
0
230
1
0
LINE
5
35C
100
AcDbEntity
8
1
62
256
6
ByLayer
370
18
48
1
60
1
100
AcDbLine
10
-85.799425
20
-11.824997
30
0
11
-86.725
21
-16
31
0
39
0
210
0
220
0
230
1
0
LINE
5
360
100
AcDbEntity
8
1
62
256
6
ByLayer
370
18
48
1
60
1
100
AcDbLine
10
198.975
20
-10.5
30
0
11
199.900575
21
-14.674997
31
0
39
0
210
0
220
0
230
1
0
LINE
5
361
100
AcDbEntity
8
1
62
256
6
ByLayer
370
18
48
1
60
1
100
AcDbLine
10
199.900575
20
-14.674997
30
0
11
198.049425
21
-14.675003
31
0
39
0
210
0
220
0
230
1
0
LINE
5
362
100
AcDbEntity
8
1
62
256
6
ByLayer
370
18
48
1
60
1
100
AcDbLine
10
198.049425
20
-14.675003
30
0
11
198.975
21
-10.5
31
0
39
0
210
0
220
0
230
1
0
LINE
5
364
100
AcDbEntity
8
1
62
256
6
ByLayer
370
18
48
1
60
1
100
AcDbLine
10
198.975
20
10.5
30
0
11
198.049425
21
14.674997
31
0
39
0
210
0
220
0
230
1
0
LINE
5
365
100
AcDbEntity
8
1
62
256
6
ByLayer
370
18
48
1
60
1
100
AcDbLine
10
198.049425
20
14.674997
30
0
11
199.900575
21
14.675003
31
0
39
0
210
0
220
0
230
1
0
LINE
5
366
100
AcDbEntity
8
1
62
256
6
ByLayer
370
18
48
1
60
1
100
AcDbLine
10
199.900575
20
14.675003
30
0
11
198.975
21
10.5
31
0
39
0
210
0
220
0
230
1
0
MTEXT
5
348
100
AcDbEntity
8
SK2
62
256
6
ByLayer
370
18
48
1
60
0
100
AcDbMText
10
-78.736672
20
-6.949399
30
0
210
0
220
0
230
1
1
%%c
40
4.5
41
0
44
1.084337
50
90
71
7
72
5
7
iso_b_vert
0
MTEXT
5
34B
100
AcDbEntity
8
SK2
62
256
6
ByLayer
370
18
48
1
60
0
100
AcDbMText
10
-78.736672
20
4.265444
30
0
210
0
220
0
230
1
1
\W0.6740;25
40
4.5
41
0
44
1.084337
50
90
71
7
72
5
7
iso_b_vert
0
MTEXT
5
354
100
AcDbEntity
8
SK2
62
256
6
ByLayer
370
18
48
1
60
0
100
AcDbMText
10
-88.736672
20
-6.949399
30
0
210
0
220
0
230
1
1
%%c
40
4.5
41
0
44
1.084337
50
90
71
7
72
5
7
iso_b_vert
0
MTEXT
5
355
100
AcDbEntity
8
SK2
62
256
6
ByLayer
370
18
48
1
60
0
100
AcDbMText
10
-88.736672
20
4.265444
30
0
210
0
220
0
230
1
1
\W0.6740;32
40
4.5
41
0
44
1.084337
50
90
71
7
72
5
7
iso_b_vert
0
MTEXT
5
35E
100
AcDbEntity
8
2
62
256
6
ByLayer
370
18
48
1
60
0
100
AcDbMText
10
196.963328
20
-6.386985
30
0
210
0
220
0
230
1
1
%%c
40
4.5
41
0
44
1.084337
50
90
71
7
72
5
7
iso_b_vert
0
MTEXT
5
35F
100
AcDbEntity
8
2
62
256
6
ByLayer
370
18
48
1
60
0
100
AcDbMText
10
196.963328
20
4.827859
30
0
210
0
220
0
230
1
1
\W0.6351;21
40
4.5
41
0
44
1.084337
50
90
71
7
72
5
7
iso_b_vert
0
MTEXT
5
368
100
AcDbEntity
8
SK6
62
256
6
ByLayer
370
18
48
1
60
0
100
AcDbMText
10
9.308916
20
-94.592562
30
0
210
0
220
0
230
1
1
\W0.7503;DS20-D2100L25-07
40
3.5
41
0
44
1.084337
50
0
71
7
72
5
7
iso_b_vert
0
HATCH
5
34F
100
AcDbEntity
8
SK2
62
256
6
ByLayer
370
13
48
1
60
0
100
AcDbHatch
10
0
20
0
30
0
210
0
220
0
230
1
2
ANSI31
70
0
71
0
91
1
92
5
93
3
72
1
10
-76.725
20
-12.4999999999999
11
-75.799424783472
21
-16.6749966001723
72
1
10
-75.799424783472
20
-16.6749966001723
11
-77.650575216528
21
-16.6750033998275
72
1
10
-77.650575216528
20
-16.6750033998275
11
-76.725
21
-12.4999999999999
97
0
75
0
76
1
52
0
41
0.0062
77
0
78
1
53
45
43
0
44
0
45
-0.0139193969876572
46
0.0139193969876572
79
0
47
0
98
1
10
0
20
0
0
HATCH
5
353
100
AcDbEntity
8
SK2
62
256
6
ByLayer
370
13
48
1
60
0
100
AcDbHatch
10
0
20
0
30
0
210
0
220
0
230
1
2
ANSI31
70
0
71
0
91
1
92
5
93
3
72
1
10
-76.725
20
12.5000000000001
11
-77.650575216528
21
16.6749966001725
72
1
10
-77.650575216528
20
16.6749966001725
11
-75.799424783472
21
16.6750033998277
72
1
10
-75.799424783472
20
16.6750033998277
11
-76.725
21
12.5000000000001
97
0
75
0
76
1
52
0
41
0.0062
77
0
78
1
53
45
43
0
44
0
45
-0.0139193969876572
46
0.0139193969876572
79
0
47
0
98
1
10
0
20
0
0
HATCH
5
359
100
AcDbEntity
8
SK2
62
256
6
ByLayer
370
13
48
1
60
0
100
AcDbHatch
10
0
20
0
30
0
210
0
220
0
230
1
2
ANSI31
70
0
71
0
91
1
92
5
93
3
72
1
10
-86.725
20
16
11
-85.799424783472
21
11.8250033998276
72
1
10
-85.799424783472
20
11.8250033998276
11
-87.650575216528
21
11.8249966001724
72
1
10
-87.650575216528
20
11.8249966001724
11
-86.725
21
16
97
0
75
0
76
1
52
0
41
0.0062
77
0
78
1
53
45
43
0
44
0
45
-0.0139193969876572
46
0.0139193969876572
79
0
47
0
98
1
10
0
20
0
0
HATCH
5
35D
100
AcDbEntity
8
SK2
62
256
6
ByLayer
370
13
48
1
60
0
100
AcDbHatch
10
0
20
0
30
0
210
0
220
0
230
1
2
ANSI31
70
0
71
0
91
1
92
5
93
3
72
1
10
-86.725
20
-16
11
-87.650575216528
21
-11.8250033998276
72
1
10
-87.650575216528
20
-11.8250033998276
11
-85.799424783472
21
-11.8249966001724
72
1
10
-85.799424783472
20
-11.8249966001724
11
-86.725
21
-16
97
0
75
0
76
1
52
0
41
0.0062
77
0
78
1
53
45
43
0
44
0
45
-0.0139193969876572
46
0.0139193969876572
79
0
47
0
98
1
10
0
20
0
0
HATCH
5
363
100
AcDbEntity
8
2
62
256
6
ByLayer
370
13
48
1
60
0
100
AcDbHatch
10
0
20
0
30
0
210
0
220
0
230
1
2
ANSI31
70
0
71
0
91
1
92
5
93
3
72
1
10
198.975
20
-10.5000000000002
11
199.900575216528
21
-14.6749966001726
72
1
10
199.900575216528
20
-14.6749966001726
11
198.049424783472
21
-14.6750033998278
72
1
10
198.049424783472
20
-14.6750033998278
11
198.975
21
-10.5000000000002
97
0
75
0
76
1
52
0
41
0.0062
77
0
78
1
53
45
43
0
44
0
45
-0.0139193969876572
46
0.0139193969876572
79
0
47
0
98
1
10
0
20
0
0
HATCH
5
367
100
AcDbEntity
8
2
62
256
6
ByLayer
370
13
48
1
60
0
100
AcDbHatch
10
0
20
0
30
0
210
0
220
0
230
1
2
ANSI31
70
0
71
0
91
1
92
5
93
3
72
1
10
198.975
20
10.4999999999998
11
198.049424783472
21
14.6749966001722
72
1
10
198.049424783472
20
14.6749966001722
11
199.900575216528
21
14.6750033998274
72
1
10
199.900575216528
20
14.6750033998274
11
198.975
21
10.4999999999998
97
0
75
0
76
1
52
0
41
0.0062
77
0
78
1
53
45
43
0
44
0
45
-0.0139193969876572
46
0.0139193969876572
79
0
47
0
98
1
10
0
20
0
0
DIMENSION
5
36B
100
AcDbEntity
8
2
62
256
6
ByLayer
370
18
48
1
60
0
100
AcDbDimension
2
_U0
10
172
20
-64.862171
30
0
11
86
21
-64.862171
31
0
70
32
71
1
72
1
41
1
210
0
220
0
230
1
3
Standard
100
AcDbAlignedDimension
13
0
23
-16
33
0
14
172
24
-10.5
34
0
50
0
100
AcDbRotatedDimension
1001
ACAD
1000
DSTYLE
1002
{
1070
   371
1070
    13
1070
   372
1070
    13
1070
   170
1070
     0
1070
   144
1040
1.0
1070
   277
1070
     2
1070
   284
1070
     8
1070
   278
1070
    46
1070
   146
1040
0.777778
1070
   345
1005
16
1070
   347
1005
16
1070
   346
1005
16
1070
   344
1005
0
1070
   343
1005
0
1070
   172
1070
     1
1070
    76
1070
     0
1070
    75
1070
     0
1070
   282
1070
     0
1070
   281
1070
     0
1070
    71
1070
     0
1070
    74
1070
     0
1070
   279
1070
     0
1070
   173
1070
     1
1070
   340
1005
349
1070
   271
1070
     1
1070
   272
1070
     2
1070
    77
1070
     1
1070
    73
1070
     1
1070
   171
1070
     3
1070
   274
1070
     4
1070
   177
1070
   150
1070
   176
1070
     9
1070
   178
1070
    43
1070
    78
1070
     8
1070
    48
1040
-0.1
1070
    41
1040
4.175
1070
   147
1040
2.25
1070
    42
1040
1.5875
1070
    44
1040
3.175
1070
   140
1040
4.5
1002
}
1001
ACAD_DSTYLE_DIM_LINETYPE
1070
   380
1005
16
1001
ACAD_DSTYLE_DIM_EXT1_LINETYPE
1070
   381
1005
16
1001
ACAD_DSTYLE_DIM_EXT2_LINETYPE
1070
   382
1005
16
0
DIMENSION
5
384
100
AcDbEntity
8
SK2
62
256
6
ByLayer
370
18
48
1
60
0
100
AcDbDimension
2
_U1
10
0
20
-64.862171
30
0
11
-28
21
-64.862171
31
0
70
32
71
1
72
1
41
1
210
0
220
0
230
1
3
Standard
100
AcDbAlignedDimension
13
-56
23
-12.5
33
0
14
0
24
-16
34
0
50
0
100
AcDbRotatedDimension
1001
ACAD
1000
DSTYLE
1002
{
1070
   371
1070
    13
1070
   372
1070
    13
1070
   170
1070
     0
1070
   144
1040
1.0
1070
   277
1070
     2
1070
   284
1070
     8
1070
   278
1070
    46
1070
   146
1040
0.777778
1070
   345
1005
16
1070
   347
1005
16
1070
   346
1005
16
1070
   344
1005
0
1070
   343
1005
0
1070
   172
1070
     1
1070
    76
1070
     0
1070
    75
1070
     0
1070
   282
1070
     0
1070
   281
1070
     0
1070
    71
1070
     0
1070
    74
1070
     0
1070
   279
1070
     0
1070
   173
1070
     1
1070
   340
1005
349
1070
   271
1070
     1
1070
   272
1070
     2
1070
    77
1070
     1
1070
    73
1070
     1
1070
   171
1070
     3
1070
   274
1070
     4
1070
   177
1070
   150
1070
   176
1070
     9
1070
   178
1070
    43
1070
    78
1070
     8
1070
    48
1040
-0.1
1070
    41
1040
4.175
1070
   147
1040
2.25
1070
    42
1040
1.5875
1070
    44
1040
3.175
1070
   140
1040
4.5
1002
}
1001
ACAD_DSTYLE_DIM_LINETYPE
1070
   380
1005
16
1001
ACAD_DSTYLE_DIM_EXT1_LINETYPE
1070
   381
1005
16
1001
ACAD_DSTYLE_DIM_EXT2_LINETYPE
1070
   382
1005
16
0
DIMENSION
5
39C
100
AcDbEntity
8
SK2
62
256
6
ByLayer
370
18
48
1
60
0
100
AcDbDimension
2
_U2
10
6.1777
20
-54.862171
30
0
11
89.08885
21
-54.862171
31
0
70
32
71
1
72
1
41
1
210
0
220
0
230
1
3
Standard
100
AcDbAlignedDimension
13
172
23
-10.5
33
0
14
6.1777
24
-16
34
0
50
0
100
AcDbRotatedDimension
1001
ACAD
1000
DSTYLE
1002
{
1070
   371
1070
    13
1070
   372
1070
    13
1070
   170
1070
     0
1070
   144
1040
1.0
1070
   277
1070
     2
1070
   284
1070
     8
1070
   278
1070
    46
1070
   146
1040
0.777778
1070
   345
1005
16
1070
   347
1005
16
1070
   346
1005
16
1070
   344
1005
0
1070
   343
1005
0
1070
   172
1070
     1
1070
    76
1070
     0
1070
    75
1070
     0
1070
   282
1070
     0
1070
   281
1070
     0
1070
    71
1070
     0
1070
    74
1070
     0
1070
   279
1070
     0
1070
   173
1070
     1
1070
   340
1005
349
1070
   271
1070
     1
1070
   272
1070
     2
1070
    77
1070
     1
1070
    73
1070
     1
1070
   171
1070
     3
1070
   274
1070
     4
1070
   177
1070
   150
1070
   176
1070
     9
1070
   178
1070
    43
1070
    78
1070
     8
1070
    48
1040
-0.1
1070
    41
1040
4.175
1070
   147
1040
2.25
1070
    42
1040
1.5875
1070
    44
1040
3.175
1070
   140
1040
4.5
1002
}
1001
ACAD_DSTYLE_DIM_LINETYPE
1070
   380
1005
16
1001
ACAD_DSTYLE_DIM_EXT1_LINETYPE
1070
   381
1005
16
1001
ACAD_DSTYLE_DIM_EXT2_LINETYPE
1070
   382
1005
16
0
DIMENSION
5
3B4
100
AcDbEntity
8
SK2
62
256
6
ByLayer
370
18
48
1
60
0
100
AcDbDimension
2
_U3
10
172
20
-44.862171
30
0
11
97
21
-44.862171
31
0
70
32
71
1
72
1
41
1
210
0
220
0
230
1
3
Standard
100
AcDbAlignedDimension
13
22
23
-10.5
33
0
14
172
24
-10.5
34
0
50
0
100
AcDbRotatedDimension
1001
ACAD
1000
DSTYLE
1002
{
1070
   371
1070
    13
1070
   372
1070
    13
1070
   170
1070
     0
1070
   144
1040
1.0
1070
   277
1070
     2
1070
   284
1070
     8
1070
   278
1070
    46
1070
   146
1040
0.777778
1070
   345
1005
16
1070
   347
1005
16
1070
   346
1005
16
1070
   344
1005
0
1070
   343
1005
0
1070
   172
1070
     1
1070
    76
1070
     0
1070
    75
1070
     0
1070
   282
1070
     0
1070
   281
1070
     0
1070
    71
1070
     0
1070
    74
1070
     0
1070
   279
1070
     0
1070
   173
1070
     1
1070
   340
1005
349
1070
   271
1070
     1
1070
   272
1070
     2
1070
    77
1070
     1
1070
    73
1070
     1
1070
   171
1070
     3
1070
   274
1070
     4
1070
   177
1070
   150
1070
   176
1070
     9
1070
   178
1070
    43
1070
    78
1070
     8
1070
    48
1040
-0.1
1070
    41
1040
4.175
1070
   147
1040
2.25
1070
    42
1040
1.5875
1070
    44
1040
3.175
1070
   140
1040
4.5
1002
}
1001
ACAD_DSTYLE_DIM_LINETYPE
1070
   380
1005
16
1001
ACAD_DSTYLE_DIM_EXT1_LINETYPE
1070
   381
1005
16
1001
ACAD_DSTYLE_DIM_EXT2_LINETYPE
1070
   382
1005
16
0
DIMENSION
5
3CC
100
AcDbEntity
8
2
62
256
6
ByLayer
370
18
48
1
60
0
100
AcDbDimension
2
_U4
10
172
20
-34.862171
30
0
11
194.350893
21
-34.862171
31
0
70
32
71
1
72
1
41
1
210
0
220
0
230
1
3
Standard
100
AcDbAlignedDimension
13
171.4423
23
-5.25
33
0
14
172
24
0
34
0
50
0
100
AcDbRotatedDimension
1001
ACAD
1000
DSTYLE
1002
{
1070
   371
1070
    13
1070
   372
1070
    13
1070
   170
1070
     0
1070
   144
1040
1.0
1070
   277
1070
     2
1070
   284
1070
     8
1070
   278
1070
    46
1070
   146
1040
0.777778
1070
   345
1005
16
1070
   347
1005
16
1070
   346
1005
16
1070
   344
1005
0
1070
   343
1005
0
1070
   172
1070
     1
1070
    76
1070
     0
1070
    75
1070
     0
1070
   282
1070
     0
1070
   281
1070
     0
1070
    71
1070
     0
1070
    74
1070
     0
1070
   279
1070
     0
1070
   173
1070
     1
1070
   340
1005
349
1070
   271
1070
     2
1070
   272
1070
     2
1070
    77
1070
     1
1070
    73
1070
     1
1070
   171
1070
     3
1070
   274
1070
     4
1070
   177
1070
   150
1070
   176
1070
     9
1070
   178
1070
    43
1070
    78
1070
     8
1070
    48
1040
-0.1
1070
    41
1040
4.175
1070
   147
1040
2.25
1070
    42
1040
1.5875
1070
    44
1040
3.175
1070
   140
1040
4.5
1002
}
1001
ACAD_DSTYLE_DIM_LINETYPE
1070
   380
1005
16
1001
ACAD_DSTYLE_DIM_EXT1_LINETYPE
1070
   381
1005
16
1001
ACAD_DSTYLE_DIM_EXT2_LINETYPE
1070
   382
1005
16
0
ENDSEC
0
SECTION
2
OBJECTS
0
DICTIONARY
5
456
330
0
100
AcDbDictionary
280
0
281
1
3
ACAD_GROUP
350
457
3
ACAD_MLINESTYLE
350
458
0
DICTIONARY
5
457
330
0
100
AcDbDictionary
280
0
281
1
0
DICTIONARY
5
458
330
0
100
AcDbDictionary
280
0
281
1
3
Standard
350
18
0
MLINESTYLE
5
18
330
458
100
AcDbMlineStyle
2
Standard
70
0
3

62
256
51
90
52
90
71
2
49
-0.5
62
256
6
ByLayer
49
0.5
62
256
6
ByLayer
0
RASTERVARIABLES
5
444
330

100
AcDbRasterVariables
90
0
70
1
71
1
72
1
0
ENDSEC
0
EOF
