0
SECTION
2
HEADER
9
$ACADVER
1
AC1015
9
$DWGCODEPAGE
3
ANSI_1252
9
$HANDSEED
5
45f
9
$ANGBASE
50
0
9
$ANGDIR
70
0
9
$ATTMODE
70
1
9
$AUNITS
70
0
9
$AUPREC
70
0
9
$CECOLOR
62
256
9
$CELTSCALE
40
1
9
$CELTYPE
6
ByLayer
9
$CELWEIGHT
370
18
9
$CLAYER
8
0
9
$CMLJUST
70
0
9
$CMLSCALE
40
1
9
$CMLSTYLE
2
Standard
9
$DIMSTYLE
2
Standard
9
$TEXTSIZE
40
0.2
9
$TEXTSTYLE
7
Standard
9
$LUNITS
70
2
9
$LUPREC
70
4
9
$EXTNAMES
290
1
9
$INSUNITS
70
4
9
$LTSCALE
40
1
9
$LWDISPLAY
290
1
9
$PDMODE
70
0
9
$PDSIZE
40
0
9
$PLINEGEN
70
0
0
ENDSEC
0
SECTION
2
CLASSES
0
CLASS
1
RASTERVARIABLES
2
AcDbRasterVariables
3
ISM
90
0
280
0
281
0
0
ENDSEC
0
SECTION
2
TABLES
0
TABLE
2
VPORT
5
455
100
AcDbSymbolTable
0
VPORT
5
1
100
AcDbSymbolTableRecord
100
AcDbViewportTableRecord
2
*Active
70
0
10
0
20
0
11
1
21
1
12
-1
22
1
13
0
23
0
14
0.5
24
0.5
15
10
25
10
16
0
26
0
36
1
17
0
27
0
37
0
0
ENDTAB
0
TABLE
2
LTYPE
5
456
100
AcDbSymbolTable
0
LTYPE
5
14
100
AcDbSymbolTableRecord
100
AcDbLinetypeTableRecord
70
0
2
ByBlock
3

72
65
73
0
40
0
0
LTYPE
5
15
100
AcDbSymbolTableRecord
100
AcDbLinetypeTableRecord
70
0
2
ByLayer
3

72
65
73
0
40
0
0
LTYPE
5
16
100
AcDbSymbolTableRecord
100
AcDbLinetypeTableRecord
70
0
2
Continuous
3
Solid line
72
65
73
0
40
0
0
LTYPE
5
6E
100
AcDbSymbolTableRecord
100
AcDbLinetypeTableRecord
70
0
2
CENTER
3
____ _ ____ _ ____ _ ____
72
65
73
4
40
47.5
49
22
74
0
49
-8.5
74
0
49
8.5
74
0
49
-8.5
74
0
0
LTYPE
5
6F
100
AcDbSymbolTableRecord
100
AcDbLinetypeTableRecord
70
0
2
DASHED
3
__ __ __ __ __ __ __ __ __
72
65
73
2
40
25.72
49
12.86
74
0
49
-12.86
74
0
0
ENDTAB
0
TABLE
2
LAYER
5
457
100
AcDbSymbolTable
0
LAYER
5
10
100
AcDbSymbolTableRecord
100
AcDbLayerTableRecord
2
0
70
0
62
7
6
Continuous
290
1
370
-3
390
0
0
LAYER
5
71
100
AcDbSymbolTableRecord
100
AcDbLayerTableRecord
2
1
70
0
62
4
6
Continuous
290
1
370
-3
390
0
0
LAYER
5
73
100
AcDbSymbolTableRecord
100
AcDbLayerTableRecord
2
80
70
0
62
-6
6
Continuous
290
1
370
-3
390
0
0
LAYER
5
75
100
AcDbSymbolTableRecord
100
AcDbLayerTableRecord
2
81
70
0
62
-3
6
Continuous
290
1
370
-3
390
0
0
LAYER
5
147
100
AcDbSymbolTableRecord
100
AcDbLayerTableRecord
2
4
70
0
62
-2
6
CENTER
290
1
370
-3
390
0
0
LAYER
5
181
100
AcDbSymbolTableRecord
100
AcDbLayerTableRecord
2
2
70
0
62
7
6
Continuous
290
1
370
-3
390
0
0
LAYER
5
36A
100
AcDbSymbolTableRecord
100
AcDbLayerTableRecord
2
Defpoints
70
0
62
7
6
Continuous
290
0
370
-3
390
0
0
LAYER
5
441
100
AcDbSymbolTableRecord
100
AcDbLayerTableRecord
2
SK1
70
0
62
4
6
Continuous
290
1
370
-3
390
0
0
LAYER
5
442
100
AcDbSymbolTableRecord
100
AcDbLayerTableRecord
2
SK4
70
0
62
2
6
CENTER
290
1
370
-3
390
0
0
LAYER
5
443
100
AcDbSymbolTableRecord
100
AcDbLayerTableRecord
2
SK2
70
0
62
7
6
Continuous
290
1
370
-3
390
0
0
LAYER
5
444
100
AcDbSymbolTableRecord
100
AcDbLayerTableRecord
2
SK6
70
0
62
5
6
Continuous
290
1
370
-3
390
0
0
ENDTAB
0
TABLE
2
STYLE
5
458
100
AcDbSymbolTable
0
STYLE
5
11
100
AcDbSymbolTableRecord
100
AcDbTextStyleTableRecord
2
Standard
3
txt
70
0
71
0
40
0
41
1
42
0
50
0
0
STYLE
5
345
100
AcDbSymbolTableRecord
100
AcDbTextStyleTableRecord
2
iso_b_vert
3
simplex.shx
70
0
71
0
40
0
41
1
42
0
50
0
0
STYLE
5
346
100
AcDbSymbolTableRecord
100
AcDbTextStyleTableRecord
2
DWGDirectTextStyle
3
simplex
70
0
71
0
40
0
41
1
42
0
50
0
0
ENDTAB
0
TABLE
2
DIMSTYLE
5
459
100
AcDbSymbolTable
100
AcDbDimStyleTable
0
DIMSTYLE
105
27
100
AcDbSymbolTableRecord
100
AcDbDimStyleTableRecord
2
Standard
70
0
3
<>
41
0.18
42
0.0625
44
0.18
140
0.18
147
0.09
73
0
74
0
77
1
271
2
275
0
278
52
280
0
340
11
0
ENDTAB
0
TABLE
2
VIEW
5
45a
100
AcDbSymbolTable
0
ENDTAB
0
TABLE
2
UCS
5
45b
100
AcDbSymbolTable
0
ENDTAB
0
TABLE
2
APPID
5
45c
100
AcDbSymbolTable
0
APPID
5
12
100
AcDbSymbolTableRecord
100
AcDbRegAppTableRecord
2
ACAD
70
0
0
APPID
5
366
100
AcDbSymbolTableRecord
100
AcDbRegAppTableRecord
2
ACAD_DSTYLE_DIMBREAK
70
0
0
APPID
5
400
100
AcDbSymbolTableRecord
100
AcDbRegAppTableRecord
2
ACAD_DSTYLE_DIM_LINETYPE
70
0
0
APPID
5
401
100
AcDbSymbolTableRecord
100
AcDbRegAppTableRecord
2
ACAD_DSTYLE_DIM_EXT1_LINETYPE
70
0
0
APPID
5
402
100
AcDbSymbolTableRecord
100
AcDbRegAppTableRecord
2
ACAD_DSTYLE_DIM_EXT2_LINETYPE
70
0
0
APPID
5
43D
100
AcDbSymbolTableRecord
100
AcDbRegAppTableRecord
2
ACAD_MLEADERVER
70
0
0
ENDTAB
0
TABLE
2
BLOCK_RECORD
5
45d
100
AcDbSymbolTable
0
BLOCK_RECORD
5
1F
100
AcDbSymbolTableRecord
100
AcDbBlockTableRecord
2
*Model_Space
340
0
70
0
0
BLOCK_RECORD
5
1B
100
AcDbSymbolTableRecord
100
AcDbBlockTableRecord
2
*Paper_Space
340
0
70
0
0
BLOCK_RECORD
5
23
100
AcDbSymbolTableRecord
100
AcDbBlockTableRecord
2
*Paper_Space0
340
0
70
0
0
BLOCK_RECORD
5
36B
100
AcDbSymbolTableRecord
100
AcDbBlockTableRecord
2
*D1
340
0
70
0
0
BLOCK_RECORD
5
377
100
AcDbSymbolTableRecord
100
AcDbBlockTableRecord
2
_U0
340
0
70
0
0
BLOCK_RECORD
5
383
100
AcDbSymbolTableRecord
100
AcDbBlockTableRecord
2
*D3
340
0
70
0
0
BLOCK_RECORD
5
38F
100
AcDbSymbolTableRecord
100
AcDbBlockTableRecord
2
_U1
340
0
70
0
0
BLOCK_RECORD
5
39B
100
AcDbSymbolTableRecord
100
AcDbBlockTableRecord
2
*D5
340
0
70
0
0
BLOCK_RECORD
5
3A7
100
AcDbSymbolTableRecord
100
AcDbBlockTableRecord
2
_U2
340
0
70
0
0
BLOCK_RECORD
5
3B3
100
AcDbSymbolTableRecord
100
AcDbBlockTableRecord
2
*D7
340
0
70
0
0
BLOCK_RECORD
5
3BF
100
AcDbSymbolTableRecord
100
AcDbBlockTableRecord
2
_U3
340
0
70
0
0
BLOCK_RECORD
5
3CB
100
AcDbSymbolTableRecord
100
AcDbBlockTableRecord
2
*D9
340
0
70
0
0
BLOCK_RECORD
5
3D9
100
AcDbSymbolTableRecord
100
AcDbBlockTableRecord
2
_U4
340
0
70
0
0
ENDTAB
0
ENDSEC
0
SECTION
2
BLOCKS
0
BLOCK
5
20
100
AcDbEntity
8
0
100
AcDbBlockBegin
2
*Model_Space
70
0
10
0
20
0
30
0
3
*Model_Space
0
ENDBLK
5
21
100
AcDbEntity
8
0
100
AcDbBlockEnd
0
BLOCK
5
1C
100
AcDbEntity
8
0
100
AcDbBlockBegin
2
*Paper_Space
70
0
10
0
20
0
30
0
3
*Paper_Space
0
ENDBLK
5
1D
100
AcDbEntity
8
0
100
AcDbBlockEnd
0
BLOCK
5
24
100
AcDbEntity
8
0
100
AcDbBlockBegin
2
*Paper_Space0
70
0
10
0
20
0
30
0
3
*Paper_Space0
0
ENDBLK
5
25
100
AcDbEntity
8
0
100
AcDbBlockEnd
0
BLOCK
5
36C
100
AcDbEntity
8
0
100
AcDbBlockBegin
2
*D1
70
1
10
0
20
0
30
0
3
*D1
0
LINE
5
36E
100
AcDbEntity
8
0
62
256
6
ByLayer
370
-2
48
1
60
0
100
AcDbLine
10
0
20
-17.5875
30
0
11
0
21
-68.036008
31
0
39
0
210
0
220
0
230
1
0
LINE
5
36F
100
AcDbEntity
8
0
62
256
6
ByLayer
370
-2
48
1
60
0
100
AcDbLine
10
113
20
-12.5875
30
0
11
113
21
-68.036008
31
0
39
0
210
0
220
0
230
1
0
LINE
5
370
100
AcDbEntity
8
0
62
256
6
ByLayer
370
-2
48
1
60
0
100
AcDbLine
10
4.175
20
-64.861008
30
0
11
108.825
21
-64.861008
31
0
39
0
210
0
220
0
230
1
0
SOLID
5
371
100
AcDbEntity
8
0
62
256
6
ByLayer
370
-1
48
1
60
0
100
AcDbTrace
10
4.175
20
-64.165175
30
0
11
4.175
21
-65.556842
31
0
12
0
22
-64.861008
32
0
13
0
23
-64.861008
33
0
39
0
210
0
220
0
230
1
0
SOLID
5
372
100
AcDbEntity
8
0
62
256
6
ByLayer
370
-1
48
1
60
0
100
AcDbTrace
10
108.825
20
-65.556842
30
0
11
108.825
21
-64.165175
31
0
12
113
22
-64.861008
32
0
13
113
23
-64.861008
33
0
39
0
210
0
220
0
230
1
0
MTEXT
5
373
100
AcDbEntity
8
0
62
256
6
ByLayer
370
18
48
1
60
0
100
AcDbMText
10
56.5
20
-55.467258
30
0
210
0
220
0
230
1
1
\A1;113
40
4.5
41
0
44
1
50
0
71
5
72
5
7
iso_b_vert
0
POINT
5
374
100
AcDbEntity
8
Defpoints
62
0
6
ByLayer
370
-1
48
1
60
0
100
AcDbPoint
10
0
20
-16
30
0
39
0
210
0
220
0
230
1
50
360
0
POINT
5
375
100
AcDbEntity
8
Defpoints
62
0
6
ByLayer
370
-1
48
1
60
0
100
AcDbPoint
10
113
20
-11
30
0
39
0
210
0
220
0
230
1
50
360
0
POINT
5
376
100
AcDbEntity
8
Defpoints
62
0
6
ByLayer
370
-1
48
1
60
0
100
AcDbPoint
10
113
20
-64.861008
30
0
39
0
210
0
220
0
230
1
50
360
0
ENDBLK
5
36D
100
AcDbEntity
8
0
100
AcDbBlockEnd
0
BLOCK
5
37E
100
AcDbEntity
8
0
100
AcDbBlockBegin
2
_U0
70
0
10
0
20
0
30
0
3
_U0
0
MTEXT
5
378
100
AcDbEntity
8
2
62
256
6
ByLayer
370
18
48
1
60
0
100
AcDbMText
10
53.494215
20
-63.533337
30
0
210
0
220
0
230
1
1
\W0.5296;113
40
4.5
41
0
44
1.084337
50
0
71
7
72
5
7
iso_b_vert
0
LINE
5
379
100
AcDbEntity
8
2
62
256
6
ByLayer
370
13
48
1
60
0
100
AcDbLine
10
0
20
-17.5875
30
0
11
0
21
-68.036008
31
0
39
0
210
0
220
0
230
1
0
LINE
5
37A
100
AcDbEntity
8
2
62
256
6
ByLayer
370
13
48
1
60
0
100
AcDbLine
10
113
20
-12.5875
30
0
11
113
21
-68.036008
31
0
39
0
210
0
220
0
230
1
0
LINE
5
37B
100
AcDbEntity
8
2
62
256
6
ByLayer
370
13
48
1
60
0
100
AcDbLine
10
0
20
-64.861008
30
0
11
113
21
-64.861008
31
0
39
0
210
0
220
0
230
1
0
SOLID
5
37C
100
AcDbEntity
8
2
62
256
6
ByLayer
370
18
48
1
60
0
100
AcDbTrace
10
0
20
-64.861008
30
0
11
4.174997
21
-63.935433
31
0
12
4.175003
22
-65.786584
32
0
13
4.175003
23
-65.786584
33
0
39
0
210
0
220
0
230
1
0
SOLID
5
37D
100
AcDbEntity
8
2
62
256
6
ByLayer
370
18
48
1
60
0
100
AcDbTrace
10
113
20
-64.861008
30
0
11
108.825003
21
-65.786584
31
0
12
108.824997
22
-63.935433
32
0
13
108.824997
23
-63.935433
33
0
39
0
210
0
220
0
230
1
0
ENDBLK
5
37F
100
AcDbEntity
8
0
100
AcDbBlockEnd
0
BLOCK
5
384
100
AcDbEntity
8
0
100
AcDbBlockBegin
2
*D3
70
1
10
0
20
0
30
0
3
*D3
0
LINE
5
386
100
AcDbEntity
8
0
62
256
6
ByLayer
370
-2
48
1
60
0
100
AcDbLine
10
-56
20
-14.0875
30
0
11
-56
21
-68.036008
31
0
39
0
210
0
220
0
230
1
0
LINE
5
387
100
AcDbEntity
8
0
62
256
6
ByLayer
370
-2
48
1
60
0
100
AcDbLine
10
0
20
-17.5875
30
0
11
0
21
-68.036008
31
0
39
0
210
0
220
0
230
1
0
LINE
5
388
100
AcDbEntity
8
0
62
256
6
ByLayer
370
-2
48
1
60
0
100
AcDbLine
10
-51.825
20
-64.861008
30
0
11
-4.175
21
-64.861008
31
0
39
0
210
0
220
0
230
1
0
SOLID
5
389
100
AcDbEntity
8
0
62
256
6
ByLayer
370
-1
48
1
60
0
100
AcDbTrace
10
-51.825
20
-64.165175
30
0
11
-51.825
21
-65.556842
31
0
12
-56
22
-64.861008
32
0
13
-56
23
-64.861008
33
0
39
0
210
0
220
0
230
1
0
SOLID
5
38A
100
AcDbEntity
8
0
62
256
6
ByLayer
370
-1
48
1
60
0
100
AcDbTrace
10
-4.175
20
-65.556842
30
0
11
-4.175
21
-64.165175
31
0
12
0
22
-64.861008
32
0
13
0
23
-64.861008
33
0
39
0
210
0
220
0
230
1
0
MTEXT
5
38B
100
AcDbEntity
8
0
62
256
6
ByLayer
370
18
48
1
60
0
100
AcDbMText
10
-28
20
-55.467258
30
0
210
0
220
0
230
1
1
\A1;56
40
4.5
41
0
44
1
50
0
71
5
72
5
7
iso_b_vert
0
POINT
5
38C
100
AcDbEntity
8
Defpoints
62
0
6
ByLayer
370
-1
48
1
60
0
100
AcDbPoint
10
-56
20
-12.5
30
0
39
0
210
0
220
0
230
1
50
360
0
POINT
5
38D
100
AcDbEntity
8
Defpoints
62
0
6
ByLayer
370
-1
48
1
60
0
100
AcDbPoint
10
0
20
-16
30
0
39
0
210
0
220
0
230
1
50
360
0
POINT
5
38E
100
AcDbEntity
8
Defpoints
62
0
6
ByLayer
370
-1
48
1
60
0
100
AcDbPoint
10
0
20
-64.861008
30
0
39
0
210
0
220
0
230
1
50
360
0
ENDBLK
5
385
100
AcDbEntity
8
0
100
AcDbBlockEnd
0
BLOCK
5
396
100
AcDbEntity
8
0
100
AcDbBlockBegin
2
_U1
70
0
10
0
20
0
30
0
3
_U1
0
MTEXT
5
390
100
AcDbEntity
8
SK2
62
256
6
ByLayer
370
18
48
1
60
0
100
AcDbMText
10
-30.449242
20
-63.533337
30
0
210
0
220
0
230
1
1
\W0.6740;56
40
4.5
41
0
44
1.084337
50
0
71
7
72
5
7
iso_b_vert
0
LINE
5
391
100
AcDbEntity
8
SK2
62
256
6
ByLayer
370
13
48
1
60
0
100
AcDbLine
10
-56
20
-14.0875
30
0
11
-56
21
-68.036008
31
0
39
0
210
0
220
0
230
1
0
LINE
5
392
100
AcDbEntity
8
SK2
62
256
6
ByLayer
370
13
48
1
60
0
100
AcDbLine
10
0
20
-17.5875
30
0
11
0
21
-68.036008
31
0
39
0
210
0
220
0
230
1
0
LINE
5
393
100
AcDbEntity
8
SK2
62
256
6
ByLayer
370
13
48
1
60
0
100
AcDbLine
10
-56
20
-64.861008
30
0
11
0
21
-64.861008
31
0
39
0
210
0
220
0
230
1
0
SOLID
5
394
100
AcDbEntity
8
SK2
62
256
6
ByLayer
370
18
48
1
60
0
100
AcDbTrace
10
-56
20
-64.861008
30
0
11
-51.825003
21
-63.935433
31
0
12
-51.824997
22
-65.786584
32
0
13
-51.824997
23
-65.786584
33
0
39
0
210
0
220
0
230
1
0
SOLID
5
395
100
AcDbEntity
8
SK2
62
256
6
ByLayer
370
18
48
1
60
0
100
AcDbTrace
10
0
20
-64.861008
30
0
11
-4.174997
21
-65.786584
31
0
12
-4.175003
22
-63.935433
32
0
13
-4.175003
23
-63.935433
33
0
39
0
210
0
220
0
230
1
0
ENDBLK
5
397
100
AcDbEntity
8
0
100
AcDbBlockEnd
0
BLOCK
5
39C
100
AcDbEntity
8
0
100
AcDbBlockBegin
2
*D5
70
1
10
0
20
0
30
0
3
*D5
0
LINE
5
39E
100
AcDbEntity
8
0
62
256
6
ByLayer
370
-2
48
1
60
0
100
AcDbLine
10
113
20
-12.5875
30
0
11
113
21
-58.036008
31
0
39
0
210
0
220
0
230
1
0
LINE
5
39F
100
AcDbEntity
8
0
62
256
6
ByLayer
370
-2
48
1
60
0
100
AcDbLine
10
6.2557
20
-17.5875
30
0
11
6.2557
21
-58.036008
31
0
39
0
210
0
220
0
230
1
0
LINE
5
3A0
100
AcDbEntity
8
0
62
256
6
ByLayer
370
-2
48
1
60
0
100
AcDbLine
10
108.825
20
-54.861008
30
0
11
10.4307
21
-54.861008
31
0
39
0
210
0
220
0
230
1
0
SOLID
5
3A1
100
AcDbEntity
8
0
62
256
6
ByLayer
370
-1
48
1
60
0
100
AcDbTrace
10
108.825
20
-55.556842
30
0
11
108.825
21
-54.165175
31
0
12
113
22
-54.861008
32
0
13
113
23
-54.861008
33
0
39
0
210
0
220
0
230
1
0
SOLID
5
3A2
100
AcDbEntity
8
0
62
256
6
ByLayer
370
-1
48
1
60
0
100
AcDbTrace
10
10.4307
20
-54.165175
30
0
11
10.4307
21
-55.556842
31
0
12
6.2557
22
-54.861008
32
0
13
6.2557
23
-54.861008
33
0
39
0
210
0
220
0
230
1
0
MTEXT
5
3A3
100
AcDbEntity
8
0
62
256
6
ByLayer
370
18
48
1
60
0
100
AcDbMText
10
59.62785
20
-45.467258
30
0
210
0
220
0
230
1
1
\A1;106.7
40
4.5
41
0
44
1
50
0
71
5
72
5
7
iso_b_vert
0
POINT
5
3A4
100
AcDbEntity
8
Defpoints
62
0
6
ByLayer
370
-1
48
1
60
0
100
AcDbPoint
10
113
20
-11
30
0
39
0
210
0
220
0
230
1
50
360
0
POINT
5
3A5
100
AcDbEntity
8
Defpoints
62
0
6
ByLayer
370
-1
48
1
60
0
100
AcDbPoint
10
6.2557
20
-16
30
0
39
0
210
0
220
0
230
1
50
360
0
POINT
5
3A6
100
AcDbEntity
8
Defpoints
62
0
6
ByLayer
370
-1
48
1
60
0
100
AcDbPoint
10
6.2557
20
-54.861008
30
0
39
0
210
0
220
0
230
1
50
360
0
ENDBLK
5
39D
100
AcDbEntity
8
0
100
AcDbBlockEnd
0
BLOCK
5
3AE
100
AcDbEntity
8
0
100
AcDbBlockBegin
2
_U2
70
0
10
0
20
0
30
0
3
_U2
0
MTEXT
5
3A8
100
AcDbEntity
8
SK2
62
256
6
ByLayer
370
18
48
1
60
0
100
AcDbMText
10
53.466709
20
-53.533337
30
0
210
0
220
0
230
1
1
\W0.6864;106.7
40
4.5
41
0
44
1.084337
50
0
71
7
72
5
7
iso_b_vert
0
LINE
5
3A9
100
AcDbEntity
8
SK2
62
256
6
ByLayer
370
13
48
1
60
0
100
AcDbLine
10
113
20
-12.5875
30
0
11
113
21
-58.036008
31
0
39
0
210
0
220
0
230
1
0
LINE
5
3AA
100
AcDbEntity
8
SK2
62
256
6
ByLayer
370
13
48
1
60
0
100
AcDbLine
10
6.2557
20
-17.5875
30
0
11
6.2557
21
-58.036008
31
0
39
0
210
0
220
0
230
1
0
LINE
5
3AB
100
AcDbEntity
8
SK2
62
256
6
ByLayer
370
13
48
1
60
0
100
AcDbLine
10
113
20
-54.861008
30
0
11
6.2557
21
-54.861008
31
0
39
0
210
0
220
0
230
1
0
SOLID
5
3AC
100
AcDbEntity
8
SK2
62
256
6
ByLayer
370
18
48
1
60
0
100
AcDbTrace
10
113
20
-54.861008
30
0
11
108.825003
21
-55.786584
31
0
12
108.824997
22
-53.935433
32
0
13
108.824997
23
-53.935433
33
0
39
0
210
0
220
0
230
1
0
SOLID
5
3AD
100
AcDbEntity
8
SK2
62
256
6
ByLayer
370
18
48
1
60
0
100
AcDbTrace
10
6.2557
20
-54.861008
30
0
11
10.430697
21
-53.935433
31
0
12
10.430703
22
-55.786584
32
0
13
10.430703
23
-55.786584
33
0
39
0
210
0
220
0
230
1
0
ENDBLK
5
3AF
100
AcDbEntity
8
0
100
AcDbBlockEnd
0
BLOCK
5
3B4
100
AcDbEntity
8
0
100
AcDbBlockBegin
2
*D7
70
1
10
0
20
0
30
0
3
*D7
0
LINE
5
3B6
100
AcDbEntity
8
0
62
256
6
ByLayer
370
-2
48
1
60
0
100
AcDbLine
10
22
20
-12.5875
30
0
11
22
21
-48.036008
31
0
39
0
210
0
220
0
230
1
0
LINE
5
3B7
100
AcDbEntity
8
0
62
256
6
ByLayer
370
-2
48
1
60
0
100
AcDbLine
10
113
20
-12.5875
30
0
11
113
21
-48.036008
31
0
39
0
210
0
220
0
230
1
0
LINE
5
3B8
100
AcDbEntity
8
0
62
256
6
ByLayer
370
-2
48
1
60
0
100
AcDbLine
10
26.175
20
-44.861008
30
0
11
108.825
21
-44.861008
31
0
39
0
210
0
220
0
230
1
0
SOLID
5
3B9
100
AcDbEntity
8
0
62
256
6
ByLayer
370
-1
48
1
60
0
100
AcDbTrace
10
26.175
20
-44.165175
30
0
11
26.175
21
-45.556842
31
0
12
22
22
-44.861008
32
0
13
22
23
-44.861008
33
0
39
0
210
0
220
0
230
1
0
SOLID
5
3BA
100
AcDbEntity
8
0
62
256
6
ByLayer
370
-1
48
1
60
0
100
AcDbTrace
10
108.825
20
-45.556842
30
0
11
108.825
21
-44.165175
31
0
12
113
22
-44.861008
32
0
13
113
23
-44.861008
33
0
39
0
210
0
220
0
230
1
0
MTEXT
5
3BB
100
AcDbEntity
8
0
62
256
6
ByLayer
370
18
48
1
60
0
100
AcDbMText
10
67.5
20
-35.467258
30
0
210
0
220
0
230
1
1
\A1;91
40
4.5
41
0
44
1
50
0
71
5
72
5
7
iso_b_vert
0
POINT
5
3BC
100
AcDbEntity
8
Defpoints
62
0
6
ByLayer
370
-1
48
1
60
0
100
AcDbPoint
10
22
20
-11
30
0
39
0
210
0
220
0
230
1
50
360
0
POINT
5
3BD
100
AcDbEntity
8
Defpoints
62
0
6
ByLayer
370
-1
48
1
60
0
100
AcDbPoint
10
113
20
-11
30
0
39
0
210
0
220
0
230
1
50
360
0
POINT
5
3BE
100
AcDbEntity
8
Defpoints
62
0
6
ByLayer
370
-1
48
1
60
0
100
AcDbPoint
10
113
20
-44.861008
30
0
39
0
210
0
220
0
230
1
50
360
0
ENDBLK
5
3B5
100
AcDbEntity
8
0
100
AcDbBlockEnd
0
BLOCK
5
3C6
100
AcDbEntity
8
0
100
AcDbBlockBegin
2
_U3
70
0
10
0
20
0
30
0
3
_U3
0
MTEXT
5
3C0
100
AcDbEntity
8
SK2
62
256
6
ByLayer
370
18
48
1
60
0
100
AcDbMText
10
65.613172
20
-43.533337
30
0
210
0
220
0
230
1
1
\W0.6351;91
40
4.5
41
0
44
1.084337
50
0
71
7
72
5
7
iso_b_vert
0
LINE
5
3C1
100
AcDbEntity
8
SK2
62
256
6
ByLayer
370
13
48
1
60
0
100
AcDbLine
10
22
20
-12.5875
30
0
11
22
21
-48.036008
31
0
39
0
210
0
220
0
230
1
0
LINE
5
3C2
100
AcDbEntity
8
SK2
62
256
6
ByLayer
370
13
48
1
60
0
100
AcDbLine
10
113
20
-12.5875
30
0
11
113
21
-48.036008
31
0
39
0
210
0
220
0
230
1
0
LINE
5
3C3
100
AcDbEntity
8
SK2
62
256
6
ByLayer
370
13
48
1
60
0
100
AcDbLine
10
22
20
-44.861008
30
0
11
113
21
-44.861008
31
0
39
0
210
0
220
0
230
1
0
SOLID
5
3C4
100
AcDbEntity
8
SK2
62
256
6
ByLayer
370
18
48
1
60
0
100
AcDbTrace
10
22
20
-44.861008
30
0
11
26.174997
21
-43.935433
31
0
12
26.175003
22
-45.786584
32
0
13
26.175003
23
-45.786584
33
0
39
0
210
0
220
0
230
1
0
SOLID
5
3C5
100
AcDbEntity
8
SK2
62
256
6
ByLayer
370
18
48
1
60
0
100
AcDbTrace
10
113
20
-44.861008
30
0
11
108.825003
21
-45.786584
31
0
12
108.824997
22
-43.935433
32
0
13
108.824997
23
-43.935433
33
0
39
0
210
0
220
0
230
1
0
ENDBLK
5
3C7
100
AcDbEntity
8
0
100
AcDbBlockEnd
0
BLOCK
5
3CC
100
AcDbEntity
8
0
100
AcDbBlockBegin
2
*D9
70
1
10
0
20
0
30
0
3
*D9
0
LINE
5
3CE
100
AcDbEntity
8
0
62
256
6
ByLayer
370
-2
48
1
60
0
100
AcDbLine
10
112.4423
20
-7.0875
30
0
11
112.4423
21
-38.036008
31
0
39
0
210
0
220
0
230
1
0
LINE
5
3CF
100
AcDbEntity
8
0
62
256
6
ByLayer
370
-2
48
1
60
0
100
AcDbLine
10
113
20
-1.5875
30
0
11
113
21
-38.036008
31
0
39
0
210
0
220
0
230
1
0
LINE
5
3D0
100
AcDbEntity
8
0
62
256
6
ByLayer
370
-2
48
1
60
0
100
AcDbLine
10
113
20
-34.861008
30
0
11
149.351786
21
-34.861008
31
0
39
0
210
0
220
0
230
1
0
LINE
5
3D1
100
AcDbEntity
8
0
62
256
6
ByLayer
370
-2
48
1
60
0
100
AcDbLine
10
108.2673
20
-34.861008
30
0
11
104.0923
21
-34.861008
31
0
39
0
210
0
220
0
230
1
0
LINE
5
3D2
100
AcDbEntity
8
0
62
256
6
ByLayer
370
-2
48
1
60
0
100
AcDbLine
10
117.175
20
-34.861008
30
0
11
121.35
21
-34.861008
31
0
39
0
210
0
220
0
230
1
0
SOLID
5
3D3
100
AcDbEntity
8
0
62
256
6
ByLayer
370
-1
48
1
60
0
100
AcDbTrace
10
108.2673
20
-35.556842
30
0
11
108.2673
21
-34.165175
31
0
12
112.4423
22
-34.861008
32
0
13
112.4423
23
-34.861008
33
0
39
0
210
0
220
0
230
1
0
SOLID
5
3D4
100
AcDbEntity
8
0
62
256
6
ByLayer
370
-1
48
1
60
0
100
AcDbTrace
10
117.175
20
-34.165175
30
0
11
117.175
21
-35.556842
31
0
12
113
22
-34.861008
32
0
13
113
23
-34.861008
33
0
39
0
210
0
220
0
230
1
0
MTEXT
5
3D5
100
AcDbEntity
8
0
62
256
6
ByLayer
370
18
48
1
60
0
100
AcDbMText
10
135.350893
20
-25.467258
30
0
210
0
220
0
230
1
1
\A1;0.56
40
4.5
41
0
44
1
50
0
71
5
72
5
7
iso_b_vert
0
POINT
5
3D6
100
AcDbEntity
8
Defpoints
62
0
6
ByLayer
370
-1
48
1
60
0
100
AcDbPoint
10
112.4423
20
-5.5
30
0
39
0
210
0
220
0
230
1
50
360
0
POINT
5
3D7
100
AcDbEntity
8
Defpoints
62
0
6
ByLayer
370
-1
48
1
60
0
100
AcDbPoint
10
113
20
0
30
0
39
0
210
0
220
0
230
1
50
360
0
POINT
5
3D8
100
AcDbEntity
8
Defpoints
62
0
6
ByLayer
370
-1
48
1
60
0
100
AcDbPoint
10
113
20
-34.861008
30
0
39
0
210
0
220
0
230
1
50
360
0
ENDBLK
5
3CD
100
AcDbEntity
8
0
100
AcDbBlockEnd
0
BLOCK
5
3E0
100
AcDbEntity
8
0
100
AcDbBlockBegin
2
_U4
70
0
10
0
20
0
30
0
3
_U4
0
MTEXT
5
3DA
100
AcDbEntity
8
2
62
256
6
ByLayer
370
18
48
1
60
0
100
AcDbMText
10
125.351
20
-33.533337
30
0
210
0
220
0
230
1
1
\W0.7346;0.56
40
4.5
41
0
44
1.084337
50
0
71
7
72
5
7
iso_b_vert
0
LINE
5
3DB
100
AcDbEntity
8
2
62
256
6
ByLayer
370
13
48
1
60
0
100
AcDbLine
10
112.4423
20
-7.0875
30
0
11
112.4423
21
-38.036008
31
0
39
0
210
0
220
0
230
1
0
LINE
5
3DC
100
AcDbEntity
8
2
62
256
6
ByLayer
370
13
48
1
60
0
100
AcDbLine
10
113
20
-1.5875
30
0
11
113
21
-38.036008
31
0
39
0
210
0
220
0
230
1
0
LINE
5
3DD
100
AcDbEntity
8
2
62
256
6
ByLayer
370
13
48
1
60
0
100
AcDbLine
10
135.673869
20
-34.861008
30
0
11
101.1923
21
-34.861008
31
0
39
0
210
0
220
0
230
1
0
SOLID
5
3DE
100
AcDbEntity
8
2
62
256
6
ByLayer
370
18
48
1
60
0
100
AcDbTrace
10
112.4423
20
-34.861008
30
0
11
108.267303
21
-35.786584
31
0
12
108.267297
22
-33.935433
32
0
13
108.267297
23
-33.935433
33
0
39
0
210
0
220
0
230
1
0
SOLID
5
3DF
100
AcDbEntity
8
2
62
256
6
ByLayer
370
18
48
1
60
0
100
AcDbTrace
10
113
20
-34.861008
30
0
11
117.174997
21
-33.935433
31
0
12
117.175003
22
-35.786584
32
0
13
117.175003
23
-35.786584
33
0
39
0
210
0
220
0
230
1
0
ENDBLK
5
3E1
100
AcDbEntity
8
0
100
AcDbBlockEnd
0
ENDSEC
0
SECTION
2
ENTITIES
0
ARC
5
18A
100
AcDbEntity
8
SK1
62
256
6
ByLayer
370
13
48
1
60
0
100
AcDbCircle
39
0
10
-53.894505
20
-12.8967
30
0
40
0.800000000000004
210
0
220
0
230
1
100
AcDbArc
50
70.982
51
141
0
ARC
5
18B
100
AcDbEntity
8
SK1
62
256
6
ByLayer
370
13
48
1
60
0
100
AcDbCircle
39
0
10
-53.894505
20
12.8967
30
0
40
0.800000000000004
210
0
220
0
230
1
100
AcDbArc
50
219
51
289.018
0
ARC
5
18C
100
AcDbEntity
8
SK1
62
256
6
ByLayer
370
13
48
1
60
0
100
AcDbCircle
39
0
10
-0.15
20
12.64675
30
0
40
0.400000000000002
210
0
220
0
230
1
100
AcDbArc
50
270
51
292.024313
0
ARC
5
18D
100
AcDbEntity
8
SK1
62
256
6
ByLayer
370
13
48
1
60
0
100
AcDbCircle
39
0
10
-0.15
20
-12.64675
30
0
40
0.400000000000002
210
0
220
0
230
1
100
AcDbArc
50
67.975687
51
90
0
ARC
5
18E
100
AcDbEntity
8
SK1
62
256
6
ByLayer
370
13
48
1
60
0
100
AcDbCircle
39
0
10
-1.375195
20
12.64675
30
0
40
0.400000000000001
210
0
220
0
230
1
100
AcDbArc
50
245
51
270
0
ARC
5
18F
100
AcDbEntity
8
SK1
62
256
6
ByLayer
370
13
48
1
60
0
100
AcDbCircle
39
0
10
-1.375195
20
-12.64675
30
0
40
0.400000000000001
210
0
220
0
230
1
100
AcDbArc
50
90
51
115
0
ARC
5
190
100
AcDbEntity
8
1
62
256
6
ByLayer
370
13
48
1
60
0
100
AcDbCircle
39
0
10
111.047632
20
10.286157
30
0
40
0.1
210
0
220
0
230
1
100
AcDbArc
50
8.974534
51
93
0
ARC
5
191
100
AcDbEntity
8
1
62
256
6
ByLayer
370
13
48
1
60
0
100
AcDbCircle
39
0
10
111.08906
20
5.035323
30
0
40
0.1
210
0
220
0
230
1
100
AcDbArc
50
273
51
352.543899
0
ARC
5
192
100
AcDbEntity
8
1
62
256
6
ByLayer
370
13
48
1
60
0
100
AcDbCircle
39
0
10
105.075302
20
9.858865
30
0
40
0.1
210
0
220
0
230
1
100
AcDbArc
50
71.611938
51
93
0
ARC
5
193
100
AcDbEntity
8
1
62
256
6
ByLayer
370
13
48
1
60
0
100
AcDbCircle
39
0
10
105.116729
20
4.608031
30
0
40
0.1
210
0
220
0
230
1
100
AcDbArc
50
273
51
303.659979
0
ELLIPSE
5
194
100
AcDbEntity
8
1
62
256
6
ByLayer
370
13
48
1
60
0
100
AcDbEllipse
10
110.305746
20
3.483034
30
0
11
0.0732703387399202
21
-1.39808134865641
31
0
210
0
220
0
230
1
40
0.995725
41
2.19332842139596
42
-3.14159265358965
0
ELLIPSE
5
195
100
AcDbEntity
8
1
62
256
6
ByLayer
370
13
48
1
60
0
100
AcDbEllipse
10
112.3604
20
5.191757
30
0
11
-0.0222321776353753
21
0.148343285246044
31
0
210
0
220
0
230
1
40
0.091945
41
1.56190521945478
42
3.1327015462504
0
ELLIPSE
5
196
100
AcDbEntity
8
1
62
256
6
ByLayer
370
13
48
1
60
0
100
AcDbEllipse
10
105.18199
20
11.375694
30
0
11
-1.38057267986758
21
0.959665598805221
31
0
210
0
220
0
230
1
40
0.713274
41
1.49691563334016
42
1.90195345772136
0
ELLIPSE
5
197
100
AcDbEntity
8
1
62
256
6
ByLayer
370
13
48
1
60
0
100
AcDbEllipse
10
111.282589
20
4.97922
30
0
11
0.00523359562428013
21
-0.0998629534754601
31
0
210
0
220
0
230
1
40
0.995725
41
-1.75405589825388
42
0.095993108859348
0
ELLIPSE
5
198
100
AcDbEntity
8
1
62
256
6
ByLayer
370
13
48
1
60
0
100
AcDbEllipse
10
110.823988
20
7.754483
30
0
11
0.0444855628063803
21
-0.848835104541395
31
0
210
0
220
0
230
1
40
0.995725
41
1.38753675533551
42
1.67551608191457
0
ELLIPSE
5
199
100
AcDbEntity
8
1
62
256
6
ByLayer
370
13
48
1
60
0
100
AcDbEllipse
10
110.137491
20
11.635401
30
0
11
0.0863543278006205
21
-1.64773873234506
31
0
210
0
220
0
230
1
40
0.995725
41
0.698370805678941
42
0.948264232194005
0
ELLIPSE
5
19A
100
AcDbEntity
8
1
62
256
6
ByLayer
370
13
48
1
60
0
100
AcDbEllipse
10
105.075302
20
9.858865
30
0
11
0.0991544576165245
21
-0.0129766534504411
31
0
210
0
220
0
230
1
40
0.016833
41
1.47983423648432
42
3.05063056327922
0
ELLIPSE
5
19B
100
AcDbEntity
8
1
62
256
6
ByLayer
370
13
48
1
60
0
100
AcDbEllipse
10
111.373274
20
10.682301
30
0
11
-0.393028439381785
21
-0.30285945193865
31
0
210
0
220
0
230
1
40
0.479615
41
-2.21479145067612
42
-1.58610255772479
0
ELLIPSE
5
19C
100
AcDbEntity
8
1
62
256
6
ByLayer
370
13
48
1
60
0
100
AcDbEllipse
10
104.194214
20
10.306063
30
0
11
-0.422532821548109
21
0.260117697361765
31
0
210
0
220
0
230
1
40
0.479615
41
-1.55549009590472
42
-0.926801202923459
0
ELLIPSE
5
19D
100
AcDbEntity
8
1
62
256
6
ByLayer
370
13
48
1
60
0
100
AcDbEllipse
10
109.795508
20
3.456294
30
0
11
-1.58689121342218
21
-1.24226438135095
31
0
210
0
220
0
230
1
40
0.477356
41
2.79074223835055
42
2.8414505265971
0
ELLIPSE
5
19E
100
AcDbEntity
8
1
62
256
6
ByLayer
370
13
48
1
60
0
100
AcDbEllipse
10
112.433683
20
7.775284
30
0
11
-0.0130839890607357
21
0.249657383688647
31
0
210
0
220
0
230
1
40
0.995725
41
-1.75405589825443
42
-1.46607657167526
0
ELLIPSE
5
19F
100
AcDbEntity
8
1
62
256
6
ByLayer
370
13
48
1
60
0
100
AcDbEllipse
10
103.71223
20
7.117938
30
0
11
0.0209343824971203
21
-0.399451813901836
31
0
210
0
220
0
230
1
40
0.995725
41
-1.7540558982546
42
-1.46607657167543
0
ELLIPSE
5
1A0
100
AcDbEntity
8
1
62
256
6
ByLayer
370
13
48
1
60
0
100
AcDbEllipse
10
111.756612
20
9.024437
30
0
11
0.0994383168613208
21
-1.89739611603371
31
0
210
0
220
0
230
1
40
0.995725
41
3.10590021439809
42
3.1328660073298
0
ELLIPSE
5
1A1
100
AcDbEntity
8
1
62
256
6
ByLayer
370
13
48
1
60
0
100
AcDbEllipse
10
104.794914
20
11.355409
30
0
11
-1.72345209026312
21
1.06098362779495
31
0
210
0
220
0
230
1
40
0.479615
41
1.58610258734561
42
1.63681086098927
0
ELLIPSE
5
1A2
100
AcDbEntity
8
1
62
256
6
ByLayer
370
13
48
1
60
0
100
AcDbEllipse
10
103.693781
20
7.116971
30
0
11
-0.0130839890607357
21
0.249657383688647
31
0
210
0
220
0
230
1
40
0.995725
41
1.38753675533537
42
1.67551608191453
0
ELLIPSE
5
1A3
100
AcDbEntity
8
1
62
256
6
ByLayer
370
13
48
1
60
0
100
AcDbEllipse
10
112.44752
20
7.776009
30
0
11
0.0209343824971203
21
-0.399451813901836
31
0
210
0
220
0
230
1
40
0.995725
41
1.38753675533537
42
1.67551608191451
0
ELLIPSE
5
1A4
100
AcDbEntity
8
1
62
256
6
ByLayer
370
13
48
1
60
0
100
AcDbEllipse
10
106.008422
20
3.257821
30
0
11
-0.0785039343644132
21
1.49794430213187
31
0
210
0
220
0
230
1
40
0.995725
41
0.681851009804346
42
0.948264232193836
0
ELLIPSE
5
1A5
100
AcDbEntity
8
1
62
256
6
ByLayer
370
13
48
1
60
0
100
AcDbEllipse
10
110.666178
20
11.663108
30
0
11
-1.6031074568366
21
-1.23532090920714
31
0
210
0
220
0
230
1
40
0.479615
41
1.50478180336194
42
1.55549008997876
0
ELLIPSE
5
1A6
100
AcDbEntity
8
1
62
256
6
ByLayer
370
13
48
1
60
0
100
AcDbEllipse
10
110.444112
20
3.490285
30
0
11
-0.073270338740119
21
1.3980813486564
31
0
210
0
220
0
230
1
40
0.995725
41
-0.901238604216686
42
-0.897555942335476
0
ELLIPSE
5
1A7
100
AcDbEntity
8
1
62
256
6
ByLayer
370
13
48
1
60
0
100
AcDbEllipse
10
104.564796
20
4.174784
30
0
11
-0.00261679781214706
21
0.0499314767377278
31
0
210
0
220
0
230
1
40
0.995725
41
3.13286600732938
42
-2.19332842139596
0
ELLIPSE
5
1A8
100
AcDbEntity
8
1
62
256
6
ByLayer
370
13
48
1
60
0
100
AcDbEllipse
10
104.620549
20
4.148511
30
0
11
-0.126435160183929
21
0.0807102860189715
31
0
210
0
220
0
230
1
40
0.053861
41
1.49557403044867
42
3.06637035724265
0
ELLIPSE
5
1A9
100
AcDbEntity
8
1
62
256
6
ByLayer
370
13
48
1
60
0
100
AcDbEllipse
10
111.742775
20
9.023711
30
0
11
-0.0915879234251489
21
1.74760168582051
31
0
210
0
220
0
230
1
40
0.995725
41
-0.0356924391917132
42
-0.00872664626000384
0
ELLIPSE
5
1AA
100
AcDbEntity
8
1
62
256
6
ByLayer
370
13
48
1
60
0
100
AcDbEllipse
10
104.940724
20
4.445822
30
0
11
0.00523359562427969
21
-0.0998629534754518
31
0
210
0
220
0
230
1
40
0.995725
41
0.681851009804308
42
1.67551608191462
0
ELLIPSE
5
1AB
100
AcDbEntity
8
1
62
256
6
ByLayer
370
13
48
1
60
0
100
AcDbEllipse
10
104.481387
20
7.005717
30
0
11
-0.148163665863161
21
-0.0233993187505457
31
0
210
0
220
0
230
1
40
0.009655
41
-3.04959407911497
42
-1.47879775232072
0
ELLIPSE
5
1AC
100
AcDbEntity
8
1
62
256
6
ByLayer
370
13
48
1
60
0
100
AcDbEllipse
10
105.075302
20
9.858865
30
0
11
-0.0315451332108317
21
-0.0948941756416635
31
0
210
0
220
0
230
1
40
0.086058
41
1.60448866453587
42
-3.10790031585117
0
ELLIPSE
5
1AD
100
AcDbEntity
8
1
62
256
6
ByLayer
370
13
48
1
60
0
100
AcDbEllipse
10
104.478153
20
7.249631
30
0
11
-0.148731686424787
21
0.0194649801756603
31
0
210
0
220
0
230
1
40
0.016833
41
1.47983423648422
42
3.05063056327886
0
ELLIPSE
5
1AE
100
AcDbEntity
8
1
62
256
6
ByLayer
370
13
48
1
60
0
100
AcDbEllipse
10
105.581884
20
11.396652
30
0
11
-0.073270338740119
21
1.3980813486564
31
0
210
0
220
0
230
1
40
0.995725
41
2.64539187375202
42
3.14159265358964
0
ELLIPSE
5
1AF
100
AcDbEntity
8
1
62
256
6
ByLayer
370
13
48
1
60
0
100
AcDbEllipse
10
110.279102
20
11.642822
30
0
11
-1.27269738806681
21
-1.09871759105956
31
0
210
0
220
0
230
1
40
0.713274
41
1.23963919584683
42
1.64467702018744
0
ELLIPSE
5
1B0
100
AcDbEntity
8
1
62
256
6
ByLayer
370
13
48
1
60
0
100
AcDbEllipse
10
107.953696
20
9.89873
30
0
11
0.00523359562428003
21
-0.0998629534754582
31
0
210
0
220
0
230
1
40
0.092371
41
1.5707963267949
42
3.14159265358825
0
ELLIPSE
5
1B1
100
AcDbEntity
8
1
62
256
6
ByLayer
370
13
48
1
60
0
100
AcDbEllipse
10
104.146241
20
4.369794
30
0
11
0.0209343824971197
21
-0.399451813901825
31
0
210
0
220
0
230
1
40
0.995725
41
-1.46607657167546
42
-0.0690273159280814
0
ELLIPSE
5
1B2
100
AcDbEntity
8
1
62
256
6
ByLayer
370
13
48
1
60
0
100
AcDbEllipse
10
110.842437
20
7.75545
30
0
11
0.0366351693699602
21
-0.699040674328207
31
0
210
0
220
0
230
1
40
0.995725
41
1.38753675533552
42
1.67551608191457
0
ELLIPSE
5
1B3
100
AcDbEntity
8
1
62
256
6
ByLayer
370
13
48
1
60
0
100
AcDbEllipse
10
103.740906
20
10.104395
30
0
11
-0.0436352238385547
21
-0.256157131817053
31
0
210
0
220
0
230
1
40
0.958209
41
-2.83654843609346
42
-1.53052250832043
0
ELLIPSE
5
1B4
100
AcDbEntity
8
1
62
256
6
ByLayer
370
13
48
1
60
0
100
AcDbEllipse
10
106.008422
20
3.257821
30
0
11
-0.073270338740119
21
1.3980813486564
31
0
210
0
220
0
230
1
40
0.995725
41
0
42
0.948264232193807
0
ELLIPSE
5
1B5
100
AcDbEntity
8
1
62
256
6
ByLayer
370
13
48
1
60
0
100
AcDbEllipse
10
112.018121
20
10.524395
30
0
11
0.0209343824971197
21
-0.399451813901825
31
0
210
0
220
0
230
1
40
0.995725
41
1.67551608191465
42
3.072565337662
0
ELLIPSE
5
1B6
100
AcDbEntity
8
1
62
256
6
ByLayer
370
13
48
1
60
0
100
AcDbEllipse
10
103.798198
20
9.6931
30
0
11
-0.0436352238312215
21
-0.256157131819047
31
0
210
0
220
0
230
1
40
0.958209
41
-2.83654843612095
42
-1.53052250835081
0
ELLIPSE
5
1B7
100
AcDbEntity
8
1
62
256
6
ByLayer
370
13
48
1
60
0
100
AcDbEllipse
10
112.259369
20
10.563206
30
0
11
0.148163665863162
21
0.0233993187505398
31
0
210
0
220
0
230
1
40
0.009655
41
0.0919985744711225
42
1.66279490126857
0
ELLIPSE
5
1B8
100
AcDbEntity
8
1
62
256
6
ByLayer
370
13
48
1
60
0
100
AcDbEllipse
10
111.562669
20
10.717471
30
0
11
-0.00261679781214706
21
0.0499314767377278
31
0
210
0
220
0
230
1
40
0.995725
41
-0.00872664626012818
42
0.948264232194165
0
ELLIPSE
5
1B9
100
AcDbEntity
8
1
62
256
6
ByLayer
370
13
48
1
60
0
100
AcDbEllipse
10
105.303477
20
7.137772
30
0
11
0.0444855628063803
21
-0.848835104541395
31
0
210
0
220
0
230
1
40
0.995725
41
-1.75405589825428
42
-1.46607657167522
0
ELLIPSE
5
1BA
100
AcDbEntity
8
1
62
256
6
ByLayer
370
13
48
1
60
0
100
AcDbEllipse
10
112.452132
20
7.776251
30
0
11
0.0209343824971203
21
-0.399451813901836
31
0
210
0
220
0
230
1
40
0.995725
41
1.38753675533555
42
1.67551608191469
0
ELLIPSE
5
1BB
100
AcDbEntity
8
1
62
256
6
ByLayer
370
13
48
1
60
0
100
AcDbEllipse
10
112.017601
20
10.774114
30
0
11
0.00254430870317416
21
0.149978420091768
31
0
210
0
220
0
230
1
40
0.092151
41
0.00639829921253762
42
1.5771946260066
0
ELLIPSE
5
1BC
100
AcDbEntity
8
1
62
256
6
ByLayer
370
13
48
1
60
0
100
AcDbEllipse
10
105.317313
20
7.138497
30
0
11
-0.0366351693700595
21
0.699040674328202
31
0
210
0
220
0
230
1
40
0.995725
41
1.38753675533552
42
1.67551608191457
0
ELLIPSE
5
1BD
100
AcDbEntity
8
1
62
256
6
ByLayer
370
13
48
1
60
0
100
AcDbEllipse
10
111.335948
20
5.038223
30
0
11
-0.0435852065161124
21
-0.158111345862138
31
0
210
0
220
0
230
1
40
0.080185
41
-1.54411081854797
42
0.026685508258828
0
ELLIPSE
5
1BE
100
AcDbEntity
8
1
62
256
6
ByLayer
370
13
48
1
60
0
100
AcDbEllipse
10
111.680212
20
10.772768
30
0
11
-0.00653729335064154
21
0.149857478277354
31
0
210
0
220
0
230
1
40
0.092367
41
0.000809536043604759
42
1.57160586284012
0
ELLIPSE
5
1BF
100
AcDbEntity
8
1
62
256
6
ByLayer
370
13
48
1
60
0
100
AcDbEllipse
10
110.582478
20
3.497537
30
0
11
-0.073270338740119
21
1.3980813486564
31
0
210
0
220
0
230
1
40
0.995725
41
-0.496200779837452
42
1.63107050815977E-13
0
ELLIPSE
5
1C0
100
AcDbEntity
8
1
62
256
6
ByLayer
370
13
48
1
60
0
100
AcDbEllipse
10
105.33115
20
7.139222
30
0
11
-0.0314015737457653
21
0.599177720852745
31
0
210
0
220
0
230
1
40
0.995725
41
1.38753675533553
42
1.67551608191457
0
ELLIPSE
5
1C1
100
AcDbEntity
8
1
62
256
6
ByLayer
370
13
48
1
60
0
100
AcDbEllipse
10
104.285405
20
12.868482
30
0
11
0.465790010560923
21
-8.88780285931578
31
0
210
0
220
0
230
1
40
0.995725
41
-0.0690273159280645
42
-0.0356924391919214
0
ELLIPSE
5
1C2
100
AcDbEntity
8
1
62
256
6
ByLayer
370
13
48
1
60
0
100
AcDbEllipse
10
110.15594
20
11.636368
30
0
11
-0.073270338740119
21
1.3980813486564
31
0
210
0
220
0
230
1
40
0.995725
41
-3.14159265358964
42
-2.19332842139566
0
ELLIPSE
5
1C3
100
AcDbEntity
8
1
62
256
6
ByLayer
370
13
48
1
60
0
100
AcDbEllipse
10
104.819189
20
9.855482
30
0
11
-0.15730325300495
21
-0.0460731444236291
31
0
210
0
220
0
230
1
40
0.019548
41
-3.05924451047679
42
-1.4884481838177
0
ELLIPSE
5
1C4
100
AcDbEntity
8
1
62
256
6
ByLayer
370
13
48
1
60
0
100
AcDbEllipse
10
112.365012
20
5.191999
30
0
11
0.00785039343642008
21
-0.149794430213188
31
0
210
0
220
0
230
1
40
0.995725
41
0.0959931088599074
42
1.38753675533567
0
ELLIPSE
5
1C5
100
AcDbEntity
8
1
62
256
6
ByLayer
370
13
48
1
60
0
100
AcDbEllipse
10
112.3604
20
5.191757
30
0
11
0.00785039343642008
21
-0.149794430213188
31
0
210
0
220
0
230
1
40
0.995725
41
0.0959931088595345
42
1.38753675533548
0
ELLIPSE
5
1C6
100
AcDbEntity
8
1
62
256
6
ByLayer
370
13
48
1
60
0
100
AcDbEllipse
10
111.999672
20
10.523428
30
0
11
-0.0130839890607352
21
0.249657383688636
31
0
210
0
220
0
230
1
40
0.995725
41
-1.46607657167532
42
-0.0690273159279234
0
ELLIPSE
5
1C7
100
AcDbEntity
8
1
62
256
6
ByLayer
370
13
48
1
60
0
100
AcDbEllipse
10
110.15594
20
11.636368
30
0
11
-0.0785039343644132
21
1.49794430213187
31
0
210
0
220
0
230
1
40
0.995725
41
-2.4597416437851
42
-2.19332842139561
0
ELLIPSE
5
1C8
100
AcDbEntity
8
1
62
256
6
ByLayer
370
13
48
1
60
0
100
AcDbEllipse
10
103.79935
20
9.70219
30
0
11
0.00785039343642008
21
-0.149794430213188
31
0
210
0
220
0
230
1
40
0.995725
41
-3.04559954473026
42
-1.75405589825441
0
ELLIPSE
5
1C9
100
AcDbEntity
8
1
62
256
6
ByLayer
370
13
48
1
60
0
100
AcDbEllipse
10
111.761224
20
9.024678
30
0
11
0.0994383168613208
21
-1.89739611603371
31
0
210
0
220
0
230
1
40
0.995725
41
3.10590021439826
42
3.13286600732997
0
ELLIPSE
5
1CA
100
AcDbEntity
8
1
62
256
6
ByLayer
370
13
48
1
60
0
100
AcDbEllipse
10
112.3604
20
5.191757
30
0
11
0.148731686424787
21
-0.0194649801756615
31
0
210
0
220
0
230
1
40
0.016833
41
-1.66175841710567
42
-0.0909620903098687
0
ELLIPSE
5
1CB
100
AcDbEntity
8
1
62
256
6
ByLayer
370
13
48
1
60
0
100
AcDbEllipse
10
104.73186
20
7.045011
30
0
11
-0.0987757772421072
21
-0.0155995458336972
31
0
210
0
220
0
230
1
40
0.009655
41
0.0919985744717376
42
1.66279490126809
0
ELLIPSE
5
1CC
100
AcDbEntity
8
1
62
256
6
ByLayer
370
13
48
1
60
0
100
AcDbEllipse
10
108.091405
20
7.447578
30
0
11
0.0876992016578542
21
-1.67340045424276
31
0
210
0
220
0
230
1
40
0.995725
41
0
42
6.28318530717959
0
ELLIPSE
5
1CD
100
AcDbEntity
8
1
62
256
6
ByLayer
370
13
48
1
60
0
100
AcDbEllipse
10
111.574322
20
10.768148
30
0
11
-0.00653729335064154
21
0.149857478277354
31
0
210
0
220
0
230
1
40
0.092367
41
0.000809536045656119
42
1.57160586284012
0
ELLIPSE
5
1CE
100
AcDbEntity
8
1
62
256
6
ByLayer
370
13
48
1
60
0
100
AcDbEllipse
10
104.403138
20
5.86951
30
0
11
0.0994383168613208
21
-1.89739611603371
31
0
210
0
220
0
230
1
40
0.995725
41
-0.0356924391918749
42
-0.0087266462601563
0
ELLIPSE
5
1CF
100
AcDbEntity
8
1
62
256
6
ByLayer
370
13
48
1
60
0
100
AcDbEllipse
10
111.223637
20
10.448367
30
0
11
0.00523359562427969
21
-0.0998629534754518
31
0
210
0
220
0
230
1
40
0.995725
41
-2.45974164378522
42
-1.46607657167489
0
ELLIPSE
5
1D0
100
AcDbEntity
8
1
62
256
6
ByLayer
370
13
48
1
60
0
100
AcDbEllipse
10
104.936112
20
4.44558
30
0
11
0.00523359562427969
21
-0.0998629534754518
31
0
210
0
220
0
230
1
40
0.995725
41
0.681851009804536
42
1.67551608191477
0
ELLIPSE
5
1D1
100
AcDbEntity
8
1
62
256
6
ByLayer
370
13
48
1
60
0
100
AcDbEllipse
10
105.989973
20
3.256854
30
0
11
0.0863543278006205
21
-1.64773873234506
31
0
210
0
220
0
230
1
40
0.995725
41
-2.44322184791084
42
-2.19332842139578
0
ELLIPSE
5
1D2
100
AcDbEntity
8
1
62
256
6
ByLayer
370
13
48
1
60
0
100
AcDbEllipse
10
108.210666
20
4.995459
30
0
11
0.00523359562428003
21
-0.0998629534754582
31
0
210
0
220
0
230
1
40
0.092371
41
0
42
1.5707963267949
0
ELLIPSE
5
1D3
100
AcDbEntity
8
1
62
256
6
ByLayer
370
13
48
1
60
0
100
AcDbEllipse
10
112.694331
20
7.743323
30
0
11
0.148731686424787
21
-0.0194649801756615
31
0
210
0
220
0
230
1
40
0.016833
41
-1.66175841710557
42
-0.0909620903105779
0
ELLIPSE
5
1D4
100
AcDbEntity
8
1
62
256
6
ByLayer
370
13
48
1
60
0
100
AcDbEllipse
10
112.013508
20
10.524153
30
0
11
0.0209343824971197
21
-0.399451813901825
31
0
210
0
220
0
230
1
40
0.995725
41
1.67551608191447
42
3.07256533766183
0
ELLIPSE
5
1D5
100
AcDbEntity
8
1
62
256
6
ByLayer
370
13
48
1
60
0
100
AcDbEllipse
10
112.69338
20
7.815062
30
0
11
0.148163665863162
21
0.0233993187505398
31
0
210
0
220
0
230
1
40
0.009655
41
0.0919985744754408
42
1.66279490126851
0
ELLIPSE
5
1D6
100
AcDbEntity
8
1
62
256
6
ByLayer
370
13
48
1
60
0
100
AcDbEllipse
10
111.047632
20
10.286157
30
0
11
-0.0554263173694336
21
0.083234147697101
31
0
210
0
220
0
230
1
40
0.079546
41
-1.61791742227136
42
-0.0471210954766253
0
ELLIPSE
5
1D7
100
AcDbEntity
8
1
62
256
6
ByLayer
370
13
48
1
60
0
100
AcDbEllipse
10
104.819189
20
9.855482
30
0
11
-0.043585206516054
21
-0.158111345860757
31
0
210
0
220
0
230
1
40
0.080185
41
-3.11490714533494
42
-1.54411081851828
0
ELLIPSE
5
1D8
100
AcDbEntity
8
1
62
256
6
ByLayer
370
13
48
1
60
0
100
AcDbEllipse
10
110.182585
20
3.476579
30
0
11
-1.13371805646729
21
-1.17994814676028
31
0
210
0
220
0
230
1
40
0.704685
41
2.88504843524588
42
-2.9930990475782
0
ELLIPSE
5
1D9
100
AcDbEntity
8
1
62
256
6
ByLayer
370
13
48
1
60
0
100
AcDbEllipse
10
109.879208
20
11.621865
30
0
11
0.0732703387399202
21
-1.39808134865641
31
0
210
0
220
0
230
1
40
0.995725
41
0
42
0.496200779837754
0
ELLIPSE
5
1DA
100
AcDbEntity
8
1
62
256
6
ByLayer
370
13
48
1
60
0
100
AcDbEllipse
10
104.127793
20
4.368827
30
0
11
-0.0130839890607352
21
0.249657383688636
31
0
210
0
220
0
230
1
40
0.995725
41
1.67551608191448
42
3.0725653376617
0
ELLIPSE
5
1DB
100
AcDbEntity
8
1
62
256
6
ByLayer
370
13
48
1
60
0
100
AcDbEllipse
10
112.366164
20
5.201089
30
0
11
-0.0436352238599243
21
-0.256157131811187
31
0
210
0
220
0
230
1
40
0.958209
41
0.305044217576572
42
1.61107014535897
0
ELLIPSE
5
1DC
100
AcDbEntity
8
1
62
256
6
ByLayer
370
13
48
1
60
0
100
AcDbEllipse
10
104.729577
20
7.217186
30
0
11
-0.0991544576165246
21
0.0129766534504402
31
0
210
0
220
0
230
1
40
0.016833
41
-1.66175841710562
42
-0.0909620903084502
0
ELLIPSE
5
1DD
100
AcDbEntity
8
1
62
256
6
ByLayer
370
13
48
1
60
0
100
AcDbEllipse
10
106.00381
20
3.257579
30
0
11
-0.0785039343644132
21
1.49794430213187
31
0
210
0
220
0
230
1
40
0.995725
41
0.681851009804525
42
0.948264232194012
0
ELLIPSE
5
1DE
100
AcDbEntity
8
1
62
256
6
ByLayer
370
13
48
1
60
0
100
AcDbEllipse
10
111.860508
20
2.02474
30
0
11
-0.457939617125744
21
8.73800842910253
31
0
210
0
220
0
230
1
40
0.995725
41
-0.0690273159278976
42
-0.035692439191751
0
ELLIPSE
5
1DF
100
AcDbEntity
8
1
62
256
6
ByLayer
370
13
48
1
60
0
100
AcDbEllipse
10
105.116729
20
4.608031
30
0
11
0.0987757772421078
21
0.0155995458336932
31
0
210
0
220
0
230
1
40
0.009655
41
-3.0495940791199
42
-1.47879775231632
0
ELLIPSE
5
1E0
100
AcDbEntity
8
1
62
256
6
ByLayer
370
13
48
1
60
0
100
AcDbEllipse
10
111.581117
20
10.718438
30
0
11
0.01046719124856
21
-0.199725906950915
31
0
210
0
220
0
230
1
40
0.995725
41
3.13286600733002
42
-2.19332842139562
0
ELLIPSE
5
1E1
100
AcDbEntity
8
1
62
256
6
ByLayer
370
13
48
1
60
0
100
AcDbEllipse
10
110.851661
20
7.755933
30
0
11
-0.0314015737457653
21
0.599177720852745
31
0
210
0
220
0
230
1
40
0.995725
41
-1.75405589825427
42
-1.46607657167523
0
ELLIPSE
5
1E2
100
AcDbEntity
8
1
62
256
6
ByLayer
370
13
48
1
60
0
100
AcDbEllipse
10
104.266956
20
12.867515
30
0
11
-0.457939617125744
21
8.73800842910253
31
0
210
0
220
0
230
1
40
0.995725
41
3.07256533766189
42
3.10590021439804
0
ELLIPSE
5
1E3
100
AcDbEntity
8
1
62
256
6
ByLayer
370
13
48
1
60
0
100
AcDbEllipse
10
111.874345
20
2.025465
30
0
11
0.465790010560923
21
-8.88780285931578
31
0
210
0
220
0
230
1
40
0.995725
41
3.07256533766189
42
3.10590021439805
0
ELLIPSE
5
1E4
100
AcDbEntity
8
1
62
256
6
ByLayer
370
13
48
1
60
0
100
AcDbEllipse
10
104.881773
20
9.914969
30
0
11
0.00523359562428013
21
-0.0998629534754601
31
0
210
0
220
0
230
1
40
0.995725
41
1.38753675533563
42
-3.0455995447306
0
ELLIPSE
5
1E5
100
AcDbEntity
8
1
62
256
6
ByLayer
370
13
48
1
60
0
100
AcDbEllipse
10
104.384689
20
5.868543
30
0
11
-0.0915879234251489
21
1.74760168582051
31
0
210
0
220
0
230
1
40
0.995725
41
3.10590021439808
42
3.13286600732981
0
ELLIPSE
5
1E6
100
AcDbEntity
8
1
62
256
6
ByLayer
370
13
48
1
60
0
100
AcDbEllipse
10
111.727178
20
10.77418
30
0
11
-0.00247703513348028
21
0.149979546261974
31
0
210
0
220
0
230
1
40
0.092312
41
0.00331037239880574
42
1.5741066991944
0
ELLIPSE
5
1E7
100
AcDbEntity
8
1
62
256
6
ByLayer
370
13
48
1
60
0
100
AcDbEllipse
10
111.08906
20
5.035323
30
0
11
0.0315451332108387
21
0.0948941756416612
31
0
210
0
220
0
230
1
40
0.086058
41
-3.10790031584621
42
-1.53710398905407
0
ELLIPSE
5
1E8
100
AcDbEntity
8
1
62
256
6
ByLayer
370
13
48
1
60
0
100
AcDbEllipse
10
104.583245
20
4.175751
30
0
11
0.01046719124856
21
-0.199725906950915
31
0
210
0
220
0
230
1
40
0.995725
41
-0.0087266462600562
42
0.948264232193832
0
ELLIPSE
5
1E9
100
AcDbEntity
8
1
62
256
6
ByLayer
370
13
48
1
60
0
100
AcDbEllipse
10
111.617362
20
10.695093
30
0
11
0.0179634425223735
21
-0.3427629021525
31
0
210
0
220
0
230
1
40
0.995725
41
-2.82201731435876
42
-2.19332842139582
0
ELLIPSE
5
1EA
100
AcDbEntity
8
1
62
256
6
ByLayer
370
13
48
1
60
0
100
AcDbEllipse
10
110.017574
20
11.629116
30
0
11
0.0732703387399202
21
-1.39808134865641
31
0
210
0
220
0
230
1
40
0.995725
41
0.897555942335449
42
0.901238604216646
0
ELLIPSE
5
1EB
100
AcDbEntity
8
1
62
256
6
ByLayer
370
13
48
1
60
0
100
AcDbEllipse
10
111.878957
20
2.025707
30
0
11
0.465790010560923
21
-8.88780285931578
31
0
210
0
220
0
230
1
40
0.995725
41
3.07256533766206
42
3.10590021439821
0
ELLIPSE
5
1EC
100
AcDbEntity
8
1
62
256
6
ByLayer
370
13
48
1
60
0
100
AcDbEllipse
10
104.547
20
4.199095
30
0
11
0.0179634425223735
21
-0.3427629021525
31
0
210
0
220
0
230
1
40
0.995725
41
0.31957533923067
42
0.948264232193619
0
ELLIPSE
5
1ED
100
AcDbEntity
8
1
62
256
6
ByLayer
370
13
48
1
60
0
100
AcDbEllipse
10
105.321925
20
7.138738
30
0
11
0.0366351693699602
21
-0.699040674328207
31
0
210
0
220
0
230
1
40
0.995725
41
-1.75405589825427
42
-1.46607657167522
0
ELLIPSE
5
1EE
100
AcDbEntity
8
1
62
256
6
ByLayer
370
13
48
1
60
0
100
AcDbEllipse
10
99.499991
20
2.637006
30
0
11
-1.99959898800703
21
0.0485864125189137
31
0
210
0
220
0
230
1
40
0.83681
41
2.00939734543569
42
2.02311952554402
0
ELLIPSE
5
1EF
100
AcDbEntity
8
1
62
256
6
ByLayer
370
13
48
1
60
0
100
AcDbEllipse
10
102.698492
20
5.101006
30
0
11
-0.026167978121471
21
0.499314767377287
31
0
210
0
220
0
230
1
40
0.995725
41
-1.74128991378723
42
-1.46607657167529
0
ELLIPSE
5
1F0
100
AcDbEntity
8
1
62
256
6
ByLayer
370
13
48
1
60
0
100
AcDbEllipse
10
112.303993
20
4.225981
30
0
11
-0.00903103848862861
21
0.500209614998493
31
0
210
0
220
0
230
1
40
0.105166
41
1.9234715312365
42
-2.8863084553796
0
ELLIPSE
5
1F1
100
AcDbEntity
8
1
62
256
6
ByLayer
370
13
48
1
60
0
100
AcDbEllipse
10
115.296377
20
0.976997
30
0
11
-3.86649451489481
21
-1.3844118587818
31
0
210
0
220
0
230
1
40
0.877561
41
-0.382459419610934
42
-0.234907350433235
0
ELLIPSE
5
1F2
100
AcDbEntity
8
1
62
256
6
ByLayer
370
13
48
1
60
0
100
AcDbEllipse
10
102.394087
20
5.085053
30
0
11
0.0523359562428002
21
-0.998629534754581
31
0
210
0
220
0
230
1
40
0.995725
41
1.40030273980256
42
1.67551608191453
0
ELLIPSE
5
1F3
100
AcDbEntity
8
1
62
256
6
ByLayer
370
13
48
1
60
0
100
AcDbEllipse
10
104.527815
20
4.882558
30
0
11
0.0706535409277806
21
-1.34814987191869
31
0
210
0
220
0
230
1
40
0.995725
41
-1.74128991378719
42
-1.26065515624186
0
ELLIPSE
5
1F4
100
AcDbEntity
8
1
62
256
6
ByLayer
370
13
48
1
60
0
100
AcDbEllipse
10
104.075515
20
4.858854
30
0
11
-1.19084823721593
21
0.959487295823453
31
0
210
0
220
0
230
1
40
0.775936
41
-3.08479702378695
42
-2.88746812436987
0
ELLIPSE
5
1F5
100
AcDbEntity
8
1
62
256
6
ByLayer
370
13
48
1
60
0
100
AcDbEllipse
10
108.298149
20
-2.608513
30
0
11
-4.02198711734297
21
-0.0190748748660539
31
0
210
0
220
0
230
1
40
0.989944
41
3.00670530034221
42
-2.99005666243841
0
ELLIPSE
5
1F6
100
AcDbEntity
8
1
62
256
6
ByLayer
370
13
48
1
60
0
100
AcDbEllipse
10
108.842821
20
5.959865
30
0
11
-0.85966022655943
21
-1.0669498894665
31
0
210
0
220
0
230
1
40
0.966608
41
0.713732916561145
42
1.18301787691605
0
ELLIPSE
5
1F7
100
AcDbEntity
8
1
62
256
6
ByLayer
370
13
48
1
60
0
100
AcDbEllipse
10
115.967446
20
0.370847
30
0
11
-4.02198713665126
21
-0.019074983501923
31
0
210
0
220
0
230
1
40
0.989944
41
0.0542535495480675
42
0.151535964061999
0
ELLIPSE
5
1F8
100
AcDbEntity
8
1
62
256
6
ByLayer
370
13
48
1
60
0
100
AcDbEllipse
10
105.847936
20
4.150645
30
0
11
-3.96879667279677
21
-0.704906652384834
31
0
210
0
220
0
230
1
40
0.015321
41
-3.01817314100243
42
-2.80577404748061
0
ELLIPSE
5
1F9
100
AcDbEntity
8
1
62
256
6
ByLayer
370
13
48
1
60
0
100
AcDbEllipse
10
112.196858
20
0
30
0
11
-1.81299166103082
21
10.7238361536606
31
0
210
0
220
0
230
1
40
0.08711
41
1.6064962212328
42
1.67277095589955
0
ELLIPSE
5
1FA
100
AcDbEntity
8
1
62
256
6
ByLayer
370
13
48
1
60
0
100
AcDbEllipse
10
112.014442
20
-5.624087
30
0
11
-0.0645822969839069
21
-0.516093807639923
31
0
210
0
220
0
230
1
40
0.111912
41
-1.63334115112053
42
-0.0625448243203435
0
ELLIPSE
5
1FB
100
AcDbEntity
8
1
62
256
6
ByLayer
370
13
48
1
60
0
100
AcDbEllipse
10
121.153607
20
-1.1E-05
30
0
11
-115.772075875826
21
0.0525224192852986
31
0
210
0
220
0
230
1
40
0.092638
41
-1.41769385254363
42
-1.40392816523298
0
ELLIPSE
5
1FC
100
AcDbEntity
8
1
62
256
6
ByLayer
370
13
48
1
60
0
100
AcDbEllipse
10
104.40262
20
4.875997
30
0
11
-0.85966082237018
21
-1.06694954843573
31
0
210
0
220
0
230
1
40
0.966608
41
1.76533350918726
42
1.83734099056849
0
ELLIPSE
5
1FD
100
AcDbEntity
8
1
62
256
6
ByLayer
370
13
48
1
60
0
100
AcDbEllipse
10
113.037802
20
0
30
0
11
-21.1653017689798
21
8.66869600026974
31
0
210
0
220
0
230
1
40
0.289452
41
0.718089420257648
42
0.837064093417033
0
ELLIPSE
5
1FE
100
AcDbEntity
8
1
62
256
6
ByLayer
370
13
48
1
60
0
100
AcDbEllipse
10
112.507203
20
-0.952882
30
0
11
-1.09905760305436
21
1.6877976254031
31
0
210
0
220
0
230
1
40
0.411373
41
-0.77380359401618
42
-0.602016394875192
0
ELLIPSE
5
1FF
100
AcDbEntity
8
1
62
256
6
ByLayer
370
13
48
1
60
0
100
AcDbEllipse
10
108.32373
20
-4.081063
30
0
11
-0.418687649943537
21
7.9890362780366
31
0
210
0
220
0
230
1
40
0.995725
41
0
42
0.212154760396575
0
ELLIPSE
5
200
100
AcDbEntity
8
1
62
256
6
ByLayer
370
13
48
1
60
0
100
AcDbEllipse
10
101.952053
20
-0.000315
30
0
11
-1.43221988885372
21
-10.7245333170402
31
0
210
0
220
0
230
1
40
0.090397
41
3.00546106209027
42
3.01582022600142
0
ELLIPSE
5
201
100
AcDbEntity
8
1
62
256
6
ByLayer
370
13
48
1
60
0
100
AcDbEllipse
10
112.367297
20
4.229298
30
0
11
-0.0190690740501885
21
-0.501607061597438
31
0
210
0
220
0
230
1
40
0.195483
41
-0.331356141472554
42
-0.233965138758038
0
ELLIPSE
5
202
100
AcDbEntity
8
1
62
256
6
ByLayer
370
13
48
1
60
0
100
AcDbEllipse
10
104.062817
20
11.358369
30
0
11
-0.366351693700595
21
6.99040674328202
31
0
210
0
220
0
230
1
40
0.995725
41
2.79252680319569
42
2.97516679622613
0
ELLIPSE
5
203
100
AcDbEntity
8
1
62
256
6
ByLayer
370
13
48
1
60
0
100
AcDbEllipse
10
109.443111
20
-4.022399
30
0
11
-6.21367373727725
21
5.59481688742598
31
0
210
0
220
0
230
1
40
0.911526
41
-0.739146945010595
42
-0.671194235411501
0
ELLIPSE
5
204
100
AcDbEntity
8
1
62
256
6
ByLayer
370
13
48
1
60
0
100
AcDbEllipse
10
111.942703
20
5.12095
30
0
11
-0.0180620769745996
21
1.0004192299499
31
0
210
0
220
0
230
1
40
0.105166
41
-3.13798329954213
42
-2.58317226654629
0
ELLIPSE
5
205
100
AcDbEntity
8
1
62
256
6
ByLayer
370
13
48
1
60
0
100
AcDbEllipse
10
105.978853
20
4.606337
30
0
11
0.262293644801652
21
-0.964988105572636
31
0
210
0
220
0
230
1
40
0.0903
41
-1.43812613876251
42
-0.0195312109396987
0
ELLIPSE
5
206
100
AcDbEntity
8
1
62
256
6
ByLayer
370
13
48
1
60
0
100
AcDbEllipse
10
99.5
20
3.124883
30
0
11
-1.5
21
1.51595858262354E-15
31
0
210
0
220
0
230
1
40
0.752248
41
3.13014831309281
42
-1.6992634950388
0
ELLIPSE
5
207
100
AcDbEntity
8
1
62
256
6
ByLayer
370
13
48
1
60
0
100
AcDbEllipse
10
179.059533
20
-0.026048
30
0
11
-146.300334357893
21
0.066282248346469
31
0
210
0
220
0
230
1
40
0.085073
41
-1.01544980826583
42
-0.99385769892873
0
ELLIPSE
5
208
100
AcDbEntity
8
1
62
256
6
ByLayer
370
13
48
1
60
0
100
AcDbEllipse
10
111.625599
20
-6.031881
30
0
11
-0.12002660164019
21
-0.992785152723888
31
0
210
0
220
0
230
1
40
0.116528
41
0
42
6.28318530717959
0
ELLIPSE
5
209
100
AcDbEntity
8
1
62
256
6
ByLayer
370
13
48
1
60
0
100
AcDbEllipse
10
102.11868
20
4.669605
30
0
11
-0.293690420649016
21
-0.955900589401954
31
0
210
0
220
0
230
1
40
0.0868
41
-1.53907871771949
42
-1.39133759172484
0
ELLIPSE
5
20A
100
AcDbEntity
8
1
62
256
6
ByLayer
370
13
48
1
60
0
100
AcDbEllipse
10
102.218521
20
3.960436
30
0
11
-3.96879667162579
21
-0.704906652172159
31
0
210
0
220
0
230
1
40
0.015321
41
-3.01817314100424
42
-2.80577404743096
0
ELLIPSE
5
20B
100
AcDbEntity
8
1
62
256
6
ByLayer
370
13
48
1
60
0
100
AcDbEllipse
10
112.345288
20
-0.063718
30
0
11
-0.0203846285947137
21
1.01109966865599
31
0
210
0
220
0
230
1
40
0.102474
41
-0.00931944085427435
42
0.845513682351943
0
ELLIPSE
5
20C
100
AcDbEntity
8
1
62
256
6
ByLayer
370
13
48
1
60
0
100
AcDbEllipse
10
112.239384
20
0.12292
30
0
11
-0.0101923142959448
21
0.505549834290007
31
0
210
0
220
0
230
1
40
0.102474
41
-0.110711429530878
42
0.482375979472292
0
ELLIPSE
5
20D
100
AcDbEntity
8
1
62
256
6
ByLayer
370
13
48
1
60
0
100
AcDbEllipse
10
109.705719
20
4.352823
30
0
11
-0.318392679364838
21
-0.395166622923743
31
0
210
0
220
0
230
1
40
0.966608
41
-2.21492178205023
42
-1.95857476872935
0
ELLIPSE
5
20E
100
AcDbEntity
8
1
62
256
6
ByLayer
370
13
48
1
60
0
100
AcDbEllipse
10
99.5
20
2.990775
30
0
11
-0.196812298095487
21
5.76478086614516
31
0
210
0
220
0
230
1
40
0.34525
41
-0.540962223855705
42
-0.44018642279354
0
ELLIPSE
5
20F
100
AcDbEntity
8
1
62
256
6
ByLayer
370
13
48
1
60
0
100
AcDbEllipse
10
104.304692
20
6.739773
30
0
11
0.0706535409277806
21
-1.34814987191869
31
0
210
0
220
0
230
1
40
0.995725
41
-2.01983957028347
42
-1.46607657167526
0
ELLIPSE
5
210
100
AcDbEntity
8
1
62
256
6
ByLayer
370
13
48
1
60
0
100
AcDbEllipse
10
364.988992
20
0
30
0
11
-379.908387390587
21
7.61603042122568
31
0
210
0
220
0
230
1
40
0.019877
41
0.806344036566831
42
0.840093584141837
0
ELLIPSE
5
211
100
AcDbEntity
8
1
62
256
6
ByLayer
370
13
48
1
60
0
100
AcDbEllipse
10
107.852706
20
4.906603
30
0
11
0.0523359562428002
21
-0.998629534754581
31
0
210
0
220
0
230
1
40
0.092371
41
-1.21322522314933
42
1.53845413768412E-13
0
ELLIPSE
5
212
100
AcDbEntity
8
1
62
256
6
ByLayer
370
13
48
1
60
0
100
AcDbEllipse
10
106.076305
20
4.162614
30
0
11
-0.318392676572825
21
-0.39516662566242
31
0
210
0
220
0
230
1
40
0.966608
41
-2.21492178964697
42
-1.30425215527895
0
ELLIPSE
5
213
100
AcDbEntity
8
1
62
256
6
ByLayer
370
13
48
1
60
0
100
AcDbEllipse
10
103.92419
20
0
30
0
11
-0.566945570941067
21
10.724871410806
31
0
210
0
220
0
230
1
40
0.092638
41
-0.134602313295449
42
-0.0113967155670446
0
ELLIPSE
5
214
100
AcDbEntity
8
1
62
256
6
ByLayer
370
13
48
1
60
0
100
AcDbEllipse
10
113.015959
20
0
30
0
11
-1.31520479715907
21
-10.723925987428
31
0
210
0
220
0
230
1
40
0.115402
41
-1.32952683563744
42
-0.0715842961615572
0
ELLIPSE
5
215
100
AcDbEntity
8
1
62
256
6
ByLayer
370
13
48
1
60
0
100
AcDbEllipse
10
108.080004
20
7.44698
30
0
11
0.0541703315091104
21
-1.03363149994773
31
0
210
0
220
0
230
1
40
0.995725
41
-1.5707963267949
42
-0.523598775598327
0
ELLIPSE
5
216
100
AcDbEntity
8
1
62
256
6
ByLayer
370
13
48
1
60
0
100
AcDbEllipse
10
108.080004
20
7.44698
30
0
11
0.0541703315091104
21
-1.03363149994773
31
0
210
0
220
0
230
1
40
0.995725
41
0.52359877559828
42
1.5707963267949
0
ELLIPSE
5
217
100
AcDbEntity
8
1
62
256
6
ByLayer
370
13
48
1
60
0
100
AcDbEllipse
10
108.754745
20
7.939493
30
0
11
-0.130868635436958
21
0.202898866256537
31
0
210
0
220
0
230
1
40
0.503053
41
0.341645026536385
42
1.57329528827046
0
ELLIPSE
5
218
100
AcDbEntity
8
1
62
256
6
ByLayer
370
13
48
1
60
0
100
AcDbEllipse
10
107.992373
20
7.442388
30
0
11
0.0414082085793036
21
-0.790115687897825
31
0
210
0
220
0
230
1
40
0.995725
41
1.04719755119662
42
2.09439510239318
0
ELLIPSE
5
219
100
AcDbEntity
8
1
62
256
6
ByLayer
370
13
48
1
60
0
100
AcDbEllipse
10
108.80253
20
7.027695
30
0
11
-0.108943016668535
21
-0.215466862387514
31
0
210
0
220
0
230
1
40
0.503053
41
-2.8049455500223
42
-1.57329528827678
0
ELLIPSE
5
21A
100
AcDbEntity
8
1
62
256
6
ByLayer
370
13
48
1
60
0
100
AcDbEllipse
10
107.944587
20
8.354186
30
0
11
-0.24033683425866
21
-0.0125955197634747
31
0
210
0
220
0
230
1
40
0.506302
41
0.339146065052188
42
1.5707963267949
0
ELLIPSE
5
21B
100
AcDbEntity
8
1
62
256
6
ByLayer
370
13
48
1
60
0
100
AcDbEllipse
10
108.080004
20
7.44698
30
0
11
0.0643732261786441
21
-1.22831432774813
31
0
210
0
220
0
230
1
40
0.995725
41
0
42
6.28318530717959
0
ELLIPSE
5
21C
100
AcDbEntity
8
1
62
256
6
ByLayer
370
13
48
1
60
0
100
AcDbEllipse
10
108.040158
20
6.530589
30
0
11
-0.240336834259658
21
-0.0125955197628681
31
0
210
0
220
0
230
1
40
0.506302
41
-1.5707963267949
42
-0.339146065051409
0
ELLIPSE
5
21D
100
AcDbEntity
8
1
62
256
6
ByLayer
370
13
48
1
60
0
100
AcDbEllipse
10
108.080004
20
7.44698
30
0
11
0.0541703315091104
21
-1.03363149994773
31
0
210
0
220
0
230
1
40
0.995725
41
-0.523598775598327
42
0.52359877559828
0
ELLIPSE
5
21E
100
AcDbEntity
8
1
62
256
6
ByLayer
370
13
48
1
60
0
100
AcDbEllipse
10
108.080004
20
7.44698
30
0
11
0.0541703315091104
21
-1.03363149994773
31
0
210
0
220
0
230
1
40
0.995725
41
-2.6179938779915
42
-1.5707963267949
0
ELLIPSE
5
21F
100
AcDbEntity
8
1
62
256
6
ByLayer
370
13
48
1
60
0
100
AcDbEllipse
10
108.080004
20
7.44698
30
0
11
0.0541703315091104
21
-1.03363149994773
31
0
210
0
220
0
230
1
40
0.995725
41
1.5707963267949
42
2.61799387799149
0
ELLIPSE
5
220
100
AcDbEntity
8
1
62
256
6
ByLayer
370
13
48
1
60
0
100
AcDbEllipse
10
108.754745
20
7.939493
30
0
11
-0.130868635434751
21
0.202898866254154
31
0
210
0
220
0
230
1
40
0.503053
41
1.57329528827508
42
2.80494555002251
0
ELLIPSE
5
221
100
AcDbEntity
8
1
62
256
6
ByLayer
370
13
48
1
60
0
100
AcDbEllipse
10
108.064535
20
7.446169
30
0
11
0.0811207321763403
21
-1.5478757788696
31
0
210
0
220
0
230
1
40
0.995725
41
0
42
6.28318530717959
0
ELLIPSE
5
222
100
AcDbEntity
8
1
62
256
6
ByLayer
370
13
48
1
60
0
100
AcDbEllipse
10
107.992373
20
7.442388
30
0
11
0.0414082085793036
21
-0.790115687897825
31
0
210
0
220
0
230
1
40
0.995725
41
2.0943951023932
42
-3.14159265358978
0
ELLIPSE
5
223
100
AcDbEntity
8
1
62
256
6
ByLayer
370
13
48
1
60
0
100
AcDbEllipse
10
108.80253
20
7.027695
30
0
11
-0.108943016671205
21
-0.215466862390174
31
0
210
0
220
0
230
1
40
0.503053
41
-1.57329528826662
42
-0.341645026535474
0
ELLIPSE
5
224
100
AcDbEntity
8
1
62
256
6
ByLayer
370
13
48
1
60
0
100
AcDbEllipse
10
108.080004
20
7.44698
30
0
11
0.0541703315091104
21
-1.03363149994773
31
0
210
0
220
0
230
1
40
0.995725
41
2.61799387799149
42
-2.6179938779915
0
ELLIPSE
5
225
100
AcDbEntity
8
1
62
256
6
ByLayer
370
13
48
1
60
0
100
AcDbEllipse
10
103.779706
20
4.751091
30
0
11
-0.0701718968789231
21
0.250192753347506
31
0
210
0
220
0
230
1
40
0.958209
41
1.5305225082411
42
1.89045646700324
0
ELLIPSE
5
226
100
AcDbEntity
8
1
62
256
6
ByLayer
370
13
48
1
60
0
100
AcDbEllipse
10
112.146724
20
4.77529
30
0
11
-0.0436352238450192
21
-0.256157131815283
31
0
210
0
220
0
230
1
40
0.958209
41
0.305044217520713
42
1.25113576950806
0
ELLIPSE
5
227
100
AcDbEntity
8
1
62
256
6
ByLayer
370
13
48
1
60
0
100
AcDbEllipse
10
111.534588
20
10.745194
30
0
11
0.12643516018393
21
-0.0807102860189705
31
0
210
0
220
0
230
1
40
0.053861
41
-2.9051536720644
42
-1.64601862314102
0
ELLIPSE
5
228
100
AcDbEntity
8
1
62
256
6
ByLayer
370
13
48
1
60
0
100
AcDbEllipse
10
111.67375
20
7.887988
30
0
11
0.148163665863162
21
0.0233993187505398
31
0
210
0
220
0
230
1
40
0.009655
41
1.66279490126832
42
2.86621140934388
0
ELLIPSE
5
229
100
AcDbEntity
8
1
62
256
6
ByLayer
370
13
48
1
60
0
100
AcDbEllipse
10
108.014179
20
7.44353
30
0
11
0.0810185496330819
21
-1.54592601979458
31
0
210
0
220
0
230
1
40
0.995725
41
-2.90578250564731
42
-1.62293306778965
0
ELLIPSE
5
22A
100
AcDbEntity
8
1
62
256
6
ByLayer
370
13
48
1
60
0
100
AcDbEllipse
10
108.014179
20
7.44353
30
0
11
0.0810185496330819
21
-1.54592601979458
31
0
210
0
220
0
230
1
40
0.995725
41
-1.62293306778964
42
-0.0763856142116199
0
ELLIPSE
5
22B
100
AcDbEntity
8
1
62
256
6
ByLayer
370
13
48
1
60
0
100
AcDbEllipse
10
111.676984
20
7.644074
30
0
11
0.148731686424787
21
-0.0194649801756615
31
0
210
0
220
0
230
1
40
0.016833
41
-2.86807084901527
42
-1.66175841710557
0
ELLIPSE
5
22C
100
AcDbEntity
8
1
62
256
6
ByLayer
370
13
48
1
60
0
100
AcDbEllipse
10
111.335948
20
5.038223
30
0
11
-0.157303252991272
21
-0.0460731444192418
31
0
210
0
220
0
230
1
40
0.019548
41
-1.48844818367457
42
0.0823481430946515
0
ELLIPSE
5
22D
100
AcDbEntity
8
1
62
256
6
ByLayer
370
13
48
1
60
0
100
AcDbEllipse
10
111.432502
20
7.849177
30
0
11
0.0987757772421078
21
0.0155995458336932
31
0
210
0
220
0
230
1
40
0.009655
41
-1.47879775232057
42
0.000129455017756157
0
ELLIPSE
5
22E
100
AcDbEntity
8
1
62
256
6
ByLayer
370
13
48
1
60
0
100
AcDbEllipse
10
111.047632
20
10.286157
30
0
11
-0.0987757772421072
21
-0.0155995458336972
31
0
210
0
220
0
230
1
40
0.009655
41
1.66279490126427
42
-3.14146319908903
0
ELLIPSE
5
22F
100
AcDbEntity
8
1
62
256
6
ByLayer
370
13
48
1
60
0
100
AcDbEllipse
10
111.434785
20
7.677002
30
0
11
0.0991544576165245
21
-0.0129766534504411
31
0
210
0
220
0
230
1
40
0.016833
41
-0.000144555481048486
42
1.47983423648403
0
ELLIPSE
5
230
100
AcDbEntity
8
1
62
256
6
ByLayer
370
13
48
1
60
0
100
AcDbEllipse
10
111.08906
20
5.035323
30
0
11
-0.0991544576165246
21
0.0129766534504402
31
0
210
0
220
0
230
1
40
0.016833
41
3.14144809811983
42
-1.66175841710548
0
ELLIPSE
5
231
100
AcDbEntity
8
1
62
256
6
ByLayer
370
13
48
1
60
0
100
AcDbEllipse
10
108.037048
20
7.444729
30
0
11
0.085542630556394
21
-1.63225062627888
31
0
210
0
220
0
230
1
40
0.995725
41
-0.853733178408425
42
0
0
ELLIPSE
5
232
100
AcDbEntity
8
1
62
256
6
ByLayer
370
13
48
1
60
0
100
AcDbEllipse
10
108.037048
20
7.444729
30
0
11
0.085542630556394
21
-1.63225062627888
31
0
210
0
220
0
230
1
40
0.995725
41
0
42
-2.28787052676361
0
ELLIPSE
5
233
100
AcDbEntity
8
1
62
256
6
ByLayer
370
13
48
1
60
0
100
AcDbEllipse
10
104.877161
20
9.914727
30
0
11
0.00523359562428013
21
-0.0998629534754601
31
0
210
0
220
0
230
1
40
0.995725
41
1.38753675533577
42
3.14158141713662
0
ELLIPSE
5
234
100
AcDbEntity
8
1
62
256
6
ByLayer
370
13
48
1
60
0
100
AcDbEllipse
10
104.580815
20
4.125557
30
0
11
0.00653729335064122
21
-0.149857478277354
31
0
210
0
220
0
230
1
40
0.092367
41
-1.56998679074968
42
-0.0232440763762955
0
ELLIPSE
5
235
100
AcDbEntity
8
1
62
256
6
ByLayer
370
13
48
1
60
0
100
AcDbEllipse
10
104.474925
20
4.120937
30
0
11
0.00653729335064122
21
-0.149857478277354
31
0
210
0
220
0
230
1
40
0.092367
41
-1.56998679074968
42
-0.0250600894875006
0
ELLIPSE
5
236
100
AcDbEntity
8
1
62
256
6
ByLayer
370
13
48
1
60
0
100
AcDbEllipse
10
104.427959
20
4.119525
30
0
11
0.00247703513347986
21
-0.149979546261974
31
0
210
0
220
0
230
1
40
0.092312
41
-1.56748595439539
42
-0.0473509076690605
0
ELLIPSE
5
237
100
AcDbEntity
8
1
62
256
6
ByLayer
370
13
48
1
60
0
100
AcDbEllipse
10
104.578632
20
4.175509
30
0
11
0.01046719124856
21
-0.199725906950915
31
0
210
0
220
0
230
1
40
0.995725
41
0.0113995454450621
42
0.948264232194089
0
ELLIPSE
5
238
100
AcDbEntity
8
1
62
256
6
ByLayer
370
13
48
1
60
0
100
AcDbEllipse
10
103.794738
20
9.701948
30
0
11
0.0222321776353755
21
-0.148343285246044
31
0
210
0
220
0
230
1
40
0.091945
41
-3.05448529856569
42
-1.5796874341352
0
ELLIPSE
5
239
100
AcDbEntity
8
1
62
256
6
ByLayer
370
13
48
1
60
0
100
AcDbEllipse
10
104.137536
20
4.119591
30
0
11
-0.00254430870317461
21
-0.149978420091768
31
0
210
0
220
0
230
1
40
0.092151
41
-1.56439802758329
42
-0.0696307375420721
0
ELLIPSE
5
23A
100
AcDbEntity
8
1
62
256
6
ByLayer
370
13
48
1
60
0
100
AcDbEllipse
10
103.794738
20
9.701948
30
0
11
-0.148731686424787
21
0.0194649801756603
31
0
210
0
220
0
230
1
40
0.016833
41
-0.0909620903098687
42
1.47983423648419
0
ELLIPSE
5
23B
100
AcDbEntity
8
1
62
256
6
ByLayer
370
13
48
1
60
0
100
AcDbEllipse
10
103.895769
20
4.330499
30
0
11
-0.148163665863161
21
-0.0233993187505457
31
0
210
0
220
0
230
1
40
0.009655
41
-1.47879775232138
42
-0.264793552090716
0
ELLIPSE
5
23C
100
AcDbEntity
8
1
62
256
6
ByLayer
370
13
48
1
60
0
100
AcDbEllipse
10
103.460806
20
7.150382
30
0
11
-0.148731686424787
21
0.0194649801756603
31
0
210
0
220
0
230
1
40
0.016833
41
-0.0909620903105779
42
1.47983423648432
0
ELLIPSE
5
23D
100
AcDbEntity
8
1
62
256
6
ByLayer
370
13
48
1
60
0
100
AcDbEllipse
10
103.461757
20
7.078643
30
0
11
-0.148163665863161
21
-0.0233993187505457
31
0
210
0
220
0
230
1
40
0.009655
41
-1.478797752321
42
-0.264869913410351
0
ELLIPSE
5
23E
100
AcDbEntity
8
1
62
256
6
ByLayer
370
13
48
1
60
0
100
AcDbEllipse
10
111.047632
20
10.286157
30
0
11
0.00523359562428003
21
-0.0998629534754582
31
0
210
0
220
0
230
1
40
0.995725
41
3.14157742130898
42
-2.60835254622902
0
ELLIPSE
5
23F
100
AcDbEntity
8
1
62
256
6
ByLayer
370
13
48
1
60
0
100
AcDbEllipse
10
111.08906
20
5.035323
30
0
11
0.00523359562428003
21
-0.0998629534754582
31
0
210
0
220
0
230
1
40
0.995725
41
-0.371839530755499
42
1.88673428907451E-05
0
ELLIPSE
5
240
100
AcDbEntity
8
1
62
256
6
ByLayer
370
13
48
1
60
0
100
AcDbEllipse
10
105.116729
20
4.608031
30
0
11
0.00523359562428003
21
-0.0998629534754582
31
0
210
0
220
0
230
1
40
0.995725
41
-1.46607657167546
42
-1.22376087657436E-05
0
ELLIPSE
5
241
100
AcDbEntity
8
1
62
256
6
ByLayer
370
13
48
1
60
0
100
AcDbEllipse
10
105.075302
20
9.858865
30
0
11
0.00523359562428003
21
-0.0998629534754582
31
0
210
0
220
0
230
1
40
0.995725
41
-3.14157313675507
42
-1.75405589825446
0
ELLIPSE
5
242
100
AcDbEntity
8
1
62
256
6
ByLayer
370
13
48
1
60
0
100
AcDbEllipse
10
105.116729
20
4.608031
30
0
11
0.0554263173694304
21
-0.0832341476971031
31
0
210
0
220
0
230
1
40
0.079546
41
7.03908742160319E-06
42
1.52367523131858
0
ELLIPSE
5
243
100
AcDbEntity
8
1
62
256
6
ByLayer
370
13
48
1
60
0
100
AcDbEllipse
10
107.992373
20
7.442388
30
0
11
0.0414082085793036
21
-0.790115687897825
31
0
210
0
220
0
230
1
40
0.995725
41
3.14159265358979
42
-2.34312059445261
0
ELLIPSE
5
244
100
AcDbEntity
8
1
62
256
6
ByLayer
370
13
48
1
60
0
100
AcDbEllipse
10
107.992373
20
7.442388
30
0
11
0.0414082085793036
21
-0.790115687897825
31
0
210
0
220
0
230
1
40
0.995725
41
-0.77841178959074
42
-1.91656453874465E-14
0
ELLIPSE
5
245
100
AcDbEntity
8
1
62
256
6
ByLayer
370
13
48
1
60
0
100
AcDbEllipse
10
107.992373
20
7.442388
30
0
11
-0.0414082085794158
21
0.790115687897819
31
0
210
0
220
0
230
1
40
0.995725
41
-3.03608720020581
42
-2.09439510239318
0
ELLIPSE
5
246
100
AcDbEntity
8
1
62
256
6
ByLayer
370
13
48
1
60
0
100
AcDbEllipse
10
107.992373
20
7.442388
30
0
11
0.0414082085793036
21
-0.790115687897825
31
0
210
0
220
0
230
1
40
0.995725
41
-1.8995181369537
42
-1.22654676685739
0
ELLIPSE
5
247
100
AcDbEntity
8
1
62
256
6
ByLayer
370
13
48
1
60
0
100
AcDbEllipse
10
108.900422
20
7.489976
30
0
11
-0.0126496006239236
21
0.241368758550175
31
0
210
0
220
0
230
1
40
0.501982
41
-2.88888761101831
42
-0.554556224962494
0
ELLIPSE
5
248
100
AcDbEntity
8
1
62
256
6
ByLayer
370
13
48
1
60
0
100
AcDbEllipse
10
108.405007
20
8.255953
30
0
11
-0.214323340834708
21
0.110049228609661
31
0
210
0
220
0
230
1
40
0.505213
41
2.94906700001399
42
-0.705168385470992
0
ELLIPSE
5
249
100
AcDbEntity
8
1
62
256
6
ByLayer
370
13
48
1
60
0
100
AcDbEllipse
10
108.487788
20
6.676411
30
0
11
-0.201645978398232
21
-0.131849256880541
31
0
210
0
220
0
230
1
40
0.505213
41
0.60142480317997
42
-2.94906700001401
0
ELLIPSE
5
24A
100
AcDbEntity
8
1
62
256
6
ByLayer
370
13
48
1
60
0
100
AcDbEllipse
10
108.015434
20
7.443596
30
0
11
0.0811207321763403
21
-1.5478757788696
31
0
210
0
220
0
230
1
40
0.995725
41
3.14158679875449
42
-1.62293299150809
0
ELLIPSE
5
24B
100
AcDbEntity
8
1
62
256
6
ByLayer
370
13
48
1
60
0
100
AcDbEllipse
10
108.015434
20
7.443596
30
0
11
0.0811207321763403
21
-1.5478757788696
31
0
210
0
220
0
230
1
40
0.995725
41
-1.62293299150808
42
0
0
ELLIPSE
5
24C
100
AcDbEntity
8
1
62
256
6
ByLayer
370
13
48
1
60
0
100
AcDbEllipse
10
107.496958
20
8.208364
30
0
11
-0.201645978398236
21
-0.131849256880541
31
0
210
0
220
0
230
1
40
0.505213
41
2.94403294056812
42
-2.54016254484608
0
ELLIPSE
5
24D
100
AcDbEntity
8
1
62
256
6
ByLayer
370
13
48
1
60
0
100
AcDbEllipse
10
107.579738
20
6.628823
30
0
11
-0.214323340834708
21
0.110049228609668
31
0
210
0
220
0
230
1
40
0.505213
41
2.43642482912281
42
-2.94403294056794
0
ELLIPSE
5
24E
100
AcDbEntity
8
1
62
256
6
ByLayer
370
18
48
1
60
0
100
AcDbEllipse
10
109.297345
20
-2.682623
30
0
11
-1.25
21
1.26329881885295E-15
31
0
210
0
220
0
230
1
40
0.995396
41
-0.524842705873223
42
-0.317104624002762
0
ELLIPSE
5
24F
100
AcDbEntity
8
1
62
256
6
ByLayer
370
18
48
1
60
0
100
AcDbEllipse
10
109.297345
20
-2.610616
30
0
11
-1.25
21
1.26329881885295E-15
31
0
210
0
220
0
230
1
40
0.995396
41
-0.570002979594122
42
-0.271256964722671
0
ELLIPSE
5
250
100
AcDbEntity
8
1
62
256
6
ByLayer
370
13
48
1
60
0
100
AcDbEllipse
10
109.297345
20
-2.257912
30
0
11
-1.1
21
1.1117029605906E-15
31
0
210
0
220
0
230
1
40
0.995396
41
-2.83656328485051
42
-4.05584775807878E-16
0
ELLIPSE
5
251
100
AcDbEntity
8
1
62
256
6
ByLayer
370
13
48
1
60
0
100
AcDbEllipse
10
109.297345
20
-2.229764
30
0
11
-0.75
21
7.57979291311772E-16
31
0
210
0
220
0
230
1
40
0.995396
41
3.14159250971936
42
0
0
ELLIPSE
5
252
100
AcDbEntity
8
1
62
256
6
ByLayer
370
13
48
1
60
0
100
AcDbEllipse
10
109.297345
20
-2.229764
30
0
11
-0.75
21
7.57979291311772E-16
31
0
210
0
220
0
230
1
40
0.995396
41
0
42
1.23778775707586
0
ELLIPSE
5
253
100
AcDbEntity
8
1
62
256
6
ByLayer
370
13
48
1
60
0
100
AcDbEllipse
10
109.297345
20
-2.229764
30
0
11
-0.75
21
7.57979291311772E-16
31
0
210
0
220
0
230
1
40
0.995396
41
2.49138067547486
42
3.14159250971936
0
ELLIPSE
5
254
100
AcDbEntity
8
1
62
256
6
ByLayer
370
13
48
1
60
0
100
AcDbEllipse
10
105.171221
20
4.759247
30
0
11
0.0261679781214001
21
-0.499314767377291
31
0
210
0
220
0
230
1
40
0.092371
41
-0.684395096575201
42
-0.462193096515963
0
ELLIPSE
5
255
100
AcDbEntity
8
1
62
256
6
ByLayer
370
13
48
1
60
0
100
AcDbEllipse
10
103.429032
20
4.96939
30
0
11
0.496557167385183
21
-0.058574563749149
31
0
210
0
220
0
230
1
40
0.015672
41
-2.07611590382594
42
-1.66196507056971
0
ELLIPSE
5
256
100
AcDbEntity
8
1
62
256
6
ByLayer
370
13
48
1
60
0
100
AcDbEllipse
10
103.423652
20
5.243682
30
0
11
0.493878886210539
21
0.0779977291684661
31
0
210
0
220
0
230
1
40
0.009655
41
1.66279490126868
42
2.07294360323006
0
ELLIPSE
5
257
100
AcDbEntity
8
1
62
256
6
ByLayer
370
13
48
1
60
0
100
AcDbEllipse
10
103.210483
20
6.593457
30
0
11
0.493878886210539
21
0.0779977291684661
31
0
210
0
220
0
230
1
40
0.009655
41
1.82323785567456
42
2.07211126091358
0
ELLIPSE
5
258
100
AcDbEntity
8
1
62
256
6
ByLayer
370
13
48
1
60
0
100
AcDbEllipse
10
105.275802
20
4.422238
30
0
11
0.0261679781214001
21
-0.499314767377291
31
0
210
0
220
0
230
1
40
0.092371
41
-0.19083205236513
42
-6.0736397056976E-06
0
ELLIPSE
5
259
100
AcDbEntity
8
1
62
256
6
ByLayer
370
13
48
1
60
0
100
AcDbEllipse
10
85.378902
20
0
30
0
11
-115.772013324495
21
0.0525206299356773
31
0
210
0
220
0
230
1
40
0.092638
41
-1.79088581657469
42
-1.73400488144074
0
ELLIPSE
5
25A
100
AcDbEntity
8
1
62
256
6
ByLayer
370
13
48
1
60
0
100
AcDbEllipse
10
104.269531
20
4.869022
30
0
11
0.0706535409277806
21
-1.34814987191869
31
0
210
0
220
0
230
1
40
0.995725
41
0.0636371330510348
42
0.967857446913116
0
ELLIPSE
5
25B
100
AcDbEntity
8
1
62
256
6
ByLayer
370
13
48
1
60
0
100
AcDbEllipse
10
104.155061
20
11.363203
30
0
11
0.418687649942402
21
-7.98903627803665
31
0
210
0
220
0
230
1
40
0.995725
41
3.26321555375719E-06
42
0.212154760396571
0
ELLIPSE
5
25C
100
AcDbEntity
8
1
62
256
6
ByLayer
370
13
48
1
60
0
100
AcDbEllipse
10
109.160163
20
-2.442883
30
0
11
1.1
21
0
31
0
210
0
220
0
230
1
40
0.995396
41
2.40047088620473
42
2.9665465289992
0
ELLIPSE
5
25D
100
AcDbEntity
8
1
62
256
6
ByLayer
370
13
48
1
60
0
100
AcDbEllipse
10
109.160163
20
-2.16493
30
0
11
1.1
21
0
31
0
210
0
220
0
230
1
40
0.995396
41
0.897415173703812
42
3.14159238794663
0
ELLIPSE
5
25E
100
AcDbEntity
8
1
62
256
6
ByLayer
370
13
48
1
60
0
100
AcDbEllipse
10
109.160163
20
-2.16493
30
0
11
-1.2
21
1.21276686609884E-15
31
0
210
0
220
0
230
1
40
0.995396
41
-2.87161185318039
42
-0.176911000130268
0
ELLIPSE
5
25F
100
AcDbEntity
8
1
62
256
6
ByLayer
370
13
48
1
60
0
100
AcDbEllipse
10
104.223409
20
4.866605
30
0
11
-0.0444855628065008
21
0.848835104541388
31
0
210
0
220
0
230
1
40
0.995725
41
1.40030273980264
42
2.29258939293542
0
POINT
5
70
100
AcDbEntity
8
1
62
256
6
ByLayer
370
18
48
1
60
0
100
AcDbPoint
10
0
20
0
30
0
39
0
210
0
220
0
230
1
50
360
0
POINT
5
72
100
AcDbEntity
8
80
62
256
6
ByLayer
370
18
48
1
60
0
100
AcDbPoint
10
0
20
0
30
0
39
0
210
0
220
0
230
1
50
360
0
POINT
5
74
100
AcDbEntity
8
81
62
256
6
ByLayer
370
18
48
1
60
0
100
AcDbPoint
10
113
20
0
30
0
39
0
210
0
220
0
230
1
50
360
0
POINT
5
76
100
AcDbEntity
8
1
62
256
6
ByLayer
370
18
48
1
60
1
100
AcDbPoint
10
0
20
-16
30
0
39
0
210
0
220
0
230
1
50
360
0
POINT
5
77
100
AcDbEntity
8
1
62
256
6
ByLayer
370
18
48
1
60
1
100
AcDbPoint
10
113
20
-11
30
0
39
0
210
0
220
0
230
1
50
360
0
POINT
5
78
100
AcDbEntity
8
1
62
256
6
ByLayer
370
18
48
1
60
1
100
AcDbPoint
10
-56
20
-12.5
30
0
39
0
210
0
220
0
230
1
50
360
0
POINT
5
79
100
AcDbEntity
8
1
62
256
6
ByLayer
370
18
48
1
60
1
100
AcDbPoint
10
0
20
-16
30
0
39
0
210
0
220
0
230
1
50
360
0
POINT
5
7A
100
AcDbEntity
8
1
62
256
6
ByLayer
370
18
48
1
60
1
100
AcDbPoint
10
113
20
-11
30
0
39
0
210
0
220
0
230
1
50
360
0
POINT
5
7B
100
AcDbEntity
8
1
62
256
6
ByLayer
370
18
48
1
60
1
100
AcDbPoint
10
6.2557
20
-16
30
0
39
0
210
0
220
0
230
1
50
360
0
POINT
5
7C
100
AcDbEntity
8
1
62
256
6
ByLayer
370
18
48
1
60
1
100
AcDbPoint
10
22
20
-11
30
0
39
0
210
0
220
0
230
1
50
360
0
POINT
5
7D
100
AcDbEntity
8
1
62
256
6
ByLayer
370
18
48
1
60
1
100
AcDbPoint
10
113
20
-11
30
0
39
0
210
0
220
0
230
1
50
360
0
POINT
5
7E
100
AcDbEntity
8
1
62
256
6
ByLayer
370
18
48
1
60
1
100
AcDbPoint
10
112.4423
20
-5.5
30
0
39
0
210
0
220
0
230
1
50
360
0
SPLINE
5
260
100
AcDbEntity
8
SK1
62
256
6
ByLayer
370
13
48
1
60
0
100
AcDbSpline
70
4
71
3
72
18
73
14
40
0
40
0
40
0
40
0
40
0.125
40
0.125
40
0.250000000000001
40
0.250000000000001
40
0.375000000000001
40
0.375000000000001
40
0.500000000000001
40
0.500000000000001
40
0.750000000000001
40
0.750000000000001
40
1
40
1
40
1
40
1
41
1
10
-53.6338131992802
20
-6.3403281208584
30
0
41
1
10
-53.6738141958612
20
-6.31392800758456
30
0
41
1
10
-53.7178002036947
20
-6.29177848365677
30
0
41
1
10
-53.8095125775276
20
-6.2624499739369
30
0
41
1
10
-53.8584225384109
20
-6.25510027396828
30
0
41
1
10
-53.954380672524
20
-6.25785951942993
30
0
41
1
10
-54.0027856924058
20
-6.26797384899598
30
0
41
1
10
-54.0930673480267
20
-6.30196986632177
30
0
41
1
10
-54.1359763206845
20
-6.32601182555067
30
0
41
1
10
-54.2531658331207
20
-6.40990335070128
30
0
41
1
10
-54.3191410537013
20
-6.48264182751294
30
0
41
1
10
-54.4307896521674
20
-6.63931052396157
30
0
41
1
10
-54.4773867263329
20
-6.72477868031578
30
0
41
1
10
-54.5162221138916
20
-6.81202898183304
30
0
0
SPLINE
5
261
100
AcDbEntity
8
SK1
62
256
6
ByLayer
370
13
48
1
60
0
100
AcDbSpline
70
4
71
3
72
8
73
4
40
0
40
0
40
0
40
0
40
1
40
1
40
1
40
1
41
1
10
-55
20
-6.99857202024091
30
0
41
1
10
-55.3647894321562
20
-6.34719880823223
30
0
41
1
10
-55.7025751082723
20
-5.68271935719741
30
0
41
1
10
-56
20
-4.99865085022941
30
0
0
SPLINE
5
262
100
AcDbEntity
8
SK1
62
256
6
ByLayer
370
13
48
1
60
0
100
AcDbSpline
70
4
71
3
72
71
73
67
40
0
40
0
40
0
40
0
40
0.0312500000000003
40
0.0312500000000003
40
0.0468750000000004
40
0.0468750000000004
40
0.0625000000000005
40
0.0625000000000005
40
0.0781250000000005
40
0.0781250000000005
40
0.0937500000000006
40
0.0937500000000006
40
0.125000000000001
40
0.125000000000001
40
0.140625000000001
40
0.140625000000001
40
0.156250000000001
40
0.156250000000001
40
0.187500000000001
40
0.187500000000001
40
0.218750000000001
40
0.218750000000001
40
0.250000000000001
40
0.250000000000001
40
0.312500000000001
40
0.312500000000001
40
0.375000000000002
40
0.375000000000002
40
0.406250000000002
40
0.406250000000002
40
0.437500000000002
40
0.437500000000002
40
0.500000000000002
40
0.562500000000002
40
0.562500000000002
40
0.593750000000002
40
0.593750000000002
40
0.625000000000002
40
0.625000000000002
40
0.687500000000002
40
0.687500000000002
40
0.750000000000002
40
0.750000000000002
40
0.781250000000002
40
0.781250000000002
40
0.812500000000001
40
0.812500000000001
40
0.843750000000001
40
0.843750000000001
40
0.859375000000001
40
0.859375000000001
40
0.875000000000001
40
0.875000000000001
40
0.906250000000001
40
0.906250000000001
40
0.921875000000001
40
0.921875000000001
40
0.937500000000001
40
0.937500000000001
40
0.953125
40
0.953125
40
0.96875
40
0.96875
40
0.984375
40
0.984375
40
1
40
1
40
1
40
1
41
1
10
-6.50000000009538
20
6.998572020241
30
0
41
1
10
-6.31571533004515
20
6.99857202024967
30
0
41
1
10
-6.13743573179397
20
6.97387109270571
30
0
41
1
10
-5.87807007883168
20
6.90321966844968
30
0
41
1
10
-5.79249754001009
20
6.87371201184882
30
0
41
1
10
-5.6293361169906
20
6.80569256211214
30
0
41
1
10
-5.55109427743696
20
6.76707109549224
30
0
41
1
10
-5.40055384552451
20
6.68141826816264
30
0
41
1
10
-5.32815416062539
20
6.63430399969613
30
0
41
1
10
-5.18925210594989
20
6.53244521628065
30
0
41
1
10
-5.12377844902809
20
6.47848470758717
30
0
41
1
10
-4.93748624451072
20
6.3085827822143
30
0
41
1
10
-4.8267115899061
20
6.1846770027818
30
0
41
1
10
-4.6761911608582
20
5.98533103669445
30
0
41
1
10
-4.62855056556253
20
5.91642308507087
30
0
41
1
10
-4.53922153852642
20
5.77634068999626
30
0
41
1
10
-4.49736020419419
20
5.70496414000004
30
0
41
1
10
-4.37902027112833
20
5.48717552116739
30
0
41
1
10
-4.30973548429904
20
5.33712034908373
30
0
41
1
10
-4.18597550641348
20
5.02855833309758
30
0
41
1
10
-4.13152858900258
20
4.87004242457732
30
0
41
1
10
-4.03445407647325
20
4.54538526361949
30
0
41
1
10
-3.99218870828807
20
4.38036541349672
30
0
41
1
10
-3.8806630298719
20
3.8815043831257
30
0
41
1
10
-3.82597090267365
20
3.54235643247728
30
0
41
1
10
-3.74047959020675
20
2.85273429591121
30
0
41
1
10
-3.70981920131712
20
2.50224542423098
30
0
41
1
10
-3.67535340381019
20
1.96866904162033
30
0
41
1
10
-3.66582822790039
20
1.78937635765021
30
0
41
1
10
-3.65011537208733
20
1.4316899722499
30
0
41
1
10
-3.64389707389739
20
1.25286356942047
30
0
41
1
10
-3.62929622079273
20
0.716432949039586
30
0
41
1
10
-3.62042488526302
20
0.0013212454733491
30
0
41
1
10
-3.62924953065914
20
-0.713539660438329
30
0
41
1
10
-3.64379211765163
20
-1.24958871665936
30
0
41
1
10
-3.64998697783565
20
-1.42825557634492
30
0
41
1
10
-3.66563837164477
20
-1.78555583380015
30
0
41
1
10
-3.67511786137808
20
-1.96455406997464
30
0
41
1
10
-3.70953832715443
20
-2.49881887149942
30
0
41
1
10
-3.74017720125841
20
-2.84981522124173
30
0
41
1
10
-3.82568979373829
20
-3.54056541591115
30
0
41
1
10
-3.88042216361382
20
-3.88033387025806
30
0
41
1
10
-3.99214803643076
20
-4.3802299370825
30
0
41
1
10
-4.03457139272209
20
-4.54577117988887
30
0
41
1
10
-4.13137165046336
20
-4.86952399241147
30
0
41
1
10
-4.18572933619737
20
-5.02789660502796
30
0
41
1
10
-4.30959364920602
20
-5.33681454089182
30
0
41
1
10
-4.37906730976638
20
-5.48736926922894
30
0
41
1
10
-4.49817195127201
20
-5.70640389482426
30
0
41
1
10
-4.54042880204571
20
-5.77832989383157
30
0
41
1
10
-4.62961647910464
20
-5.917996111653
30
0
41
1
10
-4.67665158712001
20
-5.98594616406356
30
0
41
1
10
-4.82600204453692
20
-6.18372658725997
30
0
41
1
10
-4.9364153318723
20
-6.30756945151506
30
0
41
1
10
-5.12387444002081
20
-6.47859050811525
30
0
41
1
10
-5.18982034314945
20
-6.53284983481481
30
0
41
1
10
-5.32716069139138
20
-6.63358751533818
30
0
41
1
10
-5.39883736540122
20
-6.68033932325883
30
0
41
1
10
-5.54894893429449
20
-6.76595018463183
30
0
41
1
10
-5.62776164553696
20
-6.80497288448146
30
0
41
1
10
-5.79153203652811
20
-6.87337183942776
30
0
41
1
10
-5.87542610285047
20
-6.90235315140345
30
0
41
1
10
-6.04744974985599
20
-6.94949997275469
30
0
41
1
10
-6.13557688289623
20
-6.9676718536326
30
0
41
1
10
-6.31646604914351
20
-6.99230795215647
30
0
41
1
10
-6.40810473763941
20
-6.99857202024529
30
0
41
1
10
-6.50000000009538
20
-6.99857202024097
30
0
0
SPLINE
5
263
100
AcDbEntity
8
SK1
62
256
6
ByLayer
370
13
48
1
60
0
100
AcDbSpline
70
4
71
3
72
8
73
4
40
0
40
0
40
0
40
0
40
1
40
1
40
1
40
1
41
1
10
-53.6338131992802
20
6.34032812085854
30
0
41
1
10
-53.2931973263098
20
6.56512996075952
30
0
41
1
10
-52.9482491695224
20
6.7841493260708
30
0
41
1
10
-52.5998571439059
20
6.99857202024131
30
0
0
SPLINE
5
264
100
AcDbEntity
8
SK1
62
256
6
ByLayer
370
13
48
1
60
0
100
AcDbSpline
70
4
71
3
72
18
73
14
40
0
40
0
40
0
40
0
40
0.250000000000001
40
0.250000000000001
40
0.500000000000001
40
0.500000000000001
40
0.625000000000001
40
0.625000000000001
40
0.750000000000001
40
0.750000000000001
40
0.875
40
0.875
40
1
40
1
40
1
40
1
41
1
10
-54.5162221138916
20
6.81202898183318
30
0
41
1
10
-54.4772970244431
20
6.72457714976824
30
0
41
1
10
-54.4307065013895
20
6.63918003305162
30
0
41
1
10
-54.3191104436761
20
6.48261269990277
30
0
41
1
10
-54.2534817600869
20
6.41019877906004
30
0
41
1
10
-54.136283787001
20
6.32619750079633
30
0
41
1
10
-54.0935094971742
20
6.30217611468402
30
0
41
1
10
-54.0030350925562
20
6.26802830974705
30
0
41
1
10
-53.954986307026
20
6.25793437821719
30
0
41
1
10
-53.8587999994146
20
6.25505426790869
30
0
41
1
10
-53.8097812214382
20
6.26239551321621
30
0
41
1
10
-53.7180788416409
20
6.29165811737894
30
0
41
1
10
-53.6739760596325
20
6.31382117969852
30
0
41
1
10
-53.63381319928
20
6.34032812085832
30
0
0
SPLINE
5
265
100
AcDbEntity
8
SK1
62
256
6
ByLayer
370
13
48
1
60
0
100
AcDbSpline
70
4
71
3
72
8
73
4
40
0
40
0
40
0
40
0
40
1
40
1
40
1
40
1
41
1
10
-54.6000398733642
20
6.99857202024106
30
0
41
1
10
-54.571876118047
20
6.93646953235279
30
0
41
1
10
-54.5439344142792
20
6.87428937670879
30
0
41
1
10
-54.5162221138915
20
6.81202898183318
30
0
0
SPLINE
5
266
100
AcDbEntity
8
1
62
256
6
ByLayer
370
13
48
1
60
0
100
AcDbSpline
70
4
71
3
72
8
73
4
40
0
40
0
40
0
40
0
40
1
40
1
40
1
40
1
41
1
10
112.055351763602
20
4.41727476228991
30
0
41
1
10
112.004415209748
20
4.41609393274575
30
0
41
1
10
111.95624854955
20
4.41669927781342
30
0
41
1
10
111.908168788088
20
4.41725629806419
30
0
0
SPLINE
5
267
100
AcDbEntity
8
1
62
256
6
ByLayer
370
13
48
1
60
0
100
AcDbSpline
70
4
71
2
72
6
73
3
40
0
40
0
40
0
40
1
40
1
40
1
41
1
10
112.949955871483
20
7.78268389611199
30
0
41
0.997409491337352
10
112.94947781983
20
7.81874022966825
30
0
41
1
10
112.943852926428
20
7.85435685746322
30
0
0
SPLINE
5
268
100
AcDbEntity
8
1
62
256
6
ByLayer
370
13
48
1
60
0
100
AcDbSpline
70
4
71
3
72
22
73
18
40
0
40
0
40
0
40
0
40
0.124999999999988
40
0.124999999999988
40
0.249999999999976
40
0.249999999999976
40
0.374999999999964
40
0.374999999999964
40
0.499999999999952
40
0.499999999999952
40
0.749999999999928
40
0.749999999999928
40
0.812499999999958
40
0.812499999999958
40
0.874999999999988
40
0.874999999999988
40
1
40
1
40
1
40
1
41
1
10
112.509841711292
20
10.6025006536888
30
0
41
1
10
112.505008263151
20
10.6379225666109
30
0
41
1
10
112.496249639558
20
10.6719674481966
30
0
41
1
10
112.471102293055
20
10.7373804174298
30
0
41
1
10
112.454751738492
20
10.7692389150158
30
0
41
1
10
112.415711815732
20
10.8282352958995
30
0
41
1
10
112.393314356214
20
10.855283557814
30
0
41
1
10
112.343006917792
20
10.9046866716544
30
0
41
1
10
112.314846720745
20
10.9268876646295
30
0
41
1
10
112.225997062092
20
10.9832560764021
30
0
41
1
10
112.158136385117
20
11.008333140186
30
0
41
1
10
112.071545458334
20
11.0214529296476
30
0
41
1
10
112.054075858739
20
11.0232144178032
30
0
41
1
10
112.01878554191
20
11.0247373950215
30
0
41
1
10
112.001020602096
20
11.0247186233055
30
0
41
1
10
111.947845528032
20
11.0253266599498
30
0
41
1
10
111.912395648102
20
11.0255860952623
30
0
41
1
10
111.876946054949
20
11.0255985673141
30
0
0
SPLINE
5
269
100
AcDbEntity
8
1
62
256
6
ByLayer
370
13
48
1
60
0
100
AcDbSpline
70
4
71
2
72
6
73
3
40
0
40
0
40
0
40
1
40
1
40
1
41
0.999375529729839
10
103.09281127189
20
7.27668977527195
30
0
41
0.999636859374511
10
103.093152116995
20
7.27192242802825
30
0
41
1
10
103.093588650013
20
7.26716291285365
30
0
0
SPLINE
5
26A
100
AcDbEntity
8
1
62
256
6
ByLayer
370
13
48
1
60
0
100
AcDbSpline
70
4
71
3
72
11
73
7
40
0
40
0
40
0
40
0
40
0.25
40
0.5
40
0.75
40
1
40
1
40
1
40
1
41
1
10
104.43677620551
20
3.86980391966895
30
0
41
1
10
104.450082116678
20
3.87002367769773
30
0
41
1
10
104.476689697665
20
3.87072955066802
30
0
41
1
10
104.516570722888
20
3.87257895949975
30
0
41
1
10
104.556456564455
20
3.87429698313966
30
0
41
1
10
104.58304659027
20
3.87545693058408
30
0
41
1
10
104.596341603299
20
3.87603690431155
30
0
0
SPLINE
5
26B
100
AcDbEntity
8
1
62
256
6
ByLayer
370
13
48
1
60
0
100
AcDbSpline
70
4
71
1
72
4
73
2
40
0
40
0
40
1
40
1
41
1
10
103.220509020883
20
7.03983161448289
30
0
41
1
10
103.111218407419
20
7.03676357149843
30
0
0
SPLINE
5
26C
100
AcDbEntity
8
1
62
256
6
ByLayer
370
13
48
1
60
0
100
AcDbSpline
70
4
71
3
72
18
73
14
40
0
40
0
40
0
40
0
40
0.499999999999978
40
0.499999999999978
40
0.749999999999967
40
0.749999999999967
40
0.781249999999975
40
0.781249999999975
40
0.812499999999983
40
0.812499999999983
40
0.874999999999984
40
0.874999999999984
40
1
40
1
40
1
40
1
41
1
10
107.948462605455
20
9.99859269727096
30
0
41
1
10
107.474760147625
20
9.97376700341519
30
0
41
1
10
107.001056311765
20
9.94896859741638
30
0
41
1
10
106.290502770013
20
9.91172561449125
30
0
41
1
10
106.053655001127
20
9.89923854385029
30
0
41
1
10
105.787195810625
20
9.88530680310055
30
0
41
1
10
105.757589115857
20
9.88376134881869
30
0
41
1
10
105.698375414556
20
9.88067708763398
30
0
41
1
10
105.668782403514
20
9.87883987392388
30
0
41
1
10
105.579898824302
20
9.87555732644628
30
0
41
1
10
105.520380231774
20
9.87679824565254
30
0
41
1
10
105.34228423322
20
9.89133909519833
30
0
41
1
10
105.22410376906
20
9.91472089482008
30
0
41
1
10
105.106554166103
20
9.95379724338463
30
0
0
SPLINE
5
26D
100
AcDbEntity
8
1
62
256
6
ByLayer
370
13
48
1
60
0
100
AcDbSpline
70
4
71
2
72
6
73
3
40
0
40
0
40
0
40
1
40
1
40
1
41
1
10
103.214406075828
20
7.11150457583412
30
0
41
0.997409491337352
10
103.213928024175
20
7.14756090938894
30
0
41
1
10
103.218606708615
20
7.18331068260744
30
0
0
SPLINE
5
26E
100
AcDbEntity
8
1
62
256
6
ByLayer
370
13
48
1
60
0
100
AcDbSpline
70
4
71
3
72
8
73
4
40
0
40
0
40
0
40
0
40
1
40
1
40
1
40
1
41
1
10
103.102331444751
20
7.0950340556202
30
0
41
1
10
103.104269425683
20
7.07866191900658
30
0
41
1
10
103.106913752541
20
7.05979281106923
30
0
41
1
10
103.111218407419
20
7.03676357149843
30
0
0
SPLINE
5
26F
100
AcDbEntity
8
1
62
256
6
ByLayer
370
13
48
1
60
0
100
AcDbSpline
70
4
71
2
72
6
73
3
40
0
40
0
40
0
40
1
40
1
40
1
41
1
10
112.949955871483
20
7.78268389611199
30
0
41
0.997409491337352
10
112.950433923136
20
7.74662756255721
30
0
41
1
10
112.945755238696
20
7.71087778933867
30
0
0
SPLINE
5
270
100
AcDbEntity
8
1
62
256
6
ByLayer
370
13
48
1
60
0
100
AcDbSpline
70
4
71
3
72
8
73
4
40
0
40
0
40
0
40
0
40
1
40
1
40
1
40
1
41
1
10
111.876946054949
20
11.0255985673141
30
0
41
1
10
111.82715879365
20
11.0256160837155
30
0
41
1
10
111.777372047079
20
11.0251903327135
30
0
41
1
10
111.727585741801
20
11.0243845522772
30
0
0
SPLINE
5
271
100
AcDbEntity
8
1
62
256
6
ByLayer
370
13
48
1
60
0
100
AcDbSpline
70
4
71
2
72
6
73
3
40
0
40
0
40
0
40
1
40
1
40
1
41
1
10
103.10608940186
20
7.17263595302271
30
0
41
0.997409491337352
10
103.101655717642
20
7.13875822364233
30
0
41
1
10
103.102108736027
20
7.10458998701876
30
0
0
SPLINE
5
272
100
AcDbEntity
8
1
62
256
6
ByLayer
370
13
48
1
60
0
100
AcDbSpline
70
4
71
3
72
10
73
6
40
0
40
0
40
0
40
0
40
0.5
40
0.5
40
1
40
1
40
1
40
1
41
1
10
111.908168788088
20
4.41725629806419
30
0
41
1
10
111.881604792223
20
4.41628553107097
30
0
41
1
10
111.857484788206
20
4.41679208717133
30
0
41
1
10
111.809122929624
20
4.41766229088356
30
0
41
1
10
111.784783621111
20
4.41801361850037
30
0
41
1
10
111.760529482699
20
4.4184100054166
30
0
0
SPLINE
5
273
100
AcDbEntity
8
1
62
256
6
ByLayer
370
13
48
1
60
0
100
AcDbSpline
70
4
71
3
72
22
73
18
40
0
40
0
40
0
40
0
40
0.124999999999994
40
0.124999999999994
40
0.187499999999998
40
0.187499999999998
40
0.250000000000001
40
0.250000000000001
40
0.281250000000003
40
0.281250000000003
40
0.312500000000004
40
0.312500000000004
40
0.375000000000007
40
0.375000000000007
40
0.500000000000001
40
0.500000000000001
40
1
40
1
40
1
40
1
41
1
10
111.056856869255
20
10.2866407124981
30
0
41
1
10
110.945644922225
20
10.2125837437914
30
0
41
1
10
110.827597593188
20
10.1536669750254
30
0
41
1
10
110.640574678402
20
10.087335078139
30
0
41
1
10
110.576091874231
20
10.0688521530897
30
0
41
1
10
110.446856432131
20
10.040314251895
30
0
41
1
10
110.38194609429
20
10.0301691291577
30
0
41
1
10
110.284159678154
20
10.0208832912525
30
0
41
1
10
110.251467946029
20
10.0191445984846
30
0
41
1
10
110.186081512004
20
10.0157090657857
30
0
41
1
10
110.153386387129
20
10.0140181868003
30
0
41
1
10
110.05530518723
20
10.0088867157327
30
0
41
1
10
109.989918901574
20
10.0054490920715
30
0
41
1
10
109.793758790233
20
9.99515389887685
30
0
41
1
10
109.662984543024
20
9.9883022698555
30
0
41
1
10
109.009113059096
20
9.95404761813015
30
0
41
1
10
108.486017035668
20
9.92662749660241
30
0
41
1
10
107.962920600756
20
9.89921317409778
30
0
0
SPLINE
5
274
100
AcDbEntity
8
1
62
256
6
ByLayer
370
13
48
1
60
0
100
AcDbSpline
70
4
71
3
72
11
73
7
40
0
40
0
40
0
40
0
40
0.25
40
0.5
40
0.75
40
1
40
1
40
1
40
1
41
1
10
103.806085464529
20
10.6092363141554
30
0
41
1
10
103.819341455492
20
10.6104086064308
30
0
41
1
10
103.845877061184
20
10.6124878498584
30
0
41
1
10
103.885732929841
20
10.6148172745619
30
0
41
1
10
103.925579854966
20
10.6172778681604
30
0
41
1
10
103.952145465361
20
10.6189036895661
30
0
41
1
10
103.965428270679
20
10.6197166002764
30
0
0
SPLINE
5
275
100
AcDbEntity
8
1
62
256
6
ByLayer
370
13
48
1
60
0
100
AcDbSpline
70
4
71
3
72
22
73
18
40
0
40
0
40
0
40
0
40
0.125
40
0.125
40
0.25
40
0.25
40
0.375
40
0.375
40
0.5
40
0.5
40
0.625
40
0.625
40
0.6875
40
0.6875
40
0.75
40
0.75
40
1
40
1
40
1
40
1
41
1
10
103.654520236019
20
4.29168781825726
30
0
41
1
10
103.660202227556
20
4.25004735711821
30
0
41
1
10
103.671349867572
20
4.21032435656693
30
0
41
1
10
103.703952731358
20
4.13449446536768
30
0
41
1
10
103.725438865584
20
4.09794493389771
30
0
41
1
10
103.776114334192
20
4.0326626492427
30
0
41
1
10
103.80549290514
20
4.0029370696362
30
0
41
1
10
103.871079370148
20
3.95168115596147
30
0
41
1
10
103.906393690534
20
3.93046528667253
30
0
41
1
10
103.982057202986
20
3.89684494052449
30
0
41
1
10
104.022289180311
20
3.88463415629337
30
0
41
1
10
104.083095531227
20
3.87384712391227
30
0
41
1
10
104.103575957612
20
3.87145698343804
30
0
41
1
10
104.144999792108
20
3.86931388993054
30
0
41
1
10
104.165902221221
20
3.86945054038606
30
0
41
1
10
104.27008613271
20
3.86820010970578
30
0
41
1
10
104.353431804299
20
3.86845500880673
30
0
41
1
10
104.43677620551
20
3.86980391966895
30
0
0
SPLINE
5
276
100
AcDbEntity
8
1
62
256
6
ByLayer
370
13
48
1
60
0
100
AcDbSpline
70
4
71
1
72
4
73
2
40
0
40
0
40
1
40
1
41
1
10
104.100828184211
20
10.4598986850805
30
0
41
1
10
103.965428270679
20
10.6197166002764
30
0
0
SPLINE
5
277
100
AcDbEntity
8
1
62
256
6
ByLayer
370
13
48
1
60
0
100
AcDbSpline
70
4
71
2
72
6
73
3
40
0
40
0
40
0
40
1
40
1
40
1
41
1
10
103.104660249599
20
7.19990580265352
30
0
41
0.997409491337352
10
103.096709666577
20
7.23313450008981
30
0
41
1
10
103.093588650013
20
7.26716291285365
30
0
0
SPLINE
5
278
100
AcDbEntity
8
1
62
256
6
ByLayer
370
13
48
1
60
0
100
AcDbSpline
70
4
71
1
72
4
73
2
40
0
40
0
40
1
40
1
41
1
10
103.102108736027
20
7.10458998701876
30
0
41
1
10
103.214406075828
20
7.11150457583412
30
0
0
SPLINE
5
279
100
AcDbEntity
8
1
62
256
6
ByLayer
370
13
48
1
60
0
100
AcDbSpline
70
4
71
3
72
18
73
14
40
0
40
0
40
0
40
0
40
0.499999999999986
40
0.499999999999986
40
0.749999999999978
40
0.749999999999978
40
0.781249999999985
40
0.781249999999985
40
0.812499999999991
40
0.812499999999991
40
0.874999999999989
40
0.874999999999989
40
1
40
1
40
1
40
1
41
1
10
108.215899341856
20
4.89559577467514
30
0
41
1
10
108.689601799686
20
4.92042146853092
30
0
41
1
10
109.163305635546
20
4.94521987452973
30
0
41
1
10
109.873859177298
20
4.98246285745486
30
0
41
1
10
110.110706946183
20
4.99494992809582
30
0
41
1
10
110.377166136686
20
5.00888166884556
30
0
41
1
10
110.406772831453
20
5.01042712312741
30
0
41
1
10
110.465986532755
20
5.01351138431212
30
0
41
1
10
110.495579543797
20
5.01534859802223
30
0
41
1
10
110.584463123009
20
5.01863114549985
30
0
41
1
10
110.643981715537
20
5.01739022629357
30
0
41
1
10
110.822077714091
20
5.0028493767478
30
0
41
1
10
110.940258178251
20
4.979467577126
30
0
41
1
10
111.057807781208
20
4.94039122856148
30
0
0
SPLINE
5
27A
100
AcDbEntity
8
1
62
256
6
ByLayer
370
13
48
1
60
0
100
AcDbSpline
70
4
71
3
72
22
73
18
40
0
40
0
40
0
40
0
40
0.124999999999998
40
0.124999999999998
40
0.187499999999998
40
0.187499999999998
40
0.249999999999997
40
0.249999999999997
40
0.281250000000003
40
0.281250000000003
40
0.312500000000009
40
0.312500000000009
40
0.375000000000008
40
0.375000000000008
40
0.500000000000007
40
0.500000000000007
40
1
40
1
40
1
40
1
41
1
10
105.171782400505
20
4.52468175339348
30
0
41
1
10
105.280193206861
20
4.59687341902057
30
0
41
1
10
105.396257962629
20
4.65424034052742
30
0
41
1
10
105.581992483465
20
4.71775055719363
30
0
41
1
10
105.645454111599
20
4.73492343991009
30
0
41
1
10
105.772269658247
20
4.76065085533307
30
0
41
1
10
105.836072051527
20
4.76942334320657
30
0
41
1
10
105.932386919712
20
4.7762446515373
30
0
41
1
10
105.96457821144
20
4.77762333651435
30
0
41
1
10
106.028903831481
20
4.78097127432474
30
0
41
1
10
106.061065821436
20
4.78265374524682
30
0
41
1
10
106.15755085945
20
4.78771081897338
30
0
41
1
10
106.221873364872
20
4.79109104756822
30
0
41
1
10
106.414842396765
20
4.80121602009211
30
0
41
1
10
106.543489444414
20
4.80795544083259
30
0
41
1
10
107.186724575654
20
4.84165266525355
30
0
41
1
10
107.701311792944
20
4.86862738398995
30
0
41
1
10
108.215899341856
20
4.89559577467514
30
0
0
SPLINE
5
27B
100
AcDbEntity
8
1
62
256
6
ByLayer
370
13
48
1
60
0
100
AcDbSpline
70
4
71
2
72
6
73
3
40
0
40
0
40
0
40
1
40
1
40
1
41
0.999375529729839
10
103.102331444751
20
7.09503405560906
30
0
41
0.999636859374511
10
103.10217209919
20
7.09981091484081
30
0
41
1
10
103.102108736027
20
7.10458998701876
30
0
0
SPLINE
5
27C
100
AcDbEntity
8
1
62
256
6
ByLayer
370
13
48
1
60
0
100
AcDbSpline
70
4
71
3
72
22
73
18
40
0
40
0
40
0
40
0
40
0.124999999999983
40
0.124999999999983
40
0.187499999999968
40
0.187499999999968
40
0.249999999999954
40
0.249999999999954
40
0.281249999999953
40
0.281249999999953
40
0.312499999999952
40
0.312499999999952
40
0.37499999999995
40
0.37499999999995
40
0.49999999999996
40
0.49999999999996
40
1
40
1
40
1
40
1
41
1
10
105.12595387741
20
4.60851462005257
30
0
41
1
10
105.237165824439
20
4.68257158875923
30
0
41
1
10
105.355213153476
20
4.74148835752533
30
0
41
1
10
105.542236068262
20
4.80782025441172
30
0
41
1
10
105.606718872433
20
4.82630317946101
30
0
41
1
10
105.735954314533
20
4.85484108065572
30
0
41
1
10
105.800864652374
20
4.86498620339299
30
0
41
1
10
105.89865106851
20
4.87427204129816
30
0
41
1
10
105.931342800635
20
4.87601073406603
30
0
41
1
10
105.996729234661
20
4.87944626676497
30
0
41
1
10
106.029424359535
20
4.88113714575039
30
0
41
1
10
106.127505559434
20
4.88626861681794
30
0
41
1
10
106.19289184509
20
4.88970624047914
30
0
41
1
10
106.389051956431
20
4.90000143367382
30
0
41
1
10
106.51982620364
20
4.90685306269518
30
0
41
1
10
107.173697687568
20
4.9411077144205
30
0
41
1
10
107.696793710996
20
4.96852783594824
30
0
41
1
10
108.219890145908
20
4.99594215845286
30
0
0
SPLINE
5
27D
100
AcDbEntity
8
1
62
256
6
ByLayer
370
13
48
1
60
0
100
AcDbSpline
70
4
71
1
72
4
73
2
40
0
40
0
40
1
40
1
41
1
10
103.806085464529
20
10.6092363141554
30
0
41
1
10
103.936792225741
20
10.4601930802573
30
0
0
SPLINE
5
27E
100
AcDbEntity
8
1
62
256
6
ByLayer
370
13
48
1
60
0
100
AcDbSpline
70
4
71
1
72
4
73
2
40
0
40
0
40
1
40
1
41
1
10
111.760529482699
20
4.4184100054166
30
0
41
1
10
111.645469696031
20
4.24546605353328
30
0
0
SPLINE
5
27F
100
AcDbEntity
8
1
62
256
6
ByLayer
370
13
48
1
60
0
100
AcDbSpline
70
4
71
1
72
4
73
2
40
0
40
0
40
1
40
1
41
1
10
103.218606708615
20
7.18331068260744
30
0
41
1
10
103.10608940186
20
7.17263595302271
30
0
0
SPLINE
5
280
100
AcDbEntity
8
1
62
256
6
ByLayer
370
13
48
1
60
0
100
AcDbSpline
70
4
71
1
72
4
73
2
40
0
40
0
40
1
40
1
41
1
10
111.804812502181
20
4.25594633965429
30
0
41
1
10
111.908168788088
20
4.41725629806419
30
0
0
SPLINE
5
281
100
AcDbEntity
8
1
62
256
6
ByLayer
370
13
48
1
60
0
100
AcDbSpline
70
4
71
3
72
10
73
6
40
0
40
0
40
0
40
0
40
0.5
40
0.5
40
1
40
1
40
1
40
1
41
1
10
105.00284334958
20
4.37133015698257
30
0
41
1
10
104.999163134238
20
4.37113728506921
30
0
41
1
10
104.982469213195
20
4.38139409250689
30
0
41
1
10
104.933032660546
20
4.41580020043565
30
0
41
1
10
104.900288556755
20
4.43985461433331
30
0
41
1
10
104.868916645535
20
4.46355583950458
30
0
0
SPLINE
5
282
100
AcDbEntity
8
1
62
256
6
ByLayer
370
13
48
1
60
0
100
AcDbSpline
70
4
71
3
72
8
73
4
40
0
40
0
40
0
40
0
40
1
40
1
40
1
40
1
41
1
10
103.092811271891
20
7.27668977526073
30
0
41
1
10
103.089604263103
20
7.29299540494259
30
0
41
1
10
103.087144496065
20
7.31187418525036
30
0
41
1
10
103.087384935857
20
7.33514162313941
30
0
0
SPLINE
5
283
100
AcDbEntity
8
1
62
256
6
ByLayer
370
13
48
1
60
0
100
AcDbSpline
70
4
71
3
72
24
73
20
40
0
40
0
40
0
40
0
40
0.249999999999963
40
0.249999999999963
40
0.374999999999945
40
0.374999999999945
40
0.499999999999926
40
0.499999999999926
40
0.624999999999907
40
0.624999999999907
40
0.749999999999889
40
0.749999999999889
40
0.812499999999879
40
0.812499999999879
40
0.843749999999874
40
0.843749999999874
40
0.87499999999987
40
0.87499999999987
40
1
40
1
40
1
40
1
41
1
10
112.458537903448
20
4.50955717852858
30
0
41
1
10
112.436843885736
20
4.49728228798892
30
0
41
1
10
112.412562315647
20
4.48480726495373
30
0
41
1
10
112.370435122034
20
4.46657718861044
30
0
41
1
10
112.355449060021
20
4.46059533179027
30
0
41
1
10
112.322549040133
20
4.44892586253687
30
0
41
1
10
112.304942633634
20
4.44335042678742
30
0
41
1
10
112.26620603301
20
4.4333830701311
30
0
41
1
10
112.245419016217
20
4.4291314814472
30
0
41
1
10
112.205010690738
20
4.42371547865804
30
0
41
1
10
112.185656777184
20
4.42263224634758
30
0
41
1
10
112.158174581581
20
4.4217774411438
30
0
41
1
10
112.149527393752
20
4.42184468333755
30
0
41
1
10
112.13515527194
20
4.42099422793424
30
0
41
1
10
112.130072556279
20
4.42051337539141
30
0
41
1
10
112.120105739031
20
4.41968590125617
30
0
41
1
10
112.115338021565
20
4.41941762243948
30
0
41
1
10
112.091838340279
20
4.41830478052105
30
0
41
1
10
112.073453641204
20
4.41769440653866
30
0
41
1
10
112.055351763602
20
4.41727476228991
30
0
0
SPLINE
5
284
100
AcDbEntity
8
1
62
256
6
ByLayer
370
13
48
1
60
0
100
AcDbSpline
70
4
71
3
72
18
73
14
40
0
40
0
40
0
40
0
40
0.499999999999957
40
0.499999999999957
40
0.749999999999943
40
0.749999999999943
40
0.781249999999945
40
0.781249999999945
40
0.812499999999947
40
0.812499999999947
40
0.874999999999964
40
0.874999999999964
40
1
40
1
40
1
40
1
41
1
10
108.219890145908
20
4.99594215845289
30
0
41
1
10
108.701562992577
20
5.02118556268772
30
0
41
1
10
109.183237373996
20
5.04639914489644
30
0
41
1
10
109.905746253345
20
5.0842728185703
30
0
41
1
10
110.146578373636
20
5.09697953414798
30
0
41
1
10
110.417522060864
20
5.11112590174031
30
0
41
1
10
110.44762828447
20
5.11267075724172
30
0
41
1
10
110.507835491154
20
5.11586364760373
30
0
41
1
10
110.537942902019
20
5.11738512747306
30
0
41
1
10
110.628429990548
20
5.11870376115283
30
0
41
1
10
110.688541447575
20
5.11609893893112
30
0
41
1
10
110.866840674189
20
5.09848114020039
30
0
41
1
10
110.983649039754
20
5.07391398269903
30
0
41
1
10
111.098284317926
20
5.03580642661214
30
0
0
SPLINE
5
285
100
AcDbEntity
8
1
62
256
6
ByLayer
370
13
48
1
60
0
100
AcDbSpline
70
4
71
3
72
22
73
18
40
0
40
0
40
0
40
0
40
0.125000000000009
40
0.125000000000009
40
0.187500000000007
40
0.187500000000007
40
0.250000000000005
40
0.250000000000005
40
0.281250000000011
40
0.281250000000011
40
0.312500000000017
40
0.312500000000017
40
0.375000000000015
40
0.375000000000015
40
0.500000000000012
40
0.500000000000012
40
1
40
1
40
1
40
1
41
1
10
110.992579546805
20
10.3695067185526
30
0
41
1
10
110.88416874045
20
10.2973150529255
30
0
41
1
10
110.768103984682
20
10.2399481314187
30
0
41
1
10
110.582369463845
20
10.1764379147525
30
0
41
1
10
110.518907835712
20
10.159265032036
30
0
41
1
10
110.392092289064
20
10.133537616613
30
0
41
1
10
110.328289895784
20
10.1247651287396
30
0
41
1
10
110.231975027599
20
10.1179438204088
30
0
41
1
10
110.19978373587
20
10.1165651354318
30
0
41
1
10
110.13545811583
20
10.1132171976214
30
0
41
1
10
110.103296125875
20
10.1115347266993
30
0
41
1
10
110.006811087861
20
10.1064776529727
30
0
41
1
10
109.942488582439
20
10.1030974243779
30
0
41
1
10
109.749519550545
20
10.092972451854
30
0
41
1
10
109.620872502896
20
10.0862330311135
30
0
41
1
10
108.977637371657
20
10.0525358066926
30
0
41
1
10
108.463050154367
20
10.0255610879562
30
0
41
1
10
107.948462605455
20
9.99859269727096
30
0
0
SPLINE
5
286
100
AcDbEntity
8
1
62
256
6
ByLayer
370
13
48
1
60
0
100
AcDbSpline
70
4
71
3
72
18
73
14
40
0
40
0
40
0
40
0
40
0.499999999999943
40
0.499999999999943
40
0.749999999999922
40
0.749999999999922
40
0.781249999999925
40
0.781249999999925
40
0.812499999999927
40
0.812499999999927
40
0.874999999999947
40
0.874999999999947
40
1
40
1
40
1
40
1
41
1
10
107.962920600755
20
9.89921317409778
30
0
41
1
10
107.481247754087
20
9.87396976986292
30
0
41
1
10
106.999573372668
20
9.84875618765423
30
0
41
1
10
106.277064493319
20
9.81088251398035
30
0
41
1
10
106.036232373028
20
9.7981757984027
30
0
41
1
10
105.7652886858
20
9.78402943081034
30
0
41
1
10
105.735182462194
20
9.78248457530896
30
0
41
1
10
105.674975255509
20
9.77929168494694
30
0
41
1
10
105.644867844645
20
9.77777020507759
30
0
41
1
10
105.554380756116
20
9.77645157139784
30
0
41
1
10
105.494269299089
20
9.77905639361953
30
0
41
1
10
105.315970072475
20
9.79667419235025
30
0
41
1
10
105.19916170691
20
9.82124134985165
30
0
41
1
10
105.084526428738
20
9.8593489059385
30
0
0
SPLINE
5
287
100
AcDbEntity
8
1
62
256
6
ByLayer
370
13
48
1
60
0
100
AcDbSpline
70
4
71
2
72
6
73
3
40
0
40
0
40
0
40
1
40
1
40
1
41
1
10
103.214406075828
20
7.11150457583412
30
0
41
0.997409491337352
10
103.214884127481
20
7.07544824227787
30
0
41
1
10
103.220509020883
20
7.03983161448289
30
0
0
SPLINE
5
288
100
AcDbEntity
8
1
62
256
6
ByLayer
370
13
48
1
60
0
100
AcDbSpline
70
4
71
3
72
10
73
6
40
0
40
0
40
0
40
0
40
0.5
40
0.5
40
1
40
1
40
1
40
1
41
1
10
103.936792225741
20
10.4601930802573
30
0
41
1
10
103.965476464157
20
10.4612749644541
30
0
41
1
10
103.992499231428
20
10.4609205357296
30
0
41
1
10
104.046578826287
20
10.4603499858782
30
0
41
1
10
104.073734717464
20
10.460146269104
30
0
41
1
10
104.100828184211
20
10.4598986850805
30
0
0
SPLINE
5
289
100
AcDbEntity
8
1
62
256
6
ByLayer
370
13
48
1
60
0
100
AcDbSpline
70
4
71
3
72
10
73
6
40
0
40
0
40
0
40
0
40
0.5
40
0.5
40
1
40
1
40
1
40
1
41
1
10
111.152294198054
20
10.5223748846613
30
0
41
1
10
111.148613982712
20
10.5221820127479
30
0
41
1
10
111.158110082271
20
10.5115479834706
30
0
41
1
10
111.197369014697
20
10.4766084890676
30
0
41
1
10
111.227175791849
20
10.4524001364038
30
0
41
1
10
111.258547703069
20
10.4286989112324
30
0
0
SPLINE
5
28A
100
AcDbEntity
8
1
62
256
6
ByLayer
370
13
48
1
60
0
100
AcDbSpline
70
4
71
3
72
11
73
7
40
0
40
0
40
0
40
0
40
0.25
40
0.5
40
0.75
40
1
40
1
40
1
40
1
41
1
10
111.727585741801
20
11.0243845522772
30
0
41
1
10
111.714279830633
20
11.0241647942484
30
0
41
1
10
111.687672249646
20
11.0234589212781
30
0
41
1
10
111.647791224423
20
11.0216095124464
30
0
41
1
10
111.607905382855
20
11.0198914888065
30
0
41
1
10
111.58131535704
20
11.018731541362
30
0
41
1
10
111.568020344012
20
11.0181515676346
30
0
0
SPLINE
5
28B
100
AcDbEntity
8
1
62
256
6
ByLayer
370
13
48
1
60
0
100
AcDbSpline
70
4
71
1
72
4
73
2
40
0
40
0
40
1
40
1
41
1
10
103.654520236019
20
4.29168781825726
30
0
41
1
10
103.624489056897
20
4.29084477286168
30
0
0
SPLINE
5
28C
100
AcDbEntity
8
1
62
256
6
ByLayer
370
13
48
1
60
0
100
AcDbSpline
70
4
71
3
72
10
73
6
40
0
40
0
40
0
40
0
40
0.5
40
0.5
40
1
40
1
40
1
40
1
41
1
10
105.034456495944
20
4.46120142152765
30
0
41
1
10
105.030774723208
20
4.46100846799473
30
0
41
1
10
105.010411179082
20
4.46119524219213
30
0
41
1
10
104.949081101211
20
4.46210977051811
30
0
41
1
10
104.908174463195
20
4.46282485542986
30
0
41
1
10
104.868916645535
20
4.46355583950458
30
0
0
SPLINE
5
28D
100
AcDbEntity
8
SK1
62
256
6
ByLayer
370
13
48
1
60
0
100
AcDbSpline
70
4
71
3
72
8
73
4
40
0
40
0
40
0
40
0
40
1
40
1
40
1
40
1
41
1
10
-56
20
4.99865085022955
30
0
41
1
10
-55.7014870272612
20
5.68522191153457
30
0
41
1
10
-55.3636283470437
20
6.34927205836655
30
0
41
1
10
-55
20
6.99857202024106
30
0
0
SPLINE
5
28E
100
AcDbEntity
8
SK1
62
256
6
ByLayer
370
13
48
1
60
0
100
AcDbSpline
70
4
71
3
72
8
73
4
40
0
40
0
40
0
40
0
40
1
40
1
40
1
40
1
41
1
10
-54.5162221138916
20
-6.81202898183307
30
0
41
1
10
-54.5439351414378
20
-6.87429101039413
30
0
41
1
10
-54.5718768490337
20
-6.93647114421498
30
0
41
1
10
-54.6000398733642
20
-6.99857202024091
30
0
0
SPLINE
5
28F
100
AcDbEntity
8
SK1
62
256
6
ByLayer
370
13
48
1
60
0
100
AcDbSpline
70
4
71
3
72
8
73
4
40
0
40
0
40
0
40
0
40
1
40
1
40
1
40
1
41
1
10
-52.5998571439056
20
-6.99857202024091
30
0
41
1
10
-52.9479487851792
20
-6.78433420177186
30
0
41
1
10
-53.2928798234837
20
-6.56533950830294
30
0
41
1
10
-53.6338131992802
20
-6.34032812085843
30
0
0
SPLINE
5
290
100
AcDbEntity
8
1
62
256
6
ByLayer
370
13
48
1
60
0
100
AcDbSpline
70
4
71
3
72
10
73
6
40
0
40
0
40
0
40
0
40
0.5
40
0.5
40
1
40
1
40
1
40
1
41
1
10
105.292747125835
20
3.9315289720702
30
0
41
1
10
105.289503371123
20
3.9253677452374
30
0
41
1
10
105.289217561789
20
3.92228208324326
30
0
41
1
10
105.295103384957
20
3.92258580005986
30
0
41
1
10
105.301371630158
20
3.92604694011331
30
0
41
1
10
105.310243589721
20
3.93244592288778
30
0
0
SPLINE
5
291
100
AcDbEntity
8
1
62
256
6
ByLayer
370
13
48
1
60
0
100
AcDbSpline
70
4
71
3
72
22
73
18
40
0
40
0
40
0
40
0
40
0.125000000000001
40
0.125000000000001
40
0.250000000000002
40
0.250000000000002
40
0.312500000000002
40
0.312500000000002
40
0.375000000000002
40
0.375000000000002
40
0.500000000000002
40
0.500000000000002
40
0.625000000000002
40
0.625000000000002
40
0.750000000000001
40
0.750000000000001
40
1
40
1
40
1
40
1
41
1
10
58.4
20
-10.6016538790879
30
0
41
1
10
57.0940782654457
20
-10.6012051718306
30
0
41
1
10
55.7870079558789
20
-10.6019908468569
30
0
41
1
10
53.1715576168286
20
-10.6074402467332
30
0
41
1
10
51.8631967425464
20
-10.6118517654166
30
0
41
1
10
49.9003829125626
20
-10.6192864609635
30
0
41
1
10
49.2460868068495
20
-10.6218970386017
30
0
41
1
10
47.9375200965708
20
-10.6270868800487
30
0
41
1
10
47.2832349421011
20
-10.6296445229369
30
0
41
1
10
45.3203663773131
20
-10.637066909048
30
0
41
1
10
44.0117736916373
20
-10.6417554683481
30
0
41
1
10
41.3945783217575
20
-10.6509481732334
30
0
41
1
10
40.0859773181728
20
-10.6554524065673
30
0
41
1
10
37.4687781510429
20
-10.6645403762756
30
0
41
1
10
36.1601795012253
20
-10.6691499191497
30
0
41
1
10
32.2343864632933
20
-10.6831819125281
30
0
41
1
10
29.6171943114488
20
-10.692758431659
30
0
41
1
10
27
20
-10.7021822978114
30
0
0
SPLINE
5
292
100
AcDbEntity
8
1
62
256
6
ByLayer
370
13
48
1
60
0
100
AcDbSpline
70
4
71
3
72
18
73
14
40
0
40
0
40
0
40
0
40
0.25
40
0.25
40
0.5
40
0.5
40
0.625
40
0.625
40
0.75
40
0.75
40
0.875
40
0.875
40
1
40
1
40
1
40
1
41
1
10
110.282662650968
20
4.88374556848959
30
0
41
1
10
110.331281235035
20
4.88629356051243
30
0
41
1
10
110.380527334425
20
4.8815039835718
30
0
41
1
10
110.473588290095
20
4.85953591756959
30
0
41
1
10
110.518049701786
20
4.84205413004923
30
0
41
1
10
110.575558015817
20
4.81216825209464
30
0
41
1
10
110.593582422723
20
4.80145014802329
30
0
41
1
10
110.625728461287
20
4.78055878316414
30
0
41
1
10
110.640004967929
20
4.77033054232788
30
0
41
1
10
110.665458402237
20
4.7512068955682
30
0
41
1
10
110.676552352476
20
4.74237238486438
30
0
41
1
10
110.695244045726
20
4.72749078138642
30
0
41
1
10
110.702996687579
20
4.72132203422765
30
0
41
1
10
110.70937246848
20
4.71665966020785
30
0
0
SPLINE
5
293
100
AcDbEntity
8
1
62
256
6
ByLayer
370
13
48
1
60
0
100
AcDbSpline
70
4
71
3
72
10
73
6
40
0
40
0
40
0
40
0
40
0.5
40
0.5
40
1
40
1
40
1
40
1
41
1
10
106.653248314833
20
4.69353602303474
30
0
41
1
10
106.693526061719
20
4.69564689030358
30
0
41
1
10
106.733826719469
20
4.69282627237433
30
0
41
1
10
106.812755091601
20
4.67808751333726
30
0
41
1
10
106.850090194868
20
4.66644634181071
30
0
41
1
10
106.88525696611
20
4.65156684630378
30
0
0
SPLINE
5
294
100
AcDbEntity
8
1
62
256
6
ByLayer
370
13
48
1
60
0
100
AcDbSpline
70
4
71
3
72
18
73
14
40
0
40
0
40
0
40
0
40
0.125000000000011
40
0.125000000000011
40
0.250000000000022
40
0.250000000000022
40
0.500000000000027
40
0.500000000000027
40
0.62500000000002
40
0.62500000000002
40
0.750000000000014
40
0.750000000000014
40
1
40
1
40
1
40
1
41
1
10
102.008056994716
20
4.13926735806959
30
0
41
1
10
102.050397442741
20
4.08664861033219
30
0
41
1
10
102.094803962323
20
4.03639318229199
30
0
41
1
10
102.187762075797
20
3.94050009802155
30
0
41
1
10
102.236230023213
20
3.89500613173917
30
0
41
1
10
102.384919356141
20
3.76799822926191
30
0
41
1
10
102.489328928819
20
3.69486362223216
30
0
41
1
10
102.654403078838
20
3.60194985840658
30
0
41
1
10
102.710713616964
20
3.57391460206179
30
0
41
1
10
102.824176993739
20
3.52441404831151
30
0
41
1
10
102.881576271154
20
3.50280458128304
30
0
41
1
10
103.055884235384
20
3.44719273742655
30
0
41
1
10
103.175439604739
20
3.42225943588087
30
0
41
1
10
103.296997940968
20
3.41022990933777
30
0
0
SPLINE
5
295
100
AcDbEntity
8
1
62
256
6
ByLayer
370
13
48
1
60
0
100
AcDbSpline
70
4
71
3
72
8
73
4
40
0
40
0
40
0
40
0
40
1
40
1
40
1
40
1
41
1
10
105.306704309586
20
3.95336642906963
30
0
41
1
10
105.300329264522
20
3.94414874649493
30
0
41
1
10
105.29551960947
20
3.936795060935
30
0
41
1
10
105.292747125834
20
3.93152897206906
30
0
0
SPLINE
5
296
100
AcDbEntity
8
1
62
256
6
ByLayer
370
13
48
1
60
0
100
AcDbSpline
70
2053
71
3
72
74
73
70
40
0
40
0
40
0
40
0
40
0.0312499999999945
40
0.0312499999999945
40
0.062499999999989
40
0.062499999999989
40
0.0937499999999835
40
0.0937499999999835
40
0.124999999999978
40
0.124999999999978
40
0.156249999999972
40
0.156249999999972
40
0.187499999999967
40
0.187499999999967
40
0.218749999999961
40
0.218749999999961
40
0.249999999999956
40
0.249999999999956
40
0.28124999999995
40
0.28124999999995
40
0.312499999999945
40
0.312499999999945
40
0.343749999999939
40
0.343749999999939
40
0.374999999999934
40
0.374999999999934
40
0.406249999999928
40
0.406249999999928
40
0.421874999999928
40
0.421874999999928
40
0.437499999999927
40
0.437499999999927
40
0.468749999999931
40
0.468749999999931
40
0.499999999999935
40
0.499999999999935
40
0.531249999999939
40
0.531249999999939
40
0.562499999999943
40
0.562499999999943
40
0.593749999999946
40
0.593749999999946
40
0.62499999999995
40
0.62499999999995
40
0.656249999999954
40
0.656249999999954
40
0.687499999999958
40
0.687499999999958
40
0.749999999999965
40
0.749999999999965
40
0.781249999999969
40
0.781249999999969
40
0.79687499999997
40
0.79687499999997
40
0.812499999999972
40
0.812499999999972
40
0.843749999999976
40
0.843749999999976
40
0.874999999999981
40
0.874999999999981
40
0.906249999999986
40
0.906249999999986
40
0.921874999999988
40
0.921874999999988
40
0.937499999999991
40
0.937499999999991
40
0.968749999999995
40
0.968749999999995
40
1
40
1
40
1
40
1
41
1
10
109.16016302452
20
-0.498286313981879
30
0
41
1
10
109.2408863097
20
-0.498286313981879
30
0
41
1
10
109.320221694113
20
-0.506421636499397
30
0
41
1
10
109.476229761056
20
-0.538294720835495
30
0
41
1
10
109.553745382807
20
-0.562453295228522
30
0
41
1
10
109.700857482399
20
-0.625248493508764
30
0
41
1
10
109.77052073136
20
-0.66365274478224
30
0
41
1
10
109.902096093165
20
-0.754384543751257
30
0
41
1
10
109.963914326404
20
-0.806943494987308
30
0
41
1
10
110.074249568295
20
-0.921446215659699
30
0
41
1
10
110.123565821414
20
-0.983872608158151
30
0
41
1
10
110.21018889977
20
-1.11930132628731
30
0
41
1
10
110.246149079101
20
-1.19023107996071
30
0
41
1
10
110.303900224227
20
-1.33761554599656
30
0
41
1
10
110.325854154651
20
-1.41499621523673
30
0
41
1
10
110.354262865136
20
-1.57105642561817
30
0
41
1
10
110.360877133077
20
-1.64949021437624
30
0
41
1
10
110.359328228989
20
-1.80712603805822
30
0
41
1
10
110.350938324218
20
-1.88672580377357
30
0
41
1
10
110.319955811119
20
-2.04046180005338
30
0
41
1
10
110.2974349875
20
-2.11537194836288
30
0
41
1
10
110.23811092034
20
-2.26126425699846
30
0
41
1
10
110.201439228243
20
-2.33152506246469
30
0
41
1
10
110.116486029998
20
-2.46257934598483
30
0
41
1
10
110.067955422771
20
-2.52404462315246
30
0
41
1
10
109.957948580492
20
-2.63840917488196
30
0
41
1
10
109.898057270481
20
-2.689609881286
30
0
41
1
10
109.801492183739
20
-2.7571126526295
30
0
41
1
10
109.768145757174
20
-2.77808223808879
30
0
41
1
10
109.699045705371
20
-2.8168545714108
30
0
41
1
10
109.663058433994
20
-2.83475156541832
30
0
41
1
10
109.553264628355
20
-2.88253686103673
30
0
41
1
10
109.477785302186
20
-2.90665479192205
30
0
41
1
10
109.322236651583
20
-2.93942567640463
30
0
41
1
10
109.24121705445
20
-2.94796616459291
30
0
41
1
10
109.081572904019
20
-2.94813547889677
30
0
41
1
10
109.002389270447
20
-2.9400722587975
30
0
41
1
10
108.845309168563
20
-2.9074859379497
30
0
41
1
10
108.768675978914
20
-2.88306921153784
30
0
41
1
10
108.623269286182
20
-2.82012003537619
30
0
41
1
10
108.553134383328
20
-2.78094548892099
30
0
41
1
10
108.423072263376
20
-2.69031290911485
30
0
41
1
10
108.36332610952
20
-2.63922397151924
30
0
41
1
10
108.253955190174
20
-2.52585945153694
30
0
41
1
10
108.204389767131
20
-2.4633398189977
30
0
41
1
10
108.11915589778
20
-2.33202692387218
30
0
41
1
10
108.082881525665
20
-2.26268045437004
30
0
41
1
10
107.993388472789
20
-2.04325764787737
30
0
41
1
10
107.961933858804
20
-1.88822893406595
30
0
41
1
10
107.959384921965
20
-1.64998471333624
30
0
41
1
10
107.966043020753
20
-1.57151924992684
30
0
41
1
10
107.987115467066
20
-1.45523521563467
30
0
41
1
10
107.995999750037
20
-1.41671136210175
30
0
41
1
10
108.017615985866
20
-1.34015958133301
30
0
41
1
10
108.030419543734
20
-1.30199973027655
30
0
41
1
10
108.073888399925
20
-1.19077738344558
30
0
41
1
10
108.109721508979
20
-1.12018336105797
30
0
41
1
10
108.195142422336
20
-0.986175170074461
30
0
41
1
10
108.24533501146
20
-0.922313430666236
30
0
41
1
10
108.355740427994
20
-0.807543647698253
30
0
41
1
10
108.416227738369
20
-0.755954843951599
30
0
41
1
10
108.515078933302
20
-0.687508592251817
30
0
41
1
10
108.549511410734
20
-0.666153080354206
30
0
41
1
10
108.619589855006
20
-0.627440574253399
30
0
41
1
10
108.655405367399
20
-0.609950446938711
30
0
41
1
10
108.765140627807
20
-0.562986384580995
30
0
41
1
10
108.841711267876
20
-0.538885831053676
30
0
41
1
10
108.999573388513
20
-0.50642817454758
30
0
41
1
10
109.07943973934
20
-0.498286313981879
30
0
41
1
10
109.16016302452
20
-0.498286313981879
30
0
0
SPLINE
5
297
100
AcDbEntity
8
1
62
256
6
ByLayer
370
13
48
1
60
0
100
AcDbSpline
70
4
71
2
72
12
73
9
40
0
40
0
40
0
40
0.296387167477063
40
0.296387167477063
40
0.592774334954126
40
0.592774334954126
40
0.889161502431189
40
0.889161502431189
40
1
40
1
40
1
41
1
10
21.9999999999992
20
-5.87708397235249
30
0
41
1
10
19.6802750347805
20
-6.41674031412612
30
0
41
1
10
17.6125111604308
20
-7.4418857446685
30
0
41
1
10
15.482440492058
20
-8.49792131986268
30
0
41
1
10
13.7674023318607
20
-9.99142488092841
30
0
41
1
10
12.0589655190138
20
-11.4791798026899
30
0
41
1
10
10.8808481172068
20
-13.2965293372434
30
0
41
1
10
10.456477540578
20
-13.9511582127116
30
0
41
1
10
10.1122670337297
20
-14.6316600566952
30
0
0
SPLINE
5
298
100
AcDbEntity
8
1
62
256
6
ByLayer
370
13
48
1
60
0
100
AcDbSpline
70
4
71
3
72
8
73
4
40
0
40
0
40
0
40
0
40
1
40
1
40
1
40
1
41
1
10
99.6921711400454
20
4.24395659233164
30
0
41
1
10
99.6923565539069
20
4.24478740930826
30
0
41
1
10
99.6925726112908
20
4.24561260155099
30
0
41
1
10
99.6928181356965
20
4.24643239330848
30
0
0
SPLINE
5
299
100
AcDbEntity
8
1
62
256
6
ByLayer
370
13
48
1
60
0
100
AcDbSpline
70
4
71
3
72
24
73
20
40
0
40
0
40
0
40
0
40
0.250000000000001
40
0.250000000000001
40
0.375000000000001
40
0.375000000000001
40
0.500000000000002
40
0.500000000000002
40
0.625000000000002
40
0.625000000000002
40
0.656250000000002
40
0.656250000000002
40
0.687500000000002
40
0.687500000000002
40
0.750000000000001
40
0.750000000000001
40
0.875
40
0.875
40
1
40
1
40
1
40
1
41
1
10
10.1120902911707
20
-14.6320094554644
30
0
41
1
10
11.0060954121767
20
-14.3909406661213
30
0
41
1
10
11.8839656223585
20
-14.1120001711489
30
0
41
1
10
13.1762754944346
20
-13.6360939628578
30
0
41
1
10
13.6034247479289
20
-13.4676374243213
30
0
41
1
10
14.4453796276491
20
-13.1128801548587
30
0
41
1
10
14.860543200945
20
-12.9264742022556
30
0
41
1
10
15.6791588976671
20
-12.53547767249
30
0
41
1
10
16.0826118446209
20
-12.3308883740365
30
0
41
1
10
16.5794694056654
20
-12.0635705843258
30
0
41
1
10
16.6781545740582
20
-12.0090413253174
30
0
41
1
10
16.8780658862578
20
-11.9039282354441
30
0
41
1
10
16.9789531742785
20
-11.8528182557831
30
0
41
1
10
17.2844263918852
20
-11.7038535669854
30
0
41
1
10
17.4922759030185
20
-11.6101834776852
30
0
41
1
10
18.1228216083781
20
-11.3487996223725
30
0
41
1
10
18.5528597947097
20
-11.200289017622
30
0
41
1
10
19.4324614215426
20
-10.9552280742305
30
0
41
1
10
19.8820236821991
20
-10.8586745958069
30
0
41
1
10
20.3419537284451
20
-10.789711687704
30
0
0
SPLINE
5
29A
100
AcDbEntity
8
1
62
256
6
ByLayer
370
13
48
1
60
0
100
AcDbSpline
70
4
71
3
72
8
73
4
40
0
40
0
40
0
40
0
40
1
40
1
40
1
40
1
41
1
10
99.5895037155531
20
3.81683625518755
30
0
41
1
10
99.6267035973434
20
3.95878412580561
30
0
41
1
10
99.6603218805102
20
4.10124393154072
30
0
41
1
10
99.6921711400454
20
4.24395659233164
30
0
0
SPLINE
5
29B
100
AcDbEntity
8
1
62
256
6
ByLayer
370
13
48
1
60
0
100
AcDbSpline
70
4
71
3
72
10
73
6
40
0
40
0
40
0
40
0
40
0.5
40
0.5
40
1
40
1
40
1
40
1
41
1
10
109.567793234018
20
4.79215261495111
30
0
41
1
10
109.598079551246
20
4.8104387310473
30
0
41
1
10
109.632240882856
20
4.82595438887387
30
0
41
1
10
109.706329254133
20
4.84864752949767
30
0
41
1
10
109.744990422743
20
4.85554548388507
30
0
41
1
10
109.785214267907
20
4.85767536704122
30
0
0
SPLINE
5
29C
100
AcDbEntity
8
1
62
256
6
ByLayer
370
13
48
1
60
0
100
AcDbSpline
70
4
71
3
72
36
73
32
40
0
40
0
40
0
40
0
40
0.124999999999997
40
0.124999999999997
40
0.187499999999996
40
0.187499999999996
40
0.249999999999995
40
0.249999999999995
40
0.374999999999992
40
0.374999999999992
40
0.437499999999993
40
0.437499999999993
40
0.499999999999993
40
0.499999999999993
40
0.562499999999994
40
0.562499999999994
40
0.624999999999995
40
0.624999999999995
40
0.687499999999995
40
0.687499999999995
40
0.749999999999996
40
0.749999999999996
40
0.812499999999997
40
0.812499999999997
40
0.843749999999997
40
0.843749999999997
40
0.874999999999997
40
0.874999999999997
40
0.937499999999999
40
0.937499999999999
40
1
40
1
40
1
40
1
41
1
10
100.839352575049
20
0.997818145042686
30
0
41
1
10
101.237539598485
20
0.918932655114958
30
0
41
1
10
101.639192224803
20
0.852494150763107
30
0
41
1
10
102.249174478815
20
0.779785139068821
30
0
41
1
10
102.453755362496
20
0.760050722492309
30
0
41
1
10
102.86588977059
20
0.731258362543286
30
0
41
1
10
103.074140697535
20
0.722221237713512
30
0
41
1
10
103.694368991292
20
0.714143295773226
30
0
41
1
10
104.104121617658
20
0.733578638578763
30
0
41
1
10
104.711572729159
20
0.810458121118586
30
0
41
1
10
104.91375531378
20
0.84437322915872
30
0
41
1
10
105.305839220931
20
0.928737849397436
30
0
41
1
10
105.496706775164
20
0.979224739170604
30
0
41
1
10
105.867120234682
20
1.09836904041208
30
0
41
1
10
106.046974373016
20
1.16714091890853
30
0
41
1
10
106.392513962616
20
1.32491921496069
30
0
41
1
10
106.554449881597
20
1.41218863260971
30
0
41
1
10
106.855761926228
20
1.60417802336164
30
0
41
1
10
106.99515865928
20
1.70888205613193
30
0
41
1
10
107.249040162355
20
1.93756013828482
30
0
41
1
10
107.359976275129
20
2.05842557215874
30
0
41
1
10
107.549076305735
20
2.31189097390438
30
0
41
1
10
107.627457325241
20
2.44467323048565
30
0
41
1
10
107.719422949987
20
2.6534269472325
30
0
41
1
10
107.745588186438
20
2.72427644064021
30
0
41
1
10
107.788325582047
20
2.86624140924542
30
0
41
1
10
107.805045847529
20
2.93767982428761
30
0
41
1
10
107.841598812493
20
3.15332976211104
30
0
41
1
10
107.847896230207
20
3.29888106572003
30
0
41
1
10
107.824267555042
20
3.5934877015564
30
0
41
1
10
107.794687041199
20
3.73845581933088
30
0
41
1
10
107.749000560838
20
3.88130695623252
30
0
0
SPLINE
5
29D
100
AcDbEntity
8
1
62
256
6
ByLayer
370
13
48
1
60
0
100
AcDbSpline
70
4
71
3
72
10
73
6
40
0
40
0
40
0
40
0
40
0.5
40
0.5
40
1
40
1
40
1
40
1
41
1
10
101.991730345508
20
4.67543409584908
30
0
41
1
10
101.997930207664
20
4.75053307878807
30
0
41
1
10
101.999716278793
20
4.82595165539419
30
0
41
1
10
101.991944252392
20
4.97761021687893
30
0
41
1
10
101.982198526492
20
5.05423332431218
30
0
41
1
10
101.965561224211
20
5.1283666805879
30
0
0
SPLINE
5
29E
100
AcDbEntity
8
1
62
256
6
ByLayer
370
13
48
1
60
0
100
AcDbSpline
70
4
71
3
72
12
73
8
40
0
40
0
40
0
40
0
40
0.5
40
0.5
40
0.75
40
0.75
40
1
40
1
40
1
40
1
41
1
10
103.296997940968
20
3.41022990933777
30
0
41
1
10
103.866913797526
20
3.35383050361654
30
0
41
1
10
104.41813612347
20
3.35402964064406
30
0
41
1
10
105.216945933945
20
3.42035609524888
30
0
41
1
10
105.478493968413
20
3.45358358272671
30
0
41
1
10
105.991610948925
20
3.53995710439676
30
0
41
1
10
106.241675329634
20
3.59286737811027
30
0
41
1
10
106.484493751364
20
3.65391503468112
30
0
0
SPLINE
5
29F
100
AcDbEntity
8
1
62
256
6
ByLayer
370
13
48
1
60
0
100
AcDbSpline
70
4
71
3
72
8
73
4
40
0
40
0
40
0
40
0
40
1
40
1
40
1
40
1
41
1
10
105.174077446877
20
4.31124382643938
30
0
41
1
10
105.201792334127
20
4.30527729656242
30
0
41
1
10
105.228131657491
20
4.29894311187428
30
0
41
1
10
105.25326789314
20
4.29305545845355
30
0
0
SPLINE
5
2A0
100
AcDbEntity
8
1
62
256
6
ByLayer
370
13
48
1
60
0
100
AcDbSpline
70
4
71
3
72
14
73
10
40
0
40
0
40
0
40
0
40
0.25
40
0.25
40
0.5
40
0.5
40
0.75
40
0.75
40
1
40
1
40
1
40
1
41
1
10
101.375424841584
20
3.22896844172104
30
0
41
1
10
101.35550864781
20
3.19536397220298
30
0
41
1
10
101.331404252016
20
3.16352158047366
30
0
41
1
10
101.274879137269
20
3.11026521922784
30
0
41
1
10
101.241832935362
20
3.08852839388243
30
0
41
1
10
101.170033553789
20
3.06439921454117
30
0
41
1
10
101.132253202209
20
3.06281582337604
30
0
41
1
10
101.062243058642
20
3.07733318081392
30
0
41
1
10
101.029558956348
20
3.09286319364725
30
0
41
1
10
100.999901771374
20
3.11196970161953
30
0
0
SPLINE
5
2A1
100
AcDbEntity
8
1
62
256
6
ByLayer
370
13
48
1
60
0
100
AcDbSpline
70
4
71
3
72
32
73
28
40
0
40
0
40
0
40
0
40
0.125
40
0.125
40
0.1875
40
0.1875
40
0.25
40
0.25
40
0.3125
40
0.3125
40
0.375
40
0.375
40
0.437499999999999
40
0.437499999999999
40
0.468749999999999
40
0.468749999999999
40
0.499999999999999
40
0.499999999999999
40
0.624999999999999
40
0.624999999999999
40
0.75
40
0.75
40
0.875
40
0.875
40
0.9375
40
0.9375
40
1
40
1
40
1
40
1
41
1
10
5.75570000000002
20
-3.96862696659693
30
0
41
1
10
6.1208672702663
20
-3.76172049379946
30
0
41
1
10
6.46277437465363
20
-3.52518175088594
30
0
41
1
10
6.9353094836822
20
-3.11900093677352
30
0
41
1
10
7.08604403253625
20
-2.97497358183742
30
0
41
1
10
7.37199112943651
20
-2.66714463118493
30
0
41
1
10
7.50512423557598
20
-2.50546025204955
30
0
41
1
10
7.74809229837109
20
-2.16789788220515
30
0
41
1
10
7.85828952839861
20
-1.99165987613821
30
0
41
1
10
8.05342623434998
20
-1.62249689054804
30
0
41
1
10
8.13864174485781
20
-1.42810429580058
30
0
41
1
10
8.27512173470845
20
-1.03474363950451
30
0
41
1
10
8.32729737405964
20
-0.834497388930117
30
0
41
1
10
8.38044222166346
20
-0.528552251290876
30
0
41
1
10
8.39395919571439
20
-0.425638683515984
30
0
41
1
10
8.4122704209212
20
-0.217875301407986
30
0
41
1
10
8.4170630796649
20
-0.112627609798381
30
0
41
1
10
8.41810981882293
20
0.41416796870493
30
0
41
1
10
8.34713433674276
20
0.82432973072838
30
0
41
1
10
8.07232111209373
20
1.62205445332515
30
0
41
1
10
7.87547990646056
20
1.99010721524886
30
0
41
1
10
7.38393428320248
20
2.67463023340608
30
0
41
1
10
7.09923718789946
20
2.97731101425063
30
0
41
1
10
6.62647646281954
20
3.38484613436861
30
0
41
1
10
6.46077904739477
20
3.51304240925302
30
0
41
1
10
6.11629075945234
20
3.7534672624019
30
0
41
1
10
5.9385347507816
20
3.86503144621682
30
0
41
1
10
5.75570000000002
20
3.96862696659693
30
0
0
SPLINE
5
2A2
100
AcDbEntity
8
1
62
256
6
ByLayer
370
13
48
1
60
0
100
AcDbSpline
70
4
71
3
72
8
73
4
40
0
40
0
40
0
40
0
40
1
40
1
40
1
40
1
41
1
10
111.452114848774
20
-1.24877460273436
30
0
41
1
10
111.521683036315
20
-1.63907118807907
30
0
41
1
10
111.536342903009
20
-2.02788714743252
30
0
41
1
10
111.499990808828
20
-2.41494569118905
30
0
0
SPLINE
5
2A3
100
AcDbEntity
8
1
62
256
6
ByLayer
370
13
48
1
60
0
100
AcDbSpline
70
4
71
3
72
26
73
22
40
0
40
0
40
0
40
0
40
0.250000000000001
40
0.250000000000001
40
0.312500000000001
40
0.312500000000001
40
0.375000000000001
40
0.375000000000001
40
0.500000000000001
40
0.500000000000001
40
0.562500000000001
40
0.562500000000001
40
0.625000000000001
40
0.625000000000001
40
0.750000000000001
40
0.750000000000001
40
0.812500000000001
40
0.812500000000001
40
0.875000000000001
40
0.875000000000001
40
1
40
1
40
1
40
1
41
1
10
6.90476456573518
20
-11.5774787198111
30
0
41
1
10
6.73298304082823
20
-11.7635271332203
30
0
41
1
10
6.5969697575089
20
-11.9530102993842
30
0
41
1
10
6.47671753480128
20
-12.1941269988933
30
0
41
1
10
6.45533895556642
20
-12.242397746507
30
0
41
1
10
6.4186779588423
20
-12.3374790350703
30
0
41
1
10
6.40328060232363
20
-12.3845115789307
30
0
41
1
10
6.36599105633431
20
-12.5240778936135
30
0
41
1
10
6.35293208868896
20
-12.615089402262
30
0
41
1
10
6.35261473483394
20
-12.7483814953792
30
0
41
1
10
6.35574267808241
20
-12.7925090236067
30
0
41
1
10
6.3682895970519
20
-12.8781787484703
30
0
41
1
10
6.37766415311134
20
-12.9197597361878
30
0
41
1
10
6.41464069892737
20
-13.0409098798158
30
0
41
1
10
6.45104019085468
20
-13.1169061004847
30
0
41
1
10
6.52258226355167
20
-13.2240123034212
30
0
41
1
10
6.54937469042474
20
-13.2586541937627
30
0
41
1
10
6.60769939837817
20
-13.3246066436517
30
0
41
1
10
6.6392935516501
20
-13.3560428840343
30
0
41
1
10
6.74107949567789
20
-13.4459395663944
30
0
41
1
10
6.81822531443996
20
-13.5000155508431
30
0
41
1
10
6.90438866358051
20
-13.5484860639479
30
0
0
SPLINE
5
2A4
100
AcDbEntity
8
1
62
256
6
ByLayer
370
13
48
1
60
0
100
AcDbSpline
70
4
71
3
72
8
73
4
40
0
40
0
40
0
40
0
40
1
40
1
40
1
40
1
41
1
10
103.494570618941
20
10.6232655611616
30
0
41
1
10
103.49243046171
20
10.6272980964821
30
0
41
1
10
103.492848144349
20
10.631177304875
30
0
41
1
10
103.495699978739
20
10.6349106246562
30
0
0
SPLINE
5
2A5
100
AcDbEntity
8
1
62
256
6
ByLayer
370
13
48
1
60
0
100
AcDbSpline
70
4
71
3
72
8
73
4
40
0
40
0
40
0
40
0
40
1
40
1
40
1
40
1
41
1
10
22.45
20
-10.1665145744637
30
0
41
1
10
22.3033332939785
20
-10.1667319767195
30
0
41
1
10
22.1566666233364
20
-10.1669677749833
30
0
41
1
10
22.01
20
-10.1672228938902
30
0
0
SPLINE
5
2A6
100
AcDbEntity
8
1
62
256
6
ByLayer
370
13
48
1
60
0
100
AcDbSpline
70
4
71
3
72
8
73
4
40
0
40
0
40
0
40
0
40
1
40
1
40
1
40
1
41
1
10
95.448071822053
20
2.49728247974346
30
0
41
1
10
95.7753303834388
20
2.38874119915235
30
0
41
1
10
96.1022580883991
20
2.28679808055423
30
0
41
1
10
96.4288021025957
20
2.19250678195704
30
0
0
SPLINE
5
2A7
100
AcDbEntity
8
1
62
256
6
ByLayer
370
13
48
1
60
0
100
AcDbSpline
70
4
71
3
72
38
73
34
40
0
40
0
40
0
40
0
40
0.0625000000000009
40
0.0625000000000009
40
0.125000000000002
40
0.125000000000002
40
0.250000000000003
40
0.250000000000003
40
0.312500000000003
40
0.312500000000003
40
0.375000000000003
40
0.375000000000003
40
0.437500000000004
40
0.437500000000004
40
0.500000000000004
40
0.500000000000004
40
0.562500000000004
40
0.562500000000004
40
0.593750000000004
40
0.593750000000004
40
0.625000000000004
40
0.625000000000004
40
0.687500000000003
40
0.687500000000003
40
0.750000000000002
40
0.750000000000002
40
0.812500000000002
40
0.812500000000002
40
0.875000000000001
40
0.875000000000001
40
0.937500000000001
40
0.937500000000001
40
1
40
1
40
1
40
1
41
1
10
95.4480718220532
20
2.4972824797434
30
0
41
1
10
94.694767977846
20
2.82667368168492
30
0
41
1
10
93.9414965965303
20
3.15214021222846
30
0
41
1
10
92.4339333755115
20
3.79288903607207
30
0
41
1
10
91.6790648966441
20
4.10840280503692
30
0
41
1
10
89.4155815903665
20
5.03429049399088
30
0
41
1
10
87.9100828494628
20
5.62338548790697
30
0
41
1
10
85.6498426842397
20
6.45093835826117
30
0
41
1
10
84.8960581264987
20
6.71737806358277
30
0
41
1
10
83.3864980491628
20
7.2291938593529
30
0
41
1
10
82.6320450827321
20
7.47417347672047
30
0
41
1
10
81.1247601902764
20
7.94037278747004
30
0
41
1
10
80.3716908360599
20
8.16176788748032
30
0
41
1
10
78.865607870624
20
8.57942830430753
30
0
41
1
10
78.1128366922304
20
8.77592408140001
30
0
41
1
10
76.603047995119
20
9.13846232569031
30
0
41
1
10
75.8449202675191
20
9.30343938526482
30
0
41
1
10
74.7009481810733
20
9.52073512161633
30
0
41
1
10
74.3184128285583
20
9.58833738190822
30
0
41
1
10
73.5502103156729
20
9.71400624571979
30
0
41
1
10
73.1644636220411
20
9.77199733950758
30
0
41
1
10
72.0024771232044
20
9.93318098660808
30
0
41
1
10
71.2216895133576
20
10.0238840230339
30
0
41
1
10
69.6502395970562
20
10.1802209149683
30
0
41
1
10
68.8588059975335
20
10.2457349929155
30
0
41
1
10
67.2706474608016
20
10.3567830061401
30
0
41
1
10
66.4742115371538
20
10.4023980599604
30
0
41
1
10
64.8767743107891
20
10.4778718561139
30
0
41
1
10
64.0756072401536
20
10.5075278983522
30
0
41
1
10
62.4667675908482
20
10.5537373088584
30
0
41
1
10
61.6590529499095
20
10.570289066315
30
0
41
1
10
60.0356111710838
20
10.5941352485988
30
0
41
1
10
59.2199570521961
20
10.6014884058293
30
0
41
1
10
58.4
20
10.6062038314647
30
0
0
SPLINE
5
2A8
100
AcDbEntity
8
1
62
256
6
ByLayer
370
13
48
1
60
0
100
AcDbSpline
70
4
71
3
72
22
73
18
40
0
40
0
40
0
40
0
40
0.125
40
0.125
40
0.25
40
0.25
40
0.3125
40
0.3125
40
0.375
40
0.375
40
0.5
40
0.5
40
0.625
40
0.625
40
0.75
40
0.75
40
1
40
1
40
1
40
1
41
1
10
58.4
20
-3.81060784822887
30
0
41
1
10
57.0941865655307
20
-3.72132208317126
30
0
41
1
10
55.7873179339757
20
-3.66658446203343
30
0
41
1
10
53.1721685368946
20
-3.60448169127312
30
0
41
1
10
51.8638625192959
20
-3.59791029115249
30
0
41
1
10
49.9010122374624
20
-3.60123566371166
30
0
41
1
10
49.2466828036666
20
-3.60448066490497
30
0
41
1
10
47.9380611851515
20
-3.61107212866673
30
0
41
1
10
47.2837502477296
20
-3.61422424487446
30
0
41
1
10
45.3208163226598
20
-3.62240316817073
30
0
41
1
10
44.012192298902
20
-3.62623877793538
30
0
41
1
10
41.3949390717468
20
-3.62791238064423
30
0
41
1
10
40.0863101450898
20
-3.62607415437935
30
0
41
1
10
37.4690523043555
20
-3.62242998023302
30
0
41
1
10
36.1604229837063
20
-3.62096799917748
30
0
41
1
10
32.2345315798331
20
-3.61933378309243
30
0
41
1
10
29.6172649172082
20
-3.62292598770412
30
0
41
1
10
27
20
-3.62509132717969
30
0
0
SPLINE
5
2A9
100
AcDbEntity
8
1
62
256
6
ByLayer
370
13
48
1
60
0
100
AcDbSpline
70
4
71
3
72
8
73
4
40
0
40
0
40
0
40
0
40
1
40
1
40
1
40
1
41
1
10
27
20
-10.7021822978113
30
0
41
1
10
25.3333327595122
20
-10.702235771794
30
0
41
1
10
23.6666658913815
20
-10.7022273340015
30
0
41
1
10
22
20
-10.7020549205273
30
0
0
SPLINE
5
2AA
100
AcDbEntity
8
1
62
256
6
ByLayer
370
13
48
1
60
0
100
AcDbSpline
70
4
71
3
72
40
73
36
40
0
40
0
40
0
40
0
40
0.0625000000000012
40
0.0625000000000012
40
0.125000000000002
40
0.125000000000002
40
0.140625000000003
40
0.140625000000003
40
0.156250000000003
40
0.156250000000003
40
0.171875000000003
40
0.171875000000003
40
0.187500000000003
40
0.187500000000003
40
0.250000000000002
40
0.250000000000002
40
0.312500000000002
40
0.312500000000002
40
0.375000000000001
40
0.375000000000001
40
0.4375
40
0.4375
40
0.5
40
0.5
40
0.562499999999999
40
0.562499999999999
40
0.624999999999998
40
0.624999999999998
40
0.749999999999998
40
0.749999999999998
40
0.812499999999998
40
0.812499999999998
40
0.874999999999999
40
0.874999999999999
40
1
40
1
40
1
40
1
41
1
10
98.9292615942786
20
-10.5221365837037
30
0
41
1
10
98.0612233778063
20
-10.5104843311578
30
0
41
1
10
97.1863086244845
20
-10.502471867233
30
0
41
1
10
95.4458761906031
20
-10.4787154686086
30
0
41
1
10
94.5805250540415
20
-10.4635841965356
30
0
41
1
10
93.5235780919621
20
-10.4180258265196
30
0
41
1
10
93.3134206853201
20
-10.4075059482286
30
0
41
1
10
92.8961604135207
20
-10.3825094368528
30
0
41
1
10
92.6889589095673
20
-10.3681465080744
30
0
41
1
10
92.2789624366955
20
-10.3331396918211
30
0
41
1
10
92.076603369014
20
-10.3118964750053
30
0
41
1
10
91.6711186469836
20
-10.2678555664881
30
0
41
1
10
91.468023450778
20
-10.2451552154357
30
0
41
1
10
90.4533141486054
20
-10.1253144126996
30
0
41
1
10
89.642726474865
20
-10.0111976235662
30
0
41
1
10
88.0243618334275
20
-9.74871696818184
30
0
41
1
10
87.2159329386105
20
-9.60033660668591
30
0
41
1
10
85.5966652110615
20
-9.27356490110188
30
0
41
1
10
84.7858251211505
20
-9.09518811819822
30
0
41
1
10
83.158245537355
20
-8.71436387874516
30
0
41
1
10
82.3412918643397
20
-8.5118964640711
30
0
41
1
10
80.7027211693852
20
-8.09370728098861
30
0
41
1
10
79.8804027370312
20
-7.87790501889558
30
0
41
1
10
78.2261258747968
20
-7.44352495551112
30
0
41
1
10
77.3942920712059
20
-7.22476813639506
30
0
41
1
10
75.7194381454657
20
-6.79240300057918
30
0
41
1
10
74.875747072242
20
-6.57870348980671
30
0
41
1
10
72.333948482367
20
-5.9605094764571
30
0
41
1
10
70.6234624154812
20
-5.57748950638177
30
0
41
1
10
68.0332014526465
20
-5.06822157609241
30
0
41
1
10
67.1650764997853
20
-4.9091570538958
30
0
41
1
10
65.4239696151202
20
-4.61573067220701
30
0
41
1
10
64.551288628385
20
-4.4813858897206
30
0
41
1
10
61.9267007779447
20
-4.11897864899507
30
0
41
1
10
60.1682238049986
20
-3.93185852305598
30
0
41
1
10
58.4
20
-3.81060784822887
30
0
0
SPLINE
5
2AB
100
AcDbEntity
8
1
62
256
6
ByLayer
370
13
48
1
60
0
100
AcDbSpline
70
4
71
3
72
12
73
8
40
0
40
0
40
0
40
0
40
0.5
40
0.5
40
0.75
40
0.75
40
1
40
1
40
1
40
1
41
1
10
106.88525696611
20
4.65156684630378
30
0
41
1
10
106.990975987501
20
4.60683582186718
30
0
41
1
10
107.097487139916
20
4.5766333364767
30
0
41
1
10
107.259570305341
20
4.54906871341873
30
0
41
1
10
107.314136038278
20
4.5428988156529
30
0
41
1
10
107.423473560441
20
4.53661090274215
30
0
41
1
10
107.478597563786
20
4.5365162751057
30
0
41
1
10
107.532554445822
20
4.53934403547024
30
0
0
SPLINE
5
2AC
100
AcDbEntity
8
1
62
256
6
ByLayer
370
13
48
1
60
0
100
AcDbSpline
70
4
71
1
72
4
73
2
40
0
40
0
40
1
40
1
41
1
10
22.0000000000001
20
-10.173708067677
30
0
41
1
10
22.0000000000001
20
-10.7020549205273
30
0
0
SPLINE
5
2AD
100
AcDbEntity
8
1
62
256
6
ByLayer
370
13
48
1
60
0
100
AcDbSpline
70
4
71
3
72
8
73
4
40
0
40
0
40
0
40
0
40
1
40
1
40
1
40
1
41
1
10
103.26227777579
20
7.6868145371013
30
0
41
1
10
103.245081594289
20
7.63867531493679
30
0
41
1
10
103.221777193484
20
7.59559819572368
30
0
41
1
10
103.196150662733
20
7.55913447643758
30
0
0
SPLINE
5
2AE
100
AcDbEntity
8
1
62
256
6
ByLayer
370
13
48
1
60
0
100
AcDbSpline
70
4
71
3
72
18
73
14
40
0
40
0
40
0
40
0
40
0.25
40
0.25
40
0.375000000000001
40
0.375000000000001
40
0.500000000000001
40
0.500000000000001
40
0.750000000000001
40
0.750000000000001
40
0.875
40
0.875
40
1
40
1
40
1
40
1
41
1
10
105.805689021906
20
4.44884285348212
30
0
41
1
10
105.800368472069
20
4.44856401528062
30
0
41
1
10
105.801632416291
20
4.4588224674155
30
0
41
1
10
105.816897511954
20
4.48724079828597
30
0
41
1
10
105.824256166429
20
4.49874530706322
30
0
41
1
10
105.844198425624
20
4.52424366664658
30
0
41
1
10
105.857049506396
20
4.53848845154513
30
0
41
1
10
105.90313276801
20
4.58095546029807
30
0
41
1
10
105.945320462086
20
4.60964819942626
30
0
41
1
10
106.018609427497
20
4.6408334683031
30
0
41
1
10
106.045121541289
20
4.64951145057822
30
0
41
1
10
106.099266264072
20
4.66199298862702
30
0
41
1
10
106.127131587444
20
4.6659478109778
30
0
41
1
10
106.155799931782
20
4.66746582158689
30
0
0
SPLINE
5
2AF
100
AcDbEntity
8
1
62
256
6
ByLayer
370
13
48
1
60
0
100
AcDbSpline
70
4
71
3
72
34
73
30
40
0
40
0
40
0
40
0
40
0.125
40
0.125
40
0.1875
40
0.1875
40
0.25
40
0.25
40
0.375
40
0.375
40
0.4375
40
0.4375
40
0.500000000000001
40
0.500000000000001
40
0.562500000000001
40
0.562500000000001
40
0.625000000000001
40
0.625000000000001
40
0.687500000000001
40
0.687500000000001
40
0.718750000000002
40
0.718750000000002
40
0.750000000000002
40
0.750000000000002
40
0.875000000000001
40
0.875000000000001
40
0.9375
40
0.9375
40
1
40
1
40
1
40
1
41
1
10
10.1133780957064
20
-7.4032204245303
30
0
41
1
10
9.83104364179161
20
-7.46818898568995
30
0
41
1
10
9.55398515086421
20
-7.55356826201526
30
0
41
1
10
9.14573272079667
20
-7.71036506241703
30
0
41
1
10
9.01088586179716
20
-7.76747534043824
30
0
41
1
10
8.74375205377052
20
-7.89177463870629
30
0
41
1
10
8.61148384727639
20
-7.95904078838529
30
0
41
1
10
8.22762199643083
20
-8.17196893871574
30
0
41
1
10
7.98570947169313
20
-8.32986349284914
30
0
41
1
10
7.6467274938872
20
-8.59381690372777
30
0
41
1
10
7.53756257591755
20
-8.68657054975606
30
0
41
1
10
7.32937892356461
20
-8.88183391896888
30
0
41
1
10
7.23231834993632
20
-8.9824001533612
30
0
41
1
10
7.05244465039192
20
-9.18939179368996
30
0
41
1
10
6.96962183059279
20
-9.29581312828731
30
0
41
1
10
6.81936575791383
20
-9.51492336864683
30
0
41
1
10
6.7518736956599
20
-9.6280936323368
30
0
41
1
10
6.63825204685844
20
-9.85325739852817
30
0
41
1
10
6.59140470115452
20
-9.96615294922671
30
0
41
1
10
6.53709971356943
20
-10.1360211234809
30
0
41
1
10
6.52167122965804
20
-10.1927321860081
30
0
41
1
10
6.49650756601187
20
-10.3063522393513
30
0
41
1
10
6.48674143536238
20
-10.3635628541405
30
0
41
1
10
6.45378747572408
20
-10.6463940706151
30
0
41
1
10
6.47810707589159
20
-10.8585029157091
30
0
41
1
10
6.58895771258858
20
-11.1559542873887
30
0
41
1
10
6.63739089404368
20
-11.2487236080096
30
0
41
1
10
6.75522511408994
20
-11.422113153778
30
0
41
1
10
6.82492657760298
20
-11.5029954550392
30
0
41
1
10
6.90476456573518
20
-11.5774787198111
30
0
0
SPLINE
5
2B0
100
AcDbEntity
8
1
62
256
6
ByLayer
370
13
48
1
60
0
100
AcDbSpline
70
4
71
3
72
8
73
4
40
0
40
0
40
0
40
0
40
1
40
1
40
1
40
1
41
1
10
99.8899866936897
20
4.78685296645688
30
0
41
1
10
99.9887570562571
20
5.93825193601367
30
0
41
1
10
100.082897688288
20
7.08727541832704
30
0
41
1
10
100.170361955895
20
8.23472921764537
30
0
0
SPLINE
5
2B1
100
AcDbEntity
8
1
62
256
6
ByLayer
370
13
48
1
60
0
100
AcDbSpline
70
4
71
3
72
36
73
32
40
0
40
0
40
0
40
0
40
0.0624999999999998
40
0.0624999999999998
40
0.0937499999999996
40
0.0937499999999996
40
0.124999999999999
40
0.124999999999999
40
0.187499999999999
40
0.187499999999999
40
0.21875
40
0.21875
40
0.25
40
0.25
40
0.3125
40
0.3125
40
0.375
40
0.375
40
0.437500000000001
40
0.437500000000001
40
0.500000000000001
40
0.500000000000001
40
0.625000000000001
40
0.625000000000001
40
0.750000000000001
40
0.750000000000001
40
0.812500000000001
40
0.812500000000001
40
0.875000000000001
40
0.875000000000001
40
1
40
1
40
1
40
1
41
1
10
6.90438866358048
20
-13.548486063948
30
0
41
1
10
6.82531922166919
20
-13.6245856425033
30
0
41
1
10
6.75628171728283
20
-13.7002344814049
30
0
41
1
10
6.66807043574937
20
-13.8128830033061
30
0
41
1
10
6.641232353992
20
-13.8502945429366
30
0
41
1
10
6.59290110203139
20
-13.9248141045442
30
0
41
1
10
6.57136160998485
20
-13.9620540206094
30
0
41
1
10
6.51620612134045
20
-14.0712163332832
30
0
41
1
10
6.49153944839981
20
-14.1411742992491
30
0
41
1
10
6.47293058406837
20
-14.24182272118
30
0
41
1
10
6.46980799814599
20
-14.2746546173888
30
0
41
1
10
6.46995214438635
20
-14.3388363647545
30
0
41
1
10
6.47328911356868
20
-14.3702830144921
30
0
41
1
10
6.49248591802419
20
-14.4605876571638
30
0
41
1
10
6.51740327838041
20
-14.5160077816317
30
0
41
1
10
6.58935555011712
20
-14.6179822150602
30
0
41
1
10
6.6369158973871
20
-14.6648262411227
30
0
41
1
10
6.75066341153894
20
-14.7477443031551
30
0
41
1
10
6.81672902397014
20
-14.7840088287155
30
0
41
1
10
6.9659250970349
20
-14.846957888283
30
0
41
1
10
7.04968499047644
20
-14.8737579470611
30
0
41
1
10
7.32027543417371
20
-14.9388960692562
30
0
41
1
10
7.52670773980049
20
-14.9626266123879
30
0
41
1
10
7.98418565537966
20
-14.9756174446715
30
0
41
1
10
8.22804597185922
20
-14.9649211900702
30
0
41
1
10
8.61317848909542
20
-14.9272737370432
30
0
41
1
10
8.74545988509425
20
-14.910960168065
30
0
41
1
10
9.01217244442941
20
-14.8718421564028
30
0
41
1
10
9.14682372052917
20
-14.8490484917959
30
0
41
1
10
9.55453473354032
20
-14.7715097209787
30
0
41
1
10
9.83129300247225
20
-14.7077395527699
30
0
41
1
10
10.1133859090371
20
-14.6316600620104
30
0
0
SPLINE
5
2B2
100
AcDbEntity
8
1
62
256
6
ByLayer
370
13
48
1
60
0
100
AcDbSpline
70
4
71
3
72
8
73
4
40
0
40
0
40
0
40
0
40
1
40
1
40
1
40
1
41
1
10
96.8991850956155
20
1.95509742395282
30
0
41
1
10
96.7422174032346
20
2.03358953049775
30
0
41
1
10
96.5854237461025
20
2.11272848780902
30
0
41
1
10
96.4288021025958
20
2.19250678195692
30
0
0
SPLINE
5
2B3
100
AcDbEntity
8
1
62
256
6
ByLayer
370
13
48
1
60
0
100
AcDbSpline
70
4
71
3
72
23
73
19
40
0
40
0
40
0
40
0
40
0.125000000000002
40
0.125000000000002
40
0.187500000000002
40
0.187500000000002
40
0.250000000000003
40
0.312500000000003
40
0.312500000000003
40
0.343750000000003
40
0.343750000000003
40
0.375000000000004
40
0.375000000000004
40
0.500000000000003
40
0.500000000000003
40
0.750000000000002
40
0.750000000000002
40
1
40
1
40
1
40
1
41
1
10
20.3304203151648
20
-4.126665832665
30
0
41
1
10
19.872451048946
20
-4.1856714817161
30
0
41
1
10
19.4202530392583
20
-4.26861075902215
30
0
41
1
10
18.7505997125731
20
-4.42886538909082
30
0
41
1
10
18.52847711798
20
-4.48842669027224
30
0
41
1
10
18.0934091397869
20
-4.61771000226813
30
0
41
1
10
17.6659522870326
20
-4.75747936624543
30
0
41
1
10
17.2532209467142
20
-4.91753646429049
30
0
41
1
10
16.9490923445541
20
-5.04504643389538
30
0
41
1
10
16.8486203116208
20
-5.08879545334636
30
0
41
1
10
16.6494775837539
20
-5.17877524400134
30
0
41
1
10
16.5509859231446
20
-5.22525267560351
30
0
41
1
10
16.0547398700506
20
-5.45242134862045
30
0
41
1
10
15.6519741365769
20
-5.6262083309303
30
0
41
1
10
14.4267329628871
20
-6.12422511070679
30
0
41
1
10
13.5859536693446
20
-6.42550744745975
30
0
41
1
10
11.8738250583702
20
-6.96256014841947
30
0
41
1
10
11.0011534105497
20
-7.19897069718061
30
0
41
1
10
10.1120135015211
20
-7.40353440368384
30
0
0
SPLINE
5
2B4
100
AcDbEntity
8
1
62
256
6
ByLayer
370
13
48
1
60
0
100
AcDbSpline
70
4
71
3
72
16
73
12
40
0
40
0
40
0
40
0
40
0.249999999999999
40
0.249999999999999
40
0.499999999999999
40
0.499999999999999
40
0.624999999999999
40
0.624999999999999
40
0.749999999999999
40
0.749999999999999
40
1
40
1
40
1
40
1
41
1
10
111.948502221639
20
0.333258503213102
30
0
41
1
10
111.94961292196
20
0.38511363989241
30
0
41
1
10
111.951447864631
20
0.43496595150603
30
0
41
1
10
111.956587270561
20
0.524385657703078
30
0
41
1
10
111.959965013014
20
0.564963687143177
30
0
41
1
10
111.965957467049
20
0.614108353370824
30
0
41
1
10
111.968117944276
20
0.628723324021166
30
0
41
1
10
111.97279015315
20
0.6541462157669
30
0
41
1
10
111.975294262871
20
0.664841198914075
30
0
41
1
10
111.983042205493
20
0.689633259096865
30
0
41
1
10
111.988703441773
20
0.697091302312145
30
0
41
1
10
111.994558701796
20
0.694233047968794
30
0
0
SPLINE
5
2B5
100
AcDbEntity
8
1
62
256
6
ByLayer
370
13
48
1
60
0
100
AcDbSpline
70
4
71
3
72
8
73
4
40
0
40
0
40
0
40
0
40
1
40
1
40
1
40
1
41
1
10
98.7337681261916
20
1.13759710589886
30
0
41
1
10
98.1094198859058
20
1.39040776225968
30
0
41
1
10
97.49532996983
20
1.65699361498866
30
0
41
1
10
96.8991850956156
20
1.95509742395279
30
0
0
SPLINE
5
2B6
100
AcDbEntity
8
1
62
256
6
ByLayer
370
13
48
1
60
0
100
AcDbSpline
70
4
71
3
72
8
73
4
40
0
40
0
40
0
40
0
40
1
40
1
40
1
40
1
41
1
10
111.952400863405
20
0.135893613013707
30
0
41
1
10
111.951783824894
20
0.146243707239449
30
0
41
1
10
111.951243698922
20
0.156514045859154
30
0
41
1
10
111.950778644538
20
0.166705997878466
30
0
0
SPLINE
5
2B7
100
AcDbEntity
8
1
62
256
6
ByLayer
370
13
48
1
60
0
100
AcDbSpline
70
4
71
3
72
10
73
6
40
0
40
0
40
0
40
0
40
0.5
40
0.5
40
1
40
1
40
1
40
1
41
1
10
102.008056994716
20
4.13926735806959
30
0
41
1
10
101.999736237153
20
4.19879893899136
30
0
41
1
10
101.993481327809
20
4.26145164748175
30
0
41
1
10
101.985484253783
20
4.38974631527938
30
0
41
1
10
101.983654316791
20
4.45584810214433
30
0
41
1
10
101.984617836019
20
4.52406285335917
30
0
0
SPLINE
5
2B8
100
AcDbEntity
8
1
62
256
6
ByLayer
370
13
48
1
60
0
100
AcDbSpline
70
4
71
1
72
4
73
2
40
0
40
0
40
1
40
1
41
1
10
22.45
20
-5.87178094883115
30
0
41
1
10
22
20
-5.87178094883115
30
0
0
SPLINE
5
2B9
100
AcDbEntity
8
1
62
256
6
ByLayer
370
13
48
1
60
0
100
AcDbSpline
70
4
71
3
72
12
73
8
40
0
40
0
40
0
40
0
40
0.250000000000005
40
0.250000000000005
40
0.500000000000009
40
0.500000000000009
40
1
40
1
40
1
40
1
41
1
10
101.965561224209
20
5.12836668058259
30
0
41
1
10
101.968775117682
20
5.16465721833149
30
0
41
1
10
101.969897079648
20
5.20148958901825
30
0
41
1
10
101.967065329233
20
5.27400685119173
30
0
41
1
10
101.963150355774
20
5.30987268456377
30
0
41
1
10
101.942756112623
20
5.41611072063429
30
0
41
1
10
101.916825875816
20
5.48604294052217
30
0
41
1
10
101.878357232822
20
5.54880254117617
30
0
0
SPLINE
5
2BA
100
AcDbEntity
8
1
62
256
6
ByLayer
370
13
48
1
60
0
100
AcDbSpline
70
4
71
3
72
8
73
4
40
0
40
0
40
0
40
0
40
1
40
1
40
1
40
1
41
1
10
101.375424841584
20
3.22896844172101
30
0
41
1
10
101.594195803512
20
3.53654396833724
30
0
41
1
10
101.79859462245
20
3.8448340979956
30
0
41
1
10
102.008056994716
20
4.13926735806965
30
0
0
SPLINE
5
2BB
100
AcDbEntity
8
1
62
256
6
ByLayer
370
13
48
1
60
0
100
AcDbSpline
70
4
71
3
72
8
73
4
40
0
40
0
40
0
40
0
40
1
40
1
40
1
40
1
41
1
10
100.482778628947
20
-0.0699416179294303
30
0
41
1
10
100.964919581248
20
-0.106421790171453
30
0
41
1
10
101.447080993452
20
-0.142720306625876
30
0
41
1
10
101.929261594279
20
-0.178844970389377
30
0
0
SPLINE
5
2BC
100
AcDbEntity
8
1
62
256
6
ByLayer
370
13
48
1
60
0
100
AcDbSpline
70
4
71
3
72
8
73
4
40
0
40
0
40
0
40
0
40
1
40
1
40
1
40
1
41
1
10
111.963888539741
20
0.498556359309276
30
0
41
1
10
112.044547575778
20
0.532090409562102
30
0
41
1
10
112.125147752236
20
0.555305624211911
30
0
41
1
10
112.206322591666
20
0.570299458979122
30
0
0
SPLINE
5
2BD
100
AcDbEntity
8
1
62
256
6
ByLayer
370
13
48
1
60
0
100
AcDbSpline
70
4
71
3
72
8
73
4
40
0
40
0
40
0
40
0
40
1
40
1
40
1
40
1
41
1
10
0.0999999999999659
20
-3.96862696659682
30
0
41
1
10
0.0650328392778476
20
-3.82765262553048
30
0
41
1
10
0.0316759574587309
20
-3.68612145608716
30
0
41
1
10
0
20
-3.54400902933392
30
0
0
SPLINE
5
2BE
100
AcDbEntity
8
1
62
256
6
ByLayer
370
13
48
1
60
0
100
AcDbSpline
70
4
71
3
72
16
73
12
40
0
40
0
40
0
40
0
40
0.250000000000004
40
0.250000000000004
40
0.375000000000004
40
0.375000000000004
40
0.500000000000004
40
0.500000000000004
40
0.750000000000002
40
0.750000000000002
40
1
40
1
40
1
40
1
41
1
10
22
20
-10.1801897644701
30
0
41
1
10
21.8443398943231
20
-10.1804617385027
30
0
41
1
10
21.6919199498865
20
-10.195313572447
30
0
41
1
10
21.4677493307569
20
-10.2376569708512
30
0
41
1
10
21.393773079247
20
-10.2551340342341
30
0
41
1
10
21.2472914449226
20
-10.2967066771611
30
0
41
1
10
21.1745228869284
20
-10.3209347170936
30
0
41
1
10
20.9628890810657
20
-10.4016630750792
30
0
41
1
10
20.8292444180681
20
-10.4664392880294
30
0
41
1
10
20.5748999165516
20
-10.6150446583202
30
0
41
1
10
20.4537418149887
20
-10.6994699260125
30
0
41
1
10
20.341953728445
20
-10.789711687704
30
0
0
SPLINE
5
2BF
100
AcDbEntity
8
1
62
256
6
ByLayer
370
13
48
1
60
0
100
AcDbSpline
70
4
71
3
72
12
73
8
40
0
40
0
40
0
40
0
40
0.250000000000005
40
0.250000000000005
40
0.50000000000001
40
0.50000000000001
40
1
40
1
40
1
40
1
41
1
10
100.595338966858
20
4.82353038758777
30
0
41
1
10
100.717423940121
20
4.83835770229516
30
0
41
1
10
100.836097549027
20
4.85751407943749
30
0
41
1
10
101.069540712484
20
4.90123009883283
30
0
41
1
10
101.184268542367
20
4.92581208882999
30
0
41
1
10
101.524591590775
20
5.00496886334821
30
0
41
1
10
101.746420649695
20
5.06480278386988
30
0
41
1
10
101.965561224196
20
5.12836668058469
30
0
0
SPLINE
5
2C0
100
AcDbEntity
8
1
62
256
6
ByLayer
370
13
48
1
60
0
100
AcDbSpline
70
4
71
3
72
8
73
4
40
0
40
0
40
0
40
0
40
1
40
1
40
1
40
1
41
1
10
111.950778644538
20
0.166705997878523
30
0
41
1
10
111.948105391177
20
0.223644344439322
30
0
41
1
10
111.947345302088
20
0.279245534687249
30
0
41
1
10
111.948502221639
20
0.333258503213074
30
0
0
SPLINE
5
2C1
100
AcDbEntity
8
1
62
256
6
ByLayer
370
13
48
1
60
0
100
AcDbSpline
70
4
71
3
72
8
73
4
40
0
40
0
40
0
40
0
40
1
40
1
40
1
40
1
41
1
10
100.337359810718
20
1.11076234932466
30
0
41
1
10
100.502237292631
20
1.0725241669019
30
0
41
1
10
100.667516145846
20
1.03521709023895
30
0
41
1
10
100.833321026823
20
0.999130298820575
30
0
0
SPLINE
5
2C2
100
AcDbEntity
8
1
62
256
6
ByLayer
370
13
48
1
60
0
100
AcDbSpline
70
4
71
3
72
14
73
10
40
0
40
0
40
0
40
0
40
0.25
40
0.25
40
0.5
40
0.5
40
0.75
40
0.75
40
1
40
1
40
1
40
1
41
1
10
99.6928181356969
20
4.24643239330842
30
0
41
1
10
99.7028201433803
20
4.27982851713139
30
0
41
1
10
99.7120969918977
20
4.31669567851353
30
0
41
1
10
99.7300654146545
20
4.39734260667296
30
0
41
1
10
99.7384371531227
20
4.43983636604634
30
0
41
1
10
99.7545829100185
20
4.52738348789282
30
0
41
1
10
99.7623317788891
20
4.57261593992314
30
0
41
1
10
99.7781150012674
20
4.66056944855563
30
0
41
1
10
99.7860011900792
20
4.70456839851542
30
0
41
1
10
99.7971378492937
20
4.74500881926875
30
0
0
SPLINE
5
2C3
100
AcDbEntity
8
1
62
256
6
ByLayer
370
13
48
1
60
0
100
AcDbSpline
70
4
71
3
72
10
73
6
40
0
40
0
40
0
40
0
40
0.5
40
0.5
40
1
40
1
40
1
40
1
41
1
10
100.999901771375
20
3.1119697016218
30
0
41
1
10
100.783117626946
20
3.25163191121157
30
0
41
1
10
100.555236500471
20
3.37782853816685
30
0
41
1
10
100.083605419703
20
3.61096583479301
30
0
41
1
10
99.8397744336506
20
3.71780817684061
30
0
41
1
10
99.5895037155601
20
3.81683625519582
30
0
0
SPLINE
5
2C4
100
AcDbEntity
8
1
62
256
6
ByLayer
370
13
48
1
60
0
100
AcDbSpline
70
4
71
3
72
8
73
4
40
0
40
0
40
0
40
0
40
1
40
1
40
1
40
1
41
1
10
99.2631836576408
20
10.4416885217202
30
0
41
1
10
99.1518857331591
20
10.4466507493429
30
0
41
1
10
99.0405789989884
20
10.451281233621
30
0
41
1
10
98.9292615942786
20
10.4555799561051
30
0
0
SPLINE
5
2C5
100
AcDbEntity
8
1
62
256
6
ByLayer
370
13
48
1
60
0
100
AcDbSpline
70
4
71
3
72
10
73
6
40
0
40
0
40
0
40
0
40
0.5
40
0.5
40
1
40
1
40
1
40
1
41
1
10
99.8896358984165
20
4.78382133817439
30
0
41
1
10
99.9533054917998
20
4.7840700948199
30
0
41
1
10
100.016421213292
20
4.78201675329223
30
0
41
1
10
100.141527441294
20
4.77314185740715
30
0
41
1
10
100.203854901427
20
4.76626021410047
30
0
41
1
10
100.264572145098
20
4.75699936839436
30
0
0
SPLINE
5
2C6
100
AcDbEntity
8
1
62
256
6
ByLayer
370
13
48
1
60
0
100
AcDbSpline
70
4
71
3
72
10
73
6
40
0
40
0
40
0
40
0
40
0.5
40
0.5
40
1
40
1
40
1
40
1
41
1
10
106.484493751364
20
3.65391503468118
30
0
41
1
10
106.714151426961
20
3.71165391136464
30
0
41
1
10
106.934920819171
20
3.7577106825116
30
0
41
1
10
107.357177259657
20
3.83186734953065
30
0
41
1
10
107.558647559908
20
3.85993840349605
30
0
41
1
10
107.74900056084
20
3.88130695623315
30
0
0
SPLINE
5
2C7
100
AcDbEntity
8
1
62
256
6
ByLayer
370
13
48
1
60
0
100
AcDbSpline
70
4
71
3
72
8
73
4
40
0
40
0
40
0
40
0
40
1
40
1
40
1
40
1
41
1
10
105.9271776049
20
4.45520980032509
30
0
41
1
10
105.890005071052
20
4.45326167037578
30
0
41
1
10
105.852840599772
20
4.45131396296779
30
0
41
1
10
105.815683022158
20
4.4493666168415
30
0
0
SPLINE
5
2C8
100
AcDbEntity
8
1
62
256
6
ByLayer
370
13
48
1
60
0
100
AcDbSpline
70
4
71
3
72
8
73
4
40
0
40
0
40
0
40
0
40
1
40
1
40
1
40
1
41
1
10
99.0076914941781
20
9.96515653659853
30
0
41
1
10
99.0947010028835
20
10.1229961790308
30
0
41
1
10
99.1798106461912
20
10.2818697862988
30
0
41
1
10
99.2631836576406
20
10.4416885217196
30
0
0
SPLINE
5
2C9
100
AcDbEntity
8
1
62
256
6
ByLayer
370
13
48
1
60
0
100
AcDbSpline
70
4
71
3
72
8
73
4
40
0
40
0
40
0
40
0
40
1
40
1
40
1
40
1
41
1
10
105.815683022158
20
4.4493666168415
30
0
41
1
10
105.797786498634
20
4.42220656488416
30
0
41
1
10
105.782619362704
20
4.39315794897806
30
0
41
1
10
105.770642690873
20
4.36310738897623
30
0
0
SPLINE
5
2CA
100
AcDbEntity
8
1
62
256
6
ByLayer
370
13
48
1
60
0
100
AcDbSpline
70
4
71
3
72
12
73
8
40
0
40
0
40
0
40
0
40
0.250000000000011
40
0.250000000000011
40
0.500000000000023
40
0.500000000000023
40
1
40
1
40
1
40
1
41
1
10
109.000906053843
20
4.61629708245331
30
0
41
1
10
109.049096121675
20
4.61882261689183
30
0
41
1
10
109.09803311357
20
4.62437085019886
30
0
41
1
10
109.194589963666
20
4.64144922992656
30
0
41
1
10
109.242524790673
20
4.65299095441426
30
0
41
1
10
109.384292297025
20
4.69647971641379
30
0
41
1
10
109.476617086792
20
4.73710275197567
30
0
41
1
10
109.567793234018
20
4.79215261495111
30
0
0
SPLINE
5
2CB
100
AcDbEntity
8
1
62
256
6
ByLayer
370
13
48
1
60
0
100
AcDbSpline
70
4
71
1
72
4
73
2
40
0
40
0
40
1
40
1
41
1
10
22.01
20
-10.1761378914964
30
0
41
1
10
22.01
20
-5.87708347644366
30
0
0
SPLINE
5
2CC
100
AcDbEntity
8
1
62
256
6
ByLayer
370
13
48
1
60
0
100
AcDbSpline
70
4
71
3
72
8
73
4
40
0
40
0
40
0
40
0
40
1
40
1
40
1
40
1
41
1
10
27
20
-3.62509132717969
30
0
41
1
10
25.3333329115155
20
-3.62625935709664
30
0
41
1
10
23.6666660503237
20
-3.62658379074904
30
0
41
1
10
22
20
-3.62389817104599
30
0
0
SPLINE
5
2CD
100
AcDbEntity
8
1
62
256
6
ByLayer
370
13
48
1
60
0
100
AcDbSpline
70
4
71
3
72
8
73
4
40
0
40
0
40
0
40
0
40
1
40
1
40
1
40
1
41
1
10
101.984617836019
20
4.52406285335468
30
0
41
1
10
101.98532766657
20
4.57431708079309
30
0
41
1
10
101.987548444656
20
4.62477869531591
30
0
41
1
10
101.991730345508
20
4.67543409584908
30
0
0
SPLINE
5
2CE
100
AcDbEntity
8
1
62
256
6
ByLayer
370
13
48
1
60
0
100
AcDbSpline
70
4
71
3
72
10
73
6
40
0
40
0
40
0
40
0
40
0.5
40
0.5
40
1
40
1
40
1
40
1
41
1
10
97.0010293635133
20
1.25505329121432
30
0
41
1
10
97.2940749504882
20
1.03503018753651
30
0
41
1
10
97.6009950727944
20
0.841103505982488
30
0
41
1
10
98.2432397923776
20
0.507340355659608
30
0
41
1
10
98.5785258875026
20
0.367428463904048
30
0
41
1
10
98.9292615942782
20
0.257202975699357
30
0
0
SPLINE
5
2CF
100
AcDbEntity
8
1
62
256
6
ByLayer
370
13
48
1
60
0
100
AcDbSpline
70
4
71
3
72
14
73
10
40
0
40
0
40
0
40
0
40
0.25
40
0.25
40
0.5
40
0.5
40
0.75
40
0.75
40
1
40
1
40
1
40
1
41
1
10
105.31024358972
20
3.93244592288664
30
0
41
1
10
105.323830254661
20
3.94224543045971
30
0
41
1
10
105.343431544595
20
3.95882892065694
30
0
41
1
10
105.387141767473
20
4.00068500872482
30
0
41
1
10
105.411196139987
20
4.02584039315101
30
0
41
1
10
105.461002767922
20
4.08404866473242
30
0
41
1
10
105.486494146401
20
4.11688355339339
30
0
41
1
10
105.535109103352
20
4.18745108954568
30
0
41
1
10
105.558570652601
20
4.22553681950592
30
0
41
1
10
105.58067222697
20
4.26697082466086
30
0
0
SPLINE
5
2D0
100
AcDbEntity
8
1
62
256
6
ByLayer
370
13
48
1
60
0
100
AcDbSpline
70
4
71
3
72
10
73
6
40
0
40
0
40
0
40
0
40
0.5
40
0.5
40
1
40
1
40
1
40
1
41
1
10
107.784614108077
20
4.55255392261589
30
0
41
1
10
107.47561328258
20
4.53635987555495
30
0
41
1
10
107.166164520482
20
4.52014235313152
30
0
41
1
10
106.546774559415
20
4.48768150076177
30
0
41
1
10
106.23684418699
20
4.47143873821062
30
0
41
1
10
105.9271776049
20
4.45520980032509
30
0
0
SPLINE
5
2D1
100
AcDbEntity
8
1
62
256
6
ByLayer
370
13
48
1
60
0
100
AcDbSpline
70
4
71
3
72
20
73
16
40
0
40
0
40
0
40
0
40
0.125
40
0.125
40
0.25
40
0.25
40
0.375
40
0.375
40
0.500000000000001
40
0.500000000000001
40
0.625000000000001
40
0.625000000000001
40
0.75
40
0.75
40
1
40
1
40
1
40
1
41
1
10
100.2645721451
20
4.75699936839772
30
0
41
1
10
100.34948247988
20
4.71750819793454
30
0
41
1
10
100.431501953435
20
4.67225760529752
30
0
41
1
10
100.588384911424
20
4.57089843772263
30
0
41
1
10
100.661317161939
20
4.51612631502522
30
0
41
1
10
100.797465282667
20
4.40023164035284
30
0
41
1
10
100.860701524673
20
4.33914736519884
30
0
41
1
10
100.978239894701
20
4.21183729116021
30
0
41
1
10
101.032651572125
20
4.1453375102985
30
0
41
1
10
101.129275961409
20
4.01126978168682
30
0
41
1
10
101.1719655966
20
3.94317277737369
30
0
41
1
10
101.245909672973
20
3.80416246862188
30
0
41
1
10
101.277278907443
20
3.73286255674978
30
0
41
1
10
101.352431436262
20
3.51670052935938
30
0
41
1
10
101.377014068915
20
3.3731135451213
30
0
41
1
10
101.375424841584
20
3.22896844172104
30
0
0
SPLINE
5
2D2
100
AcDbEntity
8
1
62
256
6
ByLayer
370
13
48
1
60
0
100
AcDbSpline
70
4
71
3
72
14
73
10
40
0
40
0
40
0
40
0
40
0.25
40
0.25
40
0.375000000000003
40
0.375000000000003
40
0.500000000000006
40
0.500000000000006
40
1
40
1
40
1
40
1
41
1
10
20.3304203151648
20
-4.126665832665
30
0
41
1
10
20.453275530075
20
-4.04509445387137
30
0
41
1
10
20.5811923135063
20
-3.97307719925632
30
0
41
1
10
20.7804836289604
20
-3.87926098557364
30
0
41
1
10
20.848155091213
20
-3.85036613120653
30
0
41
1
10
20.9860113602308
20
-3.79742056430283
30
0
41
1
10
21.0564721483283
20
-3.77329139147463
30
0
41
1
10
21.4115334547349
20
-3.66624833956016
30
0
41
1
10
21.7023560994217
20
-3.62341855587428
30
0
41
1
10
22
20
-3.62389817104599
30
0
0
SPLINE
5
2D3
100
AcDbEntity
8
1
62
256
6
ByLayer
370
13
48
1
60
0
100
AcDbSpline
70
4
71
3
72
14
73
10
40
0
40
0
40
0
40
0
40
0.500000000000003
40
0.500000000000003
40
0.625000000000002
40
0.625000000000002
40
0.750000000000001
40
0.750000000000001
40
1
40
1
40
1
40
1
41
1
10
22
20
-10.7020549205273
30
0
41
1
10
21.7039857936798
20
-10.7020242984105
30
0
41
1
10
21.415310323415
20
-10.7119382477746
30
0
41
1
10
21.0634887578266
20
-10.7328959692179
30
0
41
1
10
20.9933141771257
20
-10.7375196828555
30
0
41
1
10
20.8559197911319
20
-10.747266205041
30
0
41
1
10
20.7885604671265
20
-10.7523936915764
30
0
41
1
10
20.5904178892001
20
-10.7681716456143
30
0
41
1
10
20.4635498729311
20
-10.7792333215656
30
0
41
1
10
20.3419537284451
20
-10.789711687704
30
0
0
SPLINE
5
2D4
100
AcDbEntity
8
1
62
256
6
ByLayer
370
13
48
1
60
0
100
AcDbSpline
70
4
71
3
72
8
73
4
40
0
40
0
40
0
40
0
40
1
40
1
40
1
40
1
41
1
10
0
20
3.54400902933392
30
0
41
1
10
0.0316790368941895
20
3.68613527180352
30
0
41
1
10
0.0650361897271239
20
3.82766613327235
30
0
41
1
10
0.0999999999999943
20
3.96862696659682
30
0
0
SPLINE
5
2D5
100
AcDbEntity
8
1
62
256
6
ByLayer
370
13
48
1
60
0
100
AcDbSpline
70
4
71
3
72
8
73
4
40
0
40
0
40
0
40
0
40
1
40
1
40
1
40
1
41
1
10
102.085218963471
20
-10.68560573995
30
0
41
1
10
102.033298443041
20
-10.6844627144357
30
0
41
1
10
101.981311115886
20
-10.6833169024003
30
0
41
1
10
101.929261594279
20
-10.6821709144678
30
0
0
SPLINE
5
2D6
100
AcDbEntity
8
1
62
256
6
ByLayer
370
13
48
1
60
0
100
AcDbSpline
70
4
71
3
72
17
73
13
40
0
40
0
40
0
40
0
40
0.25
40
0.25
40
0.375
40
0.375
40
0.5
40
0.625
40
0.625
40
0.749999999999999
40
0.749999999999999
40
1
40
1
40
1
40
1
41
1
10
98.7339740711815
20
1.13751372665837
30
0
41
1
10
98.8608861523604
20
1.08613919415853
30
0
41
1
10
98.9915381293814
20
1.04662696166724
30
0
41
1
10
99.1931115190399
20
1.00519217081916
30
0
41
1
10
99.2616139020183
20
0.994356923964318
30
0
41
1
10
99.3975609956611
20
0.979201061940842
30
0
41
1
10
99.5329352801557
20
0.970389785762052
30
0
41
1
10
99.6672247223312
20
0.973859180999199
30
0
41
1
10
99.8009746256016
20
0.983446646332283
30
0
41
1
10
99.8678922111284
20
0.991364602303207
30
0
41
1
10
100.064640470683
20
1.02391928950917
30
0
41
1
10
100.190921867464
20
1.05717699383075
30
0
41
1
10
100.312358472499
20
1.10147070683425
30
0
0
SPLINE
5
2D7
100
AcDbEntity
8
1
62
256
6
ByLayer
370
13
48
1
60
0
100
AcDbSpline
70
4
71
3
72
36
73
32
40
0
40
0
40
0
40
0
40
0.0624999999999999
40
0.0624999999999999
40
0.125
40
0.125
40
0.25
40
0.25
40
0.3125
40
0.3125
40
0.375
40
0.375
40
0.4375
40
0.4375
40
0.5
40
0.5
40
0.5625
40
0.5625
40
0.625
40
0.625
40
0.6875
40
0.6875
40
0.75
40
0.75
40
0.8125
40
0.8125
40
0.875
40
0.875
40
0.9375
40
0.9375
40
1
40
1
40
1
40
1
41
1
10
105.770642690873
20
4.3631073889764
30
0
41
1
10
105.745138836056
20
4.29911589531739
30
0
41
1
10
105.715345555187
20
4.23786525190172
30
0
41
1
10
105.648956025106
20
4.12289653632945
30
0
41
1
10
105.611910210595
20
4.0683827895617
30
0
41
1
10
105.4915764912
20
3.9162016686526
30
0
41
1
10
105.400901118469
20
3.83090994564611
30
0
41
1
10
105.246243992866
20
3.72332133773128
30
0
41
1
10
105.191664955408
20
3.69113712312057
30
0
41
1
10
105.077772360572
20
3.63535316796086
30
0
41
1
10
105.018150380609
20
3.6115019696372
30
0
41
1
10
104.891436283649
20
3.5723735733423
30
0
41
1
10
104.824937707109
20
3.55742296233302
30
0
41
1
10
104.688791425248
20
3.53819356812286
30
0
41
1
10
104.617583273741
20
3.53382307129439
30
0
41
1
10
104.477518528446
20
3.53610802215948
30
0
41
1
10
104.408177096177
20
3.5425436451377
30
0
41
1
10
104.270925129931
20
3.56538453031894
30
0
41
1
10
104.20493167205
20
3.5814408594093
30
0
41
1
10
104.076764245779
20
3.62202945065064
30
0
41
1
10
104.014605438001
20
3.64657608055779
30
0
41
1
10
103.893497996146
20
3.70446084021015
30
0
41
1
10
103.835249966539
20
3.73751414065438
30
0
41
1
10
103.724366653697
20
3.81123488633094
30
0
41
1
10
103.671489739579
20
3.85201317370681
30
0
41
1
10
103.570889744627
20
3.94228092593781
30
0
41
1
10
103.523143001759
20
3.9919535382013
30
0
41
1
10
103.436309150376
20
4.0977086722711
30
0
41
1
10
103.396782507622
20
4.15412627102793
30
0
41
1
10
103.326189687562
20
4.27505963927962
30
0
41
1
10
103.295717688772
20
4.33879427314662
30
0
41
1
10
103.271036005985
20
4.40411741843468
30
0
0
SPLINE
5
2D8
100
AcDbEntity
8
1
62
256
6
ByLayer
370
13
48
1
60
0
100
AcDbSpline
70
4
71
3
72
10
73
6
40
0
40
0
40
0
40
0
40
0.5
40
0.5
40
1
40
1
40
1
40
1
41
1
10
98.9292615942786
20
0.257202975700125
30
0
41
1
10
99.1821401008688
20
0.168678292609968
30
0
41
1
10
99.4380603817183
20
0.0971343737060408
30
0
41
1
10
99.955879082581
20
-0.012143127683089
30
0
41
1
10
100.217775149739
20
-0.04989069190853
30
0
41
1
10
100.482778628947
20
-0.0699416179294587
30
0
0
SPLINE
5
2D9
100
AcDbEntity
8
1
62
256
6
ByLayer
370
13
48
1
60
0
100
AcDbSpline
70
4
71
3
72
8
73
4
40
0
40
0
40
0
40
0
40
1
40
1
40
1
40
1
41
1
10
99.0076914941771
20
9.96515653659668
30
0
41
1
10
99.3536493641149
20
9.36165741972357
30
0
41
1
10
99.7388030503585
20
8.78325591254568
30
0
41
1
10
100.170349060005
20
8.23456003559454
30
0
0
SPLINE
5
2DA
100
AcDbEntity
8
1
62
256
6
ByLayer
370
13
48
1
60
0
100
AcDbSpline
70
4
71
3
72
10
73
6
40
0
40
0
40
0
40
0
40
0.5
40
0.5
40
1
40
1
40
1
40
1
41
1
10
101.929261594279
20
-10.6821709144678
30
0
41
1
10
101.435239367666
20
-10.6537891507794
30
0
41
1
10
100.937619620049
20
-10.6256859491462
30
0
41
1
10
99.9370229728434
20
-10.5720397082932
30
0
41
1
10
99.4340349923963
20
-10.5464637161541
30
0
41
1
10
98.9292615942786
20
-10.5221365837037
30
0
0
SPLINE
5
2DB
100
AcDbEntity
8
1
62
256
6
ByLayer
370
13
48
1
60
0
100
AcDbSpline
70
4
71
3
72
10
73
6
40
0
40
0
40
0
40
0
40
0.5
40
0.5
40
1
40
1
40
1
40
1
41
1
10
100.356213053519
20
4.7731974202178
30
0
41
1
10
100.395197029421
20
4.78439838279365
30
0
41
1
10
100.434462081941
20
4.79473903434067
30
0
41
1
10
100.513921921111
20
4.81232981762605
30
0
41
1
10
100.554069547221
20
4.81976141158219
30
0
41
1
10
100.595338966858
20
4.82353038758828
30
0
0
SPLINE
5
2DC
100
AcDbEntity
8
1
62
256
6
ByLayer
370
13
48
1
60
0
100
AcDbSpline
70
4
71
3
72
10
73
6
40
0
40
0
40
0
40
0
40
0.469968488499614
40
0.469968488499614
40
1
40
1
40
1
40
1
41
1
10
22.45
20
-10.1665147842499
30
0
41
1
10
22.45
20
-9.49371823512763
30
0
41
1
10
22.45
20
-8.82092169814754
30
0
41
1
10
22.45
20
-7.38934374934686
30
0
41
1
10
22.45
20
-6.6305623408474
30
0
41
1
10
22.45
20
-5.87178094798387
30
0
0
SPLINE
5
2DD
100
AcDbEntity
8
1
62
256
6
ByLayer
370
13
48
1
60
0
100
AcDbSpline
70
4
71
3
72
12
73
8
40
0
40
0
40
0
40
0
40
0.249999999999915
40
0.249999999999915
40
0.499999999999829
40
0.499999999999829
40
1
40
1
40
1
40
1
41
1
10
99.7971378492886
20
4.74500881925013
30
0
41
1
10
99.7994571650464
20
4.75343092351929
30
0
41
1
10
99.8057047912459
20
4.7601500563315
30
0
41
1
10
99.8200168969942
20
4.77017763594037
30
0
41
1
10
99.8282574256847
20
4.77374438507846
30
0
41
1
10
99.85359908206
20
4.7817696280247
30
0
41
1
10
99.8713361255434
20
4.78373633836043
30
0
41
1
10
99.8895446092254
20
4.78382091592258
30
0
0
SPLINE
5
2DE
100
AcDbEntity
8
1
62
256
6
ByLayer
370
13
48
1
60
0
100
AcDbSpline
70
4
71
3
72
8
73
4
40
0
40
0
40
0
40
0
40
1
40
1
40
1
40
1
41
1
10
100.356213053519
20
4.77319742021848
30
0
41
1
10
100.32751415654
20
4.76359808058396
30
0
41
1
10
100.296396243619
20
4.75842112271377
30
0
41
1
10
100.264572145099
20
4.75699936839433
30
0
0
SPLINE
5
2DF
100
AcDbEntity
8
1
62
256
6
ByLayer
370
13
48
1
60
0
100
AcDbSpline
70
4
71
3
72
14
73
10
40
0
40
0
40
0
40
0
40
0.25
40
0.25
40
0.5
40
0.5
40
0.75
40
0.75
40
1
40
1
40
1
40
1
41
1
10
111.85003594654
20
4.26492748001951
30
0
41
1
10
111.742449452102
20
4.25928911076517
30
0
41
1
10
111.637535927653
20
4.26649286813864
30
0
41
1
10
111.431112555831
20
4.30278036372394
30
0
41
1
10
111.334166567291
20
4.33103596617832
30
0
41
1
10
111.14825169686
20
4.40604137610418
30
0
41
1
10
111.058590803314
20
4.45349376328653
30
0
41
1
10
110.892181785317
20
4.56599568656873
30
0
41
1
10
110.814644367765
20
4.63115921902147
30
0
41
1
10
110.743157309941
20
4.70760460160821
30
0
0
SPLINE
5
2E0
100
AcDbEntity
8
1
62
256
6
ByLayer
370
13
48
1
60
0
100
AcDbSpline
70
4
71
3
72
14
73
10
40
0
40
0
40
0
40
0
40
0.25
40
0.25
40
0.5
40
0.5
40
0.75
40
0.75
40
1
40
1
40
1
40
1
41
1
10
105.25326789314
20
4.29305545845367
30
0
41
1
10
105.283094167157
20
4.28606925866271
30
0
41
1
10
105.31029455657
20
4.27754597597126
30
0
41
1
10
105.355672191697
20
4.25845965600521
30
0
41
1
10
105.37455178432
20
4.24760366937775
30
0
41
1
10
105.402315696261
20
4.22470626239337
30
0
41
1
10
105.411395701105
20
4.21270754661231
30
0
41
1
10
105.420304344011
20
4.18765046965066
30
0
41
1
10
105.419913853351
20
4.17496322296688
30
0
41
1
10
105.415283301176
20
4.1624795943396
30
0
0
SPLINE
5
2E1
100
AcDbEntity
8
1
62
256
6
ByLayer
370
13
48
1
60
0
100
AcDbSpline
70
4
71
3
72
8
73
4
40
0
40
0
40
0
40
0
40
1
40
1
40
1
40
1
41
1
10
107.220728460167
20
7.16275864747209
30
0
41
1
10
107.214401123794
20
7.16300927993927
30
0
41
1
10
107.208076322904
20
7.16325985609592
30
0
41
1
10
107.201753906595
20
7.16351037918508
30
0
0
SPLINE
5
2E2
100
AcDbEntity
8
1
62
256
6
ByLayer
370
13
48
1
60
0
100
AcDbSpline
70
4
71
3
72
8
73
4
40
0
40
0
40
0
40
0
40
1
40
1
40
1
40
1
41
1
10
108.95008859848
20
7.25339057190166
30
0
41
1
10
108.957023621432
20
7.25433625516914
30
0
41
1
10
108.963956870433
20
7.25528165627821
30
0
41
1
10
108.970888448592
20
7.25622679178403
30
0
0
SPLINE
5
2E3
100
AcDbEntity
8
1
62
256
6
ByLayer
370
13
48
1
60
0
100
AcDbSpline
70
4
71
3
72
16
73
12
40
0
40
0
40
0
40
0
40
0.125000000000001
40
0.125000000000001
40
0.250000000000002
40
0.250000000000002
40
0.500000000000001
40
0.500000000000001
40
0.750000000000001
40
0.750000000000001
40
1
40
1
40
1
40
1
41
1
10
107.882343813175
20
6.54643991189977
30
0
41
1
10
107.881815855576
20
6.53454609204533
30
0
41
1
10
107.878174992469
20
6.52311411996635
30
0
41
1
10
107.864582469498
20
6.50403164269278
30
0
41
1
10
107.854700697934
20
6.49645516463573
30
0
41
1
10
107.821303253559
20
6.48050414794727
30
0
41
1
10
107.793983944193
20
6.47789820902054
30
0
41
1
10
107.74075707644
20
6.4807367178945
30
0
41
1
10
107.714039057642
20
6.48617555990381
30
0
41
1
10
107.662042077406
20
6.50196316750214
30
0
41
1
10
107.636685793464
20
6.51238302492385
30
0
41
1
10
107.612311037967
20
6.52485965895687
30
0
0
SPLINE
5
2E4
100
AcDbEntity
8
1
62
256
6
ByLayer
370
13
48
1
60
0
100
AcDbSpline
70
4
71
3
72
16
73
12
40
0
40
0
40
0
40
0
40
0.25
40
0.25
40
0.5
40
0.5
40
0.75
40
0.75
40
0.875
40
0.875
40
1
40
1
40
1
40
1
41
1
10
108.547697684847
20
8.36910067016066
30
0
41
1
10
108.572075744758
20
8.35662234470669
30
0
41
1
10
108.595334913302
20
8.34208667293549
30
0
41
1
10
108.638506462323
20
8.30882216538078
30
0
41
1
10
108.658479869705
20
8.29010821961512
30
0
41
1
10
108.691711389076
20
8.24784015947904
30
0
41
1
10
108.705325701054
20
8.22404993221383
30
0
41
1
10
108.711645626351
20
8.18592593547325
30
0
41
1
10
108.711083986344
20
8.17297390305725
30
0
41
1
10
108.703153885716
20
8.14967900874845
30
0
41
1
10
108.6958346637
20
8.13948610767204
30
0
41
1
10
108.686271557199
20
8.13149195483396
30
0
0
SPLINE
5
2E5
100
AcDbEntity
8
1
62
256
6
ByLayer
370
13
48
1
60
0
100
AcDbSpline
70
4
71
3
72
8
73
4
40
0
40
0
40
0
40
0
40
1
40
1
40
1
40
1
41
1
10
108.686271557199
20
8.13149195483396
30
0
41
1
10
108.683440722466
20
8.1252730430484
30
0
41
1
10
108.680609471627
20
8.1190522520032
30
0
41
1
10
108.677777780161
20
8.11282946407175
30
0
0
SPLINE
5
2E6
100
AcDbEntity
8
1
62
256
6
ByLayer
370
13
48
1
60
0
100
AcDbSpline
70
4
71
3
72
8
73
4
40
0
40
0
40
0
40
0
40
1
40
1
40
1
40
1
41
1
10
108.25389075626
20
8.32980326179347
30
0
41
1
10
108.257754274934
20
8.33549789138226
30
0
41
1
10
108.261617017703
20
8.34119069570312
30
0
41
1
10
108.265479028849
20
8.34688178226693
30
0
0
SPLINE
5
2E7
100
AcDbEntity
8
1
62
256
6
ByLayer
370
13
48
1
60
0
100
AcDbSpline
70
4
71
3
72
8
73
4
40
0
40
0
40
0
40
0
40
1
40
1
40
1
40
1
41
1
10
108.358528312405
20
6.57139568403343
30
0
41
1
10
108.354092577228
20
6.57665190413942
30
0
41
1
10
108.349655934881
20
6.58190975611691
30
0
41
1
10
108.345218330086
20
6.58716934225913
30
0
0
SPLINE
5
2E8
100
AcDbEntity
8
1
62
256
6
ByLayer
370
13
48
1
60
0
100
AcDbSpline
70
4
71
3
72
16
73
12
40
0
40
0
40
0
40
0
40
0.249999999999999
40
0.249999999999999
40
0.499999999999999
40
0.499999999999999
40
0.749999999999998
40
0.749999999999998
40
0.874999999999999
40
0.874999999999999
40
1
40
1
40
1
40
1
41
1
10
108.641523451285
20
6.57879839595026
30
0
41
1
10
108.618583277121
20
6.5638402269287
30
0
41
1
10
108.594334152585
20
6.55082347740913
30
0
41
1
10
108.543654910908
20
6.52964433812394
30
0
41
1
10
108.517211885004
20
6.52142451223037
30
0
41
1
10
108.463071471718
20
6.51296329205079
30
0
41
1
10
108.435001032424
20
6.51253580595079
30
0
41
1
10
108.397096985781
20
6.52489629866412
30
0
41
1
10
108.385453906333
20
6.53137378212284
30
0
41
1
10
108.367631979688
20
6.54882157095352
30
0
41
1
10
108.361567237462
20
6.55968013490434
30
0
41
1
10
108.358528312405
20
6.5713956840334
30
0
0
SPLINE
5
2E9
100
AcDbEntity
8
1
62
256
6
ByLayer
370
13
48
1
60
0
100
AcDbSpline
70
4
71
3
72
16
73
12
40
0
40
0
40
0
40
0
40
0.124999999999965
40
0.124999999999965
40
0.24999999999993
40
0.24999999999993
40
0.499999999999953
40
0.499999999999953
40
0.749999999999977
40
0.749999999999977
40
1
40
1
40
1
40
1
41
1
10
107.201753906595
20
7.16351037918508
30
0
41
1
10
107.191521360618
20
7.15859546957765
30
0
41
1
10
107.180134062258
20
7.15662781311076
30
0
41
1
10
107.157406575072
20
7.15996006920861
30
0
41
1
10
107.146163561638
20
7.16523296411873
30
0
41
1
10
107.116274422633
20
7.18744937005405
30
0
41
1
10
107.100598292611
20
7.21038347943073
30
0
41
1
10
107.076751791684
20
7.25876426794991
30
0
41
1
10
107.068174493576
20
7.2849198278376
30
0
41
1
10
107.055902783435
20
7.33829196381478
30
0
41
1
10
107.052229638933
20
7.36560865207139
30
0
41
1
10
107.050791948089
20
7.39304142756541
30
0
0
SPLINE
5
2EA
100
AcDbEntity
8
1
62
256
6
ByLayer
370
13
48
1
60
0
100
AcDbSpline
70
4
71
3
72
16
73
12
40
0
40
0
40
0
40
0
40
0.12499999999996
40
0.12499999999996
40
0.24999999999992
40
0.24999999999992
40
0.499999999999947
40
0.499999999999947
40
0.749999999999973
40
0.749999999999973
40
1
40
1
40
1
40
1
41
1
10
108.265479028849
20
8.34688178226693
30
0
41
1
10
108.267275386761
20
8.35884207616502
30
0
41
1
10
108.272205056111
20
8.37034159171711
30
0
41
1
10
108.288128869201
20
8.38954624672868
30
0
41
1
10
108.299045938918
20
8.39717698246284
30
0
41
1
10
108.334986356799
20
8.41326127074552
30
0
41
1
10
108.363367832864
20
8.41592287547019
30
0
41
1
10
108.418090273516
20
8.41316274625061
30
0
41
1
10
108.445256889148
20
8.40774741420518
30
0
41
1
10
108.497837519573
20
8.39199039441712
30
0
41
1
10
108.523322929351
20
8.38157730419368
30
0
41
1
10
108.547697684847
20
8.36910067016066
30
0
0
SPLINE
5
2EB
100
AcDbEntity
8
1
62
256
6
ByLayer
370
13
48
1
60
0
100
AcDbSpline
70
4
71
3
72
16
73
12
40
0
40
0
40
0
40
0
40
0.250000000000001
40
0.250000000000001
40
0.500000000000002
40
0.500000000000002
40
0.750000000000003
40
0.750000000000003
40
0.875000000000002
40
0.875000000000002
40
1
40
1
40
1
40
1
41
1
10
109.109216774725
20
7.50091890155045
30
0
41
1
10
109.107778888979
20
7.528355396026
30
0
41
1
10
109.103978853069
20
7.55565678447837
30
0
41
1
10
109.091113445501
20
7.60903272237846
30
0
41
1
10
109.082088221585
20
7.63515444375508
30
0
41
1
10
109.056739258114
20
7.68345945249087
30
0
41
1
10
109.040348768338
20
7.70606056315589
30
0
41
1
10
109.007530774486
20
7.72844889534443
30
0
41
1
10
108.995234961116
20
7.73363942578507
30
0
41
1
10
108.97017871762
20
7.73682378262308
30
0
41
1
10
108.957578276813
20
7.73479633478399
30
0
41
1
10
108.946068935428
20
7.72981131498162
30
0
0
SPLINE
5
2EC
100
AcDbEntity
8
1
62
256
6
ByLayer
370
13
48
1
60
0
100
AcDbSpline
70
4
71
3
72
16
73
12
40
0
40
0
40
0
40
0
40
0.125
40
0.125
40
0.25
40
0.25
40
0.5
40
0.5
40
0.75
40
0.75
40
1
40
1
40
1
40
1
41
1
10
107.393321514432
20
8.06373131436865
30
0
41
1
10
107.38425112621
20
8.07074346163751
30
0
41
1
10
107.377149094079
20
8.08024154898612
30
0
41
1
10
107.369179774923
20
8.10271737122656
30
0
41
1
10
107.36833618213
20
8.11559387303225
30
0
41
1
10
107.373115974253
20
8.15382793145315
30
0
41
1
10
107.385290236946
20
8.17939581265557
30
0
41
1
10
107.415418390222
20
8.22497728212798
30
0
41
1
10
107.433783409329
20
8.24570575498828
30
0
41
1
10
107.473800504519
20
8.28330557727227
30
0
41
1
10
107.495548206876
20
8.3002057917063
30
0
41
1
10
107.518485271529
20
8.31516193316727
30
0
0
SPLINE
5
2ED
100
AcDbEntity
8
1
62
256
6
ByLayer
370
13
48
1
60
0
100
AcDbSpline
70
4
71
3
72
8
73
4
40
0
40
0
40
0
40
0
40
1
40
1
40
1
40
1
41
1
10
107.891924267273
20
6.56341320706491
30
0
41
1
10
107.888729295216
20
6.55775361451967
30
0
41
1
10
107.885535840819
20
6.55209588611612
30
0
41
1
10
107.882343813175
20
6.54643991189977
30
0
0
SPLINE
5
2EE
100
AcDbEntity
8
1
62
256
6
ByLayer
370
13
48
1
60
0
100
AcDbSpline
70
4
71
3
72
8
73
4
40
0
40
0
40
0
40
0
40
1
40
1
40
1
40
1
41
1
10
107.40171170466
20
8.04595367483634
30
0
41
1
10
107.398913613654
20
8.05188141837056
30
0
41
1
10
107.396116911347
20
8.05780726088943
30
0
41
1
10
107.393321514432
20
8.06373131436865
30
0
0
SPLINE
5
2EF
100
AcDbEntity
8
1
62
256
6
ByLayer
370
13
48
1
60
0
100
AcDbSpline
70
4
71
3
72
8
73
4
40
0
40
0
40
0
40
0
40
1
40
1
40
1
40
1
41
1
10
107.461551284825
20
6.76182973933274
30
0
41
1
10
107.463712136056
20
6.76801353877084
30
0
41
1
10
107.465874098523
20
6.77419925389873
30
0
41
1
10
107.468037243372
20
6.78038700478663
30
0
0
SPLINE
5
2F0
100
AcDbEntity
8
1
62
256
6
ByLayer
370
13
48
1
60
0
100
AcDbSpline
70
4
71
3
72
16
73
12
40
0
40
0
40
0
40
0
40
0.250000000000007
40
0.250000000000007
40
0.500000000000013
40
0.500000000000013
40
0.75000000000002
40
0.75000000000002
40
0.87500000000001
40
0.87500000000001
40
1
40
1
40
1
40
1
41
1
10
107.612311037967
20
6.52485965895687
30
0
41
1
10
107.587932978056
20
6.53733798441087
30
0
41
1
10
107.564544790999
20
6.55186689460828
30
0
41
1
10
107.520789106175
20
6.58510078890274
30
0
41
1
10
107.500367100553
20
6.60379122463084
30
0
41
1
10
107.465639495083
20
6.6459808782169
30
0
41
1
10
107.450989411657
20
6.66971682300061
30
0
41
1
10
107.442097234646
20
6.70770601374113
30
0
41
1
10
107.441621230637
20
6.72060366553856
30
0
41
1
10
107.447219530411
20
6.7437763553429
30
0
41
1
10
107.453257504504
20
6.75390210906093
30
0
41
1
10
107.461551284825
20
6.76182973933274
30
0
0
SPLINE
5
2F1
100
AcDbEntity
8
1
62
256
6
ByLayer
370
13
48
1
60
0
100
AcDbSpline
70
4
71
3
72
8
73
4
40
0
40
0
40
0
40
0
40
1
40
1
40
1
40
1
41
1
10
108.946068935428
20
7.72981131498162
30
0
41
1
10
108.939076535618
20
7.73002672572329
30
0
41
1
10
108.932082446355
20
7.73024222596266
30
0
41
1
10
108.925086563366
20
7.7304578213863
30
0
0
SPLINE
5
2F2
100
AcDbEntity
8
1
62
256
6
ByLayer
370
13
48
1
60
0
100
AcDbSpline
70
4
71
3
72
16
73
12
40
0
40
0
40
0
40
0
40
0.124999999999998
40
0.124999999999998
40
0.249999999999995
40
0.249999999999995
40
0.499999999999997
40
0.499999999999997
40
0.749999999999998
40
0.749999999999998
40
1
40
1
40
1
40
1
41
1
10
108.754501327592
20
6.82959037979805
30
0
41
1
10
108.764840116127
20
6.82264470657287
30
0
41
1
10
108.773230954502
20
6.81321416269736
30
0
41
1
10
108.783531563776
20
6.79086051819488
30
0
41
1
10
108.785410454722
20
6.77803827406632
30
0
41
1
10
108.783173636105
20
6.73993748723962
30
0
41
1
10
108.772061540111
20
6.71442527183515
30
0
41
1
10
108.743428959734
20
6.66892218201713
30
0
41
1
10
108.725512537461
20
6.64821721912068
30
0
41
1
10
108.68607909246
20
6.61064798464696
30
0
41
1
10
108.664460515939
20
6.59375453741123
30
0
41
1
10
108.641523451285
20
6.57879839595026
30
0
0
SPLINE
5
2F3
100
AcDbEntity
8
1
62
256
6
ByLayer
370
13
48
1
60
0
100
AcDbSpline
70
4
71
3
72
18
73
14
40
0
40
0
40
0
40
0
40
0.125000000000027
40
0.125000000000027
40
0.250000000000054
40
0.250000000000054
40
0.500000000000035
40
0.500000000000035
40
0.750000000000016
40
0.750000000000016
40
0.875000000000008
40
0.875000000000008
40
1
40
1
40
1
40
1
41
1
10
107.800596693447
20
8.30604712659925
30
0
41
1
10
107.811429471965
20
8.29082966971802
30
0
41
1
10
107.826643462772
20
8.27919716739751
30
0
41
1
10
107.8609303379
20
8.26033187424378
30
0
41
1
10
107.879878589762
20
8.25331454971229
30
0
41
1
10
107.939244059456
20
8.2376128760796
30
0
41
1
10
107.982305948529
20
8.23414784461238
30
0
41
1
10
108.068868328466
20
8.23868031424522
30
0
41
1
10
108.112343564578
20
8.24666923749612
30
0
41
1
10
108.172783446431
20
8.26866962110174
30
0
41
1
10
108.192184191853
20
8.27773433174963
30
0
41
1
10
108.227135735732
20
8.30016002919064
30
0
41
1
10
108.242788034267
20
8.31343841552146
30
0
41
1
10
108.25389075626
20
8.32980326179347
30
0
0
SPLINE
5
2F4
100
AcDbEntity
8
1
62
256
6
ByLayer
370
13
48
1
60
0
100
AcDbSpline
70
4
71
3
72
18
73
14
40
0
40
0
40
0
40
0
40
0.124999999999998
40
0.124999999999998
40
0.249999999999996
40
0.249999999999996
40
0.499999999999996
40
0.499999999999996
40
0.749999999999996
40
0.749999999999996
40
0.874999999999998
40
0.874999999999998
40
1
40
1
40
1
40
1
41
1
10
107.468037243372
20
6.78038700478666
30
0
41
1
10
107.47425441168
20
6.7981714304251
30
0
41
1
10
107.47536767634
20
6.81788314654159
30
0
41
1
10
107.472202348669
20
6.85829407244941
30
0
41
1
10
107.467820688808
20
6.87876680820142
30
0
41
1
10
107.449358092759
20
6.93941889229444
30
0
41
1
10
107.430010957275
20
6.97900511438044
30
0
41
1
10
107.382787112102
20
7.05202624826023
30
0
41
1
10
107.354929618134
20
7.08544389996393
30
0
41
1
10
107.308013881634
20
7.12584117396207
30
0
41
1
10
107.291444739741
20
7.13769645425236
30
0
41
1
10
107.25688611923
20
7.15572887403681
30
0
41
1
10
107.238911536948
20
7.16203839662305
30
0
41
1
10
107.220728460167
20
7.16275864747209
30
0
0
SPLINE
5
2F5
100
AcDbEntity
8
1
62
256
6
ByLayer
370
13
48
1
60
0
100
AcDbSpline
70
4
71
3
72
16
73
12
40
0
40
0
40
0
40
0
40
0.125
40
0.125
40
0.25
40
0.25
40
0.5
40
0.5
40
0.75
40
0.75
40
1
40
1
40
1
40
1
41
1
10
108.970888448592
20
7.25622679178403
30
0
41
1
10
108.982847087874
20
7.25247487291577
30
0
41
1
10
108.995666487772
20
7.25177583574828
30
0
41
1
10
109.020252445914
20
7.25758768444598
30
0
41
1
10
109.031917999496
20
7.26406116647982
30
0
41
1
10
109.061864129404
20
7.28941340598158
30
0
41
1
10
109.076119283435
20
7.31391614748657
30
0
41
1
10
109.096273554158
20
7.36460291873473
30
0
41
1
10
109.102518461282
20
7.39153527748275
30
0
41
1
10
109.109727688545
20
7.4459283661277
30
0
41
1
10
109.110654465569
20
7.4734861260564
30
0
41
1
10
109.109216774725
20
7.50091890155045
30
0
0
SPLINE
5
2F6
100
AcDbEntity
8
1
62
256
6
ByLayer
370
13
48
1
60
0
100
AcDbSpline
70
4
71
3
72
18
73
14
40
0
40
0
40
0
40
0
40
0.125000000000008
40
0.125000000000008
40
0.250000000000017
40
0.250000000000017
40
0.500000000000035
40
0.500000000000035
40
0.750000000000052
40
0.750000000000052
40
0.875000000000026
40
0.875000000000026
40
1
40
1
40
1
40
1
41
1
10
108.345218330086
20
6.58716934225913
30
0
41
1
10
108.33246405896
20
6.60228609797983
30
0
41
1
10
108.315561320296
20
6.61383009677544
30
0
41
1
10
108.278328046486
20
6.63254097571735
30
0
41
1
10
108.258148507735
20
6.63949377123731
30
0
41
1
10
108.195810605712
20
6.65503966629259
30
0
41
1
10
108.151729636311
20
6.65845129002292
30
0
41
1
10
108.065166560704
20
6.65391878393157
30
0
41
1
10
108.022708650099
20
6.6459831764513
30
0
41
1
10
107.965244383143
20
6.62413873821438
30
0
41
1
10
107.947080255998
20
6.61513883598423
30
0
41
1
10
107.915065283917
20
6.59286703774987
30
0
41
1
10
107.901105764639
20
6.57967736622069
30
0
41
1
10
107.891924267273
20
6.56341320706491
30
0
0
SPLINE
5
2F7
100
AcDbEntity
8
1
62
256
6
ByLayer
370
13
48
1
60
0
100
AcDbSpline
70
4
71
3
72
18
73
14
40
0
40
0
40
0
40
0
40
0.124999999999982
40
0.124999999999982
40
0.249999999999963
40
0.249999999999963
40
0.499999999999979
40
0.499999999999979
40
0.749999999999994
40
0.749999999999994
40
0.874999999999997
40
0.874999999999997
40
1
40
1
40
1
40
1
41
1
10
107.195726425053
20
7.63982589695672
30
0
41
1
10
107.213737118182
20
7.64244321629417
30
0
41
1
10
107.230908747578
20
7.65056668185261
30
0
41
1
10
107.263503494376
20
7.67218952171262
30
0
41
1
10
107.278685729821
20
7.68567719743891
30
0
41
1
10
107.321074819631
20
7.73070549718793
30
0
41
1
10
107.345299113384
20
7.76685339167517
30
0
41
1
10
107.384637995984
20
7.84440701341705
30
0
41
1
10
107.399747075373
20
7.88578693048635
30
0
41
1
10
107.411783413278
20
7.94810661540572
30
0
41
1
10
107.413996707669
20
7.96899420213506
30
0
41
1
10
107.412921345137
20
8.00937536975721
30
0
41
1
10
107.409752671762
20
8.02891892127343
30
0
41
1
10
107.40171170466
20
8.04595367483637
30
0
0
SPLINE
5
2F8
100
AcDbEntity
8
1
62
256
6
ByLayer
370
13
48
1
60
0
100
AcDbSpline
70
4
71
3
72
18
73
14
40
0
40
0
40
0
40
0
40
0.125000000000006
40
0.125000000000006
40
0.250000000000011
40
0.250000000000011
40
0.500000000000027
40
0.500000000000027
40
0.750000000000043
40
0.750000000000043
40
0.875000000000022
40
0.875000000000022
40
1
40
1
40
1
40
1
41
1
10
108.744103318873
20
6.84726279402219
30
0
41
1
10
108.734099023783
20
6.86426842917186
30
0
41
1
10
108.729233922979
20
6.88381934632582
30
0
41
1
10
108.725257706025
20
6.92427475895448
30
0
41
1
10
108.726262336741
20
6.94487313083752
30
0
41
1
10
108.735315307531
20
7.00683799795087
30
0
41
1
10
108.749216329338
20
7.04774559392337
30
0
41
1
10
108.788539102539
20
7.12544631574733
30
0
41
1
10
108.813747894487
20
7.16167904369533
30
0
41
1
10
108.859240068293
20
7.20704856722398
30
0
41
1
10
108.875725778582
20
7.22065655146056
30
0
41
1
10
108.911192467935
20
7.24240602885726
30
0
41
1
10
108.9301291023
20
7.25066882725943
30
0
41
1
10
108.95008859848
20
7.25339057190166
30
0
0
SPLINE
5
2F9
100
AcDbEntity
8
1
62
256
6
ByLayer
370
13
48
1
60
0
100
AcDbSpline
70
4
71
3
72
8
73
4
40
0
40
0
40
0
40
0
40
1
40
1
40
1
40
1
41
1
10
107.789294529619
20
8.3219260101333
30
0
41
1
10
107.793060281294
20
8.31663467767982
30
0
41
1
10
107.796827635269
20
8.31134174978502
30
0
41
1
10
107.800596693447
20
8.30604712659928
30
0
0
SPLINE
5
2FA
100
AcDbEntity
8
1
62
256
6
ByLayer
370
13
48
1
60
0
100
AcDbSpline
70
4
71
3
72
8
73
4
40
0
40
0
40
0
40
0
40
1
40
1
40
1
40
1
41
1
10
107.176934393432
20
7.63709490238267
30
0
41
1
10
107.183195988089
20
7.63800492554103
30
0
41
1
10
107.189459948717
20
7.63891525073279
30
0
41
1
10
107.195726425053
20
7.63982589695672
30
0
0
SPLINE
5
2FB
100
AcDbEntity
8
1
62
256
6
ByLayer
370
13
48
1
60
0
100
AcDbSpline
70
4
71
3
72
16
73
12
40
0
40
0
40
0
40
0
40
0.250000000000027
40
0.250000000000027
40
0.500000000000054
40
0.500000000000054
40
0.750000000000081
40
0.750000000000081
40
0.875000000000041
40
0.875000000000041
40
1
40
1
40
1
40
1
41
1
10
107.518485271529
20
8.31516193316727
30
0
41
1
10
107.541425445693
20
8.33012010218883
30
0
41
1
10
107.565545551716
20
8.34313009013465
30
0
41
1
10
107.61564065759
20
8.36427861615954
30
0
41
1
10
107.641635085254
20
8.37247493201559
30
0
41
1
10
107.694279412442
20
8.38085774564516
30
0
41
1
10
107.721314080287
20
8.38123094926365
30
0
41
1
10
107.756645875216
20
8.36873565055026
30
0
41
1
10
107.767251310648
20
8.36220378647297
30
0
41
1
10
107.782741436439
20
8.34463379313783
30
0
41
1
10
107.787524930742
20
8.33370808182866
30
0
41
1
10
107.789294529619
20
8.3219260101333
30
0
0
SPLINE
5
2FC
100
AcDbEntity
8
1
62
256
6
ByLayer
370
13
48
1
60
0
100
AcDbSpline
70
4
71
3
72
18
73
14
40
0
40
0
40
0
40
0
40
0.124999999999998
40
0.124999999999998
40
0.249999999999995
40
0.249999999999995
40
0.499999999999991
40
0.499999999999991
40
0.749999999999986
40
0.749999999999986
40
0.874999999999993
40
0.874999999999993
40
1
40
1
40
1
40
1
41
1
10
108.925086563366
20
7.7304578213863
30
0
41
1
10
108.904983645586
20
7.73107734247915
30
0
41
1
10
108.885224278843
20
7.73732004024851
30
0
41
1
10
108.847553796989
20
7.75532507182709
30
0
41
1
10
108.829803801552
20
7.7671153312574
30
0
41
1
10
108.779930218969
20
7.80740678524182
30
0
41
1
10
108.751026555994
20
7.8408433319828
30
0
41
1
10
108.703810928778
20
7.91399671694111
30
0
41
1
10
108.685745571713
20
7.95308854025166
30
0
41
1
10
108.670214512228
20
8.01398615560285
30
0
41
1
10
108.66708173542
20
8.03444172179005
30
0
41
1
10
108.666814331254
20
8.07479477693542
30
0
41
1
10
108.66959688662
20
8.09485152890349
30
0
41
1
10
108.677777780161
20
8.11282946407172
30
0
0
SPLINE
5
2FD
100
AcDbEntity
8
1
62
256
6
ByLayer
370
13
48
1
60
0
100
AcDbSpline
70
4
71
3
72
8
73
4
40
0
40
0
40
0
40
0
40
1
40
1
40
1
40
1
41
1
10
108.744103318873
20
6.84726279402202
30
0
41
1
10
108.747569956496
20
6.84137008753135
30
0
41
1
10
108.751035947176
20
6.83547932092981
30
0
41
1
10
108.754501327592
20
6.82959037979805
30
0
0
SPLINE
5
2FE
100
AcDbEntity
8
1
62
256
6
ByLayer
370
13
48
1
60
0
100
AcDbSpline
70
4
71
3
72
16
73
12
40
0
40
0
40
0
40
0
40
0.250000000000023
40
0.250000000000023
40
0.500000000000045
40
0.500000000000045
40
0.750000000000068
40
0.750000000000068
40
0.875000000000034
40
0.875000000000034
40
1
40
1
40
1
40
1
41
1
10
107.050791948089
20
7.39304142756541
30
0
41
1
10
107.049354062343
20
7.42047792204093
30
0
41
1
10
107.050150490565
20
7.44802020097103
30
0
41
1
10
107.056781979516
20
7.5024179279205
30
0
41
1
10
107.062578700678
20
7.52931643452348
30
0
41
1
10
107.081243465446
20
7.57992810501409
30
0
41
1
10
107.094145935588
20
7.60406439465706
30
0
41
1
10
107.121871679363
20
7.62962568968419
30
0
41
1
10
107.132519932795
20
7.63601866771361
30
0
41
1
10
107.154774258787
20
7.64168246643507
30
0
41
1
10
107.166236351144
20
7.64091608252309
30
0
41
1
10
107.176934393432
20
7.63709490238267
30
0
0
SPLINE
5
2FF
100
AcDbEntity
8
1
62
256
6
ByLayer
370
18
48
1
60
0
100
AcDbSpline
70
4
71
1
72
4
73
2
40
0
40
0
40
1
40
1
41
1
10
112.470103014497
20
0.225258092033016
30
0
41
1
10
112.268841137874
20
0.194033603705918
30
0
0
SPLINE
5
300
100
AcDbEntity
8
1
62
256
6
ByLayer
370
18
48
1
60
0
100
AcDbSpline
70
4
71
1
72
4
73
2
40
0
40
0
40
1
40
1
41
1
10
112.952054310393
20
-2.48176363068637
30
0
41
1
10
112.898688224645
20
-2.14637463182879
30
0
0
SPLINE
5
301
100
AcDbEntity
8
1
62
256
6
ByLayer
370
18
48
1
60
0
100
AcDbSpline
70
4
71
1
72
4
73
2
40
0
40
0
40
1
40
1
41
1
10
111.943393005551
20
-6.11265688009394
30
0
41
1
10
111.887480286848
20
-5.66033593035439
30
0
0
SPLINE
5
302
100
AcDbEntity
8
1
62
256
6
ByLayer
370
18
48
1
60
0
100
AcDbSpline
70
4
71
1
72
4
73
2
40
0
40
0
40
1
40
1
41
1
10
112.323883895275
20
0.0029604280379658
30
0
41
1
10
112.576089871007
20
-0.142660344620594
30
0
0
SPLINE
5
303
100
AcDbEntity
8
1
62
256
6
ByLayer
370
18
48
1
60
0
100
AcDbSpline
70
4
71
1
72
4
73
2
40
0
40
0
40
1
40
1
41
1
10
112.995751741352
20
-2.88740368718086
30
0
41
1
10
112.735230217407
20
-2.68952231958443
30
0
0
SPLINE
5
304
100
AcDbEntity
8
1
62
256
6
ByLayer
370
18
48
1
60
0
100
AcDbSpline
70
4
71
1
72
4
73
2
40
0
40
0
40
1
40
1
41
1
10
112.956206000935
20
-3.18640051894573
30
0
41
1
10
112.981918991612
20
-2.99199013070842
30
0
0
SPLINE
5
305
100
AcDbEntity
8
1
62
256
6
ByLayer
370
18
48
1
60
0
100
AcDbSpline
70
4
71
1
72
4
73
2
40
0
40
0
40
1
40
1
41
1
10
112.389571266378
20
-5.30297525128861
30
0
41
1
10
112.623147172133
20
-5.70458663844857
30
0
0
SPLINE
5
306
100
AcDbEntity
8
1
62
256
6
ByLayer
370
18
48
1
60
0
100
AcDbSpline
70
4
71
3
72
10
73
6
40
0
40
0
40
0
40
0
40
0.625430521748865
40
0.625430521748865
40
1
40
1
40
1
40
1
41
1
10
112.002994450939
20
-6.09954286737778
30
0
41
1
10
112.080526365148
20
-6.07741404727807
30
0
41
1
10
112.158058267524
20
-6.0552904535102
30
0
41
1
10
112.282023938064
20
-6.01990938475433
30
0
41
1
10
112.3284577011
20
-6.00665581936678
30
0
41
1
10
112.374891449046
20
-5.99340540587249
30
0
0
SPLINE
5
307
100
AcDbEntity
8
1
62
256
6
ByLayer
370
18
48
1
60
0
100
AcDbSpline
70
4
71
1
72
4
73
2
40
0
40
0
40
1
40
1
41
1
10
112.623147172133
20
-5.70458663844863
30
0
41
1
10
112.908130518041
20
-3.54988889770573
30
0
0
SPLINE
5
308
100
AcDbEntity
8
1
62
256
6
ByLayer
370
18
48
1
60
0
100
AcDbSpline
70
4
71
1
72
4
73
2
40
0
40
0
40
1
40
1
41
1
10
112.372614545183
20
-5.99400547523561
30
0
41
1
10
112.139038639428
20
-5.59239408807548
30
0
0
SPLINE
5
309
100
AcDbEntity
8
1
62
256
6
ByLayer
370
18
48
1
60
0
100
AcDbSpline
70
4
71
1
72
4
73
2
40
0
40
0
40
1
40
1
41
1
10
112.979786663221
20
-2.65605271186306
30
0
41
1
10
112.952054310393
20
-2.48176363068637
30
0
0
SPLINE
5
30A
100
AcDbEntity
8
1
62
256
6
ByLayer
370
18
48
1
60
0
100
AcDbSpline
70
4
71
2
72
6
73
3
40
0
40
0
40
0
40
1
40
1
40
1
41
1
10
112.735230217407
20
-2.68952231958443
30
0
41
1
10
112.744692916004
20
-2.61797689225068
30
0
41
1
10
112.733351957016
20
-2.54670254592744
30
0
0
SPLINE
5
30B
100
AcDbEntity
8
1
62
256
6
ByLayer
370
18
48
1
60
0
100
AcDbSpline
70
4
71
1
72
4
73
2
40
0
40
0
40
1
40
1
41
1
10
112.733351957016
20
-2.54670254592744
30
0
41
1
10
112.993873480961
20
-2.74458391352192
30
0
0
SPLINE
5
30C
100
AcDbEntity
8
1
62
256
6
ByLayer
370
18
48
1
60
0
100
AcDbSpline
70
4
71
3
72
8
73
4
40
0
40
0
40
0
40
0
40
1
40
1
40
1
40
1
41
1
10
112.576089871007
20
-0.142660344620594
30
0
41
1
10
112.581709438636
20
-0.162167881740686
30
0
41
1
10
112.586113879412
20
-0.181943565793063
30
0
41
1
10
112.589303193335
20
-0.201987396777724
30
0
0
SPLINE
5
30D
100
AcDbEntity
8
1
62
256
6
ByLayer
370
18
48
1
60
0
100
AcDbSpline
70
4
71
2
72
6
73
3
40
0
40
0
40
0
40
1
40
1
40
1
41
1
10
112.337097217604
20
-0.0563666241188514
30
0
41
1
10
112.332313246728
20
-0.0263008776504989
30
0
41
1
10
112.323883895275
20
0.0029604280379658
30
0
0
SPLINE
5
30E
100
AcDbEntity
8
1
62
256
6
ByLayer
370
18
48
1
60
0
100
AcDbSpline
70
4
71
3
72
12
73
8
40
0
40
0
40
0
40
0
40
0.500000000000039
40
0.500000000000039
40
0.75000000000002
40
0.75000000000002
40
1
40
1
40
1
40
1
41
1
10
112.179345588196
20
0.47458213883516
30
0
41
1
10
112.246467432339
20
0.465710606668523
30
0
41
1
10
112.310657308165
20
0.436834840217699
30
0
41
1
10
112.387888662975
20
0.371044070355396
30
0
41
1
10
112.410522089048
20
0.345356093233647
30
0
41
1
10
112.446714910841
20
0.288569621833204
30
0
41
1
10
112.459652610354
20
0.257330835702021
30
0
41
1
10
112.470103014497
20
0.225208416936994
30
0
0
SPLINE
5
30F
100
AcDbEntity
8
1
62
256
6
ByLayer
370
18
48
1
60
0
100
AcDbSpline
70
4
71
3
72
12
73
8
40
0
40
0
40
0
40
0
40
0.5
40
0.5
40
0.75
40
0.75
40
1
40
1
40
1
40
1
41
1
10
112.623147172133
20
-5.70464181607505
30
0
41
1
10
112.614234542731
20
-5.77145457930626
30
0
41
1
10
112.585229665694
20
-5.83535335979252
30
0
41
1
10
112.519128445474
20
-5.91222302331374
30
0
41
1
10
112.493321250583
20
-5.93475184302011
30
0
41
1
10
112.4362709783
20
-5.97077688749525
30
0
41
1
10
112.404886582585
20
-5.98365390235344
30
0
41
1
10
112.372614545183
20
-5.99405515033186
30
0
0
SPLINE
5
310
100
AcDbEntity
8
1
62
256
6
ByLayer
370
18
48
1
60
0
100
AcDbSpline
70
4
71
2
72
12
73
9
40
0
40
0
40
0
40
0.25
40
0.5
40
0.5
40
0.75
40
0.75
40
0.875
40
1
40
1
40
1
41
1
10
112.268841137874
20
0.194033603705947
30
0
41
1
10
112.254938540138
20
0.242294512587051
30
0
41
1
10
112.200526562511
20
0.327629807393038
30
0
41
1
10
112.161091622591
20
0.361737582563336
30
0
41
1
10
112.123377439499
20
0.394357053524885
30
0
41
1
10
112.075766437715
20
0.415824458900914
30
0
41
1
10
112.053655068509
20
0.425794291678358
30
0
41
1
10
112.004038722661
20
0.440011517484379
30
0
41
1
10
111.978083711577
20
0.44341282813491
30
0
0
SPLINE
5
311
100
AcDbEntity
8
1
62
256
6
ByLayer
370
18
48
1
60
0
100
AcDbSpline
70
4
71
2
72
6
73
3
40
0
40
0
40
0
40
1
40
1
40
1
41
1
10
111.887480286848
20
-5.66033593035439
30
0
41
1
10
111.91768509025
20
-5.65557398392613
30
0
41
1
10
111.947081732236
20
-5.64718343954067
30
0
0
SPLINE
5
312
100
AcDbEntity
8
1
62
256
6
ByLayer
370
18
48
1
60
0
100
AcDbSpline
70
4
71
2
72
12
73
9
40
0
40
0
40
0
40
0.25
40
0.5
40
0.5
40
0.75
40
0.75
40
0.875
40
1
40
1
40
1
41
1
10
112.139038639428
20
-5.59239408807537
30
0
41
1
10
112.187522759576
20
-5.57855549514255
30
0
41
1
10
112.273252738198
20
-5.52439401946833
30
0
41
1
10
112.307518265062
20
-5.48514063018365
30
0
41
1
10
112.340288604164
20
-5.44760007571091
30
0
41
1
10
112.361855298323
20
-5.4002082655324
30
0
41
1
10
112.371871242521
20
-5.37819869268458
30
0
41
1
10
112.386154224343
20
-5.32881077065076
30
0
41
1
10
112.389571266378
20
-5.30297525128901
30
0
0
SPLINE
5
313
100
AcDbEntity
8
1
62
256
6
ByLayer
370
18
48
1
60
0
100
AcDbSpline
70
4
71
1
72
4
73
2
40
0
40
0
40
1
40
1
41
1
10
112.981918991612
20
-2.99199013070842
30
0
41
1
10
112.995751741352
20
-2.88740368718086
30
0
0
SPLINE
5
314
100
AcDbEntity
8
1
62
256
6
ByLayer
370
18
48
1
60
0
100
AcDbSpline
70
4
71
3
72
12
73
8
40
0
40
0
40
0
40
0
40
0.250320945465854
40
0.250320945465854
40
0.500642191568828
40
0.500642191568828
40
1
40
1
40
1
40
1
41
1
10
111.943393005551
20
-6.11269518053678
30
0
41
1
10
111.948427725705
20
-6.11190138367604
30
0
41
1
10
111.953450880596
20
-6.11103112776306
30
0
41
1
10
111.963466924171
20
-6.10913826302243
30
0
41
1
10
111.968460982097
20
-6.10811543267812
30
0
41
1
10
111.983361651621
20
-6.10482597424294
30
0
41
1
10
111.99322297764
20
-6.1023317985802
30
0
41
1
10
112.002994450939
20
-6.09954286737778
30
0
0
SPLINE
5
315
100
AcDbEntity
8
1
62
256
6
ByLayer
370
18
48
1
60
0
100
AcDbSpline
70
4
71
1
72
4
73
2
40
0
40
0
40
1
40
1
41
1
10
111.978083711577
20
0.443412828134939
30
0
41
1
10
112.179345588196
20
0.47463731646161
30
0
0
SPLINE
5
316
100
AcDbEntity
8
1
62
256
6
ByLayer
370
18
48
1
60
0
100
AcDbSpline
70
4
71
1
72
4
73
2
40
0
40
0
40
1
40
1
41
1
10
112.908130518041
20
-3.54988889770573
30
0
41
1
10
112.956206000935
20
-3.18640051894573
30
0
0
SPLINE
5
317
100
AcDbEntity
8
1
62
256
6
ByLayer
370
18
48
1
60
0
100
AcDbSpline
70
4
71
3
72
8
73
4
40
0
40
0
40
0
40
0
40
1
40
1
40
1
40
1
41
1
10
113.000013525548
20
-2.81592603010094
30
0
41
1
10
113.000328025633
20
-2.83984008858707
30
0
41
1
10
112.998861294842
20
-2.86367829831454
30
0
41
1
10
112.996419196306
20
-2.88747156831585
30
0
0
SPLINE
5
318
100
AcDbEntity
8
1
62
256
6
ByLayer
370
18
48
1
60
0
100
AcDbSpline
70
4
71
1
72
4
73
2
40
0
40
0
40
1
40
1
41
1
10
112.993873480961
20
-2.74458391352189
30
0
41
1
10
112.979786663221
20
-2.65605271186306
30
0
0
SPLINE
5
319
100
AcDbEntity
8
1
62
256
6
ByLayer
370
18
48
1
60
0
100
AcDbSpline
70
4
71
3
72
8
73
4
40
0
40
0
40
0
40
0
40
1
40
1
40
1
40
1
41
1
10
112.99432620782
20
-2.74452398051335
30
0
41
1
10
112.997494067926
20
-2.76823591045388
30
0
41
1
10
112.999699096199
20
-2.79201735048864
30
0
41
1
10
113.000013525548
20
-2.81592603010094
30
0
0
SPLINE
5
31A
100
AcDbEntity
8
1
62
256
6
ByLayer
370
18
48
1
60
0
100
AcDbSpline
70
4
71
1
72
4
73
2
40
0
40
0
40
1
40
1
41
1
10
112.589303193335
20
-0.201987396777724
30
0
41
1
10
112.337097217604
20
-0.0563666241188514
30
0
0
SPLINE
5
31B
100
AcDbEntity
8
1
62
256
6
ByLayer
370
18
48
1
60
0
100
AcDbSpline
70
4
71
1
72
4
73
2
40
0
40
0
40
1
40
1
41
1
10
112.898688224645
20
-2.14637463182879
30
0
41
1
10
112.589303193335
20
-0.201987396777724
30
0
0
SPLINE
5
31C
100
AcDbEntity
8
1
62
256
6
ByLayer
370
18
48
1
60
0
100
AcDbSpline
70
4
71
3
72
24
73
20
40
0
40
0
40
0
40
0
40
0.011974539176693
40
0.0422134271161331
40
0.0724523150555733
40
0.132930090934453
40
0.253885642692214
40
0.374841194449975
40
0.480677302238015
40
0.495796746207735
40
0.526035634147175
40
0.556274522086615
40
0.616752297965496
40
0.737707849723256
40
0.858663401481017
40
0.919141177359897
40
0.949380065299337
40
0.979618953238777
40
1
40
1
40
1
40
1
41
1
10
111.95633230663
20
-5.45649379575661
30
0
41
1
10
111.982313650763
20
-5.44631838111891
30
0
41
1
10
112.073092249115
20
-5.40191323129483
30
0
41
1
10
112.212261043337
20
-5.25736192391921
30
0
41
1
10
112.243266561265
20
-4.98954175521592
30
0
41
1
10
112.297101998952
20
-4.5984543278623
30
0
41
1
10
112.370592532883
20
-4.03293331109674
30
0
41
1
10
112.457526849868
20
-3.38468832785475
30
0
41
1
10
112.517220611798
20
-2.93407825421539
30
0
41
1
10
112.558078632389
20
-2.64110822578721
30
0
41
1
10
112.548220172804
20
-2.47828228457433
30
0
41
1
10
112.490947922625
20
-2.24968317713447
30
0
41
1
10
112.442015280498
20
-1.86076144191753
30
0
41
1
10
112.344138614788
20
-1.2986273348597
30
0
41
1
10
112.262861740111
20
-0.732819989100989
30
0
41
1
10
112.188135462453
20
-0.349703869912616
30
0
41
1
10
112.172763419943
20
-0.109687169726811
30
0
41
1
10
112.120463550011
20
0.0713932698438384
30
0
41
1
10
112.030204620116
20
0.170880052477003
30
0
41
1
10
111.98980519985
20
0.202533042800184
30
0
0
SPLINE
5
31D
100
AcDbEntity
8
1
62
256
6
ByLayer
370
13
48
1
60
0
100
AcDbSpline
70
4
71
3
72
12
73
8
40
0
40
0
40
0
40
0
40
0.0139516774796187
40
0.0139516774796187
40
0.211161341983721
40
0.211161341983721
40
1
40
1
40
1
40
1
41
1
10
103.491027311618
20
10.5752891068904
30
0
41
1
10
103.492472960696
20
10.5755305066498
30
0
41
1
10
103.493920440676
20
10.5757655032983
30
0
41
1
10
103.515856210793
20
10.579224719349
30
0
41
1
10
103.536658418075
20
10.5812737162727
30
0
41
1
10
103.640140893599
20
10.5934074811281
30
0
41
1
10
103.723056633089
20
10.6018659733623
30
0
41
1
10
103.806085464529
20
10.6092363141554
30
0
0
SPLINE
5
31E
100
AcDbEntity
8
1
62
256
6
ByLayer
370
13
48
1
60
0
100
AcDbSpline
70
4
71
1
72
4
73
2
40
0
40
0
40
1
40
1
41
1
10
103.074272306811
20
7.33467300760779
30
0
41
1
10
103.087384935857
20
7.33514162313941
30
0
0
SPLINE
5
31F
100
AcDbEntity
8
1
62
256
6
ByLayer
370
13
48
1
60
0
100
AcDbSpline
70
4
71
1
72
4
73
2
40
0
40
0
40
1
40
1
41
1
10
103.04267822382
20
7.19484854803437
30
0
41
1
10
103.1046602496
20
7.19990580265352
30
0
0
SPLINE
5
320
100
AcDbEntity
8
1
62
256
6
ByLayer
370
13
48
1
60
0
100
AcDbSpline
70
4
71
3
72
14
73
10
40
0
40
0
40
0
40
0
40
0.230706644367162
40
0.230706644367162
40
0.461413288734324
40
0.461413288734324
40
0.922826577468633
40
0.922826577468633
40
1
40
1
40
1
40
1
41
1
10
112.568639103446
20
4.75958781437558
30
0
41
1
10
112.567316085027
20
4.74007766972062
30
0
41
1
10
112.564677690469
20
4.71639048812403
30
0
41
1
10
112.558620691167
20
4.67774109112224
30
0
41
1
10
112.555484487307
20
4.66313328308061
30
0
41
1
10
112.546606818924
20
4.62612707706222
30
0
41
1
10
112.54119786268
20
4.6097946268294
30
0
41
1
10
112.535164513662
20
4.59379746838476
30
0
41
1
10
112.534308139576
20
4.59159716613294
30
0
41
1
10
112.533459388978
20
4.58948133390993
30
0
0
SPLINE
5
321
100
AcDbEntity
8
1
62
256
6
ByLayer
370
13
48
1
60
0
100
AcDbSpline
70
4
71
3
72
10
73
6
40
0
40
0
40
0
40
0
40
0.260901105482399
40
0.260901105482399
40
1
40
1
40
1
40
1
41
1
10
112.490969342378
20
4.52361283527014
30
0
41
1
10
112.488018237277
20
4.52115910618861
30
0
41
1
10
112.485106888432
20
4.51910299755841
30
0
41
1
10
112.474072820133
20
4.51244010850553
30
0
41
1
10
112.466209682584
20
4.51013931074462
30
0
41
1
10
112.458537903448
20
4.50955717852861
30
0
0
SPLINE
5
322
100
AcDbEntity
8
1
62
256
6
ByLayer
370
13
48
1
60
0
100
AcDbSpline
70
4
71
3
72
24
73
20
40
0
40
0
40
0
40
0
40
0.116593406334669
40
0.116593406334669
40
0.204934065701251
40
0.204934065701251
40
0.293274725067833
40
0.293274725067833
40
0.381615384434415
40
0.381615384434415
40
0.425785714117665
40
0.425785714117665
40
0.469956043800915
40
0.469956043800915
40
0.558296703167416
40
0.558296703167416
40
0.646637362533916
40
0.646637362533916
40
1
40
1
40
1
40
1
41
1
10
103.49388904042
20
10.424464111127
30
0
41
1
10
103.506897175149
20
10.4294816927489
30
0
41
1
10
103.52127882607
20
10.4342844500299
30
0
41
1
10
103.549608855212
20
10.4418330990943
30
0
41
1
10
103.562505496538
20
10.444718276372
30
0
41
1
10
103.590047657407
20
10.4494716024272
30
0
41
1
10
103.603866955077
20
10.4511385989731
30
0
41
1
10
103.631585390573
20
10.4532974960318
30
0
41
1
10
103.645233817461
20
10.4539257886176
30
0
41
1
10
103.665241953733
20
10.454451005872
30
0
41
1
10
103.671788369492
20
10.4544976648481
30
0
41
1
10
103.685356909195
20
10.455087777171
30
0
41
1
10
103.692476891891
20
10.4557331423178
30
0
41
1
10
103.713607191223
20
10.4574297376394
30
0
41
1
10
103.726904503874
20
10.4577406436966
30
0
41
1
10
103.753891306297
20
10.4587698341237
30
0
41
1
10
103.767316624371
20
10.4592137072248
30
0
41
1
10
103.833777884795
20
10.4607419539067
30
0
41
1
10
103.885346178743
20
10.4604529538032
30
0
41
1
10
103.936792225741
20
10.4601930802573
30
0
0
SPLINE
5
323
100
AcDbEntity
8
1
62
256
6
ByLayer
370
13
48
1
60
0
100
AcDbSpline
70
4
71
3
72
18
73
14
40
0
40
0
40
0
40
0
40
0.0944468797043859
40
0.0944468797043859
40
0.188893759408772
40
0.188893759408772
40
0.377787518817541
40
0.377787518817541
40
0.56668127822631
40
0.56668127822631
40
0.755575037635078
40
0.755575037635078
40
1
40
1
40
1
40
1
41
1
10
103.624489056897
20
4.29084477286168
30
0
41
1
10
103.627844193122
20
4.27157979990284
30
0
41
1
10
103.632944118969
20
4.24829816649412
30
0
41
1
10
103.64300789947
20
4.21049362376206
30
0
41
1
10
103.647653854604
20
4.19629366139128
30
0
41
1
10
103.660351092037
20
4.160418148275
30
0
41
1
10
103.667437623377
20
4.14474055879742
30
0
41
1
10
103.680583782102
20
4.11856140355101
30
0
41
1
10
103.686524141673
20
4.10870899459786
30
0
41
1
10
103.697690199585
20
4.09233825694537
30
0
41
1
10
103.702922767898
20
4.08585672780558
30
0
41
1
10
103.714427952157
20
4.07341046836729
30
0
41
1
10
103.720549774252
20
4.06818869551159
30
0
41
1
10
103.726399151557
20
4.06428138070211
30
0
0
SPLINE
5
324
100
AcDbEntity
8
1
62
256
6
ByLayer
370
13
48
1
60
0
100
AcDbSpline
70
4
71
3
72
8
73
4
40
0
40
0
40
0
40
0
40
1
40
1
40
1
40
1
41
1
10
103.495699978737
20
10.6349106246449
30
0
41
1
10
103.495519350357
20
10.6307849197116
30
0
41
1
10
103.495361115818
20
10.6264995535153
30
0
41
1
10
103.495222409189
20
10.6220855943477
30
0
0
SPLINE
5
325
100
AcDbEntity
8
1
62
256
6
ByLayer
370
13
48
1
60
0
100
AcDbSpline
70
4
71
3
72
14
73
10
40
0
40
0
40
0
40
0
40
0.0370341114676115
40
0.0370341114676115
40
0.174600666972236
40
0.174600666972236
40
0.449733777981491
40
0.449733777981491
40
1
40
1
40
1
40
1
41
1
10
103.494293480043
20
10.5595119142658
30
0
41
1
10
103.494257618476
20
10.549534644852
30
0
41
1
10
103.494259958055
20
10.53936588176
30
0
41
1
10
103.494404811414
20
10.4907535034184
30
0
41
1
10
103.49490468803
20
10.450738537448
30
0
41
1
10
103.496966795121
20
10.3289708930686
30
0
41
1
10
103.499089351451
20
10.2454377772081
30
0
41
1
10
103.506386175168
20
9.99297489309777
30
0
41
1
10
103.512534830004
20
9.82182544392433
30
0
41
1
10
103.519210726536
20
9.65003621612044
30
0
0
SPLINE
5
326
100
AcDbEntity
8
1
62
256
6
ByLayer
370
18
48
1
60
0
100
AcDbSpline
70
4
71
3
72
23
73
19
40
0
40
0
40
0
40
0
40
0.0121315586338922
40
0.0438896885034946
40
0.107405948242699
40
0.234438467721109
40
0.361470987199518
40
0.472624441743126
40
0.488503506677928
40
0.52026163654753
40
0.552019766417132
40
0.615536026156337
40
0.742568545634747
40
0.869601065113156
40
0.933117324852361
40
0.964875454721963
40
0.996633584591565
40
1
40
1
40
1
40
1
41
1
10
112.026498760004
20
-5.22441283365578
30
0
41
1
10
112.039008284544
20
-5.20893039479446
30
0
41
1
10
112.077863218814
20
-5.14780380659914
30
0
41
1
10
112.099508083539
20
-4.96083930125869
30
0
41
1
10
112.153480313023
20
-4.56875815017401
30
0
41
1
10
112.226938609608
20
-4.00348520476558
30
0
41
1
10
112.313896579979
20
-3.35506384482039
30
0
41
1
10
112.373639898736
20
-2.90407968174839
30
0
41
1
10
112.412585852131
20
-2.6248200184468
30
0
41
1
10
112.404398768317
20
-2.48959913364749
30
0
41
1
10
112.348261954542
20
-2.26553205956648
30
0
41
1
10
112.298672837904
20
-1.87139259658079
30
0
41
1
10
112.20101194964
20
-1.31049776203915
30
0
41
1
10
112.119941833073
20
-0.746129758755302
30
0
41
1
10
112.044131348463
20
-0.357454990407376
30
0
41
1
10
112.029168812668
20
-0.123832264905104
30
0
41
1
10
111.998606542378
20
-0.0180149971845935
30
0
41
1
10
111.967291336757
20
0.0298538397860852
30
0
41
1
10
111.964155092018
20
0.0343598118035402
30
0
0
SPLINE
5
327
100
AcDbEntity
8
1
62
256
6
ByLayer
370
13
48
1
60
0
100
AcDbSpline
70
4
71
3
72
18
73
14
40
0
40
0
40
0
40
0
40
0.304622710245395
40
0.304622710245395
40
0.456934065368093
40
0.456934065368093
40
0.60924542049079
40
0.60924542049079
40
0.761556775613488
40
0.761556775613488
40
0.913868130736185
40
0.913868130736185
40
1
40
1
40
1
40
1
41
1
10
22.01
20
-5.87178094798387
30
0
41
1
10
22.01
20
-5.66045865166851
30
0
41
1
10
22.01
20
-5.43073961567282
30
0
41
1
10
22.01
20
-5.06821036202882
30
0
41
1
10
22.01
20
-4.94697235405218
30
0
41
1
10
22.01
20
-4.70372716284271
30
0
41
1
10
22.01
20
-4.58045774378729
30
0
41
1
10
22.01
20
-4.34042441735878
30
0
41
1
10
22.01
20
-4.22373935981599
30
0
41
1
10
22.01
20
-3.99696221329339
30
0
41
1
10
22.01
20
-3.88602408952562
30
0
41
1
10
22.01
20
-3.72412377781589
30
0
41
1
10
22.01
20
-3.66755052717954
30
0
41
1
10
22.01
20
-3.61312894797609
30
0
0
SPLINE
5
328
100
AcDbEntity
8
1
62
256
6
ByLayer
370
13
48
1
60
0
100
AcDbSpline
70
4
71
3
72
10
73
6
40
0
40
0
40
0
40
0
40
0.382144397625214
40
0.382144397625214
40
1
40
1
40
1
40
1
41
1
10
111.123576951439
20
10.4321325000111
30
0
41
1
10
111.128851031774
20
10.4318570628517
30
0
41
1
10
111.139922717603
20
10.4314705033239
30
0
41
1
10
111.181320771189
20
10.4302989293176
30
0
41
1
10
111.219289885409
20
10.4294298953072
30
0
41
1
10
111.258547703069
20
10.4286989112324
30
0
0
SPLINE
5
329
100
AcDbEntity
8
1
62
256
6
ByLayer
370
13
48
1
60
0
100
AcDbSpline
70
4
71
3
72
9
73
5
40
0
40
0
40
0
40
0
40
0.952610929105627
40
1
40
1
40
1
40
1
41
1
10
111.370970568197
20
4.40085841557249
30
0
41
1
10
111.354236626305
20
4.38641455498947
30
0
41
1
10
111.337528282758
20
4.37127318815635
30
0
41
1
10
111.321787270654
20
4.35622207531929
30
0
41
1
10
111.321043494579
20
4.35550902549736
30
0
0
SPLINE
5
32A
100
AcDbEntity
8
1
62
256
6
ByLayer
370
13
48
1
60
0
100
AcDbSpline
70
4
71
3
72
10
73
6
40
0
40
0
40
0
40
0
40
0.117597368091983
40
0.117597368091983
40
1
40
1
40
1
40
1
41
1
10
110.921240724984
20
4.71091048977462
30
0
41
1
10
110.91617677491
20
4.70433116658563
30
0
41
1
10
110.911117024424
20
4.69790143740096
30
0
41
1
10
110.868087237593
20
4.64455193518216
30
0
41
1
10
110.831612527891
20
4.60815360916055
30
0
41
1
10
110.793209588974
20
4.58339150008723
30
0
0
SPLINE
5
32B
100
AcDbEntity
8
1
62
256
6
ByLayer
370
13
48
1
60
0
100
AcDbSpline
70
4
71
3
72
8
73
4
40
0
40
0
40
0
40
0
40
1
40
1
40
1
40
1
41
1
10
102.989249476945
20
6.83154375702159
30
0
41
1
10
103.000577784045
20
6.83296999321101
30
0
41
1
10
103.012091321107
20
6.83433348829163
30
0
41
1
10
103.023766307117
20
6.83561969274788
30
0
0
SPLINE
5
32C
100
AcDbEntity
8
1
62
256
6
ByLayer
370
13
48
1
60
0
100
AcDbSpline
70
4
71
3
72
12
73
8
40
0
40
0
40
0
40
0
40
0.367456493675364
40
0.367456493675364
40
0.734912987350728
40
0.734912987350728
40
1
40
1
40
1
40
1
41
1
10
103.196150662733
20
7.55913447643758
30
0
41
1
10
103.175600979713
20
7.52989455003708
30
0
41
1
10
103.15692093912
20
7.50045474849969
30
0
41
1
10
103.123137766847
20
7.44164815709314
30
0
41
1
10
103.107985681048
20
7.41214583321803
30
0
41
1
10
103.085617865685
20
7.3633538196768
30
0
41
1
10
103.077279411885
20
7.34333349957413
30
0
41
1
10
103.070391668352
20
7.32485876081438
30
0
0
SPLINE
5
32D
100
AcDbEntity
8
1
62
256
6
ByLayer
370
13
48
1
60
0
100
AcDbSpline
70
4
71
3
72
32
73
28
40
0
40
0
40
0
40
0
40
0.0117292287816228
40
0.0117292287816228
40
0.0637434798983794
40
0.0637434798983794
40
0.115757731015136
40
0.115757731015136
40
0.167771982131893
40
0.167771982131893
40
0.219786233248649
40
0.219786233248649
40
0.271800484365406
40
0.271800484365406
40
0.375828986598919
40
0.375828986598919
40
0.427843237715676
40
0.427843237715676
40
0.479857488832432
40
0.479857488832432
40
0.583885991065946
40
0.583885991065946
40
0.687914493299459
40
0.687914493299459
40
0.791942995532973
40
0.791942995532973
40
1
40
1
40
1
40
1
41
1
10
69.5220341181481
20
-5.40784337297987
30
0
41
1
10
69.3406524808256
20
-5.42075416486813
30
0
41
1
10
69.1592262135795
20
-5.43342594637792
30
0
41
1
10
68.1730084881662
20
-5.50108149357789
30
0
41
1
10
67.3674114072141
20
-5.55192324001047
30
0
41
1
10
65.7542016759046
20
-5.64271682861002
30
0
41
1
10
64.9465797919078
20
-5.68258893115322
30
0
41
1
10
63.3289001975513
20
-5.74883525144239
30
0
41
1
10
62.5187969127217
20
-5.774712951455
30
0
41
1
10
60.8960790565214
20
-5.81419464385806
30
0
41
1
10
60.0834877436087
20
-5.82816856147318
30
0
41
1
10
58.4560270360485
20
-5.84918430340042
30
0
41
1
10
57.6411308452723
20
-5.85639500286638
30
0
41
1
10
55.1935444386202
20
-5.87219389734904
30
0
41
1
10
53.5580875900849
20
-5.874550179274
30
0
41
1
10
51.1029404668513
20
-5.87438330105141
30
0
41
1
10
50.2842108829274
20
-5.87368000471625
30
0
41
1
10
48.6469081556612
20
-5.87216629207097
30
0
41
1
10
47.8282568896197
20
-5.87140441625274
30
0
41
1
10
45.3723004708309
20
-5.87031081454933
30
0
41
1
10
43.7349938235027
20
-5.87070734748067
30
0
41
1
10
40.4603796282088
20
-5.87135050369312
30
0
41
1
10
38.8230722187964
20
-5.87170956693839
30
0
41
1
10
35.548457779947
20
-5.8722688899592
30
0
41
1
10
33.9111505608476
20
-5.8724559016558
30
0
41
1
10
28.9992288931057
20
-5.87213785252183
30
0
41
1
10
25.7246144344575
20
-5.87078490415956
30
0
41
1
10
22.4499999999999
20
-5.87178094798387
30
0
0
SPLINE
5
32E
100
AcDbEntity
8
1
62
256
6
ByLayer
370
13
48
1
60
0
100
AcDbSpline
70
4
71
3
72
8
73
4
40
0
40
0
40
0
40
0
40
1
40
1
40
1
40
1
41
1
10
103.191054651751
20
10.7249931464739
30
0
41
1
10
103.248040931972
20
10.7249658704648
30
0
41
1
10
103.307688330852
20
10.7248622181435
30
0
41
1
10
103.36860350785
20
10.7247734583048
30
0
0
SPLINE
5
32F
100
AcDbEntity
8
1
62
256
6
ByLayer
370
13
48
1
60
0
100
AcDbSpline
70
4
71
3
72
24
73
20
40
0
40
0
40
0
40
0
40
0.0519014392775351
40
0.0519014392775351
40
0.146711295349782
40
0.146711295349782
40
0.241521151422029
40
0.241521151422029
40
0.336331007494276
40
0.336331007494276
40
0.431140863566523
40
0.431140863566523
40
0.620760575711015
40
0.620760575711015
40
0.715570431783261
40
0.715570431783261
40
0.810380287855508
40
0.810380287855508
40
1
40
1
40
1
40
1
41
1
10
83.2437406391125
20
-8.74436364751872
30
0
41
1
10
82.8329445750963
20
-8.84717663038208
30
0
41
1
10
82.4221614406978
20
-8.94603578244349
30
0
41
1
10
81.2612529161947
20
-9.21361725159474
30
0
41
1
10
80.5108154290457
20
-9.37243096009135
30
0
41
1
10
79.0042782433013
20
-9.65779460818089
30
0
41
1
10
78.2479035211009
20
-9.78395756663679
30
0
41
1
10
76.7203734853398
20
-10.0004752100716
30
0
41
1
10
75.9489638380131
20
-10.0915167397563
30
0
41
1
10
74.3988152539335
20
-10.2451683667739
30
0
41
1
10
73.6195036838192
20
-10.3080091890181
30
0
41
1
10
71.27093020364
20
-10.4649866755764
30
0
41
1
10
69.6908690195235
20
-10.5273709188457
30
0
41
1
10
67.2978643827331
20
-10.5832044441722
30
0
41
1
10
66.4968468406639
20
-10.5954365352108
30
0
41
1
10
64.8913289812642
20
-10.6108998219976
30
0
41
1
10
64.0862726642858
20
-10.6141531003803
30
0
41
1
10
61.6631592217969
20
-10.6162494522123
30
0
41
1
10
60.0370188785852
20
-10.6080385574873
30
0
41
1
10
58.4
20
-10.6016538790879
30
0
0
SPLINE
5
330
100
AcDbEntity
8
1
62
256
6
ByLayer
370
13
48
1
60
0
100
AcDbSpline
70
4
71
3
72
18
73
14
40
0
40
0
40
0
40
0
40
0.252956465708753
40
0.252956465708753
40
0.379434698563129
40
0.379434698563129
40
0.505912931417504
40
0.505912931417504
40
0.758869397126254
40
0.758869397126254
40
0.885347629980629
40
0.885347629980629
40
1
40
1
40
1
40
1
41
1
10
98.9292615942786
20
10.4555799561051
30
0
41
1
10
97.2800341168888
20
10.5839209136431
30
0
41
1
10
95.6358519238307
20
10.6349815901953
30
0
41
1
10
93.1672055933495
20
10.5944800909343
30
0
41
1
10
92.3439339680929
20
10.5615027451252
30
0
41
1
10
90.6951118485149
20
10.4566964065144
30
0
41
1
10
89.8715916387473
20
10.3849895166432
30
0
41
1
10
87.4028862790441
20
10.1132439200812
30
0
41
1
10
85.7589095175818
20
9.85663245746051
30
0
41
1
10
83.2878252831413
20
9.36281292878124
30
0
41
1
10
82.4648125420586
20
9.1803480928107
30
0
41
1
10
80.8925299356587
20
8.80714359278318
30
0
41
1
10
80.1433633348111
20
8.61875932946973
30
0
41
1
10
79.3910226656323
20
8.42287937290661
30
0
0
SPLINE
5
331
100
AcDbEntity
8
1
62
256
6
ByLayer
370
13
48
1
60
0
100
AcDbSpline
70
4
71
3
72
26
73
22
40
0
40
0
40
0
40
0
40
0.237163520678528
40
0.237163520678528
40
0.355745281017792
40
0.355745281017792
40
0.474327041357057
40
0.474327041357057
40
0.711490562035585
40
0.711490562035585
40
0.770781442205216
40
0.770781442205216
40
0.830072322374848
40
0.830072322374848
40
0.889363202544479
40
0.889363202544479
40
0.948654082714111
40
0.948654082714111
40
0.978299522798926
40
0.978299522798926
40
1
40
1
40
1
40
1
41
1
10
99.0076914941825
20
9.96515653659625
30
0
41
1
10
97.4931930092058
20
10.0930426625669
30
0
41
1
10
95.9819249785704
20
10.1583960292779
30
0
41
1
10
93.7133629632932
20
10.1638073300637
30
0
41
1
10
92.9569023295758
20
10.1501225315625
30
0
41
1
10
91.4422930187865
20
10.0913053653447
30
0
41
1
10
90.6855713807289
20
10.0461489210221
30
0
41
1
10
88.4171864450336
20
9.86365811272992
30
0
41
1
10
86.9064706866639
20
9.68002030316543
30
0
41
1
10
85.0141227097937
20
9.37429598861436
30
0
41
1
10
84.6353162204221
20
9.30921860733395
30
0
41
1
10
83.8779416264125
20
9.17118740512669
30
0
41
1
10
83.499485870345
20
9.09814519616191
30
0
41
1
10
82.7427694762997
20
8.9465470072555
30
0
41
1
10
82.3645076464737
20
8.86800688247325
30
0
41
1
10
81.6080956794312
20
8.70776335686045
30
0
41
1
10
81.2301387092885
20
8.62666742376211
30
0
41
1
10
80.6621759034584
20
8.49992599987226
30
0
41
1
10
80.4726502808154
20
8.4567407774511
30
0
41
1
10
80.1437939636259
20
8.3799547484474
30
0
41
1
10
80.0046392421824
20
8.34694532406451
30
0
41
1
10
79.8653426205444
20
8.31354445678215
30
0
0
SPLINE
5
332
100
AcDbEntity
8
1
62
256
6
ByLayer
370
13
48
1
60
0
100
AcDbSpline
70
4
71
3
72
10
73
6
40
0
40
0
40
0
40
0
40
0.484270231815728
40
0.484270231815728
40
1
40
1
40
1
40
1
41
1
10
90.5348922340331
20
4.57868342946156
30
0
41
1
10
92.0296572594153
20
4.66442298512382
30
0
41
1
10
93.524139455823
20
4.72258904064407
30
0
41
1
10
96.6118201089227
20
4.78273688097264
30
0
41
1
10
98.2044958712739
20
4.78078065469089
30
0
41
1
10
99.7971378492945
20
4.74500881925002
30
0
0
SPLINE
5
333
100
AcDbEntity
8
1
62
256
6
ByLayer
370
13
48
1
60
0
100
AcDbSpline
70
4
71
3
72
18
73
14
40
0
40
0
40
0
40
0
40
0.16553875129694
40
0.16553875129694
40
0.304615626080784
40
0.304615626080784
40
0.374154063472705
40
0.374154063472705
40
0.443692500864627
40
0.443692500864627
40
0.721846250432314
40
0.721846250432314
40
1
40
1
40
1
40
1
41
1
10
11.1989659036888
20
-7.11244179019627
30
0
41
1
10
10.8681655946404
20
-7.41469621613945
30
0
41
1
10
10.5518829622617
20
-7.72715155843341
30
0
41
1
10
9.99604307244081
20
-8.3205298013556
30
0
41
1
10
9.75234106073782
20
-8.59852051401742
30
0
41
1
10
9.4021450474377
20
-9.02627138593758
30
0
41
1
10
9.28797624842338
20
-9.17065131264621
30
0
41
1
10
9.06485531940567
20
-9.463061477362
30
0
41
1
10
8.95579096544714
20
-9.61126469345032
30
0
41
1
10
8.42707601128188
20
-10.3568897755282
30
0
41
1
10
8.05532926154683
20
-10.9714118810383
30
0
41
1
10
7.40805495101233
20
-12.2346513651752
30
0
41
1
10
7.13213443910323
20
-12.8831383322118
30
0
41
1
10
6.90438866358051
20
-13.5484860639479
30
0
0
SPLINE
5
334
100
AcDbEntity
8
1
62
256
6
ByLayer
370
13
48
1
60
0
100
AcDbSpline
70
4
71
3
72
48
73
44
40
0
40
0
40
0
40
0
40
0.0347490254612357
40
0.0347490254612357
40
0.0733590644427876
40
0.0733590644427876
40
0.0926640839335633
40
0.0926640839335633
40
0.111969103424339
40
0.111969103424339
40
0.15057914240589
40
0.15057914240589
40
0.18918918138744
40
0.18918918138744
40
0.227799220368991
40
0.227799220368991
40
0.266409259350542
40
0.266409259350542
40
0.305019298332092
40
0.305019298332092
40
0.343629337313643
40
0.343629337313643
40
0.382239376295193
40
0.382239376295193
40
0.420849415276744
40
0.420849415276744
40
0.459459454258294
40
0.459459454258294
40
0.498069493239844
40
0.498069493239844
40
0.536679532221395
40
0.536679532221395
40
0.575289571202945
40
0.575289571202945
40
0.613899610184495
40
0.613899610184495
40
0.691119688147596
40
0.691119688147596
40
0.768339766110697
40
0.768339766110697
40
0.845559844073798
40
0.845559844073798
40
1
40
1
40
1
40
1
41
1
10
82.6503696537183
20
-8.61053129028159
30
0
41
1
10
81.9978851516864
20
-8.75752775932398
30
0
41
1
10
81.3453154058823
20
-8.89475815723597
30
0
41
1
10
79.9653460569407
20
-9.15931298852169
30
0
41
1
10
79.2376621314414
20
-9.28504373302854
30
0
41
1
10
78.13833592598
20
-9.45349126046756
30
0
41
1
10
77.7705251603224
20
-9.50634324010485
30
0
41
1
10
77.0317220899551
20
-9.60408174538497
30
0
41
1
10
76.6609222178986
20
-9.64911835967564
30
0
41
1
10
75.5461352805754
20
-9.77306450422111
30
0
41
1
10
74.7990147048894
20
-9.8403286707092
30
0
41
1
10
73.2975021388599
20
-9.95220432056581
30
0
41
1
10
72.5432275657811
20
-9.9977079001012
30
0
41
1
10
71.0281420086012
20
-10.073341455135
30
0
41
1
10
70.2672738440604
20
-10.1029915367603
30
0
41
1
10
68.7387553047277
20
-10.1482592235705
30
0
41
1
10
67.9719944902025
20
-10.163989865327
30
0
41
1
10
66.4345422316736
20
-10.1868520617167
30
0
41
1
10
65.6635932634443
20
-10.1937783376262
30
0
41
1
10
64.1166310316526
20
-10.2012555680374
30
0
41
1
10
63.3406106749732
20
-10.2017309533478
30
0
41
1
10
61.7828970996974
20
-10.1986596976914
30
0
41
1
10
61.0006240990817
20
-10.1953343041392
30
0
41
1
10
59.4348736350763
20
-10.1876153562784
30
0
41
1
10
58.6511205386222
20
-10.1832403210102
30
0
41
1
10
57.0818491104658
20
-10.1761395091378
30
0
41
1
10
56.2963412748672
20
-10.1733108854739
30
0
41
1
10
54.7240699848712
20
-10.1692101486668
30
0
41
1
10
53.9373067301389
20
-10.1679273054666
30
0
41
1
10
52.363012718334
20
-10.1669167720487
30
0
41
1
10
51.5757759922928
20
-10.1672766498299
30
0
41
1
10
50.0014111797963
20
-10.1680822248985
30
0
41
1
10
49.2142345780584
20
-10.1685117023712
30
0
41
1
10
47.639878927559
20
-10.1680066317001
30
0
41
1
10
46.8526988497965
20
-10.1673025043702
30
0
41
1
10
44.4911504116236
20
-10.1663084638332
30
0
41
1
10
42.9167785897209
20
-10.1662284065191
30
0
41
1
10
39.7680459722743
20
-10.1668174539182
30
0
41
1
10
38.1936806291698
20
-10.1674118629477
30
0
41
1
10
35.044944109808
20
-10.1672436126886
30
0
41
1
10
33.4705762305567
20
-10.1666026027997
30
0
41
1
10
28.7474727474779
20
-10.1659123139809
30
0
41
1
10
25.5987371899562
20
-10.1667627503264
30
0
41
1
10
22.45
20
-10.1665147842499
30
0
0
SPLINE
5
335
100
AcDbEntity
8
1
62
256
6
ByLayer
370
13
48
1
60
0
100
AcDbSpline
70
4
71
3
72
14
73
10
40
0
40
0
40
0
40
0
40
0.0892393202958835
40
0.0892393202958835
40
0.392826213530589
40
0.392826213530589
40
0.696413106765294
40
0.696413106765294
40
1
40
1
40
1
40
1
41
1
10
22.4499895558614
20
-3.60568298091701
30
0
41
1
10
22.4499673474208
20
-3.66212852741805
30
0
41
1
10
22.4499471320829
20
-3.72095892885881
30
0
41
1
10
22.4498675537027
20
-3.9890765961465
30
0
41
1
10
22.4498308257019
20
-4.22021709273673
30
0
41
1
10
22.4498117508713
20
-4.6999243945483
30
0
41
1
10
22.4498294097421
20
-4.94834783843245
30
0
41
1
10
22.4499167946822
20
-5.42962115976371
30
0
41
1
10
22.4499864946364
20
-5.66232720786601
30
0
41
1
10
22.450077612924
20
-5.87178092437668
30
0
0
SPLINE
5
336
100
AcDbEntity
8
1
62
256
6
ByLayer
370
13
48
1
60
0
100
AcDbSpline
70
4
71
3
72
8
73
4
40
0
40
0
40
0
40
0
40
1
40
1
40
1
40
1
41
1
10
99.6928181356965
20
4.24643239330848
30
0
41
1
10
96.9838660841415
20
4.3164809124564
30
0
41
1
10
94.2786650831169
20
4.29844791944211
30
0
41
1
10
91.5721297535831
20
4.19731273762358
30
0
0
SPLINE
5
337
100
AcDbEntity
8
1
62
256
6
ByLayer
370
13
48
1
60
0
100
AcDbSpline
70
4
71
3
72
30
73
26
40
0
40
0
40
0
40
0
40
0.139822502466683
40
0.267392044840903
40
0.410564832408312
40
0.56944347422914
40
0.584623332687847
40
0.600623853577568
40
0.617448123187341
40
0.635099044417018
40
0.653579305762546
40
0.67289134536058
40
0.693037310595053
40
0.714019013666946
40
0.735837883470787
40
0.758494914095353
40
0.781990610263521
40
0.806324930041954
40
0.831497225181638
40
0.857506179492916
40
0.884349745711549
40
0.912025081374574
40
0.940528484295001
40
0.969855328302288
40
1
40
1
40
1
40
1
41
1
10
20.6969223774148
20
-3.84583859610655
30
0
41
1
10
20.7335746149409
20
-3.93793142618887
30
0
41
1
10
20.8119201935139
20
-4.11892381916874
30
0
41
1
10
20.9540849525591
20
-4.40754998903213
30
0
41
1
10
21.1265292731358
20
-4.71516387703005
30
0
41
1
10
21.270858472327
20
-4.94167757169873
30
0
41
1
10
21.3610896291264
20
-5.07499044585433
30
0
41
1
10
21.3840130202698
20
-5.10858911478849
30
0
41
1
10
21.4082941162374
20
-5.14379282306041
30
0
41
1
10
21.4339686360266
20
-5.18056898430902
30
0
41
1
10
21.4610754624688
20
-5.21887430704757
30
0
41
1
10
21.4896490613774
20
-5.25866203241574
30
0
41
1
10
21.5197207841678
20
-5.29987936914233
30
0
41
1
10
21.5513175599368
20
-5.34246775446039
30
0
41
1
10
21.5844612844028
20
-5.3863623119004
30
0
41
1
10
21.6191679594281
20
-5.431491556277
30
0
41
1
10
21.6554468553615
20
-5.47777703355726
30
0
41
1
10
21.6932996273056
20
-5.52513305902082
30
0
41
1
10
21.7327193904598
20
-5.57346624370629
30
0
41
1
10
21.773689835353
20
-5.6226759628176
30
0
41
1
10
21.8161840688455
20
-5.67265129251433
30
0
41
1
10
21.8601644475676
20
-5.72328194638618
30
0
41
1
10
21.9055784875449
20
-5.77441472444937
30
0
41
1
10
21.9523700759585
20
-5.82602274585216
30
0
41
1
10
21.983978470131
20
-5.85990823709813
30
0
41
1
10
22
20
-5.87708397235249
30
0
0
SPLINE
5
338
100
AcDbEntity
8
1
62
256
6
ByLayer
370
13
48
1
60
0
100
AcDbSpline
70
4
71
3
72
28
73
24
40
0
40
0
40
0
40
0
40
0.114260911145421
40
0.114260911145421
40
0.228521822290841
40
0.228521822290841
40
0.342782733436262
40
0.342782733436262
40
0.399913189008975
40
0.399913189008975
40
0.457043644581689
40
0.457043644581689
40
0.685565466872524
40
0.685565466872524
40
0.742695922445231
40
0.742695922445231
40
0.799826378017938
40
0.799826378017938
40
0.914087289163358
40
0.914087289163358
40
0.971217744736069
40
0.971217744736069
40
1
40
1
40
1
40
1
41
1
10
99.5895037155562
20
3.81683625519759
30
0
41
1
10
99.3647354924381
20
3.86709295404575
30
0
41
1
10
99.1377922900568
20
3.90782671998096
30
0
41
1
10
98.6799822483907
20
3.97342883695251
30
0
41
1
10
98.4491090816202
20
3.9982657878015
30
0
41
1
10
97.9833927982372
20
4.03351276865928
30
0
41
1
10
97.7485479851094
20
4.04390958118819
30
0
41
1
10
97.3930162592432
20
4.04901226269848
30
0
41
1
10
97.2739590872343
20
4.04895759783611
30
0
41
1
10
97.0346727702639
20
4.04531928321012
30
0
41
1
10
96.9141733843876
20
4.04171978378423
30
0
41
1
10
96.3131808659809
20
4.0149818986967
30
0
41
1
10
95.8356996823322
20
3.96614630086808
30
0
41
1
10
95.2430984949449
20
3.87012726070168
30
0
41
1
10
95.1247941103597
20
3.84914733132459
30
0
41
1
10
94.8886367836878
20
3.80347909312624
30
0
41
1
10
94.770536746947
20
3.77872425982508
30
0
41
1
10
94.4215581095631
20
3.69962831407963
30
0
41
1
10
94.1946313905192
20
3.6402954116034
30
0
41
1
10
93.8642024557788
20
3.54051034624038
30
0
41
1
10
93.7557288853711
20
3.50543814184232
30
0
41
1
10
93.5954278073614
20
3.44967342493487
30
0
41
1
10
93.5421606120668
20
3.43045804728709
30
0
41
1
10
93.4896400369299
20
3.41078581176191
30
0
0
SPLINE
5
339
100
AcDbEntity
8
1
62
256
6
ByLayer
370
13
48
1
60
0
100
AcDbSpline
70
4
71
3
72
12
73
8
40
0
40
0
40
0
40
0
40
0.256781534052403
40
0.256781534052403
40
0.628390767026203
40
0.628390767026203
40
1
40
1
40
1
40
1
41
1
10
90.5268902464952
20
4.58088219409228
30
0
41
1
10
91.0319295991584
20
4.38662067541571
30
0
41
1
10
91.5371163598077
20
4.18919568398653
30
0
41
1
10
92.7741559065981
20
3.69910377169731
30
0
41
1
10
93.5056678393076
20
3.40358374506079
30
0
41
1
10
94.9674548294237
20
2.80407994188769
30
0
41
1
10
95.6980538315509
20
2.49997184550094
30
0
41
1
10
96.4288021025959
20
2.19250678195695
30
0
0
SPLINE
5
33A
100
AcDbEntity
8
1
62
256
6
ByLayer
370
13
48
1
60
0
100
AcDbSpline
70
4
71
3
72
12
73
8
40
0
40
0
40
0
40
0
40
0.320205417700729
40
0.320205417700729
40
0.640410835401458
40
0.640410835401458
40
1
40
1
40
1
40
1
41
1
10
58.4
20
10.6062038314647
30
0
41
1
10
57.7507792287706
20
10.612168694051
30
0
41
1
10
57.1007364347246
20
10.6164996020086
30
0
41
1
10
55.7989390441746
20
10.6235070693193
30
0
41
1
10
55.1472055940135
20
10.6262003172244
30
0
41
1
10
53.7620874777051
20
10.6313488851477
30
0
41
1
10
53.028510883883
20
10.6337838634399
30
0
41
1
10
52.2942511966882
20
10.6361680987864
30
0
0
SPLINE
5
33B
100
AcDbEntity
8
1
62
256
6
ByLayer
370
13
48
1
60
0
100
AcDbSpline
70
4
71
3
72
18
73
14
40
0
40
0
40
0
40
0
40
0.055254190410095
40
0.055254190410095
40
0.28537865029308
40
0.28537865029308
40
0.515503110176065
40
0.515503110176065
40
0.630565340117557
40
0.630565340117557
40
0.745627570059049
40
0.745627570059049
40
1
40
1
40
1
40
1
41
1
10
112.409680800888
20
4.44687600392086
30
0
41
1
10
112.402941154785
20
4.43952171387903
30
0
41
1
10
112.395974126601
20
4.43236460469996
30
0
41
1
10
112.358851889403
20
4.39650646475516
30
0
41
1
10
112.325948686773
20
4.37171546657683
30
0
41
1
10
112.254213950076
20
4.33037030552057
30
0
41
1
10
112.215478742244
20
4.31402102647922
30
0
41
1
10
112.156133046798
20
4.29693709217202
30
0
41
1
10
112.136014652042
20
4.29241925764026
30
0
41
1
10
112.095041755917
20
4.2859579344607
30
0
41
1
10
112.074239548635
20
4.28390893753695
30
0
41
1
10
112.007788527882
20
4.27611726985467
30
0
41
1
10
111.961994366011
20
4.27113372810879
30
0
41
1
10
111.916163381713
20
4.26650448547551
30
0
0
SPLINE
5
33C
100
AcDbEntity
8
1
62
256
6
ByLayer
370
18
48
1
60
0
100
AcDbSpline
70
4
71
1
72
4
73
2
40
0
40
0
40
1
40
1
41
1
10
112.179345588196
20
0.47463731646161
30
0
41
1
10
111.973973524967
20
0.50155058510552
30
0
0
SPLINE
5
33D
100
AcDbEntity
8
1
62
256
6
ByLayer
370
13
48
1
60
0
100
AcDbSpline
70
4
71
3
72
14
73
10
40
0
40
0
40
0
40
0
40
0.232828624042935
40
0.232828624042935
40
0.465657248085871
40
0.465657248085871
40
0.931314496171742
40
0.931314496171742
40
1
40
1
40
1
40
1
41
1
10
6.90476456573518
20
-11.5774787198111
30
0
41
1
10
7.01911706973223
20
-11.2637649513066
30
0
41
1
10
7.14610049698967
20
-10.952703753519
30
0
41
1
10
7.42509820308288
20
-10.3363949749616
30
0
41
1
10
7.57625603520393
20
-10.0330282164128
30
0
41
1
10
8.06428549890256
20
-9.13705213551063
30
0
41
1
10
8.43581619428386
20
-8.55850797488424
30
0
41
1
10
8.91618188692772
20
-7.91683051708429
30
0
41
1
10
8.97893405800906
20
-7.83476146471054
30
0
41
1
10
9.04269359003686
20
-7.7531063713966
30
0
0
SPLINE
5
33E
100
AcDbEntity
8
1
62
256
6
ByLayer
370
13
48
1
60
0
100
AcDbSpline
70
4
71
2
72
6
73
3
40
0
40
0
40
0
40
1
40
1
40
1
41
1
10
90.531574960869
20
4.57907067115454
30
0
41
1
10
90.448729934523
20
4.6107331655046
30
0
41
1
10
90.3659056262594
20
4.64448230886165
30
0
0
SPLINE
5
33F
100
AcDbEntity
8
1
62
256
6
ByLayer
370
13
48
1
60
0
100
AcDbSpline
70
4
71
3
72
15
73
11
40
0
40
0
40
0
40
0
40
0.186289080086326
40
0.37347559292231
40
0.560439826135006
40
0.648217831950628
40
0.735706279354944
40
0.823978758025078
40
0.912380208502082
40
1
40
1
40
1
40
1
41
1
10
5.75569999999999
20
-16
30
0
41
1
10
6.81929405331471
20
-15.8501701694855
30
0
41
1
10
8.92109079470089
20
-15.4372137421434
30
0
41
1
10
11.9986456262449
20
-14.4719247068149
30
0
41
1
10
14.4340893494894
20
-13.4080745566424
30
0
41
1
10
16.2610830973039
20
-12.4160777664327
30
0
41
1
10
17.5690526354111
20
-11.6499792623785
30
0
41
1
10
18.9989643412233
20
-11.124441893969
30
0
41
1
10
20.4866218440139
20
-10.7966800219963
30
0
41
1
10
21.4932038950889
20
-10.7253682954428
30
0
41
1
10
22
20
-10.725
30
0
0
SPLINE
5
340
100
AcDbEntity
8
1
62
256
6
ByLayer
370
13
48
1
60
0
100
AcDbSpline
70
4
71
1
72
4
73
2
40
0
40
0
40
1
40
1
41
1
10
112.407681346831
20
4.44472424560254
30
0
41
1
10
112.49644239785
20
4.52516420743956
30
0
0
SPLINE
5
341
100
AcDbEntity
8
1
62
256
6
ByLayer
370
13
48
1
60
0
100
AcDbSpline
70
4
71
1
72
4
73
2
40
0
40
0
40
1
40
1
41
1
10
103.720794200772
20
4.06525197366156
30
0
41
1
10
103.817477275062
20
3.99453072661302
30
0
0
SPLINE
5
342
100
AcDbEntity
8
1
62
256
6
ByLayer
370
18
48
1
60
0
100
AcDbSpline
70
4
71
3
72
9
73
5
40
0
40
0
40
0
40
0
40
0.417695671898295
40
1
40
1
40
1
40
1
41
1
10
108.109280320619
20
-2.29393872171545
30
0
41
1
10
108.12173204695
20
-2.25813801635871
30
0
41
1
10
108.155849105261
20
-2.1736640730355
30
0
41
1
10
108.197898583458
20
-2.09314546793743
30
0
41
1
10
108.225142837201
20
-2.04795504401792
30
0
0
SPLINE
5
343
100
AcDbEntity
8
1
62
256
6
ByLayer
370
13
48
1
60
0
100
AcDbSpline
70
4
71
3
72
15
73
11
40
0
40
0
40
0
40
0
40
0.111638757761187
40
0.224141231580271
40
0.335698745515102
40
0.447392445131786
40
0.559550865756536
40
0.706707905885669
40
0.853704785799044
40
1
40
1
40
1
40
1
41
1
10
22
20
10.725
30
0
41
1
10
21.3512937804092
20
10.7259697563924
30
0
41
1
10
20.0752765083816
20
10.8455063979152
30
0
41
1
10
18.1971361113224
20
11.3560005832402
30
0
41
1
10
16.4906500308084
20
12.264182782538
30
0
41
1
10
14.816087893152
20
13.2127822847841
30
0
41
1
10
12.8738410749319
20
14.0929809839261
30
0
41
1
10
10.686214696877
20
14.9067377019007
30
0
41
1
10
8.24390217159703
20
15.5772326340456
30
0
41
1
10
6.58949172378217
20
15.8826845919496
30
0
41
1
10
5.75570000000002
20
16
30
0
0
LINE
5
7F
100
AcDbEntity
8
SK1
62
256
6
ByLayer
370
13
48
1
60
0
100
AcDbLine
10
-6.5
20
-6.998572
30
0
11
-52.599857
21
-6.998572
31
0
39
0
210
0
220
0
230
1
0
LINE
5
81
100
AcDbEntity
8
SK1
62
256
6
ByLayer
370
13
48
1
60
0
100
AcDbLine
10
-52.599857
20
6.998572
30
0
11
-6.5
21
6.998572
31
0
39
0
210
0
220
0
230
1
0
LINE
5
82
100
AcDbEntity
8
SK1
62
256
6
ByLayer
370
13
48
1
60
0
100
AcDbLine
10
-56
20
4.998651
30
0
11
-56
21
-4.998651
31
0
39
0
210
0
220
0
230
1
0
LINE
5
83
100
AcDbEntity
8
SK1
62
256
6
ByLayer
370
13
48
1
60
0
100
AcDbLine
10
-55
20
6.998572
30
0
11
-54.60004
21
6.998572
31
0
39
0
210
0
220
0
230
1
0
LINE
5
84
100
AcDbEntity
8
SK1
62
256
6
ByLayer
370
13
48
1
60
0
100
AcDbLine
10
-6.5
20
-6.998572
30
0
11
-6.5
21
6.998572
31
0
39
0
210
0
220
0
230
1
0
LINE
5
85
100
AcDbEntity
8
1
62
256
6
ByLayer
370
13
48
1
60
0
100
AcDbLine
10
111.48954
20
4.362526
30
0
11
111.393975
21
4.357518
31
0
39
0
210
0
220
0
230
1
0
LINE
5
86
100
AcDbEntity
8
1
62
256
6
ByLayer
370
13
48
1
60
0
100
AcDbLine
10
111.180808
20
4.76174
30
0
11
112.197238
21
4.914072
31
0
39
0
210
0
220
0
230
1
0
LINE
5
87
100
AcDbEntity
8
1
62
256
6
ByLayer
370
13
48
1
60
0
100
AcDbLine
10
103.77724
20
9.850545
30
0
11
104.867033
21
10.013872
31
0
39
0
210
0
220
0
230
1
0
LINE
5
88
100
AcDbEntity
8
1
62
256
6
ByLayer
370
13
48
1
60
0
100
AcDbLine
10
112.458538
20
4.509557
30
0
11
112.446707
21
4.558549
31
0
39
0
210
0
220
0
230
1
0
LINE
5
89
100
AcDbEntity
8
1
62
256
6
ByLayer
370
13
48
1
60
0
100
AcDbLine
10
104.461088
20
4.120212
30
0
11
104.566979
21
4.124832
31
0
39
0
210
0
220
0
230
1
0
LINE
5
8A
100
AcDbEntity
8
1
62
256
6
ByLayer
370
13
48
1
60
0
100
AcDbLine
10
104.868917
20
4.463556
30
0
11
104.467551
21
7.004991
31
0
39
0
210
0
220
0
230
1
0
LINE
5
8B
100
AcDbEntity
8
1
62
256
6
ByLayer
370
13
48
1
60
0
100
AcDbLine
10
103.218607
20
7.183311
30
0
11
103.551188
21
9.724564
31
0
39
0
210
0
220
0
230
1
0
LINE
5
8C
100
AcDbEntity
8
1
62
256
6
ByLayer
370
13
48
1
60
0
100
AcDbLine
10
112.387122
20
5.043643
30
0
11
111.297329
21
4.880316
31
0
39
0
210
0
220
0
230
1
0
LINE
5
8D
100
AcDbEntity
8
1
62
256
6
ByLayer
370
13
48
1
60
0
100
AcDbLine
10
111.666376
20
10.772042
30
0
11
111.560486
21
10.767423
31
0
39
0
210
0
220
0
230
1
0
LINE
5
8E
100
AcDbEntity
8
1
62
256
6
ByLayer
370
13
48
1
60
0
100
AcDbLine
10
105.007456
20
4.371572
30
0
11
105.002843
21
4.37133
31
0
39
0
210
0
220
0
230
1
0
LINE
5
8F
100
AcDbEntity
8
1
62
256
6
ByLayer
370
13
48
1
60
0
100
AcDbLine
10
111.729268
20
10.924399
30
0
11
111.724655
21
10.924158
31
0
39
0
210
0
220
0
230
1
0
LINE
5
90
100
AcDbEntity
8
1
62
256
6
ByLayer
370
13
48
1
60
0
100
AcDbLine
10
112.847031
20
7.723952
30
0
11
112.842418
21
7.723711
31
0
39
0
210
0
220
0
230
1
0
LINE
5
91
100
AcDbEntity
8
1
62
256
6
ByLayer
370
13
48
1
60
0
100
AcDbLine
10
104.630853
20
7.230261
30
0
11
104.976577
21
9.87194
31
0
39
0
210
0
220
0
230
1
0
LINE
5
92
100
AcDbEntity
8
1
62
256
6
ByLayer
370
13
48
1
60
0
100
AcDbLine
10
112.847031
20
7.723952
30
0
11
112.513099
21
5.172387
31
0
39
0
210
0
220
0
230
1
0
LINE
5
93
100
AcDbEntity
8
1
62
256
6
ByLayer
370
13
48
1
60
0
100
AcDbLine
10
112.943853
20
7.854357
30
0
11
112.509842
21
10.602501
31
0
39
0
210
0
220
0
230
1
0
LINE
5
94
100
AcDbEntity
8
1
62
256
6
ByLayer
370
13
48
1
60
0
100
AcDbLine
10
103.317331
20
7.170236
30
0
11
103.651263
21
9.721802
31
0
39
0
210
0
220
0
230
1
0
LINE
5
95
100
AcDbEntity
8
1
62
256
6
ByLayer
370
13
48
1
60
0
100
AcDbLine
10
112.346563
20
5.191032
30
0
11
112.680495
21
7.742597
31
0
39
0
210
0
220
0
230
1
0
LINE
5
96
100
AcDbEntity
8
1
62
256
6
ByLayer
370
13
48
1
60
0
100
AcDbLine
10
105.084526
20
9.859349
30
0
11
104.738802
21
7.21767
31
0
39
0
210
0
220
0
230
1
0
LINE
5
97
100
AcDbEntity
8
1
62
256
6
ByLayer
370
13
48
1
60
0
100
AcDbLine
10
104.805353
20
9.854757
30
0
11
103.780901
21
9.701223
31
0
39
0
210
0
220
0
230
1
0
LINE
5
98
100
AcDbEntity
8
1
62
256
6
ByLayer
370
13
48
1
60
0
100
AcDbLine
10
103.447921
20
7.077918
30
0
11
103.881932
21
4.329774
31
0
39
0
210
0
220
0
230
1
0
LINE
5
99
100
AcDbEntity
8
1
62
256
6
ByLayer
370
13
48
1
60
0
100
AcDbLine
10
104.741084
20
7.045495
30
0
11
105.125954
21
4.608515
31
0
39
0
210
0
220
0
230
1
0
LINE
5
9A
100
AcDbEntity
8
1
62
256
6
ByLayer
370
13
48
1
60
0
100
AcDbLine
10
104.464317
20
7.248906
30
0
11
104.805353
21
9.854757
31
0
39
0
210
0
220
0
230
1
0
LINE
5
9B
100
AcDbEntity
8
1
62
256
6
ByLayer
370
13
48
1
60
0
100
AcDbLine
10
104.750913
20
4.067759
30
0
11
104.7463
21
4.067517
31
0
39
0
210
0
220
0
230
1
0
LINE
5
9C
100
AcDbEntity
8
1
62
256
6
ByLayer
370
13
48
1
60
0
100
AcDbLine
10
111.098284
20
5.035806
30
0
11
111.444009
21
7.677486
31
0
39
0
210
0
220
0
230
1
0
LINE
5
9D
100
AcDbEntity
8
1
62
256
6
ByLayer
370
13
48
1
60
0
100
AcDbLine
10
103.752864
20
4.307309
30
0
11
103.318853
21
7.055453
31
0
39
0
210
0
220
0
230
1
0
LINE
5
9E
100
AcDbEntity
8
1
62
256
6
ByLayer
370
13
48
1
60
0
100
AcDbLine
10
111.23405
20
10.875417
30
0
11
111.329615
21
10.880425
31
0
39
0
210
0
220
0
230
1
0
LINE
5
9F
100
AcDbEntity
8
1
62
256
6
ByLayer
370
13
48
1
60
0
100
AcDbLine
10
111.493084
20
11.014883
30
0
11
111.56802
21
11.018152
31
0
39
0
210
0
220
0
230
1
0
LINE
5
A0
100
AcDbEntity
8
1
62
256
6
ByLayer
370
13
48
1
60
0
100
AcDbLine
10
103.708808
20
10.361284
30
0
11
103.766101
21
9.949989
31
0
39
0
210
0
220
0
230
1
0
LINE
5
A1
100
AcDbEntity
8
1
62
256
6
ByLayer
370
13
48
1
60
0
100
AcDbLine
10
104.983553
20
10.132448
30
0
11
103.766101
21
9.949989
31
0
39
0
210
0
220
0
230
1
0
LINE
5
A2
100
AcDbEntity
8
1
62
256
6
ByLayer
370
13
48
1
60
0
100
AcDbLine
10
111.572386
20
10.918247
30
0
11
111.567774
21
10.918005
31
0
39
0
210
0
220
0
230
1
0
LINE
5
A3
100
AcDbEntity
8
1
62
256
6
ByLayer
370
13
48
1
60
0
100
AcDbLine
10
112.197238
20
4.914072
30
0
11
112.398261
21
4.9442
31
0
39
0
210
0
220
0
230
1
0
LINE
5
A4
100
AcDbEntity
8
1
62
256
6
ByLayer
370
13
48
1
60
0
100
AcDbLine
10
112.945755
20
7.710878
30
0
11
112.613173
21
5.169624
31
0
39
0
210
0
220
0
230
1
0
LINE
5
A5
100
AcDbEntity
8
1
62
256
6
ByLayer
370
13
48
1
60
0
100
AcDbLine
10
112.38251
20
5.043402
30
0
11
111.292717
21
4.880074
31
0
39
0
210
0
220
0
230
1
0
LINE
5
A6
100
AcDbEntity
8
1
62
256
6
ByLayer
370
13
48
1
60
0
100
AcDbLine
10
112.024669
20
10.924333
30
0
11
112.020057
21
10.924091
31
0
39
0
210
0
220
0
230
1
0
LINE
5
A7
100
AcDbEntity
8
1
62
256
6
ByLayer
370
13
48
1
60
0
100
AcDbLine
10
103.551188
20
9.724564
30
0
11
103.493896
21
10.135859
31
0
39
0
210
0
220
0
230
1
0
LINE
5
A8
100
AcDbEntity
8
1
62
256
6
ByLayer
370
13
48
1
60
0
100
AcDbLine
10
112.842418
20
7.723711
30
0
11
112.508487
21
5.172145
31
0
39
0
210
0
220
0
230
1
0
LINE
5
A9
100
AcDbEntity
8
1
62
256
6
ByLayer
370
13
48
1
60
0
100
AcDbLine
10
112.178821
20
4.518401
30
0
11
112.398261
21
4.9442
31
0
39
0
210
0
220
0
230
1
0
LINE
5
AA
100
AcDbEntity
8
1
62
256
6
ByLayer
370
13
48
1
60
0
100
AcDbLine
10
111.536106
20
4.422078
30
0
11
111.490181
21
4.415195
31
0
39
0
210
0
220
0
230
1
0
LINE
5
AB
100
AcDbEntity
8
1
62
256
6
ByLayer
370
13
48
1
60
0
100
AcDbLine
10
112.055352
20
4.417275
30
0
11
112.197238
21
4.914072
31
0
39
0
210
0
220
0
230
1
0
LINE
5
AC
100
AcDbEntity
8
1
62
256
6
ByLayer
370
13
48
1
60
0
100
AcDbLine
10
111.322112
20
5.037498
30
0
11
112.346563
21
5.191032
31
0
39
0
210
0
220
0
230
1
0
LINE
5
AD
100
AcDbEntity
8
1
62
256
6
ByLayer
370
13
48
1
60
0
100
AcDbLine
10
103.111218
20
7.036764
30
0
11
103.624489
21
4.290845
31
0
39
0
210
0
220
0
230
1
0
LINE
5
AE
100
AcDbEntity
8
1
62
256
6
ByLayer
370
13
48
1
60
0
100
AcDbLine
10
104.040295
20
10.624298
30
0
11
103.965428
21
10.619717
31
0
39
0
210
0
220
0
230
1
0
LINE
5
AF
100
AcDbEntity
8
1
62
256
6
ByLayer
370
13
48
1
60
0
100
AcDbLine
10
105.039069
20
4.461443
30
0
11
105.034456
21
4.461201
31
0
39
0
210
0
220
0
230
1
0
LINE
5
B0
100
AcDbEntity
8
1
62
256
6
ByLayer
370
13
48
1
60
0
100
AcDbLine
10
112.406885
20
10.586638
30
0
11
112.840896
21
7.838494
31
0
39
0
210
0
220
0
230
1
0
LINE
5
B1
100
AcDbEntity
8
1
62
256
6
ByLayer
370
13
48
1
60
0
100
AcDbLine
10
105.655154
20
9.99857
30
0
11
110.229211
21
10.238286
31
0
39
0
210
0
220
0
230
1
0
LINE
5
B2
100
AcDbEntity
8
1
62
256
6
ByLayer
370
13
48
1
60
0
100
AcDbLine
10
112.845509
20
7.838736
30
0
11
112.840896
21
7.838494
31
0
39
0
210
0
220
0
230
1
0
LINE
5
B3
100
AcDbEntity
8
1
62
256
6
ByLayer
370
13
48
1
60
0
100
AcDbLine
10
104.980497
20
9.901894
30
0
11
104.975885
21
9.901652
31
0
39
0
210
0
220
0
230
1
0
LINE
5
B4
100
AcDbEntity
8
1
62
256
6
ByLayer
370
13
48
1
60
0
100
AcDbLine
10
111.297329
20
4.880316
30
0
11
111.292717
21
4.880074
31
0
39
0
210
0
220
0
230
1
0
LINE
5
B5
100
AcDbEntity
8
1
62
256
6
ByLayer
370
13
48
1
60
0
100
AcDbLine
10
104.976577
20
9.87194
30
0
11
104.980497
21
9.901894
31
0
39
0
210
0
220
0
230
1
0
LINE
5
B6
100
AcDbEntity
8
1
62
256
6
ByLayer
370
13
48
1
60
0
100
AcDbLine
10
112.679544
20
7.814337
30
0
11
112.245532
21
10.562481
31
0
39
0
210
0
220
0
230
1
0
LINE
5
B7
100
AcDbEntity
8
1
62
256
6
ByLayer
370
13
48
1
60
0
100
AcDbLine
10
112.513099
20
5.172387
30
0
11
112.508487
21
5.172145
31
0
39
0
210
0
220
0
230
1
0
LINE
5
B8
100
AcDbEntity
8
1
62
256
6
ByLayer
370
13
48
1
60
0
100
AcDbLine
10
103.107891
20
7.186403
30
0
11
103.106089
21
7.172636
31
0
39
0
210
0
220
0
230
1
0
LINE
5
B9
100
AcDbEntity
8
1
62
256
6
ByLayer
370
13
48
1
60
0
100
AcDbLine
10
104.975885
20
9.901652
30
0
11
104.62624
21
7.230019
31
0
39
0
210
0
220
0
230
1
0
LINE
5
BA
100
AcDbEntity
8
1
62
256
6
ByLayer
370
13
48
1
60
0
100
AcDbLine
10
104.351524
20
10.457608
30
0
11
104.397449
21
10.464491
31
0
39
0
210
0
220
0
230
1
0
LINE
5
BB
100
AcDbEntity
8
1
62
256
6
ByLayer
370
13
48
1
60
0
100
AcDbLine
10
103.107891
20
7.186403
30
0
11
103.10466
21
7.199906
31
0
39
0
210
0
220
0
230
1
0
LINE
5
BC
100
AcDbEntity
8
1
62
256
6
ByLayer
370
13
48
1
60
0
100
AcDbLine
10
111.258548
20
10.428699
30
0
11
111.659914
21
7.887263
31
0
39
0
210
0
220
0
230
1
0
LINE
5
BD
100
AcDbEntity
8
1
62
256
6
ByLayer
370
13
48
1
60
0
100
AcDbLine
10
112.411497
20
10.586879
30
0
11
112.845509
21
7.838736
31
0
39
0
210
0
220
0
230
1
0
LINE
5
BE
100
AcDbEntity
8
1
62
256
6
ByLayer
370
13
48
1
60
0
100
AcDbLine
10
111.572386
20
10.918247
30
0
11
111.678276
21
10.922866
31
0
39
0
210
0
220
0
230
1
0
LINE
5
BF
100
AcDbEntity
8
1
62
256
6
ByLayer
370
13
48
1
60
0
100
AcDbLine
10
112.387122
20
5.043643
30
0
11
112.38251
21
5.043402
31
0
39
0
210
0
220
0
230
1
0
LINE
5
C0
100
AcDbEntity
8
1
62
256
6
ByLayer
370
13
48
1
60
0
100
AcDbLine
10
103.220509
20
7.039832
30
0
11
103.65452
21
4.291688
31
0
39
0
210
0
220
0
230
1
0
LINE
5
C1
100
AcDbEntity
8
1
62
256
6
ByLayer
370
13
48
1
60
0
100
AcDbLine
10
112.178821
20
4.518401
30
0
11
112.446707
21
4.558549
31
0
39
0
210
0
220
0
230
1
0
LINE
5
C2
100
AcDbEntity
8
1
62
256
6
ByLayer
370
13
48
1
60
0
100
AcDbLine
10
111.663148
20
7.643349
30
0
11
111.322112
21
5.037498
31
0
39
0
210
0
220
0
230
1
0
LINE
5
C3
100
AcDbEntity
8
1
62
256
6
ByLayer
370
13
48
1
60
0
100
AcDbLine
10
103.780901
20
9.701223
30
0
11
103.44697
21
7.149657
31
0
39
0
210
0
220
0
230
1
0
LINE
5
C4
100
AcDbEntity
8
1
62
256
6
ByLayer
370
13
48
1
60
0
100
AcDbLine
10
105.018385
20
4.59241
30
0
11
104.633516
21
7.02939
31
0
39
0
210
0
220
0
230
1
0
LINE
5
C5
100
AcDbEntity
8
1
62
256
6
ByLayer
370
13
48
1
60
0
100
AcDbLine
10
104.630853
20
7.230261
30
0
11
104.62624
21
7.230019
31
0
39
0
210
0
220
0
230
1
0
LINE
5
C6
100
AcDbEntity
8
1
62
256
6
ByLayer
370
13
48
1
60
0
100
AcDbLine
10
104.633516
20
7.02939
30
0
11
104.628904
21
7.029148
31
0
39
0
210
0
220
0
230
1
0
LINE
5
C7
100
AcDbEntity
8
1
62
256
6
ByLayer
370
13
48
1
60
0
100
AcDbLine
10
104.351524
20
10.457608
30
0
11
104.100828
21
10.459899
31
0
39
0
210
0
220
0
230
1
0
LINE
5
C8
100
AcDbEntity
8
1
62
256
6
ByLayer
370
13
48
1
60
0
100
AcDbLine
10
105.039069
20
4.461443
30
0
11
105.018385
21
4.59241
31
0
39
0
210
0
220
0
230
1
0
LINE
5
C9
100
AcDbEntity
8
1
62
256
6
ByLayer
370
13
48
1
60
0
100
AcDbLine
10
112.411497
20
10.586879
30
0
11
112.406885
21
10.586638
31
0
39
0
210
0
220
0
230
1
0
LINE
5
CA
100
AcDbEntity
8
1
62
256
6
ByLayer
370
13
48
1
60
0
100
AcDbLine
10
111.441726
20
7.849661
30
0
11
111.056857
21
10.286641
31
0
39
0
210
0
220
0
230
1
0
LINE
5
CB
100
AcDbEntity
8
1
62
256
6
ByLayer
370
13
48
1
60
0
100
AcDbLine
10
104.628904
20
7.029148
30
0
11
105.034456
21
4.461201
31
0
39
0
210
0
220
0
230
1
0
LINE
5
CC
100
AcDbEntity
8
1
62
256
6
ByLayer
370
13
48
1
60
0
100
AcDbLine
10
111.678276
20
10.922866
30
0
11
111.673664
21
10.922625
31
0
39
0
210
0
220
0
230
1
0
LINE
5
CD
100
AcDbEntity
8
1
62
256
6
ByLayer
370
13
48
1
60
0
100
AcDbLine
10
104.671278
20
3.879306
30
0
11
104.596342
21
3.876037
31
0
39
0
210
0
220
0
230
1
0
LINE
5
CE
100
AcDbEntity
8
1
62
256
6
ByLayer
370
13
48
1
60
0
100
AcDbLine
10
110.509208
20
4.895618
30
0
11
105.935151
21
4.655902
31
0
39
0
210
0
220
0
230
1
0
LINE
5
CF
100
AcDbEntity
8
1
62
256
6
ByLayer
370
13
48
1
60
0
100
AcDbLine
10
111.536106
20
4.422078
30
0
11
111.760529
21
4.41841
31
0
39
0
210
0
220
0
230
1
0
LINE
5
D0
100
AcDbEntity
8
1
62
256
6
ByLayer
370
13
48
1
60
0
100
AcDbLine
10
104.591976
20
3.975942
30
0
11
104.486086
21
3.971322
31
0
39
0
210
0
220
0
230
1
0
LINE
5
D1
100
AcDbEntity
8
SK1
62
256
6
ByLayer
370
13
48
1
60
0
100
AcDbLine
10
-54.60004
20
-6.998572
30
0
11
-55
21
-6.998572
31
0
39
0
210
0
220
0
230
1
0
LINE
5
D2
100
AcDbEntity
8
1
62
256
6
ByLayer
370
13
48
1
60
0
100
AcDbLine
10
100.356213
20
4.773197
30
0
11
100.356213
21
7.967415
31
0
39
0
210
0
220
0
230
1
0
LINE
5
D3
100
AcDbEntity
8
1
62
256
6
ByLayer
370
13
48
1
60
0
100
AcDbLine
10
100.312358
20
1.101471
30
0
11
100.482779
21
-0.069942
31
0
39
0
210
0
220
0
230
1
0
LINE
5
D4
100
AcDbEntity
8
1
62
256
6
ByLayer
370
13
48
1
60
0
100
AcDbLine
10
109.567793
20
4.792153
30
0
11
109.472503
21
4.787159
31
0
39
0
210
0
220
0
230
1
0
LINE
5
D5
100
AcDbEntity
8
1
62
256
6
ByLayer
370
13
48
1
60
0
100
AcDbLine
10
101.878357
20
5.548803
30
0
11
100.356213
21
7.967415
31
0
39
0
210
0
220
0
230
1
0
LINE
5
D6
100
AcDbEntity
8
1
62
256
6
ByLayer
370
13
48
1
60
0
100
AcDbLine
10
111.526375
20
4.097759
30
0
11
111.255832
21
0.95892
31
0
39
0
210
0
220
0
230
1
0
LINE
5
D7
100
AcDbEntity
8
1
62
256
6
ByLayer
370
13
48
1
60
0
100
AcDbLine
10
98.929262
20
-10.522137
30
0
11
98.929262
21
0.257203
31
0
39
0
210
0
220
0
230
1
0
LINE
5
D8
100
AcDbEntity
8
1
62
256
6
ByLayer
370
13
48
1
60
0
100
AcDbLine
10
112.286141
20
-3.125044
30
0
11
111.499991
21
-2.414946
31
0
39
0
210
0
220
0
230
1
0
LINE
5
D9
100
AcDbEntity
8
1
62
256
6
ByLayer
370
13
48
1
60
0
100
AcDbLine
10
106.239395
20
3.64107
30
0
11
106.484494
21
3.653915
31
0
39
0
210
0
220
0
230
1
0
LINE
5
DA
100
AcDbEntity
8
1
62
256
6
ByLayer
370
13
48
1
60
0
100
AcDbLine
10
105.805689
20
4.448843
30
0
11
105.815683
21
4.449367
31
0
39
0
210
0
220
0
230
1
0
LINE
5
DB
100
AcDbEntity
8
1
62
256
6
ByLayer
370
13
48
1
60
0
100
AcDbLine
10
112.192971
20
-6.320288
30
0
11
111.946376
21
-6.13872
31
0
39
0
210
0
220
0
230
1
0
LINE
5
DC
100
AcDbEntity
8
1
62
256
6
ByLayer
370
13
48
1
60
0
100
AcDbLine
10
100.595339
20
4.82353
30
0
11
101.878357
21
5.548803
31
0
39
0
210
0
220
0
230
1
0
LINE
5
DD
100
AcDbEntity
8
1
62
256
6
ByLayer
370
13
48
1
60
0
100
AcDbLine
10
108.286471
20
3.927963
30
0
11
111.526375
21
4.097759
31
0
39
0
210
0
220
0
230
1
0
LINE
5
DE
100
AcDbEntity
8
1
62
256
6
ByLayer
370
13
48
1
60
0
100
AcDbLine
10
101.929262
20
-10.682171
30
0
11
101.929262
21
-0.178845
31
0
39
0
210
0
220
0
230
1
0
LINE
5
DF
100
AcDbEntity
8
1
62
256
6
ByLayer
370
13
48
1
60
0
100
AcDbLine
10
109.785215
20
4.857675
30
0
11
110.282663
21
4.883746
31
0
39
0
210
0
220
0
230
1
0
LINE
5
E0
100
AcDbEntity
8
1
62
256
6
ByLayer
370
13
48
1
60
0
100
AcDbLine
10
5.7557
20
-3.968627
30
0
11
0.1
21
-3.968627
31
0
39
0
210
0
220
0
230
1
0
LINE
5
E1
100
AcDbEntity
8
1
62
256
6
ByLayer
370
13
48
1
60
0
100
AcDbLine
10
111.615608
20
-10.685606
30
0
11
102.085219
21
-10.685606
31
0
39
0
210
0
220
0
230
1
0
LINE
5
E2
100
AcDbEntity
8
1
62
256
6
ByLayer
370
13
48
1
60
0
100
AcDbLine
10
111.9944
20
-0.249049
30
0
11
111.2533
21
0.420357
31
0
39
0
210
0
220
0
230
1
0
LINE
5
E3
100
AcDbEntity
8
1
62
256
6
ByLayer
370
13
48
1
60
0
100
AcDbLine
10
0.1
20
3.968627
30
0
11
5.7557
21
3.968627
31
0
39
0
210
0
220
0
230
1
0
LINE
5
E4
100
AcDbEntity
8
1
62
256
6
ByLayer
370
13
48
1
60
0
100
AcDbLine
10
103.064715
20
7.261633
30
0
11
103.50259
21
10.607429
31
0
39
0
210
0
220
0
230
1
0
LINE
5
E5
100
AcDbEntity
8
1
62
256
6
ByLayer
370
13
48
1
60
0
100
AcDbLine
10
105.770643
20
4.363107
30
0
11
105.623958
21
4.35542
31
0
39
0
210
0
220
0
230
1
0
LINE
5
E6
100
AcDbEntity
8
1
62
256
6
ByLayer
370
13
48
1
60
0
100
AcDbLine
10
112.286141
20
-3.125044
30
0
11
111.960835
21
-5.584616
31
0
39
0
210
0
220
0
230
1
0
LINE
5
E7
100
AcDbEntity
8
1
62
256
6
ByLayer
370
13
48
1
60
0
100
AcDbLine
10
101.99173
20
4.675434
30
0
11
102.026436
21
4.664771
31
0
39
0
210
0
220
0
230
1
0
LINE
5
E8
100
AcDbEntity
8
1
62
256
6
ByLayer
370
13
48
1
60
0
100
AcDbLine
10
112.244494
20
4.2856
30
0
11
112.013767
21
4.273508
31
0
39
0
210
0
220
0
230
1
0
LINE
5
E9
100
AcDbEntity
8
1
62
256
6
ByLayer
370
13
48
1
60
0
100
AcDbLine
10
112.326015
20
3.742222
30
0
11
112.32587
21
0.947357
31
0
39
0
210
0
220
0
230
1
0
LINE
5
EA
100
AcDbEntity
8
1
62
256
6
ByLayer
370
13
48
1
60
0
100
AcDbLine
10
111.615608
20
-10.685606
30
0
11
112.192971
21
-6.320288
31
0
39
0
210
0
220
0
230
1
0
LINE
5
EB
100
AcDbEntity
8
1
62
256
6
ByLayer
370
13
48
1
60
0
100
AcDbLine
10
112.013767
20
4.273508
30
0
11
111.850036
21
4.264927
31
0
39
0
210
0
220
0
230
1
0
LINE
5
EC
100
AcDbEntity
8
1
62
256
6
ByLayer
370
13
48
1
60
0
100
AcDbLine
10
96.899185
20
1.955097
30
0
11
97.001029
21
1.255053
31
0
39
0
210
0
220
0
230
1
0
LINE
5
ED
100
AcDbEntity
8
1
62
256
6
ByLayer
370
13
48
1
60
0
100
AcDbLine
10
103.519211
20
9.650036
30
0
11
103.262278
21
7.686815
31
0
39
0
210
0
220
0
230
1
0
LINE
5
EE
100
AcDbEntity
8
1
62
256
6
ByLayer
370
13
48
1
60
0
100
AcDbLine
10
111.2533
20
0.420357
30
0
11
111.328008
21
-0.540588
31
0
39
0
210
0
220
0
230
1
0
LINE
5
EF
100
AcDbEntity
8
1
62
256
6
ByLayer
370
13
48
1
60
0
100
AcDbLine
10
110.743157
20
4.707605
30
0
11
107.784614
21
4.552554
31
0
39
0
210
0
220
0
230
1
0
LINE
5
F0
100
AcDbEntity
8
1
62
256
6
ByLayer
370
13
48
1
60
0
100
AcDbLine
10
112.234978
20
0.62549
30
0
11
112.254232
21
0.605429
31
0
39
0
210
0
220
0
230
1
0
LINE
5
F1
100
AcDbEntity
8
1
62
256
6
ByLayer
370
13
48
1
60
0
100
AcDbLine
10
103.190214
20
5.179112
30
0
11
102.977045
21
6.528887
31
0
39
0
210
0
220
0
230
1
0
LINE
5
F2
100
AcDbEntity
8
1
62
256
6
ByLayer
370
13
48
1
60
0
100
AcDbLine
10
111.9944
20
-0.249049
30
0
11
112.271195
21
-1.988616
31
0
39
0
210
0
220
0
230
1
0
LINE
5
F3
100
AcDbEntity
8
1
62
256
6
ByLayer
370
13
48
1
60
0
100
AcDbLine
10
58.4
20
-3.810608
30
0
11
58.4
21
10.606204
31
0
39
0
210
0
220
0
230
1
0
LINE
5
F4
100
AcDbEntity
8
1
62
256
6
ByLayer
370
13
48
1
60
0
100
AcDbLine
10
111.526375
20
4.097759
30
0
11
111.961145
21
4.120545
31
0
39
0
210
0
220
0
230
1
0
LINE
5
F5
100
AcDbEntity
8
1
62
256
6
ByLayer
370
13
48
1
60
0
100
AcDbLine
10
111.255832
20
0.95892
30
0
11
111.948502
21
0.333259
31
0
39
0
210
0
220
0
230
1
0
LINE
5
F6
100
AcDbEntity
8
1
62
256
6
ByLayer
370
13
48
1
60
0
100
AcDbLine
10
0
20
-3.544009
30
0
11
0
21
3.544009
31
0
39
0
210
0
220
0
230
1
0
LINE
5
F7
100
AcDbEntity
8
1
62
256
6
ByLayer
370
13
48
1
60
0
100
AcDbLine
10
111.452115
20
-1.248775
30
0
11
112.271195
21
-1.988616
31
0
39
0
210
0
220
0
230
1
0
LINE
5
F8
100
AcDbEntity
8
1
62
256
6
ByLayer
370
13
48
1
60
0
100
AcDbLine
10
106.1558
20
4.667466
30
0
11
106.653248
21
4.693536
31
0
39
0
210
0
220
0
230
1
0
LINE
5
F9
100
AcDbEntity
8
1
62
256
6
ByLayer
370
13
48
1
60
0
100
AcDbLine
10
112.257745
20
4.052312
30
0
11
112.244494
21
4.2856
31
0
39
0
210
0
220
0
230
1
0
LINE
5
FA
100
AcDbEntity
8
1
62
256
6
ByLayer
370
13
48
1
60
0
100
AcDbLine
10
107.905042
20
3.907973
30
0
11
108.286471
21
3.927963
31
0
39
0
210
0
220
0
230
1
0
LINE
5
FB
100
AcDbEntity
8
1
62
256
6
ByLayer
370
13
48
1
60
0
100
AcDbLine
10
107.891924
20
6.563413
30
0
11
107.811389
21
6.559193
31
0
39
0
210
0
220
0
230
1
0
LINE
5
FC
100
AcDbEntity
8
1
62
256
6
ByLayer
370
13
48
1
60
0
100
AcDbLine
10
107.800597
20
8.306047
30
0
11
107.720062
21
8.301826
31
0
39
0
210
0
220
0
230
1
0
LINE
5
FD
100
AcDbEntity
8
1
62
256
6
ByLayer
370
13
48
1
60
0
100
AcDbLine
10
108.86453
20
7.725538
30
0
11
108.844552
21
7.726237
31
0
39
0
210
0
220
0
230
1
0
LINE
5
FE
100
AcDbEntity
8
1
62
256
6
ByLayer
370
13
48
1
60
0
100
AcDbLine
10
108.597243
20
8.108609
30
0
11
108.604733
21
8.127219
31
0
39
0
210
0
220
0
230
1
0
LINE
5
FF
100
AcDbEntity
8
1
62
256
6
ByLayer
370
13
48
1
60
0
100
AcDbLine
10
108.672962
20
6.825317
30
0
11
108.663568
21
6.843042
31
0
39
0
210
0
220
0
230
1
0
LINE
5
100
100
AcDbEntity
8
1
62
256
6
ByLayer
370
13
48
1
60
0
100
AcDbLine
10
108.946069
20
7.729811
30
0
11
108.86453
21
7.725538
31
0
39
0
210
0
220
0
230
1
0
LINE
5
101
100
AcDbEntity
8
1
62
256
6
ByLayer
370
13
48
1
60
0
100
AcDbLine
10
108.950089
20
7.253391
30
0
11
108.869554
21
7.24917
31
0
39
0
210
0
220
0
230
1
0
LINE
5
102
100
AcDbEntity
8
1
62
256
6
ByLayer
370
13
48
1
60
0
100
AcDbLine
10
108.686272
20
8.131492
30
0
11
108.604733
21
8.127219
31
0
39
0
210
0
220
0
230
1
0
LINE
5
103
100
AcDbEntity
8
1
62
256
6
ByLayer
370
13
48
1
60
0
100
AcDbLine
10
108.744103
20
6.847263
30
0
11
108.663568
21
6.843042
31
0
39
0
210
0
220
0
230
1
0
LINE
5
104
100
AcDbEntity
8
1
62
256
6
ByLayer
370
13
48
1
60
0
100
AcDbLine
10
107.882344
20
6.54644
30
0
11
107.800805
21
6.542167
31
0
39
0
210
0
220
0
230
1
0
LINE
5
105
100
AcDbEntity
8
1
62
256
6
ByLayer
370
13
48
1
60
0
100
AcDbLine
10
108.925087
20
7.730458
30
0
11
108.844552
21
7.726237
31
0
39
0
210
0
220
0
230
1
0
LINE
5
106
100
AcDbEntity
8
1
62
256
6
ByLayer
370
13
48
1
60
0
100
AcDbLine
10
108.754501
20
6.82959
30
0
11
108.672962
21
6.825317
31
0
39
0
210
0
220
0
230
1
0
LINE
5
107
100
AcDbEntity
8
1
62
256
6
ByLayer
370
13
48
1
60
0
100
AcDbLine
10
108.677778
20
8.112829
30
0
11
108.597243
21
8.108609
31
0
39
0
210
0
220
0
230
1
0
LINE
5
108
100
AcDbEntity
8
1
62
256
6
ByLayer
370
13
48
1
60
0
100
AcDbLine
10
107.789295
20
8.321926
30
0
11
107.707756
21
8.317653
31
0
39
0
210
0
220
0
230
1
0
LINE
5
109
100
AcDbEntity
8
1
62
256
6
ByLayer
370
13
48
1
60
0
100
AcDbLine
10
108.869554
20
7.24917
30
0
11
108.88935
21
7.251954
31
0
39
0
210
0
220
0
230
1
0
LINE
5
10A
100
AcDbEntity
8
1
62
256
6
ByLayer
370
13
48
1
60
0
100
AcDbLine
10
107.720062
20
8.301826
30
0
11
107.707756
21
8.317653
31
0
39
0
210
0
220
0
230
1
0
LINE
5
10B
100
AcDbEntity
8
1
62
256
6
ByLayer
370
13
48
1
60
0
100
AcDbLine
10
108.970888
20
7.256227
30
0
11
108.88935
21
7.251954
31
0
39
0
210
0
220
0
230
1
0
LINE
5
10C
100
AcDbEntity
8
1
62
256
6
ByLayer
370
13
48
1
60
0
100
AcDbLine
10
107.800805
20
6.542167
30
0
11
107.811389
21
6.559193
31
0
39
0
210
0
220
0
230
1
0
LINE
5
10D
100
AcDbEntity
8
1
62
256
6
ByLayer
370
18
48
1
60
0
100
AcDbLine
10
112.002994
20
-6.099504
30
0
11
112.372615
21
-5.994005
31
0
39
0
210
0
220
0
230
1
0
LINE
5
10E
100
AcDbEntity
8
1
62
256
6
ByLayer
370
18
48
1
60
0
100
AcDbLine
10
112.57609
20
-0.14266
30
0
11
112.470103
21
0.225258
31
0
39
0
210
0
220
0
230
1
0
LINE
5
10F
100
AcDbEntity
8
1
62
256
6
ByLayer
370
18
48
1
60
0
100
AcDbLine
10
112.73523
20
-2.689522
30
0
11
112.389571
21
-5.302975
31
0
39
0
210
0
220
0
230
1
0
LINE
5
110
100
AcDbEntity
8
1
62
256
6
ByLayer
370
18
48
1
60
0
100
AcDbLine
10
112.337097
20
-0.056367
30
0
11
112.733352
21
-2.546703
31
0
39
0
210
0
220
0
230
1
0
LINE
5
111
100
AcDbEntity
8
1
62
256
6
ByLayer
370
18
48
1
60
0
100
AcDbLine
10
112.268841
20
0.194034
30
0
11
112.323884
21
0.00296
31
0
39
0
210
0
220
0
230
1
0
LINE
5
112
100
AcDbEntity
8
1
62
256
6
ByLayer
370
13
48
1
60
0
100
AcDbLine
10
112.483901
20
4.883829
30
0
11
112.446707
21
4.558549
31
0
39
0
210
0
220
0
230
1
0
LINE
5
113
100
AcDbEntity
8
1
62
256
6
ByLayer
370
13
48
1
60
0
100
AcDbLine
10
111.157263
20
10.8185
30
0
11
111.154592
21
10.818617
31
0
39
0
210
0
220
0
230
1
0
LINE
5
114
100
AcDbEntity
8
1
62
256
6
ByLayer
370
13
48
1
60
0
100
AcDbLine
10
102.985563
20
7.000073
30
0
11
103.537338
21
4.69398
31
0
39
0
210
0
220
0
230
1
0
LINE
5
115
100
AcDbEntity
8
1
62
256
6
ByLayer
370
13
48
1
60
0
100
AcDbLine
10
103.537338
20
4.69398
30
0
11
103.553838
21
4.668828
31
0
39
0
210
0
220
0
230
1
0
LINE
5
116
100
AcDbEntity
8
1
62
256
6
ByLayer
370
13
48
1
60
0
100
AcDbLine
10
103.087385
20
7.335142
30
0
11
103.088504
21
7.443427
31
0
39
0
210
0
220
0
230
1
0
LINE
5
117
100
AcDbEntity
8
1
62
256
6
ByLayer
370
13
48
1
60
0
100
AcDbLine
10
103.092811
20
7.27669
30
0
11
103.10778
21
7.407601
31
0
39
0
210
0
220
0
230
1
0
LINE
5
118
100
AcDbEntity
8
1
62
256
6
ByLayer
370
13
48
1
60
0
100
AcDbLine
10
111.568386
20
10.918032
30
0
11
111.673664
21
10.922625
31
0
39
0
210
0
220
0
230
1
0
LINE
5
119
100
AcDbEntity
8
1
62
256
6
ByLayer
370
13
48
1
60
0
100
AcDbLine
10
111.286033
20
4.879304
30
0
11
111.292717
21
4.880074
31
0
39
0
210
0
220
0
230
1
0
LINE
5
11A
100
AcDbEntity
8
1
62
256
6
ByLayer
370
13
48
1
60
0
100
AcDbLine
10
103.708808
20
10.361284
30
0
11
103.49735
21
10.329593
31
0
39
0
210
0
220
0
230
1
0
LINE
5
11B
100
AcDbEntity
8
1
62
256
6
ByLayer
370
13
48
1
60
0
100
AcDbLine
10
103.145822
20
7.476233
30
0
11
103.107891
21
7.186403
31
0
39
0
210
0
220
0
230
1
0
LINE
5
11C
100
AcDbEntity
8
1
62
256
6
ByLayer
370
13
48
1
60
0
100
AcDbLine
10
111.125293
20
10.432745
30
0
11
111.144557
21
10.310766
31
0
39
0
210
0
220
0
230
1
0
LINE
5
11D
100
AcDbEntity
8
1
62
256
6
ByLayer
370
13
48
1
60
0
100
AcDbLine
10
111.186626
20
5.013393
30
0
11
111.183864
21
4.992295
31
0
39
0
210
0
220
0
230
1
0
LINE
5
11E
100
AcDbEntity
8
1
62
256
6
ByLayer
370
13
48
1
60
0
100
AcDbLine
10
108.096554
20
5.89572
30
0
11
108.096697
21
5.895728
31
0
39
0
210
0
220
0
230
1
0
LINE
5
11F
100
AcDbEntity
8
1
62
256
6
ByLayer
370
13
48
1
60
0
100
AcDbLine
10
107.201754
20
7.16351
30
0
11
107.159516
21
7.161297
31
0
39
0
210
0
220
0
230
1
0
LINE
5
120
100
AcDbEntity
8
1
62
256
6
ByLayer
370
13
48
1
60
0
100
AcDbLine
10
107.176934
20
7.637095
30
0
11
107.135119
21
7.634903
31
0
39
0
210
0
220
0
230
1
0
LINE
5
121
100
AcDbEntity
8
1
62
256
6
ByLayer
370
13
48
1
60
0
100
AcDbLine
10
112.596341
20
5.104826
30
0
11
112.568639
21
4.759588
31
0
39
0
210
0
220
0
230
1
0
LINE
5
122
100
AcDbEntity
8
1
62
256
6
ByLayer
370
18
48
1
60
0
100
AcDbLine
10
112.139039
20
-5.592394
30
0
11
111.9532
21
-5.645437
31
0
39
0
210
0
220
0
230
1
0
LINE
5
123
100
AcDbEntity
8
1
62
256
6
ByLayer
370
13
48
1
60
0
100
AcDbLine
10
112.278846
20
3.830413
30
0
11
112.317366
21
3.75619
31
0
39
0
210
0
220
0
230
1
0
LINE
5
124
100
AcDbEntity
8
1
62
256
6
ByLayer
370
13
48
1
60
0
100
AcDbLine
10
103.321493
20
5.596087
30
0
11
103.37753
21
5.241265
31
0
39
0
210
0
220
0
230
1
0
LINE
5
125
100
AcDbEntity
8
1
62
256
6
ByLayer
370
13
48
1
60
0
100
AcDbLine
10
112.317366
20
3.75619
30
0
11
112.294675
21
3.755001
31
0
39
0
210
0
220
0
230
1
0
LINE
5
126
100
AcDbEntity
8
1
62
256
6
ByLayer
370
13
48
1
60
0
100
AcDbLine
10
105.60341
20
4.311406
30
0
11
105.253268
21
4.293055
31
0
39
0
210
0
220
0
230
1
0
LINE
5
127
100
AcDbEntity
8
1
62
256
6
ByLayer
370
13
48
1
60
0
100
AcDbLine
10
27
20
-10.702182
30
0
11
27
21
-10.725
31
0
39
0
210
0
220
0
230
1
0
LINE
5
128
100
AcDbEntity
8
1
62
256
6
ByLayer
370
13
48
1
60
0
100
AcDbLine
10
101.929262
20
10.725
30
0
11
101.929262
21
10.584624
31
0
39
0
210
0
220
0
230
1
0
LINE
5
129
100
AcDbEntity
8
1
62
256
6
ByLayer
370
13
48
1
60
0
100
AcDbLine
10
112.234978
20
0.62549
30
0
11
112.225095
21
0.626785
31
0
39
0
210
0
220
0
230
1
0
LINE
5
12A
100
AcDbEntity
8
1
62
256
6
ByLayer
370
13
48
1
60
0
100
AcDbLine
10
112.254232
20
0.605429
30
0
11
112.215919
21
0.61045
31
0
39
0
210
0
220
0
230
1
0
LINE
5
12B
100
AcDbEntity
8
1
62
256
6
ByLayer
370
13
48
1
60
0
100
AcDbLine
10
58.4
20
-10.601654
30
0
11
58.4
21
-10.615
31
0
39
0
210
0
220
0
230
1
0
LINE
5
12C
100
AcDbEntity
8
1
62
256
6
ByLayer
370
13
48
1
60
0
100
AcDbLine
10
98.929262
20
10.615
30
0
11
98.929262
21
10.45558
31
0
39
0
210
0
220
0
230
1
0
LINE
5
12D
100
AcDbEntity
8
SK1
62
256
6
ByLayer
370
13
48
1
60
0
100
AcDbLine
10
-56
20
-11.49675
30
0
11
-56
21
-4.998651
31
0
39
0
210
0
220
0
230
1
0
LINE
5
12E
100
AcDbEntity
8
SK1
62
256
6
ByLayer
370
13
48
1
60
0
100
AcDbLine
10
-56
20
4.998651
30
0
11
-56
21
11.49675
31
0
39
0
210
0
220
0
230
1
0
LINE
5
12F
100
AcDbEntity
8
SK1
62
256
6
ByLayer
370
13
48
1
60
0
100
AcDbLine
10
-54.60004
20
-12.49675
30
0
11
-54.60004
21
-6.998572
31
0
39
0
210
0
220
0
230
1
0
LINE
5
130
100
AcDbEntity
8
SK1
62
256
6
ByLayer
370
13
48
1
60
0
100
AcDbLine
10
-54.60004
20
6.998572
30
0
11
-54.60004
21
12.49675
31
0
39
0
210
0
220
0
230
1
0
LINE
5
131
100
AcDbEntity
8
SK1
62
256
6
ByLayer
370
13
48
1
60
0
100
AcDbLine
10
-55
20
-12.49675
30
0
11
-55
21
-6.998572
31
0
39
0
210
0
220
0
230
1
0
LINE
5
132
100
AcDbEntity
8
SK1
62
256
6
ByLayer
370
13
48
1
60
0
100
AcDbLine
10
-55
20
6.998572
30
0
11
-55
21
12.49675
31
0
39
0
210
0
220
0
230
1
0
LINE
5
133
100
AcDbEntity
8
SK1
62
256
6
ByLayer
370
13
48
1
60
0
100
AcDbLine
10
-54.516222
20
12.393244
30
0
11
-54.516222
21
6.812029
31
0
39
0
210
0
220
0
230
1
0
LINE
5
134
100
AcDbEntity
8
SK1
62
256
6
ByLayer
370
13
48
1
60
0
100
AcDbLine
10
-54.516222
20
-6.812029
30
0
11
-54.516222
21
-12.393244
31
0
39
0
210
0
220
0
230
1
0
LINE
5
135
100
AcDbEntity
8
SK1
62
256
6
ByLayer
370
13
48
1
60
0
100
AcDbLine
10
-53.633813
20
12.140367
30
0
11
-53.633813
21
6.340328
31
0
39
0
210
0
220
0
230
1
0
LINE
5
136
100
AcDbEntity
8
SK1
62
256
6
ByLayer
370
13
48
1
60
0
100
AcDbLine
10
-53.633813
20
-6.340328
30
0
11
-53.633813
21
-12.140367
31
0
39
0
210
0
220
0
230
1
0
LINE
5
137
100
AcDbEntity
8
1
62
256
6
ByLayer
370
13
48
1
60
0
100
AcDbLine
10
27
20
10.725
30
0
11
27
21
-3.625091
31
0
39
0
210
0
220
0
230
1
0
LINE
5
138
100
AcDbEntity
8
SK1
62
256
6
ByLayer
370
13
48
1
60
0
100
AcDbLine
10
-1.375195
20
-12.24675
30
0
11
-1.375195
21
12.24675
31
0
39
0
210
0
220
0
230
1
0
LINE
5
139
100
AcDbEntity
8
SK1
62
256
6
ByLayer
370
13
48
1
60
0
100
AcDbLine
10
-52.599857
20
12.49675
30
0
11
-52.599857
21
6.998572
31
0
39
0
210
0
220
0
230
1
0
LINE
5
13A
100
AcDbEntity
8
SK1
62
256
6
ByLayer
370
13
48
1
60
0
100
AcDbLine
10
-52.599857
20
-6.998572
30
0
11
-52.599857
21
-12.49675
31
0
39
0
210
0
220
0
230
1
0
LINE
5
13B
100
AcDbEntity
8
SK1
62
256
6
ByLayer
370
13
48
1
60
0
100
AcDbLine
10
-2
20
-12.49675
30
0
11
-2
21
12.49675
31
0
39
0
210
0
220
0
230
1
0
LINE
5
13C
100
AcDbEntity
8
SK1
62
256
6
ByLayer
370
13
48
1
60
0
100
AcDbLine
10
-1.544243
20
-12.284227
30
0
11
-1.544243
21
12.284227
31
0
39
0
210
0
220
0
230
1
0
LINE
5
13D
100
AcDbEntity
8
SK1
62
256
6
ByLayer
370
13
48
1
60
0
100
AcDbLine
10
-0.15
20
-12.24675
30
0
11
-0.15
21
12.24675
31
0
39
0
210
0
220
0
230
1
0
LINE
5
13E
100
AcDbEntity
8
1
62
256
6
ByLayer
370
13
48
1
60
0
100
AcDbLine
10
0
20
-15.9
30
0
11
0
21
-3.544009
31
0
39
0
210
0
220
0
230
1
0
LINE
5
13F
100
AcDbEntity
8
1
62
256
6
ByLayer
370
13
48
1
60
0
100
AcDbLine
10
0.1
20
-16
30
0
11
0.1
21
-3.968627
31
0
39
0
210
0
220
0
230
1
0
LINE
5
140
100
AcDbEntity
8
1
62
256
6
ByLayer
370
13
48
1
60
0
100
AcDbLine
10
0.1
20
16
30
0
11
0.1
21
3.968627
31
0
39
0
210
0
220
0
230
1
0
LINE
5
141
100
AcDbEntity
8
1
62
256
6
ByLayer
370
13
48
1
60
0
100
AcDbLine
10
0
20
15.9
30
0
11
0
21
3.544009
31
0
39
0
210
0
220
0
230
1
0
LINE
5
142
100
AcDbEntity
8
1
62
256
6
ByLayer
370
13
48
1
60
0
100
AcDbLine
10
5.7557
20
16
30
0
11
5.7557
21
3.968627
31
0
39
0
210
0
220
0
230
1
0
LINE
5
143
100
AcDbEntity
8
1
62
256
6
ByLayer
370
13
48
1
60
0
100
AcDbLine
10
5.7557
20
-3.968627
30
0
11
5.7557
21
-16
31
0
39
0
210
0
220
0
230
1
0
LINE
5
144
100
AcDbEntity
8
1
62
256
6
ByLayer
370
13
48
1
60
0
100
AcDbLine
10
22
20
10.725
30
0
11
22
21
-3.623898
31
0
39
0
210
0
220
0
230
1
0
LINE
5
145
100
AcDbEntity
8
1
62
256
6
ByLayer
370
13
48
1
60
0
100
AcDbLine
10
22
20
-10.702055
30
0
11
22
21
-10.725
31
0
39
0
210
0
220
0
230
1
0
LINE
5
146
100
AcDbEntity
8
4
62
256
6
ByLayer
370
18
48
0.05
60
0
100
AcDbLine
10
113
20
0
30
0
11
0
21
0
31
0
39
0
210
0
220
0
230
1
0
LINE
5
148
100
AcDbEntity
8
SK4
62
256
6
ByLayer
370
13
48
0.05
60
0
100
AcDbLine
10
113
20
0
30
0
11
-56
21
0
31
0
39
0
210
0
220
0
230
1
0
LINE
5
14A
100
AcDbEntity
8
SK1
62
256
6
ByLayer
370
13
48
1
60
0
100
AcDbLine
10
-56
20
-11.49675
30
0
11
-55
21
-12.49675
31
0
39
0
210
0
220
0
230
1
0
LINE
5
14B
100
AcDbEntity
8
SK1
62
256
6
ByLayer
370
13
48
1
60
0
100
AcDbLine
10
-55
20
12.49675
30
0
11
-56
21
11.49675
31
0
39
0
210
0
220
0
230
1
0
LINE
5
14C
100
AcDbEntity
8
SK1
62
256
6
ByLayer
370
13
48
1
60
0
100
AcDbLine
10
-53.633813
20
-12.140367
30
0
11
-52.599857
21
-12.49675
31
0
39
0
210
0
220
0
230
1
0
LINE
5
14D
100
AcDbEntity
8
SK1
62
256
6
ByLayer
370
13
48
1
60
0
100
AcDbLine
10
-52.599857
20
12.49675
30
0
11
-53.633813
21
12.140367
31
0
39
0
210
0
220
0
230
1
0
LINE
5
14E
100
AcDbEntity
8
SK1
62
256
6
ByLayer
370
13
48
1
60
0
100
AcDbLine
10
-54.60004
20
12.49675
30
0
11
-55
21
12.49675
31
0
39
0
210
0
220
0
230
1
0
LINE
5
14F
100
AcDbEntity
8
SK1
62
256
6
ByLayer
370
13
48
1
60
0
100
AcDbLine
10
-55
20
-12.49675
30
0
11
-54.60004
21
-12.49675
31
0
39
0
210
0
220
0
230
1
0
LINE
5
150
100
AcDbEntity
8
SK1
62
256
6
ByLayer
370
13
48
1
60
0
100
AcDbLine
10
-54.516222
20
12.393244
30
0
11
-54.60004
21
12.49675
31
0
39
0
210
0
220
0
230
1
0
LINE
5
151
100
AcDbEntity
8
SK1
62
256
6
ByLayer
370
13
48
1
60
0
100
AcDbLine
10
-54.60004
20
-12.49675
30
0
11
-54.516222
21
-12.393244
31
0
39
0
210
0
220
0
230
1
0
LINE
5
152
100
AcDbEntity
8
SK1
62
256
6
ByLayer
370
13
48
1
60
0
100
AcDbLine
10
-0.15
20
12.24675
30
0
11
-1.375195
21
12.24675
31
0
39
0
210
0
220
0
230
1
0
LINE
5
153
100
AcDbEntity
8
SK1
62
256
6
ByLayer
370
13
48
1
60
0
100
AcDbLine
10
-1.375195
20
-12.24675
30
0
11
-0.15
21
-12.24675
31
0
39
0
210
0
220
0
230
1
0
LINE
5
154
100
AcDbEntity
8
SK1
62
256
6
ByLayer
370
13
48
1
60
0
100
AcDbLine
10
-1.544243
20
12.284227
30
0
11
-2
21
12.49675
31
0
39
0
210
0
220
0
230
1
0
LINE
5
155
100
AcDbEntity
8
SK1
62
256
6
ByLayer
370
13
48
1
60
0
100
AcDbLine
10
-2
20
-12.49675
30
0
11
-1.544243
21
-12.284227
31
0
39
0
210
0
220
0
230
1
0
LINE
5
156
100
AcDbEntity
8
SK1
62
256
6
ByLayer
370
13
48
1
60
0
100
AcDbLine
10
-2
20
12.49675
30
0
11
-52.599857
21
12.49675
31
0
39
0
210
0
220
0
230
1
0
LINE
5
157
100
AcDbEntity
8
SK1
62
256
6
ByLayer
370
13
48
1
60
0
100
AcDbLine
10
-52.599857
20
-12.49675
30
0
11
-2
21
-12.49675
31
0
39
0
210
0
220
0
230
1
0
LINE
5
158
100
AcDbEntity
8
1
62
256
6
ByLayer
370
13
48
1
60
0
100
AcDbLine
10
112.366031
20
4.655103
30
0
11
112.58547
21
5.080901
31
0
39
0
210
0
220
0
230
1
0
LINE
5
159
100
AcDbEntity
8
1
62
256
6
ByLayer
370
13
48
1
60
0
100
AcDbLine
10
111.531278
20
7.864777
30
0
11
111.146408
21
10.301757
31
0
39
0
210
0
220
0
230
1
0
LINE
5
15A
100
AcDbEntity
8
1
62
256
6
ByLayer
370
13
48
1
60
0
100
AcDbLine
10
111.188214
20
5.022346
30
0
11
111.533939
21
7.664026
31
0
39
0
210
0
220
0
230
1
0
LINE
5
15B
100
AcDbEntity
8
1
62
256
6
ByLayer
370
13
48
1
60
0
100
AcDbLine
10
108.108426
20
6.656184
30
0
11
108.033781
21
6.652272
31
0
39
0
210
0
220
0
230
1
0
LINE
5
15C
100
AcDbEntity
8
1
62
256
6
ByLayer
370
13
48
1
60
0
100
AcDbLine
10
107.950964
20
8.232503
30
0
11
108.025609
21
8.236415
31
0
39
0
210
0
220
0
230
1
0
LINE
5
15D
100
AcDbEntity
8
1
62
256
6
ByLayer
370
13
48
1
60
0
100
AcDbLine
10
107.983415
20
8.994045
30
0
11
107.934313
21
8.991472
31
0
39
0
210
0
220
0
230
1
0
LINE
5
15E
100
AcDbEntity
8
1
62
256
6
ByLayer
370
13
48
1
60
0
100
AcDbLine
10
108.096554
20
5.89572
30
0
11
108.145656
21
5.898294
31
0
39
0
210
0
220
0
230
1
0
LINE
5
15F
100
AcDbEntity
8
1
62
256
6
ByLayer
370
13
48
1
60
0
100
AcDbLine
10
22
20
-10.725
30
0
11
27
21
-10.725
31
0
39
0
210
0
220
0
230
1
0
LINE
5
160
100
AcDbEntity
8
1
62
256
6
ByLayer
370
13
48
1
60
0
100
AcDbLine
10
27
20
-10.725
30
0
11
58.4
21
-10.615
31
0
39
0
210
0
220
0
230
1
0
LINE
5
161
100
AcDbEntity
8
1
62
256
6
ByLayer
370
13
48
1
60
0
100
AcDbLine
10
103.19737
20
10.725
30
0
11
101.929262
21
10.725
31
0
39
0
210
0
220
0
230
1
0
LINE
5
162
100
AcDbEntity
8
1
62
256
6
ByLayer
370
13
48
1
60
0
100
AcDbLine
10
101.929262
20
10.725
30
0
11
98.929262
21
10.615
31
0
39
0
210
0
220
0
230
1
0
LINE
5
163
100
AcDbEntity
8
1
62
256
6
ByLayer
370
13
48
1
60
0
100
AcDbLine
10
58.4
20
-10.615
30
0
11
62.898391
21
-10.615
31
0
39
0
210
0
220
0
230
1
0
LINE
5
164
100
AcDbEntity
8
1
62
256
6
ByLayer
370
13
48
1
60
0
100
AcDbLine
10
98.929262
20
10.615
30
0
11
94.846166
21
10.615
31
0
39
0
210
0
220
0
230
1
0
LINE
5
165
100
AcDbEntity
8
1
62
256
6
ByLayer
370
13
48
1
60
0
100
AcDbLine
10
52.286853
20
10.636415
30
0
11
27
21
10.725
31
0
39
0
210
0
220
0
230
1
0
LINE
5
166
100
AcDbEntity
8
1
62
256
6
ByLayer
370
13
48
1
60
0
100
AcDbLine
10
27
20
10.725
30
0
11
22
21
10.725
31
0
39
0
210
0
220
0
230
1
0
LINE
5
167
100
AcDbEntity
8
1
62
256
6
ByLayer
370
13
48
1
60
0
100
AcDbLine
10
0.1
20
-16
30
0
11
5.7557
21
-16
31
0
39
0
210
0
220
0
230
1
0
LINE
5
168
100
AcDbEntity
8
1
62
256
6
ByLayer
370
13
48
1
60
0
100
AcDbLine
10
5.7557
20
16
30
0
11
0.1
21
16
31
0
39
0
210
0
220
0
230
1
0
LINE
5
169
100
AcDbEntity
8
1
62
256
6
ByLayer
370
13
48
1
60
0
100
AcDbLine
10
0
20
-15.9
30
0
11
0.1
21
-16
31
0
39
0
210
0
220
0
230
1
0
LINE
5
16A
100
AcDbEntity
8
1
62
256
6
ByLayer
370
13
48
1
60
0
100
AcDbLine
10
0.1
20
16
30
0
11
0
21
15.9
31
0
39
0
210
0
220
0
230
1
0
LINE
5
16B
100
AcDbEntity
8
81
62
256
6
ByLayer
370
18
48
1
60
0
100
AcDbLine
10
113
20
0
30
0
11
120
21
0
31
0
39
0
210
0
220
0
230
1
0
LINE
5
16C
100
AcDbEntity
8
80
62
256
6
ByLayer
370
18
48
1
60
0
100
AcDbLine
10
0
20
0
30
0
11
-7
21
0
31
0
39
0
210
0
220
0
230
1
0
LINE
5
16D
100
AcDbEntity
8
SK2
62
256
6
ByLayer
370
13
48
1
60
0
100
AcDbLine
10
-76.725
20
23.75
30
0
11
-76.725
21
-23.75
31
0
39
0
210
0
220
0
230
1
0
LINE
5
16F
100
AcDbEntity
8
SK2
62
256
6
ByLayer
370
13
48
1
60
0
100
AcDbLine
10
-57.5875
20
-12.5
30
0
11
-79.9
21
-12.5
31
0
39
0
210
0
220
0
230
1
0
LINE
5
170
100
AcDbEntity
8
SK2
62
256
6
ByLayer
370
13
48
1
60
0
100
AcDbLine
10
-57.5875
20
12.5
30
0
11
-79.9
21
12.5
31
0
39
0
210
0
220
0
230
1
0
LINE
5
171
100
AcDbEntity
8
1
62
256
6
ByLayer
370
18
48
1
60
1
100
AcDbLine
10
-76.725
20
-12.5
30
0
11
-75.799425
21
-16.674997
31
0
39
0
210
0
220
0
230
1
0
LINE
5
172
100
AcDbEntity
8
1
62
256
6
ByLayer
370
18
48
1
60
1
100
AcDbLine
10
-75.799425
20
-16.674997
30
0
11
-77.650575
21
-16.675003
31
0
39
0
210
0
220
0
230
1
0
LINE
5
173
100
AcDbEntity
8
1
62
256
6
ByLayer
370
18
48
1
60
1
100
AcDbLine
10
-77.650575
20
-16.675003
30
0
11
-76.725
21
-12.5
31
0
39
0
210
0
220
0
230
1
0
LINE
5
174
100
AcDbEntity
8
1
62
256
6
ByLayer
370
18
48
1
60
1
100
AcDbLine
10
-76.725
20
12.5
30
0
11
-77.650575
21
16.674997
31
0
39
0
210
0
220
0
230
1
0
LINE
5
175
100
AcDbEntity
8
1
62
256
6
ByLayer
370
18
48
1
60
1
100
AcDbLine
10
-77.650575
20
16.674997
30
0
11
-75.799425
21
16.675003
31
0
39
0
210
0
220
0
230
1
0
LINE
5
176
100
AcDbEntity
8
1
62
256
6
ByLayer
370
18
48
1
60
1
100
AcDbLine
10
-75.799425
20
16.675003
30
0
11
-76.725
21
12.5
31
0
39
0
210
0
220
0
230
1
0
LINE
5
177
100
AcDbEntity
8
SK2
62
256
6
ByLayer
370
13
48
1
60
0
100
AcDbLine
10
-86.725
20
-16
30
0
11
-86.725
21
16
31
0
39
0
210
0
220
0
230
1
0
LINE
5
178
100
AcDbEntity
8
SK2
62
256
6
ByLayer
370
13
48
1
60
0
100
AcDbLine
10
-1.5875
20
16
30
0
11
-89.9
21
16
31
0
39
0
210
0
220
0
230
1
0
LINE
5
179
100
AcDbEntity
8
SK2
62
256
6
ByLayer
370
13
48
1
60
0
100
AcDbLine
10
-1.5875
20
-16
30
0
11
-89.9
21
-16
31
0
39
0
210
0
220
0
230
1
0
LINE
5
17A
100
AcDbEntity
8
1
62
256
6
ByLayer
370
18
48
1
60
1
100
AcDbLine
10
-86.725
20
16
30
0
11
-85.799425
21
11.825003
31
0
39
0
210
0
220
0
230
1
0
LINE
5
17B
100
AcDbEntity
8
1
62
256
6
ByLayer
370
18
48
1
60
1
100
AcDbLine
10
-85.799425
20
11.825003
30
0
11
-87.650575
21
11.824997
31
0
39
0
210
0
220
0
230
1
0
LINE
5
17C
100
AcDbEntity
8
1
62
256
6
ByLayer
370
18
48
1
60
1
100
AcDbLine
10
-87.650575
20
11.824997
30
0
11
-86.725
21
16
31
0
39
0
210
0
220
0
230
1
0
LINE
5
17D
100
AcDbEntity
8
1
62
256
6
ByLayer
370
18
48
1
60
1
100
AcDbLine
10
-86.725
20
-16
30
0
11
-87.650575
21
-11.825003
31
0
39
0
210
0
220
0
230
1
0
LINE
5
17E
100
AcDbEntity
8
1
62
256
6
ByLayer
370
18
48
1
60
1
100
AcDbLine
10
-87.650575
20
-11.825003
30
0
11
-85.799425
21
-11.824997
31
0
39
0
210
0
220
0
230
1
0
LINE
5
17F
100
AcDbEntity
8
1
62
256
6
ByLayer
370
18
48
1
60
1
100
AcDbLine
10
-85.799425
20
-11.824997
30
0
11
-86.725
21
-16
31
0
39
0
210
0
220
0
230
1
0
LINE
5
180
100
AcDbEntity
8
2
62
256
6
ByLayer
370
13
48
1
60
0
100
AcDbLine
10
139.975
20
-11
30
0
11
139.975
21
41.986611
31
0
39
0
210
0
220
0
230
1
0
LINE
5
182
100
AcDbEntity
8
2
62
256
6
ByLayer
370
13
48
1
60
0
100
AcDbLine
10
114.5875
20
-11
30
0
11
143.15
21
-11
31
0
39
0
210
0
220
0
230
1
0
LINE
5
183
100
AcDbEntity
8
2
62
256
6
ByLayer
370
13
48
1
60
0
100
AcDbLine
10
114.5875
20
11
30
0
11
143.15
21
11
31
0
39
0
210
0
220
0
230
1
0
LINE
5
184
100
AcDbEntity
8
1
62
256
6
ByLayer
370
18
48
1
60
1
100
AcDbLine
10
139.975
20
-11
30
0
11
139.049425
21
-6.825003
31
0
39
0
210
0
220
0
230
1
0
LINE
5
185
100
AcDbEntity
8
1
62
256
6
ByLayer
370
18
48
1
60
1
100
AcDbLine
10
139.049425
20
-6.825003
30
0
11
140.900575
21
-6.824997
31
0
39
0
210
0
220
0
230
1
0
LINE
5
186
100
AcDbEntity
8
1
62
256
6
ByLayer
370
18
48
1
60
1
100
AcDbLine
10
140.900575
20
-6.824997
30
0
11
139.975
21
-11
31
0
39
0
210
0
220
0
230
1
0
LINE
5
187
100
AcDbEntity
8
1
62
256
6
ByLayer
370
18
48
1
60
1
100
AcDbLine
10
139.975
20
11
30
0
11
140.900575
21
6.825003
31
0
39
0
210
0
220
0
230
1
0
LINE
5
188
100
AcDbEntity
8
1
62
256
6
ByLayer
370
18
48
1
60
1
100
AcDbLine
10
140.900575
20
6.825003
30
0
11
139.049425
21
6.824997
31
0
39
0
210
0
220
0
230
1
0
LINE
5
189
100
AcDbEntity
8
1
62
256
6
ByLayer
370
18
48
1
60
1
100
AcDbLine
10
139.049425
20
6.824997
30
0
11
139.975
21
11
31
0
39
0
210
0
220
0
230
1
0
LINE
5
348
100
AcDbEntity
8
1
62
256
6
ByLayer
370
18
48
1
60
1
100
AcDbLine
10
-76.725
20
-12.5
30
0
11
-75.799425
21
-16.674997
31
0
39
0
210
0
220
0
230
1
0
LINE
5
349
100
AcDbEntity
8
1
62
256
6
ByLayer
370
18
48
1
60
1
100
AcDbLine
10
-75.799425
20
-16.674997
30
0
11
-77.650575
21
-16.675003
31
0
39
0
210
0
220
0
230
1
0
LINE
5
34A
100
AcDbEntity
8
1
62
256
6
ByLayer
370
18
48
1
60
1
100
AcDbLine
10
-77.650575
20
-16.675003
30
0
11
-76.725
21
-12.5
31
0
39
0
210
0
220
0
230
1
0
LINE
5
34C
100
AcDbEntity
8
1
62
256
6
ByLayer
370
18
48
1
60
1
100
AcDbLine
10
-76.725
20
12.5
30
0
11
-77.650575
21
16.674997
31
0
39
0
210
0
220
0
230
1
0
LINE
5
34D
100
AcDbEntity
8
1
62
256
6
ByLayer
370
18
48
1
60
1
100
AcDbLine
10
-77.650575
20
16.674997
30
0
11
-75.799425
21
16.675003
31
0
39
0
210
0
220
0
230
1
0
LINE
5
34E
100
AcDbEntity
8
1
62
256
6
ByLayer
370
18
48
1
60
1
100
AcDbLine
10
-75.799425
20
16.675003
30
0
11
-76.725
21
12.5
31
0
39
0
210
0
220
0
230
1
0
LINE
5
352
100
AcDbEntity
8
1
62
256
6
ByLayer
370
18
48
1
60
1
100
AcDbLine
10
-86.725
20
16
30
0
11
-85.799425
21
11.825003
31
0
39
0
210
0
220
0
230
1
0
LINE
5
353
100
AcDbEntity
8
1
62
256
6
ByLayer
370
18
48
1
60
1
100
AcDbLine
10
-85.799425
20
11.825003
30
0
11
-87.650575
21
11.824997
31
0
39
0
210
0
220
0
230
1
0
LINE
5
354
100
AcDbEntity
8
1
62
256
6
ByLayer
370
18
48
1
60
1
100
AcDbLine
10
-87.650575
20
11.824997
30
0
11
-86.725
21
16
31
0
39
0
210
0
220
0
230
1
0
LINE
5
356
100
AcDbEntity
8
1
62
256
6
ByLayer
370
18
48
1
60
1
100
AcDbLine
10
-86.725
20
-16
30
0
11
-87.650575
21
-11.825003
31
0
39
0
210
0
220
0
230
1
0
LINE
5
357
100
AcDbEntity
8
1
62
256
6
ByLayer
370
18
48
1
60
1
100
AcDbLine
10
-87.650575
20
-11.825003
30
0
11
-85.799425
21
-11.824997
31
0
39
0
210
0
220
0
230
1
0
LINE
5
358
100
AcDbEntity
8
1
62
256
6
ByLayer
370
18
48
1
60
1
100
AcDbLine
10
-85.799425
20
-11.824997
30
0
11
-86.725
21
-16
31
0
39
0
210
0
220
0
230
1
0
LINE
5
35C
100
AcDbEntity
8
1
62
256
6
ByLayer
370
18
48
1
60
1
100
AcDbLine
10
139.975
20
-11
30
0
11
139.049425
21
-6.825003
31
0
39
0
210
0
220
0
230
1
0
LINE
5
35D
100
AcDbEntity
8
1
62
256
6
ByLayer
370
18
48
1
60
1
100
AcDbLine
10
139.049425
20
-6.825003
30
0
11
140.900575
21
-6.824997
31
0
39
0
210
0
220
0
230
1
0
LINE
5
35E
100
AcDbEntity
8
1
62
256
6
ByLayer
370
18
48
1
60
1
100
AcDbLine
10
140.900575
20
-6.824997
30
0
11
139.975
21
-11
31
0
39
0
210
0
220
0
230
1
0
LINE
5
360
100
AcDbEntity
8
1
62
256
6
ByLayer
370
18
48
1
60
1
100
AcDbLine
10
139.975
20
11
30
0
11
140.900575
21
6.825003
31
0
39
0
210
0
220
0
230
1
0
LINE
5
361
100
AcDbEntity
8
1
62
256
6
ByLayer
370
18
48
1
60
1
100
AcDbLine
10
140.900575
20
6.825003
30
0
11
139.049425
21
6.824997
31
0
39
0
210
0
220
0
230
1
0
LINE
5
362
100
AcDbEntity
8
1
62
256
6
ByLayer
370
18
48
1
60
1
100
AcDbLine
10
139.049425
20
6.824997
30
0
11
139.975
21
11
31
0
39
0
210
0
220
0
230
1
0
MTEXT
5
344
100
AcDbEntity
8
SK2
62
256
6
ByLayer
370
18
48
1
60
0
100
AcDbMText
10
-78.736672
20
-6.949399
30
0
210
0
220
0
230
1
1
%%c
40
4.5
41
0
44
1.084337
50
90
71
7
72
5
7
iso_b_vert
0
MTEXT
5
347
100
AcDbEntity
8
SK2
62
256
6
ByLayer
370
18
48
1
60
0
100
AcDbMText
10
-78.736672
20
4.265444
30
0
210
0
220
0
230
1
1
\W0.6740;25
40
4.5
41
0
44
1.084337
50
90
71
7
72
5
7
iso_b_vert
0
MTEXT
5
350
100
AcDbEntity
8
SK2
62
256
6
ByLayer
370
18
48
1
60
0
100
AcDbMText
10
-88.736672
20
-6.949399
30
0
210
0
220
0
230
1
1
%%c
40
4.5
41
0
44
1.084337
50
90
71
7
72
5
7
iso_b_vert
0
MTEXT
5
351
100
AcDbEntity
8
SK2
62
256
6
ByLayer
370
18
48
1
60
0
100
AcDbMText
10
-88.736672
20
4.265444
30
0
210
0
220
0
230
1
1
\W0.6740;32
40
4.5
41
0
44
1.084337
50
90
71
7
72
5
7
iso_b_vert
0
MTEXT
5
35A
100
AcDbEntity
8
2
62
256
6
ByLayer
370
18
48
1
60
0
100
AcDbMText
10
137.963328
20
25.600156
30
0
210
0
220
0
230
1
1
%%c
40
4.5
41
0
44
1.084337
50
90
71
7
72
5
7
iso_b_vert
0
MTEXT
5
35B
100
AcDbEntity
8
2
62
256
6
ByLayer
370
18
48
1
60
0
100
AcDbMText
10
137.963328
20
36.815
30
0
210
0
220
0
230
1
1
\W0.6740;22
40
4.5
41
0
44
1.084337
50
90
71
7
72
5
7
iso_b_vert
0
MTEXT
5
364
100
AcDbEntity
8
SK6
62
256
6
ByLayer
370
18
48
1
60
0
100
AcDbMText
10
9.308916
20
-94.592562
30
0
210
0
220
0
230
1
1
\W0.7699;DS20-D2200L25-04
40
3.5
41
0
44
1.084337
50
0
71
7
72
5
7
iso_b_vert
0
HATCH
5
34B
100
AcDbEntity
8
SK2
62
256
6
ByLayer
370
13
48
1
60
0
100
AcDbHatch
10
0
20
0
30
0
210
0
220
0
230
1
2
ANSI31
70
0
71
0
91
1
92
5
93
3
72
1
10
-76.725
20
-12.4999999999999
11
-75.799424783472
21
-16.6749966001723
72
1
10
-75.799424783472
20
-16.6749966001723
11
-77.650575216528
21
-16.6750033998275
72
1
10
-77.650575216528
20
-16.6750033998275
11
-76.725
21
-12.4999999999999
97
0
75
0
76
1
52
0
41
0.0062
77
0
78
1
53
45
43
0
44
0
45
-0.0139193969876572
46
0.0139193969876572
79
0
47
0
98
1
10
0
20
0
0
HATCH
5
34F
100
AcDbEntity
8
SK2
62
256
6
ByLayer
370
13
48
1
60
0
100
AcDbHatch
10
0
20
0
30
0
210
0
220
0
230
1
2
ANSI31
70
0
71
0
91
1
92
5
93
3
72
1
10
-76.725
20
12.5000000000001
11
-77.650575216528
21
16.6749966001725
72
1
10
-77.650575216528
20
16.6749966001725
11
-75.799424783472
21
16.6750033998277
72
1
10
-75.799424783472
20
16.6750033998277
11
-76.725
21
12.5000000000001
97
0
75
0
76
1
52
0
41
0.0062
77
0
78
1
53
45
43
0
44
0
45
-0.0139193969876572
46
0.0139193969876572
79
0
47
0
98
1
10
0
20
0
0
HATCH
5
355
100
AcDbEntity
8
SK2
62
256
6
ByLayer
370
13
48
1
60
0
100
AcDbHatch
10
0
20
0
30
0
210
0
220
0
230
1
2
ANSI31
70
0
71
0
91
1
92
5
93
3
72
1
10
-86.725
20
16
11
-85.799424783472
21
11.8250033998276
72
1
10
-85.799424783472
20
11.8250033998276
11
-87.650575216528
21
11.8249966001724
72
1
10
-87.650575216528
20
11.8249966001724
11
-86.725
21
16
97
0
75
0
76
1
52
0
41
0.0062
77
0
78
1
53
45
43
0
44
0
45
-0.0139193969876572
46
0.0139193969876572
79
0
47
0
98
1
10
0
20
0
0
HATCH
5
359
100
AcDbEntity
8
SK2
62
256
6
ByLayer
370
13
48
1
60
0
100
AcDbHatch
10
0
20
0
30
0
210
0
220
0
230
1
2
ANSI31
70
0
71
0
91
1
92
5
93
3
72
1
10
-86.725
20
-16
11
-87.650575216528
21
-11.8250033998276
72
1
10
-87.650575216528
20
-11.8250033998276
11
-85.799424783472
21
-11.8249966001724
72
1
10
-85.799424783472
20
-11.8249966001724
11
-86.725
21
-16
97
0
75
0
76
1
52
0
41
0.0062
77
0
78
1
53
45
43
0
44
0
45
-0.0139193969876572
46
0.0139193969876572
79
0
47
0
98
1
10
0
20
0
0
HATCH
5
35F
100
AcDbEntity
8
2
62
256
6
ByLayer
370
13
48
1
60
0
100
AcDbHatch
10
0
20
0
30
0
210
0
220
0
230
1
2
ANSI31
70
0
71
0
91
1
92
5
93
3
72
1
10
139.975
20
-11.0000000000001
11
139.049424783472
21
-6.82500339982772
72
1
10
139.049424783472
20
-6.82500339982772
11
140.900575216528
21
-6.82499660017248
72
1
10
140.900575216528
20
-6.82499660017248
11
139.975
21
-11.0000000000001
97
0
75
0
76
1
52
0
41
0.0062
77
0
78
1
53
45
43
0
44
0
45
-0.0139193969876572
46
0.0139193969876572
79
0
47
0
98
1
10
0
20
0
0
HATCH
5
363
100
AcDbEntity
8
2
62
256
6
ByLayer
370
13
48
1
60
0
100
AcDbHatch
10
0
20
0
30
0
210
0
220
0
230
1
2
ANSI31
70
0
71
0
91
1
92
5
93
3
72
1
10
139.975
20
10.9999999999999
11
140.900575216528
21
6.82500339982749
72
1
10
140.900575216528
20
6.82500339982749
11
139.049424783472
21
6.82499660017226
72
1
10
139.049424783472
20
6.82499660017226
11
139.975
21
10.9999999999999
97
0
75
0
76
1
52
0
41
0.0062
77
0
78
1
53
45
43
0
44
0
45
-0.0139193969876572
46
0.0139193969876572
79
0
47
0
98
1
10
0
20
0
0
DIMENSION
5
367
100
AcDbEntity
8
2
62
256
6
ByLayer
370
18
48
1
60
0
100
AcDbDimension
2
_U0
10
113
20
-64.861008
30
0
11
56.5
21
-64.861008
31
0
70
32
71
1
72
1
41
1
210
0
220
0
230
1
3
Standard
100
AcDbAlignedDimension
13
0
23
-16
33
0
14
113
24
-11
34
0
50
0
100
AcDbRotatedDimension
1001
ACAD
1000
DSTYLE
1002
{
1070
   371
1070
    13
1070
   372
1070
    13
1070
   170
1070
     0
1070
   144
1040
1.0
1070
   277
1070
     2
1070
   284
1070
     8
1070
   278
1070
    46
1070
   146
1040
0.777778
1070
   345
1005
16
1070
   347
1005
16
1070
   346
1005
16
1070
   344
1005
0
1070
   343
1005
0
1070
   172
1070
     1
1070
    76
1070
     0
1070
    75
1070
     0
1070
   282
1070
     0
1070
   281
1070
     0
1070
    71
1070
     0
1070
    74
1070
     0
1070
   279
1070
     0
1070
   173
1070
     1
1070
   340
1005
345
1070
   271
1070
     1
1070
   272
1070
     2
1070
    77
1070
     1
1070
    73
1070
     1
1070
   171
1070
     3
1070
   274
1070
     4
1070
   177
1070
   150
1070
   176
1070
     9
1070
   178
1070
    43
1070
    78
1070
     8
1070
    48
1040
-0.1
1070
    41
1040
4.175
1070
   147
1040
2.25
1070
    42
1040
1.5875
1070
    44
1040
3.175
1070
   140
1040
4.5
1002
}
1001
ACAD_DSTYLE_DIM_LINETYPE
1070
   380
1005
16
1001
ACAD_DSTYLE_DIM_EXT1_LINETYPE
1070
   381
1005
16
1001
ACAD_DSTYLE_DIM_EXT2_LINETYPE
1070
   382
1005
16
0
DIMENSION
5
380
100
AcDbEntity
8
SK2
62
256
6
ByLayer
370
18
48
1
60
0
100
AcDbDimension
2
_U1
10
0
20
-64.861008
30
0
11
-28
21
-64.861008
31
0
70
32
71
1
72
1
41
1
210
0
220
0
230
1
3
Standard
100
AcDbAlignedDimension
13
-56
23
-12.5
33
0
14
0
24
-16
34
0
50
0
100
AcDbRotatedDimension
1001
ACAD
1000
DSTYLE
1002
{
1070
   371
1070
    13
1070
   372
1070
    13
1070
   170
1070
     0
1070
   144
1040
1.0
1070
   277
1070
     2
1070
   284
1070
     8
1070
   278
1070
    46
1070
   146
1040
0.777778
1070
   345
1005
16
1070
   347
1005
16
1070
   346
1005
16
1070
   344
1005
0
1070
   343
1005
0
1070
   172
1070
     1
1070
    76
1070
     0
1070
    75
1070
     0
1070
   282
1070
     0
1070
   281
1070
     0
1070
    71
1070
     0
1070
    74
1070
     0
1070
   279
1070
     0
1070
   173
1070
     1
1070
   340
1005
345
1070
   271
1070
     1
1070
   272
1070
     2
1070
    77
1070
     1
1070
    73
1070
     1
1070
   171
1070
     3
1070
   274
1070
     4
1070
   177
1070
   150
1070
   176
1070
     9
1070
   178
1070
    43
1070
    78
1070
     8
1070
    48
1040
-0.1
1070
    41
1040
4.175
1070
   147
1040
2.25
1070
    42
1040
1.5875
1070
    44
1040
3.175
1070
   140
1040
4.5
1002
}
1001
ACAD_DSTYLE_DIM_LINETYPE
1070
   380
1005
16
1001
ACAD_DSTYLE_DIM_EXT1_LINETYPE
1070
   381
1005
16
1001
ACAD_DSTYLE_DIM_EXT2_LINETYPE
1070
   382
1005
16
0
DIMENSION
5
398
100
AcDbEntity
8
SK2
62
256
6
ByLayer
370
18
48
1
60
0
100
AcDbDimension
2
_U2
10
6.2557
20
-54.861008
30
0
11
59.62785
21
-54.861008
31
0
70
32
71
1
72
1
41
1
210
0
220
0
230
1
3
Standard
100
AcDbAlignedDimension
13
113
23
-11
33
0
14
6.2557
24
-16
34
0
50
0
100
AcDbRotatedDimension
1001
ACAD
1000
DSTYLE
1002
{
1070
   371
1070
    13
1070
   372
1070
    13
1070
   170
1070
     0
1070
   144
1040
1.0
1070
   277
1070
     2
1070
   284
1070
     8
1070
   278
1070
    46
1070
   146
1040
0.777778
1070
   345
1005
16
1070
   347
1005
16
1070
   346
1005
16
1070
   344
1005
0
1070
   343
1005
0
1070
   172
1070
     1
1070
    76
1070
     0
1070
    75
1070
     0
1070
   282
1070
     0
1070
   281
1070
     0
1070
    71
1070
     0
1070
    74
1070
     0
1070
   279
1070
     0
1070
   173
1070
     1
1070
   340
1005
345
1070
   271
1070
     1
1070
   272
1070
     2
1070
    77
1070
     1
1070
    73
1070
     1
1070
   171
1070
     3
1070
   274
1070
     4
1070
   177
1070
   150
1070
   176
1070
     9
1070
   178
1070
    43
1070
    78
1070
     8
1070
    48
1040
-0.1
1070
    41
1040
4.175
1070
   147
1040
2.25
1070
    42
1040
1.5875
1070
    44
1040
3.175
1070
   140
1040
4.5
1002
}
1001
ACAD_DSTYLE_DIM_LINETYPE
1070
   380
1005
16
1001
ACAD_DSTYLE_DIM_EXT1_LINETYPE
1070
   381
1005
16
1001
ACAD_DSTYLE_DIM_EXT2_LINETYPE
1070
   382
1005
16
0
DIMENSION
5
3B0
100
AcDbEntity
8
SK2
62
256
6
ByLayer
370
18
48
1
60
0
100
AcDbDimension
2
_U3
10
113
20
-44.861008
30
0
11
67.5
21
-44.861008
31
0
70
32
71
1
72
1
41
1
210
0
220
0
230
1
3
Standard
100
AcDbAlignedDimension
13
22
23
-11
33
0
14
113
24
-11
34
0
50
0
100
AcDbRotatedDimension
1001
ACAD
1000
DSTYLE
1002
{
1070
   371
1070
    13
1070
   372
1070
    13
1070
   170
1070
     0
1070
   144
1040
1.0
1070
   277
1070
     2
1070
   284
1070
     8
1070
   278
1070
    46
1070
   146
1040
0.777778
1070
   345
1005
16
1070
   347
1005
16
1070
   346
1005
16
1070
   344
1005
0
1070
   343
1005
0
1070
   172
1070
     1
1070
    76
1070
     0
1070
    75
1070
     0
1070
   282
1070
     0
1070
   281
1070
     0
1070
    71
1070
     0
1070
    74
1070
     0
1070
   279
1070
     0
1070
   173
1070
     1
1070
   340
1005
345
1070
   271
1070
     1
1070
   272
1070
     2
1070
    77
1070
     1
1070
    73
1070
     1
1070
   171
1070
     3
1070
   274
1070
     4
1070
   177
1070
   150
1070
   176
1070
     9
1070
   178
1070
    43
1070
    78
1070
     8
1070
    48
1040
-0.1
1070
    41
1040
4.175
1070
   147
1040
2.25
1070
    42
1040
1.5875
1070
    44
1040
3.175
1070
   140
1040
4.5
1002
}
1001
ACAD_DSTYLE_DIM_LINETYPE
1070
   380
1005
16
1001
ACAD_DSTYLE_DIM_EXT1_LINETYPE
1070
   381
1005
16
1001
ACAD_DSTYLE_DIM_EXT2_LINETYPE
1070
   382
1005
16
0
DIMENSION
5
3C8
100
AcDbEntity
8
2
62
256
6
ByLayer
370
18
48
1
60
0
100
AcDbDimension
2
_U4
10
113
20
-34.861008
30
0
11
135.350893
21
-34.861008
31
0
70
32
71
1
72
1
41
1
210
0
220
0
230
1
3
Standard
100
AcDbAlignedDimension
13
112.4423
23
-5.5
33
0
14
113
24
0
34
0
50
0
100
AcDbRotatedDimension
1001
ACAD
1000
DSTYLE
1002
{
1070
   371
1070
    13
1070
   372
1070
    13
1070
   170
1070
     0
1070
   144
1040
1.0
1070
   277
1070
     2
1070
   284
1070
     8
1070
   278
1070
    46
1070
   146
1040
0.777778
1070
   345
1005
16
1070
   347
1005
16
1070
   346
1005
16
1070
   344
1005
0
1070
   343
1005
0
1070
   172
1070
     1
1070
    76
1070
     0
1070
    75
1070
     0
1070
   282
1070
     0
1070
   281
1070
     0
1070
    71
1070
     0
1070
    74
1070
     0
1070
   279
1070
     0
1070
   173
1070
     1
1070
   340
1005
345
1070
   271
1070
     2
1070
   272
1070
     2
1070
    77
1070
     1
1070
    73
1070
     1
1070
   171
1070
     3
1070
   274
1070
     4
1070
   177
1070
   150
1070
   176
1070
     9
1070
   178
1070
    43
1070
    78
1070
     8
1070
    48
1040
-0.1
1070
    41
1040
4.175
1070
   147
1040
2.25
1070
    42
1040
1.5875
1070
    44
1040
3.175
1070
   140
1040
4.5
1002
}
1001
ACAD_DSTYLE_DIM_LINETYPE
1070
   380
1005
16
1001
ACAD_DSTYLE_DIM_EXT1_LINETYPE
1070
   381
1005
16
1001
ACAD_DSTYLE_DIM_EXT2_LINETYPE
1070
   382
1005
16
0
ENDSEC
0
SECTION
2
OBJECTS
0
DICTIONARY
5
452
330
0
100
AcDbDictionary
280
0
281
1
3
ACAD_GROUP
350
453
3
ACAD_MLINESTYLE
350
454
0
DICTIONARY
5
453
330
0
100
AcDbDictionary
280
0
281
1
0
DICTIONARY
5
454
330
0
100
AcDbDictionary
280
0
281
1
3
Standard
350
18
0
MLINESTYLE
5
18
330
454
100
AcDbMlineStyle
2
Standard
70
0
3

62
256
51
90
52
90
71
2
49
-0.5
62
256
6
ByLayer
49
0.5
62
256
6
ByLayer
0
RASTERVARIABLES
5
440
330

100
AcDbRasterVariables
90
0
70
1
71
1
72
1
0
ENDSEC
0
EOF
