0
SECTION
2
HEADER
9
$ACADVER
1
AC1015
9
$DWGCODEPAGE
3
ANSI_1252
9
$HANDSEED
5
453
9
$ANGBASE
50
0
9
$ANGDIR
70
0
9
$ATTMODE
70
1
9
$AUNITS
70
0
9
$AUPREC
70
0
9
$CECOLOR
62
256
9
$CELTSCALE
40
1
9
$CELTYPE
6
ByLayer
9
$CELWEIGHT
370
18
9
$CLAYER
8
0
9
$CMLJUST
70
0
9
$CMLSCALE
40
1
9
$CMLSTYLE
2
Standard
9
$DIMSTYLE
2
Standard
9
$TEXTSIZE
40
0.2
9
$TEXTSTYLE
7
Standard
9
$LUNITS
70
2
9
$LUPREC
70
4
9
$EXTNAMES
290
1
9
$INSUNITS
70
4
9
$LTSCALE
40
1
9
$LWDISPLAY
290
1
9
$PDMODE
70
0
9
$PDSIZE
40
0
9
$PLINEGEN
70
0
0
ENDSEC
0
SECTION
2
CLASSES
0
CLASS
1
RASTERVARIABLES
2
AcDbRasterVariables
3
ISM
90
0
280
0
281
0
0
ENDSEC
0
SECTION
2
TABLES
0
TABLE
2
VPORT
5
449
100
AcDbSymbolTable
0
VPORT
5
1
100
AcDbSymbolTableRecord
100
AcDbViewportTableRecord
2
*Active
70
0
10
0
20
0
11
1
21
1
12
-1
22
1
13
0
23
0
14
0.5
24
0.5
15
10
25
10
16
0
26
0
36
1
17
0
27
0
37
0
0
ENDTAB
0
TABLE
2
LTYPE
5
44a
100
AcDbSymbolTable
0
LTYPE
5
14
100
AcDbSymbolTableRecord
100
AcDbLinetypeTableRecord
70
0
2
ByBlock
3

72
65
73
0
40
0
0
LTYPE
5
15
100
AcDbSymbolTableRecord
100
AcDbLinetypeTableRecord
70
0
2
ByLayer
3

72
65
73
0
40
0
0
LTYPE
5
16
100
AcDbSymbolTableRecord
100
AcDbLinetypeTableRecord
70
0
2
Continuous
3
Solid line
72
65
73
0
40
0
0
LTYPE
5
6E
100
AcDbSymbolTableRecord
100
AcDbLinetypeTableRecord
70
0
2
CENTER
3
____ _ ____ _ ____ _ ____
72
65
73
4
40
47.5
49
22
74
0
49
-8.5
74
0
49
8.5
74
0
49
-8.5
74
0
0
LTYPE
5
6F
100
AcDbSymbolTableRecord
100
AcDbLinetypeTableRecord
70
0
2
DASHED
3
__ __ __ __ __ __ __ __ __
72
65
73
2
40
25.72
49
12.86
74
0
49
-12.86
74
0
0
ENDTAB
0
TABLE
2
LAYER
5
44b
100
AcDbSymbolTable
0
LAYER
5
10
100
AcDbSymbolTableRecord
100
AcDbLayerTableRecord
2
0
70
0
62
7
6
Continuous
290
1
370
-3
390
0
0
LAYER
5
71
100
AcDbSymbolTableRecord
100
AcDbLayerTableRecord
2
1
70
0
62
4
6
Continuous
290
1
370
-3
390
0
0
LAYER
5
73
100
AcDbSymbolTableRecord
100
AcDbLayerTableRecord
2
80
70
0
62
-6
6
Continuous
290
1
370
-3
390
0
0
LAYER
5
75
100
AcDbSymbolTableRecord
100
AcDbLayerTableRecord
2
81
70
0
62
-3
6
Continuous
290
1
370
-3
390
0
0
LAYER
5
142
100
AcDbSymbolTableRecord
100
AcDbLayerTableRecord
2
4
70
0
62
-2
6
CENTER
290
1
370
-3
390
0
0
LAYER
5
17E
100
AcDbSymbolTableRecord
100
AcDbLayerTableRecord
2
2
70
0
62
7
6
Continuous
290
1
370
-3
390
0
0
LAYER
5
35E
100
AcDbSymbolTableRecord
100
AcDbLayerTableRecord
2
Defpoints
70
0
62
7
6
Continuous
290
0
370
-3
390
0
0
LAYER
5
435
100
AcDbSymbolTableRecord
100
AcDbLayerTableRecord
2
SK1
70
0
62
4
6
Continuous
290
1
370
-3
390
0
0
LAYER
5
436
100
AcDbSymbolTableRecord
100
AcDbLayerTableRecord
2
SK4
70
0
62
2
6
CENTER
290
1
370
-3
390
0
0
LAYER
5
437
100
AcDbSymbolTableRecord
100
AcDbLayerTableRecord
2
SK2
70
0
62
7
6
Continuous
290
1
370
-3
390
0
0
LAYER
5
438
100
AcDbSymbolTableRecord
100
AcDbLayerTableRecord
2
SK6
70
0
62
5
6
Continuous
290
1
370
-3
390
0
0
ENDTAB
0
TABLE
2
STYLE
5
44c
100
AcDbSymbolTable
0
STYLE
5
11
100
AcDbSymbolTableRecord
100
AcDbTextStyleTableRecord
2
Standard
3
txt
70
0
71
0
40
0
41
1
42
0
50
0
0
STYLE
5
339
100
AcDbSymbolTableRecord
100
AcDbTextStyleTableRecord
2
iso_b_vert
3
simplex.shx
70
0
71
0
40
0
41
1
42
0
50
0
0
STYLE
5
33A
100
AcDbSymbolTableRecord
100
AcDbTextStyleTableRecord
2
DWGDirectTextStyle
3
simplex
70
0
71
0
40
0
41
1
42
0
50
0
0
ENDTAB
0
TABLE
2
DIMSTYLE
5
44d
100
AcDbSymbolTable
100
AcDbDimStyleTable
0
DIMSTYLE
105
27
100
AcDbSymbolTableRecord
100
AcDbDimStyleTableRecord
2
Standard
70
0
3
<>
41
0.18
42
0.0625
44
0.18
140
0.18
147
0.09
73
0
74
0
77
1
271
2
275
0
278
52
280
0
340
11
0
ENDTAB
0
TABLE
2
VIEW
5
44e
100
AcDbSymbolTable
0
ENDTAB
0
TABLE
2
UCS
5
44f
100
AcDbSymbolTable
0
ENDTAB
0
TABLE
2
APPID
5
450
100
AcDbSymbolTable
0
APPID
5
12
100
AcDbSymbolTableRecord
100
AcDbRegAppTableRecord
2
ACAD
70
0
0
APPID
5
35A
100
AcDbSymbolTableRecord
100
AcDbRegAppTableRecord
2
ACAD_DSTYLE_DIMBREAK
70
0
0
APPID
5
3F4
100
AcDbSymbolTableRecord
100
AcDbRegAppTableRecord
2
ACAD_DSTYLE_DIM_LINETYPE
70
0
0
APPID
5
3F5
100
AcDbSymbolTableRecord
100
AcDbRegAppTableRecord
2
ACAD_DSTYLE_DIM_EXT1_LINETYPE
70
0
0
APPID
5
3F6
100
AcDbSymbolTableRecord
100
AcDbRegAppTableRecord
2
ACAD_DSTYLE_DIM_EXT2_LINETYPE
70
0
0
APPID
5
431
100
AcDbSymbolTableRecord
100
AcDbRegAppTableRecord
2
ACAD_MLEADERVER
70
0
0
ENDTAB
0
TABLE
2
BLOCK_RECORD
5
451
100
AcDbSymbolTable
0
BLOCK_RECORD
5
1F
100
AcDbSymbolTableRecord
100
AcDbBlockTableRecord
2
*Model_Space
340
0
70
0
0
BLOCK_RECORD
5
1B
100
AcDbSymbolTableRecord
100
AcDbBlockTableRecord
2
*Paper_Space
340
0
70
0
0
BLOCK_RECORD
5
23
100
AcDbSymbolTableRecord
100
AcDbBlockTableRecord
2
*Paper_Space0
340
0
70
0
0
BLOCK_RECORD
5
35F
100
AcDbSymbolTableRecord
100
AcDbBlockTableRecord
2
*D1
340
0
70
0
0
BLOCK_RECORD
5
36B
100
AcDbSymbolTableRecord
100
AcDbBlockTableRecord
2
_U0
340
0
70
0
0
BLOCK_RECORD
5
377
100
AcDbSymbolTableRecord
100
AcDbBlockTableRecord
2
*D3
340
0
70
0
0
BLOCK_RECORD
5
383
100
AcDbSymbolTableRecord
100
AcDbBlockTableRecord
2
_U1
340
0
70
0
0
BLOCK_RECORD
5
38F
100
AcDbSymbolTableRecord
100
AcDbBlockTableRecord
2
*D5
340
0
70
0
0
BLOCK_RECORD
5
39B
100
AcDbSymbolTableRecord
100
AcDbBlockTableRecord
2
_U2
340
0
70
0
0
BLOCK_RECORD
5
3A7
100
AcDbSymbolTableRecord
100
AcDbBlockTableRecord
2
*D7
340
0
70
0
0
BLOCK_RECORD
5
3B3
100
AcDbSymbolTableRecord
100
AcDbBlockTableRecord
2
_U3
340
0
70
0
0
BLOCK_RECORD
5
3BF
100
AcDbSymbolTableRecord
100
AcDbBlockTableRecord
2
*D9
340
0
70
0
0
BLOCK_RECORD
5
3CD
100
AcDbSymbolTableRecord
100
AcDbBlockTableRecord
2
_U4
340
0
70
0
0
ENDTAB
0
ENDSEC
0
SECTION
2
BLOCKS
0
BLOCK
5
20
100
AcDbEntity
8
0
100
AcDbBlockBegin
2
*Model_Space
70
0
10
0
20
0
30
0
3
*Model_Space
0
ENDBLK
5
21
100
AcDbEntity
8
0
100
AcDbBlockEnd
0
BLOCK
5
1C
100
AcDbEntity
8
0
100
AcDbBlockBegin
2
*Paper_Space
70
0
10
0
20
0
30
0
3
*Paper_Space
0
ENDBLK
5
1D
100
AcDbEntity
8
0
100
AcDbBlockEnd
0
BLOCK
5
24
100
AcDbEntity
8
0
100
AcDbBlockBegin
2
*Paper_Space0
70
0
10
0
20
0
30
0
3
*Paper_Space0
0
ENDBLK
5
25
100
AcDbEntity
8
0
100
AcDbBlockEnd
0
BLOCK
5
360
100
AcDbEntity
8
0
100
AcDbBlockBegin
2
*D1
70
1
10
0
20
0
30
0
3
*D1
0
LINE
5
362
100
AcDbEntity
8
0
62
256
6
ByLayer
370
-2
48
1
60
0
100
AcDbLine
10
0
20
-14.0875
30
0
11
0
21
-64.536926
31
0
39
0
210
0
220
0
230
1
0
LINE
5
363
100
AcDbEntity
8
0
62
256
6
ByLayer
370
-2
48
1
60
0
100
AcDbLine
10
133
20
-9.5875
30
0
11
133
21
-64.536926
31
0
39
0
210
0
220
0
230
1
0
LINE
5
364
100
AcDbEntity
8
0
62
256
6
ByLayer
370
-2
48
1
60
0
100
AcDbLine
10
4.175
20
-61.361926
30
0
11
128.825
21
-61.361926
31
0
39
0
210
0
220
0
230
1
0
SOLID
5
365
100
AcDbEntity
8
0
62
256
6
ByLayer
370
-1
48
1
60
0
100
AcDbTrace
10
4.175
20
-60.666093
30
0
11
4.175
21
-62.057759
31
0
12
0
22
-61.361926
32
0
13
0
23
-61.361926
33
0
39
0
210
0
220
0
230
1
0
SOLID
5
366
100
AcDbEntity
8
0
62
256
6
ByLayer
370
-1
48
1
60
0
100
AcDbTrace
10
128.825
20
-62.057759
30
0
11
128.825
21
-60.666093
31
0
12
133
22
-61.361926
32
0
13
133
23
-61.361926
33
0
39
0
210
0
220
0
230
1
0
MTEXT
5
367
100
AcDbEntity
8
0
62
256
6
ByLayer
370
18
48
1
60
0
100
AcDbMText
10
66.5
20
-51.968176
30
0
210
0
220
0
230
1
1
\A1;133
40
4.5
41
0
44
1
50
0
71
5
72
5
7
iso_b_vert
0
POINT
5
368
100
AcDbEntity
8
Defpoints
62
0
6
ByLayer
370
-1
48
1
60
0
100
AcDbPoint
10
0
20
-12.5
30
0
39
0
210
0
220
0
230
1
50
360
0
POINT
5
369
100
AcDbEntity
8
Defpoints
62
0
6
ByLayer
370
-1
48
1
60
0
100
AcDbPoint
10
133
20
-8
30
0
39
0
210
0
220
0
230
1
50
360
0
POINT
5
36A
100
AcDbEntity
8
Defpoints
62
0
6
ByLayer
370
-1
48
1
60
0
100
AcDbPoint
10
133
20
-61.361926
30
0
39
0
210
0
220
0
230
1
50
360
0
ENDBLK
5
361
100
AcDbEntity
8
0
100
AcDbBlockEnd
0
BLOCK
5
372
100
AcDbEntity
8
0
100
AcDbBlockBegin
2
_U0
70
0
10
0
20
0
30
0
3
_U0
0
MTEXT
5
36C
100
AcDbEntity
8
2
62
256
6
ByLayer
370
18
48
1
60
0
100
AcDbMText
10
62.931801
20
-60.034254
30
0
210
0
220
0
230
1
1
\W0.6217;133
40
4.5
41
0
44
1.084337
50
0
71
7
72
5
7
iso_b_vert
0
LINE
5
36D
100
AcDbEntity
8
2
62
256
6
ByLayer
370
13
48
1
60
0
100
AcDbLine
10
0
20
-14.0875
30
0
11
0
21
-64.536926
31
0
39
0
210
0
220
0
230
1
0
LINE
5
36E
100
AcDbEntity
8
2
62
256
6
ByLayer
370
13
48
1
60
0
100
AcDbLine
10
133
20
-9.5875
30
0
11
133
21
-64.536926
31
0
39
0
210
0
220
0
230
1
0
LINE
5
36F
100
AcDbEntity
8
2
62
256
6
ByLayer
370
13
48
1
60
0
100
AcDbLine
10
0
20
-61.361926
30
0
11
133
21
-61.361926
31
0
39
0
210
0
220
0
230
1
0
SOLID
5
370
100
AcDbEntity
8
2
62
256
6
ByLayer
370
18
48
1
60
0
100
AcDbTrace
10
0
20
-61.361926
30
0
11
4.174997
21
-60.436351
31
0
12
4.175003
22
-62.287501
32
0
13
4.175003
23
-62.287501
33
0
39
0
210
0
220
0
230
1
0
SOLID
5
371
100
AcDbEntity
8
2
62
256
6
ByLayer
370
18
48
1
60
0
100
AcDbTrace
10
133
20
-61.361926
30
0
11
128.825003
21
-62.287501
31
0
12
128.824997
22
-60.436351
32
0
13
128.824997
23
-60.436351
33
0
39
0
210
0
220
0
230
1
0
ENDBLK
5
373
100
AcDbEntity
8
0
100
AcDbBlockEnd
0
BLOCK
5
378
100
AcDbEntity
8
0
100
AcDbBlockBegin
2
*D3
70
1
10
0
20
0
30
0
3
*D3
0
LINE
5
37A
100
AcDbEntity
8
0
62
256
6
ByLayer
370
-2
48
1
60
0
100
AcDbLine
10
-50
20
-11.5875
30
0
11
-50
21
-64.536926
31
0
39
0
210
0
220
0
230
1
0
LINE
5
37B
100
AcDbEntity
8
0
62
256
6
ByLayer
370
-2
48
1
60
0
100
AcDbLine
10
0
20
-14.0875
30
0
11
0
21
-64.536926
31
0
39
0
210
0
220
0
230
1
0
LINE
5
37C
100
AcDbEntity
8
0
62
256
6
ByLayer
370
-2
48
1
60
0
100
AcDbLine
10
-45.825
20
-61.361926
30
0
11
-4.175
21
-61.361926
31
0
39
0
210
0
220
0
230
1
0
SOLID
5
37D
100
AcDbEntity
8
0
62
256
6
ByLayer
370
-1
48
1
60
0
100
AcDbTrace
10
-45.825
20
-60.666093
30
0
11
-45.825
21
-62.057759
31
0
12
-50
22
-61.361926
32
0
13
-50
23
-61.361926
33
0
39
0
210
0
220
0
230
1
0
SOLID
5
37E
100
AcDbEntity
8
0
62
256
6
ByLayer
370
-1
48
1
60
0
100
AcDbTrace
10
-4.175
20
-62.057759
30
0
11
-4.175
21
-60.666093
31
0
12
0
22
-61.361926
32
0
13
0
23
-61.361926
33
0
39
0
210
0
220
0
230
1
0
MTEXT
5
37F
100
AcDbEntity
8
0
62
256
6
ByLayer
370
18
48
1
60
0
100
AcDbMText
10
-25
20
-51.968176
30
0
210
0
220
0
230
1
1
\A1;50
40
4.5
41
0
44
1
50
0
71
5
72
5
7
iso_b_vert
0
POINT
5
380
100
AcDbEntity
8
Defpoints
62
0
6
ByLayer
370
-1
48
1
60
0
100
AcDbPoint
10
-50
20
-10
30
0
39
0
210
0
220
0
230
1
50
360
0
POINT
5
381
100
AcDbEntity
8
Defpoints
62
0
6
ByLayer
370
-1
48
1
60
0
100
AcDbPoint
10
0
20
-12.5
30
0
39
0
210
0
220
0
230
1
50
360
0
POINT
5
382
100
AcDbEntity
8
Defpoints
62
0
6
ByLayer
370
-1
48
1
60
0
100
AcDbPoint
10
0
20
-61.361926
30
0
39
0
210
0
220
0
230
1
50
360
0
ENDBLK
5
379
100
AcDbEntity
8
0
100
AcDbBlockEnd
0
BLOCK
5
38A
100
AcDbEntity
8
0
100
AcDbBlockBegin
2
_U1
70
0
10
0
20
0
30
0
3
_U1
0
MTEXT
5
384
100
AcDbEntity
8
SK2
62
256
6
ByLayer
370
18
48
1
60
0
100
AcDbMText
10
-27.449242
20
-60.034254
30
0
210
0
220
0
230
1
1
\W0.6740;50
40
4.5
41
0
44
1.084337
50
0
71
7
72
5
7
iso_b_vert
0
LINE
5
385
100
AcDbEntity
8
SK2
62
256
6
ByLayer
370
13
48
1
60
0
100
AcDbLine
10
-50
20
-11.5875
30
0
11
-50
21
-64.536926
31
0
39
0
210
0
220
0
230
1
0
LINE
5
386
100
AcDbEntity
8
SK2
62
256
6
ByLayer
370
13
48
1
60
0
100
AcDbLine
10
0
20
-14.0875
30
0
11
0
21
-64.536926
31
0
39
0
210
0
220
0
230
1
0
LINE
5
387
100
AcDbEntity
8
SK2
62
256
6
ByLayer
370
13
48
1
60
0
100
AcDbLine
10
-50
20
-61.361926
30
0
11
0
21
-61.361926
31
0
39
0
210
0
220
0
230
1
0
SOLID
5
388
100
AcDbEntity
8
SK2
62
256
6
ByLayer
370
18
48
1
60
0
100
AcDbTrace
10
-50
20
-61.361926
30
0
11
-45.825003
21
-60.436351
31
0
12
-45.824997
22
-62.287501
32
0
13
-45.824997
23
-62.287501
33
0
39
0
210
0
220
0
230
1
0
SOLID
5
389
100
AcDbEntity
8
SK2
62
256
6
ByLayer
370
18
48
1
60
0
100
AcDbTrace
10
0
20
-61.361926
30
0
11
-4.174997
21
-62.287501
31
0
12
-4.175003
22
-60.436351
32
0
13
-4.175003
23
-60.436351
33
0
39
0
210
0
220
0
230
1
0
ENDBLK
5
38B
100
AcDbEntity
8
0
100
AcDbBlockEnd
0
BLOCK
5
390
100
AcDbEntity
8
0
100
AcDbBlockBegin
2
*D5
70
1
10
0
20
0
30
0
3
*D5
0
LINE
5
392
100
AcDbEntity
8
0
62
256
6
ByLayer
370
-2
48
1
60
0
100
AcDbLine
10
133
20
-9.5875
30
0
11
133
21
-54.536926
31
0
39
0
210
0
220
0
230
1
0
LINE
5
393
100
AcDbEntity
8
0
62
256
6
ByLayer
370
-2
48
1
60
0
100
AcDbLine
10
5.6071
20
-14.0875
30
0
11
5.6071
21
-54.536926
31
0
39
0
210
0
220
0
230
1
0
LINE
5
394
100
AcDbEntity
8
0
62
256
6
ByLayer
370
-2
48
1
60
0
100
AcDbLine
10
128.825
20
-51.361926
30
0
11
9.7821
21
-51.361926
31
0
39
0
210
0
220
0
230
1
0
SOLID
5
395
100
AcDbEntity
8
0
62
256
6
ByLayer
370
-1
48
1
60
0
100
AcDbTrace
10
128.825
20
-52.057759
30
0
11
128.825
21
-50.666093
31
0
12
133
22
-51.361926
32
0
13
133
23
-51.361926
33
0
39
0
210
0
220
0
230
1
0
SOLID
5
396
100
AcDbEntity
8
0
62
256
6
ByLayer
370
-1
48
1
60
0
100
AcDbTrace
10
9.7821
20
-50.666093
30
0
11
9.7821
21
-52.057759
31
0
12
5.6071
22
-51.361926
32
0
13
5.6071
23
-51.361926
33
0
39
0
210
0
220
0
230
1
0
MTEXT
5
397
100
AcDbEntity
8
0
62
256
6
ByLayer
370
18
48
1
60
0
100
AcDbMText
10
69.30355
20
-41.968176
30
0
210
0
220
0
230
1
1
\A1;127.4
40
4.5
41
0
44
1
50
0
71
5
72
5
7
iso_b_vert
0
POINT
5
398
100
AcDbEntity
8
Defpoints
62
0
6
ByLayer
370
-1
48
1
60
0
100
AcDbPoint
10
133
20
-8
30
0
39
0
210
0
220
0
230
1
50
360
0
POINT
5
399
100
AcDbEntity
8
Defpoints
62
0
6
ByLayer
370
-1
48
1
60
0
100
AcDbPoint
10
5.6071
20
-12.5
30
0
39
0
210
0
220
0
230
1
50
360
0
POINT
5
39A
100
AcDbEntity
8
Defpoints
62
0
6
ByLayer
370
-1
48
1
60
0
100
AcDbPoint
10
5.6071
20
-51.361926
30
0
39
0
210
0
220
0
230
1
50
360
0
ENDBLK
5
391
100
AcDbEntity
8
0
100
AcDbBlockEnd
0
BLOCK
5
3A2
100
AcDbEntity
8
0
100
AcDbBlockBegin
2
_U2
70
0
10
0
20
0
30
0
3
_U2
0
MTEXT
5
39C
100
AcDbEntity
8
SK2
62
256
6
ByLayer
370
18
48
1
60
0
100
AcDbMText
10
62.905494
20
-50.034254
30
0
210
0
220
0
230
1
1
\W0.7010;127.4
40
4.5
41
0
44
1.084337
50
0
71
7
72
5
7
iso_b_vert
0
LINE
5
39D
100
AcDbEntity
8
SK2
62
256
6
ByLayer
370
13
48
1
60
0
100
AcDbLine
10
133
20
-9.5875
30
0
11
133
21
-54.536926
31
0
39
0
210
0
220
0
230
1
0
LINE
5
39E
100
AcDbEntity
8
SK2
62
256
6
ByLayer
370
13
48
1
60
0
100
AcDbLine
10
5.6071
20
-14.0875
30
0
11
5.6071
21
-54.536926
31
0
39
0
210
0
220
0
230
1
0
LINE
5
39F
100
AcDbEntity
8
SK2
62
256
6
ByLayer
370
13
48
1
60
0
100
AcDbLine
10
133
20
-51.361926
30
0
11
5.6071
21
-51.361926
31
0
39
0
210
0
220
0
230
1
0
SOLID
5
3A0
100
AcDbEntity
8
SK2
62
256
6
ByLayer
370
18
48
1
60
0
100
AcDbTrace
10
133
20
-51.361926
30
0
11
128.825003
21
-52.287501
31
0
12
128.824997
22
-50.436351
32
0
13
128.824997
23
-50.436351
33
0
39
0
210
0
220
0
230
1
0
SOLID
5
3A1
100
AcDbEntity
8
SK2
62
256
6
ByLayer
370
18
48
1
60
0
100
AcDbTrace
10
5.6071
20
-51.361926
30
0
11
9.782097
21
-50.436351
31
0
12
9.782103
22
-52.287501
32
0
13
9.782103
23
-52.287501
33
0
39
0
210
0
220
0
230
1
0
ENDBLK
5
3A3
100
AcDbEntity
8
0
100
AcDbBlockEnd
0
BLOCK
5
3A8
100
AcDbEntity
8
0
100
AcDbBlockBegin
2
*D7
70
1
10
0
20
0
30
0
3
*D7
0
LINE
5
3AA
100
AcDbEntity
8
0
62
256
6
ByLayer
370
-2
48
1
60
0
100
AcDbLine
10
18
20
-9.5875
30
0
11
18
21
-44.536926
31
0
39
0
210
0
220
0
230
1
0
LINE
5
3AB
100
AcDbEntity
8
0
62
256
6
ByLayer
370
-2
48
1
60
0
100
AcDbLine
10
133
20
-9.5875
30
0
11
133
21
-44.536926
31
0
39
0
210
0
220
0
230
1
0
LINE
5
3AC
100
AcDbEntity
8
0
62
256
6
ByLayer
370
-2
48
1
60
0
100
AcDbLine
10
22.175
20
-41.361926
30
0
11
128.825
21
-41.361926
31
0
39
0
210
0
220
0
230
1
0
SOLID
5
3AD
100
AcDbEntity
8
0
62
256
6
ByLayer
370
-1
48
1
60
0
100
AcDbTrace
10
22.175
20
-40.666093
30
0
11
22.175
21
-42.057759
31
0
12
18
22
-41.361926
32
0
13
18
23
-41.361926
33
0
39
0
210
0
220
0
230
1
0
SOLID
5
3AE
100
AcDbEntity
8
0
62
256
6
ByLayer
370
-1
48
1
60
0
100
AcDbTrace
10
128.825
20
-42.057759
30
0
11
128.825
21
-40.666093
31
0
12
133
22
-41.361926
32
0
13
133
23
-41.361926
33
0
39
0
210
0
220
0
230
1
0
MTEXT
5
3AF
100
AcDbEntity
8
0
62
256
6
ByLayer
370
18
48
1
60
0
100
AcDbMText
10
75.5
20
-31.968176
30
0
210
0
220
0
230
1
1
\A1;115
40
4.5
41
0
44
1
50
0
71
5
72
5
7
iso_b_vert
0
POINT
5
3B0
100
AcDbEntity
8
Defpoints
62
0
6
ByLayer
370
-1
48
1
60
0
100
AcDbPoint
10
18
20
-8
30
0
39
0
210
0
220
0
230
1
50
360
0
POINT
5
3B1
100
AcDbEntity
8
Defpoints
62
0
6
ByLayer
370
-1
48
1
60
0
100
AcDbPoint
10
133
20
-8
30
0
39
0
210
0
220
0
230
1
50
360
0
POINT
5
3B2
100
AcDbEntity
8
Defpoints
62
0
6
ByLayer
370
-1
48
1
60
0
100
AcDbPoint
10
133
20
-41.361926
30
0
39
0
210
0
220
0
230
1
50
360
0
ENDBLK
5
3A9
100
AcDbEntity
8
0
100
AcDbBlockEnd
0
BLOCK
5
3BA
100
AcDbEntity
8
0
100
AcDbBlockBegin
2
_U3
70
0
10
0
20
0
30
0
3
_U3
0
MTEXT
5
3B4
100
AcDbEntity
8
SK2
62
256
6
ByLayer
370
18
48
1
60
0
100
AcDbMText
10
72.494215
20
-40.034254
30
0
210
0
220
0
230
1
1
\W0.5296;115
40
4.5
41
0
44
1.084337
50
0
71
7
72
5
7
iso_b_vert
0
LINE
5
3B5
100
AcDbEntity
8
SK2
62
256
6
ByLayer
370
13
48
1
60
0
100
AcDbLine
10
18
20
-9.5875
30
0
11
18
21
-44.536926
31
0
39
0
210
0
220
0
230
1
0
LINE
5
3B6
100
AcDbEntity
8
SK2
62
256
6
ByLayer
370
13
48
1
60
0
100
AcDbLine
10
133
20
-9.5875
30
0
11
133
21
-44.536926
31
0
39
0
210
0
220
0
230
1
0
LINE
5
3B7
100
AcDbEntity
8
SK2
62
256
6
ByLayer
370
13
48
1
60
0
100
AcDbLine
10
18
20
-41.361926
30
0
11
133
21
-41.361926
31
0
39
0
210
0
220
0
230
1
0
SOLID
5
3B8
100
AcDbEntity
8
SK2
62
256
6
ByLayer
370
18
48
1
60
0
100
AcDbTrace
10
18
20
-41.361926
30
0
11
22.174997
21
-40.436351
31
0
12
22.175003
22
-42.287501
32
0
13
22.175003
23
-42.287501
33
0
39
0
210
0
220
0
230
1
0
SOLID
5
3B9
100
AcDbEntity
8
SK2
62
256
6
ByLayer
370
18
48
1
60
0
100
AcDbTrace
10
133
20
-41.361926
30
0
11
128.825003
21
-42.287501
31
0
12
128.824997
22
-40.436351
32
0
13
128.824997
23
-40.436351
33
0
39
0
210
0
220
0
230
1
0
ENDBLK
5
3BB
100
AcDbEntity
8
0
100
AcDbBlockEnd
0
BLOCK
5
3C0
100
AcDbEntity
8
0
100
AcDbBlockBegin
2
*D9
70
1
10
0
20
0
30
0
3
*D9
0
LINE
5
3C2
100
AcDbEntity
8
0
62
256
6
ByLayer
370
-2
48
1
60
0
100
AcDbLine
10
132.5369
20
-5.5875
30
0
11
132.5369
21
-34.536926
31
0
39
0
210
0
220
0
230
1
0
LINE
5
3C3
100
AcDbEntity
8
0
62
256
6
ByLayer
370
-2
48
1
60
0
100
AcDbLine
10
133
20
-1.5875
30
0
11
133
21
-34.536926
31
0
39
0
210
0
220
0
230
1
0
LINE
5
3C4
100
AcDbEntity
8
0
62
256
6
ByLayer
370
-2
48
1
60
0
100
AcDbLine
10
133
20
-31.361926
30
0
11
169.351786
21
-31.361926
31
0
39
0
210
0
220
0
230
1
0
LINE
5
3C5
100
AcDbEntity
8
0
62
256
6
ByLayer
370
-2
48
1
60
0
100
AcDbLine
10
128.3619
20
-31.361926
30
0
11
124.1869
21
-31.361926
31
0
39
0
210
0
220
0
230
1
0
LINE
5
3C6
100
AcDbEntity
8
0
62
256
6
ByLayer
370
-2
48
1
60
0
100
AcDbLine
10
137.175
20
-31.361926
30
0
11
141.35
21
-31.361926
31
0
39
0
210
0
220
0
230
1
0
SOLID
5
3C7
100
AcDbEntity
8
0
62
256
6
ByLayer
370
-1
48
1
60
0
100
AcDbTrace
10
128.3619
20
-32.057759
30
0
11
128.3619
21
-30.666093
31
0
12
132.5369
22
-31.361926
32
0
13
132.5369
23
-31.361926
33
0
39
0
210
0
220
0
230
1
0
SOLID
5
3C8
100
AcDbEntity
8
0
62
256
6
ByLayer
370
-1
48
1
60
0
100
AcDbTrace
10
137.175
20
-30.666093
30
0
11
137.175
21
-32.057759
31
0
12
133
22
-31.361926
32
0
13
133
23
-31.361926
33
0
39
0
210
0
220
0
230
1
0
MTEXT
5
3C9
100
AcDbEntity
8
0
62
256
6
ByLayer
370
18
48
1
60
0
100
AcDbMText
10
155.350893
20
-21.968176
30
0
210
0
220
0
230
1
1
\A1;0.46
40
4.5
41
0
44
1
50
0
71
5
72
5
7
iso_b_vert
0
POINT
5
3CA
100
AcDbEntity
8
Defpoints
62
0
6
ByLayer
370
-1
48
1
60
0
100
AcDbPoint
10
132.5369
20
-4
30
0
39
0
210
0
220
0
230
1
50
360
0
POINT
5
3CB
100
AcDbEntity
8
Defpoints
62
0
6
ByLayer
370
-1
48
1
60
0
100
AcDbPoint
10
133
20
0
30
0
39
0
210
0
220
0
230
1
50
360
0
POINT
5
3CC
100
AcDbEntity
8
Defpoints
62
0
6
ByLayer
370
-1
48
1
60
0
100
AcDbPoint
10
133
20
-31.361926
30
0
39
0
210
0
220
0
230
1
50
360
0
ENDBLK
5
3C1
100
AcDbEntity
8
0
100
AcDbBlockEnd
0
BLOCK
5
3D4
100
AcDbEntity
8
0
100
AcDbBlockBegin
2
_U4
70
0
10
0
20
0
30
0
3
_U4
0
MTEXT
5
3CE
100
AcDbEntity
8
2
62
256
6
ByLayer
370
18
48
1
60
0
100
AcDbMText
10
145.351
20
-30.034254
30
0
210
0
220
0
230
1
1
\W0.7640;0.46
40
4.5
41
0
44
1.084337
50
0
71
7
72
5
7
iso_b_vert
0
LINE
5
3CF
100
AcDbEntity
8
2
62
256
6
ByLayer
370
13
48
1
60
0
100
AcDbLine
10
132.5369
20
-5.5875
30
0
11
132.5369
21
-34.536926
31
0
39
0
210
0
220
0
230
1
0
LINE
5
3D0
100
AcDbEntity
8
2
62
256
6
ByLayer
370
13
48
1
60
0
100
AcDbLine
10
133
20
-1.5875
30
0
11
133
21
-34.536926
31
0
39
0
210
0
220
0
230
1
0
LINE
5
3D1
100
AcDbEntity
8
2
62
256
6
ByLayer
370
13
48
1
60
0
100
AcDbLine
10
156.147698
20
-31.361926
30
0
11
121.2869
21
-31.361926
31
0
39
0
210
0
220
0
230
1
0
SOLID
5
3D2
100
AcDbEntity
8
2
62
256
6
ByLayer
370
18
48
1
60
0
100
AcDbTrace
10
132.5369
20
-31.361926
30
0
11
128.361903
21
-32.287501
31
0
12
128.361897
22
-30.436351
32
0
13
128.361897
23
-30.436351
33
0
39
0
210
0
220
0
230
1
0
SOLID
5
3D3
100
AcDbEntity
8
2
62
256
6
ByLayer
370
18
48
1
60
0
100
AcDbTrace
10
133
20
-31.361926
30
0
11
137.174997
21
-30.436351
31
0
12
137.175003
22
-32.287501
32
0
13
137.175003
23
-32.287501
33
0
39
0
210
0
220
0
230
1
0
ENDBLK
5
3D5
100
AcDbEntity
8
0
100
AcDbBlockEnd
0
ENDSEC
0
SECTION
2
ENTITIES
0
ARC
5
187
100
AcDbEntity
8
SK1
62
256
6
ByLayer
370
13
48
1
60
0
100
AcDbCircle
39
0
10
-47.894505
20
-10.3968
30
0
40
0.800000000000004
210
0
220
0
230
1
100
AcDbArc
50
70.982
51
141
0
ARC
5
188
100
AcDbEntity
8
SK1
62
256
6
ByLayer
370
13
48
1
60
0
100
AcDbCircle
39
0
10
-47.894505
20
10.3968
30
0
40
0.800000000000004
210
0
220
0
230
1
100
AcDbArc
50
219
51
289.018
0
ARC
5
189
100
AcDbEntity
8
SK1
62
256
6
ByLayer
370
13
48
1
60
0
100
AcDbCircle
39
0
10
-0.15
20
10.14675
30
0
40
0.400000000000002
210
0
220
0
230
1
100
AcDbArc
50
270
51
292.024313
0
ARC
5
18A
100
AcDbEntity
8
SK1
62
256
6
ByLayer
370
13
48
1
60
0
100
AcDbCircle
39
0
10
-0.15
20
-10.14675
30
0
40
0.400000000000002
210
0
220
0
230
1
100
AcDbArc
50
67.975687
51
90
0
ARC
5
18B
100
AcDbEntity
8
SK1
62
256
6
ByLayer
370
13
48
1
60
0
100
AcDbCircle
39
0
10
-1.375195
20
10.14675
30
0
40
0.400000000000001
210
0
220
0
230
1
100
AcDbArc
50
245
51
270
0
ARC
5
18C
100
AcDbEntity
8
SK1
62
256
6
ByLayer
370
13
48
1
60
0
100
AcDbCircle
39
0
10
-1.375195
20
-10.14675
30
0
40
0.400000000000001
210
0
220
0
230
1
100
AcDbArc
50
90
51
115
0
ARC
5
18D
100
AcDbEntity
8
1
62
256
6
ByLayer
370
13
48
1
60
0
100
AcDbCircle
39
0
10
131.351672
20
7.413523
30
0
40
0.075
210
0
220
0
230
1
100
AcDbArc
50
8.974534
51
93
0
ARC
5
18E
100
AcDbEntity
8
1
62
256
6
ByLayer
370
13
48
1
60
0
100
AcDbCircle
39
0
10
131.379489
20
3.158484
30
0
40
0.075
210
0
220
0
230
1
100
AcDbArc
50
273
51
352.543899
0
ARC
5
18F
100
AcDbEntity
8
1
62
256
6
ByLayer
370
13
48
1
60
0
100
AcDbCircle
39
0
10
126.077816
20
7.041267
30
0
40
0.075
210
0
220
0
230
1
100
AcDbArc
50
71.092405
51
93
0
ARC
5
190
100
AcDbEntity
8
1
62
256
6
ByLayer
370
13
48
1
60
0
100
AcDbCircle
39
0
10
126.105633
20
2.786229
30
0
40
0.075
210
0
220
0
230
1
100
AcDbArc
50
273
51
303.323645
0
ELLIPSE
5
191
100
AcDbEntity
8
1
62
256
6
ByLayer
370
13
48
1
60
0
100
AcDbEllipse
10
131.379489
20
3.158484
30
0
11
0.0243032116523925
21
0.0709531810659607
31
0
210
0
220
0
230
1
40
0.085751
41
-3.10712136646425
42
-1.53632503960588
0
ELLIPSE
5
192
100
AcDbEntity
8
1
62
256
6
ByLayer
370
13
48
1
60
0
100
AcDbEllipse
10
128.681877
20
5.097424
30
0
11
0.0736286858157499
21
-1.40491901818814
31
0
210
0
220
0
230
1
40
0.995725
41
-0.853733629912552
42
0
0
ELLIPSE
5
193
100
AcDbEntity
8
1
62
256
6
ByLayer
370
13
48
1
60
0
100
AcDbEllipse
10
128.681877
20
5.097424
30
0
11
0.0736286858157499
21
-1.40491901818814
31
0
210
0
220
0
230
1
40
0.995725
41
0
42
-2.28787081989084
0
ELLIPSE
5
194
100
AcDbEntity
8
1
62
256
6
ByLayer
370
13
48
1
60
0
100
AcDbEllipse
10
132.423503
20
3.304638
30
0
11
-0.0222321776353618
21
0.148343285246046
31
0
210
0
220
0
230
1
40
0.091945
41
1.56190521945488
42
3.13270154624837
0
ELLIPSE
5
195
100
AcDbEntity
8
1
62
256
6
ByLayer
370
13
48
1
60
0
100
AcDbEllipse
10
125.47522
20
4.156156
30
0
11
0.0994383168615918
21
-1.89739611603369
31
0
210
0
220
0
230
1
40
0.995725
41
-0.0384705421020888
42
-0.00872664626057747
0
ELLIPSE
5
196
100
AcDbEntity
8
1
62
256
6
ByLayer
370
13
48
1
60
0
100
AcDbEllipse
10
130.898717
20
1.743849
30
0
11
-0.0680367431150208
21
1.29821839518099
31
0
210
0
220
0
230
1
40
0.995725
41
-0.511827859273207
42
6.14445040889383E-13
0
ELLIPSE
5
197
100
AcDbEntity
8
1
62
256
6
ByLayer
370
13
48
1
60
0
100
AcDbEllipse
10
126.077816
20
7.041267
30
0
11
0.00392519671822073
21
-0.0748972151065931
31
0
210
0
220
0
230
1
40
0.995725
41
-3.141576484401
42
-1.75405589825489
0
ELLIPSE
5
198
100
AcDbEntity
8
1
62
256
6
ByLayer
370
13
48
1
60
0
100
AcDbEllipse
10
126.916664
20
1.535158
30
0
11
-0.0732703387392534
21
1.39808134865646
31
0
210
0
220
0
230
1
40
0.995725
41
0.657926248777034
42
0.901830883780709
0
ELLIPSE
5
199
100
AcDbEntity
8
1
62
256
6
ByLayer
370
13
48
1
60
0
100
AcDbEllipse
10
125.657294
20
2.431748
30
0
11
-0.122557354636349
21
0.0864852289384728
31
0
210
0
220
0
230
1
40
0.057286
41
1.4981518874617
42
3.06894821425838
0
ELLIPSE
5
19A
100
AcDbEntity
8
1
62
256
6
ByLayer
370
13
48
1
60
0
100
AcDbEllipse
10
131.351672
20
7.413523
30
0
11
-0.0412025770551184
21
0.0626685538688825
31
0
210
0
220
0
230
1
40
0.07982
41
-1.61744967012507
42
-0.0466533433268106
0
ELLIPSE
5
19B
100
AcDbEntity
8
1
62
256
6
ByLayer
370
13
48
1
60
0
100
AcDbEllipse
10
126.105633
20
2.786229
30
0
11
0.0740818329315806
21
0.0116996593752716
31
0
210
0
220
0
230
1
40
0.009655
41
-3.04959407911436
42
-1.47879775232091
0
ELLIPSE
5
19C
100
AcDbEntity
8
1
62
256
6
ByLayer
370
13
48
1
60
0
100
AcDbEllipse
10
128.735571
20
5.100238
30
0
11
0.0757589256077777
21
-1.44556641483746
31
0
210
0
220
0
230
1
40
0.995725
41
0
42
6.28318530717959
0
ELLIPSE
5
19D
100
AcDbEntity
8
1
62
256
6
ByLayer
370
13
48
1
60
0
100
AcDbEllipse
10
131.510189
20
7.526883
30
0
11
0.00523359562429426
21
-0.0998629534754566
31
0
210
0
220
0
230
1
40
0.995725
41
-2.48366640481232
42
-1.46607657167475
0
ELLIPSE
5
19E
100
AcDbEntity
8
1
62
256
6
ByLayer
370
13
48
1
60
0
100
AcDbEllipse
10
125.844139
20
7.017458
30
0
11
-0.157303252980183
21
-0.0460731444159116
31
0
210
0
220
0
230
1
40
0.019548
41
-3.05924451050489
42
-1.48844818364883
0
ELLIPSE
5
19F
100
AcDbEntity
8
1
62
256
6
ByLayer
370
13
48
1
60
0
100
AcDbEllipse
10
125.3584
20
11.154454
30
0
11
-0.457939617120332
21
8.73800842910281
31
0
210
0
220
0
230
1
40
0.995725
41
3.07534344057168
42
3.10312211148825
0
ELLIPSE
5
1A0
100
AcDbEntity
8
1
62
256
6
ByLayer
370
13
48
1
60
0
100
AcDbEllipse
10
131.963636
20
6.042629
30
0
11
-0.0915879234240667
21
1.74760168582056
31
0
210
0
220
0
230
1
40
0.995725
41
-0.0384705421014733
42
-0.0087266462599718
0
ELLIPSE
5
1A1
100
AcDbEntity
8
1
62
256
6
ByLayer
370
13
48
1
60
0
100
AcDbEllipse
10
125.253182
20
2.406152
30
0
11
-0.00212587133337199
21
-0.149984934813714
31
0
210
0
220
0
230
1
40
0.092168
41
-1.56465514491251
42
-0.0696346549930407
0
ELLIPSE
5
1A2
100
AcDbEntity
8
1
62
256
6
ByLayer
370
13
48
1
60
0
100
AcDbEllipse
10
132.69518
20
5.380517
30
0
11
0.148731686424787
21
-0.0194649801756611
31
0
210
0
220
0
230
1
40
0.016833
41
-1.66175841710567
42
-0.0909620903081085
0
ELLIPSE
5
1A3
100
AcDbEntity
8
1
62
256
6
ByLayer
370
13
48
1
60
0
100
AcDbEllipse
10
130.672219
20
8.671489
30
0
11
-1.19272915820644
21
-1.02318492691138
31
0
210
0
220
0
230
1
40
0.704848
41
1.25256800990113
42
1.62440886724161
0
ELLIPSE
5
1A4
100
AcDbEntity
8
1
62
256
6
ByLayer
370
13
48
1
60
0
100
AcDbEllipse
10
131.877164
20
5.269494
30
0
11
0.148731686424787
21
-0.0194649801756611
31
0
210
0
220
0
230
1
40
0.016833
41
3.05063056328133
42
-1.66175841710548
0
ELLIPSE
5
1A5
100
AcDbEntity
8
1
62
256
6
ByLayer
370
13
48
1
60
0
100
AcDbEllipse
10
125.79766
20
4.900598
30
0
11
-0.0743658432123932
21
0.00973249008783224
31
0
210
0
220
0
230
1
40
0.016833
41
-1.66175841710494
42
-0.0909620903140981
0
ELLIPSE
5
1A6
100
AcDbEntity
8
1
62
256
6
ByLayer
370
13
48
1
60
0
100
AcDbEllipse
10
125.802312
20
8.416267
30
0
11
-1.60034749228684
21
0.985198445061092
31
0
210
0
220
0
230
1
40
0.479615
41
1.63253586371781
42
1.65246870415898
0
ELLIPSE
5
1A7
100
AcDbEntity
8
1
62
256
6
ByLayer
370
13
48
1
60
0
100
AcDbEllipse
10
130.291582
20
8.651541
30
0
11
0.0680367431158262
21
-1.29821839518095
31
0
210
0
220
0
230
1
40
0.995725
41
0
42
0.511827859274417
0
ELLIPSE
5
1A8
100
AcDbEntity
8
1
62
256
6
ByLayer
370
13
48
1
60
0
100
AcDbEllipse
10
124.887151
20
4.798414
30
0
11
-0.0078503934363483
21
0.149794430213187
31
0
210
0
220
0
230
1
40
0.995725
41
1.38753675533528
42
1.67551608191438
0
ELLIPSE
5
1A9
100
AcDbEntity
8
1
62
256
6
ByLayer
370
13
48
1
60
0
100
AcDbEllipse
10
131.982085
20
6.043595
30
0
11
0.0994383168615918
21
-1.89739611603369
31
0
210
0
220
0
230
1
40
0.995725
41
3.10312211148898
42
3.13286600733048
0
ELLIPSE
5
1AA
100
AcDbEntity
8
1
62
256
6
ByLayer
370
13
48
1
60
0
100
AcDbEllipse
10
125.547007
20
2.407583
30
0
11
0.00653729335064122
21
-0.149857478277354
31
0
210
0
220
0
230
1
40
0.092367
41
-1.56998679074968
42
0.000809536045688171
0
ELLIPSE
5
1AB
100
AcDbEntity
8
1
62
256
6
ByLayer
370
13
48
1
60
0
100
AcDbEllipse
10
128.665933
20
5.096589
30
0
11
0.0699521520797112
21
-1.33476657543374
31
0
210
0
220
0
230
1
40
0.995725
41
2.87563155024227
42
-1.62293252536888
0
ELLIPSE
5
1AC
100
AcDbEntity
8
1
62
256
6
ByLayer
370
13
48
1
60
0
100
AcDbEllipse
10
128.665933
20
5.096589
30
0
11
0.0699521520797112
21
-1.33476657543374
31
0
210
0
220
0
230
1
40
0.995725
41
-1.62293252536888
42
-0.0169894529143313
0
ELLIPSE
5
1AD
100
AcDbEntity
8
1
62
256
6
ByLayer
370
13
48
1
60
0
100
AcDbEllipse
10
125.602833
20
2.459945
30
0
11
-0.00261679781211609
21
0.0499314767377286
31
0
210
0
220
0
230
1
40
0.995725
41
3.13286600733052
42
-2.23976176980889
0
ELLIPSE
5
1AE
100
AcDbEntity
8
1
62
256
6
ByLayer
370
13
48
1
60
0
100
AcDbEllipse
10
125.942504
20
2.672627
30
0
11
0.00523359562429426
21
-0.0998629534754566
31
0
210
0
220
0
230
1
40
0.995725
41
0.657926248777512
42
1.67551608191476
0
ELLIPSE
5
1AF
100
AcDbEntity
8
1
62
256
6
ByLayer
370
13
48
1
60
0
100
AcDbEllipse
10
131.901074
20
7.791685
30
0
11
-0.00653729335064158
21
0.149857478277354
31
0
210
0
220
0
230
1
40
0.092367
41
0.000809536045656042
42
1.57160586284002
0
ELLIPSE
5
1B0
100
AcDbEntity
8
1
62
256
6
ByLayer
370
13
48
1
60
0
100
AcDbEllipse
10
125.314589
20
7.334706
30
0
11
-0.492925138856842
21
0.303452289523188
31
0
210
0
220
0
230
1
40
0.479615
41
-1.50905674744763
42
-1.04253322571196
0
ELLIPSE
5
1B1
100
AcDbEntity
8
1
62
256
6
ByLayer
370
13
48
1
60
0
100
AcDbEllipse
10
125.90211
20
7.076702
30
0
11
0.00523359562429442
21
-0.0998629534754596
31
0
210
0
220
0
230
1
40
0.995725
41
1.38753675533592
42
3.14158141713675
0
ELLIPSE
5
1B2
100
AcDbEntity
8
1
62
256
6
ByLayer
370
13
48
1
60
0
100
AcDbEllipse
10
126.39624
20
4.817915
30
0
11
0.0444855628065016
21
-0.848835104541388
31
0
210
0
220
0
230
1
40
0.995725
41
-1.7540558982543
42
-1.46607657167524
0
ELLIPSE
5
1B3
100
AcDbEntity
8
1
62
256
6
ByLayer
370
13
48
1
60
0
100
AcDbEllipse
10
131.351672
20
7.413523
30
0
11
-0.0740818329315809
21
-0.0116996593752697
31
0
210
0
220
0
230
1
40
0.009655
41
1.66279490126838
42
3.14137689880243
0
ELLIPSE
5
1B4
100
AcDbEntity
8
1
62
256
6
ByLayer
370
13
48
1
60
0
100
AcDbEllipse
10
125.024577
20
6.89463
30
0
11
0.0222321776353755
21
-0.148343285246044
31
0
210
0
220
0
230
1
40
0.091945
41
-3.05448529856614
42
-1.5796874341352
0
ELLIPSE
5
1B5
100
AcDbEntity
8
1
62
256
6
ByLayer
370
13
48
1
60
0
100
AcDbEllipse
10
132.423503
20
3.304638
30
0
11
0.148731686424787
21
-0.0194649801756611
31
0
210
0
220
0
230
1
40
0.016833
41
-1.66175841710587
42
-0.0909620903125218
0
ELLIPSE
5
1B6
100
AcDbEntity
8
1
62
256
6
ByLayer
370
13
48
1
60
0
100
AcDbEllipse
10
126.077816
20
7.041267
30
0
11
0.0743658432123934
21
-0.00973249008783053
31
0
210
0
220
0
230
1
40
0.016833
41
1.47983423648372
42
3.05063056328417
0
ELLIPSE
5
1B7
100
AcDbEntity
8
1
62
256
6
ByLayer
370
13
48
1
60
0
100
AcDbEllipse
10
125.241386
20
2.555411
30
0
11
-0.00785039343634865
21
0.149794430213193
31
0
210
0
220
0
230
1
40
0.995725
41
1.67551608191457
42
3.07534344057192
0
ELLIPSE
5
1B8
100
AcDbEntity
8
1
62
256
6
ByLayer
370
13
48
1
60
0
100
AcDbEllipse
10
131.024167
20
5.379903
30
0
11
0.0444855628065016
21
-0.848835104541388
31
0
210
0
220
0
230
1
40
0.995725
41
1.38753675533551
42
1.67551608191457
0
ELLIPSE
5
1B9
100
AcDbEntity
8
1
62
256
6
ByLayer
370
13
48
1
60
0
100
AcDbEllipse
10
131.95288
20
7.79317
30
0
11
-0.00205858338350426
21
0.149985873449646
31
0
210
0
220
0
230
1
40
0.092302
41
0.00356790891806117
42
1.57436423571418
0
ELLIPSE
5
1BA
100
AcDbEntity
8
1
62
256
6
ByLayer
370
13
48
1
60
0
100
AcDbEllipse
10
124.753471
20
4.775707
30
0
11
-0.148163665863162
21
-0.0233993187505394
31
0
210
0
220
0
230
1
40
0.009655
41
-1.47879775232128
42
-0.000215754773261335
0
ELLIPSE
5
1BB
100
AcDbEntity
8
1
62
256
6
ByLayer
370
13
48
1
60
0
100
AcDbEllipse
10
130.65427
20
1.731038
30
0
11
0.0680367431158262
21
-1.29821839518095
31
0
210
0
220
0
230
1
40
0.995725
41
2.23976176980972
42
-3.14159265358918
0
ELLIPSE
5
1BC
100
AcDbEntity
8
1
62
256
6
ByLayer
370
13
48
1
60
0
100
AcDbEllipse
10
126.421607
20
4.819244
30
0
11
-0.0327099726514523
21
0.62414345922163
31
0
210
0
220
0
230
1
40
0.995725
41
1.3875367553355
42
1.67551608191456
0
ELLIPSE
5
1BD
100
AcDbEntity
8
1
62
256
6
ByLayer
370
13
48
1
60
0
100
AcDbEllipse
10
131.550583
20
3.122808
30
0
11
0.00523359562429442
21
-0.0998629534754596
31
0
210
0
220
0
230
1
40
0.995725
41
-1.75405589825315
42
0.0959931088601915
0
ELLIPSE
5
1BE
100
AcDbEntity
8
1
62
256
6
ByLayer
370
13
48
1
60
0
100
AcDbEllipse
10
131.603942
20
3.181811
30
0
11
-0.157303252998484
21
-0.0460731444212241
31
0
210
0
220
0
230
1
40
0.019548
41
-1.48844818363224
42
0.0823481430889452
0
ELLIPSE
5
1BF
100
AcDbEntity
8
1
62
256
6
ByLayer
370
13
48
1
60
0
100
AcDbEllipse
10
132.062008
20
-0.956636
30
0
11
-0.457939617120332
21
8.73800842910281
31
0
210
0
220
0
230
1
40
0.995725
41
-0.0662492130181172
42
-0.0384705421015455
0
ELLIPSE
5
1C0
100
AcDbEntity
8
1
62
256
6
ByLayer
370
13
48
1
60
0
100
AcDbEllipse
10
132.194899
20
7.793116
30
0
11
0.00212587133337154
21
0.149984934813714
31
0
210
0
220
0
230
1
40
0.092168
41
0.00614118188311402
42
1.57693750867728
0
ELLIPSE
5
1C1
100
AcDbEntity
8
1
62
256
6
ByLayer
370
13
48
1
60
0
100
AcDbEllipse
10
131.351672
20
7.413523
30
0
11
0.00392519671822073
21
-0.0748972151065931
31
0
210
0
220
0
230
1
40
0.995725
41
3.14158483764985
42
-2.61421045510361
0
ELLIPSE
5
1C2
100
AcDbEntity
8
1
62
256
6
ByLayer
370
13
48
1
60
0
100
AcDbEllipse
10
132.428116
20
3.30488
30
0
11
0.00785039343644145
21
-0.149794430213186
31
0
210
0
220
0
230
1
40
0.995725
41
0.0959931088600939
42
1.38753675533586
0
ELLIPSE
5
1C3
100
AcDbEntity
8
1
62
256
6
ByLayer
370
13
48
1
60
0
100
AcDbEllipse
10
125.024577
20
6.89463
30
0
11
-0.148731686424786
21
0.0194649801756644
31
0
210
0
220
0
230
1
40
0.016833
41
0.263130755736897
42
1.47983423648441
0
ELLIPSE
5
1C4
100
AcDbEntity
8
1
62
256
6
ByLayer
370
13
48
1
60
0
100
AcDbEllipse
10
125.02919
20
6.894872
30
0
11
0.00785039343644145
21
-0.149794430213186
31
0
210
0
220
0
230
1
40
0.995725
41
-3.04559954473093
42
-1.75405589825509
0
ELLIPSE
5
1C5
100
AcDbEntity
8
1
62
256
6
ByLayer
370
13
48
1
60
0
100
AcDbEllipse
10
126.902828
20
1.534433
30
0
11
0.0811207321765623
21
-1.5478757788696
31
0
210
0
220
0
230
1
40
0.995725
41
-2.46557149586851
42
-2.23976176980908
0
ELLIPSE
5
1C6
100
AcDbEntity
8
1
62
256
6
ByLayer
370
13
48
1
60
0
100
AcDbEllipse
10
125.107706
20
2.532704
30
0
11
-0.148163665863162
21
-0.0233993187505394
31
0
210
0
220
0
230
1
40
0.009655
41
-1.47879775232135
42
0.091998574472972
0
ELLIPSE
5
1C7
100
AcDbEntity
8
1
62
256
6
ByLayer
370
13
48
1
60
0
100
AcDbEllipse
10
132.423503
20
3.304638
30
0
11
0.00785039343644145
21
-0.149794430213186
31
0
210
0
220
0
230
1
40
0.995725
41
0.095993108859718
42
1.38753675533529
0
ELLIPSE
5
1C8
100
AcDbEntity
8
1
62
256
6
ByLayer
370
13
48
1
60
0
100
AcDbEllipse
10
131.977473
20
6.043354
30
0
11
0.0994383168615918
21
-1.89739611603369
31
0
210
0
220
0
230
1
40
0.995725
41
3.10312211148832
42
3.13286600732983
0
ELLIPSE
5
1C9
100
AcDbEntity
8
1
62
256
6
ByLayer
370
13
48
1
60
0
100
AcDbEllipse
10
126.105633
20
2.786229
30
0
11
0.00392519671822073
21
-0.0748972151065931
31
0
210
0
220
0
230
1
40
0.995725
41
-1.46607657167589
42
-1.55852547281647E-05
0
ELLIPSE
5
1CA
100
AcDbEntity
8
1
62
256
6
ByLayer
370
13
48
1
60
0
100
AcDbEllipse
10
130.776494
20
1.737443
30
0
11
-0.0680367431150208
21
1.29821839518099
31
0
210
0
220
0
230
1
40
0.995725
41
-0.883668716629761
42
-0.85551897114366
0
ELLIPSE
5
1CB
100
AcDbEntity
8
1
62
256
6
ByLayer
370
13
48
1
60
0
100
AcDbEllipse
10
131.657268
20
5.478502
30
0
11
0.0740818329315806
21
0.0116996593752716
31
0
210
0
220
0
230
1
40
0.009655
41
-1.47879775232142
42
-0.000215754782460449
0
ELLIPSE
5
1CC
100
AcDbEntity
8
1
62
256
6
ByLayer
370
13
48
1
60
0
100
AcDbEllipse
10
124.990686
20
2.923522
30
0
11
-0.0701174095610148
21
0.249530450733712
31
0
210
0
220
0
230
1
40
0.960623
41
1.53011605212446
42
1.90015045639022
0
ELLIPSE
5
1CD
100
AcDbEntity
8
1
62
256
6
ByLayer
370
13
48
1
60
0
100
AcDbEllipse
10
125.259835
20
2.556378
30
0
11
0.015700786872883
21
-0.299588860426374
31
0
210
0
220
0
230
1
40
0.995725
41
-1.46607657167585
42
-0.0662492130186808
0
ELLIPSE
5
1CE
100
AcDbEntity
8
1
62
256
6
ByLayer
370
13
48
1
60
0
100
AcDbEllipse
10
130.51808
20
1.723901
30
0
11
-1.06244663963943
21
-1.09843634130801
31
0
210
0
220
0
230
1
40
0.695792
41
2.89972207087086
42
-3.01162237894198
0
ELLIPSE
5
1CF
100
AcDbEntity
8
1
62
256
6
ByLayer
370
13
48
1
60
0
100
AcDbEllipse
10
132.075845
20
-0.955911
30
0
11
0.465790010562193
21
-8.88780285931571
31
0
210
0
220
0
230
1
40
0.995725
41
3.07534344057168
42
3.10312211148825
0
ELLIPSE
5
1D0
100
AcDbEntity
8
1
62
256
6
ByLayer
370
13
48
1
60
0
100
AcDbEllipse
10
132.19747
20
7.643374
30
0
11
0.015700786872883
21
-0.299588860426374
31
0
210
0
220
0
230
1
40
0.995725
41
1.67551608191514
42
3.07534344057221
0
ELLIPSE
5
1D1
100
AcDbEntity
8
1
62
256
6
ByLayer
370
13
48
1
60
0
100
AcDbEllipse
10
126.921277
20
1.5354
30
0
11
-0.0680367431150208
21
1.29821839518099
31
0
210
0
220
0
230
1
40
0.995725
41
0
42
0.901830883780076
0
ELLIPSE
5
1D2
100
AcDbEntity
8
1
62
256
6
ByLayer
370
13
48
1
60
0
100
AcDbEllipse
10
131.379489
20
3.158484
30
0
11
0.00392519671822073
21
-0.0748972151065931
31
0
210
0
220
0
230
1
40
0.995725
41
-0.380878809690346
42
1.96739042944912E-05
0
ELLIPSE
5
1D3
100
AcDbEntity
8
1
62
256
6
ByLayer
370
13
48
1
60
0
100
AcDbEllipse
10
131.91761
20
7.680756
30
0
11
0.0209560818654992
21
-0.399865862514818
31
0
210
0
220
0
230
1
40
0.995725
41
-2.70628529156114
42
-2.2397617698088
0
ELLIPSE
5
1D4
100
AcDbEntity
8
1
62
256
6
ByLayer
370
13
48
1
60
0
100
AcDbEllipse
10
131.87393
20
5.513408
30
0
11
0.148163665863161
21
0.0233993187505432
31
0
210
0
220
0
230
1
40
0.009655
41
1.66279490126932
42
2.86882079213923
0
ELLIPSE
5
1D5
100
AcDbEntity
8
1
62
256
6
ByLayer
370
13
48
1
60
0
100
AcDbEllipse
10
131.836024
20
7.73884
30
0
11
0.0104671912485885
21
-0.199725906950913
31
0
210
0
220
0
230
1
40
0.995725
41
3.13286600733095
42
-2.23976176980853
0
ELLIPSE
5
1D6
100
AcDbEntity
8
1
62
256
6
ByLayer
370
13
48
1
60
0
100
AcDbEllipse
10
125.618852
20
2.410717
30
0
11
0.00653729335064122
21
-0.149857478277354
31
0
210
0
220
0
230
1
40
0.092367
41
-1.56998679074968
42
-0.0232440763774811
0
ELLIPSE
5
1D7
100
AcDbEntity
8
1
62
256
6
ByLayer
370
13
48
1
60
0
100
AcDbEllipse
10
131.645963
20
7.666519
30
0
11
-0.458505441895894
21
-0.353314653438608
31
0
210
0
220
0
230
1
40
0.479615
41
-2.09905942789754
42
-1.63253590619306
0
ELLIPSE
5
1D8
100
AcDbEntity
8
1
62
256
6
ByLayer
370
13
48
1
60
0
100
AcDbEllipse
10
132.69461
20
5.423561
30
0
11
0.148163665863161
21
0.0233993187505432
31
0
210
0
220
0
230
1
40
0.009655
41
0.0919985744711225
42
1.6627949012687
0
ELLIPSE
5
1D9
100
AcDbEntity
8
1
62
256
6
ByLayer
370
13
48
1
60
0
100
AcDbEllipse
10
126.414689
20
4.818882
30
0
11
0.0366351693700602
21
-0.699040674328202
31
0
210
0
220
0
230
1
40
0.995725
41
-1.75405589825429
42
-1.46607657167524
0
ELLIPSE
5
1DA
100
AcDbEntity
8
1
62
256
6
ByLayer
370
13
48
1
60
0
100
AcDbEllipse
10
126.177952
20
8.435954
30
0
11
-1.29314721102533
21
0.892905666644882
31
0
210
0
220
0
230
1
40
0.704848
41
1.51718378626309
42
1.88902464364697
0
ELLIPSE
5
1DB
100
AcDbEntity
8
1
62
256
6
ByLayer
370
13
48
1
60
0
100
AcDbEllipse
10
124.975841
20
7.236953
30
0
11
-0.0436502645105318
21
-0.255492761882988
31
0
210
0
220
0
230
1
40
0.960623
41
-2.8353548666191
42
-1.5301160520858
0
ELLIPSE
5
1DC
100
AcDbEntity
8
1
62
256
6
ByLayer
370
13
48
1
60
0
100
AcDbEllipse
10
131.049534
20
5.381232
30
0
11
-0.0327099726514523
21
0.62414345922163
31
0
210
0
220
0
230
1
40
0.995725
41
-1.75405589825431
42
-1.46607657167523
0
ELLIPSE
5
1DD
100
AcDbEntity
8
1
62
256
6
ByLayer
370
13
48
1
60
0
100
AcDbEllipse
10
131.603942
20
3.181811
30
0
11
-0.0435852065164651
21
-0.158111345863246
31
0
210
0
220
0
230
1
40
0.080185
41
-1.54411081854105
42
0.0266855082575245
0
ELLIPSE
5
1DE
100
AcDbEntity
8
1
62
256
6
ByLayer
370
13
48
1
60
0
100
AcDbEllipse
10
124.752901
20
4.818751
30
0
11
-0.148731686424786
21
0.0194649801756644
31
0
210
0
220
0
230
1
40
0.016833
41
5.34639931279896E-05
42
1.47983423648403
0
ELLIPSE
5
1DF
100
AcDbEntity
8
1
62
256
6
ByLayer
370
13
48
1
60
0
100
AcDbEllipse
10
125.574151
20
4.68586
30
0
11
-0.148163665863162
21
-0.0233993187505394
31
0
210
0
220
0
230
1
40
0.009655
41
-3.04959407911497
42
-1.47879775232147
0
ELLIPSE
5
1E0
100
AcDbEntity
8
1
62
256
6
ByLayer
370
13
48
1
60
0
100
AcDbEllipse
10
125.456771
20
4.155189
30
0
11
-0.0915879234240667
21
1.74760168582056
31
0
210
0
220
0
230
1
40
0.995725
41
3.1031221114883
42
3.13286600732985
0
ELLIPSE
5
1E1
100
AcDbEntity
8
1
62
256
6
ByLayer
370
13
48
1
60
0
100
AcDbEllipse
10
132.192858
20
7.643132
30
0
11
0.015700786872883
21
-0.299588860426374
31
0
210
0
220
0
230
1
40
0.995725
41
1.67551608191457
42
3.07534344057164
0
ELLIPSE
5
1E2
100
AcDbEntity
8
1
62
256
6
ByLayer
370
13
48
1
60
0
100
AcDbEllipse
10
128.831755
20
3.132576
30
0
11
0.00392519671822073
21
-0.0748972151065931
31
0
210
0
220
0
230
1
40
0.092371
41
0
42
1.5707963267949
0
ELLIPSE
5
1E3
100
AcDbEntity
8
1
62
256
6
ByLayer
370
13
48
1
60
0
100
AcDbEllipse
10
126.077816
20
7.041267
30
0
11
-0.0243032116523954
21
-0.0709531810659598
31
0
210
0
220
0
230
1
40
0.085751
41
1.60526761398354
42
-3.10712136633589
0
ELLIPSE
5
1E4
100
AcDbEntity
8
1
62
256
6
ByLayer
370
13
48
1
60
0
100
AcDbEllipse
10
130.536029
20
8.664352
30
0
11
-0.0680367431150208
21
1.29821839518099
31
0
210
0
220
0
230
1
40
0.995725
41
-3.14159265358922
42
-2.23976176980849
0
ELLIPSE
5
1E5
100
AcDbEntity
8
1
62
256
6
ByLayer
370
13
48
1
60
0
100
AcDbEllipse
10
124.9056
20
4.799381
30
0
11
0.0157007868728827
21
-0.299588860426368
31
0
210
0
220
0
230
1
40
0.995725
41
-1.75405589825514
42
-1.46607657167594
0
ELLIPSE
5
1E6
100
AcDbEntity
8
1
62
256
6
ByLayer
370
13
48
1
60
0
100
AcDbEllipse
10
132.237018
20
2.949987
30
0
11
-0.0436502645048486
21
-0.255492761884532
31
0
210
0
220
0
230
1
40
0.960623
41
0.306237786948453
42
1.24144276497365
0
ELLIPSE
5
1E7
100
AcDbEntity
8
1
62
256
6
ByLayer
370
13
48
1
60
0
100
AcDbEllipse
10
125.947116
20
2.672868
30
0
11
0.00523359562429426
21
-0.0998629534754566
31
0
210
0
220
0
230
1
40
0.995725
41
0.657926248776575
42
1.67551608191362
0
ELLIPSE
5
1E8
100
AcDbEntity
8
1
62
256
6
ByLayer
370
13
48
1
60
0
100
AcDbEllipse
10
125.621282
20
2.460912
30
0
11
0.0104671912485885
21
-0.199725906950913
31
0
210
0
220
0
230
1
40
0.995725
41
-0.0087266462598399
42
0.901830883780094
0
ELLIPSE
5
1E9
100
AcDbEntity
8
1
62
256
6
ByLayer
370
13
48
1
60
0
100
AcDbEllipse
10
130.536029
20
8.664352
30
0
11
-0.0732703387392534
21
1.39808134865646
31
0
210
0
220
0
230
1
40
0.995725
41
-2.48366640481213
42
-2.23976176980846
0
ELLIPSE
5
1EA
100
AcDbEntity
8
1
62
256
6
ByLayer
370
13
48
1
60
0
100
AcDbEllipse
10
131.659646
20
5.299153
30
0
11
0.0743658432123934
21
-0.00973249008783053
31
0
210
0
220
0
230
1
40
0.016833
41
5.34639481026079E-05
42
1.47983423648315
0
ELLIPSE
5
1EB
100
AcDbEntity
8
1
62
256
6
ByLayer
370
13
48
1
60
0
100
AcDbEllipse
10
132.340375
20
7.666564
30
0
11
0.148163665863161
21
0.0233993187505432
31
0
210
0
220
0
230
1
40
0.009655
41
0.0919985744686624
42
1.6627949012687
0
ELLIPSE
5
1EC
100
AcDbEntity
8
1
62
256
6
ByLayer
370
13
48
1
60
0
100
AcDbEllipse
10
125.906722
20
7.076944
30
0
11
0.00523359562429442
21
-0.0998629534754596
31
0
210
0
220
0
230
1
40
0.995725
41
1.38753675533548
42
-3.04559954473076
0
ELLIPSE
5
1ED
100
AcDbEntity
8
1
62
256
6
ByLayer
370
13
48
1
60
0
100
AcDbEllipse
10
126.921277
20
1.5354
30
0
11
-0.0732703387392534
21
1.39808134865646
31
0
210
0
220
0
230
1
40
0.995725
41
0.657926248776433
42
0.901830883780113
0
ELLIPSE
5
1EE
100
AcDbEntity
8
1
62
256
6
ByLayer
370
13
48
1
60
0
100
AcDbEllipse
10
130.142439
20
1.704213
30
0
11
-1.4735428615733
21
-1.15353176741364
31
0
210
0
220
0
230
1
40
0.477355
41
2.83717572663076
42
2.8834876230759
0
ELLIPSE
5
1EF
100
AcDbEntity
8
1
62
256
6
ByLayer
370
13
48
1
60
0
100
AcDbEllipse
10
125.376849
20
11.155421
30
0
11
0.465790010562193
21
-8.88780285931571
31
0
210
0
220
0
230
1
40
0.995725
41
-0.0662492130187337
42
-0.0384705421021618
0
ELLIPSE
5
1F0
100
AcDbEntity
8
1
62
256
6
ByLayer
370
13
48
1
60
0
100
AcDbEllipse
10
132.533257
20
5.399404
30
0
11
-0.0078503934363483
21
0.149794430213187
31
0
210
0
220
0
230
1
40
0.995725
41
-1.75405589825451
42
-1.46607657167532
0
ELLIPSE
5
1F1
100
AcDbEntity
8
1
62
256
6
ByLayer
370
13
48
1
60
0
100
AcDbEllipse
10
131.047859
20
8.691175
30
0
11
-1.48859955574744
21
-1.14708349553693
31
0
210
0
220
0
230
1
40
0.479615
41
1.46274484562904
42
1.50905676277005
0
ELLIPSE
5
1F2
100
AcDbEntity
8
1
62
256
6
ByLayer
370
13
48
1
60
0
100
AcDbEllipse
10
132.547093
20
5.400129
30
0
11
0.0157007868728827
21
-0.299588860426368
31
0
210
0
220
0
230
1
40
0.995725
41
1.38753675533528
42
1.67551608191447
0
ELLIPSE
5
1F3
100
AcDbEntity
8
1
62
256
6
ByLayer
370
13
48
1
60
0
100
AcDbEllipse
10
131.042616
20
5.38087
30
0
11
0.0366351693700602
21
-0.699040674328202
31
0
210
0
220
0
230
1
40
0.995725
41
1.38753675533548
42
1.67551608191455
0
ELLIPSE
5
1F4
100
AcDbEntity
8
1
62
256
6
ByLayer
370
13
48
1
60
0
100
AcDbEllipse
10
128.625551
20
7.067176
30
0
11
0.00392519671822073
21
-0.0748972151065931
31
0
210
0
220
0
230
1
40
0.092371
41
1.5707963267949
42
3.14159265358979
0
ELLIPSE
5
1F5
100
AcDbEntity
8
1
62
256
6
ByLayer
370
13
48
1
60
0
100
AcDbEllipse
10
130.413805
20
8.657946
30
0
11
0.0680367431158262
21
-1.29821839518095
31
0
210
0
220
0
230
1
40
0.995725
41
0.855518971143657
42
0.883668716629787
0
ELLIPSE
5
1F6
100
AcDbEntity
8
1
62
256
6
ByLayer
370
13
48
1
60
0
100
AcDbEllipse
10
125.028118
20
6.886395
30
0
11
-0.043650264498534
21
-0.2554927618862
31
0
210
0
220
0
230
1
40
0.960623
41
-2.83535486666432
42
-1.53011605213569
0
ELLIPSE
5
1F7
100
AcDbEntity
8
1
62
256
6
ByLayer
370
13
48
1
60
0
100
AcDbEllipse
10
125.539695
20
2.518996
30
0
11
0.0209560818654992
21
-0.399865862514818
31
0
210
0
220
0
230
1
40
0.995725
41
0.435307362027158
42
0.901830883779685
0
ELLIPSE
5
1F8
100
AcDbEntity
8
1
62
256
6
ByLayer
370
13
48
1
60
0
100
AcDbEllipse
10
131.817575
20
7.737873
30
0
11
-0.00261679781211609
21
0.0499314767377286
31
0
210
0
220
0
230
1
40
0.995725
41
-0.00872664625984027
42
0.901830883780532
0
ELLIPSE
5
1F9
100
AcDbEntity
8
1
62
256
6
ByLayer
370
13
48
1
60
0
100
AcDbEllipse
10
132.551705
20
5.400371
30
0
11
0.0157007868728827
21
-0.299588860426368
31
0
210
0
220
0
230
1
40
0.995725
41
1.38753675533586
42
1.67551608191514
0
ELLIPSE
5
1FA
100
AcDbEntity
8
1
62
256
6
ByLayer
370
13
48
1
60
0
100
AcDbEllipse
10
125.495201
20
2.406098
30
0
11
0.00205858338350387
21
-0.149985873449646
31
0
210
0
220
0
230
1
40
0.092302
41
-1.56722841787561
42
-0.0491492667753594
0
ELLIPSE
5
1FB
100
AcDbEntity
8
1
62
256
6
ByLayer
370
13
48
1
60
0
100
AcDbEllipse
10
125.844139
20
7.017458
30
0
11
-0.043585206516155
21
-0.158111345861267
31
0
210
0
220
0
230
1
40
0.080185
41
-3.11490714533401
42
-1.54411081852148
0
ELLIPSE
5
1FC
100
AcDbEntity
8
1
62
256
6
ByLayer
370
13
48
1
60
0
100
AcDbEllipse
10
126.558588
20
8.455903
30
0
11
-0.0680367431150208
21
1.29821839518099
31
0
210
0
220
0
230
1
40
0.995725
41
2.62976479431535
42
3.14159265358917
0
ELLIPSE
5
1FD
100
AcDbEntity
8
1
62
256
6
ByLayer
370
13
48
1
60
0
100
AcDbEllipse
10
126.410077
20
4.81864
30
0
11
-0.0366351693696266
21
0.699040674328225
31
0
210
0
220
0
230
1
40
0.995725
41
1.3875367553355
42
1.67551608191455
0
ELLIPSE
5
1FE
100
AcDbEntity
8
1
62
256
6
ByLayer
370
13
48
1
60
0
100
AcDbEllipse
10
132.080457
20
-0.955669
30
0
11
0.465790010562193
21
-8.88780285931571
31
0
210
0
220
0
230
1
40
0.995725
41
3.0753434405723
42
3.10312211148887
0
ELLIPSE
5
1FF
100
AcDbEntity
8
1
62
256
6
ByLayer
370
13
48
1
60
0
100
AcDbEllipse
10
125.616669
20
2.46067
30
0
11
0.0104671912485885
21
-0.199725906950913
31
0
210
0
220
0
230
1
40
0.995725
41
0.0114030181920927
42
0.901830883780724
0
ELLIPSE
5
200
100
AcDbEntity
8
1
62
256
6
ByLayer
370
13
48
1
60
0
100
AcDbEllipse
10
125.800038
20
4.721249
30
0
11
-0.0740818329315809
21
-0.0116996593752697
31
0
210
0
220
0
230
1
40
0.009655
41
0.0919985744649635
42
1.66279490126913
0
ELLIPSE
5
201
100
AcDbEntity
8
1
62
256
6
ByLayer
370
13
48
1
60
0
100
AcDbEllipse
10
125.570917
20
4.929774
30
0
11
-0.148731686424786
21
0.0194649801756644
31
0
210
0
220
0
230
1
40
0.016833
41
1.47983423648422
42
3.05063056327992
0
ELLIPSE
5
202
100
AcDbEntity
8
1
62
256
6
ByLayer
370
13
48
1
60
0
100
AcDbEllipse
10
131.379489
20
3.158484
30
0
11
-0.0743658432123932
21
0.00973249008783224
31
0
210
0
220
0
230
1
40
0.016833
41
-3.14153918958717
42
-1.66175841710548
0
ELLIPSE
5
203
100
AcDbEntity
8
1
62
256
6
ByLayer
370
13
48
1
60
0
100
AcDbEllipse
10
126.105633
20
2.786229
30
0
11
0.0412025770551234
21
-0.0626685538688792
31
0
210
0
220
0
230
1
40
0.07982
41
-6.26840257403831E-05
42
1.52414298346492
0
ELLIPSE
5
204
100
AcDbEntity
8
1
62
256
6
ByLayer
370
13
48
1
60
0
100
AcDbEllipse
10
130.51758
20
8.663385
30
0
11
0.0811207321765623
21
-1.5478757788696
31
0
210
0
220
0
230
1
40
0.995725
41
0.676021157721256
42
0.901830883780718
0
ELLIPSE
5
205
100
AcDbEntity
8
1
62
256
6
ByLayer
370
13
48
1
60
0
100
AcDbEllipse
10
132.429187
20
3.313357
30
0
11
-0.0436502644748059
21
-0.255492761892658
31
0
210
0
220
0
230
1
40
0.960623
41
0.306237786835335
42
1.61147660135447
0
ELLIPSE
5
206
100
AcDbEntity
8
1
62
256
6
ByLayer
370
13
48
1
60
0
100
AcDbEllipse
10
131.790787
20
7.767521
30
0
11
0.12255735463635
21
-0.086485228938472
31
0
210
0
220
0
230
1
40
0.057286
41
-2.90972420640175
42
-1.64344076612771
0
ELLIPSE
5
207
100
AcDbEntity
8
1
62
256
6
ByLayer
370
13
48
1
60
0
100
AcDbEllipse
10
132.179022
20
7.642407
30
0
11
-0.00785039343634865
21
0.149794430213193
31
0
210
0
220
0
230
1
40
0.995725
41
-1.46607657167513
42
-0.0662492130181525
0
ELLIPSE
5
208
100
AcDbEntity
8
1
62
256
6
ByLayer
370
13
48
1
60
0
100
AcDbEllipse
10
131.829229
20
7.788551
30
0
11
-0.00653729335064158
21
0.149857478277354
31
0
210
0
220
0
230
1
40
0.092367
41
0.000809536043668787
42
1.57160586284002
0
ELLIPSE
5
209
100
AcDbEntity
8
1
62
256
6
ByLayer
370
18
48
1
60
0
100
AcDbEllipse
10
129.960611
20
-1.963856
30
0
11
-1.1
21
1.1117029605906E-15
31
0
210
0
220
0
230
1
40
0.992187
41
-0.463384781030935
42
-0.18898621731981
0
ELLIPSE
5
20A
100
AcDbEntity
8
1
62
256
6
ByLayer
370
18
48
1
60
0
100
AcDbEllipse
10
129.960611
20
-2.069791
30
0
11
-1.1
21
1.1117029605906E-15
31
0
210
0
220
0
230
1
40
0.992187
41
-0.431379880476958
42
-0.266053658048296
0
ELLIPSE
5
20B
100
AcDbEntity
8
1
62
256
6
ByLayer
370
18
48
1
60
0
100
AcDbEllipse
10
128.658252
20
5.096186
30
0
11
0.035494245523964
21
-0.677270550470552
31
0
210
0
220
0
230
1
40
0.995725
41
-3.14159265358975
42
-2.327855144019
0
ELLIPSE
5
20C
100
AcDbEntity
8
1
62
256
6
ByLayer
370
18
48
1
60
0
100
AcDbEllipse
10
128.726974
20
5.099788
30
0
11
0.045861998455691
21
-0.875099061305433
31
0
210
0
220
0
230
1
40
0.995725
41
-2.61799387799147
42
-1.5707963267949
0
ELLIPSE
5
20D
100
AcDbEntity
8
1
62
256
6
ByLayer
370
18
48
1
60
0
100
AcDbEllipse
10
128.2383
20
5.745488
30
0
11
-0.171784475702874
21
-0.112311174146134
31
0
210
0
220
0
230
1
40
0.497416
41
2.95288588122184
42
-2.55538359160658
0
ELLIPSE
5
20E
100
AcDbEntity
8
1
62
256
6
ByLayer
370
18
48
1
60
0
100
AcDbEllipse
10
129.309865
20
5.521071
30
0
11
-0.111493507177288
21
0.172840289287424
31
0
210
0
220
0
230
1
40
0.49529
41
1.57323145715551
42
2.73559040010629
0
ELLIPSE
5
20F
100
AcDbEntity
8
1
62
256
6
ByLayer
370
18
48
1
60
0
100
AcDbEllipse
10
128.712762
20
5.099043
30
0
11
-0.0693451420210789
21
1.32318413354985
31
0
210
0
220
0
230
1
40
0.995725
41
0
42
6.28318530717959
0
ELLIPSE
5
210
100
AcDbEntity
8
1
62
256
6
ByLayer
370
18
48
1
60
0
100
AcDbEllipse
10
128.658252
20
5.096186
30
0
11
0.035494245523964
21
-0.677270550470552
31
0
210
0
220
0
230
1
40
0.995725
41
1.0471975511966
42
2.0943951023932
0
ELLIPSE
5
211
100
AcDbEntity
8
1
62
256
6
ByLayer
370
18
48
1
60
0
100
AcDbEllipse
10
128.726974
20
5.099788
30
0
11
0.045861998455691
21
-0.875099061305433
31
0
210
0
220
0
230
1
40
0.995725
41
2.61799387799149
42
-2.61799387799147
0
ELLIPSE
5
212
100
AcDbEntity
8
1
62
256
6
ByLayer
370
18
48
1
60
0
100
AcDbEllipse
10
128.308471
20
4.406545
30
0
11
-0.182583136812142
21
0.0937395545243947
31
0
210
0
220
0
230
1
40
0.497416
41
2.44414183573156
42
-2.95288588122179
0
ELLIPSE
5
213
100
AcDbEntity
8
1
62
256
6
ByLayer
370
18
48
1
60
0
100
AcDbEllipse
10
128.667016
20
5.096645
30
0
11
-0.0693451420210789
21
1.32318413354985
31
0
210
0
220
0
230
1
40
0.995725
41
9.22038546257331E-05
42
3.14158645645111
0
ELLIPSE
5
214
100
AcDbEntity
8
1
62
256
6
ByLayer
370
18
48
1
60
0
100
AcDbEllipse
10
128.726974
20
5.099788
30
0
11
0.045861998455691
21
-0.875099061305433
31
0
210
0
220
0
230
1
40
0.995725
41
-1.5707963267949
42
-0.523598775598336
0
ELLIPSE
5
215
100
AcDbEntity
8
1
62
256
6
ByLayer
370
18
48
1
60
0
100
AcDbEllipse
10
129.309865
20
5.521071
30
0
11
-0.111493507179141
21
0.172840289284115
31
0
210
0
220
0
230
1
40
0.49529
41
0.410872514165584
42
1.57323145712195
0
ELLIPSE
5
216
100
AcDbEntity
8
1
62
256
6
ByLayer
370
18
48
1
60
0
100
AcDbEllipse
10
128.658252
20
5.096186
30
0
11
0.035494245523964
21
-0.677270550470552
31
0
210
0
220
0
230
1
40
0.995725
41
-1.90344470103225
42
-1.21869270683778
0
ELLIPSE
5
217
100
AcDbEntity
8
1
62
256
6
ByLayer
370
18
48
1
60
0
100
AcDbEllipse
10
128.699095
20
4.316856
30
0
11
-0.204738742962252
21
-0.0107299028515845
31
0
210
0
220
0
230
1
40
0.498489
41
-1.5707963267949
42
-0.40843738382656
0
ELLIPSE
5
218
100
AcDbEntity
8
1
62
256
6
ByLayer
370
18
48
1
60
0
100
AcDbEllipse
10
129.350708
20
4.741741
30
0
11
-0.0928160042495273
21
-0.183547697057776
31
0
210
0
220
0
230
1
40
0.49529
41
-2.73559040009631
42
-1.57323145710586
0
ELLIPSE
5
219
100
AcDbEntity
8
1
62
256
6
ByLayer
370
18
48
1
60
0
100
AcDbEllipse
10
129.350708
20
4.741741
30
0
11
-0.0928160042501484
21
-0.183547697063733
31
0
210
0
220
0
230
1
40
0.49529
41
-1.57323145712777
42
-0.410872514162392
0
ELLIPSE
5
21A
100
AcDbEntity
8
1
62
256
6
ByLayer
370
18
48
1
60
0
100
AcDbEllipse
10
128.726974
20
5.099788
30
0
11
0.045861998455691
21
-0.875099061305433
31
0
210
0
220
0
230
1
40
0.995725
41
1.5707963267949
42
2.61799387799149
0
ELLIPSE
5
21B
100
AcDbEntity
8
1
62
256
6
ByLayer
370
18
48
1
60
0
100
AcDbEllipse
10
128.658252
20
5.096186
30
0
11
-0.0354942455235439
21
0.677270550470574
31
0
210
0
220
0
230
1
40
0.995725
41
-3.04305800877153
42
-2.0943951023932
0
ELLIPSE
5
21C
100
AcDbEntity
8
1
62
256
6
ByLayer
370
18
48
1
60
0
100
AcDbEllipse
10
129.078205
20
4.446885
30
0
11
-0.171784475702876
21
-0.112311174146136
31
0
210
0
220
0
230
1
40
0.497416
41
0.58620748038104
42
-2.95779077331572
0
ELLIPSE
5
21D
100
AcDbEntity
8
1
62
256
6
ByLayer
370
18
48
1
60
0
100
AcDbEllipse
10
128.726974
20
5.099788
30
0
11
-0.0497191584302075
21
0.948698058016876
31
0
210
0
220
0
230
1
40
0.995725
41
0
42
6.28318530717959
0
ELLIPSE
5
21E
100
AcDbEntity
8
1
62
256
6
ByLayer
370
18
48
1
60
0
100
AcDbEllipse
10
128.658252
20
5.096186
30
0
11
0.035494245523964
21
-0.677270550470552
31
0
210
0
220
0
230
1
40
0.995725
41
-0.789358026845146
42
0
0
ELLIPSE
5
21F
100
AcDbEntity
8
1
62
256
6
ByLayer
370
18
48
1
60
0
100
AcDbEllipse
10
129.008034
20
5.785828
30
0
11
-0.182583136812154
21
0.0937395545243857
31
0
210
0
220
0
230
1
40
0.497416
41
2.95779077331589
42
-0.697449354238003
0
ELLIPSE
5
220
100
AcDbEntity
8
1
62
256
6
ByLayer
370
18
48
1
60
0
100
AcDbEllipse
10
128.726974
20
5.099788
30
0
11
0.045861998455691
21
-0.875099061305433
31
0
210
0
220
0
230
1
40
0.995725
41
-0.523598775598336
42
0.523598775598271
0
ELLIPSE
5
221
100
AcDbEntity
8
1
62
256
6
ByLayer
370
18
48
1
60
0
100
AcDbEllipse
10
128.658252
20
5.096186
30
0
11
0.035494245523964
21
-0.677270550470552
31
0
210
0
220
0
230
1
40
0.995725
41
2.0943951023932
42
3.14159265358979
0
ELLIPSE
5
222
100
AcDbEntity
8
1
62
256
6
ByLayer
370
18
48
1
60
0
100
AcDbEllipse
10
128.617409
20
5.875517
30
0
11
-0.204738742964401
21
-0.0107299028534688
31
0
210
0
220
0
230
1
40
0.498489
41
0.408437383823966
42
1.5707963267949
0
ELLIPSE
5
223
100
AcDbEntity
8
1
62
256
6
ByLayer
370
18
48
1
60
0
100
AcDbEllipse
10
129.427987
20
5.136526
30
0
11
-0.0107759733904274
21
0.205617821205966
31
0
210
0
220
0
230
1
40
0.494235
41
-2.91943718638283
42
-0.5137088642123
0
ELLIPSE
5
224
100
AcDbEntity
8
1
62
256
6
ByLayer
370
18
48
1
60
0
100
AcDbEllipse
10
128.726974
20
5.099788
30
0
11
0.045861998455691
21
-0.875099061305433
31
0
210
0
220
0
230
1
40
0.995725
41
0.523598775598271
42
1.5707963267949
0
ELLIPSE
5
225
100
AcDbEntity
8
1
62
256
6
ByLayer
370
18
48
1
60
0
100
AcDbEllipse
10
129.960611
20
-1.615383
30
0
11
-0.7
21
7.07447338557654E-16
31
0
210
0
220
0
230
1
40
0.992187
41
3.14159255476304
42
-3.19704429169436E-16
0
ELLIPSE
5
226
100
AcDbEntity
8
1
62
256
6
ByLayer
370
18
48
1
60
0
100
AcDbEllipse
10
129.960611
20
-1.615383
30
0
11
-0.7
21
7.07447338557654E-16
31
0
210
0
220
0
230
1
40
0.992187
41
0
42
1.55616851056055
0
ELLIPSE
5
227
100
AcDbEntity
8
1
62
256
6
ByLayer
370
18
48
1
60
0
100
AcDbEllipse
10
129.960611
20
-1.615383
30
0
11
-0.7
21
7.07447338557654E-16
31
0
210
0
220
0
230
1
40
0.992187
41
2.46988080999822
42
3.14159255476305
0
ELLIPSE
5
228
100
AcDbEntity
8
1
62
256
6
ByLayer
370
18
48
1
60
0
100
AcDbEllipse
10
129.960611
20
-1.65281
30
0
11
1
21
0
31
0
210
0
220
0
230
1
40
0.992187
41
0.317792073856228
42
-3.14159188852449
0
ELLIPSE
5
229
100
AcDbEntity
8
1
62
256
6
ByLayer
370
13
48
1
60
0
100
AcDbEllipse
10
132.436641
20
-0.326204
30
0
11
-0.0233814337410917
21
1.01142512613116
31
0
210
0
220
0
230
1
40
0.101813
41
-0.045617958921217
42
0.617876871173539
0
ELLIPSE
5
22A
100
AcDbEntity
8
1
62
256
6
ByLayer
370
13
48
1
60
0
100
AcDbEllipse
10
126.172386
20
2.991385
30
0
11
0.0261679781214715
21
-0.499314767377287
31
0
210
0
220
0
230
1
40
0.092371
41
-0.645790707579421
42
-0.395138986076137
0
ELLIPSE
5
22B
100
AcDbEntity
8
1
62
256
6
ByLayer
370
13
48
1
60
0
100
AcDbEllipse
10
128.617805
20
-3.783099
30
0
11
-0.314015737453942
21
5.99177720852764
31
0
210
0
220
0
230
1
40
0.995725
41
0
42
0.226948274703346
0
ELLIPSE
5
22C
100
AcDbEntity
8
1
62
256
6
ByLayer
370
13
48
1
60
0
100
AcDbEllipse
10
125.304551
20
2.95273
30
0
11
-0.0340183715575104
21
0.649109197590494
31
0
210
0
220
0
230
1
40
0.995725
41
1.42343902937248
42
2.29401437367443
0
ELLIPSE
5
22D
100
AcDbEntity
8
1
62
256
6
ByLayer
370
13
48
1
60
0
100
AcDbEllipse
10
125.196056
20
2.947044
30
0
11
-1.014426272749
21
0.817341028449082
31
0
210
0
220
0
230
1
40
0.775936
41
-3.07617439880044
42
-2.84372364304716
0
ELLIPSE
5
22E
100
AcDbEntity
8
1
62
256
6
ByLayer
370
13
48
1
60
0
100
AcDbEllipse
10
124.847885
20
7.727664
30
0
11
-4.8245498195124
21
4.19942214141758
31
0
210
0
220
0
230
1
40
0.876188
41
2.47803311623733
42
2.63234373758091
0
ELLIPSE
5
22F
100
AcDbEntity
8
1
62
256
6
ByLayer
370
13
48
1
60
0
100
AcDbEllipse
10
123.866487
20
2.97132
30
0
11
-0.293690420649016
21
-0.955900589401955
31
0
210
0
220
0
230
1
40
0.0868
41
-1.53907871771949
42
-0.162013241897767
0
ELLIPSE
5
230
100
AcDbEntity
8
1
62
256
6
ByLayer
370
13
48
1
60
0
100
AcDbEllipse
10
124.706349
20
3.016946
30
0
11
0.497774923884429
21
-0.0471182040388899
31
0
210
0
220
0
230
1
40
0.013562
41
-2.15474624399703
42
-1.66230190308544
0
ELLIPSE
5
231
100
AcDbEntity
8
1
62
256
6
ByLayer
370
13
48
1
60
0
100
AcDbEllipse
10
125.321044
20
7.752462
30
0
11
0.314015737457658
21
-5.99177720852744
31
0
210
0
220
0
230
1
40
0.995725
41
-4.16043889453997E-06
42
0.226948274703337
0
ELLIPSE
5
232
100
AcDbEntity
8
1
62
256
6
ByLayer
370
13
48
1
60
0
100
AcDbEllipse
10
130.061488
20
2.501069
30
0
11
-0.318392677083117
21
-0.395166625161525
31
0
210
0
220
0
230
1
40
0.966608
41
-2.26095467926248
42
-1.93037963550242
0
ELLIPSE
5
233
100
AcDbEntity
8
1
62
256
6
ByLayer
370
13
48
1
60
0
100
AcDbEllipse
10
135.641597
20
0.993419
30
0
11
-3.94004669678168
21
-1.1807934942048
31
0
210
0
220
0
230
1
40
0.813848
41
-0.346247800410298
42
-0.19869573090996
0
ELLIPSE
5
234
100
AcDbEntity
8
1
62
256
6
ByLayer
370
13
48
1
60
0
100
AcDbEllipse
10
139.417747
20
3E-06
30
0
11
-84.1978093083209
21
0.0381961986479895
31
0
210
0
220
0
230
1
40
0.092638
41
-1.39525361210237
42
-1.37758251586575
0
ELLIPSE
5
235
100
AcDbEntity
8
1
62
256
6
ByLayer
370
13
48
1
60
0
100
AcDbEllipse
10
125.030297
20
0
30
0
11
-0.412324051180579
21
7.79990647158248
31
0
210
0
220
0
230
1
40
0.092638
41
-0.140623439094407
42
-0.004899674642301
0
ELLIPSE
5
236
100
AcDbEntity
8
1
62
256
6
ByLayer
370
13
48
1
60
0
100
AcDbEllipse
10
125.350673
20
2.955147
30
0
11
0.0601863496793845
21
-1.14842396496776
31
0
210
0
220
0
230
1
40
0.995725
41
0.0653149256522847
42
1.01160192723486
0
ELLIPSE
5
237
100
AcDbEntity
8
1
62
256
6
ByLayer
370
13
48
1
60
0
100
AcDbEllipse
10
129.251323
20
3.9106
30
0
11
-0.732303156390154
21
-0.908883238754577
31
0
210
0
220
0
230
1
40
0.966608
41
0.713732917067095
42
1.21121301699603
0
ELLIPSE
5
238
100
AcDbEntity
8
1
62
256
6
ByLayer
370
13
48
1
60
0
100
AcDbEllipse
10
126.169408
20
2.297094
30
0
11
-3.9687966648953
21
-0.704906650954114
31
0
210
0
220
0
230
1
40
0.015321
41
-3.01817314089604
42
-2.85180693820337
0
ELLIPSE
5
239
100
AcDbEntity
8
1
62
256
6
ByLayer
370
13
48
1
60
0
100
AcDbEllipse
10
120.5
20
2.338382
30
0
11
-1.99996641381048
21
0.0149990687201353
31
0
210
0
220
0
230
1
40
0.770782
41
1.88193259912353
42
1.92579805754036
0
ELLIPSE
5
23A
100
AcDbEntity
8
1
62
256
6
ByLayer
370
13
48
1
60
0
100
AcDbEllipse
10
123.576892
20
0.000194
30
0
11
-1.04155250627831
21
-7.79923781285875
31
0
210
0
220
0
230
1
40
0.090399
41
2.98301666785479
42
2.99722055842372
0
ELLIPSE
5
23B
100
AcDbEntity
8
1
62
256
6
ByLayer
370
13
48
1
60
0
100
AcDbEllipse
10
132.954847
20
0
30
0
11
-0.929954578661633
21
-7.79921600939292
31
0
210
0
220
0
230
1
40
0.118917
41
-1.31066205807264
42
-0.108339439451242
0
ELLIPSE
5
23C
100
AcDbEntity
8
1
62
256
6
ByLayer
370
13
48
1
60
0
100
AcDbEllipse
10
124.87413
20
5.129016
30
0
11
-0.143594274777149
21
2.73994198460038
31
0
210
0
220
0
230
1
40
0.016833
41
0.320970894739451
42
0.896385686681421
0
ELLIPSE
5
23D
100
AcDbEntity
8
1
62
256
6
ByLayer
370
13
48
1
60
0
100
AcDbEllipse
10
107.708373
20
0
30
0
11
-84.1978279053089
21
0.0381968214871061
31
0
210
0
220
0
230
1
40
0.092638
41
-1.84943895802354
42
-1.78588103381145
0
ELLIPSE
5
23E
100
AcDbEntity
8
1
62
256
6
ByLayer
370
13
48
1
60
0
100
AcDbEllipse
10
126.978972
20
2.339522
30
0
11
-0.318392676577417
21
-0.395166625656844
31
0
210
0
220
0
230
1
40
0.966608
41
-2.26095468063622
42
-1.70576071274281
0
ELLIPSE
5
23F
100
AcDbEntity
8
1
62
256
6
ByLayer
370
13
48
1
60
0
100
AcDbEllipse
10
131.855692
20
-4.306599
30
0
11
-0.0935364567572983
21
-0.794745761257023
31
0
210
0
220
0
230
1
40
0.119066
41
0
42
6.28318530717959
0
ELLIPSE
5
240
100
AcDbEntity
8
1
62
256
6
ByLayer
370
13
48
1
60
0
100
AcDbEllipse
10
129.684965
20
-3.727172
30
0
11
-4.82454981942294
21
4.19942214180346
31
0
210
0
220
0
230
1
40
0.876188
41
-0.736197190653239
42
-0.509248915953888
0
ELLIPSE
5
241
100
AcDbEntity
8
1
62
256
6
ByLayer
370
13
48
1
60
0
100
AcDbEllipse
10
132.302392
20
0
30
0
11
-1.33734306859956
21
7.79922410968606
31
0
210
0
220
0
230
1
40
0.082262
41
1.52490203551743
42
1.64958566094017
0
ELLIPSE
5
242
100
AcDbEntity
8
1
62
256
6
ByLayer
370
13
48
1
60
0
100
AcDbEllipse
10
120.5
20
1.445209
30
0
11
-0.196246580749912
21
5.89129348506002
31
0
210
0
220
0
230
1
40
0.337846
41
-0.540677990376941
42
-0.47961836785926
0
ELLIPSE
5
243
100
AcDbEntity
8
1
62
256
6
ByLayer
370
13
48
1
60
0
100
AcDbEllipse
10
129.242665
20
0
30
0
11
-16.1721182910414
21
6.89296770276697
31
0
210
0
220
0
230
1
40
0.214963
41
0.876160723922551
42
0.946104094021512
0
ELLIPSE
5
244
100
AcDbEntity
8
1
62
256
6
ByLayer
370
13
48
1
60
0
100
AcDbEllipse
10
129.823429
20
-1.518211
30
0
11
1
21
0
31
0
210
0
220
0
230
1
40
0.992187
41
0
42
-3.14159241078103
0
ELLIPSE
5
245
100
AcDbEntity
8
1
62
256
6
ByLayer
370
13
48
1
60
0
100
AcDbEllipse
10
132.36692
20
-0.604327
30
0
11
-0.961124751725175
21
1.66607861595817
31
0
210
0
220
0
230
1
40
0.321121
41
-1.00186175219615
42
-0.831958021472206
0
ELLIPSE
5
246
100
AcDbEntity
8
1
62
256
6
ByLayer
370
13
48
1
60
0
100
AcDbEllipse
10
123.086892
20
2.135546
30
0
11
-3.96879668441937
21
-0.704906654484898
31
0
210
0
220
0
230
1
40
0.015321
41
-3.01817314114408
42
-2.85180693891862
0
ELLIPSE
5
247
100
AcDbEntity
8
1
62
256
6
ByLayer
370
13
48
1
60
0
100
AcDbEllipse
10
124.557064
20
4.163952
30
0
11
0.493878886210537
21
0.0779977291684773
31
0
210
0
220
0
230
1
40
0.009655
41
1.80630216916206
42
2.15261456752558
0
ELLIPSE
5
248
100
AcDbEntity
8
1
62
256
6
ByLayer
370
13
48
1
60
0
100
AcDbEllipse
10
125.2288
20
7.747627
30
0
11
-0.261679781211618
21
4.99314767377303
31
0
210
0
220
0
230
1
40
0.995725
41
2.79252680319534
42
2.92987709869106
0
ELLIPSE
5
249
100
AcDbEntity
8
1
62
256
6
ByLayer
370
13
48
1
60
0
100
AcDbEllipse
10
167.304655
20
-0.012541
30
0
11
-96.8780362923611
21
0.0439170726568389
31
0
210
0
220
0
230
1
40
0.088717
41
-1.09871912215829
42
-1.07343703792682
0
ELLIPSE
5
24A
100
AcDbEntity
8
1
62
256
6
ByLayer
370
13
48
1
60
0
100
AcDbEllipse
10
132.318894
20
0.053066
30
0
11
-0.0116907168559825
21
0.505712562339997
31
0
210
0
220
0
230
1
40
0.101813
41
-0.13972182695053
42
0.145436519664074
0
ELLIPSE
5
24B
100
AcDbEntity
8
1
62
256
6
ByLayer
370
13
48
1
60
0
100
AcDbEllipse
10
595.444474
20
0
30
0
11
-777.017917952953
21
6.40279219794081
31
0
210
0
220
0
230
1
40
0.005733
41
0.917687802359977
42
0.931143928226158
0
ELLIPSE
5
24C
100
AcDbEntity
8
1
62
256
6
ByLayer
370
13
48
1
60
0
100
AcDbEllipse
10
125.480105
20
2.961933
30
0
11
-0.732322262852325
21
-0.908871981221311
31
0
210
0
220
0
230
1
40
0.96661
41
1.81549676487443
42
1.84642287765862
0
ELLIPSE
5
24D
100
AcDbEntity
8
1
62
256
6
ByLayer
370
13
48
1
60
0
100
AcDbEllipse
10
136.087807
20
0.467622
30
0
11
-4.02200613773579
21
-0.0144564880088748
31
0
210
0
220
0
230
1
40
0.986753
41
0.047769692727705
42
0.152684195676309
0
ELLIPSE
5
24E
100
AcDbEntity
8
1
62
256
6
ByLayer
370
13
48
1
60
0
100
AcDbEllipse
10
132.437766
20
2.45971
30
0
11
-0.0190690707593728
21
-0.501607026639454
31
0
210
0
220
0
230
1
40
0.195483
41
-0.158859287384342
42
-0.0334317216081856
0
ELLIPSE
5
24F
100
AcDbEntity
8
1
62
256
6
ByLayer
370
13
48
1
60
0
100
AcDbEllipse
10
128.251453
20
3.207307
30
0
11
0.0523359562429431
21
-0.998629534754574
31
0
210
0
220
0
230
1
40
0.092371
41
-1.0471975511966
42
-4.80766918026288E-15
0
ELLIPSE
5
250
100
AcDbEntity
8
1
62
256
6
ByLayer
370
13
48
1
60
0
100
AcDbEllipse
10
132.081412
20
3.408027
30
0
11
-0.0211396032232778
21
1.00025912388558
31
0
210
0
220
0
230
1
40
0.104567
41
-3.1383260998391
42
-2.5835150668743
0
ELLIPSE
5
251
100
AcDbEntity
8
1
62
256
6
ByLayer
370
13
48
1
60
0
100
AcDbEllipse
10
125.574365
20
2.96687
30
0
11
0.0601863496793845
21
-1.14842396496776
31
0
210
0
220
0
230
1
40
0.995725
41
-1.7181536242173
42
-1.48716126005391
0
ELLIPSE
5
252
100
AcDbEntity
8
1
62
256
6
ByLayer
370
13
48
1
60
0
100
AcDbEllipse
10
126.694695
20
2.945978
30
0
11
0.276595201761485
21
-0.960986521426042
31
0
210
0
220
0
230
1
40
0.090002
41
-1.25648776912581
42
-0.020870061844276
0
ELLIPSE
5
253
100
AcDbEntity
8
1
62
256
6
ByLayer
370
13
48
1
60
0
100
AcDbEllipse
10
132.402032
20
2.457838
30
0
11
-0.0105698016104111
21
0.500129561903539
31
0
210
0
220
0
230
1
40
0.104567
41
1.92312873092475
42
-3.08718468154926
0
ELLIPSE
5
254
100
AcDbEntity
8
1
62
256
6
ByLayer
370
13
48
1
60
0
100
AcDbEllipse
10
120.5
20
1.915801
30
0
11
-1.5
21
1.51595858262354E-15
31
0
210
0
220
0
230
1
40
0.746983
41
-3.09040425927521
42
-1.68643672107387
0
ELLIPSE
5
255
100
AcDbEntity
8
1
62
256
6
ByLayer
370
13
48
1
60
0
100
AcDbEllipse
10
123.938773
20
3.123745
30
0
11
-0.0261679781211618
21
0.499314767377303
31
0
210
0
220
0
230
1
40
0.995725
41
-1.71815362421729
42
-1.46607657167529
0
ELLIPSE
5
256
100
AcDbEntity
8
1
62
256
6
ByLayer
370
13
48
1
60
0
100
AcDbEllipse
10
129.823429
20
-1.518211
30
0
11
-1.1
21
1.1117029605906E-15
31
0
210
0
220
0
230
1
40
0.992187
41
-2.98519983715644
42
-0.143236848312402
0
ELLIPSE
5
257
100
AcDbEntity
8
1
62
256
6
ByLayer
370
13
48
1
60
0
100
AcDbEllipse
10
132.387962
20
-0.319845
30
0
11
-0.0320944797015759
21
-1.0041106564363
31
0
210
0
220
0
230
1
40
0.198753
41
-3.13119884587998
42
-3.03709497649059
0
ELLIPSE
5
258
100
AcDbEntity
8
1
62
256
6
ByLayer
370
13
48
1
60
0
100
AcDbEllipse
10
132.143734
20
-4.299347
30
0
11
-0.0629304564714868
21
-0.515752370938808
31
0
210
0
220
0
230
1
40
0.115468
41
-1.66150131483762
42
-0.0907049880365481
0
ELLIPSE
5
259
100
AcDbEntity
8
1
62
256
6
ByLayer
370
13
48
1
60
0
100
AcDbEllipse
10
124.698524
20
3.268234
30
0
11
0.493878886210537
21
0.0779977291684773
31
0
210
0
220
0
230
1
40
0.009655
41
1.66279490126863
42
2.15342361859071
0
ELLIPSE
5
25A
100
AcDbEntity
8
1
62
256
6
ByLayer
370
13
48
1
60
0
100
AcDbEllipse
10
123.668959
20
3.109605
30
0
11
0.0523359562429431
21
-0.998629534754574
31
0
210
0
220
0
230
1
40
0.995725
41
1.42343902937249
42
1.67551608191453
0
ELLIPSE
5
25B
100
AcDbEntity
8
1
62
256
6
ByLayer
370
13
48
1
60
0
100
AcDbEllipse
10
129.823429
20
-1.786436
30
0
11
1
21
0
31
0
210
0
220
0
230
1
40
0.992187
41
2.26764061375859
42
3.0059149291578
0
ELLIPSE
5
25C
100
AcDbEntity
8
1
62
256
6
ByLayer
370
13
48
1
60
0
100
AcDbEllipse
10
128.334751
20
-1.977432
30
0
11
-4.02200615159734
21
-0.0144565026796325
31
0
210
0
220
0
230
1
40
0.986753
41
3.0078535011559
42
-2.98890846176548
0
ELLIPSE
5
25D
100
AcDbEntity
8
1
62
256
6
ByLayer
370
13
48
1
60
0
100
AcDbEllipse
10
125.419993
20
4.277213
30
0
11
0.0601863496793845
21
-1.14842396496776
31
0
210
0
220
0
230
1
40
0.995725
41
-1.85185662295881
42
-1.46607657167527
0
POINT
5
70
100
AcDbEntity
8
1
62
256
6
ByLayer
370
18
48
1
60
0
100
AcDbPoint
10
0
20
0
30
0
39
0
210
0
220
0
230
1
50
360
0
POINT
5
72
100
AcDbEntity
8
80
62
256
6
ByLayer
370
18
48
1
60
0
100
AcDbPoint
10
0
20
0
30
0
39
0
210
0
220
0
230
1
50
360
0
POINT
5
74
100
AcDbEntity
8
81
62
256
6
ByLayer
370
18
48
1
60
0
100
AcDbPoint
10
133
20
0
30
0
39
0
210
0
220
0
230
1
50
360
0
POINT
5
76
100
AcDbEntity
8
1
62
256
6
ByLayer
370
18
48
1
60
1
100
AcDbPoint
10
0
20
-12.5
30
0
39
0
210
0
220
0
230
1
50
360
0
POINT
5
77
100
AcDbEntity
8
1
62
256
6
ByLayer
370
18
48
1
60
1
100
AcDbPoint
10
133
20
-8
30
0
39
0
210
0
220
0
230
1
50
360
0
POINT
5
78
100
AcDbEntity
8
1
62
256
6
ByLayer
370
18
48
1
60
1
100
AcDbPoint
10
-50
20
-10
30
0
39
0
210
0
220
0
230
1
50
360
0
POINT
5
79
100
AcDbEntity
8
1
62
256
6
ByLayer
370
18
48
1
60
1
100
AcDbPoint
10
0
20
-12.5
30
0
39
0
210
0
220
0
230
1
50
360
0
POINT
5
7A
100
AcDbEntity
8
1
62
256
6
ByLayer
370
18
48
1
60
1
100
AcDbPoint
10
133
20
-8
30
0
39
0
210
0
220
0
230
1
50
360
0
POINT
5
7B
100
AcDbEntity
8
1
62
256
6
ByLayer
370
18
48
1
60
1
100
AcDbPoint
10
5.6071
20
-12.5
30
0
39
0
210
0
220
0
230
1
50
360
0
POINT
5
7C
100
AcDbEntity
8
1
62
256
6
ByLayer
370
18
48
1
60
1
100
AcDbPoint
10
18
20
-8
30
0
39
0
210
0
220
0
230
1
50
360
0
POINT
5
7D
100
AcDbEntity
8
1
62
256
6
ByLayer
370
18
48
1
60
1
100
AcDbPoint
10
133
20
-8
30
0
39
0
210
0
220
0
230
1
50
360
0
POINT
5
7E
100
AcDbEntity
8
1
62
256
6
ByLayer
370
18
48
1
60
1
100
AcDbPoint
10
132.5369
20
-4
30
0
39
0
210
0
220
0
230
1
50
360
0
SPLINE
5
25E
100
AcDbEntity
8
1
62
256
6
ByLayer
370
13
48
1
60
0
100
AcDbSpline
70
4
71
1
72
4
73
2
40
0
40
0
40
1
40
1
41
1
10
124.968868012762
20
7.67731120572572
30
0
41
1
10
125.102692364456
20
7.52525180998305
30
0
0
SPLINE
5
25F
100
AcDbEntity
8
1
62
256
6
ByLayer
370
13
48
1
60
0
100
AcDbSpline
70
4
71
3
72
18
73
14
40
0
40
0
40
0
40
0
40
0.125000000000001
40
0.125000000000001
40
0.250000000000002
40
0.250000000000002
40
0.500000000000035
40
0.500000000000035
40
0.625000000000052
40
0.625000000000052
40
0.750000000000069
40
0.750000000000069
40
1
40
1
40
1
40
1
41
1
10
124.866457947149
20
2.49389274165449
30
0
41
1
10
124.870964971868
20
2.46006807933554
30
0
41
1
10
124.880225831298
20
2.42720181285344
30
0
41
1
10
124.90702319957
20
2.36572836440979
30
0
41
1
10
124.924731645084
20
2.33627014575706
30
0
41
1
10
124.987404304412
20
2.25729214905007
30
0
41
1
10
125.042491211295
20
2.21519644112129
30
0
41
1
10
125.135273217397
20
2.17580144808557
30
0
41
1
10
125.168221412424
20
2.16672987897553
30
0
41
1
10
125.234103554489
20
2.15590351525861
30
0
41
1
10
125.267832667212
20
2.15629342145491
30
0
41
1
10
125.368761059713
20
2.1551211813881
30
0
41
1
10
125.436044313766
20
2.1554758951965
30
0
41
1
10
125.503326464407
20
2.15636616294992
30
0
0
SPLINE
5
260
100
AcDbEntity
8
1
62
256
6
ByLayer
370
13
48
1
60
0
100
AcDbSpline
70
4
71
1
72
4
73
2
40
0
40
0
40
1
40
1
41
1
10
132.036358208222
20
2.55450065842791
30
0
41
1
10
132.104581324188
20
2.6613961034613
30
0
0
SPLINE
5
261
100
AcDbEntity
8
1
62
256
6
ByLayer
370
13
48
1
60
0
100
AcDbSpline
70
4
71
2
72
6
73
3
40
0
40
0
40
0
40
1
40
1
40
1
41
1
10
124.507340638131
20
4.79423441219512
30
0
41
0.997409491337351
10
124.507723079454
20
4.76538934535027
30
0
41
1
10
124.512222994176
20
4.736896043114
30
0
0
SPLINE
5
262
100
AcDbEntity
8
1
62
256
6
ByLayer
370
13
48
1
60
0
100
AcDbSpline
70
4
71
1
72
4
73
2
40
0
40
0
40
1
40
1
41
1
10
124.409288495737
20
4.7881969562026
30
0
41
1
10
124.507340638131
20
4.79423441219512
30
0
0
SPLINE
5
263
100
AcDbEntity
8
1
62
256
6
ByLayer
370
13
48
1
60
0
100
AcDbSpline
70
4
71
3
72
8
73
4
40
0
40
0
40
0
40
0
40
1
40
1
40
1
40
1
41
1
10
125.102692364456
20
7.52525180998305
30
0
41
1
10
125.123160908974
20
7.52605940517458
30
0
41
1
10
125.142589353959
20
7.52606768463281
30
0
41
1
10
125.161821284152
20
7.52592494647089
30
0
0
SPLINE
5
264
100
AcDbEntity
8
1
62
256
6
ByLayer
370
13
48
1
60
0
100
AcDbSpline
70
4
71
1
72
4
73
2
40
0
40
0
40
1
40
1
41
1
10
124.512222994176
20
4.736896043114
30
0
41
1
10
124.417154051338
20
4.73422723566733
30
0
0
SPLINE
5
265
100
AcDbEntity
8
1
62
256
6
ByLayer
370
13
48
1
60
0
100
AcDbSpline
70
4
71
1
72
4
73
2
40
0
40
0
40
1
40
1
41
1
10
124.510701144361
20
4.85167929761363
30
0
41
1
10
124.411310856728
20
4.84224995314656
30
0
0
SPLINE
5
266
100
AcDbEntity
8
1
62
256
6
ByLayer
370
13
48
1
60
0
100
AcDbSpline
70
4
71
3
72
9
73
5
40
0
40
0
40
0
40
0
40
0.5
40
1
40
1
40
1
40
1
41
1
10
124.968868012762
20
7.67731120572572
30
0
41
1
10
124.990635528595
20
7.67929743543357
30
0
41
1
10
125.034249706779
20
7.68231498734173
30
0
41
1
10
125.077890302589
20
7.68486968365269
30
0
41
1
10
125.099707298541
20
7.68620488877318
30
0
0
SPLINE
5
267
100
AcDbEntity
8
1
62
256
6
ByLayer
370
13
48
1
60
0
100
AcDbSpline
70
4
71
3
72
22
73
18
40
0
40
0
40
0
40
0
40
0.0625000000000093
40
0.0625000000000093
40
0.125000000000019
40
0.125000000000019
40
0.250000000000037
40
0.250000000000037
40
0.28125000000005
40
0.28125000000005
40
0.312500000000062
40
0.312500000000062
40
0.375000000000056
40
0.375000000000056
40
0.500000000000045
40
0.500000000000045
40
1
40
1
40
1
40
1
41
1
10
131.310747594047
20
7.47627641129222
30
0
41
1
10
131.262826996127
20
7.44477014528724
30
0
41
1
10
131.213035884512
20
7.41619559473466
30
0
41
1
10
131.10963443488
20
7.36503248833236
30
0
41
1
10
131.05572174897
20
7.34239458240549
30
0
41
1
10
130.89326914526
20
7.28559115814275
30
0
41
1
10
130.782611055841
20
7.26141667175574
30
0
41
1
10
130.641400808504
20
7.24798068786831
30
0
41
1
10
130.61296167594
20
7.24643888250839
30
0
41
1
10
130.556072400916
20
7.24341925819831
30
0
41
1
10
130.527620913325
20
7.24194925676713
30
0
41
1
10
130.442271251921
20
7.23751134828322
30
0
41
1
10
130.385377405092
20
7.23451874930311
30
0
41
1
10
130.214692657237
20
7.22555509528951
30
0
41
1
10
130.100902239254
20
7.21959050755058
30
0
41
1
10
129.531949215352
20
7.18978538797452
30
0
41
1
10
129.076787535855
20
7.16592718129732
30
0
41
1
10
128.621625637142
20
7.14207315697149
30
0
0
SPLINE
5
268
100
AcDbEntity
8
1
62
256
6
ByLayer
370
13
48
1
60
0
100
AcDbSpline
70
4
71
1
72
4
73
2
40
0
40
0
40
1
40
1
41
1
10
124.866457947149
20
2.49389274165449
30
0
41
1
10
124.836426768027
20
2.49304969625891
30
0
0
SPLINE
5
269
100
AcDbEntity
8
1
62
256
6
ByLayer
370
13
48
1
60
0
100
AcDbSpline
70
4
71
1
72
4
73
2
40
0
40
0
40
1
40
1
41
1
10
125.23185649187
20
7.53022392821029
30
0
41
1
10
125.099707298541
20
7.68620488877318
30
0
0
SPLINE
5
26A
100
AcDbEntity
8
1
62
256
6
ByLayer
370
13
48
1
60
0
100
AcDbSpline
70
4
71
3
72
10
73
6
40
0
40
0
40
0
40
0
40
0.5
40
0.5
40
1
40
1
40
1
40
1
41
1
10
131.440632653815
20
7.60247276926302
30
0
41
1
10
131.43695093912
20
7.60227981877188
30
0
41
1
10
131.446251834195
20
7.59136750100421
30
0
41
1
10
131.484894830674
20
7.55553175907124
30
0
41
1
10
131.514251107413
20
7.53074290895776
30
0
41
1
10
131.545215990761
20
7.50647539490458
30
0
0
SPLINE
5
26B
100
AcDbEntity
8
1
62
256
6
ByLayer
370
13
48
1
60
0
100
AcDbSpline
70
4
71
3
72
16
73
12
40
0
40
0
40
0
40
0
40
0.499999999999968
40
0.499999999999968
40
0.749999999999968
40
0.749999999999968
40
0.812499999999968
40
0.812499999999968
40
0.874999999999968
40
0.874999999999968
40
1
40
1
40
1
40
1
41
1
10
128.838672801215
20
3.13293814765865
30
0
41
1
10
129.265355488707
20
3.15529963976863
30
0
41
1
10
129.692038116283
20
3.1776622905378
30
0
41
1
10
130.332062180544
20
3.21120388942256
30
0
41
1
10
130.545403670173
20
3.22238181305366
30
0
41
1
10
130.81208018691
20
3.23636089781826
30
0
41
1
10
130.865547782658
20
3.23966113365754
30
0
41
1
10
130.972136737948
20
3.23856802061295
30
0
41
1
10
131.024973583218
20
3.23516813276169
30
0
41
1
10
131.182163131579
20
3.21673213128665
30
0
41
1
10
131.285203236966
20
3.19351198969468
30
0
41
1
10
131.38640774939
20
3.15884695214953
30
0
0
SPLINE
5
26C
100
AcDbEntity
8
1
62
256
6
ByLayer
370
13
48
1
60
0
100
AcDbSpline
70
4
71
3
72
18
73
14
40
0
40
0
40
0
40
0
40
0.0553337967179476
40
0.0553337967179476
40
0.110667593435895
40
0.110667593435895
40
0.221335186871809
40
0.221335186871809
40
0.442670373743637
40
0.442670373743637
40
0.885340747487293
40
0.885340747487293
40
1
40
1
40
1
40
1
41
1
10
124.836426768027
20
2.49304969625891
30
0
41
1
10
124.83790904378
20
2.48450403664282
30
0
41
1
10
124.839769637598
20
2.47513016607596
30
0
41
1
10
124.844068036124
20
2.45620307697249
30
0
41
1
10
124.846416423033
20
2.44711637336735
30
0
41
1
10
124.853096968674
20
2.42377073521084
30
0
41
1
10
124.857235057278
20
2.41208349271514
30
0
41
1
10
124.868384470139
20
2.38331518719903
30
0
41
1
10
124.874624502133
20
2.37115693238673
30
0
41
1
10
124.892142575569
20
2.34048327502228
30
0
41
1
10
124.901896906859
20
2.32974693962669
30
0
41
1
10
124.913344088742
20
2.32005307780506
30
0
41
1
10
124.915650470447
20
2.31828603616569
30
0
41
1
10
124.917912113299
20
2.31672725879525
30
0
0
SPLINE
5
26D
100
AcDbEntity
8
1
62
256
6
ByLayer
370
13
48
1
60
0
100
AcDbSpline
70
4
71
3
72
8
73
4
40
0
40
0
40
0
40
0
40
1
40
1
40
1
40
1
41
1
10
124.409288495737
20
4.78819695620265
30
0
41
1
10
124.408862440208
20
4.79226582233392
30
0
41
1
10
124.408494428617
20
4.79613716379725
30
0
41
1
10
124.408170929951
20
4.79985702688253
30
0
0
SPLINE
5
26E
100
AcDbEntity
8
1
62
256
6
ByLayer
370
13
48
1
60
0
100
AcDbSpline
70
4
71
3
72
10
73
6
40
0
40
0
40
0
40
0
40
0.5
40
0.5
40
1
40
1
40
1
40
1
41
1
10
126.040848504022
20
2.6882477268498
30
0
41
1
10
126.037165039881
20
2.68805468467411
30
0
41
1
10
126.01677289101
20
2.6883274462304
30
0
41
1
10
125.955368597747
20
2.68952142755833
30
0
41
1
10
125.914467454892
20
2.69042720299373
30
0
41
1
10
125.87519174585
20
2.69134240068334
30
0
0
SPLINE
5
26F
100
AcDbEntity
8
1
62
256
6
ByLayer
370
13
48
1
60
0
100
AcDbSpline
70
4
71
2
72
6
73
3
40
0
40
0
40
0
40
1
40
1
40
1
41
1
10
132.949964697186
20
5.40551710460187
30
0
41
0.997409491337352
10
132.950347138509
20
5.37667203775819
30
0
41
1
10
132.946604190957
20
5.34807221918337
30
0
0
SPLINE
5
270
100
AcDbEntity
8
1
62
256
6
ByLayer
370
13
48
1
60
0
100
AcDbSpline
70
4
71
3
72
20
73
16
40
0
40
0
40
0
40
0
40
0.25
40
0.25
40
0.375
40
0.375
40
0.5
40
0.5
40
0.625
40
0.625
40
0.75
40
0.75
40
0.875
40
0.875
40
1
40
1
40
1
40
1
41
1
10
132.590847388169
20
7.7058587751425
30
0
41
1
10
132.583222930615
20
7.76307938479113
30
0
41
1
10
132.562004347843
20
7.81689559297109
30
0
41
1
10
132.514114628273
20
7.88844720877597
30
0
41
1
10
132.495769934651
20
7.91008958709779
30
0
41
1
10
132.454891654275
20
7.94949026773557
30
0
41
1
10
132.431989322934
20
7.96724000328925
30
0
41
1
10
132.383770058355
20
7.99717706619811
30
0
41
1
10
132.358329613042
20
8.00963897089002
30
0
41
1
10
132.304402671869
20
8.02882545152542
30
0
41
1
10
132.276655324797
20
8.0355564688833
30
0
41
1
10
132.220777098548
20
8.04360473231631
30
0
41
1
10
132.192270620668
20
8.0434667859638
30
0
41
1
10
132.135357823825
20
8.04405249374051
30
0
41
1
10
132.106901705152
20
8.04420956874773
30
0
41
1
10
132.078445883758
20
8.04422235567188
30
0
0
SPLINE
5
271
100
AcDbEntity
8
1
62
256
6
ByLayer
370
13
48
1
60
0
100
AcDbSpline
70
4
71
2
72
6
73
3
40
0
40
0
40
0
40
1
40
1
40
1
41
1
10
124.507340638131
20
4.79423441219512
30
0
41
0.997409491337352
10
124.506958196809
20
4.82307947903882
30
0
41
1
10
124.510701144361
20
4.85167929761363
30
0
0
SPLINE
5
272
100
AcDbEntity
8
1
62
256
6
ByLayer
370
13
48
1
60
0
100
AcDbSpline
70
4
71
3
72
16
73
12
40
0
40
0
40
0
40
0
40
0.499999999999984
40
0.499999999999984
40
0.749999999999976
40
0.749999999999976
40
0.812499999999974
40
0.812499999999974
40
0.874999999999972
40
0.874999999999972
40
1
40
1
40
1
40
1
41
1
10
128.632469133618
20
7.06753851459177
30
0
41
1
10
128.205786446125
20
7.04517702248177
30
0
41
1
10
127.77910381855
20
7.0228143717126
30
0
41
1
10
127.139079754289
20
6.98927277282786
30
0
41
1
10
126.925738264659
20
6.97809484919671
30
0
41
1
10
126.659061747923
20
6.96411576443217
30
0
41
1
10
126.605594152174
20
6.96081552859289
30
0
41
1
10
126.499005196885
20
6.96190864163745
30
0
41
1
10
126.446168351614
20
6.96530852948871
30
0
41
1
10
126.288978803254
20
6.98374453096378
30
0
41
1
10
126.185938697867
20
7.00696467255574
30
0
41
1
10
126.084734185443
20
7.04162971010086
30
0
0
SPLINE
5
273
100
AcDbEntity
8
1
62
256
6
ByLayer
370
13
48
1
60
0
100
AcDbSpline
70
4
71
3
72
18
73
14
40
0
40
0
40
0
40
0
40
0.124999999999996
40
0.124999999999996
40
0.249999999999993
40
0.249999999999993
40
0.312499999999991
40
0.312499999999991
40
0.374999999999989
40
0.374999999999989
40
0.499999999999985
40
0.499999999999985
40
1
40
1
40
1
40
1
41
1
10
131.358590354789
20
7.41388524059951
30
0
41
1
10
131.26050857899
20
7.34939959866946
30
0
41
1
10
131.15688448989
20
7.2976758819517
30
0
41
1
10
130.938937863665
20
7.21886307058853
30
0
41
1
10
130.823678135624
20
7.19188473014563
30
0
41
1
10
130.651356565371
20
7.17252051972213
30
0
41
1
10
130.593620996014
20
7.1702788599197
30
0
41
1
10
130.478255633303
20
7.16428512318123
30
0
41
1
10
130.420574746813
20
7.16126262521953
30
0
41
1
10
130.247533401106
20
7.15217637160333
30
0
41
1
10
130.132171990356
20
7.14612620324851
30
0
41
1
10
129.555362638545
20
7.1159081764356
30
0
41
1
10
129.093915985955
20
7.09172191937975
30
0
41
1
10
128.632469133618
20
7.06753851459163
30
0
0
SPLINE
5
274
100
AcDbEntity
8
1
62
256
6
ByLayer
370
13
48
1
60
0
100
AcDbSpline
70
4
71
3
72
16
73
12
40
0
40
0
40
0
40
0
40
0.500000000000016
40
0.500000000000016
40
0.750000000000024
40
0.750000000000024
40
0.812500000000026
40
0.812500000000026
40
0.875000000000028
40
0.875000000000028
40
1
40
1
40
1
40
1
41
1
10
128.621625637142
20
7.14207315697166
30
0
41
1
10
128.201566396863
20
7.12005878502131
30
0
41
1
10
127.781507212723
20
7.09804334187666
30
0
41
1
10
127.15141832705
20
7.06502226581944
30
0
41
1
10
126.941388600118
20
7.05401827135591
30
0
41
1
10
126.678851621631
20
7.04025624053722
30
0
41
1
10
126.62636833373
20
7.03650371331969
30
0
41
1
10
126.521245733798
20
7.03547137885229
30
0
41
1
10
126.46861274497
20
7.03792925114087
30
0
41
1
10
126.310500364137
20
7.05415644276709
30
0
41
1
10
126.205564494139
20
7.07674062588055
30
0
41
1
10
126.101894966672
20
7.11224999177585
30
0
0
SPLINE
5
275
100
AcDbEntity
8
1
62
256
6
ByLayer
370
13
48
1
60
0
100
AcDbSpline
70
4
71
3
72
8
73
4
40
0
40
0
40
0
40
0
40
1
40
1
40
1
40
1
41
1
10
132.226280156744
20
2.65430096194632
30
0
41
1
10
132.183333442191
20
2.65552090941119
30
0
41
1
10
132.14513174316
20
2.65899360095676
30
0
41
1
10
132.104581324188
20
2.6613961034613
30
0
0
SPLINE
5
276
100
AcDbEntity
8
1
62
256
6
ByLayer
370
13
48
1
60
0
100
AcDbSpline
70
4
71
3
72
22
73
18
40
0
40
0
40
0
40
0
40
0.250000000000094
40
0.250000000000094
40
0.375000000000141
40
0.375000000000141
40
0.500000000000187
40
0.500000000000187
40
0.625000000000234
40
0.625000000000234
40
0.75000000000028
40
0.75000000000028
40
0.81250000000021
40
0.81250000000021
40
0.87500000000014
40
0.87500000000014
40
1
40
1
40
1
40
1
41
1
10
132.525423845433
20
2.70430840656817
30
0
41
1
10
132.507117701504
20
2.69584300694592
30
0
41
1
10
132.486300855641
20
2.68722969636067
30
0
41
1
10
132.450175837901
20
2.67525982327882
30
0
41
1
10
132.437046374963
20
2.67138651886285
30
0
41
1
10
132.40944750586
20
2.6645998922848
30
0
41
1
10
132.394622072977
20
2.66163195649875
30
0
41
1
10
132.365618149217
20
2.65722373372367
30
0
41
1
10
132.351034165279
20
2.65567365245926
30
0
41
1
10
132.324074402551
20
2.65402610942903
30
0
41
1
10
132.311836888138
20
2.65412810801493
30
0
41
1
10
132.293969790233
20
2.65442397738809
30
0
41
1
10
132.287764462974
20
2.65438792954205
30
0
41
1
10
132.27513328564
20
2.65421040904849
30
0
41
1
10
132.268399941298
20
2.65392155686965
30
0
41
1
10
132.249660056851
20
2.65375436593877
30
0
41
1
10
132.237854280092
20
2.65397218656537
30
0
41
1
10
132.226280156744
20
2.65430096194632
30
0
0
SPLINE
5
277
100
AcDbEntity
8
1
62
256
6
ByLayer
370
13
48
1
60
0
100
AcDbSpline
70
4
71
3
72
8
73
4
40
0
40
0
40
0
40
0
40
1
40
1
40
1
40
1
41
1
10
132.078445883758
20
8.04422235567188
30
0
41
1
10
132.036956266233
20
8.04424099947008
30
0
41
1
10
131.995467318972
20
8.04393432303274
30
0
41
1
10
131.953978870911
20
8.0433853538471
30
0
0
SPLINE
5
278
100
AcDbEntity
8
1
62
256
6
ByLayer
370
13
48
1
60
0
100
AcDbSpline
70
4
71
3
72
9
73
5
40
0
40
0
40
0
40
0
40
0.5
40
1
40
1
40
1
40
1
41
1
10
131.953978870911
20
8.0433853538471
30
0
41
1
10
131.932122982268
20
8.04308537780165
30
0
41
1
10
131.888432307052
20
8.04152747622243
30
0
41
1
10
131.844763740513
20
8.03950649322366
30
0
41
1
10
131.822926693408
20
8.03855388689075
30
0
0
SPLINE
5
279
100
AcDbEntity
8
1
62
256
6
ByLayer
370
13
48
1
60
0
100
AcDbSpline
70
4
71
3
72
22
73
18
40
0
40
0
40
0
40
0
40
0.0625000000000432
40
0.0625000000000432
40
0.125000000000086
40
0.125000000000086
40
0.250000000000173
40
0.250000000000173
40
0.28125000000018
40
0.28125000000018
40
0.312500000000186
40
0.312500000000186
40
0.375000000000169
40
0.375000000000169
40
0.500000000000136
40
0.500000000000136
40
1
40
1
40
1
40
1
41
1
10
126.146557741271
20
2.72347510550475
30
0
41
1
10
126.194478339191
20
2.75498137150973
30
0
41
1
10
126.244269450805
20
2.78355592206231
30
0
41
1
10
126.347670900437
20
2.83471902846461
30
0
41
1
10
126.401583586348
20
2.8573569343915
30
0
41
1
10
126.564036190058
20
2.91416035865424
30
0
41
1
10
126.674694279476
20
2.93833484504125
30
0
41
1
10
126.815904526813
20
2.95177082892869
30
0
41
1
10
126.844343659378
20
2.95331263428861
30
0
41
1
10
126.901232934402
20
2.95633225859868
30
0
41
1
10
126.929684421993
20
2.95780226002986
30
0
41
1
10
127.015034083397
20
2.96224016851375
30
0
41
1
10
127.071927930226
20
2.96523276749389
30
0
41
1
10
127.242612678081
20
2.97419642150749
30
0
41
1
10
127.356403096064
20
2.98016100924642
30
0
41
1
10
127.925356119966
20
3.00996612882247
30
0
41
1
10
128.380517799462
20
3.03382433549967
30
0
41
1
10
128.835679698176
20
3.05767835982547
30
0
0
SPLINE
5
27A
100
AcDbEntity
8
1
62
256
6
ByLayer
370
13
48
1
60
0
100
AcDbSpline
70
4
71
3
72
10
73
6
40
0
40
0
40
0
40
0
40
0.182812515761939
40
0.182812515761939
40
1
40
1
40
1
40
1
41
1
10
124.723258230837
20
7.65131372472368
30
0
41
1
10
124.738137434113
20
7.65333203977778
30
0
41
1
10
124.753122639836
20
7.65492570409145
30
0
41
1
10
124.834909635426
20
7.66448345218666
30
0
41
1
10
124.901861382462
20
7.67116369668736
30
0
41
1
10
124.968868012762
20
7.67731120572572
30
0
0
SPLINE
5
27B
100
AcDbEntity
8
1
62
256
6
ByLayer
370
13
48
1
60
0
100
AcDbSpline
70
4
71
2
72
6
73
3
40
0
40
0
40
0
40
1
40
1
40
1
41
1
10
124.411310856728
20
4.84224995314656
30
0
41
0.997969722830438
10
124.408548536136
20
4.8211430937372
30
0
41
0.999121851838226
10
124.408170929951
20
4.79985702688034
30
0
0
SPLINE
5
27C
100
AcDbEntity
8
1
62
256
6
ByLayer
370
13
48
1
60
0
100
AcDbSpline
70
4
71
1
72
4
73
2
40
0
40
0
40
1
40
1
41
1
10
131.981002252015
20
2.65671668557644
30
0
41
1
10
131.935656735449
20
2.58855879077839
30
0
0
SPLINE
5
27D
100
AcDbEntity
8
1
62
256
6
ByLayer
370
13
48
1
60
0
100
AcDbSpline
70
4
71
2
72
6
73
3
40
0
40
0
40
0
40
1
40
1
40
1
41
1
10
132.949964697186
20
5.40551710460187
30
0
41
0.997409491337352
10
132.949582255864
20
5.43436217144675
30
0
41
1
10
132.945082341142
20
5.46285547368299
30
0
0
SPLINE
5
27E
100
AcDbEntity
8
1
62
256
6
ByLayer
370
13
48
1
60
0
100
AcDbSpline
70
4
71
3
72
16
73
12
40
0
40
0
40
0
40
0
40
0.500000000000016
40
0.500000000000016
40
0.750000000000024
40
0.750000000000024
40
0.812500000000026
40
0.812500000000026
40
0.875000000000028
40
0.875000000000028
40
1
40
1
40
1
40
1
41
1
10
128.835679698176
20
3.05767835982533
30
0
41
1
10
129.255738938455
20
3.07969273177568
30
0
41
1
10
129.675798122595
20
3.10170817492033
30
0
41
1
10
130.305887008267
20
3.13472925097756
30
0
41
1
10
130.515916735199
20
3.14573324544105
30
0
41
1
10
130.778453713686
20
3.15949527625972
30
0
41
1
10
130.830937001587
20
3.16324780347725
30
0
41
1
10
130.936059601519
20
3.16428013794467
30
0
41
1
10
130.988692590347
20
3.1618222656561
30
0
41
1
10
131.146804971181
20
3.14559507402987
30
0
41
1
10
131.251740841178
20
3.1230108909165
30
0
41
1
10
131.355410368645
20
3.08750152502108
30
0
0
SPLINE
5
27F
100
AcDbEntity
8
1
62
256
6
ByLayer
370
13
48
1
60
0
100
AcDbSpline
70
4
71
3
72
8
73
4
40
0
40
0
40
0
40
0
40
1
40
1
40
1
40
1
41
1
10
132.104581324188
20
2.6613961034613
30
0
41
1
10
132.085654253565
20
2.66066929349341
30
0
41
1
10
132.068206145648
20
2.66076479910316
30
0
41
1
10
132.051037468023
20
2.66101566775026
30
0
0
SPLINE
5
280
100
AcDbEntity
8
1
62
256
6
ByLayer
370
13
48
1
60
0
100
AcDbSpline
70
4
71
3
72
18
73
14
40
0
40
0
40
0
40
0
40
0.0312500000000013
40
0.0312500000000013
40
0.0625000000000024
40
0.0625000000000024
40
0.125000000000005
40
0.125000000000005
40
0.250000000000009
40
0.250000000000009
40
0.500000000000006
40
0.500000000000006
40
1
40
1
40
1
40
1
41
1
10
132.627597477412
20
2.90136765115281
30
0
41
1
10
132.627016586388
20
2.89271386554782
30
0
41
1
10
132.626146021382
20
2.88319686101158
30
0
41
1
10
132.623849589471
20
2.86392415149038
30
0
41
1
10
132.622463886435
20
2.85464175252366
30
0
41
1
10
132.618260221203
20
2.83072569704618
30
0
41
1
10
132.61536645098
20
2.81866993044503
30
0
41
1
10
132.607285222535
20
2.78889378972383
30
0
41
1
10
132.602350257781
20
2.77614987814849
30
0
41
1
10
132.588134420451
20
2.74381311699295
30
0
41
1
10
132.579555777048
20
2.73211599110604
30
0
41
1
10
132.554843195702
20
2.70629272054052
30
0
41
1
10
132.539836050102
20
2.70285651433701
30
0
41
1
10
132.525423845425
20
2.70430840656331
30
0
0
SPLINE
5
281
100
AcDbEntity
8
1
62
256
6
ByLayer
370
13
48
1
60
0
100
AcDbSpline
70
4
71
3
72
18
73
14
40
0
40
0
40
0
40
0
40
0.125
40
0.125
40
0.25
40
0.25
40
0.312499999999985
40
0.312499999999985
40
0.37499999999997
40
0.37499999999997
40
0.49999999999997
40
0.49999999999997
40
1
40
1
40
1
40
1
41
1
10
126.112551580044
20
2.78659142165091
30
0
41
1
10
126.210633355843
20
2.85107706358093
30
0
41
1
10
126.314257444943
20
2.90280078029872
30
0
41
1
10
126.532204071168
20
2.9816135916619
30
0
41
1
10
126.647463799208
20
3.00859193210476
30
0
41
1
10
126.819785369462
20
3.0279561425283
30
0
41
1
10
126.877520938819
20
3.03019780233072
30
0
41
1
10
126.99288630153
20
3.03619153906916
30
0
41
1
10
127.05056718802
20
3.03921403703089
30
0
41
1
10
127.223608533727
20
3.04830029064706
30
0
41
1
10
127.338969944477
20
3.05435045900188
30
0
41
1
10
127.915779296288
20
3.0845684858148
30
0
41
1
10
128.377225948878
20
3.10875474287064
30
0
41
1
10
128.838672801215
20
3.13293814765879
30
0
0
SPLINE
5
282
100
AcDbEntity
8
1
62
256
6
ByLayer
370
13
48
1
60
0
100
AcDbSpline
70
4
71
3
72
10
73
6
40
0
40
0
40
0
40
0
40
0.677342228093818
40
0.677342228093818
40
1
40
1
40
1
40
1
41
1
10
132.49597987682
20
2.65265860554325
30
0
41
1
10
132.46634693919
20
2.62006617426289
30
0
41
1
10
132.431440780807
20
2.5922612654887
30
0
41
1
10
132.374592281334
20
2.56074191222999
30
0
41
1
10
132.355301217428
20
2.55206294755655
30
0
41
1
10
132.33556245054
20
2.54482937314557
30
0
0
SPLINE
5
283
100
AcDbEntity
8
1
62
256
6
ByLayer
370
13
48
1
60
0
100
AcDbSpline
70
4
71
3
72
10
73
6
40
0
40
0
40
0
40
0
40
0.382881394348477
40
0.382881394348477
40
1
40
1
40
1
40
1
41
1
10
131.410088411021
20
7.51061631744031
30
0
41
1
10
131.415353324983
20
7.51030304942279
30
0
41
1
10
131.426463740628
20
7.50984943021237
30
0
41
1
10
131.467971407492
20
7.50845004171666
30
0
41
1
10
131.505940281719
20
7.50739059259416
30
0
41
1
10
131.545215990761
20
7.50647539490458
30
0
0
SPLINE
5
284
100
AcDbEntity
8
1
62
256
6
ByLayer
370
13
48
1
60
0
100
AcDbSpline
70
4
71
3
72
9
73
5
40
0
40
0
40
0
40
0
40
0.5
40
1
40
1
40
1
40
1
41
1
10
125.503326464407
20
2.15636616294989
30
0
41
1
10
125.525182353049
20
2.15666613899535
30
0
41
1
10
125.568873028266
20
2.15822404057457
30
0
41
1
10
125.612541594805
20
2.16024502357334
30
0
41
1
10
125.63437864191
20
2.16119762990624
30
0
0
SPLINE
5
285
100
AcDbEntity
8
1
62
256
6
ByLayer
370
13
48
1
60
0
100
AcDbSpline
70
4
71
3
72
10
73
6
40
0
40
0
40
0
40
0
40
0.5
40
0.5
40
1
40
1
40
1
40
1
41
1
10
126.007448281826
20
2.59679531723171
30
0
41
1
10
126.003766567131
20
2.5966023667406
30
0
41
1
10
125.98726595078
20
2.60713736310473
30
0
41
1
10
125.938444938627
20
2.64243969783871
30
0
41
1
10
125.906156629198
20
2.6670748866303
30
0
41
1
10
125.87519174585
20
2.69134240068331
30
0
0
SPLINE
5
286
100
AcDbEntity
8
1
62
256
6
ByLayer
370
13
48
1
60
0
100
AcDbSpline
70
4
71
3
72
8
73
4
40
0
40
0
40
0
40
0
40
1
40
1
40
1
40
1
41
1
10
124.409288495737
20
4.7881969562026
30
0
41
1
10
124.410845244397
20
4.77332987557503
30
0
41
1
10
124.413079033081
20
4.75600981064852
30
0
41
1
10
124.417154051338
20
4.73422723566733
30
0
0
SPLINE
5
287
100
AcDbEntity
8
1
62
256
6
ByLayer
370
13
48
1
60
0
100
AcDbSpline
70
4
71
3
72
24
73
20
40
0
40
0
40
0
40
0
40
0.124999999999925
40
0.124999999999925
40
0.249999999999851
40
0.249999999999851
40
0.374999999999776
40
0.374999999999776
40
0.499999999999701
40
0.499999999999701
40
0.562499999999664
40
0.562499999999664
40
0.593749999999682
40
0.593749999999682
40
0.6249999999997
40
0.6249999999997
40
0.749999999999846
40
0.749999999999846
40
1
40
1
40
1
40
1
41
1
10
124.667120861633
20
7.4815675936606
30
0
41
1
10
124.67745953141
20
7.48760315756405
30
0
41
1
10
124.689276040187
20
7.49369091355683
30
0
41
1
10
124.716771220926
20
7.50555536245946
30
0
41
1
10
124.732644776121
20
7.51136391740135
30
0
41
1
10
124.769726949669
20
7.52132887321906
30
0
41
1
10
124.791103331706
20
7.52536582586251
30
0
41
1
10
124.834334460082
20
7.5303378261323
30
0
41
1
10
124.855524281371
20
7.53122429582658
30
0
41
1
10
124.884751803985
20
7.53088145401239
30
0
41
1
10
124.89467347129
20
7.53090515148412
30
0
41
1
10
124.910041918804
20
7.53124892770913
30
0
41
1
10
124.915346529314
20
7.53147514254766
30
0
41
1
10
124.925497490516
20
7.53164619859126
30
0
41
1
10
124.930453087775
20
7.53165811769031
30
0
41
1
10
124.955079952717
20
7.53162492397848
30
0
41
1
10
124.974150403623
20
7.53121090690524
30
0
41
1
10
125.03004010995
20
7.52915735872517
30
0
41
1
10
125.065809799613
20
7.52689119691502
30
0
41
1
10
125.102692364456
20
7.52525180998305
30
0
0
SPLINE
5
288
100
AcDbEntity
8
SK1
62
256
6
ByLayer
370
13
48
1
60
0
100
AcDbSpline
70
4
71
3
72
8
73
4
40
0
40
0
40
0
40
0
40
1
40
1
40
1
40
1
41
1
10
-46.6001472688721
20
-5.92278394612745
30
0
41
1
10
-46.9478347132448
20
-5.72051144449824
30
0
41
1
10
-47.2929597564581
20
-5.51306300226608
30
0
41
1
10
-47.6338131992802
20
-5.29933610071166
30
0
0
SPLINE
5
289
100
AcDbEntity
8
SK1
62
256
6
ByLayer
370
13
48
1
60
0
100
AcDbSpline
70
4
71
3
72
8
73
4
40
0
40
0
40
0
40
0
40
1
40
1
40
1
40
1
41
1
10
-48.5162221138915
20
-5.74653012019169
30
0
41
1
10
-48.5438943240354
20
-5.8053619080776
30
0
41
1
10
-48.5718097134631
20
-5.8641121339023
30
0
41
1
10
-48.5999588949608
20
-5.92278394612697
30
0
0
SPLINE
5
28A
100
AcDbEntity
8
SK1
62
256
6
ByLayer
370
13
48
1
60
0
100
AcDbSpline
70
4
71
3
72
20
73
16
40
0
40
0
40
0
40
0
40
0.124999999999982
40
0.124999999999982
40
0.249999999999965
40
0.249999999999965
40
0.312499999999965
40
0.312499999999965
40
0.374999999999966
40
0.374999999999966
40
0.499999999999966
40
0.499999999999966
40
0.749999999999983
40
0.749999999999983
40
1
40
1
40
1
40
1
41
1
10
-47.6338131992802
20
-5.29933610071163
30
0
41
1
10
-47.6740667183048
20
-5.27409575158515
30
0
41
1
10
-47.7166308754023
20
-5.25371292058196
30
0
41
1
10
-47.8078158214512
20
-5.22567975846056
30
0
41
1
10
-47.8546474169343
20
-5.21874118138112
30
0
41
1
10
-47.9254506373334
20
-5.21993633261226
30
0
41
1
10
-47.9494314664153
20
-5.22231307742732
30
0
41
1
10
-47.9961515393413
20
-5.23075175663749
30
0
41
1
10
-48.0190048517889
20
-5.23677740400987
30
0
41
1
10
-48.0861850070452
20
-5.25977282447712
30
0
41
1
10
-48.1290406483722
20
-5.28179182815938
30
0
41
1
10
-48.2468933317731
20
-5.35980434663117
30
0
41
1
10
-48.3145537036651
20
-5.42911649968627
30
0
41
1
10
-48.4291855242436
20
-5.5801704437003
30
0
41
1
10
-48.4761884290776
20
-5.66141753825065
30
0
41
1
10
-48.5162221138928
20
-5.74653012019104
30
0
0
SPLINE
5
28B
100
AcDbEntity
8
SK1
62
256
6
ByLayer
370
13
48
1
60
0
100
AcDbSpline
70
4
71
3
72
68
73
64
40
0
40
0
40
0
40
0
40
0.0312499999999998
40
0.0312499999999998
40
0.0468749999999998
40
0.0468749999999998
40
0.0624999999999998
40
0.0624999999999998
40
0.0781249999999998
40
0.0781249999999998
40
0.0937499999999998
40
0.0937499999999998
40
0.125
40
0.125
40
0.140625
40
0.140625
40
0.15625
40
0.15625
40
0.1875
40
0.1875
40
0.21875
40
0.21875
40
0.25
40
0.25
40
0.3125
40
0.3125
40
0.375
40
0.375
40
0.4375
40
0.4375
40
0.5
40
0.5
40
0.5625
40
0.5625
40
0.59375
40
0.59375
40
0.625
40
0.625
40
0.6875
40
0.6875
40
0.71875
40
0.71875
40
0.75
40
0.75
40
0.8125
40
0.8125
40
0.84375
40
0.84375
40
0.875
40
0.875
40
0.890625
40
0.890625
40
0.90625
40
0.90625
40
0.9375
40
0.9375
40
0.953125
40
0.953125
40
0.96875
40
0.96875
40
0.984375
40
0.984375
40
1
40
1
40
1
40
1
41
1
10
-6.50000000009538
20
5.92278394612703
30
0
41
1
10
-6.33878343355056
20
5.92278394613399
30
0
41
1
10
-6.18177941676487
20
5.90535374260386
30
0
41
1
10
-5.95204503292123
20
5.85499087581465
30
0
41
1
10
-5.8761579968681
20
5.83402806277388
30
0
41
1
10
-5.72754356412628
20
5.78422446173252
30
0
41
1
10
-5.65582534824318
20
5.75576074512492
30
0
41
1
10
-5.5170653408679
20
5.69224224719392
30
0
41
1
10
-5.45002594048032
20
5.65718422295336
30
0
41
1
10
-5.32028954749518
20
5.58076981305527
30
0
41
1
10
-5.25730725025161
20
5.53919396424817
30
0
41
1
10
-5.07669630807399
20
5.40685634203658
30
0
41
1
10
-4.9681282561728
20
5.30936798708666
30
0
41
1
10
-4.8192767602911
20
5.15120523690598
30
0
41
1
10
-4.77201588617262
20
5.09648081493683
30
0
41
1
10
-4.68177921539336
20
4.9832213429589
30
0
41
1
10
-4.63866449550829
20
4.92447114294598
30
0
41
1
10
-4.51640109599421
20
4.74450158059136
30
0
41
1
10
-4.44432384015295
20
4.61984157358023
30
0
41
1
10
-4.3147480218982
20
4.36237185724465
30
0
41
1
10
-4.25727829092136
20
4.2295529940624
30
0
41
1
10
-4.15405509944569
20
3.95653150259102
30
0
41
1
10
-4.10821090201088
20
3.81595238894866
30
0
41
1
10
-3.98576027296087
20
3.38645328653345
30
0
41
1
10
-3.92480666207163
20
3.09352822329708
30
0
41
1
10
-3.82836581410044
20
2.49649919182491
30
0
41
1
10
-3.79303861493628
20
2.19237736018979
30
0
41
1
10
-3.739423287942
20
1.57388526407485
30
0
41
1
10
-3.72119790414467
20
1.25848600939386
30
0
41
1
10
-3.69766051521367
20
0.629770229064434
30
0
41
1
10
-3.69220891195482
20
0.31511476611081
30
0
41
1
10
-3.69220488731611
20
-0.314775276856409
30
0
41
1
10
-3.69764996689457
20
-0.630009820582757
30
0
41
1
10
-3.71539847924072
20
-1.10331301986034
30
0
41
1
10
-3.72295349270632
20
-1.26118401980844
30
0
41
1
10
-3.74169072549643
20
-1.57392414251189
30
0
41
1
10
-3.7528840700742
20
-1.72918599788719
30
0
41
1
10
-3.79297220481504
20
-2.1915697431464
30
0
41
1
10
-3.82820342946889
20
-2.4953131474044
30
0
41
1
10
-3.90055237078329
20
-2.94346899435828
30
0
41
1
10
-3.92795659251124
20
-3.09160572968909
30
0
41
1
10
-3.99109368740423
20
-3.3851856142343
30
0
41
1
10
-4.02697995296091
20
-3.53115580772567
30
0
41
1
10
-4.14935035507858
20
-3.96000187325129
30
0
41
1
10
-4.24985848320401
20
-4.23374706529833
30
0
41
1
10
-4.44558557997195
20
-4.62219121978163
30
0
41
1
10
-4.51878364756294
20
-4.7483017754634
30
0
41
1
10
-4.68094106765255
20
-4.98640124005655
30
0
41
1
10
-4.77014266699652
20
-5.09906496371062
30
0
41
1
10
-4.91910444902362
20
-5.25724358473801
30
0
41
1
10
-4.97129672243656
20
-5.30816075956034
30
0
41
1
10
-5.0814760175939
20
-5.40605179737753
30
0
41
1
10
-5.13924762360989
20
-5.4527858644075
30
0
41
1
10
-5.3187446035916
20
-5.58401200378981
30
0
41
1
10
-5.44745950661906
20
-5.66043691659488
30
0
41
1
10
-5.6569551155672
20
-5.75624904896497
30
0
41
1
10
-5.72950757943619
20
-5.78492407002628
30
0
41
1
10
-5.87631309807827
20
-5.83403800943057
30
0
41
1
10
-5.95105322147066
20
-5.85471899891138
30
0
41
1
10
-6.10329778794605
20
-5.88820225496954
30
0
41
1
10
-6.18080136159367
20
-5.90100705049875
30
0
41
1
10
-6.3387507883601
20
-5.91831877134865
30
0
41
1
10
-6.41946190921112
20
-5.92278394613078
30
0
41
1
10
-6.50000000009538
20
-5.92278394612728
30
0
0
SPLINE
5
28C
100
AcDbEntity
8
SK1
62
256
6
ByLayer
370
13
48
1
60
0
100
AcDbSpline
70
4
71
3
72
8
73
4
40
0
40
0
40
0
40
0
40
1
40
1
40
1
40
1
41
1
10
-50.0000000000002
20
4.01071934601529
30
0
41
1
10
-49.7059271350494
20
4.67037658440432
30
0
41
1
10
-49.3664638363626
20
5.30424925205759
30
0
41
1
10
-49
20
5.92278394612708
30
0
0
SPLINE
5
28D
100
AcDbEntity
8
SK1
62
256
6
ByLayer
370
13
48
1
60
0
100
AcDbSpline
70
4
71
3
72
8
73
4
40
0
40
0
40
0
40
0
40
1
40
1
40
1
40
1
41
1
10
-48.5999588949608
20
5.92278394612708
30
0
41
1
10
-48.5718156453072
20
5.86412449774471
30
0
41
1
10
-48.5439002348911
20
5.80537447470007
30
0
41
1
10
-48.5162221138915
20
5.74653012019181
30
0
0
SPLINE
5
28E
100
AcDbEntity
8
1
62
256
6
ByLayer
370
18
48
1
60
0
100
AcDbSpline
70
4
71
3
72
10
73
6
40
0
40
0
40
0
40
0
40
0.344586749300938
40
0.344586749300938
40
1
40
1
40
1
40
1
41
1
10
132.151926816113
20
-4.88906638255065
30
0
41
1
10
132.18959694588
20
-4.8783512694244
30
0
41
1
10
132.22726708024
20
-4.86763504919432
30
0
41
1
10
132.336586819371
20
-4.8365350228116
30
0
41
1
10
132.408236430099
20
-4.81615109778812
30
0
41
1
10
132.479886027241
20
-4.79577126661613
30
0
0
SPLINE
5
28F
100
AcDbEntity
8
1
62
256
6
ByLayer
370
18
48
1
60
0
100
AcDbSpline
70
4
71
1
72
4
73
2
40
0
40
0
40
1
40
1
41
1
10
132.449149559311
20
0.0821170454886442
30
0
41
1
10
132.665326109911
20
-0.0948930271259201
30
0
0
SPLINE
5
290
100
AcDbEntity
8
1
62
256
6
ByLayer
370
18
48
1
60
0
100
AcDbSpline
70
4
71
1
72
4
73
2
40
0
40
0
40
1
40
1
41
1
10
132.771794621391
20
-1.92015830249443
30
0
41
1
10
132.995098784769
20
-2.14181877079849
30
0
0
SPLINE
5
291
100
AcDbEntity
8
1
62
256
6
ByLayer
370
18
48
1
60
0
100
AcDbSpline
70
4
71
3
72
25
73
21
40
0
40
0
40
0
40
0
40
0.0105061610535553
40
0.0403533446730865
40
0.0702005282926177
40
0.12989489553168
40
0.249283630009805
40
0.36867236448793
40
0.473137507156289
40
0.488061098966054
40
0.517908282585586
40
0.547755466205117
40
0.607449833444179
40
0.726838567922304
40
0.846227302400429
40
0.905921669639491
40
0.935768853259022
40
0.965616036878554
40
0.995463220498085
40
1
40
1
40
1
40
1
41
1
10
132.100456773595
20
-4.25731915596839
30
0
41
1
10
132.118906245716
20
-4.24890808757146
30
0
41
1
10
132.187603450513
20
-4.21100061375179
30
0
41
1
10
132.279024711432
20
-4.09907561911453
30
0
41
1
10
132.356039545378
20
-3.88809050221752
30
0
41
1
10
132.375520439239
20
-3.5605493058851
30
0
41
1
10
132.444588254881
20
-3.11702912461345
30
0
41
1
10
132.514296882128
20
-2.59959335171749
30
0
41
1
10
132.560041123601
20
-2.24070850073554
30
0
41
1
10
132.592733542341
20
-2.00625658415527
30
0
41
1
10
132.585938764566
20
-1.87301246634345
30
0
41
1
10
132.542401658715
20
-1.68940257023309
30
0
41
1
10
132.501792335293
20
-1.38028195150619
30
0
41
1
10
132.424915946519
20
-0.932687391609647
30
0
41
1
10
132.35798565312
20
-0.48312132880497
30
0
41
1
10
132.301827278703
20
-0.176649957520851
30
0
41
1
10
132.281540675441
20
0.0212780386383145
30
0
41
1
10
132.225094513612
20
0.189558858375733
30
0
41
1
10
132.121880506399
20
0.272552764737441
30
0
41
1
10
132.063178111095
20
0.304066249857271
30
0
41
1
10
132.055388733348
20
0.308014496502381
30
0
0
SPLINE
5
292
100
AcDbEntity
8
1
62
256
6
ByLayer
370
18
48
1
60
0
100
AcDbSpline
70
4
71
1
72
4
73
2
40
0
40
0
40
1
40
1
41
1
10
132.692294924851
20
-4.54908516389335
30
0
41
1
10
132.925013445344
20
-2.79522253696362
30
0
0
SPLINE
5
293
100
AcDbEntity
8
1
62
256
6
ByLayer
370
18
48
1
60
0
100
AcDbSpline
70
4
71
1
72
4
73
2
40
0
40
0
40
1
40
1
41
1
10
132.99660139308
20
-2.25570627583232
30
0
41
1
10
132.773297229696
20
-2.0340458075286
30
0
0
SPLINE
5
294
100
AcDbEntity
8
1
62
256
6
ByLayer
370
18
48
1
60
0
100
AcDbSpline
70
4
71
1
72
4
73
2
40
0
40
0
40
1
40
1
41
1
10
132.67589676778
20
-0.14220167198809
30
0
41
1
10
132.459720217169
20
0.0348084006266447
30
0
0
SPLINE
5
295
100
AcDbEntity
8
1
62
256
6
ByLayer
370
18
48
1
60
0
100
AcDbSpline
70
4
71
1
72
4
73
2
40
0
40
0
40
1
40
1
41
1
10
132.557653383126
20
0.277672787207649
30
0
41
1
10
132.385143203163
20
0.303589844709791
30
0
0
SPLINE
5
296
100
AcDbEntity
8
1
62
256
6
ByLayer
370
18
48
1
60
0
100
AcDbSpline
70
4
71
1
72
4
73
2
40
0
40
0
40
1
40
1
41
1
10
132.984092223528
20
-2.07286899327488
30
0
41
1
10
132.962234739884
20
-1.93594442605118
30
0
0
SPLINE
5
297
100
AcDbEntity
8
1
62
256
6
ByLayer
370
18
48
1
60
0
100
AcDbSpline
70
4
71
1
72
4
73
2
40
0
40
0
40
1
40
1
41
1
10
132.477552673186
20
-4.79635876604459
30
0
41
1
10
132.277344753968
20
-4.40063548839285
30
0
0
SPLINE
5
298
100
AcDbEntity
8
1
62
256
6
ByLayer
370
18
48
1
60
0
100
AcDbSpline
70
4
71
3
72
8
73
4
40
0
40
0
40
0
40
0
40
1
40
1
40
1
40
1
41
1
10
133.000010820439
20
-2.19870848187983
30
0
41
1
10
133.000262431238
20
-2.21777887077798
30
0
41
1
10
132.999107949102
20
-2.23678919929509
30
0
41
1
10
132.9971725896
20
-2.25576363280206
30
0
0
SPLINE
5
299
100
AcDbEntity
8
1
62
256
6
ByLayer
370
18
48
1
60
0
100
AcDbSpline
70
4
71
1
72
4
73
2
40
0
40
0
40
1
40
1
41
1
10
132.135922552051
20
0.516654411656305
30
0
41
1
10
132.308432732009
20
0.4907373541526
30
0
0
SPLINE
5
29A
100
AcDbEntity
8
1
62
256
6
ByLayer
370
18
48
1
60
0
100
AcDbSpline
70
4
71
1
72
4
73
2
40
0
40
0
40
1
40
1
41
1
10
132.985164448315
20
-2.34189980244912
30
0
41
1
10
132.99660139308
20
-2.2557062758323
30
0
0
SPLINE
5
29B
100
AcDbEntity
8
1
62
256
6
ByLayer
370
18
48
1
60
0
100
AcDbSpline
70
4
71
1
72
4
73
2
40
0
40
0
40
1
40
1
41
1
10
132.995098784769
20
-2.14181877079852
30
0
41
1
10
132.984092223528
20
-2.07286899327488
30
0
0
SPLINE
5
29C
100
AcDbEntity
8
1
62
256
6
ByLayer
370
18
48
1
60
0
100
AcDbSpline
70
4
71
3
72
8
73
4
40
0
40
0
40
0
40
0
40
1
40
1
40
1
40
1
41
1
10
132.995438223034
20
-2.14177379393124
30
0
41
1
10
132.9979828556
20
-2.16068116912584
30
0
41
1
10
132.999759285501
20
-2.17964384306055
30
0
41
1
10
133.000010820439
20
-2.19870848187983
30
0
0
SPLINE
5
29D
100
AcDbEntity
8
1
62
256
6
ByLayer
370
18
48
1
60
0
100
AcDbSpline
70
4
71
3
72
8
73
4
40
0
40
0
40
0
40
0
40
1
40
1
40
1
40
1
41
1
10
132.665326109911
20
-0.0948930271258632
30
0
41
1
10
132.669821764024
20
-0.110448749423597
30
0
41
1
10
132.673345316647
20
-0.126218297711006
30
0
41
1
10
132.67589676778
20
-0.14220167198809
30
0
0
SPLINE
5
29E
100
AcDbEntity
8
1
62
256
6
ByLayer
370
18
48
1
60
0
100
AcDbSpline
70
4
71
1
72
4
73
2
40
0
40
0
40
1
40
1
41
1
10
132.962234739884
20
-1.93594442605118
30
0
41
1
10
132.919935961972
20
-1.67096690376488
30
0
0
SPLINE
5
29F
100
AcDbEntity
8
1
62
256
6
ByLayer
370
18
48
1
60
0
100
AcDbSpline
70
4
71
2
72
6
73
3
40
0
40
0
40
0
40
1
40
1
40
1
41
1
10
132.773297229696
20
-2.03404580752854
30
0
41
1
10
132.780867388574
20
-1.97699397212372
30
0
41
1
10
132.771794621391
20
-1.92015830249449
30
0
0
SPLINE
5
2A0
100
AcDbEntity
8
1
62
256
6
ByLayer
370
18
48
1
60
0
100
AcDbSpline
70
4
71
2
72
6
73
3
40
0
40
0
40
0
40
1
40
1
40
1
41
1
10
132.459720217169
20
0.0348084006266731
30
0
41
1
10
132.455893040453
20
0.0587834621451293
30
0
41
1
10
132.449149559311
20
0.0821170454885873
30
0
0
SPLINE
5
2A1
100
AcDbEntity
8
1
62
256
6
ByLayer
370
18
48
1
60
0
100
AcDbSpline
70
4
71
3
72
23
73
19
40
0
40
0
40
0
40
0
40
0.0108807008518059
40
0.0426954081672609
40
0.106324822798171
40
0.233583652059991
40
0.360842481321811
40
0.472193956925904
40
0.488101310583631
40
0.519916017899086
40
0.551730725214541
40
0.615360139845451
40
0.742618969107272
40
0.869877798369092
40
0.933507213000002
40
0.965321920315457
40
0.997136627630912
40
1
40
1
40
1
40
1
41
1
10
132.123973304415
20
-4.04270713087257
30
0
41
1
10
132.132040244669
20
-4.03178609387621
30
0
41
1
10
132.161225153268
20
-3.98576280515604
30
0
41
1
10
132.212642267097
20
-3.84490363276305
30
0
41
1
10
132.231286154629
20
-3.53143540740709
30
0
41
1
10
132.301172626706
20
-3.08265820958411
30
0
41
1
10
132.370617309486
20
-2.56718165342446
30
0
41
1
10
132.41640336766
20
-2.20796873097672
30
0
41
1
10
132.447339392703
20
-1.98611269699893
30
0
41
1
10
132.441897595526
20
-1.87940023515128
30
0
41
1
10
132.399678861176
20
-1.70135033320071
30
0
41
1
10
132.35848568705
20
-1.38778540770417
30
0
41
1
10
132.281816731477
20
-0.941398578478498
30
0
41
1
10
132.215003487154
20
-0.492618726066951
30
0
41
1
10
132.15825749363
20
-0.18294055908126
30
0
41
1
10
132.139013729394
20
0.0048128880889919
30
0
41
1
10
132.112520525874
20
0.0837960795300035
30
0
41
1
10
132.088006206781
20
0.117195217826946
30
0
41
1
10
132.08591138891
20
0.119901208787525
30
0
0
SPLINE
5
2A2
100
AcDbEntity
8
1
62
256
6
ByLayer
370
18
48
1
60
0
100
AcDbSpline
70
4
71
2
72
6
73
3
40
0
40
0
40
0
40
1
40
1
40
1
41
1
10
132.006446906775
20
-4.47462986569107
30
0
41
1
10
132.030610749488
20
-4.47083258899897
30
0
41
1
10
132.054128063086
20
-4.46414179162738
30
0
0
SPLINE
5
2A3
100
AcDbEntity
8
1
62
256
6
ByLayer
370
18
48
1
60
0
100
AcDbSpline
70
4
71
1
72
4
73
2
40
0
40
0
40
1
40
1
41
1
10
132.492087005633
20
-4.15336188624144
30
0
41
1
10
132.692294924851
20
-4.54908516389335
30
0
0
SPLINE
5
2A4
100
AcDbEntity
8
1
62
256
6
ByLayer
370
18
48
1
60
0
100
AcDbSpline
70
4
71
1
72
4
73
2
40
0
40
0
40
1
40
1
41
1
10
132.919935961972
20
-1.67096690376488
30
0
41
1
10
132.67589676778
20
-0.14220167198809
30
0
0
SPLINE
5
2A5
100
AcDbEntity
8
1
62
256
6
ByLayer
370
18
48
1
60
0
100
AcDbSpline
70
4
71
1
72
4
73
2
40
0
40
0
40
1
40
1
41
1
10
132.054128063086
20
-4.46414179162738
30
0
41
1
10
132.094165764062
20
-4.83093206611889
30
0
0
SPLINE
5
2A6
100
AcDbEntity
8
1
62
256
6
ByLayer
370
18
48
1
60
0
100
AcDbSpline
70
4
71
2
72
11
73
8
40
0
40
0
40
0
40
0.25
40
0.5
40
0.75
40
0.75
40
0.875
40
1
40
1
40
1
41
1
10
132.277344753968
20
-4.40063548839291
30
0
41
1
10
132.318902571238
20
-4.388812074405
30
0
41
1
10
132.392385410056
20
-4.34253760472424
30
0
41
1
10
132.449844723739
20
-4.27692641193818
30
0
41
1
10
132.468330461588
20
-4.2364358075763
30
0
41
1
10
132.476915556614
20
-4.21763127356741
30
0
41
1
10
132.489158112461
20
-4.17543523159753
30
0
41
1
10
132.492087005633
20
-4.15336188624175
30
0
0
SPLINE
5
2A7
100
AcDbEntity
8
1
62
256
6
ByLayer
370
18
48
1
60
0
100
AcDbSpline
70
4
71
1
72
4
73
2
40
0
40
0
40
1
40
1
41
1
10
132.925013445344
20
-2.79522253696362
30
0
41
1
10
132.964140219941
20
-2.50034704733039
30
0
0
SPLINE
5
2A8
100
AcDbEntity
8
1
62
256
6
ByLayer
370
18
48
1
60
0
100
AcDbSpline
70
4
71
3
72
12
73
8
40
0
40
0
40
0
40
0
40
0.5
40
0.5
40
0.75
40
0.75
40
1
40
1
40
1
40
1
41
1
10
132.692294924851
20
-4.54916437218643
30
0
41
1
10
132.684589353293
20
-4.60613307409079
30
0
41
1
10
132.659643449209
20
-4.66069357457789
30
0
41
1
10
132.602958623812
20
-4.72605760692971
30
0
41
1
10
132.580787159009
20
-4.74504559051761
30
0
41
1
10
132.531928749195
20
-4.7760341030388
30
0
41
1
10
132.505226462697
20
-4.78775867365835
30
0
41
1
10
132.477552673187
20
-4.79643496563756
30
0
0
SPLINE
5
2A9
100
AcDbEntity
8
1
62
256
6
ByLayer
370
18
48
1
60
0
100
AcDbSpline
70
4
71
2
72
11
73
8
40
0
40
0
40
0
40
0.25
40
0.5
40
0.75
40
0.75
40
0.875
40
1
40
1
40
1
41
1
10
132.385143203163
20
0.303589844709791
30
0
41
1
10
132.37322669082
20
0.344822989426575
30
0
41
1
10
132.326587852856
20
0.417731739844811
30
0
41
1
10
132.260460033126
20
0.47474214973019
30
0
41
1
10
132.219650603026
20
0.493083466815023
30
0
41
1
10
132.200698000848
20
0.501601490352073
30
0
41
1
10
132.15816970441
20
0.513748400610353
30
0
41
1
10
132.135922552052
20
0.516654411656248
30
0
0
SPLINE
5
2AA
100
AcDbEntity
8
1
62
256
6
ByLayer
370
18
48
1
60
0
100
AcDbSpline
70
4
71
3
72
12
73
8
40
0
40
0
40
0
40
0
40
0.5
40
0.5
40
0.75
40
0.75
40
1
40
1
40
1
40
1
41
1
10
132.308432732009
20
0.490658145859527
30
0
41
1
10
132.365850380734
20
0.48301314300042
30
0
41
1
10
132.420829659275
20
0.458251379711328
30
0
41
1
10
132.486718113001
20
0.402019071874264
30
0
41
1
10
132.505856841539
20
0.380022045426955
30
0
41
1
10
132.537090136406
20
0.331546115061428
30
0
41
1
10
132.548907641095
20
0.305053050744078
30
0
41
1
10
132.557653383126
20
0.277596587614937
30
0
0
SPLINE
5
2AB
100
AcDbEntity
8
1
62
256
6
ByLayer
370
18
48
1
60
0
100
AcDbSpline
70
4
71
1
72
4
73
2
40
0
40
0
40
1
40
1
41
1
10
132.04635732274
20
-4.84025406663167
30
0
41
1
10
132.006446906775
20
-4.47462986569104
30
0
0
SPLINE
5
2AC
100
AcDbEntity
8
1
62
256
6
ByLayer
370
18
48
1
60
0
100
AcDbSpline
70
4
71
1
72
4
73
2
40
0
40
0
40
1
40
1
41
1
10
132.964140219941
20
-2.50034704733039
30
0
41
1
10
132.985164448315
20
-2.34189980244912
30
0
0
SPLINE
5
2AD
100
AcDbEntity
8
1
62
256
6
ByLayer
370
18
48
1
60
0
100
AcDbSpline
70
4
71
3
72
8
73
4
40
0
40
0
40
0
40
0
40
1
40
1
40
1
40
1
41
1
10
129.242709160535
20
5.68040599148077
30
0
41
1
10
129.240532134877
20
5.67386040888795
30
0
41
1
10
129.238354724828
20
5.66731098210101
30
0
41
1
10
129.23617691022
20
5.66075744229801
30
0
0
SPLINE
5
2AE
100
AcDbEntity
8
1
62
256
6
ByLayer
370
18
48
1
60
0
100
AcDbSpline
70
4
71
3
72
16
73
12
40
0
40
0
40
0
40
0
40
0.250000000000001
40
0.250000000000001
40
0.500000000000001
40
0.500000000000001
40
0.750000000000002
40
0.750000000000002
40
0.875000000000001
40
0.875000000000001
40
1
40
1
40
1
40
1
41
1
10
128.251577603089
20
5.83481284576672
30
0
41
1
10
128.270906961077
20
5.84741657762069
30
0
41
1
10
128.291226673632
20
5.85843477342365
30
0
41
1
10
128.333435825813
20
5.87648200109246
30
0
41
1
10
128.355288725969
20
5.88354580297826
30
0
41
1
10
128.399725146558
20
5.8911405579355
30
0
41
1
10
128.422862810116
20
5.8917796282588
30
0
41
1
10
128.45281773947
20
5.88194330916289
30
0
41
1
10
128.461952562812
20
5.87666820530558
30
0
41
1
10
128.475395002905
20
5.86216456338283
30
0
41
1
10
128.47960854736
20
5.85302122533045
30
0
41
1
10
128.481204001549
20
5.8431137838856
30
0
0
SPLINE
5
2AF
100
AcDbEntity
8
1
62
256
6
ByLayer
370
18
48
1
60
0
100
AcDbSpline
70
4
71
3
72
8
73
4
40
0
40
0
40
0
40
0
40
1
40
1
40
1
40
1
41
1
10
128.870148798328
20
5.84811516978729
30
0
41
1
10
128.874645992082
20
5.85348149584365
30
0
41
1
10
128.879141307466
20
5.85884446327933
30
0
41
1
10
128.883634861093
20
5.8642042915493
30
0
0
SPLINE
5
2B0
100
AcDbEntity
8
1
62
256
6
ByLayer
370
18
48
1
60
0
100
AcDbSpline
70
4
71
3
72
8
73
4
40
0
40
0
40
0
40
0
40
1
40
1
40
1
40
1
41
1
10
128.149915119219
20
5.6038288741116
30
0
41
1
10
128.147710720967
20
5.61015275187032
30
0
41
1
10
128.145508702761
20
5.61647266254789
30
0
41
1
10
128.143308902548
20
5.62278886541648
30
0
0
SPLINE
5
2B1
100
AcDbEntity
8
1
62
256
6
ByLayer
370
18
48
1
60
0
100
AcDbSpline
70
4
71
3
72
16
73
12
40
0
40
0
40
0
40
0
40
0.125000000000096
40
0.125000000000096
40
0.250000000000192
40
0.250000000000192
40
0.500000000000128
40
0.500000000000128
40
0.750000000000064
40
0.750000000000064
40
1
40
1
40
1
40
1
41
1
10
128.560249079879
20
4.33484383977518
30
0
41
1
10
128.559697034941
20
4.32480680321683
30
0
41
1
10
128.556442245595
20
4.31521588732977
30
0
41
1
10
128.54446580643
20
4.29931460031878
30
0
41
1
10
128.535885646979
20
4.29315221453427
30
0
41
1
10
128.507274861748
20
4.28037234165177
30
0
41
1
10
128.48420571357
20
4.27856234665973
30
0
41
1
10
128.439222573673
20
4.28147631125861
30
0
41
1
10
128.416717311407
20
4.286228785096
30
0
41
1
10
128.372903610852
20
4.29975441514318
30
0
41
1
10
128.351544572326
20
4.30858733096574
30
0
41
1
10
128.331012914551
20
4.31909680992987
30
0
0
SPLINE
5
2B2
100
AcDbEntity
8
1
62
256
6
ByLayer
370
18
48
1
60
0
100
AcDbSpline
70
4
71
3
72
16
73
12
40
0
40
0
40
0
40
0
40
0.124999999999991
40
0.124999999999991
40
0.249999999999982
40
0.249999999999982
40
0.499999999999988
40
0.499999999999988
40
0.749999999999994
40
0.749999999999994
40
1
40
1
40
1
40
1
41
1
10
129.300575038425
20
4.57625926590802
30
0
41
1
10
129.309247291031
20
4.57030419040322
30
0
41
1
10
129.316187911715
20
4.56221644932168
30
0
41
1
10
129.324450619204
20
4.54301794553985
30
0
41
1
10
129.325711208227
20
4.53211136230667
30
0
41
1
10
129.323006583481
20
4.49995319537788
30
0
41
1
10
129.313275831394
20
4.47862186280543
30
0
41
1
10
129.288619792327
20
4.4404454334107
30
0
41
1
10
129.27337632169
20
4.42309756228474
30
0
41
1
10
129.239951216229
20
4.39156116090362
30
0
41
1
10
129.22169130677
20
4.37736078407454
30
0
41
1
10
129.202370663251
20
4.36476273450029
30
0
0
SPLINE
5
2B3
100
AcDbEntity
8
1
62
256
6
ByLayer
370
18
48
1
60
0
100
AcDbSpline
70
4
71
3
72
8
73
4
40
0
40
0
40
0
40
0
40
1
40
1
40
1
40
1
41
1
10
128.962679939424
20
4.35593434743888
30
0
41
1
10
128.957650747341
20
4.36079510975347
30
0
41
1
10
128.95261947502
20
4.36565880988343
30
0
41
1
10
128.947585983547
20
4.370525653892
30
0
0
SPLINE
5
2B4
100
AcDbEntity
8
1
62
256
6
ByLayer
370
18
48
1
60
0
100
AcDbSpline
70
4
71
3
72
8
73
4
40
0
40
0
40
0
40
0
40
1
40
1
40
1
40
1
41
1
10
128.571791060701
20
4.35083107651977
30
0
41
1
10
128.56794038445
20
4.34549863301004
30
0
41
1
10
128.564093134347
20
4.34016962923653
30
0
41
1
10
128.560249079879
20
4.33484383977518
30
0
0
SPLINE
5
2B5
100
AcDbEntity
8
1
62
256
6
ByLayer
370
18
48
1
60
0
100
AcDbSpline
70
4
71
3
72
16
73
12
40
0
40
0
40
0
40
0
40
0.25000000000007
40
0.25000000000007
40
0.500000000000139
40
0.500000000000139
40
0.750000000000209
40
0.750000000000209
40
0.875000000000105
40
0.875000000000105
40
1
40
1
40
1
40
1
41
1
10
129.202370663251
20
4.36476273450029
30
0
41
1
10
129.183041305264
20
4.35215900264632
30
0
41
1
10
129.162617768854
20
4.34113536566571
30
0
41
1
10
129.11993677777
20
4.3230634099678
30
0
41
1
10
129.097722366056
20
4.31598066206405
30
0
41
1
10
129.052072296356
20
4.30832230245207
30
0
41
1
10
129.028079181601
20
4.30763839983126
30
0
41
1
10
128.996020712267
20
4.3173644770682
30
0
41
1
10
128.986028128025
20
4.32259462758157
30
0
41
1
10
128.970639010575
20
4.33699624846705
30
0
41
1
10
128.965346515363
20
4.34608304110637
30
0
41
1
10
128.962679939424
20
4.35593434743888
30
0
0
SPLINE
5
2B6
100
AcDbEntity
8
1
62
256
6
ByLayer
370
18
48
1
60
0
100
AcDbSpline
70
4
71
3
72
18
73
14
40
0
40
0
40
0
40
0
40
0.125000000000002
40
0.125000000000002
40
0.250000000000004
40
0.250000000000004
40
0.500000000000003
40
0.500000000000003
40
0.750000000000002
40
0.750000000000002
40
0.875000000000001
40
0.875000000000001
40
1
40
1
40
1
40
1
41
1
10
128.205762948808
20
4.53818880400905
30
0
41
1
10
128.209323110627
20
4.55334656456179
30
0
41
1
10
128.209277752551
20
4.56954545301363
30
0
41
1
10
128.205295548712
20
4.60248105259777
30
0
41
1
10
128.201279169782
20
4.61911100253226
30
0
41
1
10
128.18524876086
20
4.66833179792576
30
0
41
1
10
128.169331787344
20
4.70033069339897
30
0
41
1
10
128.130931003129
20
4.75969597951888
30
0
41
1
10
128.10854890504
20
4.78692996287765
30
0
41
1
10
128.070883435518
20
4.82071190132805
30
0
41
1
10
128.057647889549
20
4.83075535488592
30
0
41
1
10
128.029926681099
20
4.8468421394069
30
0
41
1
10
128.015566221607
20
4.85292107838808
30
0
41
1
10
128.000736250406
20
4.85518682747784
30
0
0
SPLINE
5
2B7
100
AcDbEntity
8
1
62
256
6
ByLayer
370
18
48
1
60
0
100
AcDbSpline
70
4
71
3
72
16
73
12
40
0
40
0
40
0
40
0
40
0.125000000000001
40
0.125000000000001
40
0.250000000000003
40
0.250000000000003
40
0.500000000000002
40
0.500000000000002
40
0.750000000000001
40
0.750000000000001
40
1
40
1
40
1
40
1
41
1
10
128.883634861093
20
5.8642042915493
30
0
41
1
10
128.885259855622
20
5.87429755901294
30
0
41
1
10
128.88960006256
20
5.88394535922563
30
0
41
1
10
128.90353373555
20
5.89994922051486
30
0
41
1
10
128.912968944027
20
5.90615641752009
30
0
41
1
10
128.943665704484
20
5.91904561173178
30
0
41
1
10
128.967592791645
20
5.92090056940069
30
0
41
1
10
129.013789029387
20
5.91805018056593
30
0
41
1
10
129.036656090626
20
5.91331666780928
30
0
41
1
10
129.080940800415
20
5.89981572231005
30
0
41
1
10
129.102403694015
20
5.89098824930127
30
0
41
1
10
129.122935351789
20
5.88047877033716
30
0
0
SPLINE
5
2B8
100
AcDbEntity
8
1
62
256
6
ByLayer
370
18
48
1
60
0
100
AcDbSpline
70
4
71
3
72
8
73
4
40
0
40
0
40
0
40
0
40
1
40
1
40
1
40
1
41
1
10
127.9604368115
20
5.26223185806708
30
0
41
1
10
127.966668780501
20
5.26386562013235
30
0
41
1
10
127.972905364951
20
5.26550040129609
30
0
41
1
10
127.979146894775
20
5.26713627327058
30
0
0
SPLINE
5
2B9
100
AcDbEntity
8
1
62
256
6
ByLayer
370
18
48
1
60
0
100
AcDbSpline
70
4
71
3
72
16
73
12
40
0
40
0
40
0
40
0
40
0.249999999999982
40
0.249999999999982
40
0.499999999999965
40
0.499999999999965
40
0.749999999999947
40
0.749999999999947
40
0.874999999999973
40
0.874999999999973
40
1
40
1
40
1
40
1
41
1
10
128.331012914551
20
4.31909680992987
30
0
41
1
10
128.310471996088
20
4.32961102913566
30
0
41
1
10
128.290722558373
20
4.34181980524843
30
0
41
1
10
128.253674074535
20
4.36970012583407
30
0
41
1
10
128.236368354466
20
4.38531994698693
30
0
41
1
10
128.206645727442
20
4.42065299255819
30
0
41
1
10
128.193855739072
20
4.44079546234377
30
0
41
1
10
128.1857233433
20
4.47259440177942
30
0
41
1
10
128.185038469064
20
4.48351397935554
30
0
41
1
10
128.189314778406
20
4.50322142058548
30
0
41
1
10
128.194257264365
20
4.51188095829761
30
0
41
1
10
128.201174780438
20
4.51864213984371
30
0
0
SPLINE
5
2BA
100
AcDbEntity
8
1
62
256
6
ByLayer
370
18
48
1
60
0
100
AcDbSpline
70
4
71
3
72
16
73
12
40
0
40
0
40
0
40
0
40
0.125
40
0.125
40
0.25
40
0.25
40
0.5
40
0.5
40
0.75
40
0.75
40
1
40
1
40
1
40
1
41
1
10
129.483447129472
20
4.93681627325742
30
0
41
1
10
129.493571082151
20
4.93375291497401
30
0
41
1
10
129.504423251106
20
4.93335959039399
30
0
41
1
10
129.525070317653
20
4.93875257736514
30
0
41
1
10
129.534787357634
20
4.94447962310153
30
0
41
1
10
129.559648862547
20
4.96652568525352
30
0
41
1
10
129.571318582296
20
4.98738990579031
30
0
41
1
10
129.587849648684
20
5.03039155008247
30
0
41
1
10
129.592948475093
20
5.05314224669442
30
0
41
1
10
129.598812851634
20
5.09905435757688
30
0
41
1
10
129.599544123076
20
5.12232277456229
30
0
41
1
10
129.59833188187
20
5.14545371470393
30
0
0
SPLINE
5
2BB
100
AcDbEntity
8
1
62
256
6
ByLayer
370
18
48
1
60
0
100
AcDbSpline
70
4
71
3
72
16
73
12
40
0
40
0
40
0
40
0
40
0.25000000000005
40
0.25000000000005
40
0.5000000000001
40
0.5000000000001
40
0.750000000000149
40
0.750000000000149
40
0.875000000000075
40
0.875000000000075
40
1
40
1
40
1
40
1
41
1
10
127.85561638447
20
5.05412186556308
30
0
41
1
10
127.854404823994
20
5.07723981662284
30
0
41
1
10
127.855027010762
20
5.10046950912741
30
0
41
1
10
127.860423598557
20
5.14640942139641
30
0
41
1
10
127.865151534422
20
5.16910251744403
30
0
41
1
10
127.880472152544
20
5.21206212029989
30
0
41
1
10
127.891247553329
20
5.23286607655754
30
0
41
1
10
127.914121856902
20
5.25488381782677
30
0
41
1
10
127.923000686457
20
5.26055076821754
30
0
41
1
10
127.941692774571
20
5.26580557804337
30
0
41
1
10
127.951388280364
20
5.26535005040964
30
0
41
1
10
127.9604368115
20
5.26223185806708
30
0
0
SPLINE
5
2BC
100
AcDbEntity
8
1
62
256
6
ByLayer
370
18
48
1
60
0
100
AcDbSpline
70
4
71
3
72
18
73
14
40
0
40
0
40
0
40
0
40
0.125000000000049
40
0.125000000000049
40
0.250000000000098
40
0.250000000000098
40
0.500000000000007
40
0.500000000000007
40
0.749999999999917
40
0.749999999999917
40
0.874999999999958
40
0.874999999999958
40
1
40
1
40
1
40
1
41
1
10
128.947585983547
20
4.370525653892
30
0
41
1
10
128.935883457559
20
4.38184073584011
30
0
41
1
10
128.921535899728
20
4.39045727378667
30
0
41
1
10
128.890525645368
20
4.40443134122157
30
0
41
1
10
128.873919287476
20
4.40966007750936
30
0
41
1
10
128.822840955812
20
4.42131252224374
30
0
41
1
10
128.787082246537
20
4.42380935992875
30
0
41
1
10
128.716703699046
20
4.420116650773
30
0
41
1
10
128.682248196072
20
4.41395033453202
30
0
41
1
10
128.634923029025
20
4.39713017327716
30
0
41
1
10
128.619908482286
20
4.39024408722807
30
0
41
1
10
128.592805085108
20
4.37322721043077
30
0
41
1
10
128.5807440921
20
4.36322929726634
30
0
41
1
10
128.571791060701
20
4.35083107651977
30
0
0
SPLINE
5
2BD
100
AcDbEntity
8
1
62
256
6
ByLayer
370
18
48
1
60
0
100
AcDbSpline
70
4
71
3
72
8
73
4
40
0
40
0
40
0
40
0
40
1
40
1
40
1
40
1
41
1
10
129.462267929032
20
5.34093949179507
30
0
41
1
10
129.455249825611
20
5.34187884698935
30
0
41
1
10
129.448228459381
20
5.34281880840015
30
0
41
1
10
129.441203608623
20
5.34375941882919
30
0
0
SPLINE
5
2BE
100
AcDbEntity
8
1
62
256
6
ByLayer
370
18
48
1
60
0
100
AcDbSpline
70
4
71
3
72
18
73
14
40
0
40
0
40
0
40
0
40
0.124999999999998
40
0.124999999999998
40
0.249999999999997
40
0.249999999999997
40
0.499999999999998
40
0.499999999999998
40
0.749999999999999
40
0.749999999999999
40
0.874999999999999
40
0.874999999999999
40
1
40
1
40
1
40
1
41
1
10
127.979146894775
20
5.26713627327058
30
0
41
1
10
127.993658027927
20
5.27093956456474
30
0
41
1
10
128.007307905307
20
5.27848772830293
30
0
41
1
10
128.033201558049
20
5.29738980918378
30
0
41
1
10
128.045316810794
20
5.30876614348367
30
0
41
1
10
128.079220768673
20
5.34627454148469
30
0
41
1
10
128.098673257863
20
5.37575619972469
30
0
41
1
10
128.130651391921
20
5.43881421443214
30
0
41
1
10
128.143113200516
20
5.4722348694078
30
0
41
1
10
128.153917703365
20
5.52289696581784
30
0
41
1
10
128.156171421297
20
5.53985138429701
30
0
41
1
10
128.15668778516
20
5.57301448521551
30
0
41
1
10
128.155040464868
20
5.58912551489479
30
0
41
1
10
128.149915119219
20
5.6038288741116
30
0
0
SPLINE
5
2BF
100
AcDbEntity
8
1
62
256
6
ByLayer
370
18
48
1
60
0
100
AcDbSpline
70
4
71
3
72
8
73
4
40
0
40
0
40
0
40
0
40
1
40
1
40
1
40
1
41
1
10
129.292024739809
20
4.59511737219543
30
0
41
1
10
129.294875655565
20
4.58882737698338
30
0
41
1
10
129.297725739051
20
4.58254142996796
30
0
41
1
10
129.300575038425
20
4.57625926590802
30
0
0
SPLINE
5
2C0
100
AcDbEntity
8
1
62
256
6
ByLayer
370
18
48
1
60
0
100
AcDbSpline
70
4
71
3
72
8
73
4
40
0
40
0
40
0
40
0
40
1
40
1
40
1
40
1
41
1
10
129.462792964254
20
4.93180997303648
30
0
41
1
10
129.469681011581
20
4.93347972755757
30
0
41
1
10
129.476565661311
20
4.9351484723835
30
0
41
1
10
129.483447129472
20
4.93681627325742
30
0
0
SPLINE
5
2C1
100
AcDbEntity
8
1
62
256
6
ByLayer
370
18
48
1
60
0
100
AcDbSpline
70
4
71
3
72
8
73
4
40
0
40
0
40
0
40
0
40
1
40
1
40
1
40
1
41
1
10
128.000736250406
20
4.85518682747784
30
0
41
1
10
127.994357917151
20
4.85616132045351
30
0
41
1
10
127.987984616202
20
4.85713524552651
30
0
41
1
10
127.981616011941
20
4.85810863952943
30
0
0
SPLINE
5
2C2
100
AcDbEntity
8
1
62
256
6
ByLayer
370
18
48
1
60
0
100
AcDbSpline
70
4
71
3
72
16
73
12
40
0
40
0
40
0
40
0
40
0.125000000000016
40
0.125000000000016
40
0.250000000000031
40
0.250000000000031
40
0.500000000000021
40
0.500000000000021
40
0.75000000000001
40
0.75000000000001
40
1
40
1
40
1
40
1
41
1
10
128.143308902548
20
5.62278886541648
30
0
41
1
10
128.135709599532
20
5.62880017182655
30
0
41
1
10
128.129854396441
20
5.63694479723375
30
0
41
1
10
128.123548922776
20
5.65624587529382
30
0
41
1
10
128.123143382779
20
5.66719726974767
30
0
41
1
10
128.127933982751
20
5.69946475800566
30
0
41
1
10
128.138522673821
20
5.72084105325496
30
0
41
1
10
128.164391810733
20
5.75908105841381
30
0
41
1
10
128.179997080343
20
5.77644789062057
30
0
41
1
10
128.213893195038
20
5.80800897654964
30
0
41
1
10
128.23225695957
20
5.82221479619247
30
0
41
1
10
128.251577603089
20
5.83481284576672
30
0
0
SPLINE
5
2C3
100
AcDbEntity
8
1
62
256
6
ByLayer
370
18
48
1
60
0
100
AcDbSpline
70
4
71
3
72
8
73
4
40
0
40
0
40
0
40
0
40
1
40
1
40
1
40
1
41
1
10
128.481204001549
20
5.8431137838856
30
0
41
1
10
128.485583694472
20
5.83821898276238
30
0
41
1
10
128.489966901512
20
5.83332131897026
30
0
41
1
10
128.494353875481
20
5.82842059241506
30
0
0
SPLINE
5
2C4
100
AcDbEntity
8
1
62
256
6
ByLayer
370
18
48
1
60
0
100
AcDbSpline
70
4
71
3
72
18
73
14
40
0
40
0
40
0
40
0
40
0.125000000000023
40
0.125000000000023
40
0.250000000000046
40
0.250000000000046
40
0.500000000000092
40
0.500000000000092
40
0.750000000000138
40
0.750000000000138
40
0.875000000000069
40
0.875000000000069
40
1
40
1
40
1
40
1
41
1
10
128.494353875481
20
5.82842059241506
30
0
41
1
10
128.50455329216
20
5.81702673584601
30
0
41
1
10
128.51759620524
20
5.80834182436524
30
0
41
1
10
128.546337664042
20
5.79424885439354
30
0
41
1
10
128.5619945695
20
5.78897035941216
30
0
41
1
10
128.610784971437
20
5.7771980093616
30
0
41
1
10
128.645765187576
20
5.7746603725802
30
0
41
1
10
128.716144476628
20
5.77835312059952
30
0
41
1
10
128.751376787022
20
5.78456014759229
30
0
41
1
10
128.800991564719
20
5.80150030225673
30
0
41
1
10
128.816955545781
20
5.80843614605027
30
0
41
1
10
128.846327293232
20
5.82557190204801
30
0
41
1
10
128.859692578622
20
5.83563817027974
30
0
41
1
10
128.870148798328
20
5.84811516978729
30
0
0
SPLINE
5
2C5
100
AcDbEntity
8
1
62
256
6
ByLayer
370
18
48
1
60
0
100
AcDbSpline
70
4
71
3
72
8
73
4
40
0
40
0
40
0
40
0
40
1
40
1
40
1
40
1
41
1
10
128.201174780438
20
4.51864213984371
30
0
41
1
10
128.202702306936
20
4.52515368362791
30
0
41
1
10
128.204231651704
20
4.53166914675268
30
0
41
1
10
128.205762948808
20
4.53818880400905
30
0
0
SPLINE
5
2C6
100
AcDbEntity
8
1
62
256
6
ByLayer
370
18
48
1
60
0
100
AcDbSpline
70
4
71
3
72
18
73
14
40
0
40
0
40
0
40
0
40
0.125000000000008
40
0.125000000000008
40
0.250000000000015
40
0.250000000000015
40
0.500000000000027
40
0.500000000000027
40
0.750000000000039
40
0.750000000000039
40
0.87500000000002
40
0.87500000000002
40
1
40
1
40
1
40
1
41
1
10
129.441203608623
20
5.34375941882919
30
0
41
1
10
129.424842995981
20
5.34595006506592
30
0
41
1
10
129.409147537088
20
5.35197856722456
30
0
41
1
10
129.379105205466
20
5.36799337062615
30
0
41
1
10
129.364897690697
20
5.37801690721253
30
0
41
1
10
129.324918591965
20
5.41174165172913
30
0
41
1
10
129.301686692206
20
5.43905995151485
30
0
41
1
10
129.263292204699
20
5.49855543545547
30
0
41
1
10
129.248384212317
20
5.53016152947396
30
0
41
1
10
129.234638362842
20
5.57950219393189
30
0
41
1
10
129.231600970527
20
5.59595713926353
30
0
41
1
10
129.229844862477
20
5.62904346630185
30
0
41
1
10
129.231087844113
20
5.6454432841611
30
0
41
1
10
129.23617691022
20
5.66075744229801
30
0
0
SPLINE
5
2C7
100
AcDbEntity
8
1
62
256
6
ByLayer
370
18
48
1
60
0
100
AcDbSpline
70
4
71
3
72
16
73
12
40
0
40
0
40
0
40
0
40
0.125
40
0.125
40
0.25
40
0.25
40
0.5
40
0.5
40
0.75
40
0.75
40
1
40
1
40
1
40
1
41
1
10
127.981616011941
20
4.85810863952941
30
0
41
1
10
127.972928189191
20
4.8540547939285
30
0
41
1
10
127.963275487958
20
4.85258006128581
30
0
41
1
10
127.944014958216
20
4.8559285651958
30
0
41
1
10
127.934601734255
20
4.86069516825478
30
0
41
1
10
127.909738561383
20
4.88012812296566
30
0
41
1
10
127.896829134783
20
4.89967194188449
30
0
41
1
10
127.877108582876
20
4.94079412376013
30
0
41
1
10
127.870027690734
20
4.9629039492639
30
0
41
1
10
127.859874600256
20
5.00797832296618
30
0
41
1
10
127.856827398726
20
5.03101433702469
30
0
41
1
10
127.85561638447
20
5.05412186556308
30
0
0
SPLINE
5
2C8
100
AcDbEntity
8
1
62
256
6
ByLayer
370
18
48
1
60
0
100
AcDbSpline
70
4
71
3
72
16
73
12
40
0
40
0
40
0
40
0
40
0.25
40
0.25
40
0.5
40
0.5
40
0.75
40
0.75
40
0.875
40
0.875
40
1
40
1
40
1
40
1
41
1
10
129.59833188187
20
5.14545371470393
30
0
41
1
10
129.597119538844
20
5.16858659771211
30
0
41
1
10
129.593958973816
20
5.19165565228496
30
0
41
1
10
129.583327643853
20
5.23670018236049
30
0
41
1
10
129.575861656698
20
5.25882597385268
30
0
41
1
10
129.554960347256
20
5.29979616509195
30
0
41
1
10
129.541369133281
20
5.31916853715103
30
0
41
1
10
129.514175104566
20
5.33866994273697
30
0
41
1
10
129.503875899603
20
5.34336461215321
30
0
41
1
10
129.482740627901
20
5.34657238088715
30
0
41
1
10
129.472036610828
20
5.34505289882392
30
0
41
1
10
129.462267929032
20
5.34093949179507
30
0
0
SPLINE
5
2C9
100
AcDbEntity
8
1
62
256
6
ByLayer
370
18
48
1
60
0
100
AcDbSpline
70
4
71
3
72
16
73
12
40
0
40
0
40
0
40
0
40
0.249999999999998
40
0.249999999999998
40
0.499999999999996
40
0.499999999999996
40
0.749999999999994
40
0.749999999999994
40
0.874999999999997
40
0.874999999999997
40
1
40
1
40
1
40
1
41
1
10
129.122935351789
20
5.88047877033716
30
0
41
1
10
129.143476270253
20
5.86996455113137
30
0
41
1
10
129.163121884114
20
5.85775033384093
30
0
41
1
10
129.199698529048
20
5.82984528522618
30
0
41
1
10
129.216642737559
20
5.81420651805539
30
0
41
1
10
129.245151715471
20
5.77880986782938
30
0
41
1
10
129.257086252645
20
5.75862256574629
30
0
41
1
10
129.263115108437
20
5.72671338445167
30
0
41
1
10
129.262942221773
20
5.71574885353161
30
0
41
1
10
129.256719235074
20
5.6959393912644
30
0
41
1
10
129.250697798358
20
5.68722330813918
30
0
41
1
10
129.242709160535
20
5.68040599148077
30
0
0
SPLINE
5
2CA
100
AcDbEntity
8
1
62
256
6
ByLayer
370
18
48
1
60
0
100
AcDbSpline
70
4
71
3
72
18
73
14
40
0
40
0
40
0
40
0
40
0.124999999999988
40
0.124999999999988
40
0.249999999999976
40
0.249999999999976
40
0.499999999999984
40
0.499999999999984
40
0.749999999999992
40
0.749999999999992
40
0.874999999999996
40
0.874999999999996
40
1
40
1
40
1
40
1
41
1
10
129.292024739809
20
4.59511737219543
30
0
41
1
10
129.285363178268
20
4.60981482164286
30
0
41
1
10
129.282424999179
20
4.62588480144237
30
0
41
1
10
129.280695619267
20
4.65904399332376
30
0
41
1
10
129.281998477567
20
4.67574296896967
30
0
41
1
10
129.290508660207
20
4.72625700290064
30
0
41
1
10
129.302024309262
20
4.75923154467247
30
0
41
1
10
129.333974537024
20
4.82240278311767
30
0
41
1
10
129.354265606287
20
4.85206663146715
30
0
41
1
10
129.390518075693
20
4.88979424802497
30
0
41
1
10
129.403594868198
20
4.90123848171351
30
0
41
1
10
129.431784490084
20
4.92029125617543
30
0
41
1
10
129.446755333192
20
4.92792223741287
30
0
41
1
10
129.462792964254
20
4.93180997303648
30
0
0
SPLINE
5
2CB
100
AcDbEntity
8
SK1
62
256
6
ByLayer
370
13
48
1
60
0
100
AcDbSpline
70
4
71
3
72
8
73
4
40
0
40
0
40
0
40
0
40
1
40
1
40
1
40
1
41
1
10
-47.6338131992802
20
5.29933610071177
30
0
41
1
10
-47.2923786118706
20
5.51342740002906
30
0
41
1
10
-46.9475435606214
20
5.72068082700042
30
0
41
1
10
-46.6001472688719
20
5.92278394612708
30
0
0
SPLINE
5
2CC
100
AcDbEntity
8
SK1
62
256
6
ByLayer
370
13
48
1
60
0
100
AcDbSpline
70
4
71
3
72
22
73
18
40
0
40
0
40
0
40
0
40
0.125
40
0.125
40
0.25
40
0.25
40
0.375
40
0.375
40
0.5
40
0.5
40
0.625
40
0.625
40
0.75
40
0.75
40
0.875
40
0.875
40
1
40
1
40
1
40
1
41
1
10
-48.5162221138915
20
5.74653012019181
30
0
41
1
10
-48.4962717165676
20
5.70411509307601
30
0
41
1
10
-48.4744481286493
20
5.66251618587401
30
0
41
1
10
-48.4263162492782
20
5.58127228682318
30
0
41
1
10
-48.3999960015616
20
5.54166342595173
30
0
41
1
10
-48.3429956160127
20
5.46663893658175
30
0
41
1
10
-48.3122187583147
20
5.43100493137908
30
0
41
1
10
-48.2446974521964
20
5.36466015952055
30
0
41
1
10
-48.2080706079039
20
5.33415989359401
30
0
41
1
10
-48.1296033350615
20
5.2821107739268
30
0
41
1
10
-48.0869687859332
20
5.26011057414678
30
0
41
1
10
-47.9971089626655
20
5.22921407137198
30
0
41
1
10
-47.949775574322
20
5.22044155307054
30
0
41
1
10
-47.855657031502
20
5.21866533237153
30
0
41
1
10
-47.8075889282127
20
5.22577739428078
30
0
41
1
10
-47.7173764675165
20
5.2534559800321
30
0
41
1
10
-47.6738973715372
20
5.27420193786764
30
0
41
1
10
-47.6338131992802
20
5.29933610071174
30
0
0
SPLINE
5
2CD
100
AcDbEntity
8
SK1
62
256
6
ByLayer
370
13
48
1
60
0
100
AcDbSpline
70
4
71
3
72
8
73
4
40
0
40
0
40
0
40
0
40
1
40
1
40
1
40
1
41
1
10
-49
20
-5.92278394612697
30
0
41
1
10
-49.3676500378717
20
-5.30224712602285
30
0
41
1
10
-49.707047214772
20
-4.66786404827869
30
0
41
1
10
-50
20
-4.01071934601507
30
0
0
SPLINE
5
2CE
100
AcDbEntity
8
1
62
256
6
ByLayer
370
13
48
1
60
0
100
AcDbSpline
70
4
71
2
72
12
73
9
40
0
40
0
40
0
40
0.288783379864367
40
0.288783379864367
40
0.577566759728734
40
0.577566759728734
40
0.866350139593101
40
0.866350139593101
40
1
40
1
40
1
41
1
10
17.9999999999991
20
-4.66573228417221
30
0
41
1
10
16.1247453301146
20
-4.7511849044908
30
0
41
1
10
14.4322835245462
20
-5.38646245687528
30
0
41
1
10
12.6403557963348
20
-6.05907524936652
30
0
41
1
10
11.2978769635807
20
-7.2411008897144
30
0
41
1
10
9.96824908931097
20
-8.41181151930695
30
0
41
1
10
9.26503917934949
20
-9.91738942912852
30
0
41
1
10
8.96326642436546
20
-10.5634872546198
30
0
41
1
10
8.79885307415066
20
-11.2300128210747
30
0
0
SPLINE
5
2CF
100
AcDbEntity
8
1
62
256
6
ByLayer
370
13
48
1
60
0
100
AcDbSpline
70
4
71
3
72
10
73
6
40
0
40
0
40
0
40
0
40
0.31750123081611
40
0.31750123081611
40
1
40
1
40
1
40
1
41
1
10
18.45
20
-7.27132440719674
30
0
41
1
10
18.45
20
-6.99502042565976
30
0
41
1
10
18.45
20
-6.71871644426437
30
0
41
1
10
18.45
20
-5.84847105799108
30
0
41
1
10
18.45
20
-5.25452965362587
30
0
41
1
10
18.45
20
-4.66058824991507
30
0
0
SPLINE
5
2D0
100
AcDbEntity
8
1
62
256
6
ByLayer
370
13
48
1
60
0
100
AcDbSpline
70
4
71
3
72
38
73
34
40
0
40
0
40
0
40
0
40
0.108515776923774
40
0.108515776923774
40
0.162773665385661
40
0.162773665385661
40
0.217031553847547
40
0.217031553847547
40
0.271289442309434
40
0.271289442309434
40
0.325547330771321
40
0.325547330771321
40
0.434063107695095
40
0.434063107695095
40
0.488320996156982
40
0.488320996156982
40
0.542578884618869
40
0.542578884618869
40
0.596836773080756
40
0.596836773080756
40
0.651094661542643
40
0.651094661542643
40
0.759610438466415
40
0.759610438466415
40
0.813868326928301
40
0.813868326928301
40
0.868126215390186
40
0.868126215390186
40
0.922384103852072
40
0.922384103852072
40
0.976641992313958
40
0.976641992313958
40
1
40
1
40
1
40
1
41
1
10
117.752406938727
20
1.74134930364667
30
0
41
1
10
116.692481377419
20
2.20577442623406
30
0
41
1
10
115.631117965551
20
2.66006171134055
30
0
41
1
10
114.041103615172
20
3.31456806078177
30
0
41
1
10
113.511156037367
20
3.52835790164468
30
0
41
1
10
112.45065298955
20
3.94569998123671
30
0
41
1
10
111.920203080562
20
4.14920036671995
30
0
41
1
10
110.860385229955
20
4.54358396264308
30
0
41
1
10
110.330718385185
20
4.73458497689009
30
0
41
1
10
109.27113223853
20
5.10284606242911
30
0
41
1
10
108.740903549249
20
5.28020184405739
30
0
41
1
10
107.151478053078
20
5.78884907324829
30
0
41
1
10
106.094100152569
20
6.0970877262086
30
0
41
1
10
104.501887207019
20
6.50065228088042
30
0
41
1
10
103.970761769023
20
6.62540959228087
30
0
41
1
10
102.903205101344
20
6.85071801875375
30
0
41
1
10
102.36672176117
20
6.95116540844617
30
0
41
1
10
101.286864908021
20
7.12495825373111
30
0
41
1
10
100.743050175483
20
7.19867589983286
30
0
41
1
10
99.6490461641564
20
7.32647865831404
30
0
41
1
10
99.0988865639907
20
7.38057731532962
30
0
41
1
10
97.4411329499185
20
7.52068081904707
30
0
41
1
10
96.3258759966934
20
7.58387581659557
30
0
41
1
10
94.6349948847083
20
7.64831835027977
30
0
41
1
10
94.0693983285841
20
7.66467891352164
30
0
41
1
10
92.9363640328112
20
7.68968783979656
30
0
41
1
10
92.3685364180042
20
7.69835202939964
30
0
41
1
10
91.2299726129337
20
7.71060093883438
30
0
41
1
10
90.6592483579321
20
7.71420138757097
30
0
41
1
10
89.5147429337013
20
7.71863741824075
30
0
41
1
10
88.9409350975885
20
7.71947760303888
30
0
41
1
10
88.1179259028605
20
7.71995733675683
30
0
41
1
10
87.8699682053429
20
7.72000837626163
30
0
41
1
10
87.6217419480264
20
7.72000529762087
30
0
0
SPLINE
5
2D1
100
AcDbEntity
8
1
62
256
6
ByLayer
370
13
48
1
60
0
100
AcDbSpline
70
4
71
3
72
22
73
18
40
0
40
0
40
0
40
0
40
0.25
40
0.25
40
0.5
40
0.5
40
0.625
40
0.625
40
0.65625
40
0.65625
40
0.6875
40
0.6875
40
0.750000000000001
40
0.750000000000001
40
0.875
40
0.875
40
1
40
1
40
1
40
1
41
1
10
8.79870479059329
20
-11.2306140732501
30
0
41
1
10
9.46228881555376
20
-11.0267997535668
30
0
41
1
10
10.1088030269603
20
-10.7926745733163
30
0
41
1
10
11.36798901056
20
-10.2643302080969
30
0
41
1
10
11.9806689694803
20
-9.97012556029594
30
0
41
1
10
12.8734133825159
20
-9.48216114956958
30
0
41
1
10
13.1664543023728
20
-9.31178844494505
30
0
41
1
10
13.5268249586001
20
-9.08888590713514
30
0
41
1
10
13.5983938278678
20
-9.04345495887893
30
0
41
1
10
13.7418743589012
20
-8.95317003966312
30
0
41
1
10
13.8143053036288
20
-8.90919010906677
30
0
41
1
10
14.0336550586391
20
-8.78071246019323
30
0
41
1
10
14.1826280991596
20
-8.69967235611711
30
0
41
1
10
14.6377452139319
20
-8.47035064213023
30
0
41
1
10
14.9520431236147
20
-8.33579330550776
30
0
41
1
10
15.6033395609513
20
-8.10488758159553
30
0
41
1
10
15.9403258142019
20
-8.00851853442506
30
0
41
1
10
16.2898996944949
20
-7.93333657583955
30
0
0
SPLINE
5
2D2
100
AcDbEntity
8
1
62
256
6
ByLayer
370
13
48
1
60
0
100
AcDbSpline
70
4
71
3
72
12
73
8
40
0
40
0
40
0
40
0
40
0.5
40
0.5
40
0.75
40
0.75
40
1
40
1
40
1
40
1
41
1
10
127.766999383691
20
2.82081728316922
30
0
41
1
10
127.862099126687
20
2.77769278903469
30
0
41
1
10
127.958221411303
20
2.74859605455649
30
0
41
1
10
128.104825069756
20
2.72185779538603
30
0
41
1
10
128.154271603411
20
2.71582686662091
30
0
41
1
10
128.253204274152
20
2.70955700788443
30
0
41
1
10
128.303111249479
20
2.70932847939363
30
0
41
1
10
128.351943403604
20
2.71188766414895
30
0
0
SPLINE
5
2D3
100
AcDbEntity
8
1
62
256
6
ByLayer
370
13
48
1
60
0
100
AcDbSpline
70
4
71
3
72
10
73
6
40
0
40
0
40
0
40
0
40
0.5
40
0.5
40
1
40
1
40
1
40
1
41
1
10
64
20
-7.70479749851322
30
0
41
1
10
57.1666677975324
20
-7.71846452618666
30
0
41
1
10
50.3333346695145
20
-7.73205376862933
30
0
41
1
10
36.6666673534583
20
-7.75909073449509
30
0
41
1
10
29.8333331876954
20
-7.77255097591816
30
0
41
1
10
23
20
-7.78611819580595
30
0
0
SPLINE
5
2D4
100
AcDbEntity
8
1
62
256
6
ByLayer
370
13
48
1
60
0
100
AcDbSpline
70
4
71
3
72
14
73
10
40
0
40
0
40
0
40
0
40
0.25
40
0.25
40
0.5
40
0.5
40
0.75
40
0.75
40
1
40
1
40
1
40
1
41
1
10
130.60413497966
20
3.03019449236962
30
0
41
1
10
130.645962220832
20
3.03238656519295
30
0
41
1
10
130.687288632856
20
3.0293135008414
30
0
41
1
10
130.768984040027
20
3.01340721047924
30
0
41
1
10
130.807974916475
20
3.00070537000795
30
0
41
1
10
130.879809066649
20
2.96905289207746
30
0
41
1
10
130.911280152861
20
2.95076995158783
30
0
41
1
10
130.965409283825
20
2.91462771263204
30
0
41
1
10
130.986773640943
20
2.89775973836038
30
0
41
1
10
131.003773060244
20
2.88424324569027
30
0
0
SPLINE
5
2D5
100
AcDbEntity
8
1
62
256
6
ByLayer
370
13
48
1
60
0
100
AcDbSpline
70
4
71
3
72
10
73
6
40
0
40
0
40
0
40
0
40
0.5
40
0.5
40
1
40
1
40
1
40
1
41
1
10
122.253177966451
20
-7.71504974717789
30
0
41
1
10
121.920868159769
20
-7.70125414758493
30
0
41
1
10
121.587770188075
20
-7.68806720328902
30
0
41
1
10
120.921036084415
20
-7.6620628654351
30
0
41
1
10
120.587379436858
20
-7.64926912279984
30
0
41
1
10
120.254070615451
20
-7.63584135472721
30
0
0
SPLINE
5
2D6
100
AcDbEntity
8
1
62
256
6
ByLayer
370
13
48
1
60
0
100
AcDbSpline
70
4
71
3
72
8
73
4
40
0
40
0
40
0
40
0
40
1
40
1
40
1
40
1
41
1
10
120.916104327431
20
7.20215796154818
30
0
41
1
10
121.02093832712
20
7.03254460698429
30
0
41
1
10
121.130324040118
20
6.86577237831685
30
0
41
1
10
121.244570495051
20
6.70203416757945
30
0
0
SPLINE
5
2D7
100
AcDbEntity
8
1
62
256
6
ByLayer
370
13
48
1
60
0
100
AcDbSpline
70
4
71
3
72
10
73
6
40
0
40
0
40
0
40
0
40
0.5
40
0.5
40
1
40
1
40
1
40
1
41
1
10
131.003773060244
20
2.88424324569027
30
0
41
1
10
131.016447828142
20
2.87416534806587
30
0
41
1
10
131.027440049976
20
2.86631823927721
30
0
41
1
10
131.04418875395
20
2.85592098873187
30
0
41
1
10
131.050025128234
20
2.85328813566093
30
0
41
1
10
131.052924735405
20
2.85344009763358
30
0
0
SPLINE
5
2D8
100
AcDbEntity
8
1
62
256
6
ByLayer
370
13
48
1
60
0
100
AcDbSpline
70
4
71
3
72
8
73
4
40
0
40
0
40
0
40
0
40
1
40
1
40
1
40
1
41
1
10
120.673074243736
20
3.02879173177652
30
0
41
1
10
120.673260918956
20
3.02937699115759
30
0
41
1
10
120.673463763771
20
3.02995968424952
30
0
41
1
10
120.673682338822
20
3.03053988523999
30
0
0
SPLINE
5
2D9
100
AcDbEntity
8
1
62
256
6
ByLayer
370
13
48
1
60
0
100
AcDbSpline
70
4
71
3
72
8
73
4
40
0
40
0
40
0
40
0
40
1
40
1
40
1
40
1
41
1
10
118.530921838015
20
1.48958590657921
30
0
41
1
10
118.504676452227
20
1.50231337827768
30
0
41
1
10
118.478435566646
20
1.51505806067968
30
0
41
1
10
118.452199283591
20
1.52781983022257
30
0
0
SPLINE
5
2DA
100
AcDbEntity
8
1
62
256
6
ByLayer
370
13
48
1
60
0
100
AcDbSpline
70
4
71
3
72
10
73
6
40
0
40
0
40
0
40
0
40
0.5
40
0.5
40
1
40
1
40
1
40
1
41
1
10
122.821293360269
20
2.79078464390508
30
0
41
1
10
122.817919400052
20
2.86221649520783
30
0
41
1
10
122.817563789148
20
2.93865478472367
30
0
41
1
10
122.82436335715
20
3.09380193473308
30
0
41
1
10
122.831356167713
20
3.1725362057567
30
0
41
1
10
122.843715720778
20
3.2523809087254
30
0
0
SPLINE
5
2DB
100
AcDbEntity
8
1
62
256
6
ByLayer
370
13
48
1
60
0
100
AcDbSpline
70
4
71
3
72
8
73
4
40
0
40
0
40
0
40
0
40
1
40
1
40
1
40
1
41
1
10
119.71626430853
20
0.971688118409247
30
0
41
1
10
119.316721779004
20
1.13166308939859
30
0
41
1
10
118.920089293571
20
1.30086253186769
30
0
41
1
10
118.530921838015
20
1.48958590657918
30
0
0
SPLINE
5
2DC
100
AcDbEntity
8
1
62
256
6
ByLayer
370
13
48
1
60
0
100
AcDbSpline
70
4
71
3
72
10
73
6
40
0
40
0
40
0
40
0
40
0.0980808716689091
40
0.0980808716689091
40
1
40
1
40
1
40
1
41
1
10
113.800767796874
20
3.38988272943249
30
0
41
1
10
114.02970754851
20
3.40394582376618
30
0
41
1
10
114.258633996809
20
3.41710598038884
30
0
41
1
10
116.592575311368
20
3.54195193093452
30
0
41
1
10
118.698601166156
20
3.57667433371194
30
0
41
1
10
120.804788199941
20
3.52860898829275
30
0
0
SPLINE
5
2DD
100
AcDbEntity
8
1
62
256
6
ByLayer
370
13
48
1
60
0
100
AcDbSpline
70
4
71
3
72
42
73
38
40
0
40
0
40
0
40
0
40
0.0048283451826437
40
0.0048283451826437
40
0.0416865546203238
40
0.0416865546203238
40
0.078544764058004
40
0.078544764058004
40
0.115402973495684
40
0.115402973495684
40
0.152261182933364
40
0.152261182933364
40
0.189119392371044
40
0.189119392371044
40
0.225977601808725
40
0.225977601808725
40
0.262835811246405
40
0.262835811246405
40
0.299694020684085
40
0.299694020684085
40
0.336552230121765
40
0.336552230121765
40
0.410268648997125
40
0.410268648997125
40
0.447126858434805
40
0.447126858434805
40
0.483985067872484
40
0.483985067872484
40
0.520843277310164
40
0.520843277310164
40
0.557701486747844
40
0.557701486747844
40
0.705134324498562
40
0.705134324498562
40
0.852567162249281
40
0.852567162249281
40
1
40
1
40
1
40
1
41
1
10
110.443733186445
20
-6.28546974354626
30
0
41
1
10
110.37424877546
20
-6.30332582304897
30
0
41
1
10
110.304770169957
20
-6.32103186342189
30
0
41
1
10
109.704951928481
20
-6.47259086496334
30
0
41
1
10
109.174744899256
20
-6.59751145052368
30
0
41
1
10
108.111532650074
20
-6.8261209623185
30
0
41
1
10
107.578487732705
20
-6.92975918171041
30
0
41
1
10
106.506273048963
20
-7.11431669052942
30
0
41
1
10
105.967145905348
20
-7.19528371621942
30
0
41
1
10
104.879766913747
20
-7.33514296257988
30
0
41
1
10
104.332857752655
20
-7.39365498298639
30
0
41
1
10
103.232947900541
20
-7.49168495934967
30
0
41
1
10
102.679954692802
20
-7.53149660265589
30
0
41
1
10
101.568826535235
20
-7.59736916455728
30
0
41
1
10
101.010808222966
20
-7.62346528475783
30
0
41
1
10
99.8898187923988
20
-7.66492233154494
30
0
41
1
10
99.326762957804
20
-7.68022107030151
30
0
41
1
10
98.1947876593218
20
-7.70258487070734
30
0
41
1
10
97.6257275921878
20
-7.70964536486568
30
0
41
1
10
96.4858289898592
20
-7.71827853292896
30
0
41
1
10
95.9144572787752
20
-7.71987362929804
30
0
41
1
10
94.1958959559721
20
-7.72023114181548
30
0
41
1
10
93.044277264844
20
-7.71482409555651
30
0
41
1
10
91.3070684867813
20
-7.70891092489748
30
0
41
1
10
90.7259413739939
20
-7.70726778593797
30
0
41
1
10
89.5641850522316
20
-7.70519914903167
30
0
41
1
10
88.9832277474196
20
-7.70478113025885
30
0
41
1
10
87.8212578144156
20
-7.70445541944093
30
0
41
1
10
87.2402470453799
20
-7.70451727264833
30
0
41
1
10
86.0782215149488
20
-7.70467599555619
30
0
41
1
10
85.4972069137453
20
-7.70477092459501
30
0
41
1
10
82.592154377655
20
-7.70506704430267
30
0
41
1
10
80.2681488397345
20
-7.70475872287344
30
0
41
1
10
75.6201069836551
20
-7.7045589280178
30
0
41
1
10
73.2960851752183
20
-7.70462901505445
30
0
41
1
10
68.6480426317347
20
-7.70472540341112
30
0
41
1
10
66.3240213307081
20
-7.7047655042405
30
0
41
1
10
64
20
-7.70479749851313
30
0
0
SPLINE
5
2DE
100
AcDbEntity
8
1
62
256
6
ByLayer
370
13
48
1
60
0
100
AcDbSpline
70
4
71
3
72
24
73
20
40
0
40
0
40
0
40
0
40
0.22584842868939
40
0.22584842868939
40
0.338772643034088
40
0.338772643034088
40
0.451696857378788
40
0.451696857378788
40
0.677545286068186
40
0.677545286068186
40
0.734007393240537
40
0.734007393240537
40
0.790469500412889
40
0.790469500412889
40
0.903393714757592
40
0.903393714757592
40
0.959855821929944
40
0.959855821929944
40
1
40
1
40
1
40
1
41
1
10
120.604686221675
20
2.82501437229456
30
0
41
1
10
120.278030503794
20
2.90676997247769
30
0
41
1
10
119.943626684382
20
2.96043250182606
30
0
41
1
10
119.431019475708
20
3.00782310926309
30
0
41
1
10
119.258263084622
20
3.0179456984757
30
0
41
1
10
118.908524090145
20
3.0269674534683
30
0
41
1
10
118.73079273359
20
3.02579798273979
30
0
41
1
10
118.200100815685
20
3.00525857678511
30
0
41
1
10
117.847398030655
20
2.96943278583416
30
0
41
1
10
117.407430854424
20
2.89503577214722
30
0
41
1
10
117.319214731689
20
2.87858453474962
30
0
41
1
10
117.145168267272
20
2.84295759729343
30
0
41
1
10
117.059144727172
20
2.82375931751307
30
0
41
1
10
116.804261465591
20
2.76191771675298
30
0
41
1
10
116.638536291819
20
2.71510957240397
30
0
41
1
10
116.397674246138
20
2.6350919315766
30
0
41
1
10
116.318768631918
20
2.60676463548273
30
0
41
1
10
116.18908051784
20
2.5561558692653
30
0
41
1
10
116.136554878166
20
2.53443001484746
30
0
41
1
10
116.085509882033
20
2.51193560670825
30
0
0
SPLINE
5
2DF
100
AcDbEntity
8
1
62
256
6
ByLayer
370
13
48
1
60
0
100
AcDbSpline
70
4
71
3
72
14
73
10
40
0
40
0
40
0
40
0
40
0.25
40
0.25
40
0.5
40
0.5
40
0.75
40
0.75
40
1
40
1
40
1
40
1
41
1
10
119.71649366946
20
0.97159629755987
30
0
41
1
10
119.826265715035
20
0.927657672956713
30
0
41
1
10
119.93919019844
20
0.892143811461295
30
0
41
1
10
120.171299447464
20
0.838263830946829
30
0
41
1
10
120.291095722769
20
0.820056429332965
30
0
41
1
10
120.526773718741
20
0.802572443430563
30
0
41
1
10
120.643911335265
20
0.802909116666569
30
0
41
1
10
120.876827407437
20
0.821547111311673
30
0
41
1
10
120.990874769867
20
0.839780924300726
30
0
41
1
10
121.101264985115
20
0.866266097968321
30
0
0
SPLINE
5
2E0
100
AcDbEntity
8
1
62
256
6
ByLayer
370
13
48
1
60
0
100
AcDbSpline
70
4
71
3
72
14
73
10
40
0
40
0
40
0
40
0
40
0.25
40
0.25
40
0.5
40
0.5
40
0.75
40
0.75
40
1
40
1
40
1
40
1
41
1
10
121.998035240285
20
1.97313132963254
30
0
41
1
10
121.90261353657
20
2.06246969590077
30
0
41
1
10
121.799964672253
20
2.14541212338335
30
0
41
1
10
121.584185206706
20
2.30202078381549
30
0
41
1
10
121.471008402027
20
2.37564612734107
30
0
41
1
10
121.23630282664
20
2.51550543811135
30
0
41
1
10
121.114757160426
20
2.58172445306198
30
0
41
1
10
120.86463259899
20
2.70793817100025
30
0
41
1
10
120.735760063709
20
2.76804428319659
30
0
41
1
10
120.604686221678
20
2.82501437229317
30
0
0
SPLINE
5
2E1
100
AcDbEntity
8
1
62
256
6
ByLayer
370
13
48
1
60
0
100
AcDbSpline
70
4
71
3
72
12
73
8
40
0
40
0
40
0
40
0
40
0.25
40
0.25
40
0.5
40
0.5
40
1
40
1
40
1
40
1
41
1
10
120.80478819993
20
3.52860898829721
30
0
41
1
10
120.807872304405
20
3.5368676853947
30
0
41
1
10
120.81465044833
20
3.54345261479378
30
0
41
1
10
120.829413017458
20
3.55313554380532
30
0
41
1
10
120.837813399524
20
3.55664298701808
30
0
41
1
10
120.86371504934
20
3.56455467837287
30
0
41
1
10
120.8817719175
20
3.56650040669797
30
0
41
1
10
120.900286963755
20
3.56652982044687
30
0
0
SPLINE
5
2E2
100
AcDbEntity
8
1
62
256
6
ByLayer
370
13
48
1
60
0
100
AcDbSpline
70
4
71
3
72
8
73
4
40
0
40
0
40
0
40
0
40
1
40
1
40
1
40
1
41
1
10
124.51856103955
20
5.08155040476896
30
0
41
1
10
124.50231655302
20
5.03501453095623
30
0
41
1
10
124.480747131726
20
4.9937502781433
30
0
41
1
10
124.456283441959
20
4.95766185636873
30
0
0
SPLINE
5
2E3
100
AcDbEntity
8
1
62
256
6
ByLayer
370
13
48
1
60
0
100
AcDbSpline
70
4
71
3
72
8
73
4
40
0
40
0
40
0
40
0
40
1
40
1
40
1
40
1
41
1
10
0.0999999999999091
20
-3.49999999999997
30
0
41
1
10
0.0650753695799438
20
-3.37526917707149
30
0
41
1
10
0.0317144350461547
20
-3.24997900703946
30
0
41
1
10
-8.53E-14
20
-3.12409987036273
30
0
0
SPLINE
5
2E4
100
AcDbEntity
8
1
62
256
6
ByLayer
370
13
48
1
60
0
100
AcDbSpline
70
4
71
3
72
34
73
30
40
0
40
0
40
0
40
0
40
0.125
40
0.125
40
0.15625
40
0.15625
40
0.187499999999999
40
0.187499999999999
40
0.249999999999999
40
0.249999999999999
40
0.312499999999999
40
0.312499999999999
40
0.374999999999999
40
0.374999999999999
40
0.437499999999999
40
0.437499999999999
40
0.499999999999999
40
0.499999999999999
40
0.624999999999999
40
0.624999999999999
40
0.687499999999999
40
0.687499999999999
40
0.749999999999999
40
0.749999999999999
40
0.812499999999999
40
0.812499999999999
40
0.874999999999999
40
0.874999999999999
40
1
40
1
40
1
40
1
41
1
10
5.73568370595203
20
-10.3627014032404
30
0
41
1
10
5.67422656968125
20
-10.5002029733326
30
0
41
1
10
5.64154575447591
20
-10.6297882129843
30
0
41
1
10
5.63943973776654
20
-10.7814284002612
30
0
41
1
10
5.64099908327282
20
-10.811338822975
30
0
41
1
10
5.64795046651921
20
-10.8693221736966
30
0
41
1
10
5.6533313277867
20
-10.8974487001592
30
0
41
1
10
5.67497033428984
20
-10.9793189441192
30
0
41
1
10
5.69670143969486
20
-11.0305624741254
30
0
41
1
10
5.7542147014581
20
-11.1265937946745
30
0
41
1
10
5.79025457608739
20
-11.1716134683938
30
0
41
1
10
5.87533558813624
20
-11.2539815073324
30
0
41
1
10
5.92402849670808
20
-11.291125062211
30
0
41
1
10
6.03311804788064
20
-11.3578069598543
30
0
41
1
10
6.09351008278554
20
-11.3873461732145
30
0
41
1
10
6.22597886129972
20
-11.4389504809639
30
0
41
1
10
6.29819628749428
20
-11.4609679548063
30
0
41
1
10
6.52698698578246
20
-11.5145072190016
30
0
41
1
10
6.69735667210395
20
-11.5342568528626
30
0
41
1
10
6.97787521758255
20
-11.542038290854
30
0
41
1
10
7.07475007999344
20
-11.5409111805305
30
0
41
1
10
7.27280412969907
20
-11.5317699343186
30
0
41
1
10
7.37430215371549
20
-11.5237638267845
30
0
41
1
10
7.58208243968576
20
-11.5011919944523
30
0
41
1
10
7.68836513652411
20
-11.4866254081342
30
0
41
1
10
7.90575041241152
20
-11.450983060002
30
0
41
1
10
8.01581710979355
20
-11.4300656231216
30
0
41
1
10
8.34794314387361
20
-11.358845406869
30
0
41
1
10
8.57279938088092
20
-11.3000308566722
30
0
41
1
10
8.80127596024408
20
-11.2298241813077
30
0
0
SPLINE
5
2E5
100
AcDbEntity
8
1
62
256
6
ByLayer
370
13
48
1
60
0
100
AcDbSpline
70
4
71
3
72
12
73
8
40
0
40
0
40
0
40
0
40
0.499999999999999
40
0.499999999999999
40
0.75
40
0.75
40
1
40
1
40
1
40
1
41
1
10
122.843715720778
20
3.2523809087254
30
0
41
1
10
122.859072133485
20
3.35158580754515
30
0
41
1
10
122.867791492066
20
3.45195777551714
30
0
41
1
10
122.866804416708
20
3.60498913307512
30
0
41
1
10
122.86405893223
20
3.65641700164221
30
0
41
1
10
122.853073409955
20
3.75775550483422
30
0
41
1
10
122.844843184644
20
3.80795167923577
30
0
41
1
10
122.833442557471
20
3.85759995794839
30
0
0
SPLINE
5
2E6
100
AcDbEntity
8
1
62
256
6
ByLayer
370
13
48
1
60
0
100
AcDbSpline
70
4
71
3
72
10
73
6
40
0
40
0
40
0
40
0
40
0.5
40
0.5
40
1
40
1
40
1
40
1
41
1
10
120.900307409848
20
3.56652985286342
30
0
41
1
10
120.962737516275
20
3.56662855004811
30
0
41
1
10
121.024633946278
20
3.56452595290259
30
0
41
1
10
121.14734155512
20
3.55575649287283
30
0
41
1
10
121.208474140056
20
3.54903142851674
30
0
41
1
10
121.268008573665
20
3.54003820021018
30
0
0
SPLINE
5
2E7
100
AcDbEntity
8
1
62
256
6
ByLayer
370
13
48
1
60
0
100
AcDbSpline
70
4
71
3
72
14
73
10
40
0
40
0
40
0
40
0
40
0.25
40
0.25
40
0.5
40
0.5
40
0.75
40
0.75
40
1
40
1
40
1
40
1
41
1
10
126.204664881553
20
2.52258595216344
30
0
41
1
10
126.231889216852
20
2.51527379439943
30
0
41
1
10
126.255669749394
20
2.50690512803536
30
0
41
1
10
126.296470435815
20
2.48809380945403
30
0
41
1
10
126.313355618968
20
2.47760797105931
30
0
41
1
10
126.338371114242
20
2.45580404626767
30
0
41
1
10
126.346898323462
20
2.44420724323689
30
0
41
1
10
126.35552277917
20
2.42049917794228
30
0
41
1
10
126.35564318853
20
2.4086154419783
30
0
41
1
10
126.351939642528
20
2.3967046093837
30
0
0
SPLINE
5
2E8
100
AcDbEntity
8
1
62
256
6
ByLayer
370
13
48
1
60
0
100
AcDbSpline
70
4
71
3
72
18
73
14
40
0
40
0
40
0
40
0
40
0.250000000000006
40
0.250000000000006
40
0.375000000000005
40
0.375000000000005
40
0.500000000000005
40
0.500000000000005
40
0.750000000000001
40
0.750000000000001
40
0.875
40
0.875
40
1
40
1
40
1
40
1
41
1
10
18.0000000000001
20
-7.28505391332683
30
0
41
1
10
17.838402292518
20
-7.28502363042207
30
0
41
1
10
17.6802523545497
20
-7.30070583135412
30
0
41
1
10
17.4477665198798
20
-7.34582645711365
30
0
41
1
10
17.3710657157141
20
-7.36448731398556
30
0
41
1
10
17.2192299991864
20
-7.4089452500142
30
0
41
1
10
17.144073580522
20
-7.43480677683712
30
0
41
1
10
16.9259375622585
20
-7.52083721929895
30
0
41
1
10
16.7884036115408
20
-7.58986428125198
30
0
41
1
10
16.5924166025759
20
-7.70866442921383
30
0
41
1
10
16.5285554717762
20
-7.75102403502706
30
0
41
1
10
16.4057078731383
20
-7.83950035357475
30
0
41
1
10
16.3467066631743
20
-7.88558310312715
30
0
41
1
10
16.2898996944949
20
-7.93333657583952
30
0
0
SPLINE
5
2E9
100
AcDbEntity
8
1
62
256
6
ByLayer
370
13
48
1
60
0
100
AcDbSpline
70
4
71
3
72
8
73
4
40
0
40
0
40
0
40
0
40
1
40
1
40
1
40
1
41
1
10
120.254070615451
20
0.538319484519548
30
0
41
1
10
120.562216094769
20
0.468690231403542
30
0
41
1
10
120.872308600792
20
0.428834566458562
30
0
41
1
10
121.18431079084
20
0.418844835321124
30
0
0
SPLINE
5
2EA
100
AcDbEntity
8
1
62
256
6
ByLayer
370
13
48
1
60
0
100
AcDbSpline
70
4
71
3
72
8
73
4
40
0
40
0
40
0
40
0
40
1
40
1
40
1
40
1
41
1
10
124.709044614568
20
7.70474552638976
30
0
41
1
10
124.705201490118
20
7.71327030080843
30
0
41
1
10
124.710011736952
20
7.72109221854967
30
0
41
1
10
124.723318151072
20
7.72826577518529
30
0
0
SPLINE
5
2EB
100
AcDbEntity
8
1
62
256
6
ByLayer
370
13
48
1
60
0
100
AcDbSpline
70
4
71
3
72
10
73
6
40
0
40
0
40
0
40
0
40
0.5
40
0.5
40
1
40
1
40
1
40
1
41
1
10
118.582542289689
20
1.2114732738645
30
0
41
1
10
118.840960620708
20
1.05065199903026
30
0
41
1
10
119.109438120896
20
0.913793308483321
30
0
41
1
10
119.666405109327
20
0.688646776155451
30
0
41
1
10
119.95486746236
20
0.600289761593359
30
0
41
1
10
120.254070615451
20
0.538319484518894
30
0
0
SPLINE
5
2EC
100
AcDbEntity
8
1
62
256
6
ByLayer
370
13
48
1
60
0
100
AcDbSpline
70
2053
71
3
72
70
73
66
40
0
40
0
40
0
40
0
40
0.03125
40
0.03125
40
0.0625000000000001
40
0.0625000000000001
40
0.0937500000000001
40
0.0937500000000001
40
0.125
40
0.125
40
0.15625
40
0.15625
40
0.1875
40
0.1875
40
0.21875
40
0.21875
40
0.25
40
0.25
40
0.28125
40
0.28125
40
0.3125
40
0.3125
40
0.34375
40
0.34375
40
0.375000000000001
40
0.375000000000001
40
0.406250000000001
40
0.406250000000001
40
0.437500000000001
40
0.437500000000001
40
0.468750000000001
40
0.468750000000001
40
0.500000000000001
40
0.500000000000001
40
0.531250000000001
40
0.531250000000001
40
0.562500000000001
40
0.562500000000001
40
0.593750000000001
40
0.593750000000001
40
0.625000000000001
40
0.625000000000001
40
0.656250000000001
40
0.656250000000001
40
0.687500000000001
40
0.687500000000001
40
0.718750000000001
40
0.718750000000001
40
0.750000000000001
40
0.750000000000001
40
0.78125
40
0.78125
40
0.8125
40
0.8125
40
0.84375
40
0.84375
40
0.875
40
0.875
40
0.90625
40
0.90625
40
0.9375
40
0.9375
40
0.96875
40
0.96875
40
1
40
1
40
1
40
1
41
1
10
129.823428988414
20
-0.0522407209042797
30
0
41
1
10
129.897673469664
20
-0.0522407209042797
30
0
41
1
10
129.970639915696
20
-0.0597440908929343
30
0
41
1
10
130.114119808297
20
-0.0891511209252656
30
0
41
1
10
130.185410727021
20
-0.111445926917838
30
0
41
1
10
130.320646278843
20
-0.169400708520158
30
0
41
1
10
130.384673642651
20
-0.204852905895393
30
0
41
1
10
130.505566048985
20
-0.288659789303949
30
0
41
1
10
130.562310168944
20
-0.337204309471247
30
0
41
1
10
130.663499990802
20
-0.442985138360228
30
0
41
1
10
130.708683884545
20
-0.500672678798509
30
0
41
1
10
130.787933792493
20
-0.625869855225432
30
0
41
1
10
130.820690991622
20
-0.691316294121549
30
0
41
1
10
130.873210589852
20
-0.827430175351111
30
0
41
1
10
130.893075133972
20
-0.898903419489358
30
0
41
1
10
130.918532203443
20
-1.04277128511413
30
0
41
1
10
130.924304229623
20
-1.11506828489166
30
0
41
1
10
130.922341744712
20
-1.26034727884991
30
0
41
1
10
130.914409428662
20
-1.33356542376387
30
0
41
1
10
130.885689426785
20
-1.47496729163066
30
0
41
1
10
130.864950364351
20
-1.54389133700528
30
0
41
1
10
130.81051730411
20
-1.67818598598018
30
0
41
1
10
130.777046222243
20
-1.74270376374278
30
0
41
1
10
130.699505655493
20
-1.86336543521043
30
0
41
1
10
130.655235321567
20
-1.9200459314541
30
0
41
1
10
130.554849960191
20
-2.02568934620032
30
0
41
1
10
130.500287251871
20
-2.07299306627877
30
0
41
1
10
130.382727333674
20
-2.15643020282013
30
0
41
1
10
130.319085189453
20
-2.19287998179843
30
0
41
1
10
130.184934732267
20
-2.25230025882667
30
0
41
1
10
130.115712197078
20
-2.27484454911846
30
0
41
1
10
129.972915561635
20
-2.30553054042159
30
0
41
1
10
129.898395395886
20
-2.3135741147164
30
0
41
1
10
129.751510996564
20
-2.31378758395596
30
0
41
1
10
129.678692373102
20
-2.30625442688824
30
0
41
1
10
129.534307199489
20
-2.27580492485166
30
0
41
1
10
129.463997679822
20
-2.25301424629296
30
0
41
1
10
129.330672883791
20
-2.19436189399607
30
0
41
1
10
129.26641643408
20
-2.15788355831981
30
0
41
1
10
129.147653860819
20
-2.07392604860067
30
0
41
1
10
129.09309104945
20
-2.02665078333908
30
0
41
1
10
128.993156528369
20
-1.92183385721637
30
0
41
1
10
128.948028076325
20
-1.86430254126085
30
0
41
1
10
128.870205466577
20
-1.74342930323485
30
0
41
1
10
128.836990810189
20
-1.67958141359458
30
0
41
1
10
128.782196659724
20
-1.54480947210737
30
0
41
1
10
128.761344182461
20
-1.47558962681245
30
0
41
1
10
128.732583995031
20
-1.33447206406814
30
0
41
1
10
128.724611513315
20
-1.26194575360719
30
0
41
1
10
128.722491034822
20
-1.1157947252832
30
0
41
1
10
128.728272731228
20
-1.04350351427803
30
0
41
1
10
128.753425476511
20
-0.900497548594615
30
0
41
1
10
128.77312906468
20
-0.829001650998578
30
0
41
1
10
128.825783603156
20
-0.692085614112017
30
0
41
1
10
128.858448834311
20
-0.626865099362306
30
0
41
1
10
128.936554709647
20
-0.502993101375125
30
0
41
1
10
128.982534836171
20
-0.443957512687717
30
0
41
1
10
129.083777893588
20
-0.337899022735542
30
0
41
1
10
129.139318773926
20
-0.290213178784569
30
0
41
1
10
129.260500373839
20
-0.205840269136871
30
0
41
1
10
129.325504626906
20
-0.169788029665625
30
0
41
1
10
129.460048182048
20
-0.111962494335728
30
0
41
1
10
129.530623750656
20
-0.0896775235742382
30
0
41
1
10
129.675727295288
20
-0.0597532910248901
30
0
41
1
10
129.749184507165
20
-0.0522407209042797
30
0
41
1
10
129.823428988414
20
-0.0522407209042797
30
0
0
SPLINE
5
2ED
100
AcDbEntity
8
1
62
256
6
ByLayer
370
13
48
1
60
0
100
AcDbSpline
70
4
71
3
72
14
73
10
40
0
40
0
40
0
40
0
40
0.500000000000006
40
0.500000000000006
40
0.625000000000003
40
0.625000000000003
40
0.75
40
0.75
40
1
40
1
40
1
40
1
41
1
10
18
20
-7.78614586465585
30
0
41
1
10
17.6936216255458
20
-7.78614902709199
30
0
41
1
10
17.3951055504863
20
-7.80227352183934
30
0
41
1
10
17.0315597015118
20
-7.83700827105798
30
0
41
1
10
16.9591773770225
20
-7.84468649092747
30
0
41
1
10
16.8178111080529
20
-7.86091930760753
30
0
41
1
10
16.7485388032132
20
-7.86949794932164
30
0
41
1
10
16.544870272176
20
-7.89608269714805
30
0
41
1
10
16.4145990050555
20
-7.91496362525865
30
0
41
1
10
16.2898996944949
20
-7.93333657583955
30
0
0
SPLINE
5
2EE
100
AcDbEntity
8
1
62
256
6
ByLayer
370
13
48
1
60
0
100
AcDbSpline
70
4
71
3
72
12
73
8
40
0
40
0
40
0
40
0
40
0.250000000000006
40
0.250000000000006
40
0.500000000000011
40
0.500000000000011
40
1
40
1
40
1
40
1
41
1
10
121.577020075406
20
3.59810833430524
30
0
41
1
10
121.688632763195
20
3.60990555527761
30
0
41
1
10
121.797385175281
20
3.62560408283738
30
0
41
1
10
122.011475999181
20
3.66208540434431
30
0
41
1
10
122.116786032885
20
3.68288033604321
30
0
41
1
10
122.429275166688
20
3.75047248445387
30
0
41
1
10
122.633177057287
20
3.80237205407198
30
0
41
1
10
122.833442557471
20
3.8575999579464
30
0
0
SPLINE
5
2EF
100
AcDbEntity
8
1
62
256
6
ByLayer
370
13
48
1
60
0
100
AcDbSpline
70
4
71
3
72
8
73
4
40
0
40
0
40
0
40
0
40
1
40
1
40
1
40
1
41
1
10
120.673682338822
20
3.03053988523999
30
0
41
1
10
118.722430319148
20
3.08459481083705
30
0
41
1
10
116.773699041511
20
3.07713863745124
30
0
41
1
10
114.82416678262
20
3.01149303612772
30
0
0
SPLINE
5
2F0
100
AcDbEntity
8
1
62
256
6
ByLayer
370
13
48
1
60
0
100
AcDbSpline
70
4
71
3
72
8
73
4
40
0
40
0
40
0
40
0
40
1
40
1
40
1
40
1
41
1
10
131.561397000643
20
2.64959162538662
30
0
41
1
10
131.547009650758
20
2.63751298745404
30
0
41
1
10
131.533180909129
20
2.62543555324615
30
0
41
1
10
131.519946068164
20
2.61339545779632
30
0
0
SPLINE
5
2F1
100
AcDbEntity
8
1
62
256
6
ByLayer
370
13
48
1
60
0
100
AcDbSpline
70
4
71
3
72
12
73
8
40
0
40
0
40
0
40
0
40
0.325989583511942
40
0.325989583511942
40
0.662994791755971
40
0.662994791755971
40
1
40
1
40
1
40
1
41
1
10
18.4499998685101
20
-2.59107125161478
30
0
41
1
10
18.4500132284656
20
-2.79301380270567
30
0
41
1
10
18.4500243319353
20
-3.01688096939949
30
0
41
1
10
18.4500409211497
20
-3.48875484271818
30
0
41
1
10
18.4500461993454
20
-3.73717827002977
30
0
41
1
10
18.4500497522369
20
-4.21844484080762
30
0
41
1
10
18.450048025871
20
-4.45114415735293
30
0
41
1
10
18.4500429103597
20
-4.66058825053261
30
0
0
SPLINE
5
2F2
100
AcDbEntity
8
1
62
256
6
ByLayer
370
13
48
1
60
0
100
AcDbSpline
70
4
71
3
72
8
73
4
40
0
40
0
40
0
40
0
40
1
40
1
40
1
40
1
41
1
10
18.45
20
-7.27132440358687
30
0
41
1
10
18.3033333330103
20
-7.27129980031086
30
0
41
1
10
18.156666666323
20
-7.27127383243743
30
0
41
1
10
18.01
20
-7.27124646421299
30
0
0
SPLINE
5
2F3
100
AcDbEntity
8
1
62
256
6
ByLayer
370
13
48
1
60
0
100
AcDbSpline
70
4
71
3
72
8
73
4
40
0
40
0
40
0
40
0
40
1
40
1
40
1
40
1
41
1
10
121.184332260004
20
0.887750710345045
30
0
41
1
10
121.564342945337
20
0.809987432990397
30
0
41
1
10
121.948440078375
20
0.739584545650189
30
0
41
1
10
122.340251442304
20
0.683076305228667
30
0
0
SPLINE
5
2F4
100
AcDbEntity
8
1
62
256
6
ByLayer
370
13
48
1
60
0
100
AcDbSpline
70
4
71
3
72
16
73
12
40
0
40
0
40
0
40
0
40
0.33632514877941
40
0.33632514877941
40
0.504487723169116
40
0.504487723169116
40
0.672650297558821
40
0.672650297558821
40
0.840812871948526
40
0.840812871948526
40
1
40
1
40
1
40
1
41
1
10
18.01
20
-4.66058824991507
30
0
41
1
10
18.01
20
-4.44927565696531
30
0
41
1
10
18.01
20
-4.21956326175709
30
0
41
1
10
18.01
20
-3.85703908260405
30
0
41
1
10
18.01
20
-3.73580191664024
30
0
41
1
10
18.01
20
-3.49255675512231
30
0
41
1
10
18.01
20
-3.36928650358436
30
0
41
1
10
18.01
20
-3.12924980012536
30
0
41
1
10
18.01
20
-3.01256224593439
30
0
41
1
10
18.01
20
-2.79183063997542
30
0
41
1
10
18.01
20
-2.68668597935292
30
0
41
1
10
18.01
20
-2.58803724992001
30
0
0
SPLINE
5
2F5
100
AcDbEntity
8
1
62
256
6
ByLayer
370
13
48
1
60
0
100
AcDbSpline
70
4
71
3
72
14
73
10
40
0
40
0
40
0
40
0
40
0.25
40
0.25
40
0.5
40
0.5
40
0.75
40
0.75
40
1
40
1
40
1
40
1
41
1
10
5.73612460857512
20
-9.40547854256275
30
0
41
1
10
5.69941727608651
20
-9.49425911422455
30
0
41
1
10
5.67120806756117
20
-9.58176662344363
30
0
41
1
10
5.632897182096
20
-9.75412503979518
30
0
41
1
10
5.62296986585238
20
-9.83927069726477
30
0
41
1
10
5.62308637543791
20
-10.0009045936437
30
0
41
1
10
5.63272752593517
20
-10.0781705844717
30
0
41
1
10
5.67039792607144
20
-10.2257998550882
30
0
41
1
10
5.69867804595458
20
-10.2965593683418
30
0
41
1
10
5.73568370595203
20
-10.3627014032404
30
0
0
SPLINE
5
2F6
100
AcDbEntity
8
1
62
256
6
ByLayer
370
13
48
1
60
0
100
AcDbSpline
70
4
71
3
72
8
73
4
40
0
40
0
40
0
40
0
40
1
40
1
40
1
40
1
41
1
10
126.178783723468
20
2.52961584538872
30
0
41
1
10
126.187590920123
20
2.52721084242342
30
0
41
1
10
126.196214772655
20
2.52485555870169
30
0
41
1
10
126.204664881553
20
2.52258595216344
30
0
0
SPLINE
5
2F7
100
AcDbEntity
8
1
62
256
6
ByLayer
370
13
48
1
60
0
100
AcDbSpline
70
4
71
3
72
10
73
6
40
0
40
0
40
0
40
0
40
0.807899810982367
40
0.807899810982367
40
1
40
1
40
1
40
1
41
1
10
125.682187923811
20
7.61203116040883
30
0
41
1
10
125.62760426978
20
7.60135351538798
30
0
41
1
10
125.568940390175
20
7.59164350987243
30
0
41
1
10
125.491420121172
20
7.5811472934858
30
0
41
1
10
125.476255334744
20
7.57919747157854
30
0
41
1
10
125.460861789145
20
7.5773227787997
30
0
0
SPLINE
5
2F8
100
AcDbEntity
8
1
62
256
6
ByLayer
370
13
48
1
60
0
100
AcDbSpline
70
4
71
3
72
52
73
48
40
0
40
0
40
0
40
0
40
0.0156249999999994
40
0.0156249999999994
40
0.0312499999999988
40
0.0312499999999988
40
0.0468749999999982
40
0.0468749999999982
40
0.0624999999999975
40
0.0624999999999975
40
0.0703124999999972
40
0.0703124999999972
40
0.0781249999999969
40
0.0781249999999969
40
0.0937499999999969
40
0.0937499999999969
40
0.124999999999997
40
0.124999999999997
40
0.156249999999997
40
0.156249999999997
40
0.187499999999997
40
0.187499999999997
40
0.218749999999997
40
0.218749999999997
40
0.249999999999997
40
0.249999999999997
40
0.312499999999997
40
0.312499999999997
40
0.374999999999997
40
0.374999999999997
40
0.437499999999998
40
0.437499999999998
40
0.468749999999998
40
0.468749999999998
40
0.499999999999998
40
0.499999999999998
40
0.531249999999999
40
0.531249999999999
40
0.562499999999999
40
0.562499999999999
40
0.624999999999999
40
0.624999999999999
40
0.75
40
0.75
40
0.875
40
0.875
40
1
40
1
40
1
40
1
41
1
10
120.254070615451
20
-7.63584135472721
30
0
41
1
10
119.95286882442
20
-7.63127373953128
30
0
41
1
10
119.652446331519
20
-7.62613935075643
30
0
41
1
10
119.055957015698
20
-7.61277266058741
30
0
41
1
10
118.75979657447
20
-7.60464440424857
30
0
41
1
10
118.176697631222
20
-7.58100817792922
30
0
41
1
10
117.889840031589
20
-7.56550296764982
30
0
41
1
10
117.329647242512
20
-7.52029590605136
30
0
41
1
10
117.055672736776
20
-7.49051743809034
30
0
41
1
10
116.641943005015
20
-7.44356435594781
30
0
41
1
10
116.503911152616
20
-7.42733343547033
30
0
41
1
10
116.228136844144
20
-7.3931893634402
30
0
41
1
10
116.090280199345
20
-7.37535752278629
30
0
41
1
10
115.676822157381
20
-7.31988357357724
30
0
41
1
10
115.40136468133
20
-7.28018896111664
30
0
41
1
10
114.575341026699
20
-7.15317868404784
30
0
41
1
10
114.025116236134
20
-7.05793974094127
30
0
41
1
10
112.924700329488
20
-6.8474568556702
30
0
41
1
10
112.374672334338
20
-6.73199894319808
30
0
41
1
10
111.272592259718
20
-6.4838299908794
30
0
41
1
10
110.720467694755
20
-6.35119124650427
30
0
41
1
10
109.611212867195
20
-6.07409116806286
30
0
41
1
10
109.053607565062
20
-5.92952806657382
30
0
41
1
10
107.932873901563
20
-5.63564677077591
30
0
41
1
10
107.371187811323
20
-5.48674624913326
30
0
41
1
10
105.679804721193
20
-5.04499900355827
30
0
41
1
10
104.543607412
20
-4.75806014706413
30
0
41
1
10
102.254239383407
20
-4.21723621958969
30
0
41
1
10
101.101084246211
20
-3.96309446654482
30
0
41
1
10
98.7755215884807
20
-3.5100583073496
30
0
41
1
10
97.6031052859227
20
-3.31129782524533
30
0
41
1
10
95.8302383100875
20
-3.0626699024638
30
0
41
1
10
95.2369067970974
20
-2.98802216104767
30
0
41
1
10
94.045394036659
20
-2.85666264058241
30
0
41
1
10
93.4465459130294
20
-2.79986724033731
30
0
41
1
10
92.2471592851697
20
-2.70632301902165
30
0
41
1
10
91.6471425728654
20
-2.67010732993848
30
0
41
1
10
90.4464603630991
20
-2.61921289806713
30
0
41
1
10
89.8458342620847
20
-2.60322180227308
30
0
41
1
10
88.0435593220715
20
-2.56849207476702
30
0
41
1
10
86.8414668765334
20
-2.56455891080933
30
0
41
1
10
83.2350333808274
20
-2.5580223480743
30
0
41
1
10
80.830575236211
20
-2.56941213086188
30
0
41
1
10
76.0218535649576
20
-2.58978457745709
30
0
41
1
10
73.6174810264765
20
-2.59904681561392
30
0
41
1
10
68.8087388447964
20
-2.60063826978842
30
0
41
1
10
66.4043696466958
20
-2.59554189221211
30
0
41
1
10
64
20
-2.59184062994416
30
0
0
SPLINE
5
2F9
100
AcDbEntity
8
1
62
256
6
ByLayer
370
13
48
1
60
0
100
AcDbSpline
70
4
71
3
72
8
73
4
40
0
40
0
40
0
40
0
40
1
40
1
40
1
40
1
41
1
10
123.56325874243
20
2.03204989195095
30
0
41
1
10
123.629521895151
20
2.00076165592404
30
0
41
1
10
123.697797227663
20
1.97657279066522
30
0
41
1
10
123.768349622674
20
1.95939970310067
30
0
0
SPLINE
5
2FA
100
AcDbEntity
8
1
62
256
6
ByLayer
370
13
48
1
60
0
100
AcDbSpline
70
4
71
3
72
8
73
4
40
0
40
0
40
0
40
0
40
1
40
1
40
1
40
1
41
1
10
120.916104327428
20
7.20215796154329
30
0
41
1
10
120.974304084426
20
7.3214348122934
30
0
41
1
10
121.031209705962
20
7.44134833901089
30
0
41
1
10
121.086945307384
20
7.56183748065493
30
0
0
SPLINE
5
2FB
100
AcDbEntity
8
1
62
256
6
ByLayer
370
13
48
1
60
0
100
AcDbSpline
70
4
71
3
72
12
73
8
40
0
40
0
40
0
40
0
40
0.499999999999997
40
0.499999999999997
40
0.749999999999998
40
0.749999999999998
40
1
40
1
40
1
40
1
41
1
10
122.833442557472
20
3.85759995794839
30
0
41
1
10
122.839353102849
20
3.92797730740728
30
0
41
1
10
122.837457875654
20
3.99826132268782
30
0
41
1
10
122.817454171684
20
4.103482151946
30
0
41
1
10
122.807899289411
20
4.13809944109269
30
0
41
1
10
122.783046045781
20
4.20446964701344
30
0
41
1
10
122.767702746684
20
4.23649754451466
30
0
41
1
10
122.74924863701
20
4.26729121325684
30
0
0
SPLINE
5
2FC
100
AcDbEntity
8
1
62
256
6
ByLayer
370
13
48
1
60
0
100
AcDbSpline
70
4
71
3
72
10
73
6
40
0
40
0
40
0
40
0
40
0.5
40
0.5
40
1
40
1
40
1
40
1
41
1
10
126.32278499282
20
2.22405902644044
30
0
41
1
10
126.353640406749
20
2.25578907072097
30
0
41
1
10
126.387130996578
20
2.29503887150707
30
0
41
1
10
126.452117324345
20
2.38681500182318
30
0
41
1
10
126.4827374818
20
2.43790302567203
30
0
41
1
10
126.50987507685
20
2.49533817285877
30
0
0
SPLINE
5
2FD
100
AcDbEntity
8
1
62
256
6
ByLayer
370
13
48
1
60
0
100
AcDbSpline
70
4
71
3
72
12
73
8
40
0
40
0
40
0
40
0
40
0.430112179791894
40
0.430112179791894
40
0.860224359583789
40
0.860224359583789
40
1
40
1
40
1
40
1
41
1
10
5.73612460857512
20
-9.40547854256275
30
0
41
1
10
5.76950407551234
20
-9.1284935710618
30
0
41
1
10
5.8175406702687
20
-8.85275659822008
30
0
41
1
10
5.94293687177833
20
-8.3035142076657
30
0
41
1
10
6.02064631727077
20
-8.0292143151882
30
0
41
1
10
6.1422721196154
20
-7.67173484612635
30
0
41
1
10
6.17359963325893
20
-7.58445706793111
30
0
41
1
10
6.20643439088758
20
-7.49758532734611
30
0
0
SPLINE
5
2FE
100
AcDbEntity
8
1
62
256
6
ByLayer
370
13
48
1
60
0
100
AcDbSpline
70
4
71
3
72
10
73
6
40
0
40
0
40
0
40
0
40
0.5
40
0.5
40
1
40
1
40
1
40
1
41
1
10
132.071070459636
20
0.263669347576382
30
0
41
1
10
132.069591253887
20
0.292087586984792
30
0
41
1
10
132.068632157617
20
0.320202610827437
30
0
41
1
10
132.067765926701
20
0.375793495265754
30
0
41
1
10
132.067870056103
20
0.403423930267451
30
0
41
1
10
132.068483477036
20
0.429785769615791
30
0
0
SPLINE
5
2FF
100
AcDbEntity
8
1
62
256
6
ByLayer
370
13
48
1
60
0
100
AcDbSpline
70
4
71
3
72
34
73
30
40
0
40
0
40
0
40
0
40
0.125
40
0.125
40
0.187500000000001
40
0.187500000000001
40
0.250000000000001
40
0.250000000000001
40
0.375000000000002
40
0.375000000000002
40
0.437500000000002
40
0.437500000000002
40
0.500000000000003
40
0.500000000000003
40
0.625000000000003
40
0.625000000000003
40
0.687500000000003
40
0.687500000000003
40
0.750000000000003
40
0.750000000000003
40
0.812500000000003
40
0.812500000000003
40
0.843750000000003
40
0.843750000000003
40
0.875000000000002
40
0.875000000000002
40
0.937500000000001
40
0.937500000000001
40
1
40
1
40
1
40
1
41
1
10
8.80122224338572
20
-5.94059125931065
30
0
41
1
10
8.57217379534845
20
-6.00064313185598
30
0
41
1
10
8.34742479164996
20
-6.07666491172927
30
0
41
1
10
8.01635219604012
20
-6.21341542144665
30
0
41
1
10
7.9070119499377
20
-6.26281870512108
30
0
41
1
10
7.69041062269602
20
-6.36948094728714
30
0
41
1
10
7.58263081495022
20
-6.42707244138461
30
0
41
1
10
7.26925236714052
20
-6.60840011459783
30
0
41
1
10
7.07185475338008
20
-6.74119314976451
30
0
41
1
10
6.7939202734554
20
-6.95902502696453
30
0
41
1
10
6.70432998262223
20
-7.03477129970065
30
0
41
1
10
6.53181419627543
20
-7.19308508124965
30
0
41
1
10
6.45030318589025
20
-7.27445724875366
30
0
41
1
10
6.22211006657537
20
-7.52285896334877
30
0
41
1
10
6.09034314000377
20
-7.69494418437603
30
0
41
1
10
5.92496972614634
20
-7.96287903468237
30
0
41
1
10
5.87544397941696
20
-8.05383011705712
30
0
41
1
10
5.79072040949913
20
-8.23347982814528
30
0
41
1
10
5.75505565178281
20
-8.32287632790795
30
0
41
1
10
5.69738996208841
20
-8.50078204056894
30
0
41
1
10
5.67538465697444
20
-8.58929157608682
30
0
41
1
10
5.65341769819329
20
-8.72136024545816
30
0
41
1
10
5.64795999306239
20
-8.76529295759846
30
0
41
1
10
5.64100053188275
20
-8.85145855258099
30
0
41
1
10
5.63945682128158
20
-8.89387825120659
30
0
41
1
10
5.64065467293332
20
-9.01916330025554
30
0
41
1
10
5.64923922912453
20
-9.10005533069059
30
0
41
1
10
5.68140320494106
20
-9.2567007958996
30
0
41
1
10
5.70510162209217
20
-9.3327182709433
30
0
41
1
10
5.73612460857512
20
-9.40547854256275
30
0
0
SPLINE
5
300
100
AcDbEntity
8
1
62
256
6
ByLayer
370
13
48
1
60
0
100
AcDbSpline
70
4
71
3
72
14
73
10
40
0
40
0
40
0
40
0
40
0.25
40
0.25
40
0.5
40
0.5
40
0.75
40
0.75
40
1
40
1
40
1
40
1
41
1
10
123.768349622674
20
1.9593997031005
30
0
41
1
10
124.032147510027
20
1.89518892445682
30
0
41
1
10
124.287501572448
20
1.84979889696132
30
0
41
1
10
124.779186070644
20
1.78757491240799
30
0
41
1
10
125.015547664406
20
1.77082147022384
30
0
41
1
10
125.464507079453
20
1.75830032996311
30
0
41
1
10
125.677686102618
20
1.7627056129823
30
0
41
1
10
126.062863763085
20
1.7833277893935
30
0
41
1
10
126.236326410129
20
1.79953200631729
30
0
41
1
10
126.382403611741
20
1.81569445954213
30
0
0
SPLINE
5
301
100
AcDbEntity
8
1
62
256
6
ByLayer
370
13
48
1
60
0
100
AcDbSpline
70
4
71
3
72
10
73
6
40
0
40
0
40
0
40
0
40
0.7212809760441
40
0.7212809760441
40
1
40
1
40
1
40
1
41
1
10
124.456283441959
20
4.95766185636873
30
0
41
1
10
124.40830175882
20
4.88688008816015
30
0
41
1
10
124.37101206895
20
4.81301395797507
30
0
41
1
10
124.332373537206
20
4.70923933230742
30
0
41
1
10
124.322979095118
20
4.68004457694011
30
0
41
1
10
124.315089323114
20
4.65111455687881
30
0
0
SPLINE
5
302
100
AcDbEntity
8
1
62
256
6
ByLayer
370
13
48
1
60
0
100
AcDbSpline
70
4
71
3
72
8
73
4
40
0
40
0
40
0
40
0
40
1
40
1
40
1
40
1
41
1
10
18.0099999999999
20
-7.28505578512812
30
0
41
1
10
18.0066666666664
20
-7.28505516191669
30
0
41
1
10
18.0033333333332
20
-7.28505453798303
30
0
41
1
10
18.0000000000001
20
-7.28505391332681
30
0
0
SPLINE
5
303
100
AcDbEntity
8
1
62
256
6
ByLayer
370
13
48
1
60
0
100
AcDbSpline
70
4
71
3
72
8
73
4
40
0
40
0
40
0
40
0
40
1
40
1
40
1
40
1
41
1
10
121.086945307384
20
7.56183748065519
30
0
41
1
10
120.809402532306
20
7.58076992978945
30
0
41
1
10
120.531793813411
20
7.5968108901053
30
0
41
1
10
120.254070615451
20
7.60996212382585
30
0
0
SPLINE
5
304
100
AcDbEntity
8
1
62
256
6
ByLayer
370
13
48
1
60
0
100
AcDbSpline
70
4
71
3
72
22
73
18
40
0
40
0
40
0
40
0
40
0.233850292667066
40
0.233850292667066
40
0.350775439000598
40
0.350775439000598
40
0.46770058533413
40
0.46770058533413
40
0.584625731667661
40
0.584625731667661
40
0.701550878001193
40
0.701550878001193
40
0.818476024334725
40
0.818476024334725
40
0.935401170668257
40
0.935401170668257
40
1
40
1
40
1
40
1
41
1
10
120.254070615451
20
7.60996212382585
30
0
41
1
10
119.142874168431
20
7.69422279435176
30
0
41
1
10
118.031604911289
20
7.7302230308301
30
0
41
1
10
116.366250823193
20
7.71114200218491
30
0
41
1
10
115.811265687286
20
7.69263779598308
30
0
41
1
10
114.700806352331
20
7.63137088422116
30
0
41
1
10
114.145228465389
20
7.5885760803751
30
0
41
1
10
113.035258867249
20
7.47919297106327
30
0
41
1
10
112.480540046631
20
7.41259482649394
30
0
41
1
10
111.370690496214
20
7.25611438452756
30
0
41
1
10
110.815225656058
20
7.16616912609319
30
0
41
1
10
109.705089754394
20
6.96398155192068
30
0
41
1
10
109.150542930228
20
6.85156193694175
30
0
41
1
10
108.040400008855
20
6.60632355595658
30
0
41
1
10
107.484373898884
20
6.473624082714
30
0
41
1
10
106.61825013465
20
6.2563296006139
30
0
41
1
10
106.30968117002
20
6.17693368290247
30
0
41
1
10
106.00065854483
20
6.09583697100618
30
0
0
SPLINE
5
305
100
AcDbEntity
8
1
62
256
6
ByLayer
370
13
48
1
60
0
100
AcDbSpline
70
4
71
1
72
4
73
2
40
0
40
0
40
1
40
1
41
1
10
18.0000000000001
20
-7.28505391334772
30
0
41
1
10
18.0000000000001
20
-7.78614586465585
30
0
0
SPLINE
5
306
100
AcDbEntity
8
1
62
256
6
ByLayer
370
13
48
1
60
0
100
AcDbSpline
70
4
71
3
72
8
73
4
40
0
40
0
40
0
40
0
40
1
40
1
40
1
40
1
41
1
10
121.356213053522
20
3.55512702343481
30
0
41
1
10
121.328290635011
20
3.54618464069748
30
0
41
1
10
121.298601161036
20
3.54143422941809
30
0
41
1
10
121.268008573666
20
3.54003820021006
30
0
0
SPLINE
5
307
100
AcDbEntity
8
1
62
256
6
ByLayer
370
13
48
1
60
0
100
AcDbSpline
70
4
71
3
72
40
73
36
40
0
40
0
40
0
40
0
40
0.124999999999964
40
0.124999999999964
40
0.187499999999953
40
0.187499999999953
40
0.249999999999941
40
0.249999999999941
40
0.31249999999993
40
0.31249999999993
40
0.374999999999919
40
0.374999999999919
40
0.406249999999913
40
0.406249999999913
40
0.437499999999908
40
0.437499999999908
40
0.468749999999902
40
0.468749999999902
40
0.499999999999897
40
0.499999999999897
40
0.56249999999991
40
0.56249999999991
40
0.624999999999923
40
0.624999999999923
40
0.687499999999936
40
0.687499999999936
40
0.749999999999948
40
0.749999999999948
40
0.812499999999961
40
0.812499999999961
40
0.874999999999974
40
0.874999999999974
40
0.937499999999987
40
0.937499999999987
40
1
40
1
40
1
40
1
41
1
10
126.643152940947
20
2.53433436275941
30
0
41
1
10
126.598541451203
20
2.41381677893111
30
0
41
1
10
126.537264233703
20
2.3073737598306
30
0
41
1
10
126.427489869844
20
2.16992479299509
30
0
41
1
10
126.388235630864
20
2.1281905109872
30
0
41
1
10
126.304323225488
20
2.05194561638038
30
0
41
1
10
126.25942130822
20
2.01728057121909
30
0
41
1
10
126.164480336555
20
1.95572446380461
30
0
41
1
10
126.114700020119
20
1.92889133977329
30
0
41
1
10
126.008098692506
20
1.88281341190944
30
0
41
1
10
125.950672715415
20
1.86339742500158
30
0
41
1
10
125.858087417758
20
1.84163136962982
30
0
41
1
10
125.825859372461
20
1.83554242899873
30
0
41
1
10
125.759096789108
20
1.82621149737722
30
0
41
1
10
125.725367461045
20
1.82307212616254
30
0
41
1
10
125.657202269575
20
1.8197865958337
30
0
41
1
10
125.622392163931
20
1.81966131082734
30
0
41
1
10
125.554090531561
20
1.82232190414493
30
0
41
1
10
125.520781807827
20
1.82505282781369
30
0
41
1
10
125.42257558883
20
1.83694017359082
30
0
41
1
10
125.359058702683
20
1.84989031169596
30
0
41
1
10
125.238069134573
20
1.88378462628424
30
0
41
1
10
125.180033622933
20
1.90480238225919
30
0
41
1
10
125.067435152074
20
1.95506486809708
30
0
41
1
10
125.012531475996
20
1.98457657620895
30
0
41
1
10
124.908172338537
20
2.05132328546406
30
0
41
1
10
124.858699551424
20
2.08847255377123
30
0
41
1
10
124.765136826234
20
2.17095358294429
30
0
41
1
10
124.721043796357
20
2.21626830877139
30
0
41
1
10
124.638883199525
20
2.31662438541213
30
0
41
1
10
124.601888510815
20
2.37040458517845
30
0
41
1
10
124.537125849471
20
2.48536612292841
30
0
41
1
10
124.509019009793
20
2.54747910483337
30
0
41
1
10
124.465160070172
20
2.67612419914963
30
0
41
1
10
124.449252243916
20
2.74251029342096
30
0
41
1
10
124.439875800416
20
2.81121374965193
30
0
0
SPLINE
5
308
100
AcDbEntity
8
1
62
256
6
ByLayer
370
13
48
1
60
0
100
AcDbSpline
70
4
71
3
72
8
73
4
40
0
40
0
40
0
40
0
40
1
40
1
40
1
40
1
41
1
10
23
20
-2.59269413268913
30
0
41
1
10
21.3333333493943
20
-2.59247077415577
30
0
41
1
10
19.6666666208075
20
-2.5924651823342
30
0
41
1
10
18
20
-2.59283698898079
30
0
0
SPLINE
5
309
100
AcDbEntity
8
1
62
256
6
ByLayer
370
13
48
1
60
0
100
AcDbSpline
70
4
71
3
72
8
73
4
40
0
40
0
40
0
40
0
40
1
40
1
40
1
40
1
41
1
10
0
20
3.1240998703627
30
0
41
1
10
0.031707839132622
20
3.24995282691324
30
0
41
1
10
0.0650682269089771
20
3.37524366753212
30
0
41
1
10
0.0999999999999943
20
3.49999999999997
30
0
0
SPLINE
5
30A
100
AcDbEntity
8
1
62
256
6
ByLayer
370
13
48
1
60
0
100
AcDbSpline
70
4
71
3
72
8
73
4
40
0
40
0
40
0
40
0
40
1
40
1
40
1
40
1
41
1
10
122.376509061606
20
2.06468791523173
30
0
41
1
10
122.523259225559
20
2.31206848464294
30
0
41
1
10
122.664551897096
20
2.55859570964267
30
0
41
1
10
122.821293360269
20
2.79078464390565
30
0
0
SPLINE
5
30B
100
AcDbEntity
8
1
62
256
6
ByLayer
370
13
48
1
60
0
100
AcDbSpline
70
4
71
3
72
8
73
4
40
0
40
0
40
0
40
0
40
1
40
1
40
1
40
1
41
1
10
132.043109203055
20
0.526816785338724
30
0
41
1
10
132.129318512603
20
0.546912614739142
30
0
41
1
10
132.214620843464
20
0.555033813192978
30
0
41
1
10
132.299864355689
20
0.553267462521603
30
0
0
SPLINE
5
30C
100
AcDbEntity
8
1
62
256
6
ByLayer
370
13
48
1
60
0
100
AcDbSpline
70
4
71
3
72
18
73
14
40
0
40
0
40
0
40
0
40
0.250000000000056
40
0.250000000000056
40
0.375000000000057
40
0.375000000000057
40
0.500000000000058
40
0.500000000000058
40
0.625000000000059
40
0.625000000000059
40
0.75000000000006
40
0.75000000000006
40
1
40
1
40
1
40
1
41
1
10
122.376509061607
20
2.06468791523361
30
0
41
1
10
122.35781765401
20
2.02583051768792
30
0
41
1
10
122.334676841538
20
1.9885826451804
30
0
41
1
10
122.289898130087
20
1.94077338956453
30
0
41
1
10
122.273639302778
20
1.92661431674665
30
0
41
1
10
122.237299734665
20
1.90345607104598
30
0
41
1
10
122.217826282622
20
1.89503932466468
30
0
41
1
10
122.177946359884
20
1.88650519304923
30
0
41
1
10
122.15803287415
20
1.88653301368501
30
0
41
1
10
122.12051384247
20
1.89325352292462
30
0
41
1
10
122.102943207374
20
1.89977022367933
30
0
41
1
10
122.053199968676
20
1.92489523214496
30
0
41
1
10
122.024925648792
20
1.94795524210923
30
0
41
1
10
121.998035240285
20
1.973131329632
30
0
0
SPLINE
5
30D
100
AcDbEntity
8
1
62
256
6
ByLayer
370
13
48
1
60
0
100
AcDbSpline
70
4
71
3
72
14
73
10
40
0
40
0
40
0
40
0
40
0.125
40
0.125
40
0.25
40
0.25
40
0.5
40
0.5
40
1
40
1
40
1
40
1
41
1
10
64
20
-2.59184062994413
30
0
41
1
10
62.2916705152697
20
-2.58934059542074
30
0
41
1
10
60.5833405588337
20
-2.58714236620247
30
0
41
1
10
57.1666766943499
20
-2.5853191395824
30
0
41
1
10
55.4583425345191
20
-2.58565121697276
30
0
41
1
10
50.3333404279269
20
-2.58843201092606
30
0
41
1
10
46.9166721532362
20
-2.59249798220301
30
0
41
1
10
36.6666680286402
20
-2.59710107940518
30
0
41
1
10
29.8333349231169
20
-2.59312206366408
30
0
41
1
10
23
20
-2.5926941326893
30
0
0
SPLINE
5
30E
100
AcDbEntity
8
1
62
256
6
ByLayer
370
13
48
1
60
0
100
AcDbSpline
70
4
71
3
72
10
73
6
40
0
40
0
40
0
40
0
40
0.346008194327877
40
0.346008194327877
40
1
40
1
40
1
40
1
41
1
10
131.155253571798
20
2.91300473854039
30
0
41
1
10
131.147497915016
20
2.9026999010446
30
0
41
1
10
131.139757838201
20
2.89273725568589
30
0
41
1
10
131.117385233179
20
2.86499909035527
30
0
41
1
10
131.102975713024
20
2.84844407807148
30
0
41
1
10
131.08859229748
20
2.83352945033354
30
0
0
SPLINE
5
30F
100
AcDbEntity
8
1
62
256
6
ByLayer
370
13
48
1
60
0
100
AcDbSpline
70
4
71
3
72
8
73
4
40
0
40
0
40
0
40
0
40
1
40
1
40
1
40
1
41
1
10
23
20
-7.78611819580647
30
0
41
1
10
21.3333333264943
20
-7.78612021460984
30
0
41
1
10
19.6666666488336
20
-7.78612866133048
30
0
41
1
10
18.0000000000001
20
-7.78614586465585
30
0
0
SPLINE
5
310
100
AcDbEntity
8
1
62
256
6
ByLayer
370
13
48
1
60
0
100
AcDbSpline
70
4
71
3
72
8
73
4
40
0
40
0
40
0
40
0
40
1
40
1
40
1
40
1
41
1
10
121.18431079084
20
0.41884483532138
30
0
41
1
10
121.874225366367
20
0.396755050899515
30
0
41
1
10
122.564145405821
20
0.374740032143336
30
0
41
1
10
123.254070615451
20
0.352796721036754
30
0
0
SPLINE
5
311
100
AcDbEntity
8
1
62
256
6
ByLayer
370
13
48
1
60
0
100
AcDbSpline
70
4
71
3
72
18
73
14
40
0
40
0
40
0
40
0
40
0.249999999999999
40
0.249999999999999
40
0.375000000000002
40
0.375000000000002
40
0.500000000000004
40
0.500000000000004
40
0.625000000000007
40
0.625000000000007
40
0.750000000000009
40
0.750000000000009
40
1
40
1
40
1
40
1
41
1
10
132.068483477036
20
0.429785769615791
30
0
41
1
10
132.069644027941
20
0.479660586189311
30
0
41
1
10
132.071563005621
20
0.525455675426116
30
0
41
1
10
132.075657453054
20
0.58760730793918
30
0
41
1
10
132.077233324581
20
0.607190834041006
30
0
41
1
10
132.080689145649
20
0.642542732418406
30
0
41
1
10
132.082581401749
20
0.658526777376494
30
0
41
1
10
132.086701110669
20
0.68704408513122
30
0
41
1
10
132.088952511291
20
0.69966575262913
30
0
41
1
10
132.093668782563
20
0.720527260629922
30
0
41
1
10
132.096134787365
20
0.728841724722173
30
0
41
1
10
132.103855109747
20
0.747461742786669
30
0
41
1
10
132.109468224688
20
0.751281470327569
30
0
41
1
10
132.11517958667
20
0.745820799458414
30
0
0
SPLINE
5
312
100
AcDbEntity
8
1
62
256
6
ByLayer
370
13
48
1
60
0
100
AcDbSpline
70
4
71
3
72
8
73
4
40
0
40
0
40
0
40
0
40
1
40
1
40
1
40
1
41
1
10
126.697952855921
20
2.62520569258976
30
0
41
1
10
126.694751315682
20
2.62503790697554
30
0
41
1
10
126.69154977082
20
2.62487012111905
30
0
41
1
10
126.688348221387
20
2.62470233502302
30
0
0
SPLINE
5
313
100
AcDbEntity
8
1
62
256
6
ByLayer
370
13
48
1
60
0
100
AcDbSpline
70
4
71
3
72
10
73
6
40
0
40
0
40
0
40
0
40
0.252223861565589
40
0.252223861565589
40
1
40
1
40
1
40
1
41
1
10
124.296936985837
20
4.3517424947058
30
0
41
1
10
124.304625638737
20
4.35099546240357
30
0
41
1
10
124.312445021878
20
4.35021703844032
30
0
41
1
10
124.343936713383
20
4.34700403887092
30
0
41
1
10
124.368192986455
20
4.34436243969859
30
0
41
1
10
124.393141810049
20
4.34147078251357
30
0
0
SPLINE
5
314
100
AcDbEntity
8
1
62
256
6
ByLayer
370
13
48
1
60
0
100
AcDbSpline
70
4
71
3
72
8
73
4
40
0
40
0
40
0
40
0
40
1
40
1
40
1
40
1
41
1
10
120.604686221672
20
2.82501437228544
30
0
41
1
10
120.628708846563
20
2.89268008736929
30
0
41
1
10
120.651336935011
20
2.96064147657557
30
0
41
1
10
120.673074243737
20
3.02879173177652
30
0
0
SPLINE
5
315
100
AcDbEntity
8
1
62
256
6
ByLayer
370
13
48
1
60
0
100
AcDbSpline
70
4
71
3
72
44
73
40
40
0
40
0
40
0
40
0
40
0.125
40
0.125
40
0.1875
40
0.1875
40
0.25
40
0.25
40
0.3125
40
0.3125
40
0.375
40
0.375
40
0.4375
40
0.4375
40
0.46875
40
0.46875
40
0.5
40
0.5
40
0.5625
40
0.5625
40
0.59375
40
0.59375
40
0.625
40
0.625
40
0.6875
40
0.6875
40
0.71875
40
0.71875
40
0.75
40
0.75
40
0.8125
40
0.8125
40
0.84375
40
0.84375
40
0.875
40
0.875
40
0.9375
40
0.9375
40
1
40
1
40
1
40
1
41
1
10
5.1071
20
-3.50000000000006
30
0
41
1
10
5.44344996038214
20
-3.33117534219926
30
0
41
1
10
5.75846199410216
20
-3.13102098043237
30
0
41
1
10
6.19473368439637
20
-2.77757022133307
30
0
41
1
10
6.33458733316965
20
-2.65007983097684
30
0
41
1
10
6.59428509773875
20
-2.38145290223815
30
0
41
1
10
6.71489475389944
20
-2.23983300651054
30
0
41
1
10
6.93622161591449
20
-1.94086215481673
30
0
41
1
10
7.03697692214666
20
-1.7834901641437
30
0
41
1
10
7.21580804578753
20
-1.45101642558123
30
0
41
1
10
7.29160620152152
20
-1.28010381212027
30
0
41
1
10
7.41507248774599
20
-0.928619711770239
30
0
41
1
10
7.46275514909053
20
-0.748053214271636
30
0
41
1
10
7.51128664598406
20
-0.469308643960488
30
0
41
1
10
7.52346534928012
20
-0.375764479149808
30
0
41
1
10
7.53966181700741
20
-0.18944103850697
30
0
41
1
10
7.54373569278047
20
-0.0963514786042197
30
0
41
1
10
7.54402115818505
20
0.182703174811707
30
0
41
1
10
7.52834960337628
20
0.368455192684337
30
0
41
1
10
7.48064220359663
20
0.64664929016385
30
0
41
1
10
7.4606596119454
20
0.739217677035469
30
0
41
1
10
7.41349791208592
20
0.920728491862377
30
0
41
1
10
7.3862516901525
20
1.01012151656963
30
0
41
1
10
7.29397872866528
20
1.27438509664287
30
0
41
1
10
7.21846284588344
20
1.44535694068503
30
0
41
1
10
7.08510775939845
20
1.69435069914806
30
0
41
1
10
7.03739114081836
20
1.77586794252852
30
0
41
1
10
6.93689204865069
20
1.93418035735854
30
0
41
1
10
6.8839577117875
20
2.01126632509082
30
0
41
1
10
6.71753118015184
20
2.23664573827165
30
0
41
1
10
6.59644790723783
20
2.37908571039773
30
0
41
1
10
6.40064599385062
20
2.58181379392383
30
0
41
1
10
6.33288938423905
20
2.64764724849567
30
0
41
1
10
6.19433451505483
20
2.77431612796866
30
0
41
1
10
6.12336615402626
20
2.83534135794395
30
0
41
1
10
5.90566048591919
20
3.01186114008337
30
0
41
1
10
5.75414148580711
20
3.12082558426033
30
0
41
1
10
5.43924122832968
20
3.32255480854323
30
0
41
1
10
5.27541088554813
20
3.41551945591286
30
0
41
1
10
5.1071
20
3.50000000000011
30
0
0
SPLINE
5
316
100
AcDbEntity
8
1
62
256
6
ByLayer
370
13
48
1
60
0
100
AcDbSpline
70
4
71
3
72
8
73
4
40
0
40
0
40
0
40
0
40
1
40
1
40
1
40
1
41
1
10
117.752406938728
20
1.74134930364781
30
0
41
1
10
117.985857724295
20
1.66433139359796
30
0
41
1
10
118.219139427226
20
1.59260452797827
30
0
41
1
10
118.452199283591
20
1.52781983022257
30
0
0
SPLINE
5
317
100
AcDbEntity
8
1
62
256
6
ByLayer
370
13
48
1
60
0
100
AcDbSpline
70
4
71
3
72
14
73
10
40
0
40
0
40
0
40
0
40
0.25
40
0.25
40
0.5
40
0.5
40
0.75
40
0.75
40
1
40
1
40
1
40
1
41
1
10
122.82129336027
20
2.79078464390545
30
0
41
1
10
122.866257177854
20
2.7022612889011
30
0
41
1
10
122.917041632029
20
2.61881634379819
30
0
41
1
10
123.02749513243
20
2.46435135945706
30
0
41
1
10
123.08630173517
20
2.39440814817868
30
0
41
1
10
123.211009681052
20
2.26752856929863
30
0
41
1
10
123.277195762974
20
2.21041882861721
30
0
41
1
10
123.416271180094
20
2.11010708659214
30
0
41
1
10
123.488330564051
20
2.06742959294479
30
0
41
1
10
123.56325874243
20
2.03204989195098
30
0
0
SPLINE
5
318
100
AcDbEntity
8
1
62
256
6
ByLayer
370
13
48
1
60
0
100
AcDbSpline
70
4
71
3
72
34
73
30
40
0
40
0
40
0
40
0
40
0.0086692941812069
40
0.0086692941812069
40
0.0281071511580459
40
0.0281071511580459
40
0.0669828651117238
40
0.0669828651117238
40
0.105858579065402
40
0.105858579065402
40
0.125296436042241
40
0.125296436042241
40
0.14473429301908
40
0.14473429301908
40
0.164172149995919
40
0.164172149995919
40
0.183610006972758
40
0.183610006972758
40
0.222485720926436
40
0.222485720926436
40
0.300237148833792
40
0.300237148833792
40
0.377988576741149
40
0.377988576741149
40
0.533491432555862
40
0.533491432555862
40
0.688994288370574
40
0.688994288370574
40
1
40
1
40
1
40
1
41
1
10
102.14811267388
20
-4.24552193095116
30
0
41
1
10
101.910733959515
20
-4.26443574906932
30
0
41
1
10
101.673238104195
20
-4.28249316385472
30
0
41
1
10
100.902867667173
20
-4.33877908291748
30
0
41
1
10
100.369516864293
20
-4.37402621214653
30
0
41
1
10
98.76760719431
20
-4.46939773287141
30
0
41
1
10
97.6971786487156
20
-4.51918290788916
30
0
41
1
10
95.5506697706183
20
-4.59357084034187
30
0
41
1
10
94.4745936410854
20
-4.61811367256712
30
0
41
1
10
92.8565562549685
20
-4.64204002949009
30
0
41
1
10
92.3165780798946
20
-4.64789885963842
30
0
41
1
10
91.2353316665366
20
-4.65621357283172
30
0
41
1
10
90.6939611021356
20
-4.65851945572416
30
0
41
1
10
89.6090705825055
20
-4.65993147299241
30
0
41
1
10
89.0657791972528
20
-4.65949923482671
30
0
41
1
10
87.9793849103517
20
-4.65892585413917
30
0
41
1
10
87.4361675923867
20
-4.65850050756083
30
0
41
1
10
85.8065149345218
20
-4.6573143285413
30
0
41
1
10
84.7201178952654
20
-4.65688424037677
30
0
41
1
10
81.4609320627808
20
-4.65733331325188
30
0
41
1
10
79.2881418334873
20
-4.65917400684842
30
0
41
1
10
74.942560880706
20
-4.66120368474512
30
0
41
1
10
72.7697702533974
20
-4.66177195253815
30
0
41
1
10
66.2513980047402
20
-4.66215300179499
30
0
41
1
10
61.9058162543872
20
-4.66127111350704
30
0
41
1
10
53.2146530080479
20
-4.66094252703047
30
0
41
1
10
48.8690713769284
20
-4.66115832488205
30
0
41
1
10
35.8323264945744
20
-4.66119503495761
30
0
41
1
10
27.141163248486
20
-4.66071332622951
30
0
41
1
10
18.45
20
-4.66058824991507
30
0
0
SPLINE
5
319
100
AcDbEntity
8
1
62
256
6
ByLayer
370
13
48
1
60
0
100
AcDbSpline
70
4
71
3
72
12
73
8
40
0
40
0
40
0
40
0
40
0.25
40
0.25
40
0.5
40
0.5
40
1
40
1
40
1
40
1
41
1
10
129.371359804096
20
2.76531301386348
30
0
41
1
10
129.414562322678
20
2.76757716192179
30
0
41
1
10
129.458435392166
20
2.7727204943024
30
0
41
1
10
129.544912600706
20
2.78870727306912
30
0
41
1
10
129.587887982746
20
2.79958182919282
30
0
41
1
10
129.714679113844
20
2.84064810215128
30
0
41
1
10
129.796971319602
20
2.87909514386186
30
0
41
1
10
129.877814459813
20
2.93144041378594
30
0
0
SPLINE
5
31A
100
AcDbEntity
8
1
62
256
6
ByLayer
370
13
48
1
60
0
100
AcDbSpline
70
4
71
3
72
52
73
48
40
0
40
0
40
0
40
0
40
0.0008269076054739
40
0.0008269076054739
40
0.0180540298881379
40
0.0180540298881379
40
0.0352811521708019
40
0.0352811521708019
40
0.052508274453466
40
0.052508274453466
40
0.06973539673613
40
0.06973539673613
40
0.086962519018794
40
0.086962519018794
40
0.104189641301458
40
0.104189641301458
40
0.138643885866786
40
0.138643885866786
40
0.173098130432114
40
0.173098130432114
40
0.190325252714778
40
0.190325252714778
40
0.207552374997442
40
0.207552374997442
40
0.216165936138774
40
0.216165936138774
40
0.224779497280106
40
0.224779497280106
40
0.233393058421438
40
0.233393058421438
40
0.24200661956277
40
0.24200661956277
40
0.259233741845434
40
0.259233741845434
40
0.276460864128098
40
0.276460864128098
40
0.310915108693427
40
0.310915108693427
40
0.345369353258755
40
0.345369353258755
40
0.379823597824084
40
0.379823597824084
40
0.448732086954741
40
0.448732086954741
40
0.72436604347737
40
0.72436604347737
40
1
40
1
40
1
40
1
41
1
10
109.898884098833
20
-6.14202722590167
30
0
41
1
10
109.875457464957
20
-6.1473055447006
30
0
41
1
10
109.85203019328
20
-6.15256638852483
30
0
41
1
10
109.340522932964
20
-6.2670411447744
30
0
41
1
10
108.85212277672
20
-6.36835627140124
30
0
41
1
10
107.872625313746
20
-6.54867671211093
30
0
41
1
10
107.381353611999
20
-6.62765165893808
30
0
41
1
10
106.3925822341
20
-6.77429247502587
30
0
41
1
10
105.89562695938
20
-6.84257589372464
30
0
41
1
10
104.897870700857
20
-6.96268068565354
30
0
41
1
10
104.396753415849
20
-7.01379666724671
30
0
41
1
10
103.389700964747
20
-7.09733861151267
30
0
41
1
10
102.88383369461
20
-7.13050246163644
30
0
41
1
10
101.867793349995
20
-7.18505911918814
30
0
41
1
10
101.357664800104
20
-7.2066891126085
30
0
41
1
10
99.8213107016927
20
-7.25968826009358
30
0
41
1
10
98.787333436623
20
-7.2779192272626
30
0
41
1
10
96.7115686378564
20
-7.29838130802455
30
0
41
1
10
95.6689049400383
20
-7.30160090326288
30
0
41
1
10
94.0975965318045
20
-7.29798097340074
30
0
41
1
10
93.5726038245622
20
-7.29533924332398
30
0
41
1
10
92.5201110172087
20
-7.28725526816612
30
0
41
1
10
91.9926052335813
20
-7.28117120679408
30
0
41
1
10
91.19941325605
20
-7.27231749291585
30
0
41
1
10
90.9349922762584
20
-7.26973671451296
30
0
41
1
10
90.4060982126343
20
-7.26772000382195
30
0
41
1
10
90.1416234952318
20
-7.26878283087387
30
0
41
1
10
89.6126295581008
20
-7.27270268069955
30
0
41
1
10
89.3481115311073
20
-7.27533547774672
30
0
41
1
10
88.8190548632618
20
-7.27939110967381
30
0
41
1
10
88.5545169639282
20
-7.28057248954613
30
0
41
1
10
87.7608947882025
20
-7.28143688877088
30
0
41
1
10
87.2317991471701
20
-7.27930724385837
30
0
41
1
10
86.1736080058046
20
-7.27532111048947
30
0
41
1
10
85.6445131131713
20
-7.27358539172187
30
0
41
1
10
84.0572332292848
20
-7.26966719425292
30
0
41
1
10
82.9990535589708
20
-7.26883322076583
30
0
41
1
10
80.8826913788774
20
-7.268769129698
30
0
41
1
10
79.8245105567182
20
-7.2695389836251
30
0
41
1
10
77.7081486413671
20
-7.27074208880876
30
0
41
1
10
76.6499674617468
20
-7.2710432788613
30
0
41
1
10
73.4754237206529
20
-7.27134486539234
30
0
41
1
10
71.3590613372872
20
-7.27099826956325
30
0
41
1
10
60.7772492324765
20
-7.27105271876835
30
0
41
1
10
52.3117995279055
20
-7.2693475684718
30
0
41
1
10
35.3808996968436
20
-7.26926230804082
30
0
41
1
10
26.9154500172742
20
-7.27115327643526
30
0
41
1
10
18.45
20
-7.27132440719674
30
0
0
SPLINE
5
31B
100
AcDbEntity
8
1
62
256
6
ByLayer
370
13
48
1
60
0
100
AcDbSpline
70
4
71
3
72
24
73
20
40
0
40
0
40
0
40
0
40
0.205274819718495
40
0.205274819718495
40
0.410549639436989
40
0.410549639436989
40
0.513187049296238
40
0.513187049296238
40
0.615824459155486
40
0.615824459155486
40
0.821099278873983
40
0.821099278873983
40
0.872417983803607
40
0.872417983803607
40
0.923736688733231
40
0.923736688733231
40
0.975055393662855
40
0.975055393662855
40
1
40
1
40
1
40
1
41
1
10
120.916104327414
20
7.2021579615498
30
0
41
1
10
119.915627111477
20
7.30008772570747
30
0
41
1
10
118.917677754322
20
7.36048234520803
30
0
41
1
10
116.922557027598
20
7.40717794381254
30
0
41
1
10
115.925423979925
20
7.3934117919404
30
0
41
1
10
114.426761131955
20
7.31491605945689
30
0
41
1
10
113.926324821936
20
7.27911890673445
30
0
41
1
10
112.925576932369
20
7.18877701727982
30
0
41
1
10
112.425855801585
20
7.13430382813351
30
0
41
1
10
110.927705777072
20
6.94389579435784
30
0
41
1
10
109.930270198244
20
6.78053858563035
30
0
41
1
10
108.68231356703
20
6.53530195588644
30
0
41
1
10
108.432663611228
20
6.48440485093204
30
0
41
1
10
107.933238376886
20
6.37992886983173
30
0
41
1
10
107.683536266441
20
6.32653998209688
30
0
41
1
10
107.183669838709
20
6.21694636028104
30
0
41
1
10
106.9333979188
20
6.16042101948432
30
0
41
1
10
106.559974517587
20
6.07249297042915
30
0
41
1
10
106.437651743175
20
6.04319034235243
30
0
41
1
10
106.315218322345
20
6.01347873439155
30
0
0
SPLINE
5
31C
100
AcDbEntity
8
1
62
256
6
ByLayer
370
13
48
1
60
0
100
AcDbSpline
70
4
71
3
72
14
73
10
40
0
40
0
40
0
40
0
40
0.25
40
0.25
40
0.5
40
0.5
40
0.75
40
0.75
40
1
40
1
40
1
40
1
41
1
10
120.673682338821
20
3.03053988524007
30
0
41
1
10
120.686044458678
20
3.06335476574895
30
0
41
1
10
120.697598794892
20
3.10099034361656
30
0
41
1
10
120.719233065449
20
3.18065636541357
30
0
41
1
10
120.729574702491
20
3.22373986291021
30
0
41
1
10
120.749561844147
20
3.31157160288052
30
0
41
1
10
120.759212797219
20
3.35658755928458
30
0
41
1
10
120.779682864898
20
3.44532601277717
30
0
41
1
10
120.789853096435
20
3.48861537036697
30
0
41
1
10
120.804788199941
20
3.52860898829272
30
0
0
SPLINE
5
31D
100
AcDbEntity
8
1
62
256
6
ByLayer
370
13
48
1
60
0
100
AcDbSpline
70
4
71
3
72
16
73
12
40
0
40
0
40
0
40
0
40
0.0738074168581089
40
0.0738074168581089
40
0.189581489750845
40
0.189581489750845
40
0.305355562643582
40
0.305355562643582
40
0.536903708429055
40
0.536903708429055
40
1
40
1
40
1
40
1
41
1
10
6.9821236522682
20
-6.80857603221105
30
0
41
1
10
6.93121172559302
20
-6.88949818956195
30
0
41
1
10
6.88162990267776
20
-6.97121222512286
30
0
41
1
10
6.75772675306732
20
-7.18315077469595
30
0
41
1
10
6.68529051102402
20
-7.31485274837678
30
0
41
1
10
6.54883355123604
20
-7.5796832060463
30
0
41
1
10
6.48464205756437
20
-7.71310868195883
30
0
41
1
10
6.30367053375014
20
-8.11626671177314
30
0
41
1
10
6.19845818646527
20
-8.38887218509237
30
0
41
1
10
5.92637525871567
20
-9.21725802796334
30
0
41
1
10
5.8023874100295
20
-9.78346646164897
30
0
41
1
10
5.73568370595203
20
-10.3627014032404
30
0
0
SPLINE
5
31E
100
AcDbEntity
8
1
62
256
6
ByLayer
370
13
48
1
60
0
100
AcDbSpline
70
4
71
3
72
18
73
14
40
0
40
0
40
0
40
0
40
0.249999999999967
40
0.249999999999967
40
0.374999999999951
40
0.374999999999951
40
0.499999999999935
40
0.499999999999935
40
0.749999999999968
40
0.749999999999968
40
0.874999999999984
40
0.874999999999984
40
1
40
1
40
1
40
1
41
1
10
126.674059401237
20
2.62395348969036
30
0
41
1
10
126.668738851412
20
2.62367465150351
30
0
41
1
10
126.670002795644
20
2.63393310365623
30
0
41
1
10
126.685267891323
20
2.66235143453693
30
0
41
1
10
126.692626545801
20
2.67385594331404
30
0
41
1
10
126.712568805001
20
2.69935430289601
30
0
41
1
10
126.725419885775
20
2.71359908779184
30
0
41
1
10
126.771503147389
20
2.75606609653289
30
0
41
1
10
126.813690841458
20
2.78475883564988
30
0
41
1
10
126.886979806851
20
2.81594410451564
30
0
41
1
10
126.913491920635
20
2.8246220867878
30
0
41
1
10
126.967636643404
20
2.83710362483348
30
0
41
1
10
126.995501966767
20
2.841058447184
30
0
41
1
10
127.024170311097
20
2.84257645779425
30
0
0
SPLINE
5
31F
100
AcDbEntity
8
1
62
256
6
ByLayer
370
13
48
1
60
0
100
AcDbSpline
70
4
71
3
72
10
73
6
40
0
40
0
40
0
40
0
40
0.5
40
0.5
40
1
40
1
40
1
40
1
41
1
10
121.35621305352
20
3.55512702343847
30
0
41
1
10
121.392163056576
20
3.56495426836594
30
0
41
1
10
121.428404132167
20
3.57395798545104
30
0
41
1
10
121.501916493829
20
3.58905065812763
30
0
41
1
10
121.539178705672
20
3.59526808315377
30
0
41
1
10
121.577020075406
20
3.59810833430555
30
0
0
SPLINE
5
320
100
AcDbEntity
8
1
62
256
6
ByLayer
370
13
48
1
60
0
100
AcDbSpline
70
4
71
3
72
24
73
20
40
0
40
0
40
0
40
0
40
0.0625000000000009
40
0.0625000000000009
40
0.125000000000001
40
0.125000000000001
40
0.250000000000002
40
0.250000000000002
40
0.312500000000002
40
0.312500000000002
40
0.343750000000003
40
0.343750000000003
40
0.375000000000003
40
0.375000000000003
40
0.500000000000002
40
0.500000000000002
40
0.750000000000001
40
0.750000000000001
40
1
40
1
40
1
40
1
41
1
10
16.2914794770138
20
-3.12765281977599
30
0
41
1
10
16.1205681573823
20
-3.15898486743083
30
0
41
1
10
15.9507863711098
20
-3.19500694316309
30
0
41
1
10
15.6134962767445
20
-3.2764909897945
30
0
41
1
10
15.4458997536565
20
-3.32202919320008
30
0
41
1
10
14.9544459747235
20
-3.47042237791817
30
0
41
1
10
14.6391041514771
20
-3.5855974773377
30
0
41
1
10
14.1835190481981
20
-3.78139038692075
30
0
41
1
10
14.0345744294844
20
-3.85050955510994
30
0
41
1
10
13.8155135712325
20
-3.95994476500269
30
0
41
1
10
13.7432200155648
20
-3.99738352775472
30
0
41
1
10
13.6000918081697
20
-4.07418896512371
30
0
41
1
10
13.528731751531
20
-4.11286464910734
30
0
41
1
10
13.1692349206253
20
-4.30264457463608
30
0
41
1
10
12.87687795751
20
-4.44773746502923
30
0
41
1
10
11.9859774344819
20
-4.86345778182655
30
0
41
1
10
11.3736549213756
20
-5.11459852797796
30
0
41
1
10
10.1131715795159
20
-5.5661962137537
30
0
41
1
10
9.46500448233377
20
-5.76664428834536
30
0
41
1
10
8.79858698235643
20
-5.94128200138368
30
0
0
SPLINE
5
321
100
AcDbEntity
8
1
62
256
6
ByLayer
370
13
48
1
60
0
100
AcDbSpline
70
4
71
3
72
30
73
26
40
0
40
0
40
0
40
0
40
0.125000000000008
40
0.125000000000008
40
0.250000000000015
40
0.250000000000015
40
0.312500000000019
40
0.312500000000019
40
0.375000000000023
40
0.375000000000023
40
0.500000000000022
40
0.500000000000022
40
0.562500000000022
40
0.562500000000022
40
0.625000000000022
40
0.625000000000022
40
0.687500000000021
40
0.687500000000021
40
0.750000000000021
40
0.750000000000021
40
0.87500000000001
40
0.87500000000001
40
0.937500000000005
40
0.937500000000005
40
1
40
1
40
1
40
1
41
1
10
122.355487872962
20
0.680886429738763
30
0
41
1
10
122.562492390966
20
0.655065212894243
30
0
41
1
10
122.771945655256
20
0.634452628699108
30
0
41
1
10
123.197114548843
20
0.6071728779132
30
0
41
1
10
123.409321887812
20
0.600743995412245
30
0
41
1
10
123.726939426751
20
0.604361080017384
30
0
41
1
10
123.832696022864
20
0.60778331786716
30
0
41
1
10
124.043949029443
20
0.619603020084725
30
0
41
1
10
124.149890018467
20
0.628049713247265
30
0
41
1
10
124.463854455663
20
0.661513871040853
30
0
41
1
10
124.666806317117
20
0.69434919626795
30
0
41
1
10
124.960088489962
20
0.762054825386457
30
0
41
1
10
125.056082782307
20
0.787745776254269
30
0
41
1
10
125.243466214024
20
0.845942817448076
30
0
41
1
10
125.333204256318
20
0.87793288227266
30
0
41
1
10
125.504553180939
20
0.947856861888624
30
0
41
1
10
125.586166631998
20
0.985788898022804
30
0
41
1
10
125.74078378506
20
1.06794976484707
30
0
41
1
10
125.814286033581
20
1.11256643413446
30
0
41
1
10
126.015497979896
20
1.25295927759024
30
0
41
1
10
126.125189281057
20
1.35535040821185
30
0
41
1
10
126.252461937849
20
1.52234295780355
30
0
41
1
10
126.288364292097
20
1.58012549557142
30
0
41
1
10
126.345631049528
20
1.69660025688202
30
0
41
1
10
126.367346197308
20
1.75572188305108
30
0
41
1
10
126.382403611741
20
1.81569445954213
30
0
0
SPLINE
5
322
100
AcDbEntity
8
1
62
256
6
ByLayer
370
13
48
1
60
0
100
AcDbSpline
70
4
71
3
72
16
73
12
40
0
40
0
40
0
40
0
40
0.249999999999998
40
0.249999999999998
40
0.374999999999996
40
0.374999999999996
40
0.499999999999995
40
0.499999999999995
40
0.749999999999997
40
0.749999999999997
40
1
40
1
40
1
40
1
41
1
10
16.2914794770138
20
-3.12765281977599
30
0
41
1
10
16.4155544940784
20
-3.04178219508216
30
0
41
1
10
16.54578722202
20
-2.96532101743844
30
0
41
1
10
16.7505253540083
20
-2.86512717661097
30
0
41
1
10
16.8205007769792
20
-2.8341163118445
30
0
41
1
10
16.9614284956752
20
-2.77794828205904
30
0
41
1
10
17.0326278658179
20
-2.75265577280302
30
0
41
1
10
17.2483977174697
20
-2.68500776241393
30
0
41
1
10
17.3951280127293
20
-2.65083578219679
30
0
41
1
10
17.6944622738417
20
-2.60470004085676
30
0
41
1
10
17.8473479854658
20
-2.59287104320191
30
0
41
1
10
18
20
-2.59283698898079
30
0
0
SPLINE
5
323
100
AcDbEntity
8
1
62
256
6
ByLayer
370
13
48
1
60
0
100
AcDbSpline
70
4
71
3
72
8
73
4
40
0
40
0
40
0
40
0
40
1
40
1
40
1
40
1
41
1
10
131.76806197223
20
-0.723531325956174
30
0
41
1
10
131.838389457509
20
-1.1182647031348
30
0
41
1
10
131.853326872367
20
-1.51029505845992
30
0
41
1
10
131.819395067315
20
-1.89917170877979
30
0
0
SPLINE
5
324
100
AcDbEntity
8
1
62
256
6
ByLayer
370
13
48
1
60
0
100
AcDbSpline
70
4
71
1
72
4
73
2
40
0
40
0
40
1
40
1
41
1
10
18.0100000005723
20
-7.27124646421299
30
0
41
1
10
18.0099999994277
20
-7.28505578510604
30
0
0
SPLINE
5
325
100
AcDbEntity
8
1
62
256
6
ByLayer
370
13
48
1
60
0
100
AcDbSpline
70
4
71
3
72
14
73
10
40
0
40
0
40
0
40
0
40
0.25
40
0.25
40
0.5
40
0.5
40
0.75
40
0.75
40
1
40
1
40
1
40
1
41
1
10
131.945594428224
20
2.54974261276826
30
0
41
1
10
131.862481872505
20
2.54538686829247
30
0
41
1
10
131.780512852997
20
2.55010486540701
30
0
41
1
10
131.619683802073
20
2.5751688710078
30
0
41
1
10
131.544045194701
20
2.5948832979231
30
0
41
1
10
131.398231942066
20
2.64717047034463
30
0
41
1
10
131.328019592382
20
2.68000928832546
30
0
41
1
10
131.195924475243
20
2.75754931822746
30
0
41
1
10
131.13334543508
20
2.80251303985503
30
0
41
1
10
131.074507486924
20
2.85457120088151
30
0
0
SPLINE
5
326
100
AcDbEntity
8
1
62
256
6
ByLayer
370
13
48
1
60
0
100
AcDbSpline
70
4
71
3
72
10
73
6
40
0
40
0
40
0
40
0
40
0.5
40
0.5
40
1
40
1
40
1
40
1
41
1
10
128.197735375983
20
2.70380596387372
30
0
41
1
10
127.948341867425
20
2.69073580392259
30
0
41
1
10
127.698562246096
20
2.67764540865855
30
0
41
1
10
127.198487303366
20
2.65143759143501
30
0
41
1
10
126.948201747381
20
2.63832068125919
30
0
41
1
10
126.697952855921
20
2.62520569258976
30
0
0
SPLINE
5
327
100
AcDbEntity
8
1
62
256
6
ByLayer
370
13
48
1
60
0
100
AcDbSpline
70
4
71
3
72
8
73
4
40
0
40
0
40
0
40
0
40
1
40
1
40
1
40
1
41
1
10
120.900298141324
20
3.56662477346208
30
0
41
1
10
121.023698818886
20
4.61491050468615
30
0
41
1
10
121.139650128401
20
5.65956868097609
30
0
41
1
10
121.244585019239
20
6.70217847602231
30
0
0
SPLINE
5
328
100
AcDbEntity
8
1
62
256
6
ByLayer
370
13
48
1
60
0
100
AcDbSpline
70
4
71
3
72
8
73
4
40
0
40
0
40
0
40
0
40
1
40
1
40
1
40
1
41
1
10
126.688348221182
20
2.62470233665573
30
0
41
1
10
126.669952230538
20
2.59614855880179
30
0
41
1
10
126.654703069818
20
2.56553694381057
30
0
41
1
10
126.643152940947
20
2.53433436275941
30
0
0
SPLINE
5
329
100
AcDbEntity
8
1
62
256
6
ByLayer
370
13
48
1
60
0
100
AcDbSpline
70
4
71
3
72
10
73
6
40
0
40
0
40
0
40
0
40
0.5
40
0.5
40
1
40
1
40
1
40
1
41
1
10
129.877814459813
20
2.93144041378594
30
0
41
1
10
129.90885803874
20
2.95154087641163
30
0
41
1
10
129.94419329175
20
2.96871610404079
30
0
41
1
10
130.022703539321
20
2.99417522457415
30
0
41
1
10
130.063812800307
20
3.00185409084051
30
0
41
1
10
130.106686596605
20
3.00412429092159
30
0
0
SPLINE
5
32A
100
AcDbEntity
8
1
62
256
6
ByLayer
370
13
48
1
60
0
100
AcDbSpline
70
4
71
3
72
18
73
14
40
0
40
0
40
0
40
0
40
0.125
40
0.125
40
0.25
40
0.25
40
0.375
40
0.375
40
0.5
40
0.5
40
0.75
40
0.75
40
1
40
1
40
1
40
1
41
1
10
121.268008573667
20
3.54003820021276
30
0
41
1
10
121.350678250688
20
3.50165869673518
30
0
41
1
10
121.430546726879
20
3.45788466800534
30
0
41
1
10
121.58376802733
20
3.35993179586629
30
0
41
1
10
121.65514871939
20
3.30708169126512
30
0
41
1
10
121.788650819488
20
3.19533224018278
30
0
41
1
10
121.850788670444
20
3.13646518140544
30
0
41
1
10
121.9665545975
20
3.01384976425919
30
0
41
1
10
122.020426608717
20
2.9496990459393
30
0
41
1
10
122.16477031832
20
2.75553168973363
30
0
41
1
10
122.239794898513
20
2.62209920195164
30
0
41
1
10
122.344878444514
20
2.34304453495025
30
0
41
1
10
122.372910067733
20
2.20402132873363
30
0
41
1
10
122.376509061604
20
2.06468791523389
30
0
0
SPLINE
5
32B
100
AcDbEntity
8
1
62
256
6
ByLayer
370
13
48
1
60
0
100
AcDbSpline
70
4
71
3
72
8
73
4
40
0
40
0
40
0
40
0
40
1
40
1
40
1
40
1
41
1
10
123.254070615451
20
-7.74153178451709
30
0
41
1
10
122.920439732448
20
-7.73270443883681
30
0
41
1
10
122.586808849448
20
-7.7238770930573
30
0
41
1
10
122.253177966451
20
-7.71504974717755
30
0
0
SPLINE
5
32C
100
AcDbEntity
8
1
62
256
6
ByLayer
370
13
48
1
60
0
100
AcDbSpline
70
4
71
3
72
30
73
26
40
0
40
0
40
0
40
0
40
0.0119547131991091
40
0.156223374943629
40
0.320738263357552
40
0.505528809745535
40
0.522851452844302
40
0.541131692985982
40
0.560372266064328
40
0.580575740131378
40
0.6017444900206
40
0.623880666916672
40
0.646986163438804
40
0.671062574688281
40
0.696111155646734
40
0.722132775284922
40
0.749127867742728
40
0.777096380963517
40
0.806037723205461
40
0.835950707906064
40
0.86683349744165
40
0.898683546399271
40
0.931497545063047
40
0.965271363908914
40
1
40
1
40
1
40
1
41
1
10
17.0731271978777
20
-2.78660646792704
30
0
41
1
10
17.0755764426724
20
-2.79393500540894
30
0
41
1
10
17.1078252349756
20
-2.8899086558381
30
0
41
1
10
17.180465483117
20
-3.09233304996357
30
0
41
1
10
17.3126971684612
20
-3.41415316434205
30
0
41
1
10
17.4258542451537
20
-3.65583843189054
30
0
41
1
10
17.4970551083962
20
-3.7993005982529
30
0
41
1
10
17.5148743676814
20
-3.83494947709806
30
0
41
1
10
17.5337753652711
20
-3.87237584394694
30
0
41
1
10
17.5537894927091
20
-3.91155071763745
30
0
41
1
10
17.5749518382766
20
-3.95243484206966
30
0
41
1
10
17.5972933198984
20
-3.99498472588729
30
0
41
1
10
17.6208421619829
20
-4.03915028004968
30
0
41
1
10
17.6456226303802
20
-4.08487487231861
30
0
41
1
10
17.6716545073247
20
-4.13209468630996
30
0
41
1
10
17.6989523087808
20
-4.18073828857567
30
0
41
1
10
17.7275245311004
20
-4.23072613281781
30
0
41
1
10
17.757372853782
20
-4.28197015595714
30
0
41
1
10
17.7884913035324
20
-4.33437314862948
30
0
41
1
10
17.8208654634584
20
-4.3878290983134
30
0
41
1
10
17.8544713983652
20
-4.44221985426611
30
0
41
1
10
17.8892756202874
20
-4.49742635315997
30
0
41
1
10
17.9252309486388
20
-4.55328312193274
30
0
41
1
10
17.9622883937048
20
-4.60975438732589
30
0
41
1
10
17.9873131956817
20
-4.64690039942354
30
0
41
1
10
18
20
-4.66573228417221
30
0
0
SPLINE
5
32D
100
AcDbEntity
8
1
62
256
6
ByLayer
370
13
48
1
60
0
100
AcDbSpline
70
4
71
3
72
10
73
6
40
0
40
0
40
0
40
0
40
0.5
40
0.5
40
1
40
1
40
1
40
1
41
1
10
127.521618694176
20
2.86864665924355
30
0
41
1
10
127.564542188211
20
2.87089618424503
30
0
41
1
10
127.607090509904
20
2.86759828372948
30
0
41
1
10
127.691141215661
20
2.85064083807137
30
0
41
1
10
127.73044018849
20
2.83739563290331
30
0
41
1
10
127.766999383691
20
2.82081728316922
30
0
0
SPLINE
5
32E
100
AcDbEntity
8
1
62
256
6
ByLayer
370
13
48
1
60
0
100
AcDbSpline
70
4
71
3
72
8
73
4
40
0
40
0
40
0
40
0
40
1
40
1
40
1
40
1
41
1
10
113.990378799992
20
3.33495665067599
30
0
41
1
10
115.477895122841
20
2.76342843218873
30
0
41
1
10
116.96574173085
20
2.15513404659967
30
0
41
1
10
118.452199283591
20
1.52781983022254
30
0
0
SPLINE
5
32F
100
AcDbEntity
8
1
62
256
6
ByLayer
370
13
48
1
60
0
100
AcDbSpline
70
4
71
1
72
4
73
2
40
0
40
0
40
1
40
1
41
1
10
18.45
20
-4.66058824995162
30
0
41
1
10
18.01
20
-4.66058824995162
30
0
0
SPLINE
5
330
100
AcDbEntity
8
1
62
256
6
ByLayer
370
13
48
1
60
0
100
AcDbSpline
70
4
71
3
72
8
73
4
40
0
40
0
40
0
40
0
40
1
40
1
40
1
40
1
41
1
10
126.249771340831
20
2.18290674684243
30
0
41
1
10
126.2457247003
20
2.17691480334864
30
0
41
1
10
126.242333468561
20
2.1717062896999
30
0
41
1
10
126.239751446148
20
2.16738987947636
30
0
0
SPLINE
5
331
100
AcDbEntity
8
1
62
256
6
ByLayer
370
13
48
1
60
0
100
AcDbSpline
70
4
71
3
72
12
73
8
40
0
40
0
40
0
40
0
40
0.186307396147626
40
0.186307396147626
40
0.593153698073813
40
0.593153698073813
40
1
40
1
40
1
40
1
41
1
10
126.236068122758
20
2.15272918558
30
0
41
1
10
126.237594863452
20
2.15273896513705
30
0
41
1
10
126.23999152073
20
2.15364549109572
30
0
41
1
10
126.250280693852
20
2.15934644524879
30
0
41
1
10
126.261253340525
20
2.1673709767243
30
0
41
1
10
126.288851699809
20
2.19079061231207
30
0
41
1
10
126.305051634728
20
2.20582299697847
30
0
41
1
10
126.32278499282
20
2.22405902644135
30
0
0
SPLINE
5
332
100
AcDbEntity
8
1
62
256
6
ByLayer
370
18
48
1
60
0
100
AcDbSpline
70
4
71
3
72
8
73
4
40
0
40
0
40
0
40
0
40
1
40
1
40
1
40
1
41
1
10
128.930592483848
20
-1.68672040633541
30
0
41
1
10
128.940657585725
20
-1.66097058856266
30
0
41
1
10
128.951806189908
20
-1.63556907801887
30
0
41
1
10
128.963901958056
20
-1.61060512764388
30
0
0
SPLINE
5
333
100
AcDbEntity
8
1
62
256
6
ByLayer
370
13
48
1
60
0
100
AcDbSpline
70
4
71
2
72
6
73
3
40
0
40
0
40
0
40
1
40
1
40
1
41
1
10
113.997235980609
20
3.33227658155451
30
0
41
1
10
113.94048451611
20
3.3539076503867
30
0
41
1
10
113.883749504489
20
3.376965123573
30
0
0
SPLINE
5
334
100
AcDbEntity
8
1
62
256
6
ByLayer
370
13
48
1
60
0
100
AcDbSpline
70
4
71
3
72
15
73
11
40
0
40
0
40
0
40
0
40
0.186140225446467
40
0.373533700381007
40
0.560580318767399
40
0.648232254360674
40
0.735586045307737
40
0.823983161520651
40
0.912496919500528
40
1
40
1
40
1
40
1
41
1
10
5.1071
20
-12.5
30
0
41
1
10
5.96489861087844
20
-12.3789627513989
30
0
41
1
10
7.65442231131385
20
-12.0287502691914
30
0
41
1
10
10.11059846723
20
-11.1702625132859
30
0
41
1
10
12.0287472835247
20
-10.2114912184453
30
0
41
1
10
13.4372855168543
20
-9.30705876928576
30
0
41
1
10
14.4515022380099
20
-8.62661393967707
30
0
41
1
10
15.5878008537703
20
-8.15760598452275
30
0
41
1
10
16.7812729643991
20
-7.86413420740686
30
0
41
1
10
17.59151602838
20
-7.80040629554262
30
0
41
1
10
18
20
-7.80000000000001
30
0
0
SPLINE
5
335
100
AcDbEntity
8
1
62
256
6
ByLayer
370
13
48
1
60
0
100
AcDbSpline
70
4
71
3
72
15
73
11
40
0
40
0
40
0
40
0
40
0.111523840349765
40
0.22418665215655
40
0.335682404816844
40
0.447200635805065
40
0.559392317086185
40
0.70673059133518
40
0.853857497515536
40
1
40
1
40
1
40
1
41
1
10
18
20
7.79999999999998
30
0
41
1
10
17.4764066364811
20
7.80107107425658
30
0
41
1
10
16.4498884273245
20
7.90748305384793
30
0
41
1
10
14.9470768388112
20
8.36611338116498
30
0
41
1
10
13.6102824529615
20
9.16739418288859
30
0
41
1
10
12.3251798595914
20
10.0338119907761
30
0
41
1
10
10.8002792109428
20
10.8278987312424
30
0
41
1
10
9.06525234200953
20
11.5587848660016
30
0
41
1
10
7.10928024368812
20
12.1483179751957
30
0
41
1
10
5.77893105856816
20
12.4053973889514
30
0
41
1
10
5.10710000000003
20
12.5
30
0
0
SPLINE
5
336
100
AcDbEntity
8
1
62
256
6
ByLayer
370
13
48
1
60
0
100
AcDbSpline
70
4
71
1
72
4
73
2
40
0
40
0
40
1
40
1
41
1
10
132.495037457822
20
2.6516372961901
30
0
41
1
10
132.567782605399
20
2.71540299082884
30
0
0
SPLINE
5
337
100
AcDbEntity
8
1
62
256
6
ByLayer
370
13
48
1
60
0
100
AcDbSpline
70
4
71
1
72
4
73
2
40
0
40
0
40
1
40
1
41
1
10
124.915352568078
20
2.31435612645401
30
0
41
1
10
124.994364540195
20
2.25854368544873
30
0
0
LINE
5
7F
100
AcDbEntity
8
1
62
256
6
ByLayer
370
13
48
1
60
0
100
AcDbLine
10
126.084734
20
7.04163
30
0
11
125.804578
21
4.900961
31
0
39
0
210
0
220
0
230
1
0
LINE
5
80
100
AcDbEntity
8
1
62
256
6
ByLayer
370
13
48
1
60
0
100
AcDbLine
10
124.781114
20
6.917901
30
0
11
124.734311
21
7.23175
31
0
39
0
210
0
220
0
230
1
0
LINE
5
81
100
AcDbEntity
8
1
62
256
6
ByLayer
370
13
48
1
60
0
100
AcDbLine
10
124.748328
20
2.866369
30
0
11
124.773643
21
2.828656
31
0
39
0
210
0
220
0
230
1
0
LINE
5
82
100
AcDbEntity
8
1
62
256
6
ByLayer
370
13
48
1
60
0
100
AcDbLine
10
124.320099
20
4.656111
30
0
11
124.748328
21
2.866369
31
0
39
0
210
0
220
0
230
1
0
LINE
5
83
100
AcDbEntity
8
1
62
256
6
ByLayer
370
13
48
1
60
0
100
AcDbLine
10
125.00708
20
7.043227
30
0
11
125.891982
21
7.175848
31
0
39
0
210
0
220
0
230
1
0
LINE
5
84
100
AcDbEntity
8
1
62
256
6
ByLayer
370
13
48
1
60
0
100
AcDbLine
10
126.031875
20
2.774513
30
0
11
125.72628
21
4.709533
31
0
39
0
210
0
220
0
230
1
0
LINE
5
85
100
AcDbEntity
8
1
62
256
6
ByLayer
370
13
48
1
60
0
100
AcDbLine
10
131.71328
20
2.593872
30
0
11
131.626127
21
2.589304
31
0
39
0
210
0
220
0
230
1
0
LINE
5
86
100
AcDbEntity
8
1
62
256
6
ByLayer
370
13
48
1
60
0
100
AcDbLine
10
126.000835
20
7.063627
30
0
11
125.719004
21
4.910162
31
0
39
0
210
0
220
0
230
1
0
LINE
5
87
100
AcDbEntity
8
1
62
256
6
ByLayer
370
13
48
1
60
0
100
AcDbLine
10
132.525424
20
2.704308
30
0
11
132.517873
21
2.73098
31
0
39
0
210
0
220
0
230
1
0
LINE
5
88
100
AcDbEntity
8
1
62
256
6
ByLayer
370
13
48
1
60
0
100
AcDbLine
10
125.533171
20
2.406858
30
0
11
125.605016
21
2.409992
31
0
39
0
210
0
220
0
230
1
0
LINE
5
89
100
AcDbEntity
8
1
62
256
6
ByLayer
370
13
48
1
60
0
100
AcDbLine
10
132.492503
20
7.690238
30
0
11
132.487891
21
7.689996
31
0
39
0
210
0
220
0
230
1
0
LINE
5
8A
100
AcDbEntity
8
1
62
256
6
ByLayer
370
13
48
1
60
0
100
AcDbLine
10
124.512223
20
4.736896
30
0
11
124.866458
21
2.493893
31
0
39
0
210
0
220
0
230
1
0
LINE
5
8B
100
AcDbEntity
8
1
62
256
6
ByLayer
370
13
48
1
60
0
100
AcDbLine
10
125.783781
20
2.345223
30
0
11
125.779169
21
2.344981
31
0
39
0
210
0
220
0
230
1
0
LINE
5
8C
100
AcDbEntity
8
1
62
256
6
ByLayer
370
13
48
1
60
0
100
AcDbLine
10
125.55708
20
4.929049
30
0
11
125.830302
21
7.016732
31
0
39
0
210
0
220
0
230
1
0
LINE
5
8D
100
AcDbEntity
8
1
62
256
6
ByLayer
370
13
48
1
60
0
100
AcDbLine
10
124.417154
20
4.734227
30
0
11
124.836427
21
2.49305
31
0
39
0
210
0
220
0
230
1
0
LINE
5
8E
100
AcDbEntity
8
1
62
256
6
ByLayer
370
13
48
1
60
0
100
AcDbLine
10
125.830302
20
7.016732
30
0
11
125.010741
21
6.893905
31
0
39
0
210
0
220
0
230
1
0
LINE
5
8F
100
AcDbEntity
8
1
62
256
6
ByLayer
370
13
48
1
60
0
100
AcDbLine
10
132.843267
20
5.360905
30
0
11
132.571591
21
3.285026
31
0
39
0
210
0
220
0
230
1
0
LINE
5
90
100
AcDbEntity
8
1
62
256
6
ByLayer
370
13
48
1
60
0
100
AcDbLine
10
125.721667
20
4.709292
30
0
11
126.040849
21
2.688248
31
0
39
0
210
0
220
0
230
1
0
LINE
5
91
100
AcDbEntity
8
1
62
256
6
ByLayer
370
13
48
1
60
0
100
AcDbLine
10
132.445614
20
3.156282
30
0
11
131.560711
21
3.023662
31
0
39
0
210
0
220
0
230
1
0
LINE
5
92
100
AcDbEntity
8
1
62
256
6
ByLayer
370
13
48
1
60
0
100
AcDbLine
10
126.003772
20
7.051073
30
0
11
126.005447
21
7.063869
31
0
39
0
210
0
220
0
230
1
0
LINE
5
93
100
AcDbEntity
8
1
62
256
6
ByLayer
370
13
48
1
60
0
100
AcDbLine
10
132.651561
20
3.19945
30
0
11
132.627597
21
2.901368
31
0
39
0
210
0
220
0
230
1
0
LINE
5
94
100
AcDbEntity
8
1
62
256
6
ByLayer
370
13
48
1
60
0
100
AcDbLine
10
132.201552
20
7.943341
30
0
11
132.19694
21
7.943099
31
0
39
0
210
0
220
0
230
1
0
LINE
5
95
100
AcDbEntity
8
1
62
256
6
ByLayer
370
13
48
1
60
0
100
AcDbLine
10
131.411845
20
7.511262
30
0
11
131.424366
21
7.431979
31
0
39
0
210
0
220
0
230
1
0
LINE
5
96
100
AcDbEntity
8
1
62
256
6
ByLayer
370
13
48
1
60
0
100
AcDbLine
10
125.984794
20
7.29087
30
0
11
124.995747
21
7.142642
31
0
39
0
210
0
220
0
230
1
0
LINE
5
97
100
AcDbEntity
8
1
62
256
6
ByLayer
370
13
48
1
60
0
100
AcDbLine
10
131.386408
20
3.158847
30
0
11
131.666564
21
5.299516
31
0
39
0
210
0
220
0
230
1
0
LINE
5
98
100
AcDbEntity
8
1
62
256
6
ByLayer
370
13
48
1
60
0
100
AcDbLine
10
131.899137
20
7.941783
30
0
11
131.894525
21
7.941542
31
0
39
0
210
0
220
0
230
1
0
LINE
5
99
100
AcDbEntity
8
1
62
256
6
ByLayer
370
13
48
1
60
0
100
AcDbLine
10
132.26939
20
2.69374
30
0
11
132.461559
21
3.05711
31
0
39
0
210
0
220
0
230
1
0
LINE
5
9A
100
AcDbEntity
8
1
62
256
6
ByLayer
370
13
48
1
60
0
100
AcDbLine
10
132.487891
20
7.689996
30
0
11
132.842126
21
5.446993
31
0
39
0
210
0
220
0
230
1
0
LINE
5
9B
100
AcDbEntity
8
1
62
256
6
ByLayer
370
13
48
1
60
0
100
AcDbLine
10
131.553375
20
3.022841
30
0
11
131.560711
21
3.023662
31
0
39
0
210
0
220
0
230
1
0
LINE
5
9C
100
AcDbEntity
8
1
62
256
6
ByLayer
370
13
48
1
60
0
100
AcDbLine
10
132.340758
20
3.039005
30
0
11
132.461559
21
3.05711
31
0
39
0
210
0
220
0
230
1
0
LINE
5
9D
100
AcDbEntity
8
1
62
256
6
ByLayer
370
13
48
1
60
0
100
AcDbLine
10
132.340758
20
3.039005
30
0
11
132.22628
21
2.654301
31
0
39
0
210
0
220
0
230
1
0
LINE
5
9E
100
AcDbEntity
8
1
62
256
6
ByLayer
370
13
48
1
60
0
100
AcDbLine
10
125.875192
20
2.691342
30
0
11
125.560314
21
4.685135
31
0
39
0
210
0
220
0
230
1
0
LINE
5
9F
100
AcDbEntity
8
1
62
256
6
ByLayer
370
13
48
1
60
0
100
AcDbLine
10
131.474745
20
7.88602
30
0
11
131.456287
21
7.886834
31
0
39
0
210
0
220
0
230
1
0
LINE
5
A0
100
AcDbEntity
8
1
62
256
6
ByLayer
370
13
48
1
60
0
100
AcDbLine
10
124.415444
20
4.87383
30
0
11
124.411311
21
4.84225
31
0
39
0
210
0
220
0
230
1
0
LINE
5
A1
100
AcDbEntity
8
1
62
256
6
ByLayer
370
13
48
1
60
0
100
AcDbLine
10
131.823292
20
7.938434
30
0
11
131.894525
21
7.941542
31
0
39
0
210
0
220
0
230
1
0
LINE
5
A2
100
AcDbEntity
8
1
62
256
6
ByLayer
370
13
48
1
60
0
100
AcDbLine
10
126.626625
20
7.157684
30
0
11
130.604066
21
7.366133
31
0
39
0
210
0
220
0
230
1
0
LINE
5
A3
100
AcDbEntity
8
1
62
256
6
ByLayer
370
13
48
1
60
0
100
AcDbLine
10
131.827292
20
7.938649
30
0
11
131.899137
21
7.941783
31
0
39
0
210
0
220
0
230
1
0
LINE
5
A4
100
AcDbEntity
8
1
62
256
6
ByLayer
370
13
48
1
60
0
100
AcDbLine
10
131.545216
20
7.506475
30
0
11
131.860093
21
5.512683
31
0
39
0
210
0
220
0
230
1
0
LINE
5
A5
100
AcDbEntity
8
1
62
256
6
ByLayer
370
13
48
1
60
0
100
AcDbLine
10
124.943469
20
7.493201
30
0
11
124.995747
21
7.142642
31
0
39
0
210
0
220
0
230
1
0
LINE
5
A6
100
AcDbEntity
8
1
62
256
6
ByLayer
370
13
48
1
60
0
100
AcDbLine
10
132.680773
20
5.422836
30
0
11
132.326538
21
7.665839
31
0
39
0
210
0
220
0
230
1
0
LINE
5
A7
100
AcDbEntity
8
1
62
256
6
ByLayer
370
13
48
1
60
0
100
AcDbLine
10
124.739635
20
4.774982
30
0
11
125.09387
21
2.531979
31
0
39
0
210
0
220
0
230
1
0
LINE
5
A8
100
AcDbEntity
8
1
62
256
6
ByLayer
370
13
48
1
60
0
100
AcDbLine
10
125.726595
20
2.16522
30
0
11
125.634379
21
2.161198
31
0
39
0
210
0
220
0
230
1
0
LINE
5
A9
100
AcDbEntity
8
1
62
256
6
ByLayer
370
13
48
1
60
0
100
AcDbLine
10
132.576203
20
3.285268
30
0
11
132.571591
21
3.285026
31
0
39
0
210
0
220
0
230
1
0
LINE
5
AA
100
AcDbEntity
8
1
62
256
6
ByLayer
370
13
48
1
60
0
100
AcDbLine
10
132.26939
20
2.69374
30
0
11
132.517873
21
2.73098
31
0
39
0
210
0
220
0
230
1
0
LINE
5
AB
100
AcDbEntity
8
1
62
256
6
ByLayer
370
13
48
1
60
0
100
AcDbLine
10
131.664186
20
5.478865
30
0
11
131.35859
21
7.413885
31
0
39
0
210
0
220
0
230
1
0
LINE
5
AC
100
AcDbEntity
8
1
62
256
6
ByLayer
370
13
48
1
60
0
100
AcDbLine
10
132.945082
20
5.462855
30
0
11
132.590847
21
7.705859
31
0
39
0
210
0
220
0
230
1
0
LINE
5
AD
100
AcDbEntity
8
1
62
256
6
ByLayer
370
13
48
1
60
0
100
AcDbLine
10
132.847879
20
5.361147
30
0
11
132.843267
21
5.360905
31
0
39
0
210
0
220
0
230
1
0
LINE
5
AE
100
AcDbEntity
8
1
62
256
6
ByLayer
370
13
48
1
60
0
100
AcDbLine
10
132.492503
20
7.690238
30
0
11
132.846738
21
5.447234
31
0
39
0
210
0
220
0
230
1
0
LINE
5
AF
100
AcDbEntity
8
1
62
256
6
ByLayer
370
13
48
1
60
0
100
AcDbLine
10
124.964802
20
2.509514
30
0
11
124.610567
21
4.752517
31
0
39
0
210
0
220
0
230
1
0
LINE
5
B0
100
AcDbEntity
8
1
62
256
6
ByLayer
370
13
48
1
60
0
100
AcDbLine
10
132.051037
20
2.661016
30
0
11
131.732661
21
2.613301
31
0
39
0
210
0
220
0
230
1
0
LINE
5
B1
100
AcDbEntity
8
1
62
256
6
ByLayer
370
13
48
1
60
0
100
AcDbLine
10
124.943469
20
7.493201
30
0
11
124.727677
21
7.46086
31
0
39
0
210
0
220
0
230
1
0
LINE
5
B2
100
AcDbEntity
8
1
62
256
6
ByLayer
370
13
48
1
60
0
100
AcDbLine
10
125.723616
20
4.910404
30
0
11
125.719004
21
4.910162
31
0
39
0
210
0
220
0
230
1
0
LINE
5
B3
100
AcDbEntity
8
1
62
256
6
ByLayer
370
13
48
1
60
0
100
AcDbLine
10
125.161821
20
7.525925
30
0
11
125.480198
21
7.57364
31
0
39
0
210
0
220
0
230
1
0
LINE
5
B4
100
AcDbEntity
8
1
62
256
6
ByLayer
370
13
48
1
60
0
100
AcDbLine
10
125.191839
20
7.691843
30
0
11
125.099707
21
7.686205
31
0
39
0
210
0
220
0
230
1
0
LINE
5
B5
100
AcDbEntity
8
1
62
256
6
ByLayer
370
13
48
1
60
0
100
AcDbLine
10
131.565323
20
3.023904
30
0
11
131.560711
21
3.023662
31
0
39
0
210
0
220
0
230
1
0
LINE
5
B6
100
AcDbEntity
8
1
62
256
6
ByLayer
370
13
48
1
60
0
100
AcDbLine
10
131.887237
20
7.79096
30
0
11
131.815392
21
7.787825
31
0
39
0
210
0
220
0
230
1
0
LINE
5
B7
100
AcDbEntity
8
1
62
256
6
ByLayer
370
13
48
1
60
0
100
AcDbLine
10
131.505121
20
7.907806
30
0
11
131.592275
21
7.912373
31
0
39
0
210
0
220
0
230
1
0
LINE
5
B8
100
AcDbEntity
8
1
62
256
6
ByLayer
370
13
48
1
60
0
100
AcDbLine
10
132.409667
20
3.303913
30
0
11
132.681344
21
5.379792
31
0
39
0
210
0
220
0
230
1
0
LINE
5
B9
100
AcDbEntity
8
1
62
256
6
ByLayer
370
13
48
1
60
0
100
AcDbLine
10
132.847879
20
5.361147
30
0
11
132.576203
21
3.285268
31
0
39
0
210
0
220
0
230
1
0
LINE
5
BA
100
AcDbEntity
8
1
62
256
6
ByLayer
370
13
48
1
60
0
100
AcDbLine
10
125.630013
20
2.261102
30
0
11
125.558168
21
2.257968
31
0
39
0
210
0
220
0
230
1
0
LINE
5
BB
100
AcDbEntity
8
1
62
256
6
ByLayer
370
13
48
1
60
0
100
AcDbLine
10
131.452664
20
3.142037
30
0
11
131.451858
21
3.135882
31
0
39
0
210
0
220
0
230
1
0
LINE
5
BC
100
AcDbEntity
8
1
62
256
6
ByLayer
370
13
48
1
60
0
100
AcDbLine
10
124.510701
20
4.851679
30
0
11
124.781114
21
6.917901
31
0
39
0
210
0
220
0
230
1
0
LINE
5
BD
100
AcDbEntity
8
1
62
256
6
ByLayer
370
13
48
1
60
0
100
AcDbLine
10
126.045461
20
2.688489
30
0
11
126.031875
21
2.774513
31
0
39
0
210
0
220
0
230
1
0
LINE
5
BE
100
AcDbEntity
8
1
62
256
6
ByLayer
370
13
48
1
60
0
100
AcDbLine
10
131.863327
20
5.268769
30
0
11
131.590106
21
3.181085
31
0
39
0
210
0
220
0
230
1
0
LINE
5
BF
100
AcDbEntity
8
1
62
256
6
ByLayer
370
13
48
1
60
0
100
AcDbLine
10
125.806956
20
4.721612
30
0
11
126.112552
21
2.786591
31
0
39
0
210
0
220
0
230
1
0
LINE
5
C0
100
AcDbEntity
8
1
62
256
6
ByLayer
370
13
48
1
60
0
100
AcDbLine
10
132.450226
20
3.156524
30
0
11
131.565323
21
3.023904
31
0
39
0
210
0
220
0
230
1
0
LINE
5
C1
100
AcDbEntity
8
1
62
256
6
ByLayer
370
13
48
1
60
0
100
AcDbLine
10
126.045461
20
2.688489
30
0
11
126.040849
21
2.688248
31
0
39
0
210
0
220
0
230
1
0
LINE
5
C2
100
AcDbEntity
8
1
62
256
6
ByLayer
370
13
48
1
60
0
100
AcDbLine
10
125.723616
20
4.910404
30
0
11
126.003772
21
7.051073
31
0
39
0
210
0
220
0
230
1
0
LINE
5
C3
100
AcDbEntity
8
1
62
256
6
ByLayer
370
13
48
1
60
0
100
AcDbLine
10
125.010741
20
6.893905
30
0
11
124.739064
21
4.818026
31
0
39
0
210
0
220
0
230
1
0
LINE
5
C4
100
AcDbEntity
8
1
62
256
6
ByLayer
370
13
48
1
60
0
100
AcDbLine
10
124.609426
20
4.838605
30
0
11
124.881103
21
6.914484
31
0
39
0
210
0
220
0
230
1
0
LINE
5
C5
100
AcDbEntity
8
1
62
256
6
ByLayer
370
13
48
1
60
0
100
AcDbLine
10
126.01206
20
2.597037
30
0
11
126.007448
21
2.596795
31
0
39
0
210
0
220
0
230
1
0
LINE
5
C6
100
AcDbEntity
8
1
62
256
6
ByLayer
370
13
48
1
60
0
100
AcDbLine
10
130.83068
20
3.042067
30
0
11
126.85324
21
2.833618
31
0
39
0
210
0
220
0
230
1
0
LINE
5
C7
100
AcDbEntity
8
1
62
256
6
ByLayer
370
13
48
1
60
0
100
AcDbLine
10
132.450226
20
3.156524
30
0
11
132.445614
21
3.156282
31
0
39
0
210
0
220
0
230
1
0
LINE
5
C8
100
AcDbEntity
8
1
62
256
6
ByLayer
370
13
48
1
60
0
100
AcDbLine
10
131.955384
20
7.943396
30
0
11
131.950772
21
7.943154
31
0
39
0
210
0
220
0
230
1
0
LINE
5
C9
100
AcDbEntity
8
1
62
256
6
ByLayer
370
13
48
1
60
0
100
AcDbLine
10
126.005447
20
7.063869
30
0
11
126.000835
21
7.063627
31
0
39
0
210
0
220
0
230
1
0
LINE
5
CA
100
AcDbEntity
8
1
62
256
6
ByLayer
370
13
48
1
60
0
100
AcDbLine
10
132.946604
20
5.348072
30
0
11
132.676191
21
3.281851
31
0
39
0
210
0
220
0
230
1
0
LINE
5
CB
100
AcDbEntity
8
1
62
256
6
ByLayer
370
13
48
1
60
0
100
AcDbLine
10
132.846738
20
5.447234
30
0
11
132.842126
21
5.446993
31
0
39
0
210
0
220
0
230
1
0
LINE
5
CC
100
AcDbEntity
8
1
62
256
6
ByLayer
370
13
48
1
60
0
100
AcDbLine
10
131.472511
20
2.908881
30
0
11
132.340758
21
3.039005
31
0
39
0
210
0
220
0
230
1
0
LINE
5
CD
100
AcDbEntity
8
1
62
256
6
ByLayer
370
13
48
1
60
0
100
AcDbLine
10
131.827292
20
7.938649
30
0
11
131.82268
21
7.938408
31
0
39
0
210
0
220
0
230
1
0
LINE
5
CE
100
AcDbEntity
8
1
62
256
6
ByLayer
370
13
48
1
60
0
100
AcDbLine
10
131.73071
20
8.034531
30
0
11
131.822927
21
8.038554
31
0
39
0
210
0
220
0
230
1
0
LINE
5
CF
100
AcDbEntity
8
1
62
256
6
ByLayer
370
13
48
1
60
0
100
AcDbLine
10
131.590106
20
3.181085
30
0
11
132.409667
21
3.303913
31
0
39
0
210
0
220
0
230
1
0
LINE
5
D0
100
AcDbEntity
8
1
62
256
6
ByLayer
370
13
48
1
60
0
100
AcDbLine
10
132.550352
20
3.007711
30
0
11
132.517873
21
2.73098
31
0
39
0
210
0
220
0
230
1
0
LINE
5
D1
100
AcDbEntity
8
1
62
256
6
ByLayer
370
13
48
1
60
0
100
AcDbLine
10
125.72628
20
4.709533
30
0
11
125.721667
21
4.709292
31
0
39
0
210
0
220
0
230
1
0
LINE
5
D2
100
AcDbEntity
8
SK1
62
256
6
ByLayer
370
13
48
1
60
0
100
AcDbLine
10
-1.544243
20
-9.784227
30
0
11
-1.544243
21
9.784227
31
0
39
0
210
0
220
0
230
1
0
LINE
5
D4
100
AcDbEntity
8
SK1
62
256
6
ByLayer
370
13
48
1
60
0
100
AcDbLine
10
-47.633813
20
9.640467
30
0
11
-47.633813
21
5.299336
31
0
39
0
210
0
220
0
230
1
0
LINE
5
D5
100
AcDbEntity
8
SK1
62
256
6
ByLayer
370
13
48
1
60
0
100
AcDbLine
10
-47.633813
20
-5.299336
30
0
11
-47.633813
21
-9.640467
31
0
39
0
210
0
220
0
230
1
0
LINE
5
D6
100
AcDbEntity
8
SK1
62
256
6
ByLayer
370
13
48
1
60
0
100
AcDbLine
10
-46.600147
20
9.99675
30
0
11
-46.600147
21
5.922784
31
0
39
0
210
0
220
0
230
1
0
LINE
5
D7
100
AcDbEntity
8
SK1
62
256
6
ByLayer
370
13
48
1
60
0
100
AcDbLine
10
-46.600147
20
-5.922784
30
0
11
-46.600147
21
-9.99675
31
0
39
0
210
0
220
0
230
1
0
LINE
5
D8
100
AcDbEntity
8
SK1
62
256
6
ByLayer
370
13
48
1
60
0
100
AcDbLine
10
-0.15
20
-9.74675
30
0
11
-0.15
21
9.74675
31
0
39
0
210
0
220
0
230
1
0
LINE
5
D9
100
AcDbEntity
8
SK1
62
256
6
ByLayer
370
13
48
1
60
0
100
AcDbLine
10
-46.600147
20
5.922784
30
0
11
-6.5
21
5.922784
31
0
39
0
210
0
220
0
230
1
0
LINE
5
DA
100
AcDbEntity
8
SK1
62
256
6
ByLayer
370
13
48
1
60
0
100
AcDbLine
10
-49
20
5.922784
30
0
11
-48.599959
21
5.922784
31
0
39
0
210
0
220
0
230
1
0
LINE
5
DB
100
AcDbEntity
8
SK1
62
256
6
ByLayer
370
13
48
1
60
0
100
AcDbLine
10
-1.375195
20
-9.74675
30
0
11
-1.375195
21
9.74675
31
0
39
0
210
0
220
0
230
1
0
LINE
5
DC
100
AcDbEntity
8
SK1
62
256
6
ByLayer
370
13
48
1
60
0
100
AcDbLine
10
-49
20
-9.99675
30
0
11
-49
21
-5.922784
31
0
39
0
210
0
220
0
230
1
0
LINE
5
DD
100
AcDbEntity
8
SK1
62
256
6
ByLayer
370
13
48
1
60
0
100
AcDbLine
10
-49
20
5.922784
30
0
11
-49
21
9.99675
31
0
39
0
210
0
220
0
230
1
0
LINE
5
DE
100
AcDbEntity
8
SK1
62
256
6
ByLayer
370
13
48
1
60
0
100
AcDbLine
10
-48.599959
20
-9.99675
30
0
11
-48.599959
21
-5.922784
31
0
39
0
210
0
220
0
230
1
0
LINE
5
DF
100
AcDbEntity
8
SK1
62
256
6
ByLayer
370
13
48
1
60
0
100
AcDbLine
10
-48.599959
20
5.922784
30
0
11
-48.599959
21
9.99675
31
0
39
0
210
0
220
0
230
1
0
LINE
5
E0
100
AcDbEntity
8
SK1
62
256
6
ByLayer
370
13
48
1
60
0
100
AcDbLine
10
-48.516222
20
9.893344
30
0
11
-48.516222
21
5.74653
31
0
39
0
210
0
220
0
230
1
0
LINE
5
E1
100
AcDbEntity
8
SK1
62
256
6
ByLayer
370
13
48
1
60
0
100
AcDbLine
10
-48.516222
20
-5.74653
30
0
11
-48.516222
21
-9.893344
31
0
39
0
210
0
220
0
230
1
0
LINE
5
E2
100
AcDbEntity
8
SK1
62
256
6
ByLayer
370
13
48
1
60
0
100
AcDbLine
10
-50
20
4.010719
30
0
11
-50
21
-4.010719
31
0
39
0
210
0
220
0
230
1
0
LINE
5
E3
100
AcDbEntity
8
1
62
256
6
ByLayer
370
18
48
1
60
0
100
AcDbLine
10
132.151877
20
-4.889015
30
0
11
132.477553
21
-4.796359
31
0
39
0
210
0
220
0
230
1
0
LINE
5
E4
100
AcDbEntity
8
1
62
256
6
ByLayer
370
18
48
1
60
0
100
AcDbLine
10
132.072844
20
0.524894
30
0
11
132.135923
21
0.516654
31
0
39
0
210
0
220
0
230
1
0
LINE
5
E5
100
AcDbEntity
8
1
62
256
6
ByLayer
370
18
48
1
60
0
100
AcDbLine
10
132.277345
20
-4.400635
30
0
11
132.066932
21
-4.460499
31
0
39
0
210
0
220
0
230
1
0
LINE
5
E6
100
AcDbEntity
8
1
62
256
6
ByLayer
370
18
48
1
60
0
100
AcDbLine
10
132.773297
20
-2.034046
30
0
11
132.492087
21
-4.153362
31
0
39
0
210
0
220
0
230
1
0
LINE
5
E7
100
AcDbEntity
8
1
62
256
6
ByLayer
370
18
48
1
60
0
100
AcDbLine
10
132.665326
20
-0.094893
30
0
11
132.557653
21
0.277673
31
0
39
0
210
0
220
0
230
1
0
LINE
5
E8
100
AcDbEntity
8
1
62
256
6
ByLayer
370
18
48
1
60
0
100
AcDbLine
10
132.45972
20
0.034808
30
0
11
132.771795
21
-1.920158
31
0
39
0
210
0
220
0
230
1
0
LINE
5
E9
100
AcDbEntity
8
1
62
256
6
ByLayer
370
18
48
1
60
0
100
AcDbLine
10
132.385143
20
0.30359
30
0
11
132.44915
21
0.082117
31
0
39
0
210
0
220
0
230
1
0
LINE
5
EA
100
AcDbEntity
8
1
62
256
6
ByLayer
370
18
48
1
60
0
100
AcDbLine
10
128.494354
20
5.828421
30
0
11
128.431636
21
5.825134
31
0
39
0
210
0
220
0
230
1
0
LINE
5
EB
100
AcDbEntity
8
1
62
256
6
ByLayer
370
18
48
1
60
0
100
AcDbLine
10
129.173459
20
5.657471
30
0
11
129.17902
21
5.677068
31
0
39
0
210
0
220
0
230
1
0
LINE
5
EC
100
AcDbEntity
8
1
62
256
6
ByLayer
370
18
48
1
60
0
100
AcDbLine
10
128.560249
20
4.334844
30
0
11
128.496559
21
4.331506
31
0
39
0
210
0
220
0
230
1
0
LINE
5
ED
100
AcDbEntity
8
1
62
256
6
ByLayer
370
18
48
1
60
0
100
AcDbLine
10
128.496559
20
4.331506
30
0
11
128.509073
21
4.347544
31
0
39
0
210
0
220
0
230
1
0
LINE
5
EE
100
AcDbEntity
8
1
62
256
6
ByLayer
370
18
48
1
60
0
100
AcDbLine
10
128.431636
20
5.825134
30
0
11
128.417514
21
5.839776
31
0
39
0
210
0
220
0
230
1
0
LINE
5
EF
100
AcDbEntity
8
1
62
256
6
ByLayer
370
18
48
1
60
0
100
AcDbLine
10
129.236177
20
5.660757
30
0
11
129.173459
21
5.657471
31
0
39
0
210
0
220
0
230
1
0
LINE
5
F0
100
AcDbEntity
8
1
62
256
6
ByLayer
370
18
48
1
60
0
100
AcDbLine
10
127.960437
20
5.262232
30
0
11
127.927358
21
5.260498
31
0
39
0
210
0
220
0
230
1
0
LINE
5
F1
100
AcDbEntity
8
1
62
256
6
ByLayer
370
18
48
1
60
0
100
AcDbLine
10
129.300575
20
4.576259
30
0
11
129.236885
21
4.572921
31
0
39
0
210
0
220
0
230
1
0
LINE
5
F2
100
AcDbEntity
8
1
62
256
6
ByLayer
370
18
48
1
60
0
100
AcDbLine
10
127.981616
20
4.858109
30
0
11
127.948525
21
4.856374
31
0
39
0
210
0
220
0
230
1
0
LINE
5
F3
100
AcDbEntity
8
1
62
256
6
ByLayer
370
18
48
1
60
0
100
AcDbLine
10
129.483447
20
4.936816
30
0
11
129.419758
21
4.933478
31
0
39
0
210
0
220
0
230
1
0
LINE
5
F4
100
AcDbEntity
8
1
62
256
6
ByLayer
370
18
48
1
60
0
100
AcDbLine
10
129.398578
20
5.337602
30
0
11
129.378486
21
5.340473
31
0
39
0
210
0
220
0
230
1
0
LINE
5
F5
100
AcDbEntity
8
1
62
256
6
ByLayer
370
18
48
1
60
0
100
AcDbLine
10
129.462793
20
4.93181
30
0
11
129.400075
21
4.928523
31
0
39
0
210
0
220
0
230
1
0
LINE
5
F6
100
AcDbEntity
8
1
62
256
6
ByLayer
370
18
48
1
60
0
100
AcDbLine
10
129.400075
20
4.928523
30
0
11
129.419758
21
4.933478
31
0
39
0
210
0
220
0
230
1
0
LINE
5
F7
100
AcDbEntity
8
1
62
256
6
ByLayer
370
18
48
1
60
0
100
AcDbLine
10
129.462268
20
5.340939
30
0
11
129.398578
21
5.337602
31
0
39
0
210
0
220
0
230
1
0
LINE
5
F8
100
AcDbEntity
8
1
62
256
6
ByLayer
370
18
48
1
60
0
100
AcDbLine
10
129.441204
20
5.343759
30
0
11
129.378486
21
5.340473
31
0
39
0
210
0
220
0
230
1
0
LINE
5
F9
100
AcDbEntity
8
1
62
256
6
ByLayer
370
18
48
1
60
0
100
AcDbLine
10
129.236885
20
4.572921
30
0
11
129.229307
21
4.59183
31
0
39
0
210
0
220
0
230
1
0
LINE
5
FA
100
AcDbEntity
8
1
62
256
6
ByLayer
370
18
48
1
60
0
100
AcDbLine
10
128.571791
20
4.350831
30
0
11
128.509073
21
4.347544
31
0
39
0
210
0
220
0
230
1
0
LINE
5
FB
100
AcDbEntity
8
1
62
256
6
ByLayer
370
18
48
1
60
0
100
AcDbLine
10
129.242709
20
5.680406
30
0
11
129.17902
21
5.677068
31
0
39
0
210
0
220
0
230
1
0
LINE
5
FC
100
AcDbEntity
8
1
62
256
6
ByLayer
370
18
48
1
60
0
100
AcDbLine
10
128.481204
20
5.843114
30
0
11
128.417514
21
5.839776
31
0
39
0
210
0
220
0
230
1
0
LINE
5
FD
100
AcDbEntity
8
1
62
256
6
ByLayer
370
18
48
1
60
0
100
AcDbLine
10
129.292025
20
4.595117
30
0
11
129.229307
21
4.59183
31
0
39
0
210
0
220
0
230
1
0
LINE
5
FE
100
AcDbEntity
8
SK1
62
256
6
ByLayer
370
13
48
1
60
0
100
AcDbLine
10
-6.5
20
-5.922784
30
0
11
-6.5
21
5.922784
31
0
39
0
210
0
220
0
230
1
0
LINE
5
FF
100
AcDbEntity
8
SK1
62
256
6
ByLayer
370
13
48
1
60
0
100
AcDbLine
10
-2
20
-9.99675
30
0
11
-2
21
9.99675
31
0
39
0
210
0
220
0
230
1
0
LINE
5
100
100
AcDbEntity
8
SK1
62
256
6
ByLayer
370
13
48
1
60
0
100
AcDbLine
10
-50
20
-8.99675
30
0
11
-50
21
-4.010719
31
0
39
0
210
0
220
0
230
1
0
LINE
5
101
100
AcDbEntity
8
SK1
62
256
6
ByLayer
370
13
48
1
60
0
100
AcDbLine
10
-50
20
4.010719
30
0
11
-50
21
8.99675
31
0
39
0
210
0
220
0
230
1
0
LINE
5
102
100
AcDbEntity
8
SK1
62
256
6
ByLayer
370
13
48
1
60
0
100
AcDbLine
10
-48.599959
20
-5.922784
30
0
11
-49
21
-5.922784
31
0
39
0
210
0
220
0
230
1
0
LINE
5
103
100
AcDbEntity
8
SK1
62
256
6
ByLayer
370
13
48
1
60
0
100
AcDbLine
10
-6.5
20
-5.922784
30
0
11
-46.600147
21
-5.922784
31
0
39
0
210
0
220
0
230
1
0
LINE
5
104
100
AcDbEntity
8
1
62
256
6
ByLayer
370
13
48
1
60
0
100
AcDbLine
10
131.93006
20
-7.741532
30
0
11
123.254071
21
-7.741532
31
0
39
0
210
0
220
0
230
1
0
LINE
5
105
100
AcDbEntity
8
1
62
256
6
ByLayer
370
13
48
1
60
0
100
AcDbLine
10
129.877814
20
2.93144
30
0
11
129.815984
21
2.9282
31
0
39
0
210
0
220
0
230
1
0
LINE
5
106
100
AcDbEntity
8
1
62
256
6
ByLayer
370
13
48
1
60
0
100
AcDbLine
10
121.356213
20
3.555127
30
0
11
121.356213
21
6.530294
31
0
39
0
210
0
220
0
230
1
0
LINE
5
107
100
AcDbEntity
8
1
62
256
6
ByLayer
370
13
48
1
60
0
100
AcDbLine
10
0
20
12.4
30
0
11
0
21
3.1241
31
0
39
0
210
0
220
0
230
1
0
LINE
5
108
100
AcDbEntity
8
1
62
256
6
ByLayer
370
13
48
1
60
0
100
AcDbLine
10
23
20
7.8
30
0
11
23
21
-2.592694
31
0
39
0
210
0
220
0
230
1
0
LINE
5
109
100
AcDbEntity
8
1
62
256
6
ByLayer
370
13
48
1
60
0
100
AcDbLine
10
18
20
-7.786146
30
0
11
18
21
-7.8
31
0
39
0
210
0
220
0
230
1
0
LINE
5
10A
100
AcDbEntity
8
1
62
256
6
ByLayer
370
13
48
1
60
0
100
AcDbLine
10
132.33953
20
2.570388
30
0
11
132.154732
21
2.560703
31
0
39
0
210
0
220
0
230
1
0
LINE
5
10B
100
AcDbEntity
8
1
62
256
6
ByLayer
370
13
48
1
60
0
100
AcDbLine
10
132.314487
20
0.554016
30
0
11
132.301684
21
0.555689
31
0
39
0
210
0
220
0
230
1
0
LINE
5
10C
100
AcDbEntity
8
1
62
256
6
ByLayer
370
13
48
1
60
0
100
AcDbLine
10
132.154732
20
2.560703
30
0
11
131.945594
21
2.549743
31
0
39
0
210
0
220
0
230
1
0
LINE
5
10D
100
AcDbEntity
8
1
62
256
6
ByLayer
370
13
48
1
60
0
100
AcDbLine
10
131.78932
20
2.391347
30
0
11
132.102893
21
2.40778
31
0
39
0
210
0
220
0
230
1
0
LINE
5
10E
100
AcDbEntity
8
1
62
256
6
ByLayer
370
13
48
1
60
0
100
AcDbLine
10
132.114761
20
-0.150276
30
0
11
132.307797
21
-1.359534
31
0
39
0
210
0
220
0
230
1
0
LINE
5
10F
100
AcDbEntity
8
1
62
256
6
ByLayer
370
13
48
1
60
0
100
AcDbLine
10
122.749249
20
4.267291
30
0
11
121.356213
21
6.530294
31
0
39
0
210
0
220
0
230
1
0
LINE
5
110
100
AcDbEntity
8
1
62
256
6
ByLayer
370
13
48
1
60
0
100
AcDbLine
10
120.254071
20
7.72
30
0
11
120.254071
21
7.609962
31
0
39
0
210
0
220
0
230
1
0
LINE
5
111
100
AcDbEntity
8
1
62
256
6
ByLayer
370
13
48
1
60
0
100
AcDbLine
10
0
20
-3.1241
30
0
11
0
21
3.1241
31
0
39
0
210
0
220
0
230
1
0
LINE
5
112
100
AcDbEntity
8
1
62
256
6
ByLayer
370
13
48
1
60
0
100
AcDbLine
10
131.589381
20
0.468811
30
0
11
131.600133
21
0.247918
31
0
39
0
210
0
220
0
230
1
0
LINE
5
113
100
AcDbEntity
8
1
62
256
6
ByLayer
370
13
48
1
60
0
100
AcDbLine
10
64
20
7.72
30
0
11
64
21
-2.591841
31
0
39
0
210
0
220
0
230
1
0
LINE
5
114
100
AcDbEntity
8
1
62
256
6
ByLayer
370
13
48
1
60
0
100
AcDbLine
10
18
20
7.8
30
0
11
18
21
-2.592837
31
0
39
0
210
0
220
0
230
1
0
LINE
5
115
100
AcDbEntity
8
1
62
256
6
ByLayer
370
13
48
1
60
0
100
AcDbLine
10
18.01
20
-4.660588
30
0
11
18.01
21
-7.271246
31
0
39
0
210
0
220
0
230
1
0
LINE
5
116
100
AcDbEntity
8
1
62
256
6
ByLayer
370
13
48
1
60
0
100
AcDbLine
10
128.580521
20
2.223181
30
0
11
131.78932
21
2.391347
31
0
39
0
210
0
220
0
230
1
0
LINE
5
117
100
AcDbEntity
8
1
62
256
6
ByLayer
370
13
48
1
60
0
100
AcDbLine
10
64
20
-7.704797
30
0
11
64
21
-7.72
31
0
39
0
210
0
220
0
230
1
0
LINE
5
118
100
AcDbEntity
8
1
62
256
6
ByLayer
370
13
48
1
60
0
100
AcDbLine
10
5.1071
20
-3.5
30
0
11
0.1
21
-3.5
31
0
39
0
210
0
220
0
230
1
0
LINE
5
119
100
AcDbEntity
8
1
62
256
6
ByLayer
370
13
48
1
60
0
100
AcDbLine
10
132.322743
20
-2.492298
30
0
11
132.090127
21
-4.245393
31
0
39
0
210
0
220
0
230
1
0
LINE
5
11A
100
AcDbEntity
8
1
62
256
6
ByLayer
370
13
48
1
60
0
100
AcDbLine
10
126.53002
20
2.539637
30
0
11
126.204665
21
2.522586
31
0
39
0
210
0
220
0
230
1
0
LINE
5
11B
100
AcDbEntity
8
1
62
256
6
ByLayer
370
13
48
1
60
0
100
AcDbLine
10
132.094942
20
0.531193
30
0
11
132.08009
21
0.523953
31
0
39
0
210
0
220
0
230
1
0
LINE
5
11C
100
AcDbEntity
8
1
62
256
6
ByLayer
370
13
48
1
60
0
100
AcDbLine
10
0
20
-12.4
30
0
11
0
21
-3.1241
31
0
39
0
210
0
220
0
230
1
0
LINE
5
11D
100
AcDbEntity
8
1
62
256
6
ByLayer
370
13
48
1
60
0
100
AcDbLine
10
126.643153
20
2.534334
30
0
11
126.524771
21
2.52813
31
0
39
0
210
0
220
0
230
1
0
LINE
5
11E
100
AcDbEntity
8
1
62
256
6
ByLayer
370
13
48
1
60
0
100
AcDbLine
10
0.1
20
12.5
30
0
11
0.1
21
3.5
31
0
39
0
210
0
220
0
230
1
0
LINE
5
11F
100
AcDbEntity
8
1
62
256
6
ByLayer
370
13
48
1
60
0
100
AcDbLine
10
123.254071
20
7.8
30
0
11
123.254071
21
7.662102
31
0
39
0
210
0
220
0
230
1
0
LINE
5
120
100
AcDbEntity
8
1
62
256
6
ByLayer
370
13
48
1
60
0
100
AcDbLine
10
23
20
-7.786118
30
0
11
23
21
-7.8
31
0
39
0
210
0
220
0
230
1
0
LINE
5
121
100
AcDbEntity
8
1
62
256
6
ByLayer
370
13
48
1
60
0
100
AcDbLine
10
132.114761
20
-0.150276
30
0
11
131.589381
21
0.468811
31
0
39
0
210
0
220
0
230
1
0
LINE
5
122
100
AcDbEntity
8
1
62
256
6
ByLayer
370
13
48
1
60
0
100
AcDbLine
10
120.254071
20
-7.635841
30
0
11
120.254071
21
0.538319
31
0
39
0
210
0
220
0
230
1
0
LINE
5
123
100
AcDbEntity
8
1
62
256
6
ByLayer
370
13
48
1
60
0
100
AcDbLine
10
132.356595
20
2.284212
30
0
11
132.33953
21
2.570388
31
0
39
0
210
0
220
0
230
1
0
LINE
5
124
100
AcDbEntity
8
1
62
256
6
ByLayer
370
13
48
1
60
0
100
AcDbLine
10
0.1
20
-12.5
30
0
11
0.1
21
-3.5
31
0
39
0
210
0
220
0
230
1
0
LINE
5
125
100
AcDbEntity
8
1
62
256
6
ByLayer
370
13
48
1
60
0
100
AcDbLine
10
126.674059
20
2.623953
30
0
11
126.688348
21
2.624702
31
0
39
0
210
0
220
0
230
1
0
LINE
5
126
100
AcDbEntity
8
1
62
256
6
ByLayer
370
13
48
1
60
0
100
AcDbLine
10
127.024171
20
2.842577
30
0
11
127.521619
21
2.868647
31
0
39
0
210
0
220
0
230
1
0
LINE
5
127
100
AcDbEntity
8
1
62
256
6
ByLayer
370
13
48
1
60
0
100
AcDbLine
10
123.254071
20
-7.741532
30
0
11
123.254071
21
0.352797
31
0
39
0
210
0
220
0
230
1
0
LINE
5
128
100
AcDbEntity
8
1
62
256
6
ByLayer
370
13
48
1
60
0
100
AcDbLine
10
122.843716
20
3.252381
30
0
11
123.774243
21
2.966486
31
0
39
0
210
0
220
0
230
1
0
LINE
5
129
100
AcDbEntity
8
1
62
256
6
ByLayer
370
13
48
1
60
0
100
AcDbLine
10
132.322743
20
-2.492298
30
0
11
131.819395
21
-1.899172
31
0
39
0
210
0
220
0
230
1
0
LINE
5
12A
100
AcDbEntity
8
1
62
256
6
ByLayer
370
13
48
1
60
0
100
AcDbLine
10
132.314487
20
0.554016
30
0
11
132.357928
21
0.49684
31
0
39
0
210
0
220
0
230
1
0
LINE
5
12B
100
AcDbEntity
8
1
62
256
6
ByLayer
370
13
48
1
60
0
100
AcDbLine
10
5.1071
20
12.5
30
0
11
5.1071
21
3.5
31
0
39
0
210
0
220
0
230
1
0
LINE
5
12C
100
AcDbEntity
8
1
62
256
6
ByLayer
370
13
48
1
60
0
100
AcDbLine
10
125.661193
20
7.451611
30
0
11
125.682188
21
7.612031
31
0
39
0
210
0
220
0
230
1
0
LINE
5
12D
100
AcDbEntity
8
1
62
256
6
ByLayer
370
13
48
1
60
0
100
AcDbLine
10
124.74844
20
6.83805
30
0
11
124.518561
21
5.08155
31
0
39
0
210
0
220
0
230
1
0
LINE
5
12E
100
AcDbEntity
8
1
62
256
6
ByLayer
370
13
48
1
60
0
100
AcDbLine
10
131.609251
20
0.970928
30
0
11
132.068483
21
0.429786
31
0
39
0
210
0
220
0
230
1
0
LINE
5
12F
100
AcDbEntity
8
1
62
256
6
ByLayer
370
13
48
1
60
0
100
AcDbLine
10
126.969425
20
1.984681
30
0
11
127.266425
21
2.000246
31
0
39
0
210
0
220
0
230
1
0
LINE
5
130
100
AcDbEntity
8
1
62
256
6
ByLayer
370
13
48
1
60
0
100
AcDbLine
10
132.41543
20
1.958508
30
0
11
132.41798
21
0.684278
31
0
39
0
210
0
220
0
230
1
0
LINE
5
131
100
AcDbEntity
8
1
62
256
6
ByLayer
370
13
48
1
60
0
100
AcDbLine
10
131.93006
20
-7.741532
30
0
11
132.290098
21
-5.028136
31
0
39
0
210
0
220
0
230
1
0
LINE
5
132
100
AcDbEntity
8
1
62
256
6
ByLayer
370
13
48
1
60
0
100
AcDbLine
10
132.357928
20
0.49684
30
0
11
132.090789
21
0.531735
31
0
39
0
210
0
220
0
230
1
0
LINE
5
133
100
AcDbEntity
8
1
62
256
6
ByLayer
370
13
48
1
60
0
100
AcDbLine
10
131.074507
20
2.854571
30
0
11
128.197735
21
2.703806
31
0
39
0
210
0
220
0
230
1
0
LINE
5
134
100
AcDbEntity
8
1
62
256
6
ByLayer
370
13
48
1
60
0
100
AcDbLine
10
128.303789
20
2.208678
30
0
11
128.580521
21
2.223181
31
0
39
0
210
0
220
0
230
1
0
LINE
5
135
100
AcDbEntity
8
1
62
256
6
ByLayer
370
13
48
1
60
0
100
AcDbLine
10
118.530922
20
1.489586
30
0
11
118.582542
21
1.211473
31
0
39
0
210
0
220
0
230
1
0
LINE
5
136
100
AcDbEntity
8
1
62
256
6
ByLayer
370
13
48
1
60
0
100
AcDbLine
10
121.57702
20
3.598108
30
0
11
122.749249
21
4.267291
31
0
39
0
210
0
220
0
230
1
0
LINE
5
137
100
AcDbEntity
8
1
62
256
6
ByLayer
370
13
48
1
60
0
100
AcDbLine
10
124.430494
20
3.201851
30
0
11
124.289034
21
4.097569
31
0
39
0
210
0
220
0
230
1
0
LINE
5
138
100
AcDbEntity
8
1
62
256
6
ByLayer
370
13
48
1
60
0
100
AcDbLine
10
132.290098
20
-5.028136
30
0
11
132.075668
21
-4.812321
31
0
39
0
210
0
220
0
230
1
0
LINE
5
139
100
AcDbEntity
8
1
62
256
6
ByLayer
370
13
48
1
60
0
100
AcDbLine
10
5.1071
20
-3.5
30
0
11
5.1071
21
-12.5
31
0
39
0
210
0
220
0
230
1
0
LINE
5
13A
100
AcDbEntity
8
1
62
256
6
ByLayer
370
13
48
1
60
0
100
AcDbLine
10
0.1
20
3.5
30
0
11
5.1071
21
3.5
31
0
39
0
210
0
220
0
230
1
0
LINE
5
13B
100
AcDbEntity
8
1
62
256
6
ByLayer
370
13
48
1
60
0
100
AcDbLine
10
121.101265
20
0.866266
30
0
11
121.184311
21
0.418845
31
0
39
0
210
0
220
0
230
1
0
LINE
5
13C
100
AcDbEntity
8
1
62
256
6
ByLayer
370
13
48
1
60
0
100
AcDbLine
10
124.651719
20
3.270141
30
0
11
124.652402
21
3.265817
31
0
39
0
210
0
220
0
230
1
0
LINE
5
13D
100
AcDbEntity
8
1
62
256
6
ByLayer
370
13
48
1
60
0
100
AcDbLine
10
124.304654
20
4.538179
30
0
11
124.716712
21
7.686707
31
0
39
0
210
0
220
0
230
1
0
LINE
5
13E
100
AcDbEntity
8
1
62
256
6
ByLayer
370
13
48
1
60
0
100
AcDbLine
10
131.78932
20
2.391347
30
0
11
131.609251
21
0.970928
31
0
39
0
210
0
220
0
230
1
0
LINE
5
13F
100
AcDbEntity
8
1
62
256
6
ByLayer
370
13
48
1
60
0
100
AcDbLine
10
131.768062
20
-0.723531
30
0
11
132.307797
21
-1.359534
31
0
39
0
210
0
220
0
230
1
0
LINE
5
140
100
AcDbEntity
8
1
62
256
6
ByLayer
370
13
48
1
60
0
100
AcDbLine
10
130.106687
20
3.004124
30
0
11
130.604135
21
3.030194
31
0
39
0
210
0
220
0
230
1
0
LINE
5
141
100
AcDbEntity
8
4
62
256
6
ByLayer
370
18
48
0.05
60
0
100
AcDbLine
10
133
20
0
30
0
11
0
21
0
31
0
39
0
210
0
220
0
230
1
0
LINE
5
143
100
AcDbEntity
8
SK4
62
256
6
ByLayer
370
13
48
0.05
60
0
100
AcDbLine
10
133
20
0
30
0
11
-50
21
0
31
0
39
0
210
0
220
0
230
1
0
LINE
5
145
100
AcDbEntity
8
1
62
256
6
ByLayer
370
13
48
1
60
0
100
AcDbLine
10
87.610715
20
7.72
30
0
11
64
21
7.72
31
0
39
0
210
0
220
0
230
1
0
LINE
5
146
100
AcDbEntity
8
SK1
62
256
6
ByLayer
370
13
48
1
60
0
100
AcDbLine
10
-48.599959
20
9.99675
30
0
11
-49
21
9.99675
31
0
39
0
210
0
220
0
230
1
0
LINE
5
147
100
AcDbEntity
8
SK1
62
256
6
ByLayer
370
13
48
1
60
0
100
AcDbLine
10
-49
20
-9.99675
30
0
11
-48.599959
21
-9.99675
31
0
39
0
210
0
220
0
230
1
0
LINE
5
148
100
AcDbEntity
8
SK1
62
256
6
ByLayer
370
13
48
1
60
0
100
AcDbLine
10
-47.633813
20
-9.640467
30
0
11
-46.600147
21
-9.99675
31
0
39
0
210
0
220
0
230
1
0
LINE
5
149
100
AcDbEntity
8
SK1
62
256
6
ByLayer
370
13
48
1
60
0
100
AcDbLine
10
-46.600147
20
9.99675
30
0
11
-47.633813
21
9.640467
31
0
39
0
210
0
220
0
230
1
0
LINE
5
14A
100
AcDbEntity
8
SK1
62
256
6
ByLayer
370
13
48
1
60
0
100
AcDbLine
10
-50
20
-8.99675
30
0
11
-49
21
-9.99675
31
0
39
0
210
0
220
0
230
1
0
LINE
5
14B
100
AcDbEntity
8
SK1
62
256
6
ByLayer
370
13
48
1
60
0
100
AcDbLine
10
-49
20
9.99675
30
0
11
-50
21
8.99675
31
0
39
0
210
0
220
0
230
1
0
LINE
5
14C
100
AcDbEntity
8
SK1
62
256
6
ByLayer
370
13
48
1
60
0
100
AcDbLine
10
-48.516222
20
9.893344
30
0
11
-48.599959
21
9.99675
31
0
39
0
210
0
220
0
230
1
0
LINE
5
14D
100
AcDbEntity
8
SK1
62
256
6
ByLayer
370
13
48
1
60
0
100
AcDbLine
10
-48.599959
20
-9.99675
30
0
11
-48.516222
21
-9.893344
31
0
39
0
210
0
220
0
230
1
0
LINE
5
14E
100
AcDbEntity
8
SK1
62
256
6
ByLayer
370
13
48
1
60
0
100
AcDbLine
10
-0.15
20
9.74675
30
0
11
-1.375195
21
9.74675
31
0
39
0
210
0
220
0
230
1
0
LINE
5
14F
100
AcDbEntity
8
SK1
62
256
6
ByLayer
370
13
48
1
60
0
100
AcDbLine
10
-1.375195
20
-9.74675
30
0
11
-0.15
21
-9.74675
31
0
39
0
210
0
220
0
230
1
0
LINE
5
150
100
AcDbEntity
8
SK1
62
256
6
ByLayer
370
13
48
1
60
0
100
AcDbLine
10
-1.544243
20
9.784227
30
0
11
-2
21
9.99675
31
0
39
0
210
0
220
0
230
1
0
LINE
5
151
100
AcDbEntity
8
SK1
62
256
6
ByLayer
370
13
48
1
60
0
100
AcDbLine
10
-2
20
-9.99675
30
0
11
-1.544243
21
-9.784227
31
0
39
0
210
0
220
0
230
1
0
LINE
5
152
100
AcDbEntity
8
SK1
62
256
6
ByLayer
370
13
48
1
60
0
100
AcDbLine
10
-2
20
9.99675
30
0
11
-46.600147
21
9.99675
31
0
39
0
210
0
220
0
230
1
0
LINE
5
153
100
AcDbEntity
8
SK1
62
256
6
ByLayer
370
13
48
1
60
0
100
AcDbLine
10
-46.600147
20
-9.99675
30
0
11
-2
21
-9.99675
31
0
39
0
210
0
220
0
230
1
0
LINE
5
154
100
AcDbEntity
8
1
62
256
6
ByLayer
370
18
48
1
60
0
100
AcDbLine
10
128.960611
20
-1.65281
30
0
11
128.960611
21
-1.860887
31
0
39
0
210
0
220
0
230
1
0
LINE
5
155
100
AcDbEntity
8
1
62
256
6
ByLayer
370
13
48
1
60
0
100
AcDbLine
10
18
20
-7.8
30
0
11
23
21
-7.8
31
0
39
0
210
0
220
0
230
1
0
LINE
5
156
100
AcDbEntity
8
1
62
256
6
ByLayer
370
13
48
1
60
0
100
AcDbLine
10
23
20
-7.8
30
0
11
64
21
-7.72
31
0
39
0
210
0
220
0
230
1
0
LINE
5
157
100
AcDbEntity
8
1
62
256
6
ByLayer
370
13
48
1
60
0
100
AcDbLine
10
124.621516
20
7.8
30
0
11
123.254071
21
7.8
31
0
39
0
210
0
220
0
230
1
0
LINE
5
158
100
AcDbEntity
8
1
62
256
6
ByLayer
370
13
48
1
60
0
100
AcDbLine
10
123.254071
20
7.8
30
0
11
120.254071
21
7.72
31
0
39
0
210
0
220
0
230
1
0
LINE
5
159
100
AcDbEntity
8
1
62
256
6
ByLayer
370
13
48
1
60
0
100
AcDbLine
10
64
20
-7.72
30
0
11
95.141625
21
-7.72
31
0
39
0
210
0
220
0
230
1
0
LINE
5
15A
100
AcDbEntity
8
1
62
256
6
ByLayer
370
13
48
1
60
0
100
AcDbLine
10
120.254071
20
7.72
30
0
11
117.359221
21
7.72
31
0
39
0
210
0
220
0
230
1
0
LINE
5
15B
100
AcDbEntity
8
1
62
256
6
ByLayer
370
13
48
1
60
0
100
AcDbLine
10
23
20
7.8
30
0
11
18
21
7.8
31
0
39
0
210
0
220
0
230
1
0
LINE
5
15C
100
AcDbEntity
8
1
62
256
6
ByLayer
370
13
48
1
60
0
100
AcDbLine
10
64
20
7.72
30
0
11
23
21
7.8
31
0
39
0
210
0
220
0
230
1
0
LINE
5
15D
100
AcDbEntity
8
1
62
256
6
ByLayer
370
13
48
1
60
0
100
AcDbLine
10
5.1071
20
12.5
30
0
11
0.1
21
12.5
31
0
39
0
210
0
220
0
230
1
0
LINE
5
15E
100
AcDbEntity
8
1
62
256
6
ByLayer
370
13
48
1
60
0
100
AcDbLine
10
0
20
-12.4
30
0
11
0.1
21
-12.5
31
0
39
0
210
0
220
0
230
1
0
LINE
5
15F
100
AcDbEntity
8
1
62
256
6
ByLayer
370
13
48
1
60
0
100
AcDbLine
10
0.1
20
-12.5
30
0
11
5.1071
21
-12.5
31
0
39
0
210
0
220
0
230
1
0
LINE
5
160
100
AcDbEntity
8
1
62
256
6
ByLayer
370
13
48
1
60
0
100
AcDbLine
10
0.1
20
12.5
30
0
11
0
21
12.4
31
0
39
0
210
0
220
0
230
1
0
LINE
5
161
100
AcDbEntity
8
1
62
256
6
ByLayer
370
13
48
1
60
0
100
AcDbLine
10
132.455141
20
2.827676
30
0
11
132.64731
21
3.191046
31
0
39
0
210
0
220
0
230
1
0
LINE
5
162
100
AcDbEntity
8
1
62
256
6
ByLayer
370
13
48
1
60
0
100
AcDbLine
10
131.731349
20
5.490202
30
0
11
131.425754
21
7.425222
31
0
39
0
210
0
220
0
230
1
0
LINE
5
163
100
AcDbEntity
8
1
62
256
6
ByLayer
370
13
48
1
60
0
100
AcDbLine
10
131.453855
20
3.148752
30
0
11
131.734011
21
5.289421
31
0
39
0
210
0
220
0
230
1
0
LINE
5
164
100
AcDbEntity
8
1
62
256
6
ByLayer
370
18
48
1
60
0
100
AcDbLine
10
128.751918
20
4.421964
30
0
11
128.693747
21
4.418916
31
0
39
0
210
0
220
0
230
1
0
LINE
5
165
100
AcDbEntity
8
1
62
256
6
ByLayer
370
18
48
1
60
0
100
AcDbLine
10
128.622758
20
5.773457
30
0
11
128.68093
21
5.776505
31
0
39
0
210
0
220
0
230
1
0
LINE
5
166
100
AcDbEntity
8
1
62
256
6
ByLayer
370
18
48
1
60
0
100
AcDbLine
10
128.736361
20
3.773461
30
0
11
128.782107
21
3.775859
31
0
39
0
210
0
220
0
230
1
0
LINE
5
167
100
AcDbEntity
8
1
62
256
6
ByLayer
370
18
48
1
60
0
100
AcDbLine
10
128.643417
20
6.422227
30
0
11
128.59767
21
6.41983
31
0
39
0
210
0
220
0
230
1
0
LINE
5
168
100
AcDbEntity
8
81
62
256
6
ByLayer
370
18
48
1
60
0
100
AcDbLine
10
133
20
0
30
0
11
140
21
0
31
0
39
0
210
0
220
0
230
1
0
LINE
5
169
100
AcDbEntity
8
80
62
256
6
ByLayer
370
18
48
1
60
0
100
AcDbLine
10
0
20
0
30
0
11
-7
21
0
31
0
39
0
210
0
220
0
230
1
0
LINE
5
16A
100
AcDbEntity
8
SK2
62
256
6
ByLayer
370
13
48
1
60
0
100
AcDbLine
10
-70.725
20
-10
30
0
11
-70.725
21
40.986611
31
0
39
0
210
0
220
0
230
1
0
LINE
5
16C
100
AcDbEntity
8
SK2
62
256
6
ByLayer
370
13
48
1
60
0
100
AcDbLine
10
-51.5875
20
-10
30
0
11
-73.9
21
-10
31
0
39
0
210
0
220
0
230
1
0
LINE
5
16D
100
AcDbEntity
8
SK2
62
256
6
ByLayer
370
13
48
1
60
0
100
AcDbLine
10
-51.5875
20
10
30
0
11
-73.9
21
10
31
0
39
0
210
0
220
0
230
1
0
LINE
5
16E
100
AcDbEntity
8
1
62
256
6
ByLayer
370
18
48
1
60
1
100
AcDbLine
10
-70.725
20
-10
30
0
11
-71.650575
21
-5.825003
31
0
39
0
210
0
220
0
230
1
0
LINE
5
16F
100
AcDbEntity
8
1
62
256
6
ByLayer
370
18
48
1
60
1
100
AcDbLine
10
-71.650575
20
-5.825003
30
0
11
-69.799425
21
-5.824997
31
0
39
0
210
0
220
0
230
1
0
LINE
5
170
100
AcDbEntity
8
1
62
256
6
ByLayer
370
18
48
1
60
1
100
AcDbLine
10
-69.799425
20
-5.824997
30
0
11
-70.725
21
-10
31
0
39
0
210
0
220
0
230
1
0
LINE
5
171
100
AcDbEntity
8
1
62
256
6
ByLayer
370
18
48
1
60
1
100
AcDbLine
10
-70.725
20
10
30
0
11
-69.799425
21
5.825003
31
0
39
0
210
0
220
0
230
1
0
LINE
5
172
100
AcDbEntity
8
1
62
256
6
ByLayer
370
18
48
1
60
1
100
AcDbLine
10
-69.799425
20
5.825003
30
0
11
-71.650575
21
5.824997
31
0
39
0
210
0
220
0
230
1
0
LINE
5
173
100
AcDbEntity
8
1
62
256
6
ByLayer
370
18
48
1
60
1
100
AcDbLine
10
-71.650575
20
5.824997
30
0
11
-70.725
21
10
31
0
39
0
210
0
220
0
230
1
0
LINE
5
174
100
AcDbEntity
8
SK2
62
256
6
ByLayer
370
13
48
1
60
0
100
AcDbLine
10
-80.725
20
-23.75
30
0
11
-80.725
21
23.75
31
0
39
0
210
0
220
0
230
1
0
LINE
5
175
100
AcDbEntity
8
SK2
62
256
6
ByLayer
370
13
48
1
60
0
100
AcDbLine
10
-1.5875
20
12.5
30
0
11
-83.9
21
12.5
31
0
39
0
210
0
220
0
230
1
0
LINE
5
176
100
AcDbEntity
8
SK2
62
256
6
ByLayer
370
13
48
1
60
0
100
AcDbLine
10
-1.5875
20
-12.5
30
0
11
-83.9
21
-12.5
31
0
39
0
210
0
220
0
230
1
0
LINE
5
177
100
AcDbEntity
8
1
62
256
6
ByLayer
370
18
48
1
60
1
100
AcDbLine
10
-80.725
20
12.5
30
0
11
-81.650575
21
16.674997
31
0
39
0
210
0
220
0
230
1
0
LINE
5
178
100
AcDbEntity
8
1
62
256
6
ByLayer
370
18
48
1
60
1
100
AcDbLine
10
-81.650575
20
16.674997
30
0
11
-79.799425
21
16.675003
31
0
39
0
210
0
220
0
230
1
0
LINE
5
179
100
AcDbEntity
8
1
62
256
6
ByLayer
370
18
48
1
60
1
100
AcDbLine
10
-79.799425
20
16.675003
30
0
11
-80.725
21
12.5
31
0
39
0
210
0
220
0
230
1
0
LINE
5
17A
100
AcDbEntity
8
1
62
256
6
ByLayer
370
18
48
1
60
1
100
AcDbLine
10
-80.725
20
-12.5
30
0
11
-79.799425
21
-16.674997
31
0
39
0
210
0
220
0
230
1
0
LINE
5
17B
100
AcDbEntity
8
1
62
256
6
ByLayer
370
18
48
1
60
1
100
AcDbLine
10
-79.799425
20
-16.674997
30
0
11
-81.650575
21
-16.675003
31
0
39
0
210
0
220
0
230
1
0
LINE
5
17C
100
AcDbEntity
8
1
62
256
6
ByLayer
370
18
48
1
60
1
100
AcDbLine
10
-81.650575
20
-16.675003
30
0
11
-80.725
21
-12.5
31
0
39
0
210
0
220
0
230
1
0
LINE
5
17D
100
AcDbEntity
8
2
62
256
6
ByLayer
370
13
48
1
60
0
100
AcDbLine
10
159.975
20
-8
30
0
11
159.975
21
37.861783
31
0
39
0
210
0
220
0
230
1
0
LINE
5
17F
100
AcDbEntity
8
2
62
256
6
ByLayer
370
13
48
1
60
0
100
AcDbLine
10
134.5875
20
-8
30
0
11
163.15
21
-8
31
0
39
0
210
0
220
0
230
1
0
LINE
5
180
100
AcDbEntity
8
2
62
256
6
ByLayer
370
13
48
1
60
0
100
AcDbLine
10
134.5875
20
8
30
0
11
163.15
21
8
31
0
39
0
210
0
220
0
230
1
0
LINE
5
181
100
AcDbEntity
8
1
62
256
6
ByLayer
370
18
48
1
60
1
100
AcDbLine
10
159.975
20
-8
30
0
11
159.049425
21
-3.825003
31
0
39
0
210
0
220
0
230
1
0
LINE
5
182
100
AcDbEntity
8
1
62
256
6
ByLayer
370
18
48
1
60
1
100
AcDbLine
10
159.049425
20
-3.825003
30
0
11
160.900575
21
-3.824997
31
0
39
0
210
0
220
0
230
1
0
LINE
5
183
100
AcDbEntity
8
1
62
256
6
ByLayer
370
18
48
1
60
1
100
AcDbLine
10
160.900575
20
-3.824997
30
0
11
159.975
21
-8
31
0
39
0
210
0
220
0
230
1
0
LINE
5
184
100
AcDbEntity
8
1
62
256
6
ByLayer
370
18
48
1
60
1
100
AcDbLine
10
159.975
20
8
30
0
11
160.900575
21
3.825003
31
0
39
0
210
0
220
0
230
1
0
LINE
5
185
100
AcDbEntity
8
1
62
256
6
ByLayer
370
18
48
1
60
1
100
AcDbLine
10
160.900575
20
3.825003
30
0
11
159.049425
21
3.824997
31
0
39
0
210
0
220
0
230
1
0
LINE
5
186
100
AcDbEntity
8
1
62
256
6
ByLayer
370
18
48
1
60
1
100
AcDbLine
10
159.049425
20
3.824997
30
0
11
159.975
21
8
31
0
39
0
210
0
220
0
230
1
0
LINE
5
33C
100
AcDbEntity
8
1
62
256
6
ByLayer
370
18
48
1
60
1
100
AcDbLine
10
-70.725
20
-10
30
0
11
-71.650575
21
-5.825003
31
0
39
0
210
0
220
0
230
1
0
LINE
5
33D
100
AcDbEntity
8
1
62
256
6
ByLayer
370
18
48
1
60
1
100
AcDbLine
10
-71.650575
20
-5.825003
30
0
11
-69.799425
21
-5.824997
31
0
39
0
210
0
220
0
230
1
0
LINE
5
33E
100
AcDbEntity
8
1
62
256
6
ByLayer
370
18
48
1
60
1
100
AcDbLine
10
-69.799425
20
-5.824997
30
0
11
-70.725
21
-10
31
0
39
0
210
0
220
0
230
1
0
LINE
5
340
100
AcDbEntity
8
1
62
256
6
ByLayer
370
18
48
1
60
1
100
AcDbLine
10
-70.725
20
10
30
0
11
-69.799425
21
5.825003
31
0
39
0
210
0
220
0
230
1
0
LINE
5
341
100
AcDbEntity
8
1
62
256
6
ByLayer
370
18
48
1
60
1
100
AcDbLine
10
-69.799425
20
5.825003
30
0
11
-71.650575
21
5.824997
31
0
39
0
210
0
220
0
230
1
0
LINE
5
342
100
AcDbEntity
8
1
62
256
6
ByLayer
370
18
48
1
60
1
100
AcDbLine
10
-71.650575
20
5.824997
30
0
11
-70.725
21
10
31
0
39
0
210
0
220
0
230
1
0
LINE
5
346
100
AcDbEntity
8
1
62
256
6
ByLayer
370
18
48
1
60
1
100
AcDbLine
10
-80.725
20
12.5
30
0
11
-81.650575
21
16.674997
31
0
39
0
210
0
220
0
230
1
0
LINE
5
347
100
AcDbEntity
8
1
62
256
6
ByLayer
370
18
48
1
60
1
100
AcDbLine
10
-81.650575
20
16.674997
30
0
11
-79.799425
21
16.675003
31
0
39
0
210
0
220
0
230
1
0
LINE
5
348
100
AcDbEntity
8
1
62
256
6
ByLayer
370
18
48
1
60
1
100
AcDbLine
10
-79.799425
20
16.675003
30
0
11
-80.725
21
12.5
31
0
39
0
210
0
220
0
230
1
0
LINE
5
34A
100
AcDbEntity
8
1
62
256
6
ByLayer
370
18
48
1
60
1
100
AcDbLine
10
-80.725
20
-12.5
30
0
11
-79.799425
21
-16.674997
31
0
39
0
210
0
220
0
230
1
0
LINE
5
34B
100
AcDbEntity
8
1
62
256
6
ByLayer
370
18
48
1
60
1
100
AcDbLine
10
-79.799425
20
-16.674997
30
0
11
-81.650575
21
-16.675003
31
0
39
0
210
0
220
0
230
1
0
LINE
5
34C
100
AcDbEntity
8
1
62
256
6
ByLayer
370
18
48
1
60
1
100
AcDbLine
10
-81.650575
20
-16.675003
30
0
11
-80.725
21
-12.5
31
0
39
0
210
0
220
0
230
1
0
LINE
5
350
100
AcDbEntity
8
1
62
256
6
ByLayer
370
18
48
1
60
1
100
AcDbLine
10
159.975
20
-8
30
0
11
159.049425
21
-3.825003
31
0
39
0
210
0
220
0
230
1
0
LINE
5
351
100
AcDbEntity
8
1
62
256
6
ByLayer
370
18
48
1
60
1
100
AcDbLine
10
159.049425
20
-3.825003
30
0
11
160.900575
21
-3.824997
31
0
39
0
210
0
220
0
230
1
0
LINE
5
352
100
AcDbEntity
8
1
62
256
6
ByLayer
370
18
48
1
60
1
100
AcDbLine
10
160.900575
20
-3.824997
30
0
11
159.975
21
-8
31
0
39
0
210
0
220
0
230
1
0
LINE
5
354
100
AcDbEntity
8
1
62
256
6
ByLayer
370
18
48
1
60
1
100
AcDbLine
10
159.975
20
8
30
0
11
160.900575
21
3.825003
31
0
39
0
210
0
220
0
230
1
0
LINE
5
355
100
AcDbEntity
8
1
62
256
6
ByLayer
370
18
48
1
60
1
100
AcDbLine
10
160.900575
20
3.825003
30
0
11
159.049425
21
3.824997
31
0
39
0
210
0
220
0
230
1
0
LINE
5
356
100
AcDbEntity
8
1
62
256
6
ByLayer
370
18
48
1
60
1
100
AcDbLine
10
159.049425
20
3.824997
30
0
11
159.975
21
8
31
0
39
0
210
0
220
0
230
1
0
MTEXT
5
338
100
AcDbEntity
8
SK2
62
256
6
ByLayer
370
18
48
1
60
0
100
AcDbMText
10
-72.736672
20
24.600156
30
0
210
0
220
0
230
1
1
%%c
40
4.5
41
0
44
1.084337
50
90
71
7
72
5
7
iso_b_vert
0
MTEXT
5
33B
100
AcDbEntity
8
SK2
62
256
6
ByLayer
370
18
48
1
60
0
100
AcDbMText
10
-72.736672
20
35.815
30
0
210
0
220
0
230
1
1
\W0.6740;20
40
4.5
41
0
44
1.084337
50
90
71
7
72
5
7
iso_b_vert
0
MTEXT
5
344
100
AcDbEntity
8
SK2
62
256
6
ByLayer
370
18
48
1
60
0
100
AcDbMText
10
-82.736672
20
-6.949399
30
0
210
0
220
0
230
1
1
%%c
40
4.5
41
0
44
1.084337
50
90
71
7
72
5
7
iso_b_vert
0
MTEXT
5
345
100
AcDbEntity
8
SK2
62
256
6
ByLayer
370
18
48
1
60
0
100
AcDbMText
10
-82.736672
20
4.265444
30
0
210
0
220
0
230
1
1
\W0.6740;25
40
4.5
41
0
44
1.084337
50
90
71
7
72
5
7
iso_b_vert
0
MTEXT
5
34E
100
AcDbEntity
8
2
62
256
6
ByLayer
370
18
48
1
60
0
100
AcDbMText
10
157.963328
20
22.600156
30
0
210
0
220
0
230
1
1
%%c
40
4.5
41
0
44
1.084337
50
90
71
7
72
5
7
iso_b_vert
0
MTEXT
5
34F
100
AcDbEntity
8
2
62
256
6
ByLayer
370
18
48
1
60
0
100
AcDbMText
10
157.963328
20
33.815
30
0
210
0
220
0
230
1
1
\W0.5321;16
40
4.5
41
0
44
1.084337
50
90
71
7
72
5
7
iso_b_vert
0
MTEXT
5
358
100
AcDbEntity
8
SK6
62
256
6
ByLayer
370
18
48
1
60
0
100
AcDbMText
10
9.308916
20
-94.592562
30
0
210
0
220
0
230
1
1
\W0.7503;DS20-D1600L20-07
40
3.5
41
0
44
1.084337
50
0
71
7
72
5
7
iso_b_vert
0
HATCH
5
33F
100
AcDbEntity
8
SK2
62
256
6
ByLayer
370
13
48
1
60
0
100
AcDbHatch
10
0
20
0
30
0
210
0
220
0
230
1
2
ANSI31
70
0
71
0
91
1
92
5
93
3
72
1
10
-70.725
20
-9.99999999999994
11
-71.650575216528
21
-5.82500339982755
72
1
10
-71.650575216528
20
-5.82500339982755
11
-69.799424783472
21
-5.82499660017231
72
1
10
-69.799424783472
20
-5.82499660017231
11
-70.725
21
-9.99999999999994
97
0
75
0
76
1
52
0
41
0.0062
77
0
78
1
53
45
43
0
44
0
45
-0.0139193969876572
46
0.0139193969876572
79
0
47
0
98
1
10
0
20
0
0
HATCH
5
343
100
AcDbEntity
8
SK2
62
256
6
ByLayer
370
13
48
1
60
0
100
AcDbHatch
10
0
20
0
30
0
210
0
220
0
230
1
2
ANSI31
70
0
71
0
91
1
92
5
93
3
72
1
10
-70.725
20
10.0000000000001
11
-69.799424783472
21
5.82500339982766
72
1
10
-69.799424783472
20
5.82500339982766
11
-71.650575216528
21
5.82499660017243
72
1
10
-71.650575216528
20
5.82499660017243
11
-70.725
21
10.0000000000001
97
0
75
0
76
1
52
0
41
0.0062
77
0
78
1
53
45
43
0
44
0
45
-0.0139193969876572
46
0.0139193969876572
79
0
47
0
98
1
10
0
20
0
0
HATCH
5
349
100
AcDbEntity
8
SK2
62
256
6
ByLayer
370
13
48
1
60
0
100
AcDbHatch
10
0
20
0
30
0
210
0
220
0
230
1
2
ANSI31
70
0
71
0
91
1
92
5
93
3
72
1
10
-80.725
20
12.5
11
-81.650575216528
21
16.6749966001724
72
1
10
-81.650575216528
20
16.6749966001724
11
-79.799424783472
21
16.6750033998276
72
1
10
-79.799424783472
20
16.6750033998276
11
-80.725
21
12.5
97
0
75
0
76
1
52
0
41
0.0062
77
0
78
1
53
45
43
0
44
0
45
-0.0139193969876572
46
0.0139193969876572
79
0
47
0
98
1
10
0
20
0
0
HATCH
5
34D
100
AcDbEntity
8
SK2
62
256
6
ByLayer
370
13
48
1
60
0
100
AcDbHatch
10
0
20
0
30
0
210
0
220
0
230
1
2
ANSI31
70
0
71
0
91
1
92
5
93
3
72
1
10
-80.725
20
-12.5
11
-79.799424783472
21
-16.6749966001724
72
1
10
-79.799424783472
20
-16.6749966001724
11
-81.650575216528
21
-16.6750033998276
72
1
10
-81.650575216528
20
-16.6750033998276
11
-80.725
21
-12.5
97
0
75
0
76
1
52
0
41
0.0062
77
0
78
1
53
45
43
0
44
0
45
-0.0139193969876572
46
0.0139193969876572
79
0
47
0
98
1
10
0
20
0
0
HATCH
5
353
100
AcDbEntity
8
2
62
256
6
ByLayer
370
13
48
1
60
0
100
AcDbHatch
10
0
20
0
30
0
210
0
220
0
230
1
2
ANSI31
70
0
71
0
91
1
92
5
93
3
72
1
10
159.975
20
-8.00000000000014
11
159.049424783472
21
-3.82500339982775
72
1
10
159.049424783472
20
-3.82500339982775
11
160.900575216528
21
-3.82499660017251
72
1
10
160.900575216528
20
-3.82499660017251
11
159.975
21
-8.00000000000014
97
0
75
0
76
1
52
0
41
0.0062
77
0
78
1
53
45
43
0
44
0
45
-0.0139193969876572
46
0.0139193969876572
79
0
47
0
98
1
10
0
20
0
0
HATCH
5
357
100
AcDbEntity
8
2
62
256
6
ByLayer
370
13
48
1
60
0
100
AcDbHatch
10
0
20
0
30
0
210
0
220
0
230
1
2
ANSI31
70
0
71
0
91
1
92
5
93
3
72
1
10
159.975
20
7.99999999999986
11
160.900575216528
21
3.82500339982747
72
1
10
160.900575216528
20
3.82500339982747
11
159.049424783472
21
3.82499660017223
72
1
10
159.049424783472
20
3.82499660017223
11
159.975
21
7.99999999999986
97
0
75
0
76
1
52
0
41
0.0062
77
0
78
1
53
45
43
0
44
0
45
-0.0139193969876572
46
0.0139193969876572
79
0
47
0
98
1
10
0
20
0
0
DIMENSION
5
35B
100
AcDbEntity
8
2
62
256
6
ByLayer
370
18
48
1
60
0
100
AcDbDimension
2
_U0
10
133
20
-61.361926
30
0
11
66.5
21
-61.361926
31
0
70
32
71
1
72
1
41
1
210
0
220
0
230
1
3
Standard
100
AcDbAlignedDimension
13
0
23
-12.5
33
0
14
133
24
-8
34
0
50
0
100
AcDbRotatedDimension
1001
ACAD
1000
DSTYLE
1002
{
1070
   371
1070
    13
1070
   372
1070
    13
1070
   170
1070
     0
1070
   144
1040
1.0
1070
   277
1070
     2
1070
   284
1070
     8
1070
   278
1070
    46
1070
   146
1040
0.777778
1070
   345
1005
16
1070
   347
1005
16
1070
   346
1005
16
1070
   344
1005
0
1070
   343
1005
0
1070
   172
1070
     1
1070
    76
1070
     0
1070
    75
1070
     0
1070
   282
1070
     0
1070
   281
1070
     0
1070
    71
1070
     0
1070
    74
1070
     0
1070
   279
1070
     0
1070
   173
1070
     1
1070
   340
1005
339
1070
   271
1070
     1
1070
   272
1070
     2
1070
    77
1070
     1
1070
    73
1070
     1
1070
   171
1070
     3
1070
   274
1070
     4
1070
   177
1070
   150
1070
   176
1070
     9
1070
   178
1070
    43
1070
    78
1070
     8
1070
    48
1040
-0.1
1070
    41
1040
4.175
1070
   147
1040
2.25
1070
    42
1040
1.5875
1070
    44
1040
3.175
1070
   140
1040
4.5
1002
}
1001
ACAD_DSTYLE_DIM_LINETYPE
1070
   380
1005
16
1001
ACAD_DSTYLE_DIM_EXT1_LINETYPE
1070
   381
1005
16
1001
ACAD_DSTYLE_DIM_EXT2_LINETYPE
1070
   382
1005
16
0
DIMENSION
5
374
100
AcDbEntity
8
SK2
62
256
6
ByLayer
370
18
48
1
60
0
100
AcDbDimension
2
_U1
10
0
20
-61.361926
30
0
11
-25
21
-61.361926
31
0
70
32
71
1
72
1
41
1
210
0
220
0
230
1
3
Standard
100
AcDbAlignedDimension
13
-50
23
-10
33
0
14
0
24
-12.5
34
0
50
0
100
AcDbRotatedDimension
1001
ACAD
1000
DSTYLE
1002
{
1070
   371
1070
    13
1070
   372
1070
    13
1070
   170
1070
     0
1070
   144
1040
1.0
1070
   277
1070
     2
1070
   284
1070
     8
1070
   278
1070
    46
1070
   146
1040
0.777778
1070
   345
1005
16
1070
   347
1005
16
1070
   346
1005
16
1070
   344
1005
0
1070
   343
1005
0
1070
   172
1070
     1
1070
    76
1070
     0
1070
    75
1070
     0
1070
   282
1070
     0
1070
   281
1070
     0
1070
    71
1070
     0
1070
    74
1070
     0
1070
   279
1070
     0
1070
   173
1070
     1
1070
   340
1005
339
1070
   271
1070
     1
1070
   272
1070
     2
1070
    77
1070
     1
1070
    73
1070
     1
1070
   171
1070
     3
1070
   274
1070
     4
1070
   177
1070
   150
1070
   176
1070
     9
1070
   178
1070
    43
1070
    78
1070
     8
1070
    48
1040
-0.1
1070
    41
1040
4.175
1070
   147
1040
2.25
1070
    42
1040
1.5875
1070
    44
1040
3.175
1070
   140
1040
4.5
1002
}
1001
ACAD_DSTYLE_DIM_LINETYPE
1070
   380
1005
16
1001
ACAD_DSTYLE_DIM_EXT1_LINETYPE
1070
   381
1005
16
1001
ACAD_DSTYLE_DIM_EXT2_LINETYPE
1070
   382
1005
16
0
DIMENSION
5
38C
100
AcDbEntity
8
SK2
62
256
6
ByLayer
370
18
48
1
60
0
100
AcDbDimension
2
_U2
10
5.6071
20
-51.361926
30
0
11
69.30355
21
-51.361926
31
0
70
32
71
1
72
1
41
1
210
0
220
0
230
1
3
Standard
100
AcDbAlignedDimension
13
133
23
-8
33
0
14
5.6071
24
-12.5
34
0
50
0
100
AcDbRotatedDimension
1001
ACAD
1000
DSTYLE
1002
{
1070
   371
1070
    13
1070
   372
1070
    13
1070
   170
1070
     0
1070
   144
1040
1.0
1070
   277
1070
     2
1070
   284
1070
     8
1070
   278
1070
    46
1070
   146
1040
0.777778
1070
   345
1005
16
1070
   347
1005
16
1070
   346
1005
16
1070
   344
1005
0
1070
   343
1005
0
1070
   172
1070
     1
1070
    76
1070
     0
1070
    75
1070
     0
1070
   282
1070
     0
1070
   281
1070
     0
1070
    71
1070
     0
1070
    74
1070
     0
1070
   279
1070
     0
1070
   173
1070
     1
1070
   340
1005
339
1070
   271
1070
     1
1070
   272
1070
     2
1070
    77
1070
     1
1070
    73
1070
     1
1070
   171
1070
     3
1070
   274
1070
     4
1070
   177
1070
   150
1070
   176
1070
     9
1070
   178
1070
    43
1070
    78
1070
     8
1070
    48
1040
-0.1
1070
    41
1040
4.175
1070
   147
1040
2.25
1070
    42
1040
1.5875
1070
    44
1040
3.175
1070
   140
1040
4.5
1002
}
1001
ACAD_DSTYLE_DIM_LINETYPE
1070
   380
1005
16
1001
ACAD_DSTYLE_DIM_EXT1_LINETYPE
1070
   381
1005
16
1001
ACAD_DSTYLE_DIM_EXT2_LINETYPE
1070
   382
1005
16
0
DIMENSION
5
3A4
100
AcDbEntity
8
SK2
62
256
6
ByLayer
370
18
48
1
60
0
100
AcDbDimension
2
_U3
10
133
20
-41.361926
30
0
11
75.5
21
-41.361926
31
0
70
32
71
1
72
1
41
1
210
0
220
0
230
1
3
Standard
100
AcDbAlignedDimension
13
18
23
-8
33
0
14
133
24
-8
34
0
50
0
100
AcDbRotatedDimension
1001
ACAD
1000
DSTYLE
1002
{
1070
   371
1070
    13
1070
   372
1070
    13
1070
   170
1070
     0
1070
   144
1040
1.0
1070
   277
1070
     2
1070
   284
1070
     8
1070
   278
1070
    46
1070
   146
1040
0.777778
1070
   345
1005
16
1070
   347
1005
16
1070
   346
1005
16
1070
   344
1005
0
1070
   343
1005
0
1070
   172
1070
     1
1070
    76
1070
     0
1070
    75
1070
     0
1070
   282
1070
     0
1070
   281
1070
     0
1070
    71
1070
     0
1070
    74
1070
     0
1070
   279
1070
     0
1070
   173
1070
     1
1070
   340
1005
339
1070
   271
1070
     1
1070
   272
1070
     2
1070
    77
1070
     1
1070
    73
1070
     1
1070
   171
1070
     3
1070
   274
1070
     4
1070
   177
1070
   150
1070
   176
1070
     9
1070
   178
1070
    43
1070
    78
1070
     8
1070
    48
1040
-0.1
1070
    41
1040
4.175
1070
   147
1040
2.25
1070
    42
1040
1.5875
1070
    44
1040
3.175
1070
   140
1040
4.5
1002
}
1001
ACAD_DSTYLE_DIM_LINETYPE
1070
   380
1005
16
1001
ACAD_DSTYLE_DIM_EXT1_LINETYPE
1070
   381
1005
16
1001
ACAD_DSTYLE_DIM_EXT2_LINETYPE
1070
   382
1005
16
0
DIMENSION
5
3BC
100
AcDbEntity
8
2
62
256
6
ByLayer
370
18
48
1
60
0
100
AcDbDimension
2
_U4
10
133
20
-31.361926
30
0
11
155.350893
21
-31.361926
31
0
70
32
71
1
72
1
41
1
210
0
220
0
230
1
3
Standard
100
AcDbAlignedDimension
13
132.5369
23
-4
33
0
14
133
24
0
34
0
50
0
100
AcDbRotatedDimension
1001
ACAD
1000
DSTYLE
1002
{
1070
   371
1070
    13
1070
   372
1070
    13
1070
   170
1070
     0
1070
   144
1040
1.0
1070
   277
1070
     2
1070
   284
1070
     8
1070
   278
1070
    46
1070
   146
1040
0.777778
1070
   345
1005
16
1070
   347
1005
16
1070
   346
1005
16
1070
   344
1005
0
1070
   343
1005
0
1070
   172
1070
     1
1070
    76
1070
     0
1070
    75
1070
     0
1070
   282
1070
     0
1070
   281
1070
     0
1070
    71
1070
     0
1070
    74
1070
     0
1070
   279
1070
     0
1070
   173
1070
     1
1070
   340
1005
339
1070
   271
1070
     2
1070
   272
1070
     2
1070
    77
1070
     1
1070
    73
1070
     1
1070
   171
1070
     3
1070
   274
1070
     4
1070
   177
1070
   150
1070
   176
1070
     9
1070
   178
1070
    43
1070
    78
1070
     8
1070
    48
1040
-0.1
1070
    41
1040
4.175
1070
   147
1040
2.25
1070
    42
1040
1.5875
1070
    44
1040
3.175
1070
   140
1040
4.5
1002
}
1001
ACAD_DSTYLE_DIM_LINETYPE
1070
   380
1005
16
1001
ACAD_DSTYLE_DIM_EXT1_LINETYPE
1070
   381
1005
16
1001
ACAD_DSTYLE_DIM_EXT2_LINETYPE
1070
   382
1005
16
0
ENDSEC
0
SECTION
2
OBJECTS
0
DICTIONARY
5
446
330
0
100
AcDbDictionary
280
0
281
1
3
ACAD_GROUP
350
447
3
ACAD_MLINESTYLE
350
448
0
DICTIONARY
5
447
330
0
100
AcDbDictionary
280
0
281
1
0
DICTIONARY
5
448
330
0
100
AcDbDictionary
280
0
281
1
3
Standard
350
18
0
MLINESTYLE
5
18
330
448
100
AcDbMlineStyle
2
Standard
70
0
3

62
256
51
90
52
90
71
2
49
-0.5
62
256
6
ByLayer
49
0.5
62
256
6
ByLayer
0
RASTERVARIABLES
5
434
330

100
AcDbRasterVariables
90
0
70
1
71
1
72
1
0
ENDSEC
0
EOF
