0
SECTION
2
HEADER
9
$ACADVER
1
AC1015
9
$DWGCODEPAGE
3
ANSI_1252
9
$HANDSEED
5
430
9
$ANGBASE
50
0
9
$ANGDIR
70
0
9
$ATTMODE
70
1
9
$AUNITS
70
0
9
$AUPREC
70
0
9
$CECOLOR
62
256
9
$CELTSCALE
40
1
9
$CELTYPE
6
ByLayer
9
$CELWEIGHT
370
18
9
$CLAYER
8
0
9
$CMLJUST
70
0
9
$CMLSCALE
40
1
9
$CMLSTYLE
2
Standard
9
$DIMSTYLE
2
Standard
9
$TEXTSIZE
40
0.2
9
$TEXTSTYLE
7
Standard
9
$LUNITS
70
2
9
$LUPREC
70
4
9
$EXTNAMES
290
1
9
$INSUNITS
70
4
9
$LTSCALE
40
1
9
$LWDISPLAY
290
1
9
$PDMODE
70
0
9
$PDSIZE
40
0
9
$PLINEGEN
70
0
0
ENDSEC
0
SECTION
2
CLASSES
0
CLASS
1
RASTERVARIABLES
2
AcDbRasterVariables
3
ISM
90
0
280
0
281
0
0
ENDSEC
0
SECTION
2
TABLES
0
TABLE
2
VPORT
5
426
100
AcDbSymbolTable
0
VPORT
5
1
100
AcDbSymbolTableRecord
100
AcDbViewportTableRecord
2
*Active
70
0
10
0
20
0
11
1
21
1
12
-1
22
1
13
0
23
0
14
0.5
24
0.5
15
10
25
10
16
0
26
0
36
1
17
0
27
0
37
0
0
ENDTAB
0
TABLE
2
LTYPE
5
427
100
AcDbSymbolTable
0
LTYPE
5
14
100
AcDbSymbolTableRecord
100
AcDbLinetypeTableRecord
70
0
2
ByBlock
3

72
65
73
0
40
0
0
LTYPE
5
15
100
AcDbSymbolTableRecord
100
AcDbLinetypeTableRecord
70
0
2
ByLayer
3

72
65
73
0
40
0
0
LTYPE
5
16
100
AcDbSymbolTableRecord
100
AcDbLinetypeTableRecord
70
0
2
Continuous
3
Solid line
72
65
73
0
40
0
0
LTYPE
5
6E
100
AcDbSymbolTableRecord
100
AcDbLinetypeTableRecord
70
0
2
CENTER
3
____ _ ____ _ ____ _ ____
72
65
73
4
40
47.5
49
22
74
0
49
-8.5
74
0
49
8.5
74
0
49
-8.5
74
0
0
LTYPE
5
6F
100
AcDbSymbolTableRecord
100
AcDbLinetypeTableRecord
70
0
2
DASHED
3
__ __ __ __ __ __ __ __ __
72
65
73
2
40
25.72
49
12.86
74
0
49
-12.86
74
0
0
ENDTAB
0
TABLE
2
LAYER
5
428
100
AcDbSymbolTable
0
LAYER
5
10
100
AcDbSymbolTableRecord
100
AcDbLayerTableRecord
2
0
70
0
62
7
6
Continuous
290
1
370
-3
390
0
0
LAYER
5
71
100
AcDbSymbolTableRecord
100
AcDbLayerTableRecord
2
80
70
0
62
-6
6
Continuous
290
1
370
-3
390
0
0
LAYER
5
73
100
AcDbSymbolTableRecord
100
AcDbLayerTableRecord
2
81
70
0
62
-3
6
Continuous
290
1
370
-3
390
0
0
LAYER
5
82
100
AcDbSymbolTableRecord
100
AcDbLayerTableRecord
2
4
70
0
62
-2
6
CENTER
290
1
370
-3
390
0
0
LAYER
5
86
100
AcDbSymbolTableRecord
100
AcDbLayerTableRecord
2
1
70
0
62
4
6
Continuous
290
1
370
-3
390
0
0
LAYER
5
9A
100
AcDbSymbolTableRecord
100
AcDbLayerTableRecord
2
2
70
0
62
7
6
Continuous
290
1
370
-3
390
0
0
LAYER
5
369
100
AcDbSymbolTableRecord
100
AcDbLayerTableRecord
2
Defpoints
70
0
62
7
6
Continuous
290
0
370
-3
390
0
0
LAYER
5
411
100
AcDbSymbolTableRecord
100
AcDbLayerTableRecord
2
SK3
70
0
62
1
6
DASHED
290
1
370
-3
390
0
0
LAYER
5
412
100
AcDbSymbolTableRecord
100
AcDbLayerTableRecord
2
SK4
70
0
62
2
6
CENTER
290
1
370
-3
390
0
0
LAYER
5
413
100
AcDbSymbolTableRecord
100
AcDbLayerTableRecord
2
SK1
70
0
62
4
6
Continuous
290
1
370
-3
390
0
0
LAYER
5
414
100
AcDbSymbolTableRecord
100
AcDbLayerTableRecord
2
SK6
70
0
62
5
6
Continuous
290
1
370
-3
390
0
0
LAYER
5
415
100
AcDbSymbolTableRecord
100
AcDbLayerTableRecord
2
SK2
70
0
62
7
6
Continuous
290
1
370
-3
390
0
0
ENDTAB
0
TABLE
2
STYLE
5
429
100
AcDbSymbolTable
0
STYLE
5
11
100
AcDbSymbolTableRecord
100
AcDbTextStyleTableRecord
2
Standard
3
txt
70
0
71
0
40
0
41
1
42
0
50
0
0
STYLE
5
361
100
AcDbSymbolTableRecord
100
AcDbTextStyleTableRecord
2
iso_b_vert
3
simplex.shx
70
0
71
0
40
0
41
1
42
0
50
0
0
STYLE
5
362
100
AcDbSymbolTableRecord
100
AcDbTextStyleTableRecord
2
DWGDirectTextStyle
3
simplex
70
0
71
0
40
0
41
1
42
0
50
0
0
ENDTAB
0
TABLE
2
DIMSTYLE
5
42a
100
AcDbSymbolTable
100
AcDbDimStyleTable
0
DIMSTYLE
105
27
100
AcDbSymbolTableRecord
100
AcDbDimStyleTableRecord
2
Standard
70
0
3
<>
41
0.18
42
0.0625
44
0.18
140
0.18
147
0.09
73
0
74
0
77
1
271
2
275
0
278
52
280
0
340
11
0
ENDTAB
0
TABLE
2
VIEW
5
42b
100
AcDbSymbolTable
0
ENDTAB
0
TABLE
2
UCS
5
42c
100
AcDbSymbolTable
0
ENDTAB
0
TABLE
2
APPID
5
42d
100
AcDbSymbolTable
0
APPID
5
12
100
AcDbSymbolTableRecord
100
AcDbRegAppTableRecord
2
ACAD
70
0
0
APPID
5
365
100
AcDbSymbolTableRecord
100
AcDbRegAppTableRecord
2
ACAD_DSTYLE_DIMBREAK
70
0
0
APPID
5
39A
100
AcDbSymbolTableRecord
100
AcDbRegAppTableRecord
2
ACAD_DSTYLE_DIMANGULAR_EXTENSION
70
0
0
APPID
5
3D0
100
AcDbSymbolTableRecord
100
AcDbRegAppTableRecord
2
ACAD_DSTYLE_DIM_LINETYPE
70
0
0
APPID
5
3D1
100
AcDbSymbolTableRecord
100
AcDbRegAppTableRecord
2
ACAD_DSTYLE_DIM_EXT1_LINETYPE
70
0
0
APPID
5
3D2
100
AcDbSymbolTableRecord
100
AcDbRegAppTableRecord
2
ACAD_DSTYLE_DIM_EXT2_LINETYPE
70
0
0
APPID
5
40D
100
AcDbSymbolTableRecord
100
AcDbRegAppTableRecord
2
ACAD_MLEADERVER
70
0
0
ENDTAB
0
TABLE
2
BLOCK_RECORD
5
42e
100
AcDbSymbolTable
0
BLOCK_RECORD
5
1F
100
AcDbSymbolTableRecord
100
AcDbBlockTableRecord
2
*Model_Space
340
0
70
0
0
BLOCK_RECORD
5
1B
100
AcDbSymbolTableRecord
100
AcDbBlockTableRecord
2
*Paper_Space
340
0
70
0
0
BLOCK_RECORD
5
23
100
AcDbSymbolTableRecord
100
AcDbBlockTableRecord
2
*Paper_Space0
340
0
70
0
0
BLOCK_RECORD
5
36A
100
AcDbSymbolTableRecord
100
AcDbBlockTableRecord
2
*D1
340
0
70
0
0
BLOCK_RECORD
5
377
100
AcDbSymbolTableRecord
100
AcDbBlockTableRecord
2
_U0
340
0
70
0
0
BLOCK_RECORD
5
384
100
AcDbSymbolTableRecord
100
AcDbBlockTableRecord
2
*D3
340
0
70
0
0
BLOCK_RECORD
5
390
100
AcDbSymbolTableRecord
100
AcDbBlockTableRecord
2
_U1
340
0
70
0
0
BLOCK_RECORD
5
39D
100
AcDbSymbolTableRecord
100
AcDbBlockTableRecord
2
*D5
340
0
70
0
0
BLOCK_RECORD
5
3AA
100
AcDbSymbolTableRecord
100
AcDbBlockTableRecord
2
_U2
340
0
70
0
0
ENDTAB
0
ENDSEC
0
SECTION
2
BLOCKS
0
BLOCK
5
20
100
AcDbEntity
8
0
100
AcDbBlockBegin
2
*Model_Space
70
0
10
0
20
0
30
0
3
*Model_Space
0
ENDBLK
5
21
100
AcDbEntity
8
0
100
AcDbBlockEnd
0
BLOCK
5
1C
100
AcDbEntity
8
0
100
AcDbBlockBegin
2
*Paper_Space
70
0
10
0
20
0
30
0
3
*Paper_Space
0
ENDBLK
5
1D
100
AcDbEntity
8
0
100
AcDbBlockEnd
0
BLOCK
5
24
100
AcDbEntity
8
0
100
AcDbBlockBegin
2
*Paper_Space0
70
0
10
0
20
0
30
0
3
*Paper_Space0
0
ENDBLK
5
25
100
AcDbEntity
8
0
100
AcDbBlockEnd
0
BLOCK
5
36B
100
AcDbEntity
8
0
100
AcDbBlockBegin
2
*D1
70
1
10
0
20
0
30
0
3
*D1
0
LINE
5
36D
100
AcDbEntity
8
0
62
256
6
ByLayer
370
-2
48
1
60
0
100
AcDbLine
10
0.53923
20
-20.00625
30
0
11
-72.5
21
-20.00625
31
0
39
0
210
0
220
0
230
1
0
LINE
5
36E
100
AcDbEntity
8
0
62
256
6
ByLayer
370
-2
48
1
60
0
100
AcDbLine
10
17.5
20
20.00625
30
0
11
-72.5
21
20.00625
31
0
39
0
210
0
220
0
230
1
0
LINE
5
36F
100
AcDbEntity
8
0
62
256
6
ByLayer
370
-2
48
1
60
0
100
AcDbLine
10
-70.5
20
-15.00625
30
0
11
-70.5
21
15.00625
31
0
39
0
210
0
220
0
230
1
0
SOLID
5
370
100
AcDbEntity
8
0
62
256
6
ByLayer
370
-1
48
1
60
0
100
AcDbTrace
10
-71.333333
20
-15.00625
30
0
11
-69.666667
21
-15.00625
31
0
12
-70.5
22
-20.00625
32
0
13
-70.5
23
-20.00625
33
0
39
0
210
0
220
0
230
1
0
SOLID
5
371
100
AcDbEntity
8
0
62
256
6
ByLayer
370
-1
48
1
60
0
100
AcDbTrace
10
-69.666667
20
15.00625
30
0
11
-71.333333
21
15.00625
31
0
12
-70.5
22
20.00625
32
0
13
-70.5
23
20.00625
33
0
39
0
210
0
220
0
230
1
0
MTEXT
5
372
100
AcDbEntity
8
0
62
256
6
ByLayer
370
18
48
1
60
0
100
AcDbMText
10
-78
20
0
30
0
210
0
220
0
230
1
1
\A1;40
40
3
41
0
44
1
50
90
71
5
72
5
7
iso_b_vert
0
POINT
5
373
100
AcDbEntity
8
Defpoints
62
0
6
ByLayer
370
-1
48
1
60
0
100
AcDbPoint
10
1.03923
20
-20.00625
30
0
39
0
210
0
220
0
230
1
50
360
0
POINT
5
374
100
AcDbEntity
8
Defpoints
62
0
6
ByLayer
370
-1
48
1
60
0
100
AcDbPoint
10
18
20
20.00625
30
0
39
0
210
0
220
0
230
1
50
360
0
POINT
5
375
100
AcDbEntity
8
Defpoints
62
0
6
ByLayer
370
-1
48
1
60
0
100
AcDbPoint
10
-70.5
20
20.00625
30
0
39
0
210
0
220
0
230
1
50
360
0
ENDBLK
5
36C
100
AcDbEntity
8
0
100
AcDbBlockEnd
0
BLOCK
5
37F
100
AcDbEntity
8
0
100
AcDbBlockBegin
2
_U0
70
0
10
0
20
0
30
0
3
_U0
0
MTEXT
5
378
100
AcDbEntity
8
SK2
62
256
6
ByLayer
370
18
48
1
60
0
100
AcDbMText
10
-71.091114
20
-2.162368
30
0
210
0
220
0
230
1
1
\W0.8461;%%c 40
40
3
41
0
44
1.084337
50
90
71
7
72
5
7
iso_b_vert
0
MTEXT
5
379
100
AcDbEntity
8
SK2
62
256
6
ByLayer
370
18
48
1
60
0
100
AcDbMText
10
-71.091114
20
-6.030789
30
0
210
0
220
0
230
1
1
\W0.3160; 
40
3
41
0
44
1.084337
50
90
71
7
72
5
7
iso_b_vert
0
LINE
5
37A
100
AcDbEntity
8
SK2
62
256
6
ByLayer
370
13
48
1
60
0
100
AcDbLine
10
0.53923
20
-20.00625
30
0
11
-72.5
21
-20.00625
31
0
39
0
210
0
220
0
230
1
0
LINE
5
37B
100
AcDbEntity
8
SK2
62
256
6
ByLayer
370
13
48
1
60
0
100
AcDbLine
10
0.53923
20
20.00625
30
0
11
-72.5
21
20.00625
31
0
39
0
210
0
220
0
230
1
0
LINE
5
37C
100
AcDbEntity
8
SK2
62
256
6
ByLayer
370
13
48
1
60
0
100
AcDbLine
10
-70.5
20
-20.00625
30
0
11
-70.5
21
20.00625
31
0
39
0
210
0
220
0
230
1
0
SOLID
5
37D
100
AcDbEntity
8
SK2
62
256
6
ByLayer
370
18
48
1
60
0
100
AcDbTrace
10
-70.5
20
-20.00625
30
0
11
-71.608473
21
-15.006254
31
0
12
-69.391527
22
-15.006246
32
0
13
-69.391527
23
-15.006246
33
0
39
0
210
0
220
0
230
1
0
SOLID
5
37E
100
AcDbEntity
8
SK2
62
256
6
ByLayer
370
18
48
1
60
0
100
AcDbTrace
10
-70.5
20
20.00625
30
0
11
-69.391527
21
15.006254
31
0
12
-71.608473
22
15.006246
32
0
13
-71.608473
23
15.006246
33
0
39
0
210
0
220
0
230
1
0
ENDBLK
5
380
100
AcDbEntity
8
0
100
AcDbBlockEnd
0
BLOCK
5
385
100
AcDbEntity
8
0
100
AcDbBlockBegin
2
*D3
70
1
10
0
20
0
30
0
3
*D3
0
LINE
5
387
100
AcDbEntity
8
0
62
256
6
ByLayer
370
-2
48
1
60
0
100
AcDbLine
10
0
20
80
30
0
11
0
21
372.5
31
0
39
0
210
0
220
0
230
1
0
LINE
5
388
100
AcDbEntity
8
0
62
256
6
ByLayer
370
-2
48
1
60
0
100
AcDbLine
10
205
20
333.5
30
0
11
205
21
372.5
31
0
39
0
210
0
220
0
230
1
0
LINE
5
389
100
AcDbEntity
8
0
62
256
6
ByLayer
370
-2
48
1
60
0
100
AcDbLine
10
5
20
370.5
30
0
11
200
21
370.5
31
0
39
0
210
0
220
0
230
1
0
SOLID
5
38A
100
AcDbEntity
8
0
62
256
6
ByLayer
370
-1
48
1
60
0
100
AcDbTrace
10
5
20
371.333333
30
0
11
5
21
369.666667
31
0
12
0
22
370.5
32
0
13
0
23
370.5
33
0
39
0
210
0
220
0
230
1
0
SOLID
5
38B
100
AcDbEntity
8
0
62
256
6
ByLayer
370
-1
48
1
60
0
100
AcDbTrace
10
200
20
369.666667
30
0
11
200
21
371.333333
31
0
12
205
22
370.5
32
0
13
205
23
370.5
33
0
39
0
210
0
220
0
230
1
0
MTEXT
5
38C
100
AcDbEntity
8
0
62
256
6
ByLayer
370
18
48
1
60
0
100
AcDbMText
10
102.5
20
378
30
0
210
0
220
0
230
1
1
\A1;205
40
3
41
0
44
1
50
0
71
5
72
5
7
iso_b_vert
0
POINT
5
38D
100
AcDbEntity
8
Defpoints
62
0
6
ByLayer
370
-1
48
1
60
0
100
AcDbPoint
10
0
20
79.5
30
0
39
0
210
0
220
0
230
1
50
360
0
POINT
5
38E
100
AcDbEntity
8
Defpoints
62
0
6
ByLayer
370
-1
48
1
60
0
100
AcDbPoint
10
205
20
333
30
0
39
0
210
0
220
0
230
1
50
360
0
POINT
5
38F
100
AcDbEntity
8
Defpoints
62
0
6
ByLayer
370
-1
48
1
60
0
100
AcDbPoint
10
205
20
370.5
30
0
39
0
210
0
220
0
230
1
50
360
0
ENDBLK
5
386
100
AcDbEntity
8
0
100
AcDbBlockEnd
0
BLOCK
5
397
100
AcDbEntity
8
0
100
AcDbBlockBegin
2
_U1
70
0
10
0
20
0
30
0
3
_U1
0
MTEXT
5
391
100
AcDbEntity
8
2
62
256
6
ByLayer
370
18
48
1
60
0
100
AcDbMText
10
99.746944
20
371.385114
30
0
210
0
220
0
230
1
1
\W0.6893;205
40
3
41
0
44
1.084337
50
0
71
7
72
5
7
iso_b_vert
0
LINE
5
392
100
AcDbEntity
8
2
62
256
6
ByLayer
370
13
48
1
60
0
100
AcDbLine
10
0
20
80
30
0
11
0
21
372.5
31
0
39
0
210
0
220
0
230
1
0
LINE
5
393
100
AcDbEntity
8
2
62
256
6
ByLayer
370
13
48
1
60
0
100
AcDbLine
10
205
20
333.5
30
0
11
205
21
372.5
31
0
39
0
210
0
220
0
230
1
0
LINE
5
394
100
AcDbEntity
8
2
62
256
6
ByLayer
370
13
48
1
60
0
100
AcDbLine
10
0
20
370.5
30
0
11
205
21
370.5
31
0
39
0
210
0
220
0
230
1
0
SOLID
5
395
100
AcDbEntity
8
2
62
256
6
ByLayer
370
18
48
1
60
0
100
AcDbTrace
10
0
20
370.5
30
0
11
4.999996
21
371.608473
31
0
12
5.000004
22
369.391527
32
0
13
5.000004
23
369.391527
33
0
39
0
210
0
220
0
230
1
0
SOLID
5
396
100
AcDbEntity
8
2
62
256
6
ByLayer
370
18
48
1
60
0
100
AcDbTrace
10
205
20
370.5
30
0
11
200.000004
21
369.391527
31
0
12
199.999996
22
371.608473
32
0
13
199.999996
23
371.608473
33
0
39
0
210
0
220
0
230
1
0
ENDBLK
5
398
100
AcDbEntity
8
0
100
AcDbBlockEnd
0
BLOCK
5
39E
100
AcDbEntity
8
0
100
AcDbBlockBegin
2
*D5
70
1
10
0
20
0
30
0
3
*D5
0
LINE
5
3A0
100
AcDbEntity
8
0
62
256
6
ByLayer
370
-2
48
1
60
0
100
AcDbLine
10
204.646453
20
322.471821
30
0
11
204.479645
21
317.695052
31
0
39
0
210
0
220
0
230
1
0
ARC
5
3A1
100
AcDbEntity
8
0
62
256
6
ByLayer
370
-2
48
1
60
0
100
AcDbCircle
39
0
10
205.014106
20
333
30
0
40
13.3142771633922
210
0
220
0
230
1
100
AcDbArc
50
289.645154
51
338.354846
0
SOLID
5
3A2
100
AcDbEntity
8
0
62
256
6
ByLayer
370
-1
48
1
60
0
100
AcDbTrace
10
209.362471
20
321.284183
30
0
11
209.618097
21
319.637236
31
0
12
204.549444
22
319.693834
32
0
13
204.549444
23
319.693834
33
0
39
0
210
0
220
0
230
1
0
SOLID
5
3A3
100
AcDbEntity
8
0
62
256
6
ByLayer
370
-1
48
1
60
0
100
AcDbTrace
10
218.208052
20
327.93246
30
0
11
216.57103
21
328.245407
31
0
12
218.328383
22
333
32
0
13
218.328383
23
333
33
0
39
0
210
0
220
0
230
1
0
MTEXT
5
3A4
100
AcDbEntity
8
0
62
256
6
ByLayer
370
18
48
1
60
0
100
AcDbMText
10
209.003423
20
328.86894
30
0
210
0
220
0
230
1
1
\A1;92%%d
40
3
41
0
44
1
50
0
71
5
72
5
7
iso_b_vert
0
POINT
5
3A5
100
AcDbEntity
8
Defpoints
62
0
6
ByLayer
370
-1
48
1
60
0
100
AcDbPoint
10
211.401139
20
321.317715
30
0
39
0
210
0
220
0
230
1
50
360
0
POINT
5
3A6
100
AcDbEntity
8
Defpoints
62
0
6
ByLayer
370
-1
48
1
60
0
100
AcDbPoint
10
207
20
333
30
0
39
0
210
0
220
0
230
1
50
360
0
POINT
5
3A7
100
AcDbEntity
8
Defpoints
62
0
6
ByLayer
370
-1
48
1
60
0
100
AcDbPoint
10
204.663903
20
322.971516
30
0
39
0
210
0
220
0
230
1
50
360
0
POINT
5
3A8
100
AcDbEntity
8
Defpoints
62
0
6
ByLayer
370
-1
48
1
60
0
100
AcDbPoint
10
204.999766
20
332.589361
30
0
39
0
210
0
220
0
230
1
50
360
0
POINT
5
3A9
100
AcDbEntity
8
Defpoints
62
0
6
ByLayer
370
-1
48
1
60
0
100
AcDbPoint
10
237
20
333
30
0
39
0
210
0
220
0
230
1
50
360
0
ENDBLK
5
39F
100
AcDbEntity
8
0
100
AcDbBlockEnd
0
BLOCK
5
3B0
100
AcDbEntity
8
0
100
AcDbBlockBegin
2
_U2
70
0
10
0
20
0
30
0
3
_U2
0
MTEXT
5
3AB
100
AcDbEntity
8
2
62
256
6
ByLayer
370
18
48
1
60
0
100
AcDbMText
10
214.010572
20
320.03251
30
0
210
0
220
0
230
1
1
\W0.6002;92%%d
40
3
41
0
44
1.084337
50
44.0000000000003
71
7
72
5
7
iso_b_vert
0
LINE
5
3AC
100
AcDbEntity
8
2
62
256
6
ByLayer
370
13
48
1
60
0
100
AcDbLine
10
204.646453
20
322.471821
30
0
11
204.374946
21
314.696879
31
0
39
0
210
0
220
0
230
1
0
ARC
5
3AD
100
AcDbEntity
8
2
62
256
6
ByLayer
370
13
48
1
60
0
100
AcDbCircle
39
0
10
205.014106
20
333
30
0
40
16.3142771633922
210
0
220
0
230
1
100
AcDbArc
50
268
51
359.999943
0
SOLID
5
3AE
100
AcDbEntity
8
2
62
256
6
ByLayer
370
18
48
1
60
0
100
AcDbTrace
10
204.444745
20
316.695661
30
0
11
209.394945
21
318.008749
31
0
12
209.486092
22
315.793677
32
0
13
209.486092
23
315.793677
33
0
39
0
210
0
220
0
230
1
0
SOLID
5
3AF
100
AcDbEntity
8
2
62
256
6
ByLayer
370
18
48
1
60
0
100
AcDbTrace
10
221.328383
20
333
30
0
11
222.053877
21
327.930253
31
0
12
219.843334
22
328.098634
32
0
13
219.843334
23
328.098634
33
0
39
0
210
0
220
0
230
1
0
ENDBLK
5
3B1
100
AcDbEntity
8
0
100
AcDbBlockEnd
0
ENDSEC
0
SECTION
2
ENTITIES
0
ARC
5
22C
100
AcDbEntity
8
SK3
62
256
6
ByLayer
370
13
48
0.05
60
0
100
AcDbCircle
39
0
10
18.8
20
-20.2
30
0
40
0.8
210
0
220
0
230
1
100
AcDbArc
50
180
51
270
0
ARC
5
22D
100
AcDbEntity
8
SK3
62
256
6
ByLayer
370
13
48
0.05
60
0
100
AcDbCircle
39
0
10
26.2
20
20.2
30
0
40
0.8
210
0
220
0
230
1
100
AcDbArc
50
0
51
90
0
ARC
5
22E
100
AcDbEntity
8
SK3
62
256
6
ByLayer
370
13
48
0.05
60
0
100
AcDbCircle
39
0
10
18.8
20
20.2
30
0
40
0.8
210
0
220
0
230
1
100
AcDbArc
50
90
51
180
0
ARC
5
22F
100
AcDbEntity
8
SK3
62
256
6
ByLayer
370
13
48
0.05
60
0
100
AcDbCircle
39
0
10
26.2
20
-20.2
30
0
40
0.8
210
0
220
0
230
1
100
AcDbArc
50
270
51
0
0
ARC
5
230
100
AcDbEntity
8
1
62
256
6
ByLayer
370
13
48
1
60
0
100
AcDbCircle
39
0
10
177.25
20
310.788
30
0
40
3.4455
210
0
220
0
230
1
100
AcDbArc
50
75
51
345
0
ARC
5
231
100
AcDbEntity
8
1
62
256
6
ByLayer
370
13
48
1
60
0
100
AcDbCircle
39
0
10
38
20
209
30
0
40
5
210
0
220
0
230
1
100
AcDbArc
50
75
51
345
0
ARC
5
232
100
AcDbEntity
8
1
62
256
6
ByLayer
370
13
48
1
60
0
100
AcDbCircle
39
0
10
38
20
-209
30
0
40
5
210
0
220
0
230
1
100
AcDbArc
50
75
51
345
0
ARC
5
235
100
AcDbEntity
8
1
62
256
6
ByLayer
370
18
48
1
60
0
100
AcDbCircle
39
0
10
204.603132
20
332.603212
30
0
40
0.396875
210
0
220
0
230
1
100
AcDbArc
50
358
51
118
0
ARC
5
236
100
AcDbEntity
8
1
62
256
6
ByLayer
370
18
48
1
60
0
100
AcDbCircle
39
0
10
204.26727
20
322.985367
30
0
40
0.396875
210
0
220
0
230
1
100
AcDbArc
50
238
51
358
0
ARC
5
237
100
AcDbEntity
8
1
62
256
6
ByLayer
370
18
48
1
60
0
100
AcDbCircle
39
0
10
196.105903
20
328.085155
30
0
40
0.396875
210
0
220
0
230
1
100
AcDbArc
50
118
51
238
0
ARC
5
23A
100
AcDbEntity
8
1
62
256
6
ByLayer
370
18
48
1
60
0
100
AcDbCircle
39
0
10
177.25
20
310.788
30
0
40
2.34259871723677
210
0
220
0
230
1
100
AcDbArc
50
60
51
120
0
ARC
5
23B
100
AcDbEntity
8
1
62
256
6
ByLayer
370
18
48
1
60
0
100
AcDbCircle
39
0
10
177.25
20
310.788
30
0
40
2.34259871723677
210
0
220
0
230
1
100
AcDbArc
50
240
51
300
0
ARC
5
23C
100
AcDbEntity
8
1
62
256
6
ByLayer
370
18
48
1
60
0
100
AcDbCircle
39
0
10
177.25
20
310.788
30
0
40
2.34259871723677
210
0
220
0
230
1
100
AcDbArc
50
120
51
180
0
ARC
5
23D
100
AcDbEntity
8
1
62
256
6
ByLayer
370
18
48
1
60
0
100
AcDbCircle
39
0
10
177.25
20
310.788
30
0
40
2.34259871723677
210
0
220
0
230
1
100
AcDbArc
50
300
51
360
0
ARC
5
23E
100
AcDbEntity
8
1
62
256
6
ByLayer
370
18
48
1
60
0
100
AcDbCircle
39
0
10
177.25
20
310.788
30
0
40
2.34259871723677
210
0
220
0
230
1
100
AcDbArc
50
180
51
240
0
ARC
5
23F
100
AcDbEntity
8
1
62
256
6
ByLayer
370
18
48
1
60
0
100
AcDbCircle
39
0
10
177.25
20
310.788
30
0
40
2.34259871723677
210
0
220
0
230
1
100
AcDbArc
50
0
51
60
0
ARC
5
240
100
AcDbEntity
8
1
62
256
6
ByLayer
370
18
48
1
60
0
100
AcDbCircle
39
0
10
158.4
20
294.8523
30
0
40
0.4
210
0
220
0
230
1
100
AcDbArc
50
90
51
180
0
ARC
5
243
100
AcDbEntity
8
1
62
256
6
ByLayer
370
18
48
1
60
0
100
AcDbCircle
39
0
10
204.603132
20
332.603212
30
0
40
0.396875
210
0
220
0
230
1
100
AcDbArc
50
358
51
118
0
ARC
5
244
100
AcDbEntity
8
1
62
256
6
ByLayer
370
18
48
1
60
0
100
AcDbCircle
39
0
10
204.26727
20
322.985367
30
0
40
0.396875
210
0
220
0
230
1
100
AcDbArc
50
238
51
358
0
ARC
5
245
100
AcDbEntity
8
1
62
256
6
ByLayer
370
18
48
1
60
0
100
AcDbCircle
39
0
10
196.105903
20
328.085155
30
0
40
0.396875
210
0
220
0
230
1
100
AcDbArc
50
118
51
238
0
ARC
5
248
100
AcDbEntity
8
1
62
256
6
ByLayer
370
18
48
1
60
0
100
AcDbCircle
39
0
10
196.061961
20
328.086819
30
0
40
1.05000000000009
210
0
220
0
230
1
100
AcDbArc
50
48.911654
51
94.602037
0
ARC
5
249
100
AcDbEntity
8
1
62
256
6
ByLayer
370
18
48
1
60
0
100
AcDbCircle
39
0
10
197.146481
20
328.690164
30
0
40
1.25
210
0
220
0
230
1
100
AcDbArc
50
148
51
159.230131
0
ARC
5
24A
100
AcDbEntity
8
1
62
256
6
ByLayer
370
18
48
1
60
0
100
AcDbCircle
39
0
10
197.252464
20
328.859774
30
0
40
1.25
210
0
220
0
230
1
100
AcDbArc
50
58
51
148
0
ARC
5
24B
100
AcDbEntity
8
1
62
256
6
ByLayer
370
18
48
1
60
0
100
AcDbCircle
39
0
10
196.061961
20
328.086819
30
0
40
1.05000000000009
210
0
220
0
230
1
100
AcDbArc
50
94.602037
51
307.073559
0
ARC
5
24C
100
AcDbEntity
8
1
62
256
6
ByLayer
370
18
48
1
60
0
100
AcDbCircle
39
0
10
196.061961
20
328.086819
30
0
40
1.25
210
0
220
0
230
1
100
AcDbArc
50
126
51
158.57495
0
ARC
5
24D
100
AcDbEntity
8
1
62
256
6
ByLayer
370
18
48
1
60
0
100
AcDbCircle
39
0
10
197.271646
20
328.965706
30
0
40
1.25
210
0
220
0
230
1
100
AcDbArc
50
59.252344
51
126
0
ARC
5
24E
100
AcDbEntity
8
1
62
256
6
ByLayer
370
18
48
1
60
0
100
AcDbCircle
39
0
10
196.061961
20
328.086819
30
0
40
1.25
210
0
220
0
230
1
100
AcDbArc
50
239.646554
51
285.358602
0
ARC
5
24F
100
AcDbEntity
8
1
62
256
6
ByLayer
370
18
48
1
60
0
100
AcDbCircle
39
0
10
196.061961
20
328.086819
30
0
40
1.25
210
0
220
0
230
1
100
AcDbArc
50
158.57495
51
239.646554
0
ARC
5
250
100
AcDbEntity
8
1
62
256
6
ByLayer
370
18
48
1
60
0
100
AcDbCircle
39
0
10
201.658769
20
327.891245
30
0
40
0.747999999999999
210
0
220
0
230
1
100
AcDbArc
50
267.975421
51
325.838153
0
ARC
5
251
100
AcDbEntity
8
1
62
256
6
ByLayer
370
18
48
1
60
0
100
AcDbCircle
39
0
10
201.658769
20
327.891245
30
0
40
0.747999999999999
210
0
220
0
230
1
100
AcDbArc
50
150.161847
51
208.024579
0
ARC
5
252
100
AcDbEntity
8
1
62
256
6
ByLayer
370
18
48
1
60
0
100
AcDbCircle
39
0
10
201.658769
20
327.891245
30
0
40
0.747999999999999
210
0
220
0
230
1
100
AcDbArc
50
87.975421
51
145.838153
0
ARC
5
253
100
AcDbEntity
8
1
62
256
6
ByLayer
370
18
48
1
60
0
100
AcDbCircle
39
0
10
201.658769
20
327.891245
30
0
40
0.747999999999999
210
0
220
0
230
1
100
AcDbArc
50
330.161847
51
28.024579
0
ARC
5
254
100
AcDbEntity
8
1
62
256
6
ByLayer
370
18
48
1
60
0
100
AcDbCircle
39
0
10
201.658769
20
327.891245
30
0
40
0.747999999999999
210
0
220
0
230
1
100
AcDbArc
50
208.024579
51
267.975421
0
ARC
5
255
100
AcDbEntity
8
1
62
256
6
ByLayer
370
18
48
1
60
0
100
AcDbCircle
39
0
10
201.658769
20
327.891245
30
0
40
0.747999999999999
210
0
220
0
230
1
100
AcDbArc
50
28.024579
51
87.975421
0
ARC
5
256
100
AcDbEntity
8
1
62
256
6
ByLayer
370
18
48
1
60
0
100
AcDbCircle
39
0
10
201.658769
20
327.891245
30
0
40
0.747999999999999
210
0
220
0
230
1
100
AcDbArc
50
325.838153
51
330.161847
0
ARC
5
257
100
AcDbEntity
8
1
62
256
6
ByLayer
370
18
48
1
60
0
100
AcDbCircle
39
0
10
201.658769
20
327.891245
30
0
40
1.035
210
0
220
0
230
1
100
AcDbArc
50
238
51
297.950841
0
ARC
5
258
100
AcDbEntity
8
1
62
256
6
ByLayer
370
18
48
1
60
0
100
AcDbCircle
39
0
10
201.658769
20
327.891245
30
0
40
1.035
210
0
220
0
230
1
100
AcDbArc
50
297.950841
51
358.049159
0
ARC
5
259
100
AcDbEntity
8
1
62
256
6
ByLayer
370
18
48
1
60
0
100
AcDbCircle
39
0
10
201.658769
20
327.891245
30
0
40
1.035
210
0
220
0
230
1
100
AcDbArc
50
178.049159
51
238
0
ARC
5
25C
100
AcDbEntity
8
1
62
256
6
ByLayer
370
18
48
1
60
0
100
AcDbCircle
39
0
10
201.658769
20
327.891245
30
0
40
1.035
210
0
220
0
230
1
100
AcDbArc
50
58
51
117.950841
0
ARC
5
25D
100
AcDbEntity
8
1
62
256
6
ByLayer
370
18
48
1
60
0
100
AcDbCircle
39
0
10
201.658769
20
327.891245
30
0
40
1.035
210
0
220
0
230
1
100
AcDbArc
50
358.049159
51
58
0
ARC
5
25E
100
AcDbEntity
8
1
62
256
6
ByLayer
370
18
48
1
60
0
100
AcDbCircle
39
0
10
201.658769
20
327.891245
30
0
40
1.035
210
0
220
0
230
1
100
AcDbArc
50
117.950841
51
178.049159
0
ARC
5
25F
100
AcDbEntity
8
1
62
256
6
ByLayer
370
18
48
1
60
0
100
AcDbCircle
39
0
10
201.658769
20
327.891245
30
0
40
0.747999999999999
210
0
220
0
230
1
100
AcDbArc
50
145.838153
51
150.161847
0
ARC
5
264
100
AcDbEntity
8
1
62
256
6
ByLayer
370
18
48
1
60
0
100
AcDbCircle
39
0
10
196.061961
20
328.086819
30
0
40
1.05000000000009
210
0
220
0
230
1
100
AcDbArc
50
48.911654
51
94.602037
0
ARC
5
265
100
AcDbEntity
8
1
62
256
6
ByLayer
370
18
48
1
60
0
100
AcDbCircle
39
0
10
197.252464
20
328.859774
30
0
40
1.25
210
0
220
0
230
1
100
AcDbArc
50
58
51
148
0
ARC
5
266
100
AcDbEntity
8
1
62
256
6
ByLayer
370
18
48
1
60
0
100
AcDbCircle
39
0
10
197.146481
20
328.690164
30
0
40
1.25
210
0
220
0
230
1
100
AcDbArc
50
148
51
159.230131
0
ARC
5
267
100
AcDbEntity
8
1
62
256
6
ByLayer
370
18
48
1
60
0
100
AcDbCircle
39
0
10
196.061961
20
328.086819
30
0
40
1.05000000000009
210
0
220
0
230
1
100
AcDbArc
50
94.602037
51
307.073559
0
ARC
5
268
100
AcDbEntity
8
1
62
256
6
ByLayer
370
18
48
1
60
0
100
AcDbCircle
39
0
10
197.271646
20
328.965706
30
0
40
1.25
210
0
220
0
230
1
100
AcDbArc
50
59.252344
51
126
0
ARC
5
269
100
AcDbEntity
8
1
62
256
6
ByLayer
370
18
48
1
60
0
100
AcDbCircle
39
0
10
196.061961
20
328.086819
30
0
40
1.25
210
0
220
0
230
1
100
AcDbArc
50
126
51
158.57495
0
ARC
5
26A
100
AcDbEntity
8
1
62
256
6
ByLayer
370
18
48
1
60
0
100
AcDbCircle
39
0
10
196.061961
20
328.086819
30
0
40
1.25
210
0
220
0
230
1
100
AcDbArc
50
239.646554
51
285.358602
0
ARC
5
26B
100
AcDbEntity
8
1
62
256
6
ByLayer
370
18
48
1
60
0
100
AcDbCircle
39
0
10
196.061961
20
328.086819
30
0
40
1.25
210
0
220
0
230
1
100
AcDbArc
50
158.57495
51
239.646554
0
ARC
5
26C
100
AcDbEntity
8
1
62
256
6
ByLayer
370
18
48
1
60
0
100
AcDbCircle
39
0
10
167.62
20
-238.25
30
0
40
1
210
0
220
0
230
1
100
AcDbArc
50
0
51
90
0
ARC
5
26D
100
AcDbEntity
8
1
62
256
6
ByLayer
370
18
48
1
60
0
100
AcDbCircle
39
0
10
188.460064
20
310.788
30
0
40
13.5
210
0
220
0
230
1
100
AcDbArc
50
0
51
21.738461
0
ARC
5
26E
100
AcDbEntity
8
1
62
256
6
ByLayer
370
18
48
1
60
0
100
AcDbCircle
39
0
10
188.460064
20
310.788
30
0
40
13.5
210
0
220
0
230
1
100
AcDbArc
50
338.261539
51
0
0
ARC
5
26F
100
AcDbEntity
8
1
62
256
6
ByLayer
370
18
48
1
60
0
100
AcDbCircle
39
0
10
141.585
20
62.2
30
0
40
1.2
210
0
220
0
230
1
100
AcDbArc
50
270
51
0
0
ARC
5
270
100
AcDbEntity
8
1
62
256
6
ByLayer
370
18
48
1
60
0
100
AcDbCircle
39
0
10
141.585
20
77.8
30
0
40
1.2
210
0
220
0
230
1
100
AcDbArc
50
0
51
90
0
ARC
5
271
100
AcDbEntity
8
1
62
256
6
ByLayer
370
18
48
1
60
0
100
AcDbCircle
39
0
10
167.62
20
-265.25
30
0
40
1
210
0
220
0
230
1
100
AcDbArc
50
270
51
0
0
ARC
5
272
100
AcDbEntity
8
1
62
256
6
ByLayer
370
18
48
1
60
0
100
AcDbCircle
39
0
10
167.62
20
-251.25
30
0
40
1
210
0
220
0
230
1
100
AcDbArc
50
0
51
90
0
ARC
5
273
100
AcDbEntity
8
1
62
256
6
ByLayer
370
18
48
1
60
0
100
AcDbCircle
39
0
10
167.62
20
265.25
30
0
40
1
210
0
220
0
230
1
100
AcDbArc
50
0
51
90
0
ARC
5
274
100
AcDbEntity
8
1
62
256
6
ByLayer
370
18
48
1
60
0
100
AcDbCircle
39
0
10
167.62
20
276.25
30
0
40
1
210
0
220
0
230
1
100
AcDbArc
50
270
51
0
0
ARC
5
275
100
AcDbEntity
8
1
62
256
6
ByLayer
370
18
48
1
60
0
100
AcDbCircle
39
0
10
167.62
20
290.25
30
0
40
1
210
0
220
0
230
1
100
AcDbArc
50
0
51
90
0
ARC
5
276
100
AcDbEntity
8
1
62
256
6
ByLayer
370
18
48
1
60
0
100
AcDbCircle
39
0
10
167.62
20
-276.25
30
0
40
1
210
0
220
0
230
1
100
AcDbArc
50
2.735205
51
90
0
ARC
5
277
100
AcDbEntity
8
1
62
256
6
ByLayer
370
18
48
1
60
0
100
AcDbCircle
39
0
10
1.5
20
79.5
30
0
40
1.5
210
0
220
0
230
1
100
AcDbArc
50
90
51
180
0
ARC
5
278
100
AcDbEntity
8
1
62
256
6
ByLayer
370
18
48
1
60
0
100
AcDbCircle
39
0
10
1.5
20
-79.5
30
0
40
1.5
210
0
220
0
230
1
100
AcDbArc
50
180
51
270
0
ARC
5
279
100
AcDbEntity
8
1
62
256
6
ByLayer
370
18
48
1
60
0
100
AcDbCircle
39
0
10
194.545644
20
287.0463
30
0
40
6.8
210
0
220
0
230
1
100
AcDbArc
50
0
51
18.346446
0
ARC
5
27A
100
AcDbEntity
8
1
62
256
6
ByLayer
370
18
48
1
60
0
100
AcDbCircle
39
0
10
194.545644
20
287.0463
30
0
40
6.8
210
0
220
0
230
1
100
AcDbArc
50
341.653554
51
0
0
ARC
5
27B
100
AcDbEntity
8
1
62
256
6
ByLayer
370
18
48
1
60
0
100
AcDbCircle
39
0
10
141.585
20
-77.8
30
0
40
1.2
210
0
220
0
230
1
100
AcDbArc
50
270
51
0
0
ARC
5
27C
100
AcDbEntity
8
1
62
256
6
ByLayer
370
18
48
1
60
0
100
AcDbCircle
39
0
10
141.585
20
-62.2
30
0
40
1.2
210
0
220
0
230
1
100
AcDbArc
50
0
51
90
0
ARC
5
27D
100
AcDbEntity
8
1
62
256
6
ByLayer
370
18
48
1
60
0
100
AcDbCircle
39
0
10
167.62
20
238.25
30
0
40
1
210
0
220
0
230
1
100
AcDbArc
50
270
51
0
0
ARC
5
27E
100
AcDbEntity
8
1
62
256
6
ByLayer
370
18
48
1
60
0
100
AcDbCircle
39
0
10
167.62
20
252.25
30
0
40
1
210
0
220
0
230
1
100
AcDbArc
50
0
51
90
0
CIRCLE
5
233
100
AcDbEntity
8
1
62
256
6
ByLayer
370
13
48
1
60
0
100
AcDbCircle
10
201.658769
20
327.891245
30
0
40
1.8014146404184
39
0
210
0
220
0
230
1
0
CIRCLE
5
234
100
AcDbEntity
8
1
62
256
6
ByLayer
370
13
48
1
60
0
100
AcDbCircle
10
201.658769
20
327.891245
30
0
40
1.88122167929295
39
0
210
0
220
0
230
1
0
CIRCLE
5
238
100
AcDbEntity
8
1
62
256
6
ByLayer
370
18
48
1
60
0
100
AcDbCircle
10
201.658769
20
327.891245
30
0
40
1.90468944117779
39
0
210
0
220
0
230
1
0
CIRCLE
5
239
100
AcDbEntity
8
1
62
256
6
ByLayer
370
18
48
1
60
0
100
AcDbCircle
10
177.25
20
310.788
30
0
40
3.233
39
0
210
0
220
0
230
1
0
CIRCLE
5
241
100
AcDbEntity
8
1
62
256
6
ByLayer
370
18
48
1
60
0
100
AcDbCircle
10
177.25
20
310.788
30
0
40
4
39
0
210
0
220
0
230
1
0
CIRCLE
5
242
100
AcDbEntity
8
1
62
256
6
ByLayer
370
13
48
1
60
0
100
AcDbCircle
10
201.658769
20
327.891245
30
0
40
1.8014146404184
39
0
210
0
220
0
230
1
0
CIRCLE
5
246
100
AcDbEntity
8
1
62
256
6
ByLayer
370
13
48
1
60
0
100
AcDbCircle
10
201.658769
20
327.891245
30
0
40
1.88122167929295
39
0
210
0
220
0
230
1
0
CIRCLE
5
247
100
AcDbEntity
8
1
62
256
6
ByLayer
370
18
48
1
60
0
100
AcDbCircle
10
201.658769
20
327.891245
30
0
40
1.90468944117779
39
0
210
0
220
0
230
1
0
CIRCLE
5
25A
100
AcDbEntity
8
1
62
256
6
ByLayer
370
18
48
1
60
0
100
AcDbCircle
10
201.658769
20
327.891245
30
0
40
1.3
39
0
210
0
220
0
230
1
0
CIRCLE
5
25B
100
AcDbEntity
8
1
62
256
6
ByLayer
370
18
48
1
60
0
100
AcDbCircle
10
201.658769
20
327.891245
30
0
40
1.725
39
0
210
0
220
0
230
1
0
CIRCLE
5
260
100
AcDbEntity
8
1
62
256
6
ByLayer
370
18
48
1
60
0
100
AcDbCircle
10
38
20
209
30
0
40
4.25
39
0
210
0
220
0
230
1
0
CIRCLE
5
261
100
AcDbEntity
8
1
62
256
6
ByLayer
370
18
48
1
60
0
100
AcDbCircle
10
38
20
-209
30
0
40
4.25
39
0
210
0
220
0
230
1
0
CIRCLE
5
262
100
AcDbEntity
8
1
62
256
6
ByLayer
370
18
48
1
60
0
100
AcDbCircle
10
38
20
-209
30
0
40
14
39
0
210
0
220
0
230
1
0
CIRCLE
5
263
100
AcDbEntity
8
1
62
256
6
ByLayer
370
18
48
1
60
0
100
AcDbCircle
10
38
20
209
30
0
40
14
39
0
210
0
220
0
230
1
0
ELLIPSE
5
27F
100
AcDbEntity
8
1
62
256
6
ByLayer
370
18
48
1
60
0
100
AcDbEllipse
10
142.333277
20
-321.5023
30
0
11
-1.92875500727024E-16
21
-1.05
31
0
210
0
220
0
230
1
40
0.990065
41
-0.116571383810981
42
3.02087404699344
0
ELLIPSE
5
280
100
AcDbEntity
8
1
62
256
6
ByLayer
370
18
48
1
60
0
100
AcDbEllipse
10
142.333277
20
-321.5023
30
0
11
8.33543539895794E-17
21
1.36132486540519
31
0
210
0
220
0
230
1
40
0.990065
41
-2.95191601672988
42
-0.189833613980094
0
ELLIPSE
5
281
100
AcDbEntity
8
1
62
256
6
ByLayer
370
18
48
1
60
0
100
AcDbEllipse
10
139.942852
20
321.5023
30
0
11
9.33762344789563E-17
21
1.525
31
0
210
0
220
0
230
1
40
0.990065
41
0
42
6.28318530717959
0
ELLIPSE
5
282
100
AcDbEntity
8
1
62
256
6
ByLayer
370
18
48
1
60
0
100
AcDbEllipse
10
143.46916
20
302.0023
30
0
11
1.53535021610479E-16
21
2.50749999999998
31
0
210
0
220
0
230
1
40
0.993013
41
-0.833514752300978
42
-2.30807790128706
0
ELLIPSE
5
283
100
AcDbEntity
8
1
62
256
6
ByLayer
370
18
48
1
60
0
100
AcDbEllipse
10
145.2
20
324.685431
30
0
11
0.79999999999269
21
9.37164291657456E-16
31
0
210
0
220
0
230
1
40
0.249328
41
0
42
1.42971554558112
0
ELLIPSE
5
284
100
AcDbEntity
8
1
62
256
6
ByLayer
370
18
48
1
60
0
100
AcDbEllipse
10
165.5
20
311.028085
30
0
11
6
21
0
31
0
210
0
220
0
230
1
40
0.93358
41
-1.39916515488192
42
-1.27409055140163
0
ELLIPSE
5
285
100
AcDbEntity
8
1
62
256
6
ByLayer
370
18
48
1
60
0
100
AcDbEllipse
10
165.5
20
311.028085
30
0
11
6
21
0
31
0
210
0
220
0
230
1
40
0.93358
41
3.0391201464365
42
3.14151630957031
0
ELLIPSE
5
286
100
AcDbEntity
8
1
62
256
6
ByLayer
370
18
48
1
60
0
100
AcDbEllipse
10
165.5
20
311.028085
30
0
11
6
21
0
31
0
210
0
220
0
230
1
40
0.93358
41
1.37525397998285
42
1.6802829485418
0
ELLIPSE
5
287
100
AcDbEntity
8
1
62
256
6
ByLayer
370
18
48
1
60
0
100
AcDbEllipse
10
143.313913
20
-321.5023
30
0
11
9.33762344789563E-17
21
1.525
31
0
210
0
220
0
230
1
40
0.990065
41
0.257606593854744
42
2.88398605973505
0
ELLIPSE
5
288
100
AcDbEntity
8
1
62
256
6
ByLayer
370
18
48
1
60
0
100
AcDbEllipse
10
144.45
20
-326.370999
30
0
11
2.0000000000102
21
2.342910729177E-15
31
0
210
0
220
0
230
1
40
0.249328
41
-0.179929195802574
42
0.684081231793456
0
ELLIPSE
5
289
100
AcDbEntity
8
1
62
256
6
ByLayer
370
18
48
1
60
0
100
AcDbEllipse
10
78.204956
20
-205.5
30
0
11
-8.08240193522769E-16
21
-4.4
31
0
210
0
220
0
230
1
40
0.930751
41
-0.225360386894219
42
0
0
ELLIPSE
5
28A
100
AcDbEntity
8
1
62
256
6
ByLayer
370
18
48
1
60
0
100
AcDbEllipse
10
78.204956
20
-114.5
30
0
11
-8.08240193522769E-16
21
-4.4
31
0
210
0
220
0
230
1
40
0.930751
41
3.14159265358979
42
-2.91623226669558
0
ELLIPSE
5
28B
100
AcDbEntity
8
1
62
256
6
ByLayer
370
18
48
1
60
0
100
AcDbEllipse
10
78.936261
20
-114.5
30
0
11
2.69413397840923E-16
21
4.4
31
0
210
0
220
0
230
1
40
0.930751
41
0
42
1.5707963267949
0
ELLIPSE
5
28C
100
AcDbEntity
8
1
62
256
6
ByLayer
370
18
48
1
60
0
100
AcDbEllipse
10
78.936261
20
-205.5
30
0
11
2.69413397840923E-16
21
4.4
31
0
210
0
220
0
230
1
40
0.930751
41
1.5707963267949
42
3.14159265358979
0
ELLIPSE
5
28D
100
AcDbEntity
8
1
62
256
6
ByLayer
370
18
48
1
60
0
100
AcDbEllipse
10
79.867012
20
-205.5
30
0
11
2.69413397840923E-16
21
4.4
31
0
210
0
220
0
230
1
40
0.930751
41
3.14159265358979
42
-1.5707963267949
0
ELLIPSE
5
28E
100
AcDbEntity
8
1
62
256
6
ByLayer
370
18
48
1
60
0
100
AcDbEllipse
10
79.867012
20
-114.5
30
0
11
2.69413397840923E-16
21
4.4
31
0
210
0
220
0
230
1
40
0.930751
41
-1.5707963267949
42
0
0
ELLIPSE
5
28F
100
AcDbEntity
8
1
62
256
6
ByLayer
370
18
48
1
60
0
100
AcDbEllipse
10
211.492624
20
308.66244
30
0
11
90.7706427661603
21
4.17486814501389
31
0
210
0
220
0
230
1
40
0.263999
41
1.66111529141884
42
1.66885370877356
0
ELLIPSE
5
290
100
AcDbEntity
8
1
62
256
6
ByLayer
370
18
48
1
60
0
100
AcDbEllipse
10
211.493603
20
308.65987
30
0
11
90.7756501069311
21
4.17485510679107
31
0
210
0
220
0
230
1
40
0.264013
41
1.67223500062944
42
1.67847200034464
0
ELLIPSE
5
291
100
AcDbEntity
8
1
62
256
6
ByLayer
370
18
48
1
60
0
100
AcDbEllipse
10
140.083465
20
321.5023
30
0
11
-1.92875500727024E-16
21
-1.05
31
0
210
0
220
0
230
1
40
0.990065
41
0.120718606596246
42
-0.402880169002117
0
ELLIPSE
5
292
100
AcDbEntity
8
1
62
256
6
ByLayer
370
18
48
1
60
0
100
AcDbEllipse
10
140.083465
20
321.5023
30
0
11
-2.50063061968738E-16
21
-1.36132486540519
31
0
210
0
220
0
230
1
40
0.990065
41
0.120718606596259
42
-0.402880169002099
0
ELLIPSE
5
293
100
AcDbEntity
8
1
62
256
6
ByLayer
370
18
48
1
60
0
100
AcDbEllipse
10
194.200704
20
329.127437
30
0
11
-0.36013474888586
21
1.03937623729087
31
0
210
0
220
0
230
1
40
0.24886
41
-2.8817726367749
42
-0.259916625107652
0
ELLIPSE
5
294
100
AcDbEntity
8
1
62
256
6
ByLayer
370
18
48
1
60
0
100
AcDbEllipse
10
79.461471
20
-205.85
30
0
11
2.57167334302699E-16
21
4.2
31
0
210
0
220
0
230
1
40
0.930751
41
3.14159265358979
42
-2.76936315597666
0
ELLIPSE
5
295
100
AcDbEntity
8
1
62
256
6
ByLayer
370
18
48
1
60
0
100
AcDbEllipse
10
79.461471
20
-114.15
30
0
11
2.57167334302699E-16
21
4.2
31
0
210
0
220
0
230
1
40
0.930751
41
-0.372229497613128
42
0
0
ELLIPSE
5
296
100
AcDbEntity
8
1
62
256
6
ByLayer
370
18
48
1
60
0
100
AcDbEllipse
10
80.229341
20
-205.85
30
0
11
-7.71502002908098E-16
21
-4.2
31
0
210
0
220
0
230
1
40
0.930751
41
0
42
1.5707963267949
0
ELLIPSE
5
297
100
AcDbEntity
8
1
62
256
6
ByLayer
370
18
48
1
60
0
100
AcDbEllipse
10
78.647063
20
-205.85
30
0
11
-7.71502002908098E-16
21
-4.2
31
0
210
0
220
0
230
1
40
0.930751
41
-1.5707963267949
42
0
0
ELLIPSE
5
298
100
AcDbEntity
8
1
62
256
6
ByLayer
370
18
48
1
60
0
100
AcDbEllipse
10
78.647063
20
-114.15
30
0
11
-7.71502002908098E-16
21
-4.2
31
0
210
0
220
0
230
1
40
0.930751
41
3.14159265358979
42
-1.5707963267949
0
ELLIPSE
5
299
100
AcDbEntity
8
1
62
256
6
ByLayer
370
18
48
1
60
0
100
AcDbEllipse
10
80.229341
20
-114.15
30
0
11
-7.71502002908098E-16
21
-4.2
31
0
210
0
220
0
230
1
40
0.930751
41
1.5707963267949
42
3.14159265358979
0
ELLIPSE
5
29A
100
AcDbEntity
8
1
62
256
6
ByLayer
370
18
48
1
60
0
100
AcDbEllipse
10
98.727273
20
-225
30
0
11
25.4545454545255
21
2.98188638257136E-14
31
0
210
0
220
0
230
1
40
0.392857
41
3.14159265358979
42
-2.09439510239277
0
ELLIPSE
5
29B
100
AcDbEntity
8
1
62
256
6
ByLayer
370
18
48
1
60
0
100
AcDbEllipse
10
98.727273
20
225
30
0
11
25.4545454545561
21
2.98188638257494E-14
31
0
210
0
220
0
230
1
40
0.392857
41
2.09439510239343
42
3.14159265358979
0
ELLIPSE
5
29C
100
AcDbEntity
8
1
62
256
6
ByLayer
370
18
48
1
60
0
100
AcDbEllipse
10
-384.909091
20
141.450816
30
0
11
458.181818180514
21
5.36739548861738E-13
31
0
210
0
220
0
230
1
40
0.392857
41
-0.356749235985628
42
-6.31593772570127E-16
0
ELLIPSE
5
29D
100
AcDbEntity
8
1
62
256
6
ByLayer
370
18
48
1
60
0
100
AcDbEllipse
10
259.090909
20
-47.158717
30
0
11
229.090909089391
21
2.68369774429854E-13
31
0
210
0
220
0
230
1
40
0.392857
41
3.14159265358979
42
-2.78484341760348
0
ELLIPSE
5
29E
100
AcDbEntity
8
1
62
256
6
ByLayer
370
18
48
1
60
0
100
AcDbEllipse
10
-384.909091
20
-141.450816
30
0
11
458.181818180857
21
5.36739548862139E-13
31
0
210
0
220
0
230
1
40
0.392857
41
0
42
0.356749235985486
0
ELLIPSE
5
29F
100
AcDbEntity
8
1
62
256
6
ByLayer
370
18
48
1
60
0
100
AcDbEllipse
10
259.090909
20
47.158717
30
0
11
229.090909089917
21
2.68369774430471E-13
31
0
210
0
220
0
230
1
40
0.392857
41
2.78484341760389
42
3.14159265358979
0
ELLIPSE
5
2A0
100
AcDbEntity
8
1
62
256
6
ByLayer
370
18
48
1
60
0
100
AcDbEllipse
10
122
20
-298.647346
30
0
11
5.09999999999828
21
5.97442235936886E-15
31
0
210
0
220
0
230
1
40
0.176327
41
-0.402975099269721
42
1.69765875717965
0
ELLIPSE
5
2A1
100
AcDbEntity
8
1
62
256
6
ByLayer
370
18
48
1
60
0
100
AcDbEllipse
10
149.958012
20
-288.583118
30
0
11
3.97313721479576
21
0.46280244319322
31
0
210
0
220
0
230
1
40
1
41
3.09994471034247
42
-3.11253183336794
0
ELLIPSE
5
2A2
100
AcDbEntity
8
1
62
256
6
ByLayer
370
18
48
1
60
0
100
AcDbEllipse
10
243
20
-245.282672
30
0
11
100.000000209829
21
1.17145536704057E-13
31
0
210
0
220
0
230
1
40
1
41
3.14159265358979
42
-3.06728030163732
0
ELLIPSE
5
2A3
100
AcDbEntity
8
1
62
256
6
ByLayer
370
18
48
1
60
0
100
AcDbEllipse
10
143.663275
20
302.0023
30
0
11
1.22460635382238E-16
21
2
31
0
210
0
220
0
230
1
40
0.976296
41
0
42
6.28318530717959
0
ELLIPSE
5
2A4
100
AcDbEntity
8
1
62
256
6
ByLayer
370
18
48
1
60
0
100
AcDbEllipse
10
143.663275
20
302.0023
30
0
11
1.53535021610481E-16
21
2.5075
31
0
210
0
220
0
230
1
40
0.976296
41
0.0392696823939123
42
3.10222443202862
0
ELLIPSE
5
2A5
100
AcDbEntity
8
1
62
256
6
ByLayer
370
18
48
1
60
0
100
AcDbEllipse
10
211.492394
20
308.663003
30
0
11
90.7695417674917
21
4.17487529222569
31
0
210
0
220
0
230
1
40
0.263996
41
1.66111396180207
42
1.66885247197962
0
ELLIPSE
5
2A6
100
AcDbEntity
8
1
62
256
6
ByLayer
370
18
48
1
60
0
100
AcDbEllipse
10
211.491949
20
308.663531
30
0
11
90.7684513435474
21
4.17494327147337
31
0
210
0
220
0
230
1
40
0.263993
41
1.67222541920474
42
1.67846290693484
0
ELLIPSE
5
2A7
100
AcDbEntity
8
1
62
256
6
ByLayer
370
18
48
1
60
0
100
AcDbEllipse
10
149.958013
20
288.583118
30
0
11
3.97299316677962
21
-0.464041363893888
31
0
210
0
220
0
230
1
40
1
41
3.11284365158272
42
-3.09963289617425
0
ELLIPSE
5
2A8
100
AcDbEntity
8
1
62
256
6
ByLayer
370
18
48
1
60
0
100
AcDbEllipse
10
242.999999
20
245.282672
30
0
11
6.12303173634691E-15
21
99.9999994648897
31
0
210
0
220
0
230
1
40
1
41
1.49648397436647
42
1.5707963267949
0
POINT
5
70
100
AcDbEntity
8
80
62
256
6
ByLayer
370
18
48
0.05
60
0
100
AcDbPoint
10
0
20
0
30
0
39
0
210
0
220
0
230
1
50
360
0
POINT
5
72
100
AcDbEntity
8
81
62
256
6
ByLayer
370
18
48
1
60
0
100
AcDbPoint
10
205
20
333
30
0
39
0
210
0
220
0
230
1
50
360
0
SPLINE
5
2A9
100
AcDbEntity
8
1
62
256
6
ByLayer
370
18
48
1
60
0
100
AcDbSpline
70
4
71
3
72
8
73
4
40
0
40
0
40
0
40
0
40
1
40
1
40
1
40
1
41
1
10
145.207948317746
20
221.999720298439
30
0
41
1
10
145.208007370945
20
221.999718721093
30
0
41
1
10
145.208066421243
20
221.999717137127
30
0
41
1
10
145.208125468643
20
221.999715546544
30
0
0
SPLINE
5
2AA
100
AcDbEntity
8
1
62
256
6
ByLayer
370
18
48
1
60
0
100
AcDbSpline
70
4
71
1
72
4
73
2
40
0
40
0
40
1
40
1
41
1
10
183.305859266818
20
276.180946592438
30
0
41
1
10
183.329035541396
20
276.180946592438
30
0
0
SPLINE
5
2AB
100
AcDbEntity
8
1
62
256
6
ByLayer
370
18
48
1
60
0
100
AcDbSpline
70
4
71
1
72
4
73
2
40
0
40
0
40
1
40
1
41
1
10
184.57988962845
20
276.39541950075
30
0
41
1
10
184.565836029856
20
276.39541950075
30
0
0
SPLINE
5
2AC
100
AcDbEntity
8
1
62
256
6
ByLayer
370
18
48
1
60
0
100
AcDbSpline
70
4
71
1
72
4
73
2
40
0
40
0
40
1
40
1
41
1
10
184.728606271983
20
276.39541950075
30
0
41
1
10
184.723896983018
20
276.39541950075
30
0
0
SPLINE
5
2AD
100
AcDbEntity
8
1
62
256
6
ByLayer
370
18
48
1
60
0
100
AcDbSpline
70
4
71
1
72
4
73
2
40
0
40
0
40
1
40
1
41
1
10
165.276103016982
20
276.39541950075
30
0
41
1
10
165.271393728018
20
276.39541950075
30
0
0
SPLINE
5
2AE
100
AcDbEntity
8
1
62
256
6
ByLayer
370
18
48
1
60
0
100
AcDbSpline
70
4
71
1
72
4
73
2
40
0
40
0
40
1
40
1
41
1
10
165.434163970144
20
276.39541950075
30
0
41
1
10
165.42011037155
20
276.39541950075
30
0
0
SPLINE
5
2AF
100
AcDbEntity
8
1
62
256
6
ByLayer
370
18
48
1
60
0
100
AcDbSpline
70
4
71
1
72
4
73
2
40
0
40
0
40
1
40
1
41
1
10
166.670964458604
20
276.180946592438
30
0
41
1
10
166.694140733182
20
276.180946592438
30
0
0
SPLINE
5
2B0
100
AcDbEntity
8
1
62
256
6
ByLayer
370
18
48
1
60
0
100
AcDbSpline
70
4
71
3
72
8
73
4
40
0
40
0
40
0
40
0
40
1
40
1
40
1
40
1
41
1
10
145.882974319633
20
-219.095200558798
30
-9E-16
41
1
10
145.882937745398
20
-219.095238123247
30
-9E-16
41
1
10
145.882901156073
20
-219.095275540212
30
-9E-16
41
1
10
145.882864551683
20
-219.095312809668
30
-9E-16
0
SPLINE
5
2B1
100
AcDbEntity
8
1
62
256
6
ByLayer
370
18
48
1
60
0
100
AcDbSpline
70
4
71
3
72
8
73
4
40
0
40
0
40
0
40
0
40
1
40
1
40
1
40
1
41
1
10
182.523480558787
20
280.13271950075
30
0
41
1
10
182.562773351959
20
280.279135724278
30
0
41
1
10
182.602066142524
20
280.425552159015
30
0
41
1
10
182.64135893164
20
280.571968711209
30
0
0
SPLINE
5
2B2
100
AcDbEntity
8
1
62
256
6
ByLayer
370
18
48
1
60
0
100
AcDbSpline
70
4
71
3
72
8
73
4
40
0
40
0
40
0
40
0
40
1
40
1
40
1
40
1
41
1
10
181.374500587841
20
280.13271950075
30
0
41
1
10
181.328063020058
20
280.279135724278
30
0
41
1
10
181.281625455357
20
280.425552159015
30
0
41
1
10
181.235187892369
20
280.571968711209
30
0
0
SPLINE
5
2B3
100
AcDbEntity
8
1
62
256
6
ByLayer
370
18
48
1
60
0
100
AcDbSpline
70
4
71
3
72
8
73
4
40
0
40
0
40
0
40
0
40
1
40
1
40
1
40
1
41
1
10
190.533534892204
20
280.13271950075
30
0
41
1
10
191.130038432202
20
280.279135724278
30
0
41
1
10
191.726541932619
20
280.425552159015
30
0
41
1
10
192.323045411025
20
280.571968711209
30
0
0
SPLINE
5
2B4
100
AcDbEntity
8
1
62
256
6
ByLayer
370
18
48
1
60
0
100
AcDbSpline
70
4
71
3
72
8
73
4
40
0
40
0
40
0
40
0
40
1
40
1
40
1
40
1
41
1
10
190.533534892204
20
280.13271950075
30
0
41
1
10
190.521380049108
20
280.132699776106
30
0
41
1
10
190.509221497715
20
280.132699776106
30
0
41
1
10
190.497059261776
20
280.13271950075
30
0
0
SPLINE
5
2B5
100
AcDbEntity
8
1
62
256
6
ByLayer
370
18
48
1
60
0
100
AcDbSpline
70
4
71
3
72
8
73
4
40
0
40
0
40
0
40
0
40
1
40
1
40
1
40
1
41
1
10
190.497059261776
20
280.13271950075
30
0
41
1
10
191.093562801774
20
280.279135724278
30
0
41
1
10
191.690066302192
20
280.425552159015
30
0
41
1
10
192.286569780598
20
280.571968711209
30
0
0
SPLINE
5
2B6
100
AcDbEntity
8
1
62
256
6
ByLayer
370
18
48
1
60
0
100
AcDbSpline
70
4
71
3
72
10
73
6
40
0
40
0
40
0
40
0
40
0.876183133825506
40
0.876183133825506
40
1
40
1
40
1
40
1
41
1
10
191.526880433937
20
280.571968711209
30
0
41
1
10
190.809436530273
20
280.38104162472
30
0
41
1
10
190.091992593587
20
280.190114729278
30
0
41
1
10
189.273163763157
20
279.972207696147
30
0
41
1
10
189.171778941885
20
279.945227139185
30
0
41
1
10
189.070394118847
20
279.918246592438
30
0
0
SPLINE
5
2B7
100
AcDbEntity
8
1
62
256
6
ByLayer
370
18
48
1
60
0
100
AcDbSpline
70
4
71
3
72
8
73
4
40
0
40
0
40
0
40
0
40
1
40
1
40
1
40
1
41
1
10
189.02599269057
20
279.918246592438
30
0
41
1
10
189.040796959929
20
279.918224612423
30
0
41
1
10
189.055597447988
20
279.918224612423
30
0
41
1
10
189.070394118847
20
279.918246592438
30
0
0
SPLINE
5
2B8
100
AcDbEntity
8
1
62
256
6
ByLayer
370
18
48
1
60
0
100
AcDbSpline
70
4
71
3
72
10
73
6
40
0
40
0
40
0
40
0
40
0.876183133825516
40
0.876183133825516
40
1
40
1
40
1
40
1
41
1
10
191.482479005661
20
280.571968711209
30
0
41
1
10
190.765035101996
20
280.38104162472
30
0
41
1
10
190.04759116531
20
280.190114729278
30
0
41
1
10
189.22876233488
20
279.972207696147
30
0
41
1
10
189.127377513608
20
279.945227139185
30
0
41
1
10
189.02599269057
20
279.918246592438
30
0
0
SPLINE
5
2B9
100
AcDbEntity
8
1
62
256
6
ByLayer
370
18
48
1
60
0
100
AcDbSpline
70
4
71
3
72
8
73
4
40
0
40
0
40
0
40
0
40
1
40
1
40
1
40
1
41
1
10
189.094887632288
20
280.13271950075
30
0
41
1
10
189.590082069963
20
280.279135724278
30
0
41
1
10
190.08527647478
20
280.425552159015
30
0
41
1
10
190.580470861323
20
280.571968711209
30
0
0
SPLINE
5
2BA
100
AcDbEntity
8
1
62
256
6
ByLayer
370
18
48
1
60
0
100
AcDbSpline
70
4
71
3
72
8
73
4
40
0
40
0
40
0
40
0
40
1
40
1
40
1
40
1
41
1
10
189.094887632288
20
280.13271950075
30
0
41
1
10
189.077681710159
20
280.132699776106
30
0
41
1
10
189.060472702595
20
280.132699776106
30
0
41
1
10
189.04326064321
20
280.13271950075
30
0
0
SPLINE
5
2BB
100
AcDbEntity
8
1
62
256
6
ByLayer
370
18
48
1
60
0
100
AcDbSpline
70
4
71
3
72
8
73
4
40
0
40
0
40
0
40
0
40
1
40
1
40
1
40
1
41
1
10
189.04326064321
20
280.13271950075
30
0
41
1
10
189.538455080885
20
280.279135724278
30
0
41
1
10
190.033649485701
20
280.425552159015
30
0
41
1
10
190.528843872245
20
280.571968711209
30
0
0
SPLINE
5
2BC
100
AcDbEntity
8
1
62
256
6
ByLayer
370
18
48
1
60
0
100
AcDbSpline
70
4
71
3
72
8
73
4
40
0
40
0
40
0
40
0
40
1
40
1
40
1
40
1
41
1
10
188.201566263078
20
280.13271950075
30
0
41
1
10
188.633958245665
20
280.279135724278
30
0
41
1
10
189.066350199561
20
280.425552159015
30
0
41
1
10
189.498742137502
20
280.571968711209
30
0
0
SPLINE
5
2BD
100
AcDbEntity
8
1
62
256
6
ByLayer
370
18
48
1
60
0
100
AcDbSpline
70
4
71
3
72
8
73
4
40
0
40
0
40
0
40
0
40
1
40
1
40
1
40
1
41
1
10
188.201566263078
20
280.13271950075
30
0
41
1
10
188.182222828356
20
280.132699776106
30
0
41
1
10
188.162876695285
20
280.132699776106
30
0
41
1
10
188.143527901657
20
280.13271950075
30
0
0
SPLINE
5
2BE
100
AcDbEntity
8
1
62
256
6
ByLayer
370
18
48
1
60
0
100
AcDbSpline
70
4
71
3
72
8
73
4
40
0
40
0
40
0
40
0
40
1
40
1
40
1
40
1
41
1
10
188.143527901657
20
280.13271950075
30
0
41
1
10
188.575919884244
20
280.279135724278
30
0
41
1
10
189.00831183814
20
280.425552159015
30
0
41
1
10
189.440703776081
20
280.571968711209
30
0
0
SPLINE
5
2BF
100
AcDbEntity
8
1
62
256
6
ByLayer
370
18
48
1
60
0
100
AcDbSpline
70
4
71
3
72
8
73
4
40
0
40
0
40
0
40
0
40
1
40
1
40
1
40
1
41
1
10
187.210442489264
20
280.13271950075
30
0
41
1
10
187.573212936899
20
280.279135724278
30
0
41
1
10
187.935983360463
20
280.425552159015
30
0
41
1
10
188.29875377064
20
280.571968711209
30
0
0
SPLINE
5
2C0
100
AcDbEntity
8
1
62
256
6
ByLayer
370
18
48
1
60
0
100
AcDbSpline
70
4
71
3
72
8
73
4
40
0
40
0
40
0
40
0
40
1
40
1
40
1
40
1
41
1
10
187.210442489264
20
280.13271950075
30
0
41
1
10
187.189266599469
20
280.132699776106
30
0
41
1
10
187.168088440967
20
280.132699776106
30
0
41
1
10
187.14690805513
20
280.13271950075
30
0
0
SPLINE
5
2C1
100
AcDbEntity
8
1
62
256
6
ByLayer
370
18
48
1
60
0
100
AcDbSpline
70
4
71
3
72
8
73
4
40
0
40
0
40
0
40
0
40
1
40
1
40
1
40
1
41
1
10
187.14690805513
20
280.13271950075
30
0
41
1
10
187.509678502765
20
280.279135724278
30
0
41
1
10
187.872448926329
20
280.425552159015
30
0
41
1
10
188.235219336506
20
280.571968711209
30
0
0
SPLINE
5
2C2
100
AcDbEntity
8
1
62
256
6
ByLayer
370
18
48
1
60
0
100
AcDbSpline
70
4
71
3
72
8
73
4
40
0
40
0
40
0
40
0
40
1
40
1
40
1
40
1
41
1
10
186.137146924826
20
280.13271950075
30
0
41
1
10
186.424574730842
20
280.279135724278
30
0
41
1
10
186.712002517785
20
280.425552159015
30
0
41
1
10
186.999430294123
20
280.571968711209
30
0
0
SPLINE
5
2C3
100
AcDbEntity
8
1
62
256
6
ByLayer
370
18
48
1
60
0
100
AcDbSpline
70
4
71
3
72
8
73
4
40
0
40
0
40
0
40
0
40
1
40
1
40
1
40
1
41
1
10
186.137146924826
20
280.13271950075
30
0
41
1
10
186.11447253639
20
280.132699776106
30
0
41
1
10
186.091796344669
20
280.132699776106
30
0
41
1
10
186.069118393959
20
280.13271950075
30
0
0
SPLINE
5
2C4
100
AcDbEntity
8
1
62
256
6
ByLayer
370
18
48
1
60
0
100
AcDbSpline
70
4
71
3
72
8
73
4
40
0
40
0
40
0
40
0
40
1
40
1
40
1
40
1
41
1
10
186.069118393959
20
280.13271950075
30
0
41
1
10
186.356546199974
20
280.279135724278
30
0
41
1
10
186.643973986918
20
280.425552159015
30
0
41
1
10
186.931401763255
20
280.571968711209
30
0
0
SPLINE
5
2C5
100
AcDbEntity
8
1
62
256
6
ByLayer
370
18
48
1
60
0
100
AcDbSpline
70
4
71
3
72
8
73
4
40
0
40
0
40
0
40
0
40
1
40
1
40
1
40
1
41
1
10
185.621262815351
20
280.571968711209
30
0
41
1
10
185.312368515325
20
280.354060971242
30
0
41
1
10
185.003474199706
20
280.136153470396
30
0
41
1
10
184.694579843472
20
279.918246592438
30
0
0
SPLINE
5
2C6
100
AcDbEntity
8
1
62
256
6
ByLayer
370
18
48
1
60
0
100
AcDbSpline
70
4
71
3
72
8
73
4
40
0
40
0
40
0
40
0
40
1
40
1
40
1
40
1
41
1
10
184.623130066441
20
279.918246592438
30
0
41
1
10
184.646948082382
20
279.918224612423
30
0
41
1
10
184.670764693983
20
279.918224612423
30
0
41
1
10
184.694579843472
20
279.918246592438
30
0
0
SPLINE
5
2C7
100
AcDbEntity
8
1
62
256
6
ByLayer
370
18
48
1
60
0
100
AcDbSpline
70
4
71
3
72
8
73
4
40
0
40
0
40
0
40
0
40
1
40
1
40
1
40
1
41
1
10
185.549813038321
20
280.571968711209
30
0
41
1
10
185.240918738294
20
280.354060971242
30
0
41
1
10
184.932024422675
20
280.136153470396
30
0
41
1
10
184.623130066441
20
279.918246592438
30
0
0
SPLINE
5
2C8
100
AcDbEntity
8
1
62
256
6
ByLayer
370
18
48
1
60
0
100
AcDbSpline
70
4
71
3
72
8
73
4
40
0
40
0
40
0
40
0
40
1
40
1
40
1
40
1
41
1
10
183.812775429925
20
280.13271950075
30
0
41
1
10
183.937178913232
20
280.279135724278
30
0
41
1
10
184.061582388284
20
280.425552159015
30
0
41
1
10
184.185985858745
20
280.571968711209
30
0
0
SPLINE
5
2C9
100
AcDbEntity
8
1
62
256
6
ByLayer
370
18
48
1
60
0
100
AcDbSpline
70
4
71
3
72
8
73
4
40
0
40
0
40
0
40
0
40
1
40
1
40
1
40
1
41
1
10
183.812775429925
20
280.13271950075
30
0
41
1
10
183.788194802991
20
280.132699776106
30
0
41
1
10
183.763613381143
20
280.132699776106
30
0
41
1
10
183.739031212398
20
280.13271950075
30
0
0
SPLINE
5
2CA
100
AcDbEntity
8
1
62
256
6
ByLayer
370
18
48
1
60
0
100
AcDbSpline
70
4
71
3
72
8
73
4
40
0
40
0
40
0
40
0
40
1
40
1
40
1
40
1
41
1
10
183.739031212398
20
280.13271950075
30
0
41
1
10
183.863434695704
20
280.279135724278
30
0
41
1
10
183.987838170756
20
280.425552159015
30
0
41
1
10
184.112241641218
20
280.571968711209
30
0
0
SPLINE
5
2CB
100
AcDbEntity
8
1
62
256
6
ByLayer
370
18
48
1
60
0
100
AcDbSpline
70
4
71
3
72
8
73
4
40
0
40
0
40
0
40
0
40
1
40
1
40
1
40
1
41
1
10
182.598356226449
20
280.13271950075
30
0
41
1
10
182.573397922177
20
280.132699776106
30
0
41
1
10
182.548439350039
20
280.132699776106
30
0
41
1
10
182.523480558787
20
280.13271950075
30
0
0
SPLINE
5
2CC
100
AcDbEntity
8
1
62
256
6
ByLayer
370
18
48
1
60
0
100
AcDbSpline
70
4
71
3
72
8
73
4
40
0
40
0
40
0
40
0
40
1
40
1
40
1
40
1
41
1
10
181.374500587841
20
280.13271950075
30
0
41
1
10
181.3495582136
20
280.132699776106
30
0
41
1
10
181.324616102763
20
280.132699776106
30
0
41
1
10
181.299674304052
20
280.13271950075
30
0
0
SPLINE
5
2CD
100
AcDbEntity
8
1
62
256
6
ByLayer
370
18
48
1
60
0
100
AcDbSpline
70
4
71
3
72
8
73
4
40
0
40
0
40
0
40
0
40
1
40
1
40
1
40
1
41
1
10
180.160509448617
20
280.13271950075
30
0
41
1
10
180.029073868064
20
280.279135724278
30
0
41
1
10
179.897638296233
20
280.425552159015
30
0
41
1
10
179.766202729251
20
280.571968711209
30
0
0
SPLINE
5
2CE
100
AcDbEntity
8
1
62
256
6
ByLayer
370
18
48
1
60
0
100
AcDbSpline
70
4
71
3
72
8
73
4
40
0
40
0
40
0
40
0
40
1
40
1
40
1
40
1
41
1
10
180.160509448617
20
280.13271950075
30
0
41
1
10
180.135976360549
20
280.132699776106
30
0
41
1
10
180.111444063002
20
280.132699776106
30
0
41
1
10
180.086912603897
20
280.13271950075
30
0
0
SPLINE
5
2CF
100
AcDbEntity
8
1
62
256
6
ByLayer
370
18
48
1
60
0
100
AcDbSpline
70
4
71
3
72
8
73
4
40
0
40
0
40
0
40
0
40
1
40
1
40
1
40
1
41
1
10
180.086912603897
20
280.13271950075
30
0
41
1
10
179.955477023344
20
280.279135724278
30
0
41
1
10
179.824041451512
20
280.425552159015
30
0
41
1
10
179.69260588453
20
280.571968711209
30
0
0
SPLINE
5
2D0
100
AcDbEntity
8
1
62
256
6
ByLayer
370
18
48
1
60
0
100
AcDbSpline
70
4
71
3
72
8
73
4
40
0
40
0
40
0
40
0
40
1
40
1
40
1
40
1
41
1
10
178.332445883498
20
280.571968711209
30
0
41
1
10
178.651473115377
20
280.354060971242
30
0
41
1
10
178.97050036336
20
280.136153470396
30
0
41
1
10
179.289527653291
20
279.918246592438
30
0
0
SPLINE
5
2D1
100
AcDbEntity
8
1
62
256
6
ByLayer
370
18
48
1
60
0
100
AcDbSpline
70
4
71
3
72
8
73
4
40
0
40
0
40
0
40
0
40
1
40
1
40
1
40
1
41
1
10
179.218320913843
20
279.918246592438
30
0
41
1
10
179.242055003822
20
279.918224612423
30
0
41
1
10
179.265790602829
20
279.918224612423
30
0
41
1
10
179.289527653291
20
279.918246592438
30
0
0
SPLINE
5
2D2
100
AcDbEntity
8
1
62
256
6
ByLayer
370
18
48
1
60
0
100
AcDbSpline
70
4
71
3
72
8
73
4
40
0
40
0
40
0
40
0
40
1
40
1
40
1
40
1
41
1
10
178.261239144051
20
280.571968711209
30
0
41
1
10
178.58026637593
20
280.354060971242
30
0
41
1
10
178.899293623913
20
280.136153470396
30
0
41
1
10
179.218320913843
20
279.918246592438
30
0
0
SPLINE
5
2D3
100
AcDbEntity
8
1
62
256
6
ByLayer
370
18
48
1
60
0
100
AcDbSpline
70
4
71
3
72
8
73
4
40
0
40
0
40
0
40
0
40
1
40
1
40
1
40
1
41
1
10
177.838244627302
20
280.13271950075
30
0
41
1
10
177.544339253936
20
280.279135724278
30
0
41
1
10
177.250433900072
20
280.425552159015
30
0
41
1
10
176.956528557053
20
280.571968711209
30
0
0
SPLINE
5
2D4
100
AcDbEntity
8
1
62
256
6
ByLayer
370
18
48
1
60
0
100
AcDbSpline
70
4
71
3
72
8
73
4
40
0
40
0
40
0
40
0
40
1
40
1
40
1
40
1
41
1
10
177.838244627302
20
280.13271950075
30
0
41
1
10
177.815678259586
20
280.132699776106
30
0
41
1
10
177.793113691109
20
280.132699776106
30
0
41
1
10
177.770550965947
20
280.13271950075
30
0
0
SPLINE
5
2D5
100
AcDbEntity
8
1
62
256
6
ByLayer
370
18
48
1
60
0
100
AcDbSpline
70
4
71
3
72
8
73
4
40
0
40
0
40
0
40
0
40
1
40
1
40
1
40
1
41
1
10
177.770550965947
20
280.13271950075
30
0
41
1
10
177.476645592581
20
280.279135724278
30
0
41
1
10
177.182740238716
20
280.425552159015
30
0
41
1
10
176.888834895697
20
280.571968711209
30
0
0
SPLINE
5
2D6
100
AcDbEntity
8
1
62
256
6
ByLayer
370
18
48
1
60
0
100
AcDbSpline
70
4
71
3
72
8
73
4
40
0
40
0
40
0
40
0
40
1
40
1
40
1
40
1
41
1
10
176.766594448696
20
280.13271950075
30
0
41
1
10
176.397779540975
20
280.279135724278
30
0
41
1
10
176.028964657726
20
280.425552159015
30
0
41
1
10
175.660149788087
20
280.571968711209
30
0
0
SPLINE
5
2D7
100
AcDbEntity
8
1
62
256
6
ByLayer
370
18
48
1
60
0
100
AcDbSpline
70
4
71
3
72
8
73
4
40
0
40
0
40
0
40
0
40
1
40
1
40
1
40
1
41
1
10
176.766594448696
20
280.13271950075
30
0
41
1
10
176.745554498806
20
280.132699776106
30
0
41
1
10
176.724516813845
20
280.132699776106
30
0
41
1
10
176.70348143491
20
280.13271950075
30
0
0
SPLINE
5
2D8
100
AcDbEntity
8
1
62
256
6
ByLayer
370
18
48
1
60
0
100
AcDbSpline
70
4
71
3
72
8
73
4
40
0
40
0
40
0
40
0
40
1
40
1
40
1
40
1
41
1
10
176.70348143491
20
280.13271950075
30
0
41
1
10
176.334666527189
20
280.279135724278
30
0
41
1
10
175.96585164394
20
280.425552159015
30
0
41
1
10
175.597036774301
20
280.571968711209
30
0
0
SPLINE
5
2D9
100
AcDbEntity
8
1
62
256
6
ByLayer
370
18
48
1
60
0
100
AcDbSpline
70
4
71
3
72
8
73
4
40
0
40
0
40
0
40
0
40
1
40
1
40
1
40
1
41
1
10
175.777478201919
20
280.13271950075
30
0
41
1
10
175.339570191257
20
280.279135724278
30
0
41
1
10
174.901662209652
20
280.425552159015
30
0
41
1
10
174.463754244206
20
280.571968711209
30
0
0
SPLINE
5
2DA
100
AcDbEntity
8
1
62
256
6
ByLayer
370
18
48
1
60
0
100
AcDbSpline
70
4
71
3
72
8
73
4
40
0
40
0
40
0
40
0
40
1
40
1
40
1
40
1
41
1
10
175.777478201919
20
280.13271950075
30
0
41
1
10
175.758296482433
20
280.132699776106
30
0
41
1
10
175.739117457849
20
280.132699776106
30
0
41
1
10
175.719941165632
20
280.13271950075
30
0
0
SPLINE
5
2DB
100
AcDbEntity
8
1
62
256
6
ByLayer
370
18
48
1
60
0
100
AcDbSpline
70
4
71
3
72
8
73
4
40
0
40
0
40
0
40
0
40
1
40
1
40
1
40
1
41
1
10
175.719941165632
20
280.13271950075
30
0
41
1
10
175.282033154969
20
280.279135724278
30
0
41
1
10
174.844125173364
20
280.425552159015
30
0
41
1
10
174.406217207918
20
280.571968711209
30
0
0
SPLINE
5
2DC
100
AcDbEntity
8
1
62
256
6
ByLayer
370
18
48
1
60
0
100
AcDbSpline
70
4
71
3
72
8
73
4
40
0
40
0
40
0
40
0
40
1
40
1
40
1
40
1
41
1
10
174.886494841053
20
280.13271950075
30
0
41
1
10
174.386399798371
20
280.279135724278
30
0
41
1
10
173.886304788873
20
280.425552159015
30
0
41
1
10
173.386209797828
20
280.571968711209
30
0
0
SPLINE
5
2DD
100
AcDbEntity
8
1
62
256
6
ByLayer
370
18
48
1
60
0
100
AcDbSpline
70
4
71
3
72
8
73
4
40
0
40
0
40
0
40
0
40
1
40
1
40
1
40
1
41
1
10
174.886494841053
20
280.13271950075
30
0
41
1
10
174.869473859145
20
280.132699776106
30
0
41
1
10
174.852455959612
20
280.132699776106
30
0
41
1
10
174.835441175697
20
280.13271950075
30
0
0
SPLINE
5
2DE
100
AcDbEntity
8
1
62
256
6
ByLayer
370
18
48
1
60
0
100
AcDbSpline
70
4
71
3
72
8
73
4
40
0
40
0
40
0
40
0
40
1
40
1
40
1
40
1
41
1
10
174.835441175697
20
280.13271950075
30
0
41
1
10
174.335346133015
20
280.279135724278
30
0
41
1
10
173.835251123517
20
280.425552159015
30
0
41
1
10
173.335156132473
20
280.571968711209
30
0
0
SPLINE
5
2DF
100
AcDbEntity
8
1
62
256
6
ByLayer
370
18
48
1
60
0
100
AcDbSpline
70
4
71
3
72
8
73
4
40
0
40
0
40
0
40
0
40
1
40
1
40
1
40
1
41
1
10
172.444509968568
20
280.571968711209
30
0
41
1
10
173.269601173113
20
280.354060971242
30
0
41
1
10
174.094692419305
20
280.136153470396
30
0
41
1
10
174.919783773986
20
279.918246592438
30
0
0
SPLINE
5
2E0
100
AcDbEntity
8
1
62
256
6
ByLayer
370
18
48
1
60
0
100
AcDbSpline
70
4
71
3
72
8
73
4
40
0
40
0
40
0
40
0
40
1
40
1
40
1
40
1
41
1
10
174.876018626363
20
279.918246592438
30
0
41
1
10
174.890603174698
20
279.918224612423
30
0
41
1
10
174.905191569035
20
279.918224612423
30
0
41
1
10
174.919783773986
20
279.918246592438
30
0
0
SPLINE
5
2E1
100
AcDbEntity
8
1
62
256
6
ByLayer
370
18
48
1
60
0
100
AcDbSpline
70
4
71
3
72
8
73
4
40
0
40
0
40
0
40
0
40
1
40
1
40
1
40
1
41
1
10
172.400744820945
20
280.571968711209
30
0
41
1
10
173.225836025489
20
280.354060971242
30
0
41
1
10
174.050927271682
20
280.136153470396
30
0
41
1
10
174.876018626363
20
279.918246592438
30
0
0
SPLINE
5
2E2
100
AcDbEntity
8
1
62
256
6
ByLayer
370
18
48
1
60
0
100
AcDbSpline
70
4
71
3
72
8
73
4
40
0
40
0
40
0
40
0
40
1
40
1
40
1
40
1
41
1
10
173.453362924187
20
280.13271950075
30
0
41
1
10
172.853410557298
20
280.279135724278
30
0
41
1
10
172.253458230218
20
280.425552159015
30
0
41
1
10
171.653505925277
20
280.571968711209
30
0
0
SPLINE
5
2E3
100
AcDbEntity
8
1
62
256
6
ByLayer
370
18
48
1
60
0
100
AcDbSpline
70
4
71
3
72
8
73
4
40
0
40
0
40
0
40
0
40
1
40
1
40
1
40
1
41
1
10
173.453362924187
20
280.13271950075
30
0
41
1
10
173.441430401154
20
280.132699776106
30
0
41
1
10
173.429501584265
20
280.132699776106
30
0
41
1
10
173.417576496819
20
280.13271950075
30
0
0
SPLINE
5
2E4
100
AcDbEntity
8
1
62
256
6
ByLayer
370
18
48
1
60
0
100
AcDbSpline
70
4
71
3
72
8
73
4
40
0
40
0
40
0
40
0
40
1
40
1
40
1
40
1
41
1
10
173.417576496819
20
280.13271950075
30
0
41
1
10
172.817624129929
20
280.279135724278
30
0
41
1
10
172.21767180285
20
280.425552159015
30
0
41
1
10
171.617719497908
20
280.571968711209
30
0
0
SPLINE
5
2E5
100
AcDbEntity
8
1
62
256
6
ByLayer
370
18
48
1
60
0
100
AcDbSpline
70
4
71
3
72
8
73
4
40
0
40
0
40
0
40
0
40
1
40
1
40
1
40
1
41
1
10
172.933815714629
20
280.13271950075
30
0
41
1
10
172.297767865206
20
280.279135724278
30
0
41
1
10
171.661720057988
20
280.425552159015
30
0
41
1
10
171.02567227424
20
280.571968711209
30
0
0
SPLINE
5
2E6
100
AcDbEntity
8
1
62
256
6
ByLayer
370
18
48
1
60
0
100
AcDbSpline
70
4
71
3
72
8
73
4
40
0
40
0
40
0
40
0
40
1
40
1
40
1
40
1
41
1
10
172.933815714629
20
280.13271950075
30
0
41
1
10
172.924730664856
20
280.132699776106
30
0
41
1
10
172.915649547685
20
280.132699776106
30
0
41
1
10
172.906572380853
20
280.13271950075
30
0
0
SPLINE
5
2E7
100
AcDbEntity
8
1
62
256
6
ByLayer
370
18
48
1
60
0
100
AcDbSpline
70
4
71
3
72
8
73
4
40
0
40
0
40
0
40
0
40
1
40
1
40
1
40
1
41
1
10
172.906572380853
20
280.13271950075
30
0
41
1
10
172.27052453143
20
280.279135724278
30
0
41
1
10
171.634476724211
20
280.425552159015
30
0
41
1
10
170.998428940463
20
280.571968711209
30
0
0
SPLINE
5
2E8
100
AcDbEntity
8
1
62
256
6
ByLayer
370
18
48
1
60
0
100
AcDbSpline
70
4
71
3
72
8
73
4
40
0
40
0
40
0
40
0
40
1
40
1
40
1
40
1
41
1
10
172.557247647128
20
280.13271950075
30
0
41
1
10
171.895135169713
20
280.279135724278
30
0
41
1
10
171.233022736232
20
280.425552159015
30
0
41
1
10
170.570910327184
20
280.571968711209
30
0
0
SPLINE
5
2E9
100
AcDbEntity
8
1
62
256
6
ByLayer
370
18
48
1
60
0
100
AcDbSpline
70
4
71
3
72
8
73
4
40
0
40
0
40
0
40
0
40
1
40
1
40
1
40
1
41
1
10
172.538977050592
20
280.13271950075
30
0
41
1
10
171.876864573176
20
280.279135724278
30
0
41
1
10
171.214752139695
20
280.425552159015
30
0
41
1
10
170.552639730647
20
280.571968711209
30
0
0
SPLINE
5
2EA
100
AcDbEntity
8
1
62
256
6
ByLayer
370
18
48
1
60
0
100
AcDbSpline
70
4
71
3
72
8
73
4
40
0
40
0
40
0
40
0
40
1
40
1
40
1
40
1
41
1
10
172.329597425058
20
280.13271950075
30
0
41
1
10
171.651862228947
20
280.279135724278
30
0
41
1
10
170.974127077806
20
280.425552159015
30
0
41
1
10
170.296391951675
20
280.571968711209
30
0
0
SPLINE
5
2EB
100
AcDbEntity
8
1
62
256
6
ByLayer
370
18
48
1
60
0
100
AcDbSpline
70
4
71
3
72
8
73
4
40
0
40
0
40
0
40
0
40
1
40
1
40
1
40
1
41
1
10
172.320587703983
20
280.13271950075
30
0
41
1
10
171.642852507872
20
280.279135724278
30
0
41
1
10
170.965117356731
20
280.425552159015
30
0
41
1
10
170.2873822306
20
280.571968711209
30
0
0
SPLINE
5
2EC
100
AcDbEntity
8
1
62
256
6
ByLayer
370
18
48
1
60
0
100
AcDbSpline
70
4
71
3
72
8
73
4
40
0
40
0
40
0
40
0
40
1
40
1
40
1
40
1
41
1
10
193.793553533515
20
280.571968711209
30
0
41
1
10
192.777555152623
20
280.354060971242
30
0
41
1
10
191.761556720447
20
280.136153470396
30
0
41
1
10
190.74555815468
20
279.918246592438
30
0
0
SPLINE
5
2ED
100
AcDbEntity
8
1
62
256
6
ByLayer
370
18
48
1
60
0
100
AcDbSpline
70
4
71
3
72
8
73
4
40
0
40
0
40
0
40
0
40
1
40
1
40
1
40
1
41
1
10
193.793160290445
20
280.571968711209
30
0
41
1
10
192.777161909553
20
280.354060971242
30
0
41
1
10
191.761163477376
20
280.136153470396
30
0
41
1
10
190.745164911609
20
279.918246592438
30
0
0
SPLINE
5
2EE
100
AcDbEntity
8
1
62
256
6
ByLayer
370
18
48
1
60
0
100
AcDbSpline
70
4
71
3
72
8
73
4
40
0
40
0
40
0
40
0
40
1
40
1
40
1
40
1
41
1
10
191.666993905477
20
280.13271950075
30
0
41
1
10
192.343831853369
20
280.279135724278
30
0
41
1
10
193.02066975635
20
280.425552159015
30
0
41
1
10
193.697507634355
20
280.571968711209
30
0
0
SPLINE
5
2EF
100
AcDbEntity
8
1
62
256
6
ByLayer
370
18
48
1
60
0
100
AcDbSpline
70
4
71
3
72
8
73
4
40
0
40
0
40
0
40
0
40
1
40
1
40
1
40
1
41
1
10
191.65720389994
20
280.13271950075
30
0
41
1
10
192.334041847832
20
280.279135724278
30
0
41
1
10
193.010879750812
20
280.425552159015
30
0
41
1
10
193.687717628817
20
280.571968711209
30
0
0
SPLINE
5
2F0
100
AcDbEntity
8
1
62
256
6
ByLayer
370
18
48
1
60
0
100
AcDbSpline
70
4
71
3
72
8
73
4
40
0
40
0
40
0
40
0
40
1
40
1
40
1
40
1
41
1
10
191.435988770696
20
280.13271950075
30
0
41
1
10
192.096320901813
20
280.279135724278
30
0
41
1
10
192.756652989113
20
280.425552159015
30
0
41
1
10
193.416985052047
20
280.571968711209
30
0
0
SPLINE
5
2F1
100
AcDbEntity
8
1
62
256
6
ByLayer
370
18
48
1
60
0
100
AcDbSpline
70
4
71
3
72
8
73
4
40
0
40
0
40
0
40
0
40
1
40
1
40
1
40
1
41
1
10
191.416956396927
20
280.13271950075
30
0
41
1
10
192.077288528044
20
280.279135724278
30
0
41
1
10
192.737620615345
20
280.425552159015
30
0
41
1
10
193.397952678278
20
280.571968711209
30
0
0
SPLINE
5
2F2
100
AcDbEntity
8
1
62
256
6
ByLayer
370
18
48
1
60
0
100
AcDbSpline
70
4
71
3
72
8
73
4
40
0
40
0
40
0
40
0
40
1
40
1
40
1
40
1
41
1
10
191.056172456215
20
280.13271950075
30
0
41
1
10
191.689584938385
20
280.279135724278
30
0
41
1
10
192.322997378526
20
280.425552159015
30
0
41
1
10
192.956409795293
20
280.571968711209
30
0
0
SPLINE
5
2F3
100
AcDbEntity
8
1
62
256
6
ByLayer
370
18
48
1
60
0
100
AcDbSpline
70
4
71
3
72
8
73
4
40
0
40
0
40
0
40
0
40
1
40
1
40
1
40
1
41
1
10
191.056172456215
20
280.13271950075
30
0
41
1
10
191.046851521025
20
280.132699776106
30
0
41
1
10
191.037526651587
20
280.132699776106
30
0
41
1
10
191.028197866118
20
280.13271950075
30
0
0
SPLINE
5
2F4
100
AcDbEntity
8
1
62
256
6
ByLayer
370
18
48
1
60
0
100
AcDbSpline
70
4
71
3
72
8
73
4
40
0
40
0
40
0
40
0
40
1
40
1
40
1
40
1
41
1
10
191.028197866118
20
280.13271950075
30
0
41
1
10
191.661610348289
20
280.279135724278
30
0
41
1
10
192.295022788429
20
280.425552159015
30
0
41
1
10
192.928435205197
20
280.571968711209
30
0
0
SPLINE
5
2F5
100
AcDbEntity
8
1
62
256
6
ByLayer
370
18
48
1
60
0
100
AcDbSpline
70
4
71
3
72
8
73
4
40
0
40
0
40
0
40
0
40
1
40
1
40
1
40
1
41
1
10
181.299674304052
20
280.13271950075
30
0
41
1
10
181.253236736269
20
280.279135724278
30
0
41
1
10
181.206799171568
20
280.425552159015
30
0
41
1
10
181.160361608581
20
280.571968711209
30
0
0
SPLINE
5
2F6
100
AcDbEntity
8
1
62
256
6
ByLayer
370
18
48
1
60
0
100
AcDbSpline
70
4
71
3
72
8
73
4
40
0
40
0
40
0
40
0
40
1
40
1
40
1
40
1
41
1
10
182.598356226449
20
280.13271950075
30
0
41
1
10
182.637649019621
20
280.279135724278
30
0
41
1
10
182.676941810186
20
280.425552159015
30
0
41
1
10
182.716234599301
20
280.571968711209
30
0
0
SPLINE
5
2F7
100
AcDbEntity
8
1
62
256
6
ByLayer
370
18
48
1
60
0
100
AcDbSpline
70
4
71
3
72
8
73
4
40
0
40
0
40
0
40
0
40
1
40
1
40
1
40
1
41
1
10
192.323045411025
20
280.571968711209
30
0
41
1
10
192.331879904988
20
280.582079452719
30
0
41
1
10
192.340714398893
20
280.592190194295
30
0
41
1
10
192.349548892742
20
280.602300935937
30
0
0
SPLINE
5
2F8
100
AcDbEntity
8
1
62
256
6
ByLayer
370
18
48
1
60
0
100
AcDbSpline
70
4
71
3
72
8
73
4
40
0
40
0
40
0
40
0
40
1
40
1
40
1
40
1
41
1
10
192.928435205197
20
280.571968711209
30
0
41
1
10
192.937816005391
20
280.582079094561
30
0
41
1
10
192.947196805524
20
280.592189477979
30
0
41
1
10
192.956577605597
20
280.602299861463
30
0
0
SPLINE
5
2F9
100
AcDbEntity
8
1
62
256
6
ByLayer
370
18
48
1
60
0
100
AcDbSpline
70
4
71
3
72
8
73
4
40
0
40
0
40
0
40
0
40
1
40
1
40
1
40
1
41
1
10
192.956409795293
20
280.571968711209
30
0
41
1
10
192.965790595488
20
280.582079094561
30
0
41
1
10
192.975171395621
20
280.592189477979
30
0
41
1
10
192.984552195694
20
280.602299861463
30
0
0
SPLINE
5
2FA
100
AcDbEntity
8
1
62
256
6
ByLayer
370
18
48
1
60
0
100
AcDbSpline
70
4
71
3
72
8
73
4
40
0
40
0
40
0
40
0
40
1
40
1
40
1
40
1
41
1
10
193.397952678278
20
280.571968711209
30
0
41
1
10
193.407732479551
20
280.582079428202
30
0
41
1
10
193.417512280759
20
280.59219014526
30
0
41
1
10
193.427292081905
20
280.602300862383
30
0
0
SPLINE
5
2FB
100
AcDbEntity
8
1
62
256
6
ByLayer
370
18
48
1
60
0
100
AcDbSpline
70
4
71
3
72
8
73
4
40
0
40
0
40
0
40
0
40
1
40
1
40
1
40
1
41
1
10
193.416985052047
20
280.571968711209
30
0
41
1
10
193.42676485332
20
280.582079428202
30
0
41
1
10
193.436544654528
20
280.59219014526
30
0
41
1
10
193.446324455674
20
280.602300862383
30
0
0
SPLINE
5
2FC
100
AcDbEntity
8
1
62
256
6
ByLayer
370
18
48
1
60
0
100
AcDbSpline
70
4
71
3
72
8
73
4
40
0
40
0
40
0
40
0
40
1
40
1
40
1
40
1
41
1
10
193.687717628817
20
280.571968711209
30
0
41
1
10
193.697741623341
20
280.582079160962
30
0
41
1
10
193.707765617799
20
280.592189610781
30
0
41
1
10
193.717789612193
20
280.602300060665
30
0
0
SPLINE
5
2FD
100
AcDbEntity
8
1
62
256
6
ByLayer
370
18
48
1
60
0
100
AcDbSpline
70
4
71
3
72
8
73
4
40
0
40
0
40
0
40
0
40
1
40
1
40
1
40
1
41
1
10
193.697507634355
20
280.571968711209
30
0
41
1
10
193.707531628878
20
280.582079160962
30
0
41
1
10
193.717555623337
20
280.592189610781
30
0
41
1
10
193.727579617731
20
280.602300060665
30
0
0
SPLINE
5
2FE
100
AcDbEntity
8
1
62
256
6
ByLayer
370
18
48
1
60
0
100
AcDbSpline
70
4
71
3
72
8
73
4
40
0
40
0
40
0
40
0
40
1
40
1
40
1
40
1
41
1
10
193.793160290445
20
280.571968711209
30
0
41
1
10
193.803270930672
20
280.582079439306
30
0
41
1
10
193.813381570834
20
280.592190167468
30
0
41
1
10
193.82349221093
20
280.602300895695
30
0
0
SPLINE
5
2FF
100
AcDbEntity
8
1
62
256
6
ByLayer
370
18
48
1
60
0
100
AcDbSpline
70
4
71
3
72
8
73
4
40
0
40
0
40
0
40
0
40
1
40
1
40
1
40
1
41
1
10
193.793553533515
20
280.571968711209
30
0
41
1
10
193.803664173742
20
280.582079439306
30
0
41
1
10
193.813774813904
20
280.592190167468
30
0
41
1
10
193.823885454
20
280.602300895695
30
0
0
SPLINE
5
300
100
AcDbEntity
8
1
62
256
6
ByLayer
370
18
48
1
60
0
100
AcDbSpline
70
4
71
3
72
8
73
4
40
0
40
0
40
0
40
0
40
1
40
1
40
1
40
1
41
1
10
170.2873822306
20
280.571968711209
30
0
41
1
10
170.277344965827
20
280.582079142801
30
0
41
1
10
170.26730770112
20
280.592189574459
30
0
41
1
10
170.257270436477
20
280.602300006182
30
0
0
SPLINE
5
301
100
AcDbEntity
8
1
62
256
6
ByLayer
370
18
48
1
60
0
100
AcDbSpline
70
4
71
3
72
8
73
4
40
0
40
0
40
0
40
0
40
1
40
1
40
1
40
1
41
1
10
170.296391951675
20
280.571968711209
30
0
41
1
10
170.286354686902
20
280.582079142801
30
0
41
1
10
170.276317422195
20
280.592189574459
30
0
41
1
10
170.266280157552
20
280.602300006182
30
0
0
SPLINE
5
302
100
AcDbEntity
8
1
62
256
6
ByLayer
370
18
48
1
60
0
100
AcDbSpline
70
4
71
3
72
8
73
4
40
0
40
0
40
0
40
0
40
1
40
1
40
1
40
1
41
1
10
170.552639730647
20
280.571968711209
30
0
41
1
10
170.542833801736
20
280.582079180695
30
0
41
1
10
170.533027872889
20
280.592189650247
30
0
41
1
10
170.523221944105
20
280.602300119863
30
0
0
SPLINE
5
303
100
AcDbEntity
8
1
62
256
6
ByLayer
370
18
48
1
60
0
100
AcDbSpline
70
4
71
3
72
8
73
4
40
0
40
0
40
0
40
0
40
1
40
1
40
1
40
1
41
1
10
170.570910327184
20
280.571968711209
30
0
41
1
10
170.561104398272
20
280.582079180695
30
0
41
1
10
170.551298469425
20
280.592189650247
30
0
41
1
10
170.541492540641
20
280.602300119863
30
0
0
SPLINE
5
304
100
AcDbEntity
8
1
62
256
6
ByLayer
370
18
48
1
60
0
100
AcDbSpline
70
4
71
3
72
8
73
4
40
0
40
0
40
0
40
0
40
1
40
1
40
1
40
1
41
1
10
170.998428940463
20
280.571968711209
30
0
41
1
10
170.989009048907
20
280.582079160821
30
0
41
1
10
170.979589157412
20
280.592189610498
30
0
41
1
10
170.970169265979
20
280.60230006024
30
0
0
SPLINE
5
305
100
AcDbEntity
8
1
62
256
6
ByLayer
370
18
48
1
60
0
100
AcDbSpline
70
4
71
3
72
8
73
4
40
0
40
0
40
0
40
0
40
1
40
1
40
1
40
1
41
1
10
171.02567227424
20
280.571968711209
30
0
41
1
10
171.016252382684
20
280.582079160821
30
0
41
1
10
171.006832491189
20
280.592189610498
30
0
41
1
10
170.997412599755
20
280.60230006024
30
0
0
SPLINE
5
306
100
AcDbEntity
8
1
62
256
6
ByLayer
370
18
48
1
60
0
100
AcDbSpline
70
4
71
3
72
8
73
4
40
0
40
0
40
0
40
0
40
1
40
1
40
1
40
1
41
1
10
171.617719497908
20
280.571968711209
30
0
41
1
10
171.608834143369
20
280.582079204492
30
0
41
1
10
171.599948788888
20
280.59218969784
30
0
41
1
10
171.591063434464
20
280.602300191253
30
0
0
SPLINE
5
307
100
AcDbEntity
8
1
62
256
6
ByLayer
370
18
48
1
60
0
100
AcDbSpline
70
4
71
3
72
8
73
4
40
0
40
0
40
0
40
0
40
1
40
1
40
1
40
1
41
1
10
171.653505925277
20
280.571968711209
30
0
41
1
10
171.644620570738
20
280.582079204492
30
0
41
1
10
171.635735216257
20
280.59218969784
30
0
41
1
10
171.626849861833
20
280.602300191253
30
0
0
SPLINE
5
308
100
AcDbEntity
8
1
62
256
6
ByLayer
370
18
48
1
60
0
100
AcDbSpline
70
4
71
3
72
8
73
4
40
0
40
0
40
0
40
0
40
1
40
1
40
1
40
1
41
1
10
172.400744820945
20
280.571968711209
30
0
41
1
10
172.392534047991
20
280.582079356531
30
0
41
1
10
172.38432327509
20
280.592190001918
30
0
41
1
10
172.376112502242
20
280.60230064737
30
0
0
SPLINE
5
309
100
AcDbEntity
8
1
62
256
6
ByLayer
370
18
48
1
60
0
100
AcDbSpline
70
4
71
3
72
8
73
4
40
0
40
0
40
0
40
0
40
1
40
1
40
1
40
1
41
1
10
172.444509968568
20
280.571968711209
30
0
41
1
10
172.436299195614
20
280.582079356531
30
0
41
1
10
172.428088422713
20
280.592190001918
30
0
41
1
10
172.419877649865
20
280.60230064737
30
0
0
SPLINE
5
30A
100
AcDbEntity
8
1
62
256
6
ByLayer
370
18
48
1
60
0
100
AcDbSpline
70
4
71
3
72
8
73
4
40
0
40
0
40
0
40
0
40
1
40
1
40
1
40
1
41
1
10
173.335156132473
20
280.571968711209
30
0
41
1
10
173.327749515625
20
280.582079421902
30
0
41
1
10
173.320342898826
20
280.59219013266
30
0
41
1
10
173.312936282075
20
280.602300843483
30
0
0
SPLINE
5
30B
100
AcDbEntity
8
1
62
256
6
ByLayer
370
18
48
1
60
0
100
AcDbSpline
70
4
71
3
72
8
73
4
40
0
40
0
40
0
40
0
40
1
40
1
40
1
40
1
41
1
10
173.386209797828
20
280.571968711209
30
0
41
1
10
173.378803180981
20
280.582079421902
30
0
41
1
10
173.371396564182
20
280.59219013266
30
0
41
1
10
173.36398994743
20
280.602300843483
30
0
0
SPLINE
5
30C
100
AcDbEntity
8
1
62
256
6
ByLayer
370
18
48
1
60
0
100
AcDbSpline
70
4
71
3
72
8
73
4
40
0
40
0
40
0
40
0
40
1
40
1
40
1
40
1
41
1
10
174.406217207918
20
280.571968711209
30
0
41
1
10
174.399731637294
20
280.582079374733
30
0
41
1
10
174.393246066711
20
280.592190038323
30
0
41
1
10
174.386760496171
20
280.602300701978
30
0
0
SPLINE
5
30D
100
AcDbEntity
8
1
62
256
6
ByLayer
370
18
48
1
60
0
100
AcDbSpline
70
4
71
3
72
8
73
4
40
0
40
0
40
0
40
0
40
1
40
1
40
1
40
1
41
1
10
174.463754244206
20
280.571968711209
30
0
41
1
10
174.457268673581
20
280.582079374733
30
0
41
1
10
174.450783102999
20
280.592190038323
30
0
41
1
10
174.444297532459
20
280.602300701978
30
0
0
SPLINE
5
30E
100
AcDbEntity
8
1
62
256
6
ByLayer
370
18
48
1
60
0
100
AcDbSpline
70
4
71
3
72
8
73
4
40
0
40
0
40
0
40
0
40
1
40
1
40
1
40
1
41
1
10
175.597036774301
20
280.571968711209
30
0
41
1
10
175.591574412515
20
280.582079530502
30
0
41
1
10
175.586112050765
20
280.592190349861
30
0
41
1
10
175.580649689049
20
280.602301169286
30
0
0
SPLINE
5
30F
100
AcDbEntity
8
1
62
256
6
ByLayer
370
18
48
1
60
0
100
AcDbSpline
70
4
71
3
72
8
73
4
40
0
40
0
40
0
40
0
40
1
40
1
40
1
40
1
41
1
10
175.660149788087
20
280.571968711209
30
0
41
1
10
175.654687426301
20
280.582079530502
30
0
41
1
10
175.649225064551
20
280.592190349861
30
0
41
1
10
175.643762702836
20
280.602301169286
30
0
0
SPLINE
5
310
100
AcDbEntity
8
1
62
256
6
ByLayer
370
18
48
1
60
0
100
AcDbSpline
70
4
71
3
72
8
73
4
40
0
40
0
40
0
40
0
40
1
40
1
40
1
40
1
41
1
10
176.888834895697
20
280.571968711209
30
0
41
1
10
176.884481994826
20
280.582079513202
30
0
41
1
10
176.880129093983
20
280.59219031526
30
0
41
1
10
176.875776193169
20
280.602301117383
30
0
0
SPLINE
5
311
100
AcDbEntity
8
1
62
256
6
ByLayer
370
18
48
1
60
0
100
AcDbSpline
70
4
71
3
72
8
73
4
40
0
40
0
40
0
40
0
40
1
40
1
40
1
40
1
41
1
10
176.956528557053
20
280.571968711209
30
0
41
1
10
176.952175656182
20
280.582079513202
30
0
41
1
10
176.947822755339
20
280.59219031526
30
0
41
1
10
176.943469854524
20
280.602301117383
30
0
0
SPLINE
5
312
100
AcDbEntity
8
1
62
256
6
ByLayer
370
18
48
1
60
0
100
AcDbSpline
70
4
71
3
72
8
73
4
40
0
40
0
40
0
40
0
40
1
40
1
40
1
40
1
41
1
10
178.261239144051
20
280.571968711209
30
0
41
1
10
178.258064402082
20
280.582079323753
30
0
41
1
10
178.254889660133
20
280.592189936363
30
0
41
1
10
178.251714918206
20
280.602300549038
30
0
0
SPLINE
5
313
100
AcDbEntity
8
1
62
256
6
ByLayer
370
18
48
1
60
0
100
AcDbSpline
70
4
71
3
72
8
73
4
40
0
40
0
40
0
40
0
40
1
40
1
40
1
40
1
41
1
10
178.332445883498
20
280.571968711209
30
0
41
1
10
178.329271141529
20
280.582079323753
30
0
41
1
10
178.326096399581
20
280.592189936363
30
0
41
1
10
178.322921657653
20
280.602300549038
30
0
0
SPLINE
5
314
100
AcDbEntity
8
1
62
256
6
ByLayer
370
18
48
1
60
0
100
AcDbSpline
70
4
71
3
72
8
73
4
40
0
40
0
40
0
40
0
40
1
40
1
40
1
40
1
41
1
10
179.69260588453
20
280.571968711209
30
0
41
1
10
179.690659343588
20
280.582079032326
30
0
41
1
10
179.688712802658
20
280.592189353508
30
0
41
1
10
179.686766261741
20
280.602299674756
30
0
0
SPLINE
5
315
100
AcDbEntity
8
1
62
256
6
ByLayer
370
18
48
1
60
0
100
AcDbSpline
70
4
71
3
72
8
73
4
40
0
40
0
40
0
40
0
40
1
40
1
40
1
40
1
41
1
10
179.766202729251
20
280.571968711209
30
0
41
1
10
179.764256188308
20
280.582079032326
30
0
41
1
10
179.762309647379
20
280.592189353508
30
0
41
1
10
179.760363106462
20
280.602299674756
30
0
0
SPLINE
5
316
100
AcDbEntity
8
1
62
256
6
ByLayer
370
18
48
1
60
0
100
AcDbSpline
70
4
71
3
72
8
73
4
40
0
40
0
40
0
40
0
40
1
40
1
40
1
40
1
41
1
10
181.160361608581
20
280.571968711209
30
0
41
1
10
181.159673853891
20
280.582079346608
30
0
41
1
10
181.158986099207
20
280.592189982073
30
0
41
1
10
181.158298344527
20
280.602300617603
30
0
0
SPLINE
5
317
100
AcDbEntity
8
1
62
256
6
ByLayer
370
18
48
1
60
0
100
AcDbSpline
70
4
71
3
72
8
73
4
40
0
40
0
40
0
40
0
40
1
40
1
40
1
40
1
41
1
10
181.235187892369
20
280.571968711209
30
0
41
1
10
181.23450013768
20
280.582079346608
30
0
41
1
10
181.233812382996
20
280.592189982073
30
0
41
1
10
181.233124628315
20
280.602300617603
30
0
0
SPLINE
5
318
100
AcDbEntity
8
1
62
256
6
ByLayer
370
18
48
1
60
0
100
AcDbSpline
70
4
71
3
72
8
73
4
40
0
40
0
40
0
40
0
40
1
40
1
40
1
40
1
41
1
10
182.64135893164
20
280.571968711209
30
0
41
1
10
182.641940867968
20
280.582079311055
30
0
41
1
10
182.642522804294
20
280.592189910966
30
0
41
1
10
182.643104740615
20
280.602300510942
30
0
0
SPLINE
5
319
100
AcDbEntity
8
1
62
256
6
ByLayer
370
18
48
1
60
0
100
AcDbSpline
70
4
71
3
72
8
73
4
40
0
40
0
40
0
40
0
40
1
40
1
40
1
40
1
41
1
10
182.716234599301
20
280.571968711209
30
0
41
1
10
182.71681653563
20
280.582079311055
30
0
41
1
10
182.717398471955
20
280.592189910966
30
0
41
1
10
182.717980408277
20
280.602300510942
30
0
0
SPLINE
5
31A
100
AcDbEntity
8
1
62
256
6
ByLayer
370
18
48
1
60
0
100
AcDbSpline
70
4
71
3
72
8
73
4
40
0
40
0
40
0
40
0
40
1
40
1
40
1
40
1
41
1
10
184.112241641218
20
280.571968711209
30
0
41
1
10
184.114084129982
20
280.582079537798
30
0
41
1
10
184.115926618734
20
280.592190364453
30
0
41
1
10
184.117769107474
20
280.602301191173
30
0
0
SPLINE
5
31B
100
AcDbEntity
8
1
62
256
6
ByLayer
370
18
48
1
60
0
100
AcDbSpline
70
4
71
3
72
8
73
4
40
0
40
0
40
0
40
0
40
1
40
1
40
1
40
1
41
1
10
184.185985858745
20
280.571968711209
30
0
41
1
10
184.18782834751
20
280.582079537798
30
0
41
1
10
184.189670836262
20
280.592190364453
30
0
41
1
10
184.191513325002
20
280.602301191173
30
0
0
SPLINE
5
31C
100
AcDbEntity
8
1
62
256
6
ByLayer
370
18
48
1
60
0
100
AcDbSpline
70
4
71
3
72
8
73
4
40
0
40
0
40
0
40
0
40
1
40
1
40
1
40
1
41
1
10
185.549813038321
20
280.571968711209
30
0
41
1
10
185.55288687748
20
280.582079104149
30
0
41
1
10
185.555960716619
20
280.592189497155
30
0
41
1
10
185.559034555739
20
280.602299890225
30
0
0
SPLINE
5
31D
100
AcDbEntity
8
1
62
256
6
ByLayer
370
18
48
1
60
0
100
AcDbSpline
70
4
71
3
72
8
73
4
40
0
40
0
40
0
40
0
40
1
40
1
40
1
40
1
41
1
10
185.621262815351
20
280.571968711209
30
0
41
1
10
185.624336654511
20
280.582079104149
30
0
41
1
10
185.62741049365
20
280.592189497155
30
0
41
1
10
185.630484332769
20
280.602299890225
30
0
0
SPLINE
5
31E
100
AcDbEntity
8
1
62
256
6
ByLayer
370
18
48
1
60
0
100
AcDbSpline
70
4
71
3
72
8
73
4
40
0
40
0
40
0
40
0
40
1
40
1
40
1
40
1
41
1
10
186.931401763255
20
280.571968711209
30
0
41
1
10
186.935658565684
20
280.582079128213
30
0
41
1
10
186.939915368086
20
280.592189545282
30
0
41
1
10
186.94417217046
20
280.602299962417
30
0
0
SPLINE
5
31F
100
AcDbEntity
8
1
62
256
6
ByLayer
370
18
48
1
60
0
100
AcDbSpline
70
4
71
3
72
8
73
4
40
0
40
0
40
0
40
0
40
1
40
1
40
1
40
1
41
1
10
186.999430294123
20
280.571968711209
30
0
41
1
10
187.003687096552
20
280.582079128213
30
0
41
1
10
187.007943898953
20
280.592189545282
30
0
41
1
10
187.012200701328
20
280.602299962417
30
0
0
SPLINE
5
320
100
AcDbEntity
8
1
62
256
6
ByLayer
370
18
48
1
60
0
100
AcDbSpline
70
4
71
3
72
8
73
4
40
0
40
0
40
0
40
0
40
1
40
1
40
1
40
1
41
1
10
188.235219336506
20
280.571968711209
30
0
41
1
10
188.240591995156
20
280.582079189529
30
0
41
1
10
188.24596465377
20
280.592189667915
30
0
41
1
10
188.25133731235
20
280.602300146366
30
0
0
SPLINE
5
321
100
AcDbEntity
8
1
62
256
6
ByLayer
370
18
48
1
60
0
100
AcDbSpline
70
4
71
3
72
8
73
4
40
0
40
0
40
0
40
0
40
1
40
1
40
1
40
1
41
1
10
188.29875377064
20
280.571968711209
30
0
41
1
10
188.30412642929
20
280.582079189529
30
0
41
1
10
188.309499087904
20
280.592189667915
30
0
41
1
10
188.314871746484
20
280.602300146366
30
0
0
SPLINE
5
322
100
AcDbEntity
8
1
62
256
6
ByLayer
370
18
48
1
60
0
100
AcDbSpline
70
4
71
3
72
8
73
4
40
0
40
0
40
0
40
0
40
1
40
1
40
1
40
1
41
1
10
189.440703776081
20
280.571968711209
30
0
41
1
10
189.447107604885
20
280.582079299711
30
0
41
1
10
189.453511433647
20
280.592189888279
30
0
41
1
10
189.459915262368
20
280.602300476912
30
0
0
SPLINE
5
323
100
AcDbEntity
8
1
62
256
6
ByLayer
370
18
48
1
60
0
100
AcDbSpline
70
4
71
3
72
8
73
4
40
0
40
0
40
0
40
0
40
1
40
1
40
1
40
1
41
1
10
189.498742137502
20
280.571968711209
30
0
41
1
10
189.505145966306
20
280.582079299711
30
0
41
1
10
189.511549795068
20
280.592189888279
30
0
41
1
10
189.51795362379
20
280.602300476912
30
0
0
SPLINE
5
324
100
AcDbEntity
8
1
62
256
6
ByLayer
370
18
48
1
60
0
100
AcDbSpline
70
4
71
3
72
8
73
4
40
0
40
0
40
0
40
0
40
1
40
1
40
1
40
1
41
1
10
190.528843872245
20
280.571968711209
30
0
41
1
10
190.536177960465
20
280.582079492739
30
0
41
1
10
190.543512048637
20
280.592190274334
30
0
41
1
10
190.550846136762
20
280.602301055994
30
0
0
SPLINE
5
325
100
AcDbEntity
8
1
62
256
6
ByLayer
370
18
48
1
60
0
100
AcDbSpline
70
4
71
3
72
8
73
4
40
0
40
0
40
0
40
0
40
1
40
1
40
1
40
1
41
1
10
190.580470861323
20
280.571968711209
30
0
41
1
10
190.587804949543
20
280.582079492739
30
0
41
1
10
190.595139037715
20
280.592190274334
30
0
41
1
10
190.60247312584
20
280.602301055994
30
0
0
SPLINE
5
326
100
AcDbEntity
8
1
62
256
6
ByLayer
370
18
48
1
60
0
100
AcDbSpline
70
4
71
3
72
8
73
4
40
0
40
0
40
0
40
0
40
1
40
1
40
1
40
1
41
1
10
191.482479005661
20
280.571968711209
30
0
41
1
10
191.490627372582
20
280.582079250158
30
0
41
1
10
191.49877573945
20
280.592189789172
30
0
41
1
10
191.506924106265
20
280.602300328252
30
0
0
SPLINE
5
327
100
AcDbEntity
8
1
62
256
6
ByLayer
370
18
48
1
60
0
100
AcDbSpline
70
4
71
3
72
8
73
4
40
0
40
0
40
0
40
0
40
1
40
1
40
1
40
1
41
1
10
191.526880433937
20
280.571968711209
30
0
41
1
10
191.535028800858
20
280.582079250158
30
0
41
1
10
191.543177167726
20
280.592189789172
30
0
41
1
10
191.551325534542
20
280.602300328252
30
0
0
SPLINE
5
328
100
AcDbEntity
8
1
62
256
6
ByLayer
370
18
48
1
60
0
100
AcDbSpline
70
4
71
3
72
8
73
4
40
0
40
0
40
0
40
0
40
1
40
1
40
1
40
1
41
1
10
192.286569780598
20
280.571968711209
30
0
41
1
10
192.295404274561
20
280.582079452719
30
0
41
1
10
192.304238768466
20
280.592190194295
30
0
41
1
10
192.313073262314
20
280.602300935937
30
0
0
SPLINE
5
329
100
AcDbEntity
8
1
62
256
6
ByLayer
370
18
48
1
60
0
100
AcDbSpline
70
4
71
3
72
24
73
20
40
0
40
0
40
0
40
0
40
0.125000000000087
40
0.125000000000087
40
0.18750000000013
40
0.18750000000013
40
0.250000000000174
40
0.250000000000174
40
0.375000000000122
40
0.375000000000122
40
0.50000000000007
40
0.50000000000007
40
0.625000000000018
40
0.625000000000018
40
0.687500000000061
40
0.687500000000061
40
0.750000000000104
40
0.750000000000104
40
1
40
1
40
1
40
1
41
1
10
176.078700641381
20
312.81675
30
0
41
1
10
176.173862121168
20
312.81675
30
0
41
1
10
176.269882445871
20
312.81675
30
0
41
1
10
176.415538990813
20
312.81675
30
0
41
1
10
176.464403206571
20
312.81675
30
0
41
1
10
176.562095801469
20
312.81675
30
0
41
1
10
176.610994161557
20
312.81675
30
0
41
1
10
176.757856866218
20
312.81675
30
0
41
1
10
176.855989494642
20
312.81675
30
0
41
1
10
177.052752618877
20
312.81675
30
0
41
1
10
177.151383471847
20
312.81675
30
0
41
1
10
177.349167781037
20
312.81675
30
0
41
1
10
177.448321321371
20
312.81675
30
0
41
1
10
177.597437381536
20
312.81675
30
0
41
1
10
177.647262978909
20
312.81675
30
0
41
1
10
177.746173369787
20
312.81675
30
0
41
1
10
177.79536302585
20
312.81675
30
0
41
1
10
178.040090097829
20
312.81675
30
0
41
1
10
178.231980803447
20
312.81675
30
0
41
1
10
178.421299358618
20
312.81675
30
0
0
SPLINE
5
32A
100
AcDbEntity
8
1
62
256
6
ByLayer
370
18
48
1
60
0
100
AcDbSpline
70
4
71
3
72
24
73
20
40
0
40
0
40
0
40
0
40
0.124999999999999
40
0.124999999999999
40
0.187499999999999
40
0.187499999999999
40
0.249999999999999
40
0.249999999999999
40
0.374999999999999
40
0.374999999999999
40
0.499999999999998
40
0.499999999999998
40
0.624999999999998
40
0.624999999999998
40
0.687499999999999
40
0.687499999999999
40
0.749999999999999
40
0.749999999999999
40
1
40
1
40
1
40
1
41
1
10
176.078700641382
20
308.75925
30
0
41
1
10
176.173862121169
20
308.75925
30
0
41
1
10
176.269882445871
20
308.75925
30
0
41
1
10
176.415538990814
20
308.75925
30
0
41
1
10
176.464403206573
20
308.75925
30
0
41
1
10
176.562095801469
20
308.75925
30
0
41
1
10
176.610994161558
20
308.75925
30
0
41
1
10
176.757856866217
20
308.75925
30
0
41
1
10
176.855989494641
20
308.75925
30
0
41
1
10
177.052752618874
20
308.75925
30
0
41
1
10
177.151383471842
20
308.75925
30
0
41
1
10
177.349167781029
20
308.75925
30
0
41
1
10
177.448321321361
20
308.75925
30
0
41
1
10
177.597437381523
20
308.75925
30
0
41
1
10
177.647262978897
20
308.75925
30
0
41
1
10
177.746173369778
20
308.75925
30
0
41
1
10
177.795363025841
20
308.75925
30
0
41
1
10
178.040090097825
20
308.75925
30
0
41
1
10
178.231980803446
20
308.75925
30
0
41
1
10
178.421299358619
20
308.75925
30
0
0
SPLINE
5
32B
100
AcDbEntity
8
1
62
256
6
ByLayer
370
18
48
1
60
0
100
AcDbSpline
70
4
71
3
72
20
73
16
40
0
40
0
40
0
40
0
40
0.249999999999896
40
0.249999999999896
40
0.374999999999878
40
0.374999999999878
40
0.437499999999869
40
0.437499999999869
40
0.499999999999861
40
0.499999999999861
40
0.624999999999913
40
0.624999999999913
40
0.749999999999965
40
0.749999999999965
40
1
40
1
40
1
40
1
41
1
10
174.907401282763
20
310.788
30
0
41
1
10
175.003145622373
20
310.953834060741
30
0
41
1
10
175.099690273277
20
311.121054301306
30
0
41
1
10
175.246252089633
20
311.374906813684
30
0
41
1
10
175.295397687434
20
311.460029486044
30
0
41
1
10
175.369613725832
20
311.588575435287
30
0
41
1
10
175.394435200407
20
311.631567490369
30
0
41
1
10
175.44425123045
20
311.717851385435
30
0
41
1
10
175.469272992452
20
311.761190348516
30
0
41
1
10
175.543959938046
20
311.890551932947
30
0
41
1
10
175.59344570544
20
311.976263796326
30
0
41
1
10
175.691846416346
20
312.146698827115
30
0
41
1
10
175.740761852303
20
312.231422847468
30
0
41
1
10
175.886752817325
20
312.484286616331
30
0
41
1
10
175.983075413925
20
312.65112224756
30
0
41
1
10
176.078700641381
20
312.81675
30
0
0
SPLINE
5
32C
100
AcDbEntity
8
1
62
256
6
ByLayer
370
18
48
1
60
0
100
AcDbSpline
70
4
71
3
72
20
73
16
40
0
40
0
40
0
40
0
40
0.250000000000181
40
0.250000000000181
40
0.375000000000237
40
0.375000000000237
40
0.43750000000023
40
0.43750000000023
40
0.500000000000223
40
0.500000000000223
40
0.6250000000002
40
0.6250000000002
40
0.750000000000177
40
0.750000000000177
40
1
40
1
40
1
40
1
41
1
10
178.421299358618
20
308.75925
30
0
41
1
10
178.517043698228
20
308.925084060742
30
0
41
1
10
178.613588349132
20
309.092304301306
30
0
41
1
10
178.760150165488
20
309.346156813684
30
0
41
1
10
178.80929576329
20
309.431279486044
30
0
41
1
10
178.883511801688
20
309.559825435287
30
0
41
1
10
178.908333276263
20
309.602817490369
30
0
41
1
10
178.958149306306
20
309.689101385435
30
0
41
1
10
178.983171068307
20
309.732440348516
30
0
41
1
10
179.057858013901
20
309.861801932947
30
0
41
1
10
179.107343781295
20
309.947513796326
30
0
41
1
10
179.205744492201
20
310.117948827116
30
0
41
1
10
179.254659928158
20
310.202672847468
30
0
41
1
10
179.40065089318
20
310.455536616332
30
0
41
1
10
179.496973489781
20
310.62237224756
30
0
41
1
10
179.592598717237
20
310.788
30
0
0
SPLINE
5
32D
100
AcDbEntity
8
1
62
256
6
ByLayer
370
18
48
1
60
0
100
AcDbSpline
70
4
71
3
72
20
73
16
40
0
40
0
40
0
40
0
40
0.249999999999971
40
0.249999999999971
40
0.374999999999991
40
0.374999999999991
40
0.437499999999971
40
0.437499999999971
40
0.499999999999951
40
0.499999999999951
40
0.62499999999998
40
0.62499999999998
40
0.75000000000001
40
0.75000000000001
40
1
40
1
40
1
40
1
41
1
10
174.907401282763
20
310.788
30
0
41
1
10
175.003145622373
20
310.622165939259
30
0
41
1
10
175.099690273277
20
310.454945698694
30
0
41
1
10
175.246252089633
20
310.201093186316
30
0
41
1
10
175.295397687434
20
310.115970513956
30
0
41
1
10
175.369613725833
20
309.987424564713
30
0
41
1
10
175.394435200407
20
309.94443250963
30
0
41
1
10
175.44425123045
20
309.858148614565
30
0
41
1
10
175.469272992452
20
309.814809651484
30
0
41
1
10
175.543959938046
20
309.685448067053
30
0
41
1
10
175.59344570544
20
309.599736203674
30
0
41
1
10
175.691846416346
20
309.429301172884
30
0
41
1
10
175.740761852303
20
309.344577152532
30
0
41
1
10
175.886752817325
20
309.091713383668
30
0
41
1
10
175.983075413925
20
308.924877752439
30
0
41
1
10
176.078700641382
20
308.75925
30
0
0
SPLINE
5
32E
100
AcDbEntity
8
1
62
256
6
ByLayer
370
18
48
1
60
0
100
AcDbSpline
70
4
71
3
72
20
73
16
40
0
40
0
40
0
40
0
40
0.25000000000023
40
0.25000000000023
40
0.37500000000034
40
0.37500000000034
40
0.437500000000365
40
0.437500000000365
40
0.50000000000039
40
0.50000000000039
40
0.62500000000031
40
0.62500000000031
40
0.75000000000023
40
0.75000000000023
40
1
40
1
40
1
40
1
41
1
10
178.421299358618
20
312.81675
30
0
41
1
10
178.517043698229
20
312.650915939259
30
0
41
1
10
178.613588349132
20
312.483695698694
30
0
41
1
10
178.760150165488
20
312.229843186316
30
0
41
1
10
178.80929576329
20
312.144720513956
30
0
41
1
10
178.883511801688
20
312.016174564713
30
0
41
1
10
178.908333276263
20
311.973182509631
30
0
41
1
10
178.958149306306
20
311.886898614565
30
0
41
1
10
178.983171068307
20
311.843559651484
30
0
41
1
10
179.057858013901
20
311.714198067053
30
0
41
1
10
179.107343781295
20
311.628486203675
30
0
41
1
10
179.205744492201
20
311.458051172885
30
0
41
1
10
179.254659928158
20
311.373327152532
30
0
41
1
10
179.400650893181
20
311.120463383668
30
0
41
1
10
179.496973489781
20
310.95362775244
30
0
41
1
10
179.592598717237
20
310.788
30
0
0
SPLINE
5
32F
100
AcDbEntity
8
1
62
256
6
ByLayer
370
18
48
1
60
0
100
AcDbSpline
70
4
71
3
72
51
73
47
40
0
40
0
40
0
40
0
40
0.0625000000002305
40
0.0625000000002305
40
0.125000000000461
40
0.125000000000461
40
0.140625000000479
40
0.140625000000479
40
0.156250000000497
40
0.156250000000497
40
0.187500000000533
40
0.187500000000533
40
0.250000000000531
40
0.250000000000531
40
0.31250000000053
40
0.31250000000053
40
0.375000000000528
40
0.375000000000528
40
0.390625000000535
40
0.390625000000535
40
0.406250000000542
40
0.437500000000522
40
0.437500000000522
40
0.500000000000475
40
0.500000000000475
40
0.531250000000451
40
0.531250000000451
40
0.562500000000428
40
0.562500000000428
40
0.625000000000381
40
0.625000000000381
40
0.687500000000334
40
0.687500000000334
40
0.71875000000029
40
0.71875000000029
40
0.750000000000246
40
0.750000000000246
40
0.812500000000158
40
0.812500000000158
40
0.875000000000069
40
0.875000000000069
40
0.906250000000064
40
0.906250000000064
40
0.93750000000006
40
0.93750000000006
40
1
40
1
40
1
40
1
41
1
10
145.312490591815
20
300.316563038124
30
0
41
1
10
145.36505927635
20
300.374857885344
30
0
41
1
10
145.413218506586
20
300.43501550514
30
0
41
1
10
145.501906490407
20
300.559068992593
30
0
41
1
10
145.542424533298
20
300.622963921977
30
0
41
1
10
145.588716315818
20
300.705233651168
30
0
41
1
10
145.597756024987
20
300.721807914983
30
0
41
1
10
145.615405719879
20
300.755199846836
30
0
41
1
10
145.624026547952
20
300.772039984464
30
0
41
1
10
145.649148469985
20
300.822713323017
30
0
41
1
10
145.664922700029
20
300.856716606274
30
0
41
1
10
145.709531165374
20
300.959437855716
30
0
41
1
10
145.735660409158
20
301.028863737558
30
0
41
1
10
145.781513198211
20
301.169924831863
30
0
41
1
10
145.801233658405
20
301.241557937565
30
0
41
1
10
145.83481046211
20
301.387485064556
30
0
41
1
10
145.848667822841
20
301.461777485135
30
0
41
1
10
145.862522385808
20
301.556710560486
30
0
41
1
10
145.865119424036
20
301.575807451048
30
0
41
1
10
145.869940760557
20
301.613988422304
30
0
41
1
10
145.876626088259
20
301.671323814492
30
0
41
1
10
145.881716443865
20
301.728859277642
30
0
41
1
10
145.889856475234
20
301.844216490954
30
0
41
1
10
145.892578950718
20
301.921505284117
30
0
41
1
10
145.892685273165
20
302.038062765695
30
0
41
1
10
145.892053776763
20
302.077018784902
30
0
41
1
10
145.88941896747
20
302.155138729855
30
0
41
1
10
145.887404504436
20
302.194406254044
30
0
41
1
10
145.879328481662
20
302.310925426524
30
0
41
1
10
145.871246317937
20
302.387343806874
30
0
41
1
10
145.849459354866
20
302.538125993912
30
0
41
1
10
145.835750072228
20
302.612492210108
30
0
41
1
10
145.810547505899
20
302.722811361605
30
0
41
1
10
145.801353457339
20
302.759442345217
30
0
41
1
10
145.781410466635
20
302.832017451037
30
0
41
1
10
145.770679964793
20
302.867907133464
30
0
41
1
10
145.736130440833
20
302.974473872858
30
0
41
1
10
145.709961420268
20
303.04405308716
30
0
41
1
10
145.650750706708
20
303.180633733164
30
0
41
1
10
145.617714347413
20
303.247632980023
30
0
41
1
10
145.562320140958
20
303.346371418985
30
0
41
1
10
145.542879201101
20
303.378990101742
30
0
41
1
10
145.501881227901
20
303.443662623714
30
0
41
1
10
145.480450273504
20
303.475512902695
30
0
41
1
10
145.413419915732
20
303.569362220975
30
0
41
1
10
145.36502945744
20
303.629775181658
30
0
41
1
10
145.312490591815
20
303.688036961876
30
0
0
SPLINE
5
330
100
AcDbEntity
8
1
62
256
6
ByLayer
370
18
48
1
60
0
100
AcDbSpline
70
4
71
3
72
32
73
28
40
0
40
0
40
0
40
0
40
0.0312499999999192
40
0.0312499999999192
40
0.0624999999998384
40
0.124999999999677
40
0.187499999999515
40
0.187499999999515
40
0.249999999999353
40
0.249999999999353
40
0.374999999999186
40
0.374999999999186
40
0.499999999999019
40
0.499999999999019
40
0.562499999998872
40
0.562499999998872
40
0.624999999998725
40
0.687499999998578
40
0.687499999998578
40
0.74999999999843
40
0.74999999999843
40
0.812499999998283
40
0.843749999998412
40
0.843749999998412
40
0.87499999999854
40
0.87499999999854
40
1
40
1
40
1
40
1
41
1
10
158
20
256.835305244258
30
0
41
1
10
158
20
256.840633318756
30
0
41
1
10
158.000120694391
20
256.846024838437
30
0
41
1
10
158.00060410188
20
256.856731942742
30
0
41
1
10
158.001691450588
20
256.872755232468
30
0
41
1
10
158.005308730825
20
256.899274854108
30
0
41
1
10
158.010154047026
20
256.920291021047
30
0
41
1
10
158.016010432221
20
256.941204892797
30
0
41
1
10
158.019452984553
20
256.951633475295
30
0
41
1
10
158.031328238325
20
256.982602341529
30
0
41
1
10
158.041214785505
20
257.002644721624
30
0
41
1
10
158.065238299702
20
257.041443534256
30
0
41
1
10
158.07936496121
20
257.060202882339
30
0
41
1
10
158.104370012408
20
257.087204939841
30
0
41
1
10
158.113290060583
20
257.095946230762
30
0
41
1
10
158.132185168908
20
257.112690357653
30
0
41
1
10
158.152187034286
20
257.128754269038
30
0
41
1
10
158.174595397571
20
257.143346132774
30
0
41
1
10
158.198360148702
20
257.157112003797
30
0
41
1
10
158.210931898384
20
257.163573251513
30
0
41
1
10
158.236911729292
20
257.175239881099
30
0
41
1
10
158.257133657278
20
257.183117773936
30
0
41
1
10
158.278561677928
20
257.189572389205
30
0
41
1
10
158.29313277649
20
257.193538619356
30
0
41
1
10
158.300557961845
20
257.195350482972
30
0
41
1
10
158.337801445006
20
257.20339212604
30
0
41
1
10
158.36843940411
20
257.206751150104
30
0
41
1
10
158.4
20
257.206751150103
30
0
0
SPLINE
5
331
100
AcDbEntity
8
1
62
256
6
ByLayer
370
18
48
1
60
0
100
AcDbSpline
70
4
71
3
72
8
73
4
40
0
40
0
40
0
40
0
40
1
40
1
40
1
40
1
41
1
10
199.2
20
318.083522855928
30
0
41
1
10
199.803513888933
20
317.917230897428
30
0
41
1
10
200.403866213076
20
317.751810075137
30
0
41
1
10
201
20
317.587551626784
30
0
0
SPLINE
5
332
100
AcDbEntity
8
1
62
256
6
ByLayer
370
18
48
1
60
0
100
AcDbSpline
70
4
71
3
72
10
73
6
40
0
40
0
40
0
40
0
40
0.5
40
0.5
40
1
40
1
40
1
40
1
41
1
10
199.2
20
280.6023
30
0
41
1
10
199.533564733993
20
280.6023
30
0
41
1
10
199.852420926274
20
280.6023
30
0
41
1
10
200.4546615458
20
280.6023
30
0
41
1
10
200.738054019402
20
280.6023
30
0
41
1
10
201
20
280.6023
30
0
0
SPLINE
5
333
100
AcDbEntity
8
1
62
256
6
ByLayer
370
18
48
1
60
0
100
AcDbSpline
70
4
71
3
72
61
73
57
40
0
40
0
40
0
40
0
40
0.0001609662088838
40
0.0001609662088838
40
0.0626509058206029
40
0.0626509058206029
40
0.0938958756264628
40
0.0938958756264628
40
0.109518360529393
40
0.109518360529393
40
0.125140845432323
40
0.125140845432323
40
0.187630785043981
40
0.187630785043981
40
0.25012072465564
40
0.25012072465564
40
0.265743209558536
40
0.265743209558536
40
0.281365694461431
40
0.312610664267267
40
0.312610664267267
40
0.375100603878893
40
0.375100603878893
40
0.390723088781841
40
0.390723088781841
40
0.406345573684789
40
0.406345573684789
40
0.437590543490742
40
0.437590543490742
40
0.50008048310271
40
0.50008048310271
40
0.531325452908659
40
0.531325452908659
40
0.546947937811634
40
0.546947937811634
40
0.562570422714609
40
0.562570422714609
40
0.625060362326649
40
0.687550301938689
40
0.687550301938689
40
0.703172786841736
40
0.703172786841736
40
0.718795271744783
40
0.718795271744783
40
0.750040241550877
40
0.750040241550877
40
0.81253018116314
40
0.81253018116314
40
0.84377515096927
40
0.84377515096927
40
0.859397635872371
40
0.859397635872371
40
0.875020120775472
40
0.875020120775472
40
0.937510060387736
40
1
40
1
40
1
40
1
41
1
10
163.799999041114
20
326.996050076129
30
0
41
1
10
163.800000038075
20
326.996049996949
30
0
41
1
10
163.800001034988
20
326.99604991718
30
0
41
1
10
163.800038770276
20
326.996046897603
30
0
41
1
10
163.806521078839
20
326.995525693518
30
0
41
1
10
163.825949291014
20
326.993986089338
30
0
41
1
10
163.834048565578
20
326.99334658452
30
0
41
1
10
163.848691768187
20
326.992200343923
30
0
41
1
10
163.853999562373
20
326.991786281503
30
0
41
1
10
163.86537450251
20
326.990903056708
30
0
41
1
10
163.871446672346
20
326.990433496244
30
0
41
1
10
163.903703558732
20
326.987952228262
30
0
41
1
10
163.935548572949
20
326.985540376586
30
0
41
1
10
164.011075991069
20
326.980017463775
30
0
41
1
10
164.054757298355
20
326.97690588917
30
0
41
1
10
164.117047920917
20
326.972676694667
30
0
41
1
10
164.129859584161
20
326.971816158113
30
0
41
1
10
164.156063161551
20
326.970077163586
30
0
41
1
10
164.196292379113
20
326.967438178827
30
0
41
1
10
164.239254099024
20
326.964723357088
30
0
41
1
10
164.328768819765
20
326.959233152182
30
0
41
1
10
164.393216169217
20
326.955492023205
30
0
41
1
10
164.479831885191
20
326.950848729034
30
0
41
1
10
164.49745924485
20
326.949921743332
30
0
41
1
10
164.533330455807
20
326.948074591376
30
0
41
1
10
164.551605570917
20
326.947152892433
30
0
41
1
10
164.607143755947
20
326.944414536056
30
0
41
1
10
164.644973229912
20
326.94263155245
30
0
41
1
10
164.760811458339
20
326.937445880135
30
0
41
1
10
164.841158949566
20
326.934206479518
30
0
41
1
10
164.966326784605
20
326.92981113655
30
0
41
1
10
165.008826623931
20
326.928423283235
30
0
41
1
10
165.073763455727
20
326.926474820245
30
0
41
1
10
165.095607094867
20
326.925847557029
30
0
41
1
10
165.13969627985
20
326.924640469257
30
0
41
1
10
165.161971231588
20
326.924060020437
30
0
41
1
10
165.27350141789
20
326.921304469084
30
0
41
1
10
165.454114613204
20
326.91780020706
30
0
41
1
10
165.638918617524
20
326.916246865247
30
0
41
1
10
165.755764765356
20
326.915929797796
30
0
41
1
10
165.779201486078
20
326.915899080471
30
0
41
1
10
165.826212047654
20
326.915904187988
30
0
41
1
10
165.849707814898
20
326.915940091642
30
0
41
1
10
165.919892314737
20
326.916146029379
30
0
41
1
10
165.966393277998
20
326.916414268624
30
0
41
1
10
166.105048817273
20
326.917597506991
30
0
41
1
10
166.196360037331
20
326.91889105979
30
0
41
1
10
166.3316380986
20
326.921532443139
30
0
41
1
10
166.376448326133
20
326.922529750193
30
0
41
1
10
166.443230567687
20
326.924193776206
30
0
41
1
10
166.465460231216
20
326.924777616994
30
0
41
1
10
166.509559311556
20
326.925994101534
30
0
41
1
10
166.5314035851
20
326.926625914889
30
0
41
1
10
166.639614340242
20
326.929895231394
30
0
41
1
10
166.806312982599
20
326.935830440866
30
0
41
1
10
166.960446484365
20
326.942803998246
30
0
41
1
10
167.034262198249
20
326.946456474744
30
0
0
SPLINE
5
334
100
AcDbEntity
8
1
62
256
6
ByLayer
370
18
48
1
60
0
100
AcDbSpline
70
2053
71
3
72
182
73
178
40
0
40
0
40
0
40
0
40
0.015624999999952
40
0.015624999999952
40
0.031249999999904
40
0.0468749999998559
40
0.0468749999998559
40
0.054687499999832
40
0.0585937499998174
40
0.0585937499998174
40
0.0624999999998028
40
0.0624999999998028
40
0.078124999999743
40
0.0937499999996832
40
0.0937499999996832
40
0.109374999999623
40
0.109374999999623
40
0.117187499999594
40
0.117187499999594
40
0.121093749999579
40
0.121093749999579
40
0.124999999999564
40
0.140624999999492
40
0.140624999999492
40
0.15624999999942
40
0.15624999999942
40
0.171874999999349
40
0.171874999999349
40
0.179687499999309
40
0.179687499999309
40
0.183593749999295
40
0.183593749999295
40
0.18749999999928
40
0.18749999999928
40
0.203124999999224
40
0.203124999999224
40
0.218749999999168
40
0.218749999999168
40
0.234374999999112
40
0.234374999999112
40
0.238281249999104
40
0.238281249999104
40
0.242187499999097
40
0.249999999999082
40
0.249999999999082
40
0.265624999999051
40
0.281249999999021
40
0.281249999999021
40
0.285156249999017
40
0.285156249999017
40
0.289062499999012
40
0.296874999998993
40
0.296874999998993
40
0.312499999998966
40
0.312499999998966
40
0.320312499998953
40
0.320312499998953
40
0.32812499999894
40
0.32812499999894
40
0.343749999998916
40
0.343749999998916
40
0.359374999998892
40
0.359374999998892
40
0.374999999998868
40
0.374999999998868
40
0.390624999998844
40
0.390624999998844
40
0.40624999999882
40
0.421874999998796
40
0.421874999998796
40
0.425781249998787
40
0.425781249998787
40
0.429687499998778
40
0.429687499998778
40
0.437499999998765
40
0.437499999998765
40
0.453124999998738
40
0.468749999998712
40
0.468749999998712
40
0.484374999998686
40
0.484374999998686
40
0.49218749999867
40
0.49218749999867
40
0.499999999998654
40
0.499999999998654
40
0.515624999998628
40
0.531249999998602
40
0.531249999998602
40
0.546874999998575
40
0.546874999998575
40
0.550781249998571
40
0.550781249998571
40
0.554687499998567
40
0.562499999998558
40
0.562499999998558
40
0.578124999998544
40
0.578124999998544
40
0.593749999998529
40
0.593749999998529
40
0.60156249999852
40
0.605468749998516
40
0.605468749998516
40
0.609374999998512
40
0.609374999998512
40
0.624999999998509
40
0.640624999998507
40
0.640624999998507
40
0.656249999998505
40
0.656249999998505
40
0.660156249998507
40
0.660156249998507
40
0.664062499998509
40
0.671874999998513
40
0.671874999998513
40
0.687499999998521
40
0.703124999998529
40
0.703124999998529
40
0.710937499998527
40
0.710937499998527
40
0.714843749998526
40
0.714843749998526
40
0.718749999998524
40
0.718749999998524
40
0.734374999998553
40
0.749999999998581
40
0.749999999998581
40
0.757812499998596
40
0.757812499998596
40
0.761718749998603
40
0.761718749998603
40
0.76562499999861
40
0.76562499999861
40
0.781249999998662
40
0.781249999998662
40
0.796874999998714
40
0.796874999998714
40
0.812499999998766
40
0.812499999998766
40
0.816406249998786
40
0.816406249998786
40
0.820312499998805
40
0.828124999998858
40
0.828124999998858
40
0.843749999998966
40
0.859374999999074
40
0.859374999999074
40
0.863281249999106
40
0.863281249999106
40
0.867187499999139
40
0.867187499999139
40
0.874999999999196
40
0.874999999999196
40
0.890624999999298
40
0.9062499999994
40
0.9062499999994
40
0.914062499999448
40
0.914062499999448
40
0.917968749999469
40
0.917968749999469
40
0.921874999999491
40
0.921874999999491
40
0.937499999999585
40
0.937499999999585
40
0.95312499999968
40
0.95312499999968
40
0.960937499999729
40
0.964843749999757
40
0.964843749999757
40
0.968749999999784
40
0.968749999999784
40
0.984374999999889
40
0.984374999999889
40
0.992187499999945
40
0.996093749999973
40
0.998046874999986
40
0.998046874999986
40
1
40
1
40
1
40
1
41
1
10
173
20
310.788
30
0
41
1
10
173
20
310.924188766288
30
0
41
1
10
173.006528938822
20
311.058855754499
30
0
41
1
10
173.031976697851
20
311.325295833318
30
0
41
1
10
173.069817161436
20
311.588841683029
30
0
41
1
10
173.131851036314
20
311.846773248704
30
0
41
1
10
173.187481002799
20
312.038140918935
30
0
41
1
10
173.217575698705
20
312.133303929949
30
0
41
1
10
173.251134227458
20
312.227684258167
30
0
41
1
10
173.27428343805
20
312.290430047977
30
0
41
1
10
173.286252627638
20
312.321728398141
30
0
41
1
10
173.347752601782
20
312.477029822662
30
0
41
1
10
173.457136516768
20
312.719102789406
30
0
41
1
10
173.587944874384
20
312.948873604222
30
0
41
1
10
173.729519833397
20
313.172584213868
30
0
41
1
10
173.805689464397
20
313.28140977904
30
0
41
1
10
173.928311120414
20
313.440046348615
30
0
41
1
10
173.970582263631
20
313.492156912189
30
0
41
1
10
174.036148695491
20
313.569150142718
30
0
41
1
10
174.058391363443
20
313.594649032058
30
0
41
1
10
174.103474323501
20
313.645101485005
30
0
41
1
10
174.217561825607
20
313.769735574265
30
0
41
1
10
174.338483383176
20
313.886991301798
30
0
41
1
10
174.54075228426
20
314.065293534827
30
0
41
1
10
174.646283294529
20
314.14979154437
30
0
41
1
10
174.866466111511
20
314.309327771249
30
0
41
1
10
174.981115704217
20
314.384367948766
30
0
41
1
10
175.160415257519
20
314.4894774343
30
0
41
1
10
175.221405333818
20
314.523269441862
30
0
41
1
10
175.314814936097
20
314.572018009892
30
0
41
1
10
175.346273580027
20
314.587942398616
30
0
41
1
10
175.409410662946
20
314.618922526915
30
0
41
1
10
175.441141995535
20
314.634006426941
30
0
41
1
10
175.600611325575
20
314.707405626223
30
0
41
1
10
175.730781373697
20
314.759675931474
30
0
41
1
10
175.996373502409
20
314.851330597391
30
0
41
1
10
176.131795164009
20
314.89071584984
30
0
41
1
10
176.408109487549
20
314.956198623483
30
0
41
1
10
176.5490008036
20
314.982299467516
30
0
41
1
10
176.728784290171
20
315.006074166887
30
0
41
1
10
176.764974769833
20
315.010389068975
30
0
41
1
10
176.837202436389
20
315.01806135454
30
0
41
1
10
176.945476812942
20
315.028157495329
30
0
41
1
10
177.053552043465
20
315.034067746884
30
0
41
1
10
177.269440847343
20
315.040393972395
30
0
41
1
10
177.556595972837
20
315.034204727009
30
0
41
1
10
177.842370147285
20
314.999002272605
30
0
41
1
10
178.020539349969
20
314.967722241771
30
0
41
1
10
178.05620561645
20
314.96098928079
30
0
41
1
10
178.127079560433
20
314.946670540542
30
0
41
1
10
178.232791292589
20
314.923900723463
30
0
41
1
10
178.336741708403
20
314.897326629293
30
0
41
1
10
178.542368443001
20
314.839243680096
30
0
41
1
10
178.67642649729
20
314.793955309802
30
0
41
1
10
178.873158780478
20
314.71646321065
30
0
41
1
10
178.938008938341
20
314.689035836974
30
0
41
1
10
179.066268662643
20
314.630996607124
30
0
41
1
10
179.129726188097
20
314.600360031093
30
0
41
1
10
179.317642829221
20
314.503802918127
30
0
41
1
10
179.438034429695
20
314.434096031799
30
0
41
1
10
179.669760828918
20
314.284608137821
30
0
41
1
10
179.781093068592
20
314.204824609673
30
0
41
1
10
179.99507681658
20
314.035410630983
30
0
41
1
10
180.09772744802
20
313.945779518014
30
0
41
1
10
180.294443500987
20
313.756583310587
30
0
41
1
10
180.387141438302
20
313.65833640069
30
0
41
1
10
180.561877726153
20
313.454824588165
30
0
41
1
10
180.725954954701
20
313.244287888098
30
0
41
1
10
180.869315821163
20
313.019790179169
30
0
41
1
10
180.952427235087
20
312.875018739724
30
0
41
1
10
180.968724279437
20
312.8458409421
30
0
41
1
10
181.000664356363
20
312.787033890499
30
0
41
1
10
181.016324220948
20
312.757371389218
30
0
41
1
10
181.062180256048
20
312.667965137785
30
0
41
1
10
181.091227116294
20
312.607864037631
30
0
41
1
10
181.173889807256
20
312.426081889942
30
0
41
1
10
181.272187762939
20
312.179767767463
30
0
41
1
10
181.347086912702
20
311.925561822446
30
0
41
1
10
181.410165826464
20
311.66731130235
30
0
41
1
10
181.435796229995
20
311.536164157141
30
0
41
1
10
181.465025637467
20
311.336264349349
30
0
41
1
10
181.473234831354
20
311.268979772251
30
0
41
1
10
181.48637634202
20
311.134654685298
30
0
41
1
10
181.49133474592
20
311.067474986738
30
0
41
1
10
181.50141632216
20
310.865884763082
30
0
41
1
10
181.502095847124
20
310.596960379399
30
0
41
1
10
181.477197114578
20
310.327792003092
30
0
41
1
10
181.439137031464
20
310.058535965568
30
0
41
1
10
181.413528586974
20
309.92386396439
30
0
41
1
10
181.372820914391
20
309.755504094792
30
0
41
1
10
181.364232635094
20
309.721794366742
30
0
41
1
10
181.346270822661
20
309.654742979109
30
0
41
1
10
181.318125172417
20
309.554606981695
30
0
41
1
10
181.28639623231
20
309.455789289122
30
0
41
1
10
181.218194482744
20
309.259912228749
30
0
41
1
10
181.166411791811
20
309.131667697018
30
0
41
1
10
181.050147075221
20
308.87996430127
30
0
41
1
10
180.985666064201
20
308.756504897167
30
0
41
1
10
180.879111634693
20
308.575090813669
30
0
41
1
10
180.82337246092
20
308.485329096654
30
0
41
1
10
180.763839783622
20
308.397038416693
30
0
41
1
10
180.723294573774
20
308.338511865388
30
0
41
1
10
180.702621958838
20
308.309458832986
30
0
41
1
10
180.597722131262
20
308.165884089605
30
0
41
1
10
180.41923753788
20
307.945749240297
30
0
41
1
10
180.219891141206
20
307.744576359491
30
0
41
1
10
180.010031974065
20
307.553049560137
30
0
41
1
10
179.899847327222
20
307.462107833464
30
0
41
1
10
179.755300945122
20
307.354741486294
30
0
41
1
10
179.726033093145
20
307.333572614311
30
0
41
1
10
179.666876462103
20
307.291928135151
30
0
41
1
10
179.57750724604
20
307.230710098121
30
0
41
1
10
179.486258570954
20
307.173197516665
30
0
41
1
10
179.301296002804
20
307.063046004627
30
0
41
1
10
179.048117332546
20
306.929150647098
30
0
41
1
10
178.781944318044
20
306.821074085067
30
0
41
1
10
178.577338463817
20
306.749945238793
30
0
41
1
10
178.508305572317
20
306.727893481748
30
0
41
1
10
178.403481417983
20
306.697363731449
30
0
41
1
10
178.36840696513
20
306.687636217912
30
0
41
1
10
178.298215855738
20
306.669133553405
30
0
41
1
10
178.263065052277
20
306.660348378629
30
0
41
1
10
178.087037640958
20
306.618730602556
30
0
41
1
10
177.803648522767
20
306.566877503668
30
0
41
1
10
177.516841782443
20
306.543930516754
30
0
41
1
10
177.300441171542
20
306.53768668601
30
0
41
1
10
177.228091284498
20
306.537436622322
30
0
41
1
10
177.119236173946
20
306.539857102608
30
0
41
1
10
177.082896061453
20
306.541130096692
30
0
41
1
10
177.010104362398
20
306.544619533324
30
0
41
1
10
176.973714456921
20
306.546834251724
30
0
41
1
10
176.792505705542
20
306.560195763621
30
0
41
1
10
176.649222773354
20
306.578218228734
30
0
41
1
10
176.365925877307
20
306.628479741206
30
0
41
1
10
176.225912185087
20
306.660719994082
30
0
41
1
10
175.949161394013
20
306.739418146921
30
0
41
1
10
175.812424020355
20
306.785874951839
30
0
41
1
10
175.643620696097
20
306.853109133421
30
0
41
1
10
175.610017943224
20
306.866996074218
30
0
41
1
10
175.543402126076
20
306.895527965289
30
0
41
1
10
175.444240092917
20
306.939512702785
30
0
41
1
10
175.34733561466
20
306.987011010579
30
0
41
1
10
175.156489611365
20
307.086606951909
30
0
41
1
10
174.909915004952
20
307.231644314456
30
0
41
1
10
174.678979086633
20
307.400817333113
30
0
41
1
10
174.539636936562
20
307.514206634637
30
0
41
1
10
174.512018737068
20
307.537268189707
30
0
41
1
10
174.457287867522
20
307.584165165972
30
0
41
1
10
174.430212111767
20
307.607970685217
30
0
41
1
10
174.350193641314
20
307.680141606807
30
0
41
1
10
174.298321599155
20
307.729377639393
30
0
41
1
10
174.147028547089
20
307.880359604473
30
0
41
1
10
173.956812020601
20
308.090383213889
30
0
41
1
10
173.789092887086
20
308.317256441259
30
0
41
1
10
173.671782331347
20
308.493692640456
30
0
41
1
10
173.634094346606
20
308.553553401623
30
0
41
1
10
173.579713171055
20
308.644929558533
30
0
41
1
10
173.561957689487
20
308.675633606281
30
0
41
1
10
173.527354540985
20
308.737229741798
30
0
41
1
10
173.510482433861
20
308.768162397913
30
0
41
1
10
173.428239364437
20
308.923485397043
30
0
41
1
10
173.369205652523
20
309.049849506158
30
0
41
1
10
173.264148551688
20
309.306541212642
30
0
41
1
10
173.21812654665
20
309.436869400483
30
0
41
1
10
173.158738921867
20
309.63524367243
30
0
41
1
10
173.131460109574
20
309.735152578467
30
0
41
1
10
173.107819517494
20
309.836139739671
30
0
41
1
10
173.092871392337
20
309.903704323094
30
0
41
1
10
173.085798424686
20
309.9376354049
30
0
41
1
10
173.052598457715
20
310.107238981782
30
0
41
1
10
173.032854591341
20
310.243136955022
30
0
41
1
10
173.01312985142
20
310.447259441858
30
0
41
1
10
173.0057443806
20
310.54938994841
30
0
41
1
10
173.001436490712
20
310.668657348677
30
0
41
1
10
173.000513095858
20
310.719796184726
30
0
41
1
10
173.000102648795
20
310.753894089628
30
0
41
1
10
173
20
310.770976404214
30
0
41
1
10
173
20
310.788
30
0
0
SPLINE
5
335
100
AcDbEntity
8
1
62
256
6
ByLayer
370
18
48
1
60
0
100
AcDbSpline
70
2053
71
3
72
190
73
186
40
0
40
0
40
0
40
0
40
0.0156250000000342
40
0.0156250000000342
40
0.0312500000000684
40
0.0468750000001026
40
0.0468750000001026
40
0.0507812500001079
40
0.0507812500001079
40
0.0546875000001131
40
0.0546875000001131
40
0.0625000000001163
40
0.0625000000001163
40
0.0781250000001227
40
0.0781250000001227
40
0.0937500000001292
40
0.0937500000001292
40
0.101562500000131
40
0.101562500000131
40
0.109375000000132
40
0.109375000000132
40
0.125000000000126
40
0.125000000000126
40
0.14062500000012
40
0.14062500000012
40
0.156250000000114
40
0.156250000000114
40
0.160156250000108
40
0.160156250000108
40
0.164062500000102
40
0.171875000000095
40
0.171875000000095
40
0.187500000000071
40
0.203125000000047
40
0.203125000000047
40
0.210937500000035
40
0.210937500000035
40
0.214843750000034
40
0.214843750000034
40
0.218750000000032
40
0.218750000000032
40
0.234375000000035
40
0.234375000000035
40
0.250000000000038
40
0.250000000000038
40
0.26562500000004
40
0.26562500000004
40
0.269531250000039
40
0.269531250000039
40
0.273437500000038
40
0.281250000000036
40
0.281250000000036
40
0.296875000000032
40
0.312500000000027
40
0.312500000000027
40
0.316406250000027
40
0.316406250000027
40
0.320312500000026
40
0.320312500000026
40
0.328125000000015
40
0.328125000000015
40
0.343749999999991
40
0.343749999999991
40
0.359374999999967
40
0.359374999999967
40
0.367187499999959
40
0.367187499999959
40
0.371093749999954
40
0.371093749999954
40
0.374999999999949
40
0.374999999999949
40
0.390624999999942
40
0.390624999999942
40
0.406249999999935
40
0.406249999999935
40
0.421874999999927
40
0.421874999999927
40
0.425781249999926
40
0.425781249999926
40
0.429687499999924
40
0.437499999999923
40
0.437499999999923
40
0.453124999999923
40
0.468749999999922
40
0.468749999999922
40
0.476562499999924
40
0.476562499999924
40
0.480468749999922
40
0.480468749999922
40
0.484374999999921
40
0.484374999999921
40
0.499999999999914
40
0.499999999999914
40
0.515624999999908
40
0.515624999999908
40
0.531249999999902
40
0.531249999999902
40
0.539062499999901
40
0.539062499999901
40
0.546874999999899
40
0.546874999999899
40
0.562499999999901
40
0.562499999999901
40
0.578124999999902
40
0.578124999999902
40
0.582031249999903
40
0.582031249999903
40
0.585937499999905
40
0.585937499999905
40
0.593749999999908
40
0.593749999999908
40
0.60937499999992
40
0.60937499999992
40
0.624999999999931
40
0.624999999999931
40
0.632812499999938
40
0.632812499999938
40
0.636718749999941
40
0.636718749999941
40
0.640624999999943
40
0.640624999999943
40
0.656249999999938
40
0.656249999999938
40
0.671874999999934
40
0.671874999999934
40
0.687499999999929
40
0.687499999999929
40
0.691406249999931
40
0.691406249999931
40
0.695312499999932
40
0.695312499999932
40
0.703124999999935
40
0.703124999999935
40
0.718749999999939
40
0.734374999999943
40
0.734374999999943
40
0.742187499999945
40
0.742187499999945
40
0.746093749999946
40
0.746093749999946
40
0.749999999999947
40
0.749999999999947
40
0.765624999999942
40
0.765624999999942
40
0.781249999999937
40
0.781249999999937
40
0.796874999999932
40
0.796874999999932
40
0.812499999999927
40
0.812499999999927
40
0.828124999999922
40
0.828124999999922
40
0.843749999999917
40
0.843749999999917
40
0.847656249999918
40
0.847656249999918
40
0.851562499999919
40
0.851562499999919
40
0.859374999999923
40
0.859374999999923
40
0.874999999999934
40
0.874999999999934
40
0.890624999999945
40
0.890624999999945
40
0.898437499999948
40
0.898437499999948
40
0.90234374999995
40
0.90234374999995
40
0.906249999999951
40
0.906249999999951
40
0.921874999999954
40
0.921874999999954
40
0.937499999999957
40
0.937499999999957
40
0.95312499999996
40
0.95312499999996
40
0.957031249999961
40
0.957031249999961
40
0.960937499999961
40
0.960937499999961
40
0.968749999999967
40
0.968749999999967
40
0.984374999999984
40
0.984374999999984
40
1
40
1
40
1
40
1
41
1
10
171.496298521375
20
310.959258938948
30
0
41
1
10
171.482483280475
20
310.773598586575
30
0
41
1
10
171.458922085913
20
310.589357685276
30
0
41
1
10
171.393024078882
20
310.223660914743
30
0
41
1
10
171.308343628814
20
309.860751034573
30
0
41
1
10
171.18639482552
20
309.503546268771
30
0
41
1
10
171.098276659111
20
309.282194425495
30
0
41
1
10
171.080056623082
20
309.238019429853
30
0
41
1
10
171.042411650527
20
309.149864456886
30
0
41
1
10
171.022963748631
20
309.105837129789
30
0
41
1
10
170.963115001867
20
308.97474723004
30
0
41
1
10
170.921136904627
20
308.888491313703
30
0
41
1
10
170.789093189601
20
308.633090359808
30
0
41
1
10
170.692933275646
20
308.467303296693
30
0
41
1
10
170.484644452373
20
308.144670958342
30
0
41
1
10
170.372515279253
20
307.98782556237
30
0
41
1
10
170.192200424215
20
307.759463902133
30
0
41
1
10
170.130071555191
20
307.684496648816
30
0
41
1
10
170.001694953766
20
307.536930532657
30
0
41
1
10
169.935300227214
20
307.464192089948
30
0
41
1
10
169.731931342739
20
307.251815587756
30
0
41
1
10
169.590278882858
20
307.1173635845
30
0
41
1
10
169.295107153937
20
306.862528654242
30
0
41
1
10
169.141587204488
20
306.742146302147
30
0
41
1
10
168.822596849343
20
306.515679921016
30
0
41
1
10
168.657127544369
20
306.40959437216
30
0
41
1
10
168.442541773061
20
306.28633807641
30
0
41
1
10
168.399175726395
20
306.262123154707
30
0
41
1
10
168.311986075866
20
306.214822898988
30
0
41
1
10
168.180579383207
20
306.145596472701
30
0
41
1
10
168.047325174179
20
306.081495605247
30
0
41
1
10
167.778384617391
20
305.960057494313
30
0
41
1
10
167.413321695786
20
305.816149461724
30
0
41
1
10
167.035357233649
20
305.708271770028
30
0
41
1
10
166.746924955943
20
305.641256746807
30
0
41
1
10
166.649952923578
20
305.621237882331
30
0
41
1
10
166.503223862559
20
305.594774587538
30
0
41
1
10
166.454036267545
20
305.58653880104
30
0
41
1
10
166.355741826673
20
305.57134863484
30
0
41
1
10
166.306598003051
20
305.564385796525
30
0
41
1
10
166.060895696213
20
305.532701797437
30
0
41
1
10
165.864387528168
20
305.517349937598
30
0
41
1
10
165.471476084963
20
305.506194278129
30
0
41
1
10
165.2750728146
20
305.510391342125
30
0
41
1
10
164.882371624535
20
305.538414418146
30
0
41
1
10
164.686073695362
20
305.562238730241
30
0
41
1
10
164.440769258028
20
305.604668347996
30
0
41
1
10
164.391819621147
20
305.613770781239
30
0
41
1
10
164.294440467017
20
305.633139948014
30
0
41
1
10
164.149012883256
20
305.663965566768
30
0
41
1
10
164.005484485604
20
305.700036714076
30
0
41
1
10
163.720915581352
20
305.779040799352
30
0
41
1
10
163.348114143387
20
305.902648757978
30
0
41
1
10
162.988376687341
20
306.062158939944
30
0
41
1
10
162.767683861615
20
306.173186909091
30
0
41
1
10
162.723752923043
20
306.195960460486
30
0
41
1
10
162.636309756774
20
306.242651489621
30
0
41
1
10
162.592754191213
20
306.266594937905
30
0
41
1
10
162.463391172085
20
306.33976921235
30
0
41
1
10
162.378699600466
20
306.390437276122
30
0
41
1
10
162.129171077541
20
306.547946672925
30
0
41
1
10
161.968869131817
20
306.66027983026
30
0
41
1
10
161.660092007943
20
306.899142678305
30
0
41
1
10
161.511617091313
20
307.025672897615
30
0
41
1
10
161.297837759841
20
307.22609228146
30
0
41
1
10
161.228069572751
20
307.29467266821
30
0
41
1
10
161.125688406158
20
307.400231521222
30
0
41
1
10
161.091940056139
20
307.435866068783
30
0
41
1
10
161.025208721963
20
307.508038969859
30
0
41
1
10
160.992339744899
20
307.544454646564
30
0
41
1
10
160.830630246709
20
307.727956334298
30
0
41
1
10
160.709485079559
20
307.879505965903
30
0
41
1
10
160.483173078029
20
308.191668598419
30
0
41
1
10
160.378007302761
20
308.352282507705
30
0
41
1
10
160.183679040743
20
308.682436435521
30
0
41
1
10
160.094515215201
20
308.851975945021
30
0
41
1
10
159.993383505107
20
309.069571702361
30
0
41
1
10
159.973658468902
20
309.113412403376
30
0
41
1
10
159.935327844046
20
309.20150274057
30
0
41
1
10
159.879652313002
20
309.333923352074
30
0
41
1
10
159.82937144273
20
309.467177778164
30
0
41
1
10
159.735885234717
20
309.734754737239
30
0
41
1
10
159.630073054366
20
310.094364345314
30
0
41
1
10
159.561532435137
20
310.459376469438
30
0
41
1
10
159.524366026601
20
310.735143973515
30
0
41
1
10
159.514354680844
20
310.827402101931
30
0
41
1
10
159.502977649935
20
310.966298929763
30
0
41
1
10
159.499789290873
20
311.012750428308
30
0
41
1
10
159.494663934321
20
311.105384136247
30
0
41
1
10
159.492723546287
20
311.15158147755
30
0
41
1
10
159.486097553695
20
311.381976552754
30
0
41
1
10
159.490616646563
20
311.564401872353
30
0
41
1
10
159.518768979388
20
311.925581511669
30
0
41
1
10
159.542403307002
20
312.104335623114
30
0
41
1
10
159.608827784538
20
312.458223870521
30
0
41
1
10
159.651616272565
20
312.633358063952
30
0
41
1
10
159.730623161726
20
312.893340441056
30
0
41
1
10
159.759229564806
20
312.97886872148
30
0
41
1
10
159.820826257457
20
313.147561904567
30
0
41
1
10
159.853825393345
20
313.230755557236
30
0
41
1
10
159.959322274962
20
313.476967231891
30
0
41
1
10
160.038303567059
20
313.636622901913
30
0
41
1
10
160.213415325882
20
313.947263308745
30
0
41
1
10
160.309545200486
20
314.098247867843
30
0
41
1
10
160.440655801503
20
314.281608224374
30
0
41
1
10
160.467426648951
20
314.318011237495
30
0
41
1
10
160.522076984107
20
314.390278173707
30
0
41
1
10
160.549971703164
20
314.426158315407
30
0
41
1
10
160.634871792397
20
314.532419482667
30
0
41
1
10
160.693232780516
20
314.601613222759
30
0
41
1
10
160.873504076136
20
314.804404753175
30
0
41
1
10
161.00058975014
20
314.933224464534
30
0
41
1
10
161.268396047574
20
315.178620949225
30
0
41
1
10
161.409116670197
20
315.295197106952
30
0
41
1
10
161.630606206488
20
315.460982715018
30
0
41
1
10
161.706174060723
20
315.514728688686
30
0
41
1
10
161.822186502872
20
315.593060889499
30
0
41
1
10
161.861300984026
20
315.618790311107
30
0
41
1
10
161.94042903202
20
315.669482070189
30
0
41
1
10
161.980328786227
20
315.694370660371
30
0
41
1
10
162.181121856968
20
315.816327099152
30
0
41
1
10
162.346265375293
20
315.906197995629
30
0
41
1
10
162.685401898584
20
316.071196232732
30
0
41
1
10
162.859395323464
20
316.146322297312
30
0
41
1
10
163.216325912954
20
316.281994741422
30
0
41
1
10
163.399262210939
20
316.34254217334
30
0
41
1
10
163.633747618621
20
316.408922504932
30
0
41
1
10
163.680936154399
20
316.421732150755
30
0
41
1
10
163.775904722238
20
316.44640870393
30
0
41
1
10
163.823490852927
20
316.458225042991
30
0
41
1
10
163.966480479592
20
316.492110622153
30
0
41
1
10
164.06214664064
20
316.51262573676
30
0
41
1
10
164.350149789154
20
316.568072404877
30
0
41
1
10
164.736828837406
20
316.625769457837
30
0
41
1
10
165.128815502946
20
316.651548122934
30
0
41
1
10
165.424834966383
20
316.65872764399
30
0
41
1
10
165.523846934638
20
316.659091035133
30
0
41
1
10
165.672883455486
20
316.656529802982
30
0
41
1
10
165.72272065081
20
316.655154966406
30
0
41
1
10
165.822179785711
20
316.651371787311
30
0
41
1
10
165.871775262534
20
316.648966309552
30
0
41
1
10
166.119090256301
20
316.634398421661
30
0
41
1
10
166.314827355516
20
316.614635756872
30
0
41
1
10
166.702199306989
20
316.559283146738
30
0
41
1
10
166.893833900319
20
316.523692274227
30
0
41
1
10
167.273012417508
20
316.436550951824
30
0
41
1
10
167.460556642974
20
316.385002105117
30
0
41
1
10
167.83145105423
20
316.265287782936
30
0
41
1
10
168.011751614475
20
316.198103552825
30
0
41
1
10
168.362323801588
20
316.049500429415
30
0
41
1
10
168.532626998435
20
315.968069554327
30
0
41
1
10
168.863421306005
20
315.790836736947
30
0
41
1
10
169.023912634144
20
315.69503569107
30
0
41
1
10
169.218307543649
20
315.565945190711
30
0
41
1
10
169.256874827823
20
315.539658950386
30
0
41
1
10
169.333380803701
20
315.486136340649
30
0
41
1
10
169.371325159944
20
315.458893407209
30
0
41
1
10
169.48360445351
20
315.376172723905
30
0
41
1
10
169.556594794681
20
315.319561016153
30
0
41
1
10
169.770096989687
20
315.145359521232
30
0
41
1
10
169.905153668284
20
315.023413895311
30
0
41
1
10
170.16099550663
20
314.767783286855
30
0
41
1
10
170.281780475746
20
314.63409875588
30
0
41
1
10
170.452139192887
20
314.424421951683
30
0
41
1
10
170.507118930222
20
314.353001966529
30
0
41
1
10
170.586832461867
20
314.243510851217
30
0
41
1
10
170.612944062523
20
314.206620096975
30
0
41
1
10
170.664237496863
20
314.132037121852
30
0
41
1
10
170.689350737954
20
314.094442986075
30
0
41
1
10
170.811988932247
20
313.905387658619
30
0
41
1
10
170.901047197164
20
313.750251994759
30
0
41
1
10
171.061532352163
20
313.432163044568
30
0
41
1
10
171.132958154761
20
313.269209741388
30
0
41
1
10
171.258115287925
20
312.935260070275
30
0
41
1
10
171.311848138581
20
312.764264638081
30
0
41
1
10
171.367581174112
20
312.545226107469
30
0
41
1
10
171.378154725823
20
312.501153143854
30
0
41
1
10
171.398140477091
20
312.412467697768
30
0
41
1
10
171.407517552874
20
312.368009598855
30
0
41
1
10
171.433794942121
20
312.234389530651
30
0
41
1
10
171.448852450935
20
312.144938106827
30
0
41
1
10
171.486729323695
20
311.875468772062
30
0
41
1
10
171.502270556501
20
311.694336969419
30
0
41
1
10
171.513962694329
20
311.329069079973
30
0
41
1
10
171.510113762274
20
311.14491929132
30
0
41
1
10
171.496298521375
20
310.959258938948
30
0
0
SPLINE
5
336
100
AcDbEntity
8
1
62
256
6
ByLayer
370
18
48
1
60
0
100
AcDbSpline
70
4
71
3
72
98
73
94
40
0
40
0
40
0
40
0
40
0.0312499999999453
40
0.0312499999999453
40
0.0624999999998906
40
0.0624999999998906
40
0.0781249999998641
40
0.0781249999998641
40
0.0937499999998376
40
0.0937499999998376
40
0.124999999999736
40
0.124999999999736
40
0.156249999999633
40
0.156249999999633
40
0.164062499999608
40
0.164062499999608
40
0.171874999999583
40
0.171874999999583
40
0.187499999999523
40
0.187499999999523
40
0.218749999999464
40
0.218749999999464
40
0.234374999999428
40
0.242187499999417
40
0.242187499999417
40
0.249999999999407
40
0.249999999999407
40
0.281249999999485
40
0.281249999999485
40
0.312499999999564
40
0.312499999999564
40
0.328124999999595
40
0.328124999999595
40
0.343749999999627
40
0.343749999999627
40
0.37499999999969
40
0.37499999999969
40
0.390624999999721
40
0.398437499999737
40
0.398437499999737
40
0.406249999999753
40
0.406249999999753
40
0.437499999999764
40
0.468749999999775
40
0.468749999999775
40
0.484374999999795
40
0.484374999999795
40
0.499999999999814
40
0.499999999999814
40
0.531249999999882
40
0.56249999999995
40
0.56249999999995
40
0.57812499999997
40
0.57812499999997
40
0.59374999999999
40
0.59374999999999
40
0.62500000000003
40
0.62500000000003
40
0.65625000000007
40
0.65625000000007
40
0.67187500000009
40
0.67187500000009
40
0.68750000000011
40
0.68750000000011
40
0.71875000000015
40
0.71875000000015
40
0.75000000000019
40
0.75000000000019
40
0.757812500000173
40
0.757812500000173
40
0.765625000000156
40
0.781250000000121
40
0.781250000000121
40
0.812500000000102
40
0.812500000000102
40
0.828125000000088
40
0.835937500000055
40
0.835937500000055
40
0.843750000000022
40
0.843750000000022
40
0.875000000000007
40
0.875000000000007
40
0.906249999999992
40
0.906249999999992
40
0.921874999999985
40
0.921874999999985
40
0.937499999999977
40
0.937499999999977
40
0.968750000000007
40
0.968750000000007
40
0.984375000000004
40
0.984375000000004
40
1
40
1
40
1
40
1
41
1
10
142.939627039969
20
-320.024524425484
30
0
41
1
10
142.978756054309
20
-320.013037334053
30
0
41
1
10
143.019798798447
20
-320.003325894742
30
0
41
1
10
143.105752420307
20
-319.988145897563
30
0
41
1
10
143.150662830281
20
-319.982673827452
30
0
41
1
10
143.221045550112
20
-319.97827552977
30
0
41
1
10
143.245010239696
20
-319.977445886514
30
0
41
1
10
143.293979181552
20
-319.977189196132
30
0
41
1
10
143.319025613096
20
-319.977770374702
30
0
41
1
10
143.394573082234
20
-319.981745372734
30
0
41
1
10
143.445840312126
20
-319.987352344437
30
0
41
1
10
143.549952488202
20
-320.004975702742
30
0
41
1
10
143.602798421375
20
-320.016989117822
30
0
41
1
10
143.669711195957
20
-320.036451338539
30
0
41
1
10
143.683136515129
20
-320.040566711761
30
0
41
1
10
143.710069298611
20
-320.049257287585
30
0
41
1
10
143.723606286574
20
-320.053843201889
30
0
41
1
10
143.764095562996
20
-320.06822724531
30
0
41
1
10
143.790880816144
20
-320.078630383993
30
0
41
1
10
143.87057317234
20
-320.112269338114
30
0
41
1
10
143.922819308158
20
-320.137927612903
30
0
41
1
10
143.999667321757
20
-320.18134179111
30
0
41
1
10
144.037710206481
20
-320.204283174018
30
0
41
1
10
144.075134863703
20
-320.229115881344
30
0
41
1
10
144.09994125396
20
-320.246097664375
30
0
41
1
10
144.112276683806
20
-320.254805804303
30
0
41
1
10
144.173139753707
20
-320.299098493372
30
0
41
1
10
144.219597148434
20
-320.337172681377
30
0
41
1
10
144.308061417444
20
-320.418475216717
30
0
41
1
10
144.350068522693
20
-320.461703711691
30
0
41
1
10
144.409604401417
20
-320.530491515522
30
0
41
1
10
144.428898241567
20
-320.554126200127
30
0
41
1
10
144.46585141149
20
-320.602159120481
30
0
41
1
10
144.483567913831
20
-320.626618439234
30
0
41
1
10
144.534465951661
20
-320.701312635684
30
0
41
1
10
144.565404458861
20
-320.752858864272
30
0
41
1
10
144.60727941482
20
-320.83284480301
30
0
41
1
10
144.627080520007
20
-320.87350625389
30
0
41
1
10
144.645139558135
20
-320.915195346316
30
0
41
1
10
144.656785458127
20
-320.943220471546
30
0
41
1
10
144.662418062695
20
-320.957367249245
30
0
41
1
10
144.689418230453
20
-321.028252648
30
0
41
1
10
144.725444434377
20
-321.143174390479
30
0
41
1
10
144.747404094613
20
-321.261078727232
30
0
41
1
10
144.758492323702
20
-321.350655682741
30
0
41
1
10
144.761289335673
20
-321.380706529386
30
0
41
1
10
144.765040357941
20
-321.441202194549
30
0
41
1
10
144.765988877664
20
-321.471724421898
30
0
41
1
10
144.766005783751
20
-321.562627901796
30
0
41
1
10
144.75858569773
20
-321.682779764436
30
0
41
1
10
144.736763228027
20
-321.800899247645
30
0
41
1
10
144.714967826873
20
-321.888728183525
30
0
41
1
10
144.706795804771
20
-321.917877451277
30
0
41
1
10
144.688606037761
20
-321.975918745054
30
0
41
1
10
144.678667059662
20
-322.004555826426
30
0
41
1
10
144.646449878723
20
-322.089189487259
30
0
41
1
10
144.621756876006
20
-322.143987356771
30
0
41
1
10
144.566135328614
20
-322.250456793739
30
0
41
1
10
144.535206953117
20
-322.302128377144
30
0
41
1
10
144.484070341616
20
-322.377279101194
30
0
41
1
10
144.466177660029
20
-322.401999292099
30
0
41
1
10
144.42924376229
20
-322.45004188427
30
0
41
1
10
144.410166840272
20
-322.473425254062
30
0
41
1
10
144.351158458281
20
-322.541701907622
30
0
41
1
10
144.309455701887
20
-322.584728486082
30
0
41
1
10
144.221439827609
20
-322.665844558172
30
0
41
1
10
144.17512696091
20
-322.703934644672
30
0
41
1
10
144.114298547306
20
-322.748349911279
30
0
41
1
10
144.10196424536
20
-322.757086294751
30
0
41
1
10
144.077194222282
20
-322.77410075163
30
0
41
1
10
144.039833633836
20
-322.798976358411
30
0
41
1
10
144.001884389192
20
-322.821945488596
30
0
41
1
10
143.92526571677
20
-322.865403003644
30
0
41
1
10
143.873228514287
20
-322.891073890437
30
0
41
1
10
143.79394435018
20
-322.924738937221
30
0
41
1
10
143.753994275506
20
-322.940358493558
30
0
41
1
10
143.713614842117
20
-322.954155993211
30
0
41
1
10
143.686603109074
20
-322.962947556797
30
0
41
1
10
143.673045314948
20
-322.967140592974
30
0
41
1
10
143.605638306382
20
-322.986917589734
30
0
41
1
10
143.552455525471
20
-322.999110743698
30
0
41
1
10
143.447776528235
20
-323.017006032847
30
0
41
1
10
143.396279337871
20
-323.02270488931
30
0
41
1
10
143.320459998633
20
-323.026782797981
30
0
41
1
10
143.295373509564
20
-323.027391074409
30
0
41
1
10
143.246354805843
20
-323.027186730139
30
0
41
1
10
143.222344785751
20
-323.026381479993
30
0
41
1
10
143.151775176422
20
-323.022042187669
30
0
41
1
10
143.106672582357
20
-323.016590093326
30
0
41
1
10
143.041852360579
20
-323.005181860984
30
0
41
1
10
143.020718789669
20
-323.000839198373
30
0
41
1
10
142.979394563956
20
-322.991161098466
30
0
41
1
10
142.959222079309
20
-322.98582808355
30
0
41
1
10
142.939627039969
20
-322.980075574516
30
0
0
SPLINE
5
337
100
AcDbEntity
8
1
62
256
6
ByLayer
370
18
48
1
60
0
100
AcDbSpline
70
4
71
3
72
28
73
24
40
0
40
0
40
0
40
0
40
0.125260134796243
40
0.125260134796243
40
0.187890202194074
40
0.187890202194074
40
0.250520269591905
40
0.250520269591905
40
0.375780404387656
40
0.375780404387656
40
0.438410471785501
40
0.438410471785501
40
0.501040539183346
40
0.501040539183346
40
0.626300673979443
40
0.626300673979443
40
0.75156080877554
40
0.75156080877554
40
0.814190876173591
40
0.814190876173591
40
0.876820943571641
40
0.876820943571641
40
1
40
1
40
1
40
1
41
1
10
195.88453910278
20
322.878438476925
30
0
41
1
10
195.861969738009
20
322.892541381262
30
0
41
1
10
195.839069542146
20
322.90528753784
30
0
41
1
10
195.804363289798
20
322.922492952429
30
0
41
1
10
195.792735340376
20
322.927908568059
30
0
41
1
10
195.769388325154
20
322.938115414866
30
0
41
1
10
195.757637977817
20
322.942914681262
30
0
41
1
10
195.723134078386
20
322.956097982864
30
0
41
1
10
195.700856309602
20
322.963395711541
30
0
41
1
10
195.668778291589
20
322.972519850277
30
0
41
1
10
195.65826661822
20
322.975266763132
30
0
41
1
10
195.63795026488
20
322.980164969434
30
0
41
1
10
195.628234590367
20
322.982297494701
30
0
41
1
10
195.600416638778
20
322.987915156453
30
0
41
1
10
195.583631412903
20
322.990626303498
30
0
41
1
10
195.553855806875
20
322.994688501868
30
0
41
1
10
195.541317206671
20
322.995983485728
30
0
41
1
10
195.526051831626
20
322.99733470777
30
0
41
1
10
195.521550702461
20
322.997684608013
30
0
41
1
10
195.51375471489
20
322.998241968779
30
0
41
1
10
195.510471977556
20
322.998448492799
30
0
41
1
10
195.502725495973
20
322.998906889609
30
0
41
1
10
195.500067137071
20
322.999026361188
30
0
41
1
10
195.500010151682
20
322.999028916167
30
0
0
SPLINE
5
338
100
AcDbEntity
8
1
62
256
6
ByLayer
370
18
48
1
60
0
100
AcDbSpline
70
4
71
3
72
55
73
51
40
0
40
0
40
0
40
0
40
0.0003545741398491
40
0.0003545741398491
40
0.0628324132561057
40
0.0628324132561057
40
0.125310252372363
40
0.125310252372363
40
0.187788091488619
40
0.187788091488619
40
0.21902701104675
40
0.21902701104675
40
0.22683674093628
40
0.22683674093628
40
0.23464647082581
40
0.250265930604863
40
0.250265930604863
40
0.312743769721094
40
0.312743769721094
40
0.375221608837325
40
0.375221608837325
40
0.437699447953556
40
0.437699447953556
40
0.453318907732617
40
0.453318907732617
40
0.468938367511678
40
0.5001772870698
40
0.5001772870698
40
0.56265512618603
40
0.62513296530226
40
0.62513296530226
40
0.656371884860383
40
0.656371884860383
40
0.671991344639445
40
0.679801074528975
40
0.679801074528975
40
0.687610804418506
40
0.687610804418506
40
0.750088643534817
40
0.750088643534817
40
0.812566482651127
40
0.875044321767438
40
0.875044321767438
40
0.906283241325602
40
0.906283241325602
40
0.921902701104675
40
0.921902701104675
40
0.937522160883748
40
0.937522160883748
40
1
40
1
40
1
40
1
41
1
10
170.250001380732
20
327.150000114251
30
0
41
1
10
170.250000384038
20
327.150000031778
30
0
41
1
10
170.249998840934
20
327.149999904091
30
0
41
1
10
170.250044569291
20
327.150003688013
30
0
41
1
10
170.266528937582
20
327.151367525732
30
0
41
1
10
170.331401265375
20
327.156737270292
30
0
41
1
10
170.379791583412
20
327.16074337347
30
0
41
1
10
170.508318520585
20
327.17139205836
30
0
41
1
10
170.588454178848
20
327.178034539643
30
0
41
1
10
170.732939643607
20
327.190024121879
30
0
41
1
10
170.785154711503
20
327.194358852005
30
0
41
1
10
170.855589393721
20
327.200209568549
30
0
41
1
10
170.869935166738
20
327.201401373527
30
0
41
1
10
170.899068665302
20
327.203822049906
30
0
41
1
10
170.943459205471
20
327.207510937087
30
0
41
1
10
170.989908997982
20
327.211372624855
30
0
41
1
10
171.149273546104
20
327.224625938024
30
0
41
1
10
171.291238392322
20
327.236445304043
30
0
41
1
10
171.603460423349
20
327.262483179958
30
0
41
1
10
171.773718836539
20
327.276701760391
30
0
41
1
10
172.142585643364
20
327.307567166573
30
0
41
1
10
172.341192335731
20
327.324213798519
30
0
41
1
10
172.607649444409
20
327.346598269284
30
0
41
1
10
172.661876603412
20
327.351156156408
30
0
41
1
10
172.772073488144
20
327.360423591387
30
0
41
1
10
172.939486771081
20
327.374510528653
30
0
41
1
10
173.113180214888
20
327.389150465742
30
0
41
1
10
173.468797626933
20
327.419160741602
30
0
41
1
10
173.964868510841
20
327.461119196113
30
0
41
1
10
174.504095215017
20
327.506968625469
30
0
41
1
10
174.924847252527
20
327.542851901811
30
0
41
1
10
175.067824064196
20
327.555062741508
30
0
41
1
10
175.286435717729
20
327.573761865311
30
0
41
1
10
175.396778569173
20
327.583207182383
30
0
41
1
10
175.508691584087
20
327.592798046175
30
0
41
1
10
175.583651092432
20
327.599224538525
30
0
41
1
10
175.62132290731
20
327.60245550565
30
0
41
1
10
175.961113915617
20
327.63160959116
30
0
41
1
10
176.269691488417
20
327.658167064512
30
0
41
1
10
176.899502409733
20
327.712555596392
30
0
41
1
10
177.541971502951
20
327.768217892613
30
0
41
1
10
178.209550374351
20
327.826462152259
30
0
41
1
10
178.719806794873
20
327.871148463609
30
0
41
1
10
178.891490081521
20
327.886211318625
30
0
41
1
10
179.151454441919
20
327.909063330722
30
0
41
1
10
179.238621146339
20
327.916732912327
30
0
41
1
10
179.413013086384
20
327.932091984383
30
0
41
1
10
179.500284788287
20
327.939785540359
30
0
41
1
10
179.937018121735
20
327.978323485722
30
0
41
1
10
180.287601817519
20
328.009378146377
30
0
41
1
10
180.639353317246
20
328.040659793116
30
0
0
SPLINE
5
339
100
AcDbEntity
8
1
62
256
6
ByLayer
370
18
48
1
60
0
100
AcDbSpline
70
4
71
3
72
17
73
13
40
0
40
0
40
0
40
0
40
0.124678562227984
40
0.124678562227984
40
0.187017843341992
40
0.187017843341992
40
0.249357124456
40
0.498714248911975
40
0.498714248911975
40
0.997428497823925
40
0.997428497823925
40
1
40
1
40
1
40
1
41
1
10
173.994679084931
20
330.619571507915
30
0
41
1
10
173.970503691458
20
330.618240328808
30
0
41
1
10
173.947758913462
20
330.616987866382
30
0
41
1
10
173.915817680079
20
330.615228929562
30
0
41
1
10
173.90552510766
20
330.61466212789
30
0
41
1
10
173.885713287418
20
330.613571091983
30
0
41
1
10
173.838146409426
20
330.610951536901
30
0
41
1
10
173.80030065956
20
330.60886714156
30
0
41
1
10
173.727719695706
20
330.604869537151
30
0
41
1
10
173.703591479014
20
330.603540432336
30
0
41
1
10
173.703536270209
20
330.603537391287
30
0
41
1
10
173.70353764017
20
330.603537466749
30
0
41
1
10
173.703538638756
20
330.603537521754
30
0
0
SPLINE
5
33A
100
AcDbEntity
8
1
62
256
6
ByLayer
370
18
48
1
60
0
100
AcDbSpline
70
4
71
3
72
12
73
8
40
0
40
0
40
0
40
0
40
0.499999999999959
40
0.499999999999959
40
0.74999999999998
40
0.74999999999998
40
1
40
1
40
1
40
1
41
1
10
195.5
20
325.248552466183
30
0
41
1
10
195.5
20
325.362669146736
30
0
41
1
10
195.490312075138
20
325.474335340552
30
0
41
1
10
195.462407025071
20
325.638473847558
30
0
41
1
10
195.450854369779
20
325.692653476982
30
0
41
1
10
195.423331738361
20
325.799781551128
30
0
41
1
10
195.407520065376
20
325.852129245612
30
0
41
1
10
195.389774976893
20
325.903342918703
30
0
0
SPLINE
5
33B
100
AcDbEntity
8
1
62
256
6
ByLayer
370
18
48
1
60
0
100
AcDbSpline
70
4
71
3
72
8
73
4
40
0
40
0
40
0
40
0
40
1
40
1
40
1
40
1
41
1
10
195.460603691393
20
323
30
0
41
1
10
195.473794256776
20
323
30
0
41
1
10
195.486925947824
20
322.999673986816
30
0
41
1
10
195.5
20
322.999029367963
30
0
0
SPLINE
5
33C
100
AcDbEntity
8
1
62
256
6
ByLayer
370
18
48
1
60
0
100
AcDbSpline
70
4
71
3
72
103
73
99
40
0
40
0
40
0
40
0
40
0.0014004764243282
40
0.0014004764243282
40
0.0326067115360263
40
0.0326067115360263
40
0.0482098290918762
40
0.0482098290918762
40
0.0560113878698014
40
0.0560113878698014
40
0.0638129466477263
40
0.0638129466477263
40
0.0950191817594301
40
0.0950191817594301
40
0.126225416871134
40
0.126225416871134
40
0.134026975649065
40
0.134026975649065
40
0.141828534426997
40
0.141828534426997
40
0.157431651982852
40
0.173034769538708
40
0.173034769538708
40
0.176935548927668
40
0.176935548927668
40
0.180836328316629
40
0.188637887094557
40
0.188637887094557
40
0.219844122206286
40
0.219844122206286
40
0.251050357318014
40
0.251050357318014
40
0.282256592429743
40
0.282256592429743
40
0.290058151207675
40
0.290058151207675
40
0.297859709985607
40
0.31346282754147
40
0.31346282754147
40
0.344669062653209
40
0.344669062653209
40
0.375875297764948
40
0.375875297764948
40
0.391478415320818
40
0.399279974098747
40
0.399279974098747
40
0.407081532876675
40
0.407081532876675
40
0.438287767988431
40
0.438287767988431
40
0.469494003100187
40
0.500700238211942
40
0.531906473323698
40
0.531906473323698
40
0.539708032101637
40
0.539708032101637
40
0.547509590879576
40
0.547509590879576
40
0.563112708435454
40
0.563112708435454
40
0.594318943547209
40
0.625525178658965
40
0.625525178658965
40
0.65673141377072
40
0.65673141377072
40
0.672334531326591
40
0.680136090104527
40
0.680136090104527
40
0.687937648882462
40
0.687937648882462
40
0.719143883994216
40
0.750350119105971
40
0.750350119105971
40
0.781556354217725
40
0.781556354217725
40
0.812762589329479
40
0.812762589329479
40
0.82056414810742
40
0.82056414810742
40
0.828365706885361
40
0.828365706885361
40
0.843968824441233
40
0.843968824441233
40
0.875175059552987
40
0.875175059552987
40
0.90638129466474
40
0.90638129466474
40
0.937587529776494
40
0.937587529776494
40
0.953190647332371
40
0.953190647332371
40
0.957091426721339
40
0.957091426721339
40
0.960992206110307
40
0.960992206110307
40
0.968793764888243
40
0.968793764888243
40
1
40
1
40
1
40
1
41
1
10
191.537409730955
20
331.644815800971
30
0
41
1
10
191.537413189251
20
331.644816885674
30
0
41
1
10
191.53738629065
20
331.644808684987
30
0
41
1
10
191.536054242332
20
331.644401779321
30
0
41
1
10
191.519725909958
20
331.639406244397
30
0
41
1
10
191.472736367493
20
331.625104542947
30
0
41
1
10
191.453317324523
20
331.619202063323
30
0
41
1
10
191.418507170676
20
331.608653628817
30
0
41
1
10
191.405949737855
20
331.604852975272
30
0
41
1
10
191.378955087248
20
331.596696143353
30
0
41
1
10
191.364576056817
20
331.592357553776
30
0
41
1
10
191.288371443726
20
331.569406659165
30
0
41
1
10
191.213656105222
20
331.547027418786
30
0
41
1
10
191.038597525914
20
331.495208412099
30
0
41
1
10
190.938247861434
20
331.465766427724
30
0
41
1
10
190.797418009046
20
331.425073516765
30
0
41
1
10
190.768480521961
20
331.416740166362
30
0
41
1
10
190.7090710115
20
331.399696176805
30
0
41
1
10
190.678575433166
20
331.390978877195
30
0
41
1
10
190.585125665088
20
331.364372755794
30
0
41
1
10
190.455141521488
20
331.327643093947
30
0
41
1
10
190.314752765925
20
331.28866181446
30
0
41
1
10
190.223843476489
20
331.263670302305
30
0
41
1
10
190.205585723249
20
331.258663223402
30
0
41
1
10
190.168760128721
20
331.248589104133
30
0
41
1
10
190.113127220586
20
331.23340741048
30
0
41
1
10
190.05632605573
20
331.21802349286
30
0
41
1
10
189.86445378321
20
331.166334065521
30
0
41
1
10
189.702867497105
20
331.123676767173
30
0
41
1
10
189.364672353555
20
331.036670862703
30
0
41
1
10
189.188059008333
20
330.992320245995
30
0
41
1
10
188.820434477104
20
330.902745272943
30
0
41
1
10
188.629421230408
20
330.857519464376
30
0
41
1
10
188.381784196931
20
330.80092313647
30
0
41
1
10
188.331888679962
20
330.789618214344
30
0
41
1
10
188.23157624813
20
330.767094618788
30
0
41
1
10
188.080230545562
20
330.733416877856
30
0
41
1
10
187.926293255802
20
330.700108940463
30
0
41
1
10
187.615043663538
20
330.634106385884
30
0
41
1
10
187.403051025686
20
330.590923188854
30
0
41
1
10
186.970319018959
20
330.506807431881
30
0
41
1
10
186.749578697076
20
330.465874128972
30
0
41
1
10
186.411922744744
20
330.406609663996
30
0
41
1
10
186.241455992823
20
330.377511227579
30
0
41
1
10
186.068512706947
20
330.349297816886
30
0
41
1
10
185.952663337328
20
330.330695005087
30
0
41
1
10
185.894437895856
20
330.321493234496
30
0
41
1
10
185.602996401741
20
330.276188461543
30
0
41
1
10
185.368026276794
20
330.242065406872
30
0
41
1
10
184.894524929119
20
330.178394060877
30
0
41
1
10
184.41746191271
20
330.119297272934
30
0
41
1
10
183.691196450655
20
330.045327503717
30
0
41
1
10
183.199792778545
20
330.006409257724
30
0
41
1
10
182.890333197431
20
329.985519762489
30
0
41
1
10
182.828324509148
20
329.981513568362
30
0
41
1
10
182.704071089525
20
329.97384918639
30
0
41
1
10
182.641822116548
20
329.970191258813
30
0
41
1
10
182.455506751112
20
329.959787472529
30
0
41
1
10
182.331609445938
20
329.953594910919
30
0
41
1
10
181.960845665056
20
329.937219124633
30
0
41
1
10
181.468966018496
20
329.921257615586
30
0
41
1
10
180.981990312024
20
329.916718672945
30
0
41
1
10
180.497494275959
20
329.917710099819
30
0
41
1
10
180.256485910975
20
329.920971047197
30
0
41
1
10
179.896891747163
20
329.929857402961
30
0
41
1
10
179.717574879104
20
329.935299034551
30
0
41
1
10
179.538995489977
20
329.942206971358
30
0
41
1
10
179.420108826625
20
329.947134420184
30
0
41
1
10
179.360720347767
20
329.949760566277
30
0
41
1
10
179.064501026088
20
329.96367312059
30
0
41
1
10
178.599846243665
20
329.990709451069
30
0
41
1
10
178.153508138651
20
330.026001973301
30
0
41
1
10
177.716391227924
20
330.064790102381
30
0
41
1
10
177.502442487522
20
330.085932305022
30
0
41
1
10
177.084045915476
20
330.131076338599
30
0
41
1
10
176.879596034234
20
330.155078958147
30
0
41
1
10
176.630309298405
20
330.186457886758
30
0
41
1
10
176.580766469097
20
330.192802362981
30
0
41
1
10
176.482321494591
20
330.205617949707
30
0
41
1
10
176.433380000216
20
330.212094361733
30
0
41
1
10
176.287798014973
20
330.231661817285
30
0
41
1
10
176.192851544874
20
330.244829392075
30
0
41
1
10
175.914315144295
20
330.284536833658
30
0
41
1
10
175.737013779615
20
330.311281022576
30
0
41
1
10
175.399416773169
20
330.364467549019
30
0
41
1
10
175.239118917826
20
330.390911271649
30
0
41
1
10
174.936241908153
20
330.442648850517
30
0
41
1
10
174.793657770075
20
330.467944408726
30
0
41
1
10
174.594048546226
20
330.5043526785
30
0
41
1
10
174.529895032527
20
330.516232388566
30
0
41
1
10
174.452829179083
20
330.530685410143
30
0
41
1
10
174.437572445697
20
330.533556163754
30
0
41
1
10
174.407376103596
20
330.539255980973
30
0
41
1
10
174.392430024327
20
330.542086287069
30
0
41
1
10
174.348215827307
20
330.550484650393
30
0
41
1
10
174.319526342561
20
330.55596866755
30
0
41
1
10
174.180011692158
20
330.582786861957
30
0
41
1
10
174.080956133529
20
330.602314915998
30
0
41
1
10
173.994679084931
20
330.619571507916
30
0
0
SPLINE
5
33D
100
AcDbEntity
8
1
62
256
6
ByLayer
370
18
48
1
60
0
100
AcDbSpline
70
4
71
3
72
46
73
42
40
0
40
0
40
0
40
0
40
0.124999999999986
40
0.124999999999986
40
0.187499999999977
40
0.187499999999977
40
0.203124999999973
40
0.203124999999973
40
0.218749999999969
40
0.249999999999962
40
0.249999999999962
40
0.312499999999934
40
0.374999999999907
40
0.374999999999907
40
0.43749999999988
40
0.43749999999988
40
0.499999999999853
40
0.499999999999853
40
0.531249999999845
40
0.531249999999845
40
0.546874999999843
40
0.546874999999843
40
0.56249999999984
40
0.56249999999984
40
0.624999999999832
40
0.624999999999832
40
0.687499999999823
40
0.687499999999823
40
0.749999999999815
40
0.749999999999815
40
0.812499999999806
40
0.812499999999806
40
0.828124999999808
40
0.828124999999808
40
0.84374999999981
40
0.84374999999981
40
0.874999999999839
40
0.874999999999839
40
0.93749999999992
40
0.93749999999992
40
1
40
1
40
1
40
1
41
1
10
173.994679084931
20
330.619571507916
30
0
41
1
10
174.074837494337
20
330.576432822788
30
0
41
1
10
174.181437811275
20
330.519270351304
30
0
41
1
10
174.380887513514
20
330.41358603756
30
0
41
1
10
174.453977501389
20
330.37503249412
30
0
41
1
10
174.553714541796
20
330.322788060823
30
0
41
1
10
174.57407783528
20
330.312138260908
30
0
41
1
10
174.615513351609
20
330.290505612612
30
0
41
1
10
174.678776224765
20
330.257532907497
30
0
41
1
10
174.745341149393
20
330.223023326016
30
0
41
1
10
174.882817691656
20
330.152044114848
30
0
41
1
10
175.077700462397
20
330.05217961439
30
0
41
1
10
175.295407287948
20
329.942784805084
30
0
41
1
10
175.524543456334
20
329.829085479025
30
0
41
1
10
175.644824943631
20
329.770082741716
30
0
41
1
10
175.897044734694
20
329.648253087849
30
0
41
1
10
176.028980774948
20
329.585425071285
30
0
41
1
10
176.235994944844
20
329.488711785226
30
0
41
1
10
176.306520276564
20
329.456062628093
30
0
41
1
10
176.414659219343
20
329.406527379411
30
0
41
1
10
176.451120579539
20
329.389911670165
30
0
41
1
10
176.524726759913
20
329.35655495387
30
0
41
1
10
176.56185009177
20
329.33982356441
30
0
41
1
10
176.749080707277
20
329.255933161786
30
0
41
1
10
176.904016042593
20
329.188068418562
30
0
41
1
10
177.224724871556
20
329.051722501845
30
0
41
1
10
177.390494011313
20
328.983238251358
30
0
41
1
10
177.733818479166
20
328.846721363875
30
0
41
1
10
177.911366123757
20
328.778683883339
30
0
41
1
10
178.279786042812
20
328.644427532753
30
0
41
1
10
178.470644338262
20
328.57820043509
30
0
41
1
10
178.719069907441
20
328.497712197489
30
0
41
1
10
178.769250538869
20
328.481730917901
30
0
41
1
10
178.870654294487
20
328.450037449506
30
0
41
1
10
178.921729508305
20
328.434371744621
30
0
41
1
10
179.075988159039
20
328.388011516552
30
0
41
1
10
179.180256365193
20
328.357935861574
30
0
41
1
10
179.497678460107
20
328.27069273015
30
0
41
1
10
179.715419486134
20
328.216479813602
30
0
41
1
10
180.165542548056
20
328.119171946695
30
0
41
1
10
180.397909709068
20
328.076064009922
30
0
41
1
10
180.639353317245
20
328.040659793116
30
0
0
SPLINE
5
33E
100
AcDbEntity
8
1
62
256
6
ByLayer
370
18
48
1
60
0
100
AcDbSpline
70
4
71
3
72
8
73
4
40
0
40
0
40
0
40
0
40
1
40
1
40
1
40
1
41
1
10
180.639353317246
20
328.040659793116
30
0
41
1
10
181.090257892705
20
328.034995026781
30
0
41
1
10
181.54379333697
20
328.043811653563
30
0
41
1
10
182
20
328.067720431666
30
0
0
SPLINE
5
33F
100
AcDbEntity
8
1
62
256
6
ByLayer
370
18
48
1
60
0
100
AcDbSpline
70
4
71
3
72
31
73
27
40
0
40
0
40
0
40
0
40
0.031249999999977
40
0.0468749999999671
40
0.0468749999999671
40
0.0624999999999571
40
0.0624999999999571
40
0.124999999999944
40
0.124999999999944
40
0.249999999999935
40
0.249999999999935
40
0.374999999999926
40
0.374999999999926
40
0.499999999999917
40
0.499999999999917
40
0.531249999999933
40
0.531249999999933
40
0.56249999999995
40
0.56249999999995
40
0.624999999999958
40
0.624999999999958
40
0.749999999999972
40
0.749999999999972
40
0.874999999999986
40
0.874999999999986
40
1
40
1
40
1
40
1
41
1
10
193.793423689275
20
330.510533976637
30
0
41
1
10
193.690218495082
20
330.477623612841
30
0
41
1
10
193.53402016723
20
330.427959585728
30
0
41
1
10
193.37571199209
20
330.37791690565
30
0
41
1
10
193.269701267459
20
330.344478696188
30
0
41
1
10
193.216447113484
20
330.32771738592
30
0
41
1
10
192.949507596489
20
330.243901739645
30
0
41
1
10
192.733432404571
20
330.17669901216
30
0
41
1
10
192.077607520094
20
329.975400874376
30
0
41
1
10
191.630275335171
20
329.841617668919
30
0
41
1
10
190.714816846842
20
329.578817158195
30
0
41
1
10
190.246691490283
20
329.449794427945
30
0
41
1
10
189.288533490934
20
329.200431322342
30
0
41
1
10
188.798503810992
20
329.080086595576
30
0
41
1
10
188.171200058121
20
328.937617456809
30
0
41
1
10
188.044938769219
20
328.90950910542
30
0
41
1
10
187.791193023879
20
328.854218410014
30
0
41
1
10
187.663896678006
20
328.827077121512
30
0
41
1
10
187.281297917752
20
328.747358891711
30
0
41
1
10
187.025057467999
20
328.696438224553
30
0
41
1
10
186.25276309699
20
328.550884543695
30
0
41
1
10
185.733139845199
20
328.463470699254
30
0
41
1
10
184.684017044932
20
328.310478540701
30
0
41
1
10
184.154517383793
20
328.244901736352
30
0
41
1
10
183.085168647285
20
328.13781097337
30
0
41
1
10
182.545319945372
20
328.096299439002
30
0
41
1
10
182
20
328.067720431666
30
0
0
SPLINE
5
340
100
AcDbEntity
8
1
62
256
6
ByLayer
370
18
48
1
60
0
100
AcDbSpline
70
4
71
3
72
29
73
25
40
0
40
0
40
0
40
0
40
0.125000000000227
40
0.125000000000227
40
0.187500000000354
40
0.187500000000354
40
0.250000000000481
40
0.250000000000481
40
0.375000000000571
40
0.375000000000571
40
0.437500000000473
40
0.437500000000473
40
0.500000000000375
40
0.562500000000276
40
0.562500000000276
40
0.625000000000178
40
0.625000000000178
40
0.749999999999961
40
0.749999999999961
40
0.812499999999842
40
0.812499999999842
40
0.874999999999724
40
0.874999999999724
40
1
40
1
40
1
40
1
41
1
10
193.408174669942
20
331.62239190585
30
0
41
1
10
193.407261843168
20
331.625026393249
30
0
41
1
10
193.409118907392
20
331.62772252926
30
0
41
1
10
193.415948897371
20
331.631860604303
30
0
41
1
10
193.418904564615
20
331.633255793465
30
0
41
1
10
193.42621648499
20
331.636080423212
30
0
41
1
10
193.430567485459
20
331.637504539725
30
0
41
1
10
193.445413844829
20
331.641732821959
30
0
41
1
10
193.457760926983
20
331.644524238024
30
0
41
1
10
193.479947971763
20
331.64868661394
30
0
41
1
10
193.487998492254
20
331.65007526558
30
0
41
1
10
193.504985677847
20
331.652787291849
30
0
41
1
10
193.522920687736
20
331.655447482946
30
0
41
1
10
193.542695980752
20
331.65801326464
30
0
41
1
10
193.563390997901
20
331.660534980115
30
0
41
1
10
193.574258864002
20
331.661780157982
30
0
41
1
10
193.607790171665
20
331.665400242106
30
0
41
1
10
193.631269362719
20
331.667653696557
30
0
41
1
10
193.668094762865
20
331.670820114259
30
0
41
1
10
193.680639669333
20
331.671839624676
30
0
41
1
10
193.7062790426
20
331.673807289297
30
0
41
1
10
193.719228710141
20
331.674744178159
30
0
41
1
10
193.758284865855
20
331.6774084696
30
0
41
1
10
193.784670515387
20
331.678996746554
30
0
41
1
10
193.811406912313
20
331.680397941743
30
0
0
SPLINE
5
341
100
AcDbEntity
8
1
62
256
6
ByLayer
370
18
48
1
60
0
100
AcDbSpline
70
4
71
3
72
18
73
14
40
0
40
0
40
0
40
0
40
0.124999999999881
40
0.124999999999881
40
0.249999999999762
40
0.249999999999762
40
0.499999999999916
40
0.499999999999916
40
0.624999999999716
40
0.624999999999716
40
0.749999999999516
40
0.749999999999516
40
1
40
1
40
1
40
1
41
1
10
202.307609446914
20
327.519076114718
30
0
41
1
10
202.315407560074
20
327.529875011827
30
0
41
1
10
202.323660621492
20
327.540229266535
30
0
41
1
10
202.341053173992
20
327.560075940793
30
0
41
1
10
202.350163011589
20
327.569525307379
30
0
41
1
10
202.378241155618
20
327.596122496638
30
0
41
1
10
202.398109808002
20
327.611723076652
30
0
41
1
10
202.429560912538
20
327.632251192638
30
0
41
1
10
202.440305304395
20
327.6385925751
30
0
41
1
10
202.461908009456
20
327.650116818735
30
0
41
1
10
202.472820597781
20
327.655336257232
30
0
41
1
10
202.505897634254
20
327.669477048963
30
0
41
1
10
202.528399763552
20
327.676893651782
30
0
41
1
10
202.551388701789
20
327.682402725966
30
0
0
SPLINE
5
342
100
AcDbEntity
8
1
62
256
6
ByLayer
370
18
48
1
60
0
100
AcDbSpline
70
4
71
3
72
16
73
12
40
0
40
0
40
0
40
0
40
0.250000000000229
40
0.250000000000229
40
0.500000000000457
40
0.500000000000457
40
0.625000000000388
40
0.625000000000388
40
0.750000000000319
40
0.750000000000319
40
1
40
1
40
1
40
1
41
1
10
202.237773472417
20
327.180513445568
30
0
41
1
10
202.232644808486
20
327.203602039285
30
0
41
1
10
202.229412373268
20
327.22726247922
30
0
41
1
10
202.227052075095
20
327.275718355088
30
0
41
1
10
202.227934553856
20
327.300138901142
30
0
41
1
10
202.232609878276
20
327.337196591752
30
0
41
1
10
202.234732281704
20
327.349628001057
30
0
41
1
10
202.24019954946
20
327.374640832967
30
0
41
1
10
202.243499507002
20
327.387016624215
30
0
41
1
10
202.25512017272
20
327.423762588599
30
0
41
1
10
202.265142505035
20
327.447756856657
30
0
41
1
10
202.277704666685
20
327.471218462334
30
0
0
SPLINE
5
343
100
AcDbEntity
8
1
62
256
6
ByLayer
370
18
48
1
60
0
100
AcDbSpline
70
4
71
3
72
24
73
20
40
0
40
0
40
0
40
0
40
0.124999999999562
40
0.124999999999562
40
0.249999999999125
40
0.249999999999125
40
0.312499999998906
40
0.312499999998906
40
0.374999999998687
40
0.374999999998687
40
0.49999999999895
40
0.49999999999895
40
0.624999999999212
40
0.624999999999212
40
0.749999999999475
40
0.749999999999475
40
0.874999999999737
40
0.874999999999737
40
1
40
1
40
1
40
1
41
1
10
202.143887391293
20
326.976977460605
30
0
41
1
10
202.153155383767
20
326.981895144437
30
0
41
1
10
202.162145661243
20
326.987701342427
30
0
41
1
10
202.178716753759
20
327.000531270312
30
0
41
1
10
202.186373482202
20
327.007577300098
30
0
41
1
10
202.196933747777
20
327.019072622963
30
0
41
1
10
202.200314052021
20
327.0230805037
30
0
41
1
10
202.206662740637
20
327.031285260147
30
0
41
1
10
202.209634969695
20
327.035482212903
30
0
41
1
10
202.217971670588
20
327.048343217401
30
0
41
1
10
202.222759789809
20
327.057275773187
30
0
41
1
10
202.230837669217
20
327.07583112749
30
0
41
1
10
202.234065351732
20
327.085336124668
30
0
41
1
10
202.238907658462
20
327.104408820351
30
0
41
1
10
202.240545888487
20
327.114031880998
30
0
41
1
10
202.24230075744
20
327.133435248948
30
0
41
1
10
202.242399125398
20
327.143060116222
30
0
41
1
10
202.241155814545
20
327.161987189904
30
0
41
1
10
202.239816027974
20
327.171318119837
30
0
41
1
10
202.237773472417
20
327.180513445568
30
0
0
SPLINE
5
344
100
AcDbEntity
8
1
62
256
6
ByLayer
370
18
48
1
60
0
100
AcDbSpline
70
4
71
3
72
23
73
19
40
0
40
0
40
0
40
0
40
0.125000000000993
40
0.125000000000993
40
0.187500000001489
40
0.187500000001489
40
0.250000000001985
40
0.250000000001985
40
0.3750000000025
40
0.3750000000025
40
0.500000000003015
40
0.500000000003015
40
0.62500000000353
40
0.687500000003113
40
0.687500000003113
40
0.750000000002696
40
0.750000000002696
40
1
40
1
40
1
40
1
41
1
10
202.693168684232
20
327.856011279851
30
0
41
1
10
202.692810181572
20
327.845486205257
30
0
41
1
10
202.691562125908
20
327.835069724242
30
0
41
1
10
202.688357309482
20
327.819607836703
30
0
41
1
10
202.687056538089
20
327.814452570054
30
0
41
1
10
202.684043297294
20
327.80435578331
30
0
41
1
10
202.682336563987
20
327.799422171324
30
0
41
1
10
202.676644705991
20
327.784949929544
30
0
41
1
10
202.672091610757
20
327.775737722247
30
0
41
1
10
202.661518853645
20
327.758161180793
30
0
41
1
10
202.655448385431
20
327.749764605668
30
0
41
1
10
202.642391282468
20
327.734484732285
30
0
41
1
10
202.631839347458
20
327.724014535617
30
0
41
1
10
202.620226935468
20
327.714945242965
30
0
41
1
10
202.612249726979
20
327.709212449589
30
0
41
1
10
202.608131321426
20
327.706496525098
30
0
41
1
10
202.587322389658
20
327.693919576414
30
0
41
1
10
202.569754928381
20
327.68680401252
30
0
41
1
10
202.551388701789
20
327.682402725966
30
0
0
SPLINE
5
345
100
AcDbEntity
8
1
62
256
6
ByLayer
370
18
48
1
60
0
100
AcDbSpline
70
4
71
3
72
32
73
28
40
0
40
0
40
0
40
0
40
0.0625000000001233
40
0.0625000000001233
40
0.125000000000247
40
0.125000000000247
40
0.250000000000493
40
0.250000000000493
40
0.312500000000444
40
0.312500000000444
40
0.375000000000394
40
0.375000000000394
40
0.437500000000344
40
0.437500000000344
40
0.500000000000295
40
0.562500000000245
40
0.593749999999981
40
0.593749999999981
40
0.624999999999717
40
0.624999999999717
40
0.749999999999691
40
0.749999999999691
40
0.812499999999678
40
0.812499999999678
40
0.874999999999666
40
0.874999999999666
40
1
40
1
40
1
40
1
41
1
10
201.333020901153
20
327.033732856655
30
0
41
1
10
201.342518001008
20
327.042396971811
30
0
41
1
10
201.352445329709
20
327.050660660369
30
0
41
1
10
201.373208249586
20
327.066368769597
30
0
41
1
10
201.384004394558
20
327.073779445659
30
0
41
1
10
201.417439577169
20
327.094498491675
30
0
41
1
10
201.441201124976
20
327.106386863008
30
0
41
1
10
201.479484080328
20
327.121024401492
30
0
41
1
10
201.492749257962
20
327.125375153931
30
0
41
1
10
201.51962042443
20
327.132718843483
30
0
41
1
10
201.533290034066
20
327.135741958884
30
0
41
1
10
201.561129985282
20
327.140440282886
30
0
41
1
10
201.575338581574
20
327.142118293061
30
0
41
1
10
201.60414461875
20
327.144012717977
30
0
41
1
10
201.632798766689
20
327.144416926746
30
0
41
1
10
201.668248634818
20
327.141327476283
30
0
41
1
10
201.689354390777
20
327.137862809345
30
0
41
1
10
201.703388163405
20
327.135190572109
30
0
41
1
10
201.710410661891
20
327.133666724838
30
0
41
1
10
201.744940709364
20
327.12525487877
30
0
41
1
10
201.770990321238
20
327.115991418471
30
0
41
1
10
201.8080795116
20
327.098703882748
30
0
41
1
10
201.820166411356
20
327.09233095445
30
0
41
1
10
201.843259687434
20
327.078719648406
30
0
41
1
10
201.85430402698
20
327.071471534841
30
0
41
1
10
201.886070622696
20
327.048475050194
30
0
41
1
10
201.905440774852
20
327.031485363639
30
0
41
1
10
201.923152192969
20
327.01287154499
30
0
0
SPLINE
5
346
100
AcDbEntity
8
1
62
256
6
ByLayer
370
18
48
1
60
0
100
AcDbSpline
70
4
71
3
72
24
73
20
40
0
40
0
40
0
40
0
40
0.125000000000912
40
0.125000000000912
40
0.250000000001825
40
0.250000000001825
40
0.31250000000221
40
0.31250000000221
40
0.375000000002595
40
0.375000000002595
40
0.500000000002076
40
0.500000000002076
40
0.625000000001557
40
0.625000000001557
40
0.750000000001038
40
0.750000000001038
40
0.875000000000519
40
0.875000000000519
40
1
40
1
40
1
40
1
41
1
10
201.110302129439
20
327.013514998233
30
0
41
1
10
201.119173914186
20
327.007971291848
30
0
41
1
10
201.12867241511
20
327.003108641792
30
0
41
1
10
201.148016779287
20
326.995202221869
30
0
41
1
10
201.157919049259
20
326.992104518167
30
0
41
1
10
201.173109159936
20
326.988714875957
30
0
41
1
10
201.178254524929
20
326.987792840112
30
0
41
1
10
201.188506864062
20
326.986397040933
30
0
41
1
10
201.19361379168
20
326.985920342964
30
0
41
1
10
201.208878305436
20
326.985124251116
30
0
41
1
10
201.21898001599
20
326.985434932627
30
0
41
1
10
201.239031609539
20
326.987689255375
30
0
41
1
10
201.248858780671
20
326.989629710153
30
0
41
1
10
201.267756287505
20
326.994931172887
30
0
41
1
10
201.276889659591
20
326.998299578858
30
0
41
1
10
201.294534445533
20
327.006424109678
30
0
41
1
10
201.302915092929
20
327.011125667593
30
0
41
1
10
201.318672245494
20
327.021606350989
30
0
41
1
10
201.326079544245
20
327.027400321828
30
0
41
1
10
201.333020901153
20
327.033732856655
30
0
0
SPLINE
5
347
100
AcDbEntity
8
1
62
256
6
ByLayer
370
18
48
1
60
0
100
AcDbSpline
70
4
71
3
72
24
73
20
40
0
40
0
40
0
40
0
40
0.124999999999924
40
0.124999999999924
40
0.187500000000511
40
0.187500000000511
40
0.250000000001097
40
0.250000000001097
40
0.375000000001069
40
0.375000000001069
40
0.500000000001042
40
0.500000000001042
40
0.625000000001014
40
0.625000000001014
40
0.687500000000894
40
0.687500000000894
40
0.750000000000773
40
0.750000000000773
40
1
40
1
40
1
40
1
41
1
10
202.143887391293
20
326.976977460605
30
0
41
1
10
202.134613571561
20
326.972056684774
30
0
41
1
10
202.124989823351
20
326.967954628924
30
0
41
1
10
202.110029173365
20
326.963030273248
30
0
41
1
10
202.104924598449
20
326.96158843011
30
0
41
1
10
202.094704644102
20
326.959167734188
30
0
41
1
10
202.089593592341
20
326.958186439134
30
0
41
1
10
202.074257959768
20
326.955897800099
30
0
41
1
10
202.064030872962
20
326.955241471153
30
0
41
1
10
202.043574483244
20
326.955614464512
30
0
41
1
10
202.033296849021
20
326.956671213957
30
0
41
1
10
202.013590064425
20
326.960325701565
30
0
41
1
10
202.00405181218
20
326.96291717706
30
0
41
1
10
201.990195246198
20
326.967878420917
30
0
41
1
10
201.985651911336
20
326.969712103607
30
0
41
1
10
201.976716940257
20
326.973737519121
30
0
41
1
10
201.97231519204
20
326.975936651773
30
0
41
1
10
201.951063721098
20
326.987617357675
30
0
41
1
10
201.936138782057
20
326.999223286417
30
0
41
1
10
201.923152192969
20
327.01287154499
30
0
0
SPLINE
5
348
100
AcDbEntity
8
1
62
256
6
ByLayer
370
18
48
1
60
0
100
AcDbSpline
70
4
71
3
72
24
73
20
40
0
40
0
40
0
40
0
40
0.125000000001455
40
0.125000000001455
40
0.187500000001964
40
0.187500000001964
40
0.250000000002473
40
0.250000000002473
40
0.375000000002162
40
0.375000000002162
40
0.500000000001851
40
0.500000000001851
40
0.625000000001539
40
0.625000000001539
40
0.687500000001384
40
0.687500000001384
40
0.750000000001228
40
0.750000000001228
40
1
40
1
40
1
40
1
41
1
10
201.110302129439
20
327.013514998233
30
0
41
1
10
201.101398922516
20
327.019078339373
30
0
41
1
10
201.09302917676
20
327.025354543445
30
0
41
1
10
201.081275241118
20
327.03583858235
30
0
41
1
10
201.077471110907
20
327.039535086405
30
0
41
1
10
201.070258190436
20
327.047169299341
30
0
41
1
10
201.066849460644
20
327.051102031832
30
0
41
1
10
201.057189211963
20
327.063230480838
30
0
41
1
10
201.051499956969
20
327.071754355059
30
0
41
1
10
201.041579433359
20
327.089648090467
30
0
41
1
10
201.037347697327
20
327.09907353415
30
0
41
1
10
201.030642973331
20
327.11796161873
30
0
41
1
10
201.02810993375
20
327.127515556466
30
0
41
1
10
201.025465792447
20
327.141994048557
30
0
41
1
10
201.02477797921
20
327.146844942359
30
0
41
1
10
201.02378824117
20
327.156594709117
30
0
41
1
10
201.023487657578
20
327.161506046528
30
0
41
1
10
201.022956909007
20
327.185750284283
30
0
41
1
10
201.025529403555
20
327.204480836422
30
0
41
1
10
201.03084033685
20
327.222556230031
30
0
0
SPLINE
5
349
100
AcDbEntity
8
1
62
256
6
ByLayer
370
18
48
1
60
0
100
AcDbSpline
70
4
71
3
72
32
73
28
40
0
40
0
40
0
40
0
40
0.0625000000001878
40
0.0625000000001878
40
0.125000000000376
40
0.125000000000376
40
0.250000000000752
40
0.250000000000752
40
0.312500000000689
40
0.312500000000689
40
0.375000000000627
40
0.375000000000627
40
0.437500000000565
40
0.437500000000565
40
0.500000000000502
40
0.56250000000044
40
0.593750000000388
40
0.593750000000388
40
0.625000000000336
40
0.625000000000336
40
0.750000000000088
40
0.750000000000088
40
0.812500000000077
40
0.812500000000077
40
0.875000000000067
40
0.875000000000067
40
1
40
1
40
1
40
1
41
1
10
200.753393782978
20
327.743817724532
30
0
41
1
10
200.765649013885
20
327.739935565101
30
0
41
1
10
200.777773070018
20
327.735480490664
30
0
41
1
10
200.801766830989
20
327.725373911766
30
0
41
1
10
200.813587580217
20
327.719739651608
30
0
41
1
10
200.84826433907
20
327.701173198576
30
0
41
1
10
200.870453291648
20
327.686558311076
30
0
41
1
10
200.902293398335
20
327.66075038044
30
0
41
1
10
200.912701836097
20
327.651446701938
30
0
41
1
10
200.932514052075
20
327.631864421703
30
0
41
1
10
200.941975808306
20
327.621545863523
30
0
41
1
10
200.959983313907
20
327.599800363443
30
0
41
1
10
200.968550639599
20
327.588341718074
30
0
41
1
10
200.984614869321
20
327.564355935033
30
0
41
1
10
200.999313112748
20
327.539755414962
30
0
41
1
10
201.014390161657
20
327.50752312905
30
0
41
1
10
201.02195971301
20
327.487519167754
30
0
41
1
10
201.026673944177
20
327.474033490311
30
0
41
1
10
201.028871373523
20
327.467191788454
30
0
41
1
10
201.038880789741
20
327.433090530634
30
0
41
1
10
201.043906529617
20
327.405903475881
30
0
41
1
10
201.047514651302
20
327.365142616814
30
0
41
1
10
201.048050698022
20
327.351489047638
30
0
41
1
10
201.04783259696
20
327.324683826611
30
0
41
1
10
201.047089031615
20
327.311494446506
30
0
41
1
10
201.043090258517
20
327.272482078766
30
0
41
1
10
201.038083516874
20
327.247207891545
30
0
41
1
10
201.03084033685
20
327.222556230031
30
0
0
SPLINE
5
34A
100
AcDbEntity
8
1
62
256
6
ByLayer
370
18
48
1
60
0
100
AcDbSpline
70
4
71
3
72
23
73
19
40
0
40
0
40
0
40
0
40
0.125000000000195
40
0.125000000000195
40
0.250000000000389
40
0.250000000000389
40
0.312500000000603
40
0.312500000000603
40
0.375000000000816
40
0.500000000000653
40
0.500000000000653
40
0.625000000000489
40
0.625000000000489
40
0.750000000000326
40
0.750000000000326
40
0.875000000000163
40
0.875000000000163
40
1
40
1
40
1
40
1
41
1
10
200.624368451609
20
327.926478275659
30
0
41
1
10
200.624012235213
20
327.916020322199
30
0
41
1
10
200.624559977088
20
327.905362307025
30
0
41
1
10
200.627402296286
20
327.884663463972
30
0
41
1
10
200.629679210919
20
327.874540301085
30
0
41
1
10
200.634353272803
20
327.859689675809
30
0
41
1
10
200.636132666843
20
327.8547721846
30
0
41
1
10
200.64005714067
20
327.84520234842
30
0
41
1
10
200.646491339705
20
327.831228886494
30
0
41
1
10
200.654483259672
20
327.818344120315
30
0
41
1
10
200.666480560622
20
327.802110399379
30
0
41
1
10
200.673076704079
20
327.794581627689
30
0
41
1
10
200.687128301449
20
327.78087920977
30
0
41
1
10
200.694618887852
20
327.774658861437
30
0
41
1
10
200.710493893182
20
327.763450072387
30
0
41
1
10
200.718753309
20
327.758554949727
30
0
41
1
10
200.73571275988
20
327.750165428134
30
0
41
1
10
200.744436424798
20
327.746655197999
30
0
41
1
10
200.753393782978
20
327.743817724532
30
0
0
SPLINE
5
34B
100
AcDbEntity
8
1
62
256
6
ByLayer
370
18
48
1
60
0
100
AcDbSpline
70
4
71
3
72
24
73
20
40
0
40
0
40
0
40
0
40
0.124999999999924
40
0.124999999999924
40
0.187500000000511
40
0.187500000000511
40
0.250000000001097
40
0.250000000001097
40
0.375000000001069
40
0.375000000001069
40
0.500000000001042
40
0.500000000001042
40
0.625000000001014
40
0.625000000001014
40
0.687500000000894
40
0.687500000000894
40
0.750000000000773
40
0.750000000000773
40
1
40
1
40
1
40
1
41
1
10
201.173649744547
20
328.805512094905
30
0
41
1
10
201.18292356428
20
328.810432870736
30
0
41
1
10
201.192547312489
20
328.814534926586
30
0
41
1
10
201.207507962475
20
328.819459282262
30
0
41
1
10
201.212612537392
20
328.8209011254
30
0
41
1
10
201.222832491739
20
328.823321821322
30
0
41
1
10
201.2279435435
20
328.824303116376
30
0
41
1
10
201.243279176073
20
328.826591755411
30
0
41
1
10
201.253506262878
20
328.827248084357
30
0
41
1
10
201.273962652597
20
328.826875090998
30
0
41
1
10
201.28424028682
20
328.825818341553
30
0
41
1
10
201.303947071416
20
328.822163853945
30
0
41
1
10
201.313485323661
20
328.81957237845
30
0
41
1
10
201.327341889643
20
328.814611134592
30
0
41
1
10
201.331885224504
20
328.812777451903
30
0
41
1
10
201.340820195584
20
328.808752036389
30
0
41
1
10
201.3452219438
20
328.806552903737
30
0
41
1
10
201.366473414743
20
328.794872197834
30
0
41
1
10
201.381398353784
20
328.783266269093
30
0
41
1
10
201.394384942872
20
328.76961801052
30
0
0
SPLINE
5
34C
100
AcDbEntity
8
1
62
256
6
ByLayer
370
18
48
1
60
0
100
AcDbSpline
70
4
71
3
72
32
73
28
40
0
40
0
40
0
40
0
40
0.0625000000001235
40
0.0625000000001235
40
0.125000000000247
40
0.125000000000247
40
0.250000000000494
40
0.250000000000494
40
0.312500000000444
40
0.312500000000444
40
0.375000000000395
40
0.375000000000395
40
0.437500000000345
40
0.437500000000345
40
0.500000000000295
40
0.562500000000246
40
0.593749999999981
40
0.593749999999981
40
0.624999999999717
40
0.624999999999717
40
0.749999999999691
40
0.749999999999691
40
0.812499999999679
40
0.812499999999679
40
0.874999999999666
40
0.874999999999666
40
1
40
1
40
1
40
1
41
1
10
201.984516234688
20
328.748756698854
30
0
41
1
10
201.975019134833
20
328.740092583699
30
0
41
1
10
201.965091806132
20
328.731828895141
30
0
41
1
10
201.944328886255
20
328.716120785913
30
0
41
1
10
201.933532741283
20
328.70871010985
30
0
41
1
10
201.900097558672
20
328.687991063835
30
0
41
1
10
201.876336010865
20
328.676102692502
30
0
41
1
10
201.838053055513
20
328.661465154018
30
0
41
1
10
201.824787877878
20
328.657114401579
30
0
41
1
10
201.797916711411
20
328.649770712027
30
0
41
1
10
201.784247101775
20
328.646747596626
30
0
41
1
10
201.756407150559
20
328.642049272624
30
0
41
1
10
201.742198554267
20
328.640371262449
30
0
41
1
10
201.71339251709
20
328.638476837533
30
0
41
1
10
201.684738369152
20
328.638072628763
30
0
41
1
10
201.649288501023
20
328.641162079227
30
0
41
1
10
201.628182745064
20
328.644626746165
30
0
41
1
10
201.614148972436
20
328.647298983401
30
0
41
1
10
201.60712647395
20
328.648822830672
30
0
41
1
10
201.572596426477
20
328.65723467674
30
0
41
1
10
201.546546814603
20
328.666498137039
30
0
41
1
10
201.509457624241
20
328.683785672762
30
0
41
1
10
201.497370724485
20
328.69015860106
30
0
41
1
10
201.474277448407
20
328.703769907104
30
0
41
1
10
201.463233108861
20
328.711018020669
30
0
41
1
10
201.431466513145
20
328.734014505316
30
0
41
1
10
201.412096360988
20
328.75100419187
30
0
41
1
10
201.394384942872
20
328.76961801052
30
0
0
SPLINE
5
34D
100
AcDbEntity
8
1
62
256
6
ByLayer
370
18
48
1
60
0
100
AcDbSpline
70
4
71
3
72
24
73
20
40
0
40
0
40
0
40
0
40
0.125000000000912
40
0.125000000000912
40
0.250000000001825
40
0.250000000001825
40
0.31250000000221
40
0.31250000000221
40
0.375000000002595
40
0.375000000002595
40
0.500000000002076
40
0.500000000002076
40
0.625000000001557
40
0.625000000001557
40
0.750000000001038
40
0.750000000001038
40
0.875000000000519
40
0.875000000000519
40
1
40
1
40
1
40
1
41
1
10
202.207235006402
20
328.768974557277
30
0
41
1
10
202.198363221655
20
328.774518263662
30
0
41
1
10
202.188864720731
20
328.779380913717
30
0
41
1
10
202.169520356553
20
328.787287333641
30
0
41
1
10
202.159618086582
20
328.790385037343
30
0
41
1
10
202.144427975905
20
328.793774679553
30
0
41
1
10
202.139282610912
20
328.794696715398
30
0
41
1
10
202.12903027178
20
328.796092514577
30
0
41
1
10
202.123923344161
20
328.796569212546
30
0
41
1
10
202.108658830405
20
328.797365304394
30
0
41
1
10
202.098557119851
20
328.797054622883
30
0
41
1
10
202.078505526302
20
328.794800300135
30
0
41
1
10
202.06867835517
20
328.792859845357
30
0
41
1
10
202.049780848335
20
328.787558382623
30
0
41
1
10
202.040647476251
20
328.784189976652
30
0
41
1
10
202.023002690308
20
328.776065445832
30
0
41
1
10
202.014622042912
20
328.771363887917
30
0
41
1
10
201.998864890347
20
328.760883204521
30
0
41
1
10
201.991457591596
20
328.755089233682
30
0
41
1
10
201.984516234688
20
328.748756698854
30
0
0
SPLINE
5
34E
100
AcDbEntity
8
1
62
256
6
ByLayer
370
18
48
1
60
0
100
AcDbSpline
70
4
71
3
72
24
73
20
40
0
40
0
40
0
40
0
40
0.125000000001455
40
0.125000000001455
40
0.187500000001964
40
0.187500000001964
40
0.250000000002473
40
0.250000000002473
40
0.375000000002162
40
0.375000000002162
40
0.500000000001851
40
0.500000000001851
40
0.625000000001539
40
0.625000000001539
40
0.687500000001384
40
0.687500000001384
40
0.750000000001228
40
0.750000000001228
40
1
40
1
40
1
40
1
41
1
10
202.207235006402
20
328.768974557277
30
0
41
1
10
202.216138213325
20
328.763411216137
30
0
41
1
10
202.224507959081
20
328.757135012065
30
0
41
1
10
202.236261894724
20
328.74665097316
30
0
41
1
10
202.240066024934
20
328.742954469105
30
0
41
1
10
202.247278945405
20
328.735320256169
30
0
41
1
10
202.250687675197
20
328.731387523678
30
0
41
1
10
202.260347923877
20
328.719259074672
30
0
41
1
10
202.266037178871
20
328.710735200451
30
0
41
1
10
202.275957702482
20
328.692841465043
30
0
41
1
10
202.280189438514
20
328.68341602136
30
0
41
1
10
202.286894162509
20
328.66452793678
30
0
41
1
10
202.289427202092
20
328.654973999044
30
0
41
1
10
202.292071343393
20
328.640495506953
30
0
41
1
10
202.292759156631
20
328.635644613151
30
0
41
1
10
202.29374889467
20
328.625894846393
30
0
41
1
10
202.294049478262
20
328.620983508982
30
0
41
1
10
202.294580226834
20
328.596739271227
30
0
41
1
10
202.292007732286
20
328.578008719088
30
0
41
1
10
202.286696798991
20
328.559933325479
30
0
0
SPLINE
5
34F
100
AcDbEntity
8
1
62
256
6
ByLayer
370
18
48
1
60
0
100
AcDbSpline
70
4
71
3
72
32
73
28
40
0
40
0
40
0
40
0
40
0.0625000000001878
40
0.0625000000001878
40
0.125000000000376
40
0.125000000000376
40
0.250000000000752
40
0.250000000000752
40
0.312500000000689
40
0.312500000000689
40
0.375000000000627
40
0.375000000000627
40
0.437500000000565
40
0.437500000000565
40
0.500000000000502
40
0.56250000000044
40
0.593750000000388
40
0.593750000000388
40
0.625000000000336
40
0.625000000000336
40
0.750000000000088
40
0.750000000000088
40
0.812500000000077
40
0.812500000000077
40
0.875000000000067
40
0.875000000000067
40
1
40
1
40
1
40
1
41
1
10
202.564143352863
20
328.038671830978
30
0
41
1
10
202.551888121956
20
328.042553990409
30
0
41
1
10
202.539764065823
20
328.047009064847
30
0
41
1
10
202.515770304851
20
328.057115643744
30
0
41
1
10
202.503949555624
20
328.062749903902
30
0
41
1
10
202.469272796771
20
328.081316356934
30
0
41
1
10
202.447083844192
20
328.095931244434
30
0
41
1
10
202.415243737506
20
328.12173917507
30
0
41
1
10
202.404835299744
20
328.131042853571
30
0
41
1
10
202.385023083765
20
328.150625133806
30
0
41
1
10
202.375561327535
20
328.160943691987
30
0
41
1
10
202.357553821934
20
328.182689192067
30
0
41
1
10
202.348986496241
20
328.194147837436
30
0
41
1
10
202.33292226652
20
328.218133620477
30
0
41
1
10
202.318224023093
20
328.242734140548
30
0
41
1
10
202.303146974184
20
328.27496642646
30
0
41
1
10
202.29557742283
20
328.294970387756
30
0
41
1
10
202.290863191664
20
328.308456065199
30
0
41
1
10
202.288665762318
20
328.315297767056
30
0
41
1
10
202.278656346099
20
328.349399024876
30
0
41
1
10
202.273630606224
20
328.376586079629
30
0
41
1
10
202.270022484539
20
328.417346938696
30
0
41
1
10
202.269486437819
20
328.431000507872
30
0
41
1
10
202.269704538881
20
328.457805728899
30
0
41
1
10
202.270448104226
20
328.470995109004
30
0
41
1
10
202.274446877323
20
328.510007476744
30
0
41
1
10
202.279453618967
20
328.535281663966
30
0
41
1
10
202.286696798991
20
328.559933325479
30
0
0
SPLINE
5
350
100
AcDbEntity
8
1
62
256
6
ByLayer
370
18
48
1
60
0
100
AcDbSpline
70
4
71
3
72
23
73
19
40
0
40
0
40
0
40
0
40
0.125000000000303
40
0.125000000000303
40
0.250000000000606
40
0.250000000000606
40
0.312500000000562
40
0.312500000000562
40
0.375000000000517
40
0.500000000000414
40
0.500000000000414
40
0.62500000000031
40
0.62500000000031
40
0.750000000000207
40
0.750000000000207
40
0.875000000000103
40
0.875000000000103
40
1
40
1
40
1
40
1
41
1
10
202.693168684232
20
327.856011279851
30
0
41
1
10
202.693524900628
20
327.866469233311
30
0
41
1
10
202.692977158752
20
327.877127248485
30
0
41
1
10
202.690134839555
20
327.897826091538
30
0
41
1
10
202.687857924923
20
327.907949254425
30
0
41
1
10
202.683183863038
20
327.9227998797
30
0
41
1
10
202.681404468998
20
327.92771737091
30
0
41
1
10
202.677479995171
20
327.93728720709
30
0
41
1
10
202.671045796135
20
327.951260669016
30
0
41
1
10
202.663053876169
20
327.964145435195
30
0
41
1
10
202.651056575219
20
327.980379156131
30
0
41
1
10
202.644460431762
20
327.987907927821
30
0
41
1
10
202.630408834391
20
328.001610345739
30
0
41
1
10
202.622918247989
20
328.007830694073
30
0
41
1
10
202.607043242659
20
328.019039483123
30
0
41
1
10
202.598783826841
20
328.023934605783
30
0
41
1
10
202.581824375961
20
328.032324127376
30
0
41
1
10
202.573100711043
20
328.035834357511
30
0
41
1
10
202.564143352863
20
328.038671830978
30
0
0
SPLINE
5
351
100
AcDbEntity
8
1
62
256
6
ByLayer
370
18
48
1
60
0
100
AcDbSpline
70
4
71
3
72
23
73
19
40
0
40
0
40
0
40
0
40
0.125000000001109
40
0.125000000001109
40
0.187500000001664
40
0.187500000001664
40
0.250000000002219
40
0.250000000002219
40
0.37500000000285
40
0.37500000000285
40
0.500000000003481
40
0.500000000003481
40
0.625000000004113
40
0.687500000003754
40
0.687500000003754
40
0.750000000003396
40
0.750000000003396
40
1
40
1
40
1
40
1
41
1
10
200.624368451609
20
327.926478275659
30
0
41
1
10
200.624726954269
20
327.937003350253
30
0
41
1
10
200.625975009932
20
327.947419831268
30
0
41
1
10
200.629179826358
20
327.962881718806
30
0
41
1
10
200.630480597752
20
327.968036985456
30
0
41
1
10
200.633493838547
20
327.9781337722
30
0
41
1
10
200.635200571853
20
327.983067384186
30
0
41
1
10
200.640892429849
20
327.997539625965
30
0
41
1
10
200.645445525083
20
328.006751833263
30
0
41
1
10
200.656018282196
20
328.024328374717
30
0
41
1
10
200.66208875041
20
328.032724949842
30
0
41
1
10
200.675145853372
20
328.048004823225
30
0
41
1
10
200.685697788383
20
328.058475019893
30
0
41
1
10
200.697310200373
20
328.067544312545
30
0
41
1
10
200.705287408862
20
328.073277105921
30
0
41
1
10
200.709405814415
20
328.075993030411
30
0
41
1
10
200.730214746183
20
328.088569979096
30
0
41
1
10
200.74778220746
20
328.09568554299
30
0
41
1
10
200.766148434052
20
328.100086829544
30
0
0
SPLINE
5
352
100
AcDbEntity
8
1
62
256
6
ByLayer
370
18
48
1
60
0
100
AcDbSpline
70
4
71
3
72
18
73
14
40
0
40
0
40
0
40
0
40
0.125000000000479
40
0.125000000000479
40
0.250000000000958
40
0.250000000000958
40
0.500000000000817
40
0.500000000000817
40
0.625000000000881
40
0.625000000000881
40
0.750000000000947
40
0.750000000000947
40
1
40
1
40
1
40
1
41
1
10
201.009927688927
20
328.263413440792
30
0
41
1
10
201.002129575767
20
328.252614543683
30
0
41
1
10
200.993876514349
20
328.242260288975
30
0
41
1
10
200.976483961849
20
328.222413614717
30
0
41
1
10
200.967374124253
20
328.212964248132
30
0
41
1
10
200.939295980223
20
328.186367058872
30
0
41
1
10
200.919427327838
20
328.170766478858
30
0
41
1
10
200.887976223303
20
328.150238362872
30
0
41
1
10
200.877231831446
20
328.14389698041
30
0
41
1
10
200.855629126385
20
328.132372736775
30
0
41
1
10
200.84471653806
20
328.127153298278
30
0
41
1
10
200.811639501587
20
328.113012506547
30
0
41
1
10
200.789137372289
20
328.105595903728
30
0
41
1
10
200.766148434052
20
328.100086829544
30
0
0
SPLINE
5
353
100
AcDbEntity
8
1
62
256
6
ByLayer
370
18
48
1
60
0
100
AcDbSpline
70
4
71
3
72
16
73
12
40
0
40
0
40
0
40
0
40
0.249999999999923
40
0.249999999999923
40
0.499999999999846
40
0.499999999999846
40
0.624999999999807
40
0.624999999999807
40
0.749999999999768
40
0.749999999999768
40
1
40
1
40
1
40
1
41
1
10
201.079763663424
20
328.601976109942
30
0
41
1
10
201.084892327355
20
328.578887516224
30
0
41
1
10
201.088124762572
20
328.555227076289
30
0
41
1
10
201.090485060746
20
328.506771200422
30
0
41
1
10
201.089602581985
20
328.482350654368
30
0
41
1
10
201.084927257564
20
328.445292963758
30
0
41
1
10
201.082804854137
20
328.432861554452
30
0
41
1
10
201.077337586381
20
328.407848722543
30
0
41
1
10
201.074037628838
20
328.395472931295
30
0
41
1
10
201.062416963121
20
328.358726966912
30
0
41
1
10
201.052394630807
20
328.334732698853
30
0
41
1
10
201.039832469155
20
328.311271093175
30
0
0
SPLINE
5
354
100
AcDbEntity
8
1
62
256
6
ByLayer
370
18
48
1
60
0
100
AcDbSpline
70
4
71
3
72
24
73
20
40
0
40
0
40
0
40
0
40
0.125000000000579
40
0.125000000000579
40
0.250000000001158
40
0.250000000001158
40
0.312500000000768
40
0.312500000000768
40
0.375000000000379
40
0.375000000000379
40
0.500000000000303
40
0.500000000000303
40
0.625000000000228
40
0.625000000000228
40
0.750000000000152
40
0.750000000000152
40
0.875000000000076
40
0.875000000000076
40
1
40
1
40
1
40
1
41
1
10
201.173649744547
20
328.805512094905
30
0
41
1
10
201.164381752074
20
328.800594411073
30
0
41
1
10
201.155391474598
20
328.794788213083
30
0
41
1
10
201.138820382081
20
328.781958285198
30
0
41
1
10
201.131163653639
20
328.774912255412
30
0
41
1
10
201.120603388064
20
328.763416932547
30
0
41
1
10
201.11722308382
20
328.75940905181
30
0
41
1
10
201.110874395204
20
328.751204295363
30
0
41
1
10
201.107902166146
20
328.747007342607
30
0
41
1
10
201.099565465253
20
328.734146338109
30
0
41
1
10
201.094777346032
20
328.725213782323
30
0
41
1
10
201.086699466623
20
328.70665842802
30
0
41
1
10
201.083471784108
20
328.697153430842
30
0
41
1
10
201.078629477379
20
328.678080735159
30
0
41
1
10
201.076991247354
20
328.668457674513
30
0
41
1
10
201.075236378401
20
328.649054306562
30
0
41
1
10
201.075138010443
20
328.639429439288
30
0
41
1
10
201.076381321295
20
328.620502365606
30
0
41
1
10
201.077721107867
20
328.611171435673
30
0
41
1
10
201.079763663424
20
328.601976109942
30
0
0
SPLINE
5
355
100
AcDbEntity
8
1
62
256
6
ByLayer
370
18
48
1
60
0
100
AcDbSpline
70
4
71
3
72
26
73
22
40
0
40
0
40
0
40
0
40
0.106262117410181
40
0.106262117410181
40
0.321802694815584
40
0.321802694815584
40
0.429572983518402
40
0.429572983518402
40
0.483458127869812
40
0.483458127869812
40
0.537343272221222
40
0.537343272221222
40
0.752883849626964
40
0.752883849626964
40
0.860654138329836
40
0.860654138329836
40
0.914539282681333
40
0.914539282681333
40
0.96842442703283
40
0.96842442703283
40
1
40
1
40
1
40
1
41
1
10
194.477352646573
20
328.545703674496
30
0
41
1
10
194.470080583621
20
328.577171580032
30
0
41
1
10
194.462194196773
20
328.609418185075
30
0
41
1
10
194.436413920027
20
328.709480918597
30
0
41
1
10
194.417049143635
20
328.777855050207
30
0
41
1
10
194.384939754264
20
328.882212092967
30
0
41
1
10
194.373722784002
20
328.917304454909
30
0
41
1
10
194.35611481802
20
328.970405958277
30
0
41
1
10
194.350114944564
20
328.988183760827
30
0
41
1
10
194.337850441488
20
329.023896210507
30
0
41
1
10
194.331573553859
20
329.041865231499
30
0
41
1
10
194.299660484298
20
329.131702944609
30
0
41
1
10
194.272738578143
20
329.202784486052
30
0
41
1
10
194.230259093398
20
329.308238607343
30
0
41
1
10
194.215748113636
20
329.343194273281
30
0
41
1
10
194.193442118796
20
329.39532838442
30
0
41
1
10
194.18591679482
20
329.412656473876
30
0
41
1
10
194.170683105097
20
329.447211154668
30
0
41
1
10
194.162956686495
20
329.464477209737
30
0
41
1
10
194.150632547448
20
329.491608047701
30
0
41
1
10
194.146066535533
20
329.501573272653
30
0
41
1
10
194.141487935996
20
329.511479878395
30
0
0
SPLINE
5
356
100
AcDbEntity
8
1
62
256
6
ByLayer
370
18
48
1
60
0
100
AcDbSpline
70
4
71
3
72
28
73
24
40
0
40
0
40
0
40
0
40
0.125260134881519
40
0.125260134881519
40
0.187890202322104
40
0.187890202322104
40
0.250520269762689
40
0.250520269762689
40
0.375780404643772
40
0.375780404643772
40
0.438410472084344
40
0.438410472084344
40
0.501040539524916
40
0.501040539524916
40
0.626300674406392
40
0.626300674406392
40
0.751560809287868
40
0.751560809287868
40
0.814190876728608
40
0.814190876728608
40
0.876820944169348
40
0.876820944169348
40
1
40
1
40
1
40
1
41
1
10
195.88453910278
20
322.878438476925
30
0
41
1
10
195.861969738009
20
322.892541381262
30
0
41
1
10
195.839069542146
20
322.90528753784
30
0
41
1
10
195.804363289798
20
322.922492952429
30
0
41
1
10
195.792735340376
20
322.927908568059
30
0
41
1
10
195.769388325154
20
322.938115414866
30
0
41
1
10
195.757637977816
20
322.942914681262
30
0
41
1
10
195.723134078386
20
322.956097982864
30
0
41
1
10
195.700856309602
20
322.96339571154
30
0
41
1
10
195.668778291589
20
322.972519850277
30
0
41
1
10
195.65826661822
20
322.975266763132
30
0
41
1
10
195.63795026488
20
322.980164969434
30
0
41
1
10
195.628234590367
20
322.982297494701
30
0
41
1
10
195.600416638778
20
322.987915156452
30
0
41
1
10
195.583631412903
20
322.990626303498
30
0
41
1
10
195.553855806875
20
322.994688501867
30
0
41
1
10
195.541317206671
20
322.995983485728
30
0
41
1
10
195.526051831626
20
322.99733470777
30
0
41
1
10
195.521550702461
20
322.997684608012
30
0
41
1
10
195.51375471489
20
322.998241968779
30
0
41
1
10
195.510471977556
20
322.998448492799
30
0
41
1
10
195.502725496002
20
322.998906889608
30
0
41
1
10
195.500067137101
20
322.999026361187
30
0
41
1
10
195.500010151683
20
322.999028916167
30
0
0
SPLINE
5
357
100
AcDbEntity
8
1
62
256
6
ByLayer
370
18
48
1
60
0
100
AcDbSpline
70
4
71
3
72
12
73
8
40
0
40
0
40
0
40
0
40
0.499999999999959
40
0.499999999999959
40
0.74999999999998
40
0.74999999999998
40
1
40
1
40
1
40
1
41
1
10
195.5
20
325.248552466183
30
0
41
1
10
195.5
20
325.362669146736
30
0
41
1
10
195.490312075138
20
325.474335340552
30
0
41
1
10
195.462407025071
20
325.638473847558
30
0
41
1
10
195.450854369779
20
325.692653476982
30
0
41
1
10
195.423331738361
20
325.799781551128
30
0
41
1
10
195.407520065376
20
325.852129245612
30
0
41
1
10
195.389774976893
20
325.903342918703
30
0
0
SPLINE
5
358
100
AcDbEntity
8
1
62
256
6
ByLayer
370
18
48
1
60
0
100
AcDbSpline
70
4
71
3
72
8
73
4
40
0
40
0
40
0
40
0
40
1
40
1
40
1
40
1
41
1
10
195.460603691393
20
323
30
0
41
1
10
195.473794256776
20
323
30
0
41
1
10
195.486925947824
20
322.999673986816
30
0
41
1
10
195.5
20
322.999029367963
30
0
0
SPLINE
5
359
100
AcDbEntity
8
1
62
256
6
ByLayer
370
18
48
1
60
0
100
AcDbSpline
70
4
71
3
72
103
73
99
40
0
40
0
40
0
40
0
40
0.0013989876616836
40
0.0013989876616836
40
0.0326052692972178
40
0.0326052692972178
40
0.0482084101149859
40
0.0482084101149859
40
0.0560099805238694
40
0.0560099805238694
40
0.0638115509327531
40
0.0638115509327531
40
0.0950178325682913
40
0.0950178325682913
40
0.12622411420383
40
0.12622411420383
40
0.134025684612718
40
0.134025684612718
40
0.141827255021607
40
0.141827255021607
40
0.157430395839378
40
0.173033536657149
40
0.173033536657149
40
0.176934321861587
40
0.176934321861587
40
0.180835107066025
40
0.188636677474911
40
0.188636677474911
40
0.219842959110469
40
0.219842959110469
40
0.251049240746028
40
0.251049240746028
40
0.282255522381586
40
0.282255522381586
40
0.290057092790476
40
0.290057092790476
40
0.297858663199367
40
0.313461804017148
40
0.313461804017148
40
0.344668085652722
40
0.344668085652722
40
0.375874367288296
40
0.375874367288296
40
0.391477508106084
40
0.39927907851497
40
0.39927907851497
40
0.407080648923857
40
0.407080648923857
40
0.438286930559444
40
0.438286930559444
40
0.469493212195031
40
0.500699493830619
40
0.531905775466206
40
0.531905775466206
40
0.539707345875103
40
0.539707345875103
40
0.547508916284
40
0.547508916284
40
0.563112057101793
40
0.563112057101793
40
0.594318338737381
40
0.625524620372968
40
0.625524620372968
40
0.656730902008555
40
0.656730902008555
40
0.672334042826342
40
0.680135613235235
40
0.680135613235235
40
0.687937183644129
40
0.687937183644129
40
0.719143465279716
40
0.750349746915304
40
0.750349746915304
40
0.781556028550891
40
0.781556028550891
40
0.812762310186479
40
0.812762310186479
40
0.820563880595379
40
0.820563880595379
40
0.828365451004279
40
0.828365451004279
40
0.843968591822068
40
0.843968591822068
40
0.875174873457656
40
0.875174873457656
40
0.906381155093245
40
0.906381155093245
40
0.937587436728833
40
0.937587436728833
40
0.953190577546627
40
0.953190577546627
40
0.957091362751074
40
0.957091362751074
40
0.960992147955521
40
0.960992147955521
40
0.968793718364414
40
0.968793718364414
40
1
40
1
40
1
40
1
41
1
10
191.537409741895
20
331.644815804403
30
0
41
1
10
191.537413131947
20
331.644816868204
30
0
41
1
10
191.537386229745
20
331.644808666382
30
0
41
1
10
191.536054242332
20
331.644401779321
30
0
41
1
10
191.519725909958
20
331.639406244397
30
0
41
1
10
191.472736367493
20
331.625104542947
30
0
41
1
10
191.453317324523
20
331.619202063323
30
0
41
1
10
191.418507170676
20
331.608653628817
30
0
41
1
10
191.405949737855
20
331.604852975272
30
0
41
1
10
191.378955087248
20
331.596696143352
30
0
41
1
10
191.364576056817
20
331.592357553776
30
0
41
1
10
191.288371443726
20
331.569406659165
30
0
41
1
10
191.213656105222
20
331.547027418786
30
0
41
1
10
191.038597525914
20
331.495208412099
30
0
41
1
10
190.938247861434
20
331.465766427724
30
0
41
1
10
190.797418009046
20
331.425073516765
30
0
41
1
10
190.768480521961
20
331.416740166362
30
0
41
1
10
190.7090710115
20
331.399696176805
30
0
41
1
10
190.678575433166
20
331.390978877195
30
0
41
1
10
190.585125665087
20
331.364372755794
30
0
41
1
10
190.455141521488
20
331.327643093947
30
0
41
1
10
190.314752765925
20
331.28866181446
30
0
41
1
10
190.223843476489
20
331.263670302305
30
0
41
1
10
190.205585723249
20
331.258663223402
30
0
41
1
10
190.168760128721
20
331.248589104133
30
0
41
1
10
190.113127220586
20
331.23340741048
30
0
41
1
10
190.05632605573
20
331.21802349286
30
0
41
1
10
189.86445378321
20
331.166334065521
30
0
41
1
10
189.702867497105
20
331.123676767173
30
0
41
1
10
189.364672353555
20
331.036670862703
30
0
41
1
10
189.188059008333
20
330.992320245995
30
0
41
1
10
188.820434477104
20
330.902745272943
30
0
41
1
10
188.629421230408
20
330.857519464376
30
0
41
1
10
188.381784196931
20
330.80092313647
30
0
41
1
10
188.331888679962
20
330.789618214344
30
0
41
1
10
188.23157624813
20
330.767094618787
30
0
41
1
10
188.080230545562
20
330.733416877856
30
0
41
1
10
187.926293255802
20
330.700108940463
30
0
41
1
10
187.615043663538
20
330.634106385884
30
0
41
1
10
187.403051025686
20
330.590923188854
30
0
41
1
10
186.970319018959
20
330.50680743188
30
0
41
1
10
186.749578697076
20
330.465874128972
30
0
41
1
10
186.411922744744
20
330.406609663996
30
0
41
1
10
186.241455992823
20
330.377511227579
30
0
41
1
10
186.068512706947
20
330.349297816886
30
0
41
1
10
185.952663337328
20
330.330695005087
30
0
41
1
10
185.894437895856
20
330.321493234496
30
0
41
1
10
185.602996401741
20
330.276188461543
30
0
41
1
10
185.368026276794
20
330.242065406871
30
0
41
1
10
184.894524929119
20
330.178394060876
30
0
41
1
10
184.41746191271
20
330.119297272934
30
0
41
1
10
183.691196450655
20
330.045327503717
30
0
41
1
10
183.199792778545
20
330.006409257724
30
0
41
1
10
182.890333197431
20
329.985519762489
30
0
41
1
10
182.828324509148
20
329.981513568362
30
0
41
1
10
182.704071089526
20
329.97384918639
30
0
41
1
10
182.641822116548
20
329.970191258813
30
0
41
1
10
182.455506751112
20
329.959787472529
30
0
41
1
10
182.331609445937
20
329.953594910919
30
0
41
1
10
181.960845665056
20
329.937219124633
30
0
41
1
10
181.468966031766
20
329.921257505882
30
0
41
1
10
180.981990312024
20
329.916718672945
30
0
41
1
10
180.497494275959
20
329.917710099819
30
0
41
1
10
180.256485910975
20
329.920971047197
30
0
41
1
10
179.896891747163
20
329.929857402961
30
0
41
1
10
179.717574879104
20
329.935299034551
30
0
41
1
10
179.538995489977
20
329.942206971358
30
0
41
1
10
179.420108826625
20
329.947134420183
30
0
41
1
10
179.360720347767
20
329.949760566277
30
0
41
1
10
179.064501026088
20
329.96367312059
30
0
41
1
10
178.599846430342
20
329.990708895704
30
0
41
1
10
178.153508138651
20
330.026001973301
30
0
41
1
10
177.716391227923
20
330.064790102381
30
0
41
1
10
177.502442487522
20
330.085932305022
30
0
41
1
10
177.084045915476
20
330.131076338599
30
0
41
1
10
176.879596034234
20
330.155078958147
30
0
41
1
10
176.630309298405
20
330.186457886758
30
0
41
1
10
176.580766469097
20
330.192802362981
30
0
41
1
10
176.482321494591
20
330.205617949707
30
0
41
1
10
176.433380000216
20
330.212094361733
30
0
41
1
10
176.287798014973
20
330.231661817285
30
0
41
1
10
176.192851544874
20
330.244829392075
30
0
41
1
10
175.914315144295
20
330.284536833658
30
0
41
1
10
175.737013779615
20
330.311281022576
30
0
41
1
10
175.399416773169
20
330.364467549019
30
0
41
1
10
175.239118917826
20
330.390911271649
30
0
41
1
10
174.936241908153
20
330.442648850517
30
0
41
1
10
174.793657770075
20
330.467944408726
30
0
41
1
10
174.594048546226
20
330.5043526785
30
0
41
1
10
174.529895032527
20
330.516232388566
30
0
41
1
10
174.452829179083
20
330.530685410142
30
0
41
1
10
174.437572445698
20
330.533556163755
30
0
41
1
10
174.407376103595
20
330.539255980972
30
0
41
1
10
174.392430024326
20
330.542086287069
30
0
41
1
10
174.348215827307
20
330.550484650393
30
0
41
1
10
174.319526342562
20
330.55596866755
30
0
41
1
10
174.180011692158
20
330.582786861956
30
0
41
1
10
174.080956133528
20
330.602314915998
30
0
41
1
10
173.994679084931
20
330.619571507916
30
0
0
SPLINE
5
35A
100
AcDbEntity
8
1
62
256
6
ByLayer
370
18
48
1
60
0
100
AcDbSpline
70
4
71
3
72
8
73
4
40
0
40
0
40
0
40
0
40
1
40
1
40
1
40
1
41
1
10
180.639353317246
20
328.040659793116
30
0
41
1
10
181.090257892705
20
328.034995026781
30
0
41
1
10
181.54379333697
20
328.043811653563
30
0
41
1
10
182
20
328.067720431666
30
0
0
SPLINE
5
35B
100
AcDbEntity
8
1
62
256
6
ByLayer
370
18
48
1
60
0
100
AcDbSpline
70
4
71
3
72
31
73
27
40
0
40
0
40
0
40
0
40
0.0312499999999886
40
0.0468749999999812
40
0.0468749999999812
40
0.0624999999999738
40
0.0624999999999738
40
0.124999999999958
40
0.124999999999958
40
0.249999999999951
40
0.249999999999951
40
0.374999999999944
40
0.374999999999944
40
0.499999999999937
40
0.499999999999937
40
0.531249999999951
40
0.531249999999951
40
0.562499999999965
40
0.562499999999965
40
0.624999999999969
40
0.624999999999969
40
0.749999999999979
40
0.749999999999979
40
0.87499999999999
40
0.87499999999999
40
1
40
1
40
1
40
1
41
1
10
193.793423689275
20
330.510533976637
30
0
41
1
10
193.690218495083
20
330.477623612841
30
0
41
1
10
193.53402016723
20
330.427959585728
30
0
41
1
10
193.37571199209
20
330.37791690565
30
0
41
1
10
193.269701267459
20
330.344478696188
30
0
41
1
10
193.216447113484
20
330.32771738592
30
0
41
1
10
192.949507596489
20
330.243901739645
30
0
41
1
10
192.733432404571
20
330.176699012159
30
0
41
1
10
192.077607520094
20
329.975400874376
30
0
41
1
10
191.630275335171
20
329.841617668919
30
0
41
1
10
190.714816846842
20
329.578817158195
30
0
41
1
10
190.246691490283
20
329.449794427945
30
0
41
1
10
189.288533490934
20
329.200431322342
30
0
41
1
10
188.798503810992
20
329.080086595576
30
0
41
1
10
188.171200058121
20
328.937617456809
30
0
41
1
10
188.044938769219
20
328.90950910542
30
0
41
1
10
187.791193023879
20
328.854218410014
30
0
41
1
10
187.663896678005
20
328.827077121512
30
0
41
1
10
187.281297917752
20
328.747358891711
30
0
41
1
10
187.025057467999
20
328.696438224553
30
0
41
1
10
186.25276309699
20
328.550884543695
30
0
41
1
10
185.733139845199
20
328.463470699254
30
0
41
1
10
184.684017044932
20
328.310478540701
30
0
41
1
10
184.154517383793
20
328.244901736351
30
0
41
1
10
183.085168647285
20
328.13781097337
30
0
41
1
10
182.545319945372
20
328.096299439002
30
0
41
1
10
182
20
328.067720431666
30
0
0
SPLINE
5
35C
100
AcDbEntity
8
1
62
256
6
ByLayer
370
18
48
1
60
0
100
AcDbSpline
70
4
71
3
72
29
73
25
40
0
40
0
40
0
40
0
40
0.125000000000297
40
0.125000000000297
40
0.187500000000432
40
0.187500000000432
40
0.250000000000567
40
0.250000000000567
40
0.375000000000617
40
0.375000000000617
40
0.437500000000497
40
0.437500000000497
40
0.500000000000378
40
0.562500000000258
40
0.562500000000258
40
0.625000000000138
40
0.625000000000138
40
0.749999999999922
40
0.749999999999922
40
0.812499999999813
40
0.812499999999813
40
0.874999999999704
40
0.874999999999704
40
1
40
1
40
1
40
1
41
1
10
193.408174669942
20
331.62239190585
30
0
41
1
10
193.407261843168
20
331.625026393249
30
0
41
1
10
193.409118907392
20
331.62772252926
30
0
41
1
10
193.415948897371
20
331.631860604303
30
0
41
1
10
193.418904564615
20
331.633255793465
30
0
41
1
10
193.42621648499
20
331.636080423212
30
0
41
1
10
193.430567485459
20
331.637504539724
30
0
41
1
10
193.445413844829
20
331.641732821959
30
0
41
1
10
193.457760926982
20
331.644524238024
30
0
41
1
10
193.479947971763
20
331.64868661394
30
0
41
1
10
193.487998492254
20
331.65007526558
30
0
41
1
10
193.504985677847
20
331.652787291849
30
0
41
1
10
193.52292075384
20
331.655447474271
30
0
41
1
10
193.542695980752
20
331.65801326464
30
0
41
1
10
193.563390997901
20
331.660534980115
30
0
41
1
10
193.574258864002
20
331.661780157982
30
0
41
1
10
193.607790171665
20
331.665400242106
30
0
41
1
10
193.631269362719
20
331.667653696557
30
0
41
1
10
193.668094762865
20
331.670820114259
30
0
41
1
10
193.680639669333
20
331.671839624676
30
0
41
1
10
193.7062790426
20
331.673807289297
30
0
41
1
10
193.719228710141
20
331.674744178159
30
0
41
1
10
193.758284865855
20
331.6774084696
30
0
41
1
10
193.784670515387
20
331.678996746554
30
0
41
1
10
193.811406912313
20
331.680397941743
30
0
0
SPLINE
5
35D
100
AcDbEntity
8
1
62
256
6
ByLayer
370
18
48
1
60
0
100
AcDbSpline
70
4
71
3
72
55
73
51
40
0
40
0
40
0
40
0
40
0.00035458100346
40
0.00035458100346
40
0.0628324196907392
40
0.0628324196907392
40
0.125310258378018
40
0.125310258378018
40
0.187788097065298
40
0.187788097065298
40
0.21902701640894
40
0.21902701640894
40
0.226836746244847
40
0.226836746244847
40
0.234646476080754
40
0.250265935752563
40
0.250265935752563
40
0.31274377443982
40
0.31274377443982
40
0.375221613127078
40
0.375221613127078
40
0.437699451814335
40
0.437699451814335
40
0.453318911486152
40
0.453318911486152
40
0.468938371157969
40
0.500177290501603
40
0.500177290501603
40
0.562655129188859
40
0.625132967876115
40
0.625132967876115
40
0.65637188721975
40
0.65637188721975
40
0.671991346891568
40
0.679801076727477
40
0.679801076727477
40
0.687610806563386
40
0.687610806563386
40
0.75008864525072
40
0.75008864525072
40
0.812566483938054
40
0.875044322625388
40
0.875044322625388
40
0.906283241969064
40
0.906283241969064
40
0.921902701640893
40
0.921902701640893
40
0.937522161312722
40
0.937522161312722
40
1
40
1
40
1
40
1
41
1
10
170.250001380753
20
327.150000114253
30
0
41
1
10
170.250000384059
20
327.150000031779
30
0
41
1
10
170.249998840929
20
327.14999990409
30
0
41
1
10
170.250044569291
20
327.150003688013
30
0
41
1
10
170.266528937582
20
327.151367525732
30
0
41
1
10
170.331401265375
20
327.156737270292
30
0
41
1
10
170.379791583413
20
327.160743373469
30
0
41
1
10
170.508318520585
20
327.17139205836
30
0
41
1
10
170.588454178849
20
327.178034539643
30
0
41
1
10
170.732939643607
20
327.190024121879
30
0
41
1
10
170.785154711503
20
327.194358852005
30
0
41
1
10
170.855589393721
20
327.200209568549
30
0
41
1
10
170.869935166737
20
327.201401373527
30
0
41
1
10
170.899068665302
20
327.203822049906
30
0
41
1
10
170.943459205471
20
327.207510937087
30
0
41
1
10
170.989908997982
20
327.211372624855
30
0
41
1
10
171.149273546104
20
327.224625938024
30
0
41
1
10
171.291238392322
20
327.236445304042
30
0
41
1
10
171.603460423349
20
327.262483179958
30
0
41
1
10
171.773718836539
20
327.276701760391
30
0
41
1
10
172.142585643364
20
327.307567166572
30
0
41
1
10
172.34119233573
20
327.324213798518
30
0
41
1
10
172.607649444409
20
327.346598269284
30
0
41
1
10
172.661876603411
20
327.351156156407
30
0
41
1
10
172.772073488144
20
327.360423591387
30
0
41
1
10
172.939486771081
20
327.374510528652
30
0
41
1
10
173.113180214888
20
327.389150465742
30
0
41
1
10
173.468797626932
20
327.419160741602
30
0
41
1
10
173.964868510841
20
327.461119196113
30
0
41
1
10
174.504095215017
20
327.506968625469
30
0
41
1
10
174.924847252527
20
327.542851901811
30
0
41
1
10
175.067824064196
20
327.555062741508
30
0
41
1
10
175.286435717728
20
327.573761865311
30
0
41
1
10
175.396778569173
20
327.583207182383
30
0
41
1
10
175.508691584088
20
327.592798046176
30
0
41
1
10
175.583651092432
20
327.599224538525
30
0
41
1
10
175.62132290731
20
327.60245550565
30
0
41
1
10
175.961113915617
20
327.63160959116
30
0
41
1
10
176.269691488417
20
327.658167064512
30
0
41
1
10
176.899502409733
20
327.712555596392
30
0
41
1
10
177.541971502951
20
327.768217892613
30
0
41
1
10
178.209550374351
20
327.826462152259
30
0
41
1
10
178.719806794873
20
327.871148463609
30
0
41
1
10
178.891490081522
20
327.886211318625
30
0
41
1
10
179.151454441919
20
327.909063330722
30
0
41
1
10
179.238621146339
20
327.916732912327
30
0
41
1
10
179.413013086384
20
327.932091984383
30
0
41
1
10
179.500284788287
20
327.939785540359
30
0
41
1
10
179.937018121735
20
327.978323485722
30
0
41
1
10
180.287601817519
20
328.009378146377
30
0
41
1
10
180.639353317246
20
328.040659793116
30
0
0
SPLINE
5
35E
100
AcDbEntity
8
1
62
256
6
ByLayer
370
18
48
1
60
0
100
AcDbSpline
70
4
71
3
72
46
73
42
40
0
40
0
40
0
40
0
40
0.124999999999998
40
0.124999999999998
40
0.187499999999993
40
0.187499999999993
40
0.20312499999999
40
0.20312499999999
40
0.218749999999987
40
0.249999999999981
40
0.249999999999981
40
0.312499999999959
40
0.374999999999937
40
0.374999999999937
40
0.437499999999916
40
0.437499999999916
40
0.499999999999894
40
0.499999999999894
40
0.531249999999891
40
0.531249999999891
40
0.546874999999887
40
0.546874999999887
40
0.562499999999883
40
0.562499999999883
40
0.624999999999869
40
0.624999999999869
40
0.687499999999854
40
0.687499999999854
40
0.749999999999839
40
0.749999999999839
40
0.812499999999824
40
0.812499999999824
40
0.828124999999828
40
0.828124999999828
40
0.843749999999832
40
0.843749999999832
40
0.874999999999858
40
0.874999999999858
40
0.937499999999929
40
0.937499999999929
40
1
40
1
40
1
40
1
41
1
10
173.994679084931
20
330.619571507916
30
0
41
1
10
174.074837494337
20
330.576432822788
30
0
41
1
10
174.181437811275
20
330.519270351303
30
0
41
1
10
174.380887513514
20
330.41358603756
30
0
41
1
10
174.453977501389
20
330.37503249412
30
0
41
1
10
174.553714541796
20
330.322788060823
30
0
41
1
10
174.574077835279
20
330.312138260908
30
0
41
1
10
174.61551335161
20
330.290505612612
30
0
41
1
10
174.678776224765
20
330.257532907497
30
0
41
1
10
174.745341149393
20
330.223023326016
30
0
41
1
10
174.882817691656
20
330.152044114848
30
0
41
1
10
175.077700462397
20
330.05217961439
30
0
41
1
10
175.295407287948
20
329.942784805084
30
0
41
1
10
175.524543456333
20
329.829085479025
30
0
41
1
10
175.644824943631
20
329.770082741716
30
0
41
1
10
175.897044734694
20
329.648253087849
30
0
41
1
10
176.028980774948
20
329.585425071285
30
0
41
1
10
176.235994944844
20
329.488711785226
30
0
41
1
10
176.306520276564
20
329.456062628093
30
0
41
1
10
176.414659219343
20
329.406527379411
30
0
41
1
10
176.451120579539
20
329.389911670165
30
0
41
1
10
176.524726759913
20
329.35655495387
30
0
41
1
10
176.56185009177
20
329.33982356441
30
0
41
1
10
176.749080707277
20
329.255933161786
30
0
41
1
10
176.904016042593
20
329.188068418562
30
0
41
1
10
177.224724871556
20
329.051722501844
30
0
41
1
10
177.390494011313
20
328.983238251358
30
0
41
1
10
177.733818479166
20
328.846721363875
30
0
41
1
10
177.911366123757
20
328.778683883338
30
0
41
1
10
178.279786042812
20
328.644427532753
30
0
41
1
10
178.470644338262
20
328.57820043509
30
0
41
1
10
178.719069907441
20
328.497712197488
30
0
41
1
10
178.769250538869
20
328.481730917901
30
0
41
1
10
178.870654294487
20
328.450037449506
30
0
41
1
10
178.921729508305
20
328.434371744621
30
0
41
1
10
179.075988159039
20
328.388011516552
30
0
41
1
10
179.180256365193
20
328.357935861574
30
0
41
1
10
179.497678460107
20
328.27069273015
30
0
41
1
10
179.715419486134
20
328.216479813602
30
0
41
1
10
180.165542548056
20
328.119171946695
30
0
41
1
10
180.397909709068
20
328.076064009922
30
0
41
1
10
180.639353317245
20
328.040659793116
30
0
0
SPLINE
5
35F
100
AcDbEntity
8
1
62
256
6
ByLayer
370
18
48
1
60
0
100
AcDbSpline
70
4
71
3
72
17
73
13
40
0
40
0
40
0
40
0
40
0.124678562232563
40
0.124678562232563
40
0.187017843348861
40
0.187017843348861
40
0.249357124465158
40
0.498714248930292
40
0.498714248930292
40
0.997428497860559
40
0.997428497860559
40
1
40
1
40
1
40
1
41
1
10
173.994679084931
20
330.619571507915
30
0
41
1
10
173.970503691458
20
330.618240328808
30
0
41
1
10
173.947758913462
20
330.616987866382
30
0
41
1
10
173.915817680079
20
330.615228929562
30
0
41
1
10
173.90552510766
20
330.61466212789
30
0
41
1
10
173.885713287418
20
330.613571091983
30
0
41
1
10
173.838146409426
20
330.610951536901
30
0
41
1
10
173.80030065956
20
330.60886714156
30
0
41
1
10
173.727719695705
20
330.604869537151
30
0
41
1
10
173.703591479013
20
330.603540432336
30
0
41
1
10
173.703536270209
20
330.603537391287
30
0
41
1
10
173.703537640171
20
330.603537466749
30
0
41
1
10
173.703538638757
20
330.603537521754
30
0
0
LINE
5
74
100
AcDbEntity
8
80
62
256
6
ByLayer
370
18
48
0.05
60
0
100
AcDbLine
10
0
20
0
30
0
11
-53
21
0
31
0
39
0
210
0
220
0
230
1
0
LINE
5
75
100
AcDbEntity
8
SK3
62
256
6
ByLayer
370
13
48
0.05
60
0
100
AcDbLine
10
26.2
20
21
30
0
11
18.8
21
21
31
0
39
0
210
0
220
0
230
1
0
LINE
5
77
100
AcDbEntity
8
SK3
62
256
6
ByLayer
370
13
48
0.05
60
0
100
AcDbLine
10
18
20
20.00625
30
0
11
1.03923
21
20.00625
31
0
39
0
210
0
220
0
230
1
0
LINE
5
78
100
AcDbEntity
8
SK3
62
256
6
ByLayer
370
13
48
0.05
60
0
100
AcDbLine
10
0
20
-20.60625
30
0
11
1.03923
21
-20.00625
31
0
39
0
210
0
220
0
230
1
0
LINE
5
79
100
AcDbEntity
8
SK3
62
256
6
ByLayer
370
13
48
0.05
60
0
100
AcDbLine
10
18.8
20
-21
30
0
11
26.2
21
-21
31
0
39
0
210
0
220
0
230
1
0
LINE
5
7A
100
AcDbEntity
8
SK3
62
256
6
ByLayer
370
13
48
0.05
60
0
100
AcDbLine
10
1.03923
20
-20.00625
30
0
11
18
21
-20.00625
31
0
39
0
210
0
220
0
230
1
0
LINE
5
7B
100
AcDbEntity
8
SK3
62
256
6
ByLayer
370
13
48
0.05
60
0
100
AcDbLine
10
1.03923
20
20.00625
30
0
11
0
21
20.60625
31
0
39
0
210
0
220
0
230
1
0
LINE
5
7C
100
AcDbEntity
8
SK3
62
256
6
ByLayer
370
13
48
0.05
60
0
100
AcDbLine
10
27
20
-20.2
30
0
11
27
21
20.2
31
0
39
0
210
0
220
0
230
1
0
LINE
5
7D
100
AcDbEntity
8
SK3
62
256
6
ByLayer
370
13
48
0.05
60
0
100
AcDbLine
10
26.2
20
-21
30
0
11
26.2
21
21
31
0
39
0
210
0
220
0
230
1
0
LINE
5
7E
100
AcDbEntity
8
SK3
62
256
6
ByLayer
370
13
48
0.05
60
0
100
AcDbLine
10
18.8
20
-21
30
0
11
18.8
21
21
31
0
39
0
210
0
220
0
230
1
0
LINE
5
7F
100
AcDbEntity
8
SK3
62
256
6
ByLayer
370
13
48
0.05
60
0
100
AcDbLine
10
18
20
-20.2
30
0
11
18
21
20.2
31
0
39
0
210
0
220
0
230
1
0
LINE
5
80
100
AcDbEntity
8
SK3
62
256
6
ByLayer
370
13
48
0.05
60
0
100
AcDbLine
10
1.03923
20
-20.00625
30
0
11
1.03923
21
20.00625
31
0
39
0
210
0
220
0
230
1
0
LINE
5
81
100
AcDbEntity
8
4
62
256
6
ByLayer
370
18
48
0.05
60
0
100
AcDbLine
10
0
20
0
30
0
11
86
21
0
31
0
39
0
210
0
220
0
230
1
0
LINE
5
83
100
AcDbEntity
8
SK4
62
256
6
ByLayer
370
18
48
0.05
60
0
100
AcDbLine
10
-9.861822
20
0
30
0
11
90.138178
21
0
31
0
39
0
210
0
220
0
230
1
0
LINE
5
85
100
AcDbEntity
8
1
62
256
6
ByLayer
370
18
48
1
60
0
100
AcDbLine
10
177.457318
20
276.444293
30
0
11
177.443952
21
276.444293
31
0
39
0
210
0
220
0
230
1
0
LINE
5
87
100
AcDbEntity
8
1
62
256
6
ByLayer
370
18
48
1
60
0
100
AcDbLine
10
172.556048
20
276.444293
30
0
11
172.542682
21
276.444293
31
0
39
0
210
0
220
0
230
1
0
LINE
5
88
100
AcDbEntity
8
1
62
256
6
ByLayer
370
18
48
1
60
0
100
AcDbLine
10
169.829197
20
276.180947
30
0
11
169.831865
21
276.202113
31
0
39
0
210
0
220
0
230
1
0
LINE
5
89
100
AcDbEntity
8
1
62
256
6
ByLayer
370
18
48
1
60
0
100
AcDbLine
10
180.170803
20
276.180947
30
0
11
180.168135
21
276.202113
31
0
39
0
210
0
220
0
230
1
0
LINE
5
8A
100
AcDbEntity
8
1
62
256
6
ByLayer
370
18
48
1
60
0
100
AcDbLine
10
181.696174
20
276.411796
30
0
11
181.698578
21
276.39542
31
0
39
0
210
0
220
0
230
1
0
LINE
5
8B
100
AcDbEntity
8
1
62
256
6
ByLayer
370
18
48
1
60
0
100
AcDbLine
10
168.303826
20
276.411796
30
0
11
168.301422
21
276.39542
31
0
39
0
210
0
220
0
230
1
0
LINE
5
8C
100
AcDbEntity
8
1
62
256
6
ByLayer
370
18
48
1
60
0
100
AcDbLine
10
182.530824
20
276.408141
30
0
11
182.532926
21
276.39542
31
0
39
0
210
0
220
0
230
1
0
LINE
5
8D
100
AcDbEntity
8
1
62
256
6
ByLayer
370
18
48
1
60
0
100
AcDbLine
10
167.469176
20
276.408141
30
0
11
167.467074
21
276.39542
31
0
39
0
210
0
220
0
230
1
0
LINE
5
8E
100
AcDbEntity
8
1
62
256
6
ByLayer
370
18
48
1
60
0
100
AcDbLine
10
183.246709
20
276.405179
30
0
11
183.248476
21
276.39542
31
0
39
0
210
0
220
0
230
1
0
LINE
5
8F
100
AcDbEntity
8
1
62
256
6
ByLayer
370
18
48
1
60
0
100
AcDbLine
10
166.753291
20
276.405179
30
0
11
166.751524
21
276.39542
31
0
39
0
210
0
220
0
230
1
0
LINE
5
90
100
AcDbEntity
8
1
62
256
6
ByLayer
370
18
48
1
60
0
100
AcDbLine
10
183.832538
20
276.402656
30
0
11
183.833943
21
276.39542
31
0
39
0
210
0
220
0
230
1
0
LINE
5
91
100
AcDbEntity
8
1
62
256
6
ByLayer
370
18
48
1
60
0
100
AcDbLine
10
166.167462
20
276.402656
30
0
11
166.166057
21
276.39542
31
0
39
0
210
0
220
0
230
1
0
LINE
5
92
100
AcDbEntity
8
1
62
256
6
ByLayer
370
18
48
1
60
0
100
AcDbLine
10
166.670964
20
276.180947
30
0
11
166.671984
21
276.185943
31
0
39
0
210
0
220
0
230
1
0
LINE
5
93
100
AcDbEntity
8
1
62
256
6
ByLayer
370
18
48
1
60
0
100
AcDbLine
10
183.329036
20
276.180947
30
0
11
183.328016
21
276.185943
31
0
39
0
210
0
220
0
230
1
0
LINE
5
94
100
AcDbEntity
8
1
62
256
6
ByLayer
370
18
48
1
60
0
100
AcDbLine
10
184.579272
20
276.398353
30
0
11
184.57989
21
276.39542
31
0
39
0
210
0
220
0
230
1
0
LINE
5
95
100
AcDbEntity
8
1
62
256
6
ByLayer
370
18
48
1
60
0
100
AcDbLine
10
165.420728
20
276.398353
30
0
11
165.42011
21
276.39542
31
0
39
0
210
0
220
0
230
1
0
LINE
5
96
100
AcDbEntity
8
1
62
256
6
ByLayer
370
18
48
1
60
0
100
AcDbLine
10
184.728399
20
276.396387
30
0
11
184.728606
21
276.39542
31
0
39
0
210
0
220
0
230
1
0
LINE
5
97
100
AcDbEntity
8
1
62
256
6
ByLayer
370
18
48
1
60
0
100
AcDbLine
10
165.271601
20
276.396387
30
0
11
165.271394
21
276.39542
31
0
39
0
210
0
220
0
230
1
0
LINE
5
98
100
AcDbEntity
8
81
62
256
6
ByLayer
370
18
48
0.05
60
0
100
AcDbLine
10
205
20
333
30
0
11
215.236752
21
333
31
0
39
0
210
0
220
0
230
1
0
LINE
5
99
100
AcDbEntity
8
2
62
256
6
ByLayer
370
13
48
1
60
0
100
AcDbLine
10
235
20
333
30
0
11
234.582003
21
329.825
31
0
39
0
210
0
220
0
230
1
0
LINE
5
9B
100
AcDbEntity
8
2
62
256
6
ByLayer
370
13
48
1
60
0
100
AcDbLine
10
207
20
333
30
0
11
237
21
333
31
0
39
0
210
0
220
0
230
1
0
LINE
5
9C
100
AcDbEntity
8
2
62
256
6
ByLayer
370
13
48
1
60
0
100
AcDbLine
10
234.582003
20
329.825
30
0
11
235.417997
21
329.825
31
0
39
0
210
0
220
0
230
1
0
LINE
5
9D
100
AcDbEntity
8
2
62
256
6
ByLayer
370
13
48
1
60
0
100
AcDbLine
10
235
20
333
30
0
11
235.417997
21
329.825
31
0
39
0
210
0
220
0
230
1
0
LINE
5
9E
100
AcDbEntity
8
2
62
256
6
ByLayer
370
13
48
1
60
0
100
AcDbLine
10
234.922654
20
331.825
30
0
11
234.791002
21
329.825
31
0
39
0
210
0
220
0
230
1
0
LINE
5
9F
100
AcDbEntity
8
2
62
256
6
ByLayer
370
13
48
1
60
0
100
AcDbLine
10
235.077346
20
331.825
30
0
11
235.208998
21
329.825
31
0
39
0
210
0
220
0
230
1
0
LINE
5
A0
100
AcDbEntity
8
2
62
256
6
ByLayer
370
13
48
1
60
0
100
AcDbLine
10
235
20
333
30
0
11
235
21
268
31
0
39
0
210
0
220
0
230
1
0
LINE
5
A1
100
AcDbEntity
8
2
62
256
6
ByLayer
370
18
48
1
60
0
100
AcDbLine
10
205
20
333
30
0
11
222.15324
21
333
31
0
39
0
210
0
220
0
230
1
0
LINE
5
A2
100
AcDbEntity
8
SK1
62
256
6
ByLayer
370
13
48
1
60
0
100
AcDbLine
10
-21.5
20
-42.694024
30
0
11
0.000188
21
-42.694024
31
0
39
0
210
0
220
0
230
1
0
LINE
5
A4
100
AcDbEntity
8
SK1
62
256
6
ByLayer
370
13
48
1
60
0
100
AcDbLine
10
-21.5
20
-29.148024
30
0
11
0.000188
21
-29.148024
31
0
39
0
210
0
220
0
230
1
0
LINE
5
A5
100
AcDbEntity
8
SK1
62
256
6
ByLayer
370
13
48
1
60
0
100
AcDbLine
10
-21.5
20
29.148024
30
0
11
0.000188
21
29.148024
31
0
39
0
210
0
220
0
230
1
0
LINE
5
A6
100
AcDbEntity
8
SK1
62
256
6
ByLayer
370
13
48
1
60
0
100
AcDbLine
10
-21.5
20
42.694024
30
0
11
0.000188
21
42.694024
31
0
39
0
210
0
220
0
230
1
0
LINE
5
A7
100
AcDbEntity
8
1
62
256
6
ByLayer
370
18
48
1
60
0
100
AcDbLine
10
177.770551
20
280.13272
30
0
11
177.773528
21
280.164959
31
0
39
0
210
0
220
0
230
1
0
LINE
5
A8
100
AcDbEntity
8
1
62
256
6
ByLayer
370
18
48
1
60
0
100
AcDbLine
10
186.137147
20
280.13272
30
0
11
186.134155
21
280.165849
31
0
39
0
210
0
220
0
230
1
0
LINE
5
A9
100
AcDbEntity
8
1
62
256
6
ByLayer
370
18
48
1
60
0
100
AcDbLine
10
179.221452
20
279.964744
30
0
11
179.218321
21
279.918247
31
0
39
0
210
0
220
0
230
1
0
LINE
5
AA
100
AcDbEntity
8
1
62
256
6
ByLayer
370
18
48
1
60
0
100
AcDbLine
10
178.291682
20
280.602299
30
0
11
178.331467
21
280.575125
31
0
39
0
210
0
220
0
230
1
0
LINE
5
AB
100
AcDbEntity
8
1
62
256
6
ByLayer
370
18
48
1
60
0
100
AcDbLine
10
184.691438
20
279.966433
30
0
11
184.69458
21
279.918247
31
0
39
0
210
0
220
0
230
1
0
LINE
5
AC
100
AcDbEntity
8
1
62
256
6
ByLayer
370
18
48
1
60
0
100
AcDbLine
10
185.591786
20
280.602299
30
0
11
185.550091
21
280.572885
31
0
39
0
210
0
220
0
230
1
0
LINE
5
AD
100
AcDbEntity
8
1
62
256
6
ByLayer
370
18
48
1
60
0
100
AcDbLine
10
180.086913
20
280.13272
30
0
11
180.088931
21
280.181593
31
0
39
0
210
0
220
0
230
1
0
LINE
5
AE
100
AcDbEntity
8
1
62
256
6
ByLayer
370
18
48
1
60
0
100
AcDbLine
10
180.088931
20
280.181593
30
0
11
179.711276
21
280.602294
31
0
39
0
210
0
220
0
230
1
0
LINE
5
AF
100
AcDbEntity
8
1
62
256
6
ByLayer
370
18
48
1
60
0
100
AcDbLine
10
180.088931
20
280.181593
30
0
11
180.116638
21
280.181593
31
0
39
0
210
0
220
0
230
1
0
LINE
5
B0
100
AcDbEntity
8
1
62
256
6
ByLayer
370
18
48
1
60
0
100
AcDbLine
10
183.812775
20
280.13272
30
0
11
183.810865
21
280.181593
31
0
39
0
210
0
220
0
230
1
0
LINE
5
B1
100
AcDbEntity
8
1
62
256
6
ByLayer
370
18
48
1
60
0
100
AcDbLine
10
183.780556
20
280.181593
30
0
11
183.810865
21
280.181593
31
0
39
0
210
0
220
0
230
1
0
LINE
5
B2
100
AcDbEntity
8
1
62
256
6
ByLayer
370
18
48
1
60
0
100
AcDbLine
10
183.810865
20
280.181593
30
0
11
184.168314
21
280.602294
31
0
39
0
210
0
220
0
230
1
0
LINE
5
B3
100
AcDbEntity
8
1
62
256
6
ByLayer
370
18
48
1
60
0
100
AcDbLine
10
186.75
20
279.0613
30
0
11
179.18791
21
279.0613
31
0
39
0
210
0
220
0
230
1
0
LINE
5
B4
100
AcDbEntity
8
1
62
256
6
ByLayer
370
18
48
1
60
0
100
AcDbLine
10
179.18791
20
279.0613
30
0
11
177.25
21
279.0613
31
0
39
0
210
0
220
0
230
1
0
LINE
5
B5
100
AcDbEntity
8
1
62
256
6
ByLayer
370
18
48
1
60
0
100
AcDbLine
10
181.299674
20
280.13272
30
0
11
181.300387
21
280.181593
31
0
39
0
210
0
220
0
230
1
0
LINE
5
B6
100
AcDbEntity
8
1
62
256
6
ByLayer
370
18
48
1
60
0
100
AcDbLine
10
181.300387
20
280.181593
30
0
11
181.166958
21
280.602294
31
0
39
0
210
0
220
0
230
1
0
LINE
5
B7
100
AcDbEntity
8
1
62
256
6
ByLayer
370
18
48
1
60
0
100
AcDbLine
10
181.300387
20
280.181593
30
0
11
181.359
21
280.181593
31
0
39
0
210
0
220
0
230
1
0
LINE
5
B8
100
AcDbEntity
8
1
62
256
6
ByLayer
370
18
48
1
60
0
100
AcDbLine
10
182.598356
20
280.13272
30
0
11
182.597753
21
280.181593
31
0
39
0
210
0
220
0
230
1
0
LINE
5
B9
100
AcDbEntity
8
1
62
256
6
ByLayer
370
18
48
1
60
0
100
AcDbLine
10
182.536597
20
280.181593
30
0
11
182.597753
21
280.181593
31
0
39
0
210
0
220
0
230
1
0
LINE
5
BA
100
AcDbEntity
8
1
62
256
6
ByLayer
370
18
48
1
60
0
100
AcDbLine
10
182.597753
20
280.181593
30
0
11
182.710653
21
280.602294
31
0
39
0
210
0
220
0
230
1
0
LINE
5
BB
100
AcDbEntity
8
1
62
256
6
ByLayer
370
18
48
1
60
0
100
AcDbLine
10
192.323045
20
280.571969
30
0
11
192.928435
21
280.571969
31
0
39
0
210
0
220
0
230
1
0
LINE
5
BC
100
AcDbEntity
8
1
62
256
6
ByLayer
370
18
48
1
60
0
100
AcDbLine
10
192.95641
20
280.571969
30
0
11
193.397953
21
280.571969
31
0
39
0
210
0
220
0
230
1
0
LINE
5
BD
100
AcDbEntity
8
1
62
256
6
ByLayer
370
18
48
1
60
0
100
AcDbLine
10
193.416985
20
280.571969
30
0
11
193.687718
21
280.571969
31
0
39
0
210
0
220
0
230
1
0
LINE
5
BE
100
AcDbEntity
8
1
62
256
6
ByLayer
370
18
48
1
60
0
100
AcDbLine
10
193.697508
20
280.571969
30
0
11
193.79316
21
280.571969
31
0
39
0
210
0
220
0
230
1
0
LINE
5
BF
100
AcDbEntity
8
1
62
256
6
ByLayer
370
18
48
1
60
0
100
AcDbLine
10
170.206421
20
280.571969
30
0
11
170.287382
21
280.571969
31
0
39
0
210
0
220
0
230
1
0
LINE
5
C0
100
AcDbEntity
8
1
62
256
6
ByLayer
370
18
48
1
60
0
100
AcDbLine
10
170.296392
20
280.571969
30
0
11
170.55264
21
280.571969
31
0
39
0
210
0
220
0
230
1
0
LINE
5
C1
100
AcDbEntity
8
1
62
256
6
ByLayer
370
18
48
1
60
0
100
AcDbLine
10
170.57091
20
280.571969
30
0
11
170.998429
21
280.571969
31
0
39
0
210
0
220
0
230
1
0
LINE
5
C2
100
AcDbEntity
8
1
62
256
6
ByLayer
370
18
48
1
60
0
100
AcDbLine
10
171.025672
20
280.571969
30
0
11
171.617719
21
280.571969
31
0
39
0
210
0
220
0
230
1
0
LINE
5
C3
100
AcDbEntity
8
1
62
256
6
ByLayer
370
18
48
1
60
0
100
AcDbLine
10
171.653506
20
280.571969
30
0
11
172.400745
21
280.571969
31
0
39
0
210
0
220
0
230
1
0
LINE
5
C4
100
AcDbEntity
8
1
62
256
6
ByLayer
370
18
48
1
60
0
100
AcDbLine
10
172.44451
20
280.571969
30
0
11
173.335156
21
280.571969
31
0
39
0
210
0
220
0
230
1
0
LINE
5
C5
100
AcDbEntity
8
1
62
256
6
ByLayer
370
18
48
1
60
0
100
AcDbLine
10
173.38621
20
280.571969
30
0
11
174.406217
21
280.571969
31
0
39
0
210
0
220
0
230
1
0
LINE
5
C6
100
AcDbEntity
8
1
62
256
6
ByLayer
370
18
48
1
60
0
100
AcDbLine
10
174.463754
20
280.571969
30
0
11
175.597037
21
280.571969
31
0
39
0
210
0
220
0
230
1
0
LINE
5
C7
100
AcDbEntity
8
1
62
256
6
ByLayer
370
18
48
1
60
0
100
AcDbLine
10
175.66015
20
280.571969
30
0
11
176.888835
21
280.571969
31
0
39
0
210
0
220
0
230
1
0
LINE
5
C8
100
AcDbEntity
8
1
62
256
6
ByLayer
370
18
48
1
60
0
100
AcDbLine
10
176.956529
20
280.571969
30
0
11
178.261239
21
280.571969
31
0
39
0
210
0
220
0
230
1
0
LINE
5
C9
100
AcDbEntity
8
1
62
256
6
ByLayer
370
18
48
1
60
0
100
AcDbLine
10
178.332446
20
280.571969
30
0
11
179.692606
21
280.571969
31
0
39
0
210
0
220
0
230
1
0
LINE
5
CA
100
AcDbEntity
8
1
62
256
6
ByLayer
370
18
48
1
60
0
100
AcDbLine
10
179.766203
20
280.571969
30
0
11
181.160362
21
280.571969
31
0
39
0
210
0
220
0
230
1
0
LINE
5
CB
100
AcDbEntity
8
1
62
256
6
ByLayer
370
18
48
1
60
0
100
AcDbLine
10
181.235188
20
280.571969
30
0
11
182.641359
21
280.571969
31
0
39
0
210
0
220
0
230
1
0
LINE
5
CC
100
AcDbEntity
8
1
62
256
6
ByLayer
370
18
48
1
60
0
100
AcDbLine
10
182.716235
20
280.571969
30
0
11
184.112242
21
280.571969
31
0
39
0
210
0
220
0
230
1
0
LINE
5
CD
100
AcDbEntity
8
1
62
256
6
ByLayer
370
18
48
1
60
0
100
AcDbLine
10
184.185986
20
280.571969
30
0
11
185.549813
21
280.571969
31
0
39
0
210
0
220
0
230
1
0
LINE
5
CE
100
AcDbEntity
8
1
62
256
6
ByLayer
370
18
48
1
60
0
100
AcDbLine
10
185.621263
20
280.571969
30
0
11
186.931402
21
280.571969
31
0
39
0
210
0
220
0
230
1
0
LINE
5
CF
100
AcDbEntity
8
1
62
256
6
ByLayer
370
18
48
1
60
0
100
AcDbLine
10
186.99943
20
280.571969
30
0
11
188.235219
21
280.571969
31
0
39
0
210
0
220
0
230
1
0
LINE
5
D0
100
AcDbEntity
8
1
62
256
6
ByLayer
370
18
48
1
60
0
100
AcDbLine
10
188.298754
20
280.571969
30
0
11
189.440704
21
280.571969
31
0
39
0
210
0
220
0
230
1
0
LINE
5
D1
100
AcDbEntity
8
1
62
256
6
ByLayer
370
18
48
1
60
0
100
AcDbLine
10
189.498742
20
280.571969
30
0
11
190.528844
21
280.571969
31
0
39
0
210
0
220
0
230
1
0
LINE
5
D2
100
AcDbEntity
8
1
62
256
6
ByLayer
370
18
48
1
60
0
100
AcDbLine
10
190.580471
20
280.571969
30
0
11
191.482479
21
280.571969
31
0
39
0
210
0
220
0
230
1
0
LINE
5
D3
100
AcDbEntity
8
1
62
256
6
ByLayer
370
18
48
1
60
0
100
AcDbLine
10
191.52688
20
280.571969
30
0
11
192.28657
21
280.571969
31
0
39
0
210
0
220
0
230
1
0
LINE
5
D4
100
AcDbEntity
8
1
62
256
6
ByLayer
370
18
48
1
60
0
100
AcDbLine
10
204.416811
20
332.953632
30
0
11
195.919582
21
328.435575
31
0
39
0
210
0
220
0
230
1
0
LINE
5
D5
100
AcDbEntity
8
1
62
256
6
ByLayer
370
18
48
1
60
0
100
AcDbLine
10
204.663903
20
322.971516
30
0
11
204.999766
21
332.589361
31
0
39
0
210
0
220
0
230
1
0
LINE
5
D6
100
AcDbEntity
8
1
62
256
6
ByLayer
370
18
48
1
60
0
100
AcDbLine
10
195.895592
20
327.748586
30
0
11
204.056958
21
322.648798
31
0
39
0
210
0
220
0
230
1
0
LINE
5
D7
100
AcDbEntity
8
1
62
256
6
ByLayer
370
18
48
1
60
0
100
AcDbLine
10
142.458467
20
-320.459942
30
0
11
142.211797
21
-320.459942
31
0
39
0
210
0
220
0
230
1
0
LINE
5
D8
100
AcDbEntity
8
1
62
256
6
ByLayer
370
18
48
1
60
0
100
AcDbLine
10
142.486481
20
-320.226698
30
0
11
142.458467
21
-320.459942
31
0
39
0
210
0
220
0
230
1
0
LINE
5
D9
100
AcDbEntity
8
1
62
256
6
ByLayer
370
18
48
1
60
0
100
AcDbLine
10
158.8
20
273.25
30
0
11
158.8
21
293.25
31
0
39
0
210
0
220
0
230
1
0
LINE
5
DA
100
AcDbEntity
8
1
62
256
6
ByLayer
370
18
48
1
60
0
100
AcDbLine
10
186.75
20
279.0613
30
0
11
177.25
21
279.0613
31
0
39
0
210
0
220
0
230
1
0
LINE
5
DB
100
AcDbEntity
8
1
62
256
6
ByLayer
370
18
48
1
60
0
100
AcDbLine
10
168.62
20
-251.249857
30
0
11
168.62
21
-238.250001
31
0
39
0
210
0
220
0
230
1
0
LINE
5
DC
100
AcDbEntity
8
1
62
256
6
ByLayer
370
13
48
1
60
0
100
AcDbLine
10
167.62
20
-250.249489
30
0
11
167.62
21
-237.25
31
0
39
0
210
0
220
0
230
1
0
LINE
5
DD
100
AcDbEntity
8
1
62
256
6
ByLayer
370
18
48
1
60
0
100
AcDbLine
10
131
20
60
30
0
11
131
21
67.951913
31
0
39
0
210
0
220
0
230
1
0
LINE
5
DE
100
AcDbEntity
8
1
62
256
6
ByLayer
370
18
48
1
60
0
100
AcDbLine
10
56.5
20
-232.864029
30
0
11
58.028739
21
-232.864029
31
0
39
0
210
0
220
0
230
1
0
LINE
5
DF
100
AcDbEntity
8
1
62
256
6
ByLayer
370
18
48
1
60
0
100
AcDbLine
10
56
20
-232.364029
30
0
11
56.162501
21
-232.364029
31
0
39
0
210
0
220
0
230
1
0
LINE
5
E0
100
AcDbEntity
8
1
62
256
6
ByLayer
370
18
48
1
60
0
100
AcDbLine
10
158.5
20
328.1023
30
0
11
158.5
21
327.327018
31
0
39
0
210
0
220
0
230
1
0
LINE
5
E1
100
AcDbEntity
8
1
62
256
6
ByLayer
370
18
48
1
60
0
100
AcDbLine
10
154.143006
20
328.1023
30
0
11
150.495593
21
327.327018
31
0
39
0
210
0
220
0
230
1
0
LINE
5
E2
100
AcDbEntity
8
1
62
256
6
ByLayer
370
18
48
1
60
0
100
AcDbLine
10
132.343755
20
323.468726
30
0
11
132
21
323.395659
31
0
39
0
210
0
220
0
230
1
0
LINE
5
E3
100
AcDbEntity
8
1
62
256
6
ByLayer
370
18
48
1
60
0
100
AcDbLine
10
132
20
298.228938
30
0
11
132
21
323.395659
31
0
39
0
210
0
220
0
230
1
0
LINE
5
E4
100
AcDbEntity
8
1
62
256
6
ByLayer
370
18
48
1
60
0
100
AcDbLine
10
158.5
20
235.249777
30
0
11
158.5
21
212.5523
31
0
39
0
210
0
220
0
230
1
0
LINE
5
E5
100
AcDbEntity
8
1
62
256
6
ByLayer
370
18
48
1
60
0
100
AcDbLine
10
158.5
20
212.5523
30
0
11
158.4
21
212.5523
31
0
39
0
210
0
220
0
230
1
0
LINE
5
E6
100
AcDbEntity
8
1
62
256
6
ByLayer
370
18
48
1
60
0
100
AcDbLine
10
158
20
212.5523
30
0
11
158.4
21
212.5523
31
0
39
0
210
0
220
0
230
1
0
LINE
5
E7
100
AcDbEntity
8
1
62
256
6
ByLayer
370
13
48
1
60
0
100
AcDbLine
10
158.4
20
235.249777
30
0
11
158.4
21
212.5523
31
0
39
0
210
0
220
0
230
1
0
LINE
5
E8
100
AcDbEntity
8
1
62
256
6
ByLayer
370
18
48
1
60
0
100
AcDbLine
10
139.898854
20
325.074612
30
0
11
132.343755
21
323.468726
31
0
39
0
210
0
220
0
230
1
0
LINE
5
E9
100
AcDbEntity
8
1
62
256
6
ByLayer
370
18
48
1
60
0
100
AcDbLine
10
132.343755
20
323.468726
30
0
11
132.343755
21
298.220698
31
0
39
0
210
0
220
0
230
1
0
LINE
5
EA
100
AcDbEntity
8
1
62
256
6
ByLayer
370
13
48
1
60
0
100
AcDbLine
10
145.312491
20
303.688037
30
0
11
145.312491
21
324.882912
31
0
39
0
210
0
220
0
230
1
0
LINE
5
EB
100
AcDbEntity
8
1
62
256
6
ByLayer
370
13
48
1
60
0
100
AcDbLine
10
145.312491
20
297.847208
30
0
11
145.312491
21
300.316563
31
0
39
0
210
0
220
0
230
1
0
LINE
5
EC
100
AcDbEntity
8
1
62
256
6
ByLayer
370
18
48
1
60
0
100
AcDbLine
10
158.5
20
257.206751
30
0
11
158.5
21
255.249938
31
0
39
0
210
0
220
0
230
1
0
LINE
5
ED
100
AcDbEntity
8
1
62
256
6
ByLayer
370
18
48
1
60
0
100
AcDbLine
10
158.5
20
257.206751
30
0
11
158.5
21
273.249833
31
0
39
0
210
0
220
0
230
1
0
LINE
5
EE
100
AcDbEntity
8
1
62
256
6
ByLayer
370
18
48
1
60
0
100
AcDbLine
10
158.4
20
257.206751
30
0
11
158.5
21
257.206751
31
0
39
0
210
0
220
0
230
1
0
LINE
5
EF
100
AcDbEntity
8
1
62
256
6
ByLayer
370
13
48
1
60
0
100
AcDbLine
10
158.4
20
273.249833
30
0
11
158.4
21
257.206751
31
0
39
0
210
0
220
0
230
1
0
LINE
5
F0
100
AcDbEntity
8
1
62
256
6
ByLayer
370
13
48
1
60
0
100
AcDbLine
10
158.4
20
257.206751
30
0
11
158.4
21
255.249938
31
0
39
0
210
0
220
0
230
1
0
LINE
5
F1
100
AcDbEntity
8
1
62
256
6
ByLayer
370
18
48
1
60
0
100
AcDbLine
10
158.5
20
295.2523
30
0
11
158.5
21
293.249928
31
0
39
0
210
0
220
0
230
1
0
LINE
5
F2
100
AcDbEntity
8
1
62
256
6
ByLayer
370
13
48
1
60
0
100
AcDbLine
10
158.4
20
295.2523
30
0
11
158.4
21
293.249928
31
0
39
0
210
0
220
0
230
1
0
LINE
5
F3
100
AcDbEntity
8
1
62
256
6
ByLayer
370
18
48
1
60
0
100
AcDbLine
10
146
20
317.1829
30
0
11
146
21
292.466236
31
0
39
0
210
0
220
0
230
1
0
LINE
5
F4
100
AcDbEntity
8
1
62
256
6
ByLayer
370
18
48
1
60
0
100
AcDbLine
10
158.5
20
317.1829
30
0
11
158.5
21
295.2523
31
0
39
0
210
0
220
0
230
1
0
LINE
5
F5
100
AcDbEntity
8
1
62
256
6
ByLayer
370
18
48
1
60
0
100
AcDbLine
10
158
20
226.5523
30
0
11
158
21
294.8523
31
0
39
0
210
0
220
0
230
1
0
LINE
5
F6
100
AcDbEntity
8
1
62
256
6
ByLayer
370
18
48
1
60
0
100
AcDbLine
10
158.5
20
295.2523
30
0
11
158.4
21
295.2523
31
0
39
0
210
0
220
0
230
1
0
LINE
5
F7
100
AcDbEntity
8
1
62
256
6
ByLayer
370
18
48
1
60
0
100
AcDbLine
10
146
20
317.1829
30
0
11
146
21
324.685431
31
0
39
0
210
0
220
0
230
1
0
LINE
5
F8
100
AcDbEntity
8
1
62
256
6
ByLayer
370
18
48
1
60
0
100
AcDbLine
10
158.5
20
327.327018
30
0
11
158.5
21
317.1829
31
0
39
0
210
0
220
0
230
1
0
LINE
5
F9
100
AcDbEntity
8
1
62
256
6
ByLayer
370
13
48
1
60
0
100
AcDbLine
10
158.5
20
327.327018
30
0
11
150.495593
21
327.327018
31
0
39
0
210
0
220
0
230
1
0
LINE
5
FA
100
AcDbEntity
8
1
62
256
6
ByLayer
370
18
48
1
60
0
100
AcDbLine
10
150.495593
20
327.327018
30
0
11
139.898854
21
325.074612
31
0
39
0
210
0
220
0
230
1
0
LINE
5
FB
100
AcDbEntity
8
1
62
256
6
ByLayer
370
18
48
1
60
0
100
AcDbLine
10
145.312491
20
324.882912
30
0
11
139.898854
21
325.074612
31
0
39
0
210
0
220
0
230
1
0
LINE
5
FC
100
AcDbEntity
8
1
62
256
6
ByLayer
370
18
48
1
60
0
100
AcDbLine
10
146
20
317.1829
30
0
11
158.5
21
317.1829
31
0
39
0
210
0
220
0
230
1
0
LINE
5
FD
100
AcDbEntity
8
1
62
256
6
ByLayer
370
18
48
1
60
0
100
AcDbLine
10
158
20
212.5523
30
0
11
146
21
212.5523
31
0
39
0
210
0
220
0
230
1
0
LINE
5
FE
100
AcDbEntity
8
1
62
256
6
ByLayer
370
18
48
1
60
0
100
AcDbLine
10
158
20
226.5523
30
0
11
158
21
212.5523
31
0
39
0
210
0
220
0
230
1
0
LINE
5
FF
100
AcDbEntity
8
1
62
256
6
ByLayer
370
18
48
1
60
0
100
AcDbLine
10
146
20
226.5523
30
0
11
158
21
226.5523
31
0
39
0
210
0
220
0
230
1
0
LINE
5
100
100
AcDbEntity
8
1
62
256
6
ByLayer
370
18
48
1
60
0
100
AcDbLine
10
142.785
20
77.8
30
0
11
142.785
21
62.2
31
0
39
0
210
0
220
0
230
1
0
LINE
5
101
100
AcDbEntity
8
1
62
256
6
ByLayer
370
13
48
1
60
0
100
AcDbLine
10
141.585
20
79
30
0
11
141.585
21
61
31
0
39
0
210
0
220
0
230
1
0
LINE
5
102
100
AcDbEntity
8
1
62
256
6
ByLayer
370
18
48
1
60
0
100
AcDbLine
10
168.62
20
-265.25
30
0
11
168.62
21
-251.25
31
0
39
0
210
0
220
0
230
1
0
LINE
5
103
100
AcDbEntity
8
1
62
256
6
ByLayer
370
13
48
1
60
0
100
AcDbLine
10
167.62
20
-266.25
30
0
11
167.62
21
-250.25
31
0
39
0
210
0
220
0
230
1
0
LINE
5
104
100
AcDbEntity
8
SK1
62
256
6
ByLayer
370
18
48
1
60
0
100
AcDbLine
10
-21.5
20
-29.148024
30
0
11
-21.5
21
-42.694024
31
0
39
0
210
0
220
0
230
1
0
LINE
5
105
100
AcDbEntity
8
SK1
62
256
6
ByLayer
370
18
48
1
60
0
100
AcDbLine
10
-20.273
20
-27.921024
30
0
11
-20.273
21
-43.921024
31
0
39
0
210
0
220
0
230
1
0
LINE
5
106
100
AcDbEntity
8
1
62
256
6
ByLayer
370
13
48
1
60
0
100
AcDbLine
10
167.62
20
266.25
30
0
11
167.62
21
253.249898
31
0
39
0
210
0
220
0
230
1
0
LINE
5
107
100
AcDbEntity
8
1
62
256
6
ByLayer
370
18
48
1
60
0
100
AcDbLine
10
168.62
20
265.25
30
0
11
168.62
21
252.24979
31
0
39
0
210
0
220
0
230
1
0
LINE
5
108
100
AcDbEntity
8
1
62
256
6
ByLayer
370
18
48
1
60
0
100
AcDbLine
10
158.8
20
235.25
30
0
11
158.8
21
255.25
31
0
39
0
210
0
220
0
230
1
0
LINE
5
109
100
AcDbEntity
8
1
62
256
6
ByLayer
370
13
48
1
60
0
100
AcDbLine
10
167.62
20
291.25
30
0
11
167.62
21
275.25
31
0
39
0
210
0
220
0
230
1
0
LINE
5
10A
100
AcDbEntity
8
1
62
256
6
ByLayer
370
18
48
1
60
0
100
AcDbLine
10
168.62
20
290.25
30
0
11
168.62
21
276.25
31
0
39
0
210
0
220
0
230
1
0
LINE
5
10B
100
AcDbEntity
8
1
62
256
6
ByLayer
370
18
48
1
60
0
100
AcDbLine
10
201
20
317.587552
30
0
11
201
21
280.6023
31
0
39
0
210
0
220
0
230
1
0
LINE
5
10C
100
AcDbEntity
8
1
62
256
6
ByLayer
370
18
48
1
60
0
100
AcDbLine
10
169.5
20
280.6023
30
0
11
199.2
21
280.6023
31
0
39
0
210
0
220
0
230
1
0
LINE
5
10D
100
AcDbEntity
8
1
62
256
6
ByLayer
370
18
48
1
60
0
100
AcDbLine
10
199.2
20
280.6023
30
0
11
199.2
21
318.083523
31
0
39
0
210
0
220
0
230
1
0
LINE
5
10E
100
AcDbEntity
8
1
62
256
6
ByLayer
370
18
48
1
60
0
100
AcDbLine
10
167.034262
20
326.946456
30
0
11
199.2
21
318.083523
31
0
39
0
210
0
220
0
230
1
0
LINE
5
10F
100
AcDbEntity
8
1
62
256
6
ByLayer
370
18
48
1
60
0
100
AcDbLine
10
168.619809
20
279.722109
30
0
11
169.5
21
280.6023
31
0
39
0
210
0
220
0
230
1
0
LINE
5
110
100
AcDbEntity
8
1
62
256
6
ByLayer
370
18
48
1
60
0
100
AcDbLine
10
158
20
-327.229989
30
0
11
158
21
-328.0023
31
0
39
0
210
0
220
0
230
1
0
LINE
5
111
100
AcDbEntity
8
1
62
256
6
ByLayer
370
18
48
1
60
0
100
AcDbLine
10
153.672543
20
-328.0023
30
0
11
150.039105
21
-327.229989
31
0
39
0
210
0
220
0
230
1
0
LINE
5
112
100
AcDbEntity
8
1
62
256
6
ByLayer
370
18
48
1
60
0
100
AcDbLine
10
132.456245
20
-323.492637
30
0
11
142.929254
21
-325.718743
31
0
39
0
210
0
220
0
230
1
0
LINE
5
113
100
AcDbEntity
8
1
62
256
6
ByLayer
370
18
48
1
60
0
100
AcDbLine
10
142.929254
20
-322.976979
30
0
11
142.929254
21
-325.718743
31
0
39
0
210
0
220
0
230
1
0
LINE
5
114
100
AcDbEntity
8
1
62
256
6
ByLayer
370
18
48
1
60
0
100
AcDbLine
10
142.929254
20
-298.998844
30
0
11
142.929254
21
-320.027621
31
0
39
0
210
0
220
0
230
1
0
LINE
5
115
100
AcDbEntity
8
1
62
256
6
ByLayer
370
18
48
1
60
0
100
AcDbLine
10
132
20
-323.395659
30
0
11
132
21
-298.999444
31
0
39
0
210
0
220
0
230
1
0
LINE
5
116
100
AcDbEntity
8
1
62
256
6
ByLayer
370
18
48
1
60
0
100
AcDbLine
10
132
20
-323.395659
30
0
11
132.456245
21
-323.492637
31
0
39
0
210
0
220
0
230
1
0
LINE
5
117
100
AcDbEntity
8
1
62
256
6
ByLayer
370
18
48
1
60
0
100
AcDbLine
10
132.456245
20
-298.998833
30
0
11
132.456245
21
-323.492637
31
0
39
0
210
0
220
0
230
1
0
LINE
5
118
100
AcDbEntity
8
1
62
256
6
ByLayer
370
13
48
1
60
0
100
AcDbLine
10
142.939627
20
-298.999621
30
0
11
142.939627
21
-320.024524
31
0
39
0
210
0
220
0
230
1
0
LINE
5
119
100
AcDbEntity
8
1
62
256
6
ByLayer
370
13
48
1
60
0
100
AcDbLine
10
142.939627
20
-322.980076
30
0
11
142.939627
21
-325.720948
31
0
39
0
210
0
220
0
230
1
0
LINE
5
11A
100
AcDbEntity
8
1
62
256
6
ByLayer
370
18
48
1
60
0
100
AcDbLine
10
146.417713
20
-326.460238
30
0
11
142.939627
21
-325.720948
31
0
39
0
210
0
220
0
230
1
0
LINE
5
11B
100
AcDbEntity
8
1
62
256
6
ByLayer
370
18
48
1
60
0
100
AcDbLine
10
146
20
-293.561248
30
0
11
146
21
-317.618387
31
0
39
0
210
0
220
0
230
1
0
LINE
5
11C
100
AcDbEntity
8
1
62
256
6
ByLayer
370
18
48
1
60
0
100
AcDbLine
10
158
20
-230.533721
30
0
11
158
21
-317.618387
31
0
39
0
210
0
220
0
230
1
0
LINE
5
11D
100
AcDbEntity
8
1
62
256
6
ByLayer
370
18
48
1
60
0
100
AcDbLine
10
158
20
-230.533721
30
0
11
146
21
-230.533721
31
0
39
0
210
0
220
0
230
1
0
LINE
5
11E
100
AcDbEntity
8
1
62
256
6
ByLayer
370
18
48
1
60
0
100
AcDbLine
10
158
20
-212.5523
30
0
11
158
21
-230.533721
31
0
39
0
210
0
220
0
230
1
0
LINE
5
11F
100
AcDbEntity
8
1
62
256
6
ByLayer
370
18
48
1
60
0
100
AcDbLine
10
146
20
-212.5523
30
0
11
158
21
-212.5523
31
0
39
0
210
0
220
0
230
1
0
LINE
5
120
100
AcDbEntity
8
1
62
256
6
ByLayer
370
13
48
1
60
0
100
AcDbLine
10
158
20
-327.229989
30
0
11
150.039105
21
-327.229989
31
0
39
0
210
0
220
0
230
1
0
LINE
5
121
100
AcDbEntity
8
1
62
256
6
ByLayer
370
18
48
1
60
0
100
AcDbLine
10
158
20
-327.229989
30
0
11
158
21
-317.618387
31
0
39
0
210
0
220
0
230
1
0
LINE
5
122
100
AcDbEntity
8
1
62
256
6
ByLayer
370
18
48
1
60
0
100
AcDbLine
10
158
20
-317.618387
30
0
11
146
21
-317.618387
31
0
39
0
210
0
220
0
230
1
0
LINE
5
123
100
AcDbEntity
8
1
62
256
6
ByLayer
370
18
48
1
60
0
100
AcDbLine
10
146
20
-326.055868
30
0
11
146
21
-317.618387
31
0
39
0
210
0
220
0
230
1
0
LINE
5
124
100
AcDbEntity
8
1
62
256
6
ByLayer
370
18
48
1
60
0
100
AcDbLine
10
150.039105
20
-327.229989
30
0
11
146.417713
21
-326.460238
31
0
39
0
210
0
220
0
230
1
0
LINE
5
125
100
AcDbEntity
8
1
62
256
6
ByLayer
370
18
48
1
60
0
100
AcDbLine
10
78.936261
20
-209.9
30
0
11
78.204956
21
-209.9
31
0
39
0
210
0
220
0
230
1
0
LINE
5
126
100
AcDbEntity
8
1
62
256
6
ByLayer
370
13
48
1
60
0
100
AcDbLine
10
74.737898
20
-205.5
30
0
11
74.840954
21
-205.5
31
0
39
0
210
0
220
0
230
1
0
LINE
5
127
100
AcDbEntity
8
1
62
256
6
ByLayer
370
13
48
1
60
0
100
AcDbLine
10
74.840954
20
-114.5
30
0
11
74.737898
21
-114.5
31
0
39
0
210
0
220
0
230
1
0
LINE
5
128
100
AcDbEntity
8
1
62
256
6
ByLayer
370
18
48
1
60
0
100
AcDbLine
10
78.204956
20
-110.1
30
0
11
78.936261
21
-110.1
31
0
39
0
210
0
220
0
230
1
0
LINE
5
129
100
AcDbEntity
8
1
62
256
6
ByLayer
370
18
48
1
60
0
100
AcDbLine
10
79.867012
20
-110.1
30
0
11
78.936261
21
-110.1
31
0
39
0
210
0
220
0
230
1
0
LINE
5
12A
100
AcDbEntity
8
1
62
256
6
ByLayer
370
18
48
1
60
0
100
AcDbLine
10
74.840954
20
-114.5
30
0
11
74.840954
21
-205.5
31
0
39
0
210
0
220
0
230
1
0
LINE
5
12B
100
AcDbEntity
8
1
62
256
6
ByLayer
370
18
48
1
60
0
100
AcDbLine
10
78.936261
20
-209.9
30
0
11
79.867012
21
-209.9
31
0
39
0
210
0
220
0
230
1
0
LINE
5
12C
100
AcDbEntity
8
1
62
256
6
ByLayer
370
18
48
1
60
0
100
AcDbLine
10
83.962319
20
-205.5
30
0
11
83.962319
21
-114.5
31
0
39
0
210
0
220
0
230
1
0
LINE
5
12D
100
AcDbEntity
8
1
62
256
6
ByLayer
370
18
48
1
60
0
100
AcDbLine
10
195.895592
20
327.748586
30
0
11
204.056958
21
322.648798
31
0
39
0
210
0
220
0
230
1
0
LINE
5
12E
100
AcDbEntity
8
1
62
256
6
ByLayer
370
18
48
1
60
0
100
AcDbLine
10
204.416811
20
332.953632
30
0
11
195.919582
21
328.435575
31
0
39
0
210
0
220
0
230
1
0
LINE
5
12F
100
AcDbEntity
8
1
62
256
6
ByLayer
370
18
48
1
60
0
100
AcDbLine
10
204.663903
20
322.971516
30
0
11
204.999766
21
332.589361
31
0
39
0
210
0
220
0
230
1
0
LINE
5
130
100
AcDbEntity
8
1
62
256
6
ByLayer
370
18
48
1
60
0
100
AcDbLine
10
202.207786
20
332.151576
30
0
11
202.194532
21
331.772027
31
0
39
0
210
0
220
0
230
1
0
LINE
5
131
100
AcDbEntity
8
1
62
256
6
ByLayer
370
18
48
1
60
0
100
AcDbLine
10
203.969706
20
322.147031
30
0
11
203.988717
21
322.691438
31
0
39
0
210
0
220
0
230
1
0
LINE
5
132
100
AcDbEntity
8
1
62
256
6
ByLayer
370
18
48
1
60
0
100
AcDbLine
10
196.192404
20
329.522173
30
0
11
196.086421
21
329.352563
31
0
39
0
210
0
220
0
230
1
0
LINE
5
133
100
AcDbEntity
8
1
62
256
6
ByLayer
370
18
48
1
60
0
100
AcDbLine
10
201.509283
20
332.101972
30
0
11
201.598812
21
331.45528
31
0
39
0
210
0
220
0
230
1
0
LINE
5
134
100
AcDbEntity
8
1
62
256
6
ByLayer
370
18
48
1
60
0
100
AcDbLine
10
197.914864
20
329.919834
30
0
11
198.280894
21
329.691113
31
0
39
0
210
0
220
0
230
1
0
LINE
5
135
100
AcDbEntity
8
1
62
256
6
ByLayer
370
18
48
1
60
0
100
AcDbLine
10
197.910718
20
330.03999
30
0
11
200.71474
21
331.515257
31
0
39
0
210
0
220
0
230
1
0
LINE
5
136
100
AcDbEntity
8
1
62
256
6
ByLayer
370
18
48
1
60
0
100
AcDbLine
10
196.536914
20
329.976977
30
0
11
195.32723
21
329.09809
31
0
39
0
210
0
220
0
230
1
0
LINE
5
137
100
AcDbEntity
8
1
62
256
6
ByLayer
370
18
48
1
60
0
100
AcDbLine
10
195.9
20
322.868777
30
0
11
199.690836
21
320.5
31
0
39
0
210
0
220
0
230
1
0
LINE
5
138
100
AcDbEntity
8
1
62
256
6
ByLayer
370
18
48
1
60
0
100
AcDbLine
10
196.393036
20
326.88146
30
0
11
203.969706
21
322.147031
31
0
39
0
210
0
220
0
230
1
0
LINE
5
139
100
AcDbEntity
8
1
62
256
6
ByLayer
370
18
48
1
60
0
100
AcDbLine
10
199.690836
20
320.5
30
0
11
203.912191
21
320.5
31
0
39
0
210
0
220
0
230
1
0
LINE
5
13A
100
AcDbEntity
8
1
62
256
6
ByLayer
370
18
48
1
60
0
100
AcDbLine
10
203.969706
20
322.147031
30
0
11
203.912191
21
320.5
31
0
39
0
210
0
220
0
230
1
0
LINE
5
13B
100
AcDbEntity
8
1
62
256
6
ByLayer
370
18
48
1
60
0
100
AcDbLine
10
200.642316
20
332.038391
30
0
11
200.71474
21
331.515257
31
0
39
0
210
0
220
0
230
1
0
LINE
5
13C
100
AcDbEntity
8
1
62
256
6
ByLayer
370
18
48
1
60
0
100
AcDbLine
10
201.193757
20
331.76728
30
0
11
200.71474
21
331.515257
31
0
39
0
210
0
220
0
230
1
0
LINE
5
13D
100
AcDbEntity
8
1
62
256
6
ByLayer
370
18
48
1
60
0
100
AcDbLine
10
201.193757
20
331.76728
30
0
11
201.204673
21
332.079887
31
0
39
0
210
0
220
0
230
1
0
LINE
5
13E
100
AcDbEntity
8
1
62
256
6
ByLayer
370
13
48
1
60
0
100
AcDbLine
10
195.430295
20
327.008163
30
0
11
195.9
21
325.65256
31
0
39
0
210
0
220
0
230
1
0
LINE
5
13F
100
AcDbEntity
8
1
62
256
6
ByLayer
370
13
48
1
60
0
100
AcDbLine
10
195.389775
20
325.903343
30
0
11
195.9
21
325.65256
31
0
39
0
210
0
220
0
230
1
0
LINE
5
140
100
AcDbEntity
8
1
62
256
6
ByLayer
370
13
48
1
60
0
100
AcDbLine
10
193.811407
20
331.680398
30
0
11
194.898341
21
328.543423
31
0
39
0
210
0
220
0
230
1
0
LINE
5
141
100
AcDbEntity
8
1
62
256
6
ByLayer
370
13
48
1
60
0
100
AcDbLine
10
195.9
20
325.65256
30
0
11
195.9
21
322.868777
31
0
39
0
210
0
220
0
230
1
0
LINE
5
142
100
AcDbEntity
8
1
62
256
6
ByLayer
370
13
48
1
60
0
100
AcDbLine
10
195.9
20
325.65256
30
0
11
195.5
21
325.248552
31
0
39
0
210
0
220
0
230
1
0
LINE
5
143
100
AcDbEntity
8
1
62
256
6
ByLayer
370
13
48
1
60
0
100
AcDbLine
10
195.05234
20
326.877205
30
0
11
195.430295
21
327.008163
31
0
39
0
210
0
220
0
230
1
0
LINE
5
144
100
AcDbEntity
8
1
62
256
6
ByLayer
370
13
48
1
60
0
100
AcDbLine
10
194.638473
20
328.453381
30
0
11
194.898341
21
328.543423
31
0
39
0
210
0
220
0
230
1
0
LINE
5
145
100
AcDbEntity
8
1
62
256
6
ByLayer
370
18
48
1
60
0
100
AcDbLine
10
195.5
20
325.248552
30
0
11
195.5
21
322.999029
31
0
39
0
210
0
220
0
230
1
0
LINE
5
146
100
AcDbEntity
8
1
62
256
6
ByLayer
370
18
48
1
60
0
100
AcDbLine
10
195.389775
20
325.903343
30
0
11
193.793424
21
330.510534
31
0
39
0
210
0
220
0
230
1
0
LINE
5
147
100
AcDbEntity
8
1
62
256
6
ByLayer
370
13
48
1
60
0
100
AcDbLine
10
182
20
328.06772
30
0
11
182
21
323
31
0
39
0
210
0
220
0
230
1
0
LINE
5
148
100
AcDbEntity
8
1
62
256
6
ByLayer
370
18
48
1
60
0
100
AcDbLine
10
195.460604
20
323
30
0
11
184.481654
21
323
31
0
39
0
210
0
220
0
230
1
0
LINE
5
149
100
AcDbEntity
8
1
62
256
6
ByLayer
370
18
48
1
60
0
100
AcDbLine
10
202.207786
20
332.151576
30
0
11
202.209621
21
332.204123
31
0
39
0
210
0
220
0
230
1
0
LINE
5
14A
100
AcDbEntity
8
1
62
256
6
ByLayer
370
18
48
1
60
0
100
AcDbLine
10
203.033742
20
332.218247
30
0
11
202.208605
21
332.175004
31
0
39
0
210
0
220
0
230
1
0
LINE
5
14B
100
AcDbEntity
8
1
62
256
6
ByLayer
370
18
48
1
60
0
100
AcDbLine
10
193.408175
20
331.622392
30
0
11
193.793424
21
330.510534
31
0
39
0
210
0
220
0
230
1
0
LINE
5
14C
100
AcDbEntity
8
1
62
256
6
ByLayer
370
18
48
1
60
0
100
AcDbLine
10
193.811407
20
331.680398
30
0
11
200.642316
21
332.038391
31
0
39
0
210
0
220
0
230
1
0
LINE
5
14D
100
AcDbEntity
8
1
62
256
6
ByLayer
370
18
48
1
60
0
100
AcDbLine
10
201.509283
20
332.101972
30
0
11
201.204888
21
332.086019
31
0
39
0
210
0
220
0
230
1
0
LINE
5
14E
100
AcDbEntity
8
1
62
256
6
ByLayer
370
18
48
1
60
0
100
AcDbLine
10
140.491052
20
320.536368
30
0
11
139.675882
21
320.536368
31
0
39
0
210
0
220
0
230
1
0
LINE
5
14F
100
AcDbEntity
8
1
62
256
6
ByLayer
370
18
48
1
60
0
100
AcDbLine
10
140.208655
20
320.459942
30
0
11
140.245774
21
320.150882
31
0
39
0
210
0
220
0
230
1
0
LINE
5
150
100
AcDbEntity
8
1
62
256
6
ByLayer
370
18
48
1
60
0
100
AcDbLine
10
139.675882
20
320.536368
30
0
11
139.555034
21
320.249969
31
0
39
0
210
0
220
0
230
1
0
LINE
5
151
100
AcDbEntity
8
1
62
256
6
ByLayer
370
18
48
1
60
0
100
AcDbLine
10
140.293933
20
320.019099
30
0
11
140.245774
21
320.150882
31
0
39
0
210
0
220
0
230
1
0
LINE
5
152
100
AcDbEntity
8
1
62
256
6
ByLayer
370
13
48
1
60
0
100
AcDbLine
10
167.62
20
-276.202048
30
0
11
167.62
21
-275.25
31
0
39
0
210
0
220
0
230
1
0
LINE
5
153
100
AcDbEntity
8
1
62
256
6
ByLayer
370
18
48
1
60
0
100
AcDbLine
10
158.8
20
255.250537
30
0
11
158.8
21
268.25
31
0
39
0
210
0
220
0
230
1
0
LINE
5
154
100
AcDbEntity
8
1
62
256
6
ByLayer
370
18
48
1
60
0
100
AcDbLine
10
158.8
20
-248.25
30
0
11
158.8
21
-268.25
31
0
39
0
210
0
220
0
230
1
0
LINE
5
155
100
AcDbEntity
8
1
62
256
6
ByLayer
370
18
48
1
60
0
100
AcDbLine
10
158.8
20
-273.25
30
0
11
158.8
21
-276.202574
31
0
39
0
210
0
220
0
230
1
0
LINE
5
156
100
AcDbEntity
8
1
62
256
6
ByLayer
370
13
48
1
60
0
100
AcDbLine
10
83.949337
20
-114.15
30
0
11
84.138497
21
-114.15
31
0
39
0
210
0
220
0
230
1
0
LINE
5
157
100
AcDbEntity
8
1
62
256
6
ByLayer
370
13
48
1
60
0
100
AcDbLine
10
83.949337
20
-205.85
30
0
11
84.138497
21
-205.85
31
0
39
0
210
0
220
0
230
1
0
LINE
5
158
100
AcDbEntity
8
1
62
256
6
ByLayer
370
18
48
1
60
0
100
AcDbLine
10
20
20
-222.674337
30
0
11
9.263591
21
-141.450816
31
0
39
0
210
0
220
0
230
1
0
LINE
5
159
100
AcDbEntity
8
1
62
256
6
ByLayer
370
18
48
1
60
0
100
AcDbLine
10
28.679492
20
-225
30
0
11
20
21
-222.674337
31
0
39
0
210
0
220
0
230
1
0
LINE
5
15A
100
AcDbEntity
8
1
62
256
6
ByLayer
370
18
48
1
60
0
100
AcDbLine
10
9.263591
20
141.450816
30
0
11
20
21
222.674337
31
0
39
0
210
0
220
0
230
1
0
LINE
5
15B
100
AcDbEntity
8
1
62
256
6
ByLayer
370
18
48
1
60
0
100
AcDbLine
10
20
20
222.674337
30
0
11
28.679492
21
225
31
0
39
0
210
0
220
0
230
1
0
LINE
5
15C
100
AcDbEntity
8
1
62
256
6
ByLayer
370
18
48
1
60
0
100
AcDbLine
10
28.679492
20
225
30
0
11
66
21
235
31
0
39
0
210
0
220
0
230
1
0
LINE
5
15D
100
AcDbEntity
8
1
62
256
6
ByLayer
370
13
48
1
60
0
100
AcDbLine
10
73.272727
20
225
30
0
11
28.679492
21
225
31
0
39
0
210
0
220
0
230
1
0
LINE
5
15E
100
AcDbEntity
8
1
62
256
6
ByLayer
370
18
48
1
60
0
100
AcDbLine
10
86
20
235
30
0
11
86
21
233.660254
31
0
39
0
210
0
220
0
230
1
0
LINE
5
15F
100
AcDbEntity
8
1
62
256
6
ByLayer
370
18
48
1
60
0
100
AcDbLine
10
66
20
235
30
0
11
86
21
235
31
0
39
0
210
0
220
0
230
1
0
LINE
5
160
100
AcDbEntity
8
1
62
256
6
ByLayer
370
13
48
1
60
0
100
AcDbLine
10
28.679492
20
-225
30
0
11
73.272727
21
-225
31
0
39
0
210
0
220
0
230
1
0
LINE
5
161
100
AcDbEntity
8
1
62
256
6
ByLayer
370
18
48
1
60
0
100
AcDbLine
10
66
20
-235
30
0
11
28.679492
21
-225
31
0
39
0
210
0
220
0
230
1
0
LINE
5
162
100
AcDbEntity
8
1
62
256
6
ByLayer
370
18
48
1
60
0
100
AcDbLine
10
86
20
-235
30
0
11
66
21
-235
31
0
39
0
210
0
220
0
230
1
0
LINE
5
163
100
AcDbEntity
8
1
62
256
6
ByLayer
370
18
48
1
60
0
100
AcDbLine
10
86
20
-235
30
0
11
86
21
-233.660254
31
0
39
0
210
0
220
0
230
1
0
LINE
5
164
100
AcDbEntity
8
1
62
256
6
ByLayer
370
18
48
1
60
0
100
AcDbLine
10
2
20
86.5
30
0
11
2
21
78.589416
31
0
39
0
210
0
220
0
230
1
0
LINE
5
165
100
AcDbEntity
8
1
62
256
6
ByLayer
370
13
48
1
60
0
100
AcDbLine
10
73.272727
20
141.450816
30
0
11
9.263591
21
141.450816
31
0
39
0
210
0
220
0
230
1
0
LINE
5
166
100
AcDbEntity
8
1
62
256
6
ByLayer
370
18
48
1
60
0
100
AcDbLine
10
2
20
86.5
30
0
11
9.263591
21
141.450816
31
0
39
0
210
0
220
0
230
1
0
LINE
5
167
100
AcDbEntity
8
1
62
256
6
ByLayer
370
18
48
1
60
0
100
AcDbLine
10
2
20
-86.5
30
0
11
2
21
-78.589416
31
0
39
0
210
0
220
0
230
1
0
LINE
5
168
100
AcDbEntity
8
1
62
256
6
ByLayer
370
18
48
1
60
0
100
AcDbLine
10
9.263591
20
-141.450816
30
0
11
2
21
-86.5
31
0
39
0
210
0
220
0
230
1
0
LINE
5
169
100
AcDbEntity
8
1
62
256
6
ByLayer
370
13
48
1
60
0
100
AcDbLine
10
73.272727
20
-141.450816
30
0
11
9.263591
21
-141.450816
31
0
39
0
210
0
220
0
230
1
0
LINE
5
16A
100
AcDbEntity
8
1
62
256
6
ByLayer
370
13
48
1
60
0
100
AcDbLine
10
1.5
20
-81
30
0
11
1.5
21
81
31
0
39
0
210
0
220
0
230
1
0
LINE
5
16B
100
AcDbEntity
8
1
62
256
6
ByLayer
370
18
48
1
60
0
100
AcDbLine
10
0
20
-79.5
30
0
11
0
21
79.5
31
0
39
0
210
0
220
0
230
1
0
LINE
5
16C
100
AcDbEntity
8
1
62
256
6
ByLayer
370
18
48
1
60
0
100
AcDbLine
10
2
20
47.158717
30
0
11
2
21
-47.158717
31
0
39
0
210
0
220
0
230
1
0
LINE
5
16D
100
AcDbEntity
8
1
62
256
6
ByLayer
370
18
48
1
60
0
100
AcDbLine
10
2
20
-78.589416
30
0
11
2
21
-47.158717
31
0
39
0
210
0
220
0
230
1
0
LINE
5
16E
100
AcDbEntity
8
1
62
256
6
ByLayer
370
13
48
1
60
0
100
AcDbLine
10
2
20
-47.158717
30
0
11
30
21
-47.158717
31
0
39
0
210
0
220
0
230
1
0
LINE
5
16F
100
AcDbEntity
8
1
62
256
6
ByLayer
370
13
48
1
60
0
100
AcDbLine
10
44.424242
20
-78.589416
30
0
11
2
21
-78.589416
31
0
39
0
210
0
220
0
230
1
0
LINE
5
170
100
AcDbEntity
8
1
62
256
6
ByLayer
370
18
48
1
60
0
100
AcDbLine
10
84.138497
20
-114.15
30
0
11
84.138497
21
-205.85
31
0
39
0
210
0
220
0
230
1
0
LINE
5
171
100
AcDbEntity
8
1
62
256
6
ByLayer
370
18
48
1
60
0
100
AcDbLine
10
80.229341
20
-210.05
30
0
11
78.647063
21
-210.05
31
0
39
0
210
0
220
0
230
1
0
LINE
5
172
100
AcDbEntity
8
1
62
256
6
ByLayer
370
18
48
1
60
0
100
AcDbLine
10
74.737907
20
-114.15
30
0
11
74.737907
21
-205.85
31
0
39
0
210
0
220
0
230
1
0
LINE
5
173
100
AcDbEntity
8
1
62
256
6
ByLayer
370
18
48
1
60
0
100
AcDbLine
10
80.229341
20
-109.95
30
0
11
78.647063
21
-109.95
31
0
39
0
210
0
220
0
230
1
0
LINE
5
174
100
AcDbEntity
8
1
62
256
6
ByLayer
370
18
48
1
60
0
100
AcDbLine
10
73.272727
20
-225
30
0
11
73.272727
21
-141.450816
31
0
39
0
210
0
220
0
230
1
0
LINE
5
175
100
AcDbEntity
8
1
62
256
6
ByLayer
370
18
48
1
60
0
100
AcDbLine
10
86
20
233.660254
30
0
11
86
21
-233.660254
31
0
39
0
210
0
220
0
230
1
0
LINE
5
176
100
AcDbEntity
8
1
62
256
6
ByLayer
370
18
48
1
60
0
100
AcDbLine
10
73.272727
20
141.450816
30
0
11
73.272727
21
225
31
0
39
0
210
0
220
0
230
1
0
LINE
5
177
100
AcDbEntity
8
1
62
256
6
ByLayer
370
18
48
1
60
0
100
AcDbLine
10
30
20
47.158717
30
0
11
30
21
-47.158717
31
0
39
0
210
0
220
0
230
1
0
LINE
5
178
100
AcDbEntity
8
1
62
256
6
ByLayer
370
18
48
1
60
0
100
AcDbLine
10
2
20
47.158717
30
0
11
2
21
78.589416
31
0
39
0
210
0
220
0
230
1
0
LINE
5
179
100
AcDbEntity
8
1
62
256
6
ByLayer
370
13
48
1
60
0
100
AcDbLine
10
30
20
47.158717
30
0
11
2
21
47.158717
31
0
39
0
210
0
220
0
230
1
0
LINE
5
17A
100
AcDbEntity
8
1
62
256
6
ByLayer
370
13
48
1
60
0
100
AcDbLine
10
2
20
78.589416
30
0
11
44.424242
21
78.589416
31
0
39
0
210
0
220
0
230
1
0
LINE
5
17B
100
AcDbEntity
8
1
62
256
6
ByLayer
370
18
48
1
60
0
100
AcDbLine
10
121.354682
20
-297.755291
30
0
11
126
21
-299
31
0
39
0
210
0
220
0
230
1
0
LINE
5
17C
100
AcDbEntity
8
1
62
256
6
ByLayer
370
18
48
1
60
0
100
AcDbLine
10
126.691482
20
-299
30
0
11
126
21
-299
31
0
39
0
210
0
220
0
230
1
0
LINE
5
17D
100
AcDbEntity
8
1
62
256
6
ByLayer
370
18
48
1
60
0
100
AcDbLine
10
131.008111
20
-68
30
0
11
129
21
-56
31
0
39
0
210
0
220
0
230
1
0
LINE
5
17E
100
AcDbEntity
8
1
62
256
6
ByLayer
370
18
48
1
60
0
100
AcDbLine
10
86
20
-56
30
0
11
129
21
-56
31
0
39
0
210
0
220
0
230
1
0
LINE
5
17F
100
AcDbEntity
8
1
62
256
6
ByLayer
370
18
48
1
60
0
100
AcDbLine
10
131.008111
20
-68
30
0
11
132.330118
21
-75.9
31
0
39
0
210
0
220
0
230
1
0
LINE
5
180
100
AcDbEntity
8
1
62
256
6
ByLayer
370
13
48
1
60
0
100
AcDbLine
10
86
20
-68
30
0
11
131.008111
21
-68
31
0
39
0
210
0
220
0
230
1
0
LINE
5
181
100
AcDbEntity
8
1
62
256
6
ByLayer
370
18
48
1
60
0
100
AcDbLine
10
134.742504
20
-90.315853
30
0
11
132.330118
21
-75.9
31
0
39
0
210
0
220
0
230
1
0
LINE
5
182
100
AcDbEntity
8
1
62
256
6
ByLayer
370
13
48
1
60
0
100
AcDbLine
10
132.330118
20
-75.9
30
0
11
86
21
-75.9
31
0
39
0
210
0
220
0
230
1
0
LINE
5
183
100
AcDbEntity
8
1
62
256
6
ByLayer
370
18
48
1
60
0
100
AcDbLine
10
134.742504
20
-90.315853
30
0
11
134.816405
21
-90.757466
31
0
39
0
210
0
220
0
230
1
0
LINE
5
184
100
AcDbEntity
8
1
62
256
6
ByLayer
370
13
48
1
60
0
100
AcDbLine
10
134.742504
20
-90.315853
30
0
11
86
21
-90.315853
31
0
39
0
210
0
220
0
230
1
0
LINE
5
185
100
AcDbEntity
8
1
62
256
6
ByLayer
370
18
48
1
60
0
100
AcDbLine
10
146
20
-292.52235
30
0
11
146
21
-293.562114
31
0
39
0
210
0
220
0
230
1
0
LINE
5
186
100
AcDbEntity
8
1
62
256
6
ByLayer
370
18
48
1
60
0
100
AcDbLine
10
121.354736
20
-297.755305
30
0
11
101.825079
21
-292.52235
31
0
39
0
210
0
220
0
230
1
0
LINE
5
187
100
AcDbEntity
8
1
62
256
6
ByLayer
370
18
48
1
60
0
100
AcDbLine
10
146
20
-299
30
0
11
126.691482
21
-299
31
0
39
0
210
0
220
0
230
1
0
LINE
5
188
100
AcDbEntity
8
1
62
256
6
ByLayer
370
18
48
1
60
0
100
AcDbLine
10
93.668385
20
-290.33677
30
0
11
92.940047
21
-288.880094
31
0
39
0
210
0
220
0
230
1
0
LINE
5
189
100
AcDbEntity
8
1
62
256
6
ByLayer
370
18
48
1
60
0
100
AcDbLine
10
146
20
-289.161172
30
0
11
146
21
-292.52235
31
0
39
0
210
0
220
0
230
1
0
LINE
5
18A
100
AcDbEntity
8
1
62
256
6
ByLayer
370
18
48
1
60
0
100
AcDbLine
10
101.825079
20
-292.52235
30
0
11
93.668385
21
-290.33677
31
0
39
0
210
0
220
0
230
1
0
LINE
5
18B
100
AcDbEntity
8
1
62
256
6
ByLayer
370
13
48
1
60
0
100
AcDbLine
10
146
20
-292.52235
30
0
11
101.825079
21
-292.52235
31
0
39
0
210
0
220
0
230
1
0
LINE
5
18C
100
AcDbEntity
8
1
62
256
6
ByLayer
370
18
48
1
60
0
100
AcDbLine
10
86
20
-252.707069
30
0
11
86
21
-275
31
0
39
0
210
0
220
0
230
1
0
LINE
5
18D
100
AcDbEntity
8
1
62
256
6
ByLayer
370
13
48
1
60
0
100
AcDbLine
10
92.940047
20
-288.880094
30
0
11
145.969051
21
-288.880094
31
0
39
0
210
0
220
0
230
1
0
LINE
5
18E
100
AcDbEntity
8
1
62
256
6
ByLayer
370
18
48
1
60
0
100
AcDbLine
10
86
20
-275
30
0
11
92.940047
21
-288.880094
31
0
39
0
210
0
220
0
230
1
0
LINE
5
18F
100
AcDbEntity
8
1
62
256
6
ByLayer
370
18
48
1
60
0
100
AcDbLine
10
134.816405
20
-90.757466
30
0
11
139.641178
21
-119.589171
31
0
39
0
210
0
220
0
230
1
0
LINE
5
190
100
AcDbEntity
8
1
62
256
6
ByLayer
370
13
48
1
60
0
100
AcDbLine
10
86
20
-90.757466
30
0
11
134.816405
21
-90.757466
31
0
39
0
210
0
220
0
230
1
0
LINE
5
191
100
AcDbEntity
8
1
62
256
6
ByLayer
370
18
48
1
60
0
100
AcDbLine
10
139.641178
20
-119.589171
30
0
11
143
21
-139.660701
31
0
39
0
210
0
220
0
230
1
0
LINE
5
192
100
AcDbEntity
8
1
62
256
6
ByLayer
370
13
48
1
60
0
100
AcDbLine
10
139.641178
20
-119.589171
30
0
11
86
21
-119.589171
31
0
39
0
210
0
220
0
230
1
0
LINE
5
193
100
AcDbEntity
8
1
62
256
6
ByLayer
370
18
48
1
60
0
100
AcDbLine
10
86
20
-234.999372
30
0
11
86
21
-245.282672
31
0
39
0
210
0
220
0
230
1
0
LINE
5
194
100
AcDbEntity
8
1
62
256
6
ByLayer
370
18
48
1
60
0
100
AcDbLine
10
143
20
-139.660701
30
0
11
146
21
-157.587994
31
0
39
0
210
0
220
0
230
1
0
LINE
5
195
100
AcDbEntity
8
1
62
256
6
ByLayer
370
18
48
1
60
0
100
AcDbLine
10
143
20
-245.282672
30
0
11
143
21
-139.660701
31
0
39
0
210
0
220
0
230
1
0
LINE
5
196
100
AcDbEntity
8
1
62
256
6
ByLayer
370
18
48
1
60
0
100
AcDbLine
10
145.969051
20
-288.880094
30
0
11
143.275989
21
-252.707069
31
0
39
0
210
0
220
0
230
1
0
LINE
5
197
100
AcDbEntity
8
1
62
256
6
ByLayer
370
18
48
1
60
0
100
AcDbLine
10
146
20
-157.587994
30
0
11
146
21
-289.161172
31
0
39
0
210
0
220
0
230
1
0
LINE
5
198
100
AcDbEntity
8
1
62
256
6
ByLayer
370
13
48
1
60
0
100
AcDbLine
10
143.275989
20
-252.707069
30
0
11
86
21
-252.707069
31
0
39
0
210
0
220
0
230
1
0
LINE
5
199
100
AcDbEntity
8
1
62
256
6
ByLayer
370
13
48
1
60
0
100
AcDbLine
10
86
20
-245.282672
30
0
11
143
21
-245.282672
31
0
39
0
210
0
220
0
230
1
0
LINE
5
19A
100
AcDbEntity
8
1
62
256
6
ByLayer
370
18
48
1
60
0
100
AcDbLine
10
86
20
-252.707069
30
0
11
86
21
-245.282672
31
0
39
0
210
0
220
0
230
1
0
LINE
5
19B
100
AcDbEntity
8
1
62
256
6
ByLayer
370
18
48
1
60
0
100
AcDbLine
10
131
20
-60
30
0
11
131
21
-60.76272
31
0
39
0
210
0
220
0
230
1
0
LINE
5
19C
100
AcDbEntity
8
1
62
256
6
ByLayer
370
18
48
1
60
0
100
AcDbLine
10
131
20
-60.76272
30
0
11
131
21
-67.951973
31
0
39
0
210
0
220
0
230
1
0
LINE
5
19D
100
AcDbEntity
8
1
62
256
6
ByLayer
370
18
48
1
60
0
100
AcDbLine
10
56.5
20
232.864029
30
0
11
58.028739
21
232.864029
31
0
39
0
210
0
220
0
230
1
0
LINE
5
19E
100
AcDbEntity
8
1
62
256
6
ByLayer
370
18
48
1
60
0
100
AcDbLine
10
56
20
232.364029
30
0
11
56.162501
21
232.364029
31
0
39
0
210
0
220
0
230
1
0
LINE
5
19F
100
AcDbEntity
8
SK1
62
256
6
ByLayer
370
18
48
1
60
0
100
AcDbLine
10
-20.273
20
43.921024
30
0
11
-20.273
21
27.921024
31
0
39
0
210
0
220
0
230
1
0
LINE
5
1A0
100
AcDbEntity
8
SK1
62
256
6
ByLayer
370
18
48
1
60
0
100
AcDbLine
10
-21.5
20
29.148024
30
0
11
-21.5
21
42.694024
31
0
39
0
210
0
220
0
230
1
0
LINE
5
1A1
100
AcDbEntity
8
1
62
256
6
ByLayer
370
18
48
1
60
0
100
AcDbLine
10
158.8
20
-235.25
30
0
11
158.8
21
-248.250399
31
0
39
0
210
0
220
0
230
1
0
LINE
5
1A2
100
AcDbEntity
8
1
62
256
6
ByLayer
370
18
48
1
60
0
100
AcDbLine
10
202.207786
20
332.151576
30
0
11
202.194532
21
331.772027
31
0
39
0
210
0
220
0
230
1
0
LINE
5
1A3
100
AcDbEntity
8
1
62
256
6
ByLayer
370
18
48
1
60
0
100
AcDbLine
10
203.969706
20
322.147031
30
0
11
203.988717
21
322.691438
31
0
39
0
210
0
220
0
230
1
0
LINE
5
1A4
100
AcDbEntity
8
1
62
256
6
ByLayer
370
18
48
1
60
0
100
AcDbLine
10
196.192404
20
329.522173
30
0
11
196.086421
21
329.352563
31
0
39
0
210
0
220
0
230
1
0
LINE
5
1A5
100
AcDbEntity
8
1
62
256
6
ByLayer
370
18
48
1
60
0
100
AcDbLine
10
201.509283
20
332.101972
30
0
11
201.598812
21
331.45528
31
0
39
0
210
0
220
0
230
1
0
LINE
5
1A6
100
AcDbEntity
8
1
62
256
6
ByLayer
370
18
48
1
60
0
100
AcDbLine
10
197.914864
20
329.919834
30
0
11
198.280894
21
329.691113
31
0
39
0
210
0
220
0
230
1
0
LINE
5
1A7
100
AcDbEntity
8
1
62
256
6
ByLayer
370
18
48
1
60
0
100
AcDbLine
10
196.536914
20
329.976977
30
0
11
195.32723
21
329.09809
31
0
39
0
210
0
220
0
230
1
0
LINE
5
1A8
100
AcDbEntity
8
1
62
256
6
ByLayer
370
18
48
1
60
0
100
AcDbLine
10
197.910718
20
330.03999
30
0
11
200.71474
21
331.515257
31
0
39
0
210
0
220
0
230
1
0
LINE
5
1A9
100
AcDbEntity
8
1
62
256
6
ByLayer
370
18
48
1
60
0
100
AcDbLine
10
201.193757
20
331.76728
30
0
11
200.71474
21
331.515257
31
0
39
0
210
0
220
0
230
1
0
LINE
5
1AA
100
AcDbEntity
8
1
62
256
6
ByLayer
370
18
48
1
60
0
100
AcDbLine
10
200.642316
20
332.038391
30
0
11
200.71474
21
331.515257
31
0
39
0
210
0
220
0
230
1
0
LINE
5
1AB
100
AcDbEntity
8
1
62
256
6
ByLayer
370
18
48
1
60
0
100
AcDbLine
10
201.193757
20
331.76728
30
0
11
201.204673
21
332.079887
31
0
39
0
210
0
220
0
230
1
0
LINE
5
1AC
100
AcDbEntity
8
1
62
256
6
ByLayer
370
18
48
1
60
0
100
AcDbLine
10
195.9
20
322.868777
30
0
11
199.690836
21
320.5
31
0
39
0
210
0
220
0
230
1
0
LINE
5
1AD
100
AcDbEntity
8
1
62
256
6
ByLayer
370
18
48
1
60
0
100
AcDbLine
10
199.690836
20
320.5
30
0
11
203.912191
21
320.5
31
0
39
0
210
0
220
0
230
1
0
LINE
5
1AE
100
AcDbEntity
8
1
62
256
6
ByLayer
370
18
48
1
60
0
100
AcDbLine
10
203.969706
20
322.147031
30
0
11
203.912191
21
320.5
31
0
39
0
210
0
220
0
230
1
0
LINE
5
1AF
100
AcDbEntity
8
1
62
256
6
ByLayer
370
18
48
1
60
0
100
AcDbLine
10
196.393036
20
326.88146
30
0
11
203.969706
21
322.147031
31
0
39
0
210
0
220
0
230
1
0
LINE
5
1B0
100
AcDbEntity
8
1
62
256
6
ByLayer
370
13
48
1
60
0
100
AcDbLine
10
195.389775
20
325.903343
30
0
11
195.9
21
325.65256
31
0
39
0
210
0
220
0
230
1
0
LINE
5
1B1
100
AcDbEntity
8
1
62
256
6
ByLayer
370
13
48
1
60
0
100
AcDbLine
10
195.430295
20
327.008163
30
0
11
195.9
21
325.65256
31
0
39
0
210
0
220
0
230
1
0
LINE
5
1B2
100
AcDbEntity
8
1
62
256
6
ByLayer
370
13
48
1
60
0
100
AcDbLine
10
193.811407
20
331.680398
30
0
11
194.898341
21
328.543423
31
0
39
0
210
0
220
0
230
1
0
LINE
5
1B3
100
AcDbEntity
8
1
62
256
6
ByLayer
370
13
48
1
60
0
100
AcDbLine
10
195.9
20
325.65256
30
0
11
195.9
21
322.868777
31
0
39
0
210
0
220
0
230
1
0
LINE
5
1B4
100
AcDbEntity
8
1
62
256
6
ByLayer
370
13
48
1
60
0
100
AcDbLine
10
195.9
20
325.65256
30
0
11
195.5
21
325.248552
31
0
39
0
210
0
220
0
230
1
0
LINE
5
1B5
100
AcDbEntity
8
1
62
256
6
ByLayer
370
13
48
1
60
0
100
AcDbLine
10
195.05234
20
326.877205
30
0
11
195.430295
21
327.008163
31
0
39
0
210
0
220
0
230
1
0
LINE
5
1B6
100
AcDbEntity
8
1
62
256
6
ByLayer
370
13
48
1
60
0
100
AcDbLine
10
194.638473
20
328.453381
30
0
11
194.898341
21
328.543423
31
0
39
0
210
0
220
0
230
1
0
LINE
5
1B7
100
AcDbEntity
8
1
62
256
6
ByLayer
370
18
48
1
60
0
100
AcDbLine
10
195.5
20
325.248552
30
0
11
195.5
21
322.999029
31
0
39
0
210
0
220
0
230
1
0
LINE
5
1B8
100
AcDbEntity
8
1
62
256
6
ByLayer
370
18
48
1
60
0
100
AcDbLine
10
195.389775
20
325.903343
30
0
11
193.793424
21
330.510534
31
0
39
0
210
0
220
0
230
1
0
LINE
5
1B9
100
AcDbEntity
8
1
62
256
6
ByLayer
370
18
48
1
60
0
100
AcDbLine
10
195.460604
20
323
30
0
11
184.481654
21
323
31
0
39
0
210
0
220
0
230
1
0
LINE
5
1BA
100
AcDbEntity
8
1
62
256
6
ByLayer
370
13
48
1
60
0
100
AcDbLine
10
182
20
328.06772
30
0
11
182
21
323
31
0
39
0
210
0
220
0
230
1
0
LINE
5
1BB
100
AcDbEntity
8
1
62
256
6
ByLayer
370
18
48
1
60
0
100
AcDbLine
10
202.207786
20
332.151576
30
0
11
202.209621
21
332.204123
31
0
39
0
210
0
220
0
230
1
0
LINE
5
1BC
100
AcDbEntity
8
1
62
256
6
ByLayer
370
18
48
1
60
0
100
AcDbLine
10
203.033742
20
332.218247
30
0
11
202.208605
21
332.175004
31
0
39
0
210
0
220
0
230
1
0
LINE
5
1BD
100
AcDbEntity
8
1
62
256
6
ByLayer
370
18
48
1
60
0
100
AcDbLine
10
193.408175
20
331.622392
30
0
11
193.793424
21
330.510534
31
0
39
0
210
0
220
0
230
1
0
LINE
5
1BE
100
AcDbEntity
8
1
62
256
6
ByLayer
370
18
48
1
60
0
100
AcDbLine
10
193.811407
20
331.680398
30
0
11
200.642316
21
332.038391
31
0
39
0
210
0
220
0
230
1
0
LINE
5
1BF
100
AcDbEntity
8
1
62
256
6
ByLayer
370
18
48
1
60
0
100
AcDbLine
10
201.509283
20
332.101972
30
0
11
201.204888
21
332.086019
31
0
39
0
210
0
220
0
230
1
0
LINE
5
1C0
100
AcDbEntity
8
1
62
256
6
ByLayer
370
18
48
1
60
0
100
AcDbLine
10
131.95
20
-309.5023
30
0
11
131.95
21
-315.726021
31
0
39
0
210
0
220
0
230
1
0
LINE
5
1C1
100
AcDbEntity
8
1
62
256
6
ByLayer
370
18
48
1
60
0
100
AcDbLine
10
131.95
20
-315.726021
30
0
11
131.95
21
-318.5023
31
0
39
0
210
0
220
0
230
1
0
LINE
5
1C2
100
AcDbEntity
8
1
62
256
6
ByLayer
370
18
48
1
60
0
100
AcDbLine
10
131.95
20
309.5023
30
0
11
131.95
21
318.5023
31
0
39
0
210
0
220
0
230
1
0
LINE
5
1C3
100
AcDbEntity
8
1
62
256
6
ByLayer
370
18
48
1
60
0
100
AcDbLine
10
181.356972
20
323
30
0
11
184.482716
21
323
31
0
39
0
210
0
220
0
230
1
0
LINE
5
1C4
100
AcDbEntity
8
1
62
256
6
ByLayer
370
18
48
1
60
0
100
AcDbLine
10
181.902219
20
322.85
30
0
11
194
21
322.85
31
0
39
0
210
0
220
0
230
1
0
LINE
5
1C5
100
AcDbEntity
8
1
62
256
6
ByLayer
370
18
48
1
60
0
100
AcDbLine
10
158.3
20
-276.2023
30
0
11
158.3
21
-327.8023
31
0
39
0
210
0
220
0
230
1
0
LINE
5
1C6
100
AcDbEntity
8
1
62
256
6
ByLayer
370
18
48
1
60
0
100
AcDbLine
10
195.5
20
-278.0023
30
0
11
195.5
21
-326.0023
31
0
39
0
210
0
220
0
230
1
0
LINE
5
1C7
100
AcDbEntity
8
1
62
256
6
ByLayer
370
18
48
1
60
0
100
AcDbLine
10
193.7
20
-276.2023
30
0
11
193.7
21
-327.8023
31
0
39
0
210
0
220
0
230
1
0
LINE
5
1C8
100
AcDbEntity
8
1
62
256
6
ByLayer
370
18
48
1
60
0
100
AcDbLine
10
132.000023
20
299
30
0
11
131.400003
21
299
31
0
39
0
210
0
220
0
230
1
0
LINE
5
1C9
100
AcDbEntity
8
1
62
256
6
ByLayer
370
18
48
1
60
0
100
AcDbLine
10
129
20
56
30
0
11
131.008111
21
68
31
0
39
0
210
0
220
0
230
1
0
LINE
5
1CA
100
AcDbEntity
8
1
62
256
6
ByLayer
370
18
48
1
60
0
100
AcDbLine
10
86
20
56
30
0
11
129
21
56
31
0
39
0
210
0
220
0
230
1
0
LINE
5
1CB
100
AcDbEntity
8
1
62
256
6
ByLayer
370
18
48
1
60
0
100
AcDbLine
10
132.330118
20
75.9
30
0
11
131.008111
21
68
31
0
39
0
210
0
220
0
230
1
0
LINE
5
1CC
100
AcDbEntity
8
1
62
256
6
ByLayer
370
13
48
1
60
0
100
AcDbLine
10
86
20
68
30
0
11
131.008111
21
68
31
0
39
0
210
0
220
0
230
1
0
LINE
5
1CD
100
AcDbEntity
8
1
62
256
6
ByLayer
370
18
48
1
60
0
100
AcDbLine
10
132.330118
20
75.9
30
0
11
134.742504
21
90.315853
31
0
39
0
210
0
220
0
230
1
0
LINE
5
1CE
100
AcDbEntity
8
1
62
256
6
ByLayer
370
13
48
1
60
0
100
AcDbLine
10
132.330118
20
75.9
30
0
11
86
21
75.9
31
0
39
0
210
0
220
0
230
1
0
LINE
5
1CF
100
AcDbEntity
8
1
62
256
6
ByLayer
370
18
48
1
60
0
100
AcDbLine
10
134.816405
20
90.757466
30
0
11
134.742504
21
90.315853
31
0
39
0
210
0
220
0
230
1
0
LINE
5
1D0
100
AcDbEntity
8
1
62
256
6
ByLayer
370
13
48
1
60
0
100
AcDbLine
10
134.742504
20
90.315853
30
0
11
86
21
90.315853
31
0
39
0
210
0
220
0
230
1
0
LINE
5
1D1
100
AcDbEntity
8
1
62
256
6
ByLayer
370
18
48
1
60
0
100
AcDbLine
10
126
20
299
30
0
11
101.825079
21
292.52235
31
0
39
0
210
0
220
0
230
1
0
LINE
5
1D2
100
AcDbEntity
8
1
62
256
6
ByLayer
370
18
48
1
60
0
100
AcDbLine
10
144.943018
20
297.912637
30
0
11
146
21
297.726263
31
0
39
0
210
0
220
0
230
1
0
LINE
5
1D3
100
AcDbEntity
8
1
62
256
6
ByLayer
370
18
48
1
60
0
100
AcDbLine
10
131.4
20
298.244708
30
0
11
144.943018
21
297.912637
31
0
39
0
210
0
220
0
230
1
0
LINE
5
1D4
100
AcDbEntity
8
1
62
256
6
ByLayer
370
18
48
1
60
0
100
AcDbLine
10
131.4
20
299
30
0
11
131.4
21
298.244708
31
0
39
0
210
0
220
0
230
1
0
LINE
5
1D5
100
AcDbEntity
8
1
62
256
6
ByLayer
370
18
48
1
60
0
100
AcDbLine
10
131.4
20
299
30
0
11
126
21
299
31
0
39
0
210
0
220
0
230
1
0
LINE
5
1D6
100
AcDbEntity
8
1
62
256
6
ByLayer
370
18
48
1
60
0
100
AcDbLine
10
92.940047
20
288.880094
30
0
11
93.668385
21
290.33677
31
0
39
0
210
0
220
0
230
1
0
LINE
5
1D7
100
AcDbEntity
8
1
62
256
6
ByLayer
370
18
48
1
60
0
100
AcDbLine
10
146
20
292.46669
30
0
11
146
21
289.161172
31
0
39
0
210
0
220
0
230
1
0
LINE
5
1D8
100
AcDbEntity
8
1
62
256
6
ByLayer
370
13
48
1
60
0
100
AcDbLine
10
101.825079
20
292.52235
30
0
11
146
21
292.52235
31
0
39
0
210
0
220
0
230
1
0
LINE
5
1D9
100
AcDbEntity
8
1
62
256
6
ByLayer
370
18
48
1
60
0
100
AcDbLine
10
93.668385
20
290.33677
30
0
11
101.825079
21
292.52235
31
0
39
0
210
0
220
0
230
1
0
LINE
5
1DA
100
AcDbEntity
8
1
62
256
6
ByLayer
370
18
48
1
60
0
100
AcDbLine
10
86
20
252.707069
30
0
11
86
21
275
31
0
39
0
210
0
220
0
230
1
0
LINE
5
1DB
100
AcDbEntity
8
1
62
256
6
ByLayer
370
13
48
1
60
0
100
AcDbLine
10
145.969051
20
288.880094
30
0
11
92.940047
21
288.880094
31
0
39
0
210
0
220
0
230
1
0
LINE
5
1DC
100
AcDbEntity
8
1
62
256
6
ByLayer
370
18
48
1
60
0
100
AcDbLine
10
86
20
275
30
0
11
92.940047
21
288.880094
31
0
39
0
210
0
220
0
230
1
0
LINE
5
1DD
100
AcDbEntity
8
1
62
256
6
ByLayer
370
18
48
1
60
0
100
AcDbLine
10
139.641178
20
119.589171
30
0
11
134.816405
21
90.757466
31
0
39
0
210
0
220
0
230
1
0
LINE
5
1DE
100
AcDbEntity
8
1
62
256
6
ByLayer
370
13
48
1
60
0
100
AcDbLine
10
134.816405
20
90.757466
30
0
11
86
21
90.757466
31
0
39
0
210
0
220
0
230
1
0
LINE
5
1DF
100
AcDbEntity
8
1
62
256
6
ByLayer
370
18
48
1
60
0
100
AcDbLine
10
146
20
157.587994
30
0
11
143
21
139.660701
31
0
39
0
210
0
220
0
230
1
0
LINE
5
1E0
100
AcDbEntity
8
1
62
256
6
ByLayer
370
18
48
1
60
0
100
AcDbLine
10
146
20
289.161172
30
0
11
146
21
157.587994
31
0
39
0
210
0
220
0
230
1
0
LINE
5
1E1
100
AcDbEntity
8
1
62
256
6
ByLayer
370
18
48
1
60
0
100
AcDbLine
10
143.275989
20
252.707069
30
0
11
145.969051
21
288.880094
31
0
39
0
210
0
220
0
230
1
0
LINE
5
1E2
100
AcDbEntity
8
1
62
256
6
ByLayer
370
18
48
1
60
0
100
AcDbLine
10
86
20
245.282672
30
0
11
86
21
252.707069
31
0
39
0
210
0
220
0
230
1
0
LINE
5
1E3
100
AcDbEntity
8
1
62
256
6
ByLayer
370
13
48
1
60
0
100
AcDbLine
10
86
20
252.707069
30
0
11
143.275989
21
252.707069
31
0
39
0
210
0
220
0
230
1
0
LINE
5
1E4
100
AcDbEntity
8
1
62
256
6
ByLayer
370
18
48
1
60
0
100
AcDbLine
10
86
20
234.999372
30
0
11
86
21
245.282672
31
0
39
0
210
0
220
0
230
1
0
LINE
5
1E5
100
AcDbEntity
8
1
62
256
6
ByLayer
370
18
48
1
60
0
100
AcDbLine
10
139.641178
20
119.589171
30
0
11
143
21
139.660701
31
0
39
0
210
0
220
0
230
1
0
LINE
5
1E6
100
AcDbEntity
8
1
62
256
6
ByLayer
370
18
48
1
60
0
100
AcDbLine
10
143
20
139.660701
30
0
11
143
21
245.282672
31
0
39
0
210
0
220
0
230
1
0
LINE
5
1E7
100
AcDbEntity
8
1
62
256
6
ByLayer
370
13
48
1
60
0
100
AcDbLine
10
143
20
245.282672
30
0
11
86
21
245.282672
31
0
39
0
210
0
220
0
230
1
0
LINE
5
1E8
100
AcDbEntity
8
1
62
256
6
ByLayer
370
13
48
1
60
0
100
AcDbLine
10
86
20
119.589171
30
0
11
139.641178
21
119.589171
31
0
39
0
210
0
220
0
230
1
0
LINE
5
1E9
100
AcDbEntity
8
1
62
256
6
ByLayer
370
18
48
1
60
0
100
AcDbLine
10
142.785
20
-77.8
30
0
11
142.785
21
-62.2
31
0
39
0
210
0
220
0
230
1
0
LINE
5
1EA
100
AcDbEntity
8
1
62
256
6
ByLayer
370
13
48
1
60
0
100
AcDbLine
10
141.585
20
-79
30
0
11
141.585
21
-61
31
0
39
0
210
0
220
0
230
1
0
LINE
5
1EB
100
AcDbEntity
8
1
62
256
6
ByLayer
370
18
48
1
60
0
100
AcDbLine
10
168.62
20
252.25
30
0
11
168.62
21
238.25
31
0
39
0
210
0
220
0
230
1
0
LINE
5
1EC
100
AcDbEntity
8
1
62
256
6
ByLayer
370
13
48
1
60
0
100
AcDbLine
10
167.62
20
253.25
30
0
11
167.62
21
237.25
31
0
39
0
210
0
220
0
230
1
0
LINE
5
1ED
100
AcDbEntity
8
1
62
256
6
ByLayer
370
18
48
1
60
0
100
AcDbLine
10
186.75
20
279.0613
30
0
11
193.793579
21
280.571969
31
0
39
0
210
0
220
0
230
1
0
LINE
5
1EE
100
AcDbEntity
8
1
62
256
6
ByLayer
370
18
48
1
60
0
100
AcDbLine
10
170.206421
20
280.571969
30
0
11
177.25
21
279.0613
31
0
39
0
210
0
220
0
230
1
0
LINE
5
1EF
100
AcDbEntity
8
1
62
256
6
ByLayer
370
18
48
1
60
0
100
AcDbLine
10
193.793579
20
280.571969
30
0
11
193.823911
21
280.602301
31
0
39
0
210
0
220
0
230
1
0
LINE
5
1F0
100
AcDbEntity
8
1
62
256
6
ByLayer
370
18
48
1
60
0
100
AcDbLine
10
170.176089
20
280.602301
30
0
11
170.206421
21
280.571969
31
0
39
0
210
0
220
0
230
1
0
LINE
5
1F1
100
AcDbEntity
8
1
62
256
6
ByLayer
370
18
48
1
60
0
100
AcDbLine
10
158.8
20
293.25
30
0
11
158
21
293.25
31
0
39
0
210
0
220
0
230
1
0
LINE
5
1F2
100
AcDbEntity
8
1
62
256
6
ByLayer
370
18
48
1
60
0
100
AcDbLine
10
158
20
273.25
30
0
11
158.8
21
273.25
31
0
39
0
210
0
220
0
230
1
0
LINE
5
1F3
100
AcDbEntity
8
1
62
256
6
ByLayer
370
18
48
1
60
0
100
AcDbLine
10
167.62
20
-237.25
30
0
11
158.8
21
-237.25
31
0
39
0
210
0
220
0
230
1
0
LINE
5
1F4
100
AcDbEntity
8
1
62
256
6
ByLayer
370
18
48
1
60
0
100
AcDbLine
10
129.669375
20
60
30
0
11
131
21
60
31
0
39
0
210
0
220
0
230
1
0
LINE
5
1F5
100
AcDbEntity
8
1
62
256
6
ByLayer
370
18
48
1
60
0
100
AcDbLine
10
56
20
-232.364029
30
0
11
56.5
21
-232.864029
31
0
39
0
210
0
220
0
230
1
0
LINE
5
1F6
100
AcDbEntity
8
1
62
256
6
ByLayer
370
18
48
1
60
0
100
AcDbLine
10
56
20
-232.320467
30
0
11
56
21
-232.364029
31
0
39
0
210
0
220
0
230
1
0
LINE
5
1F7
100
AcDbEntity
8
1
62
256
6
ByLayer
370
18
48
1
60
0
100
AcDbLine
10
158.5
20
328.1023
30
0
11
154.143006
21
328.1023
31
0
39
0
210
0
220
0
230
1
0
LINE
5
1F8
100
AcDbEntity
8
1
62
256
6
ByLayer
370
18
48
1
60
0
100
AcDbLine
10
131
20
61
30
0
11
141.585
21
61
31
0
39
0
210
0
220
0
230
1
0
LINE
5
1F9
100
AcDbEntity
8
1
62
256
6
ByLayer
370
18
48
1
60
0
100
AcDbLine
10
141.585
20
79
30
0
11
132.848902
21
79
31
0
39
0
210
0
220
0
230
1
0
LINE
5
1FA
100
AcDbEntity
8
1
62
256
6
ByLayer
370
18
48
1
60
0
100
AcDbLine
10
158.8
20
-266.25
30
0
11
167.62
21
-266.25
31
0
39
0
210
0
220
0
230
1
0
LINE
5
1FB
100
AcDbEntity
8
1
62
256
6
ByLayer
370
18
48
1
60
0
100
AcDbLine
10
167.62
20
-250.25
30
0
11
158.8
21
-250.25
31
0
39
0
210
0
220
0
230
1
0
LINE
5
1FC
100
AcDbEntity
8
SK1
62
256
6
ByLayer
370
18
48
1
60
0
100
AcDbLine
10
-21.5
20
-42.694024
30
0
11
-20.273
21
-43.921024
31
0
39
0
210
0
220
0
230
1
0
LINE
5
1FD
100
AcDbEntity
8
SK1
62
256
6
ByLayer
370
18
48
1
60
0
100
AcDbLine
10
-20.273
20
-27.921024
30
0
11
-21.5
21
-29.148024
31
0
39
0
210
0
220
0
230
1
0
LINE
5
1FE
100
AcDbEntity
8
SK1
62
256
6
ByLayer
370
18
48
1
60
0
100
AcDbLine
10
0.001279
20
-27.921024
30
0
11
-20.273
21
-27.921024
31
0
39
0
210
0
220
0
230
1
0
LINE
5
1FF
100
AcDbEntity
8
SK1
62
256
6
ByLayer
370
18
48
1
60
0
100
AcDbLine
10
-20.273
20
-43.921024
30
0
11
0.001279
21
-43.921024
31
0
39
0
210
0
220
0
230
1
0
LINE
5
200
100
AcDbEntity
8
1
62
256
6
ByLayer
370
18
48
1
60
0
100
AcDbLine
10
167.62
20
266.25
30
0
11
158.8
21
266.25
31
0
39
0
210
0
220
0
230
1
0
LINE
5
201
100
AcDbEntity
8
1
62
256
6
ByLayer
370
18
48
1
60
0
100
AcDbLine
10
158.8
20
255.25
30
0
11
158
21
255.25
31
0
39
0
210
0
220
0
230
1
0
LINE
5
202
100
AcDbEntity
8
1
62
256
6
ByLayer
370
18
48
1
60
0
100
AcDbLine
10
158
20
235.25
30
0
11
158.8
21
235.25
31
0
39
0
210
0
220
0
230
1
0
LINE
5
203
100
AcDbEntity
8
1
62
256
6
ByLayer
370
18
48
1
60
0
100
AcDbLine
10
158.8
20
275.25
30
0
11
167.62
21
275.25
31
0
39
0
210
0
220
0
230
1
0
LINE
5
204
100
AcDbEntity
8
1
62
256
6
ByLayer
370
18
48
1
60
0
100
AcDbLine
10
167.62
20
291.25
30
0
11
158.8
21
291.25
31
0
39
0
210
0
220
0
230
1
0
LINE
5
205
100
AcDbEntity
8
1
62
256
6
ByLayer
370
18
48
1
60
0
100
AcDbLine
10
163.824733
20
326.99605
30
0
11
158.500013
21
326.99605
31
0
39
0
210
0
220
0
230
1
0
LINE
5
206
100
AcDbEntity
8
1
62
256
6
ByLayer
370
18
48
1
60
0
100
AcDbLine
10
153.672543
20
-328.0023
30
0
11
158
21
-328.0023
31
0
39
0
210
0
220
0
230
1
0
LINE
5
207
100
AcDbEntity
8
1
62
256
6
ByLayer
370
18
48
1
60
0
100
AcDbLine
10
170.25
20
327.15214
30
0
11
170.25
21
326.060387
31
0
39
0
210
0
220
0
230
1
0
LINE
5
208
100
AcDbEntity
8
1
62
256
6
ByLayer
370
18
48
1
60
0
100
AcDbLine
10
173.765239
20
330.665239
30
0
11
170.25
21
327.15
31
0
39
0
210
0
220
0
230
1
0
LINE
5
209
100
AcDbEntity
8
1
62
256
6
ByLayer
370
18
48
1
60
0
100
AcDbLine
10
202.209621
20
332.204123
30
0
11
191.454063
21
331.640448
31
0
39
0
210
0
220
0
230
1
0
LINE
5
20A
100
AcDbEntity
8
1
62
256
6
ByLayer
370
18
48
1
60
0
100
AcDbLine
10
167.62
20
-275.25
30
0
11
158.8
21
-275.25
31
0
39
0
210
0
220
0
230
1
0
LINE
5
20B
100
AcDbEntity
8
1
62
256
6
ByLayer
370
18
48
1
60
0
100
AcDbLine
10
158.8
20
268.25
30
0
11
158.499988
21
268.25
31
0
39
0
210
0
220
0
230
1
0
LINE
5
20C
100
AcDbEntity
8
1
62
256
6
ByLayer
370
18
48
1
60
0
100
AcDbLine
10
158.8
20
-248.25
30
0
11
158
21
-248.25
31
0
39
0
210
0
220
0
230
1
0
LINE
5
20D
100
AcDbEntity
8
1
62
256
6
ByLayer
370
18
48
1
60
0
100
AcDbLine
10
158
20
-268.25
30
0
11
158.8
21
-268.25
31
0
39
0
210
0
220
0
230
1
0
LINE
5
20E
100
AcDbEntity
8
1
62
256
6
ByLayer
370
18
48
1
60
0
100
AcDbLine
10
158.8
20
-273.25
30
0
11
158
21
-273.25
31
0
39
0
210
0
220
0
230
1
0
LINE
5
20F
100
AcDbEntity
8
1
62
256
6
ByLayer
370
18
48
1
60
0
100
AcDbLine
10
2
20
81
30
0
11
1.5
21
81
31
0
39
0
210
0
220
0
230
1
0
LINE
5
210
100
AcDbEntity
8
1
62
256
6
ByLayer
370
18
48
1
60
0
100
AcDbLine
10
1.5
20
-81
30
0
11
2
21
-81
31
0
39
0
210
0
220
0
230
1
0
LINE
5
211
100
AcDbEntity
8
1
62
256
6
ByLayer
370
18
48
1
60
0
100
AcDbLine
10
131
20
-60
30
0
11
129.669375
21
-60
31
0
39
0
210
0
220
0
230
1
0
LINE
5
212
100
AcDbEntity
8
1
62
256
6
ByLayer
370
18
48
1
60
0
100
AcDbLine
10
56.5
20
232.864029
30
0
11
56
21
232.364029
31
0
39
0
210
0
220
0
230
1
0
LINE
5
213
100
AcDbEntity
8
1
62
256
6
ByLayer
370
18
48
1
60
0
100
AcDbLine
10
56
20
232.364029
30
0
11
56
21
232.320467
31
0
39
0
210
0
220
0
230
1
0
LINE
5
214
100
AcDbEntity
8
SK1
62
256
6
ByLayer
370
18
48
1
60
0
100
AcDbLine
10
0.001279
20
43.921024
30
0
11
-20.273
21
43.921024
31
0
39
0
210
0
220
0
230
1
0
LINE
5
215
100
AcDbEntity
8
SK1
62
256
6
ByLayer
370
18
48
1
60
0
100
AcDbLine
10
-20.273
20
27.921024
30
0
11
0.001279
21
27.921024
31
0
39
0
210
0
220
0
230
1
0
LINE
5
216
100
AcDbEntity
8
SK1
62
256
6
ByLayer
370
18
48
1
60
0
100
AcDbLine
10
-21.5
20
29.148024
30
0
11
-20.273
21
27.921024
31
0
39
0
210
0
220
0
230
1
0
LINE
5
217
100
AcDbEntity
8
SK1
62
256
6
ByLayer
370
18
48
1
60
0
100
AcDbLine
10
-20.273
20
43.921024
30
0
11
-21.5
21
42.694024
31
0
39
0
210
0
220
0
230
1
0
LINE
5
218
100
AcDbEntity
8
1
62
256
6
ByLayer
370
18
48
1
60
0
100
AcDbLine
10
158.8
20
-235.25
30
0
11
158
21
-235.25
31
0
39
0
210
0
220
0
230
1
0
LINE
5
219
100
AcDbEntity
8
1
62
256
6
ByLayer
370
18
48
1
60
0
100
AcDbLine
10
170.25
20
327.15214
30
0
11
170.25
21
326.060387
31
0
39
0
210
0
220
0
230
1
0
LINE
5
21A
100
AcDbEntity
8
1
62
256
6
ByLayer
370
18
48
1
60
0
100
AcDbLine
10
202.209621
20
332.204123
30
0
11
191.454063
21
331.640448
31
0
39
0
210
0
220
0
230
1
0
LINE
5
21B
100
AcDbEntity
8
1
62
256
6
ByLayer
370
18
48
1
60
0
100
AcDbLine
10
173.765239
20
330.665239
30
0
11
170.25
21
327.15
31
0
39
0
210
0
220
0
230
1
0
LINE
5
21C
100
AcDbEntity
8
1
62
256
6
ByLayer
370
18
48
1
60
0
100
AcDbLine
10
131.95
20
-318.5023
30
0
11
132
21
-318.5523
31
0
39
0
210
0
220
0
230
1
0
LINE
5
21D
100
AcDbEntity
8
1
62
256
6
ByLayer
370
18
48
1
60
0
100
AcDbLine
10
132
20
-309.4523
30
0
11
131.95
21
-309.5023
31
0
39
0
210
0
220
0
230
1
0
LINE
5
21E
100
AcDbEntity
8
1
62
256
6
ByLayer
370
18
48
1
60
0
100
AcDbLine
10
131.95
20
309.5023
30
0
11
132
21
309.4523
31
0
39
0
210
0
220
0
230
1
0
LINE
5
21F
100
AcDbEntity
8
1
62
256
6
ByLayer
370
18
48
1
60
0
100
AcDbLine
10
132
20
318.5523
30
0
11
131.95
21
318.5023
31
0
39
0
210
0
220
0
230
1
0
LINE
5
220
100
AcDbEntity
8
1
62
256
6
ByLayer
370
18
48
1
60
0
100
AcDbLine
10
194
20
319.516314
30
0
11
194
21
322.85
31
0
39
0
210
0
220
0
230
1
0
LINE
5
221
100
AcDbEntity
8
1
62
256
6
ByLayer
370
18
48
1
60
0
100
AcDbLine
10
194
20
322.85
30
0
11
193.85
21
323
31
0
39
0
210
0
220
0
230
1
0
LINE
5
222
100
AcDbEntity
8
1
62
256
6
ByLayer
370
18
48
1
60
0
100
AcDbLine
10
158
20
-327.5023
30
0
11
158.3
21
-327.8023
31
0
39
0
210
0
220
0
230
1
0
LINE
5
223
100
AcDbEntity
8
1
62
256
6
ByLayer
370
18
48
1
60
0
100
AcDbLine
10
158.3
20
-276.2023
30
0
11
158
21
-276.5023
31
0
39
0
210
0
220
0
230
1
0
LINE
5
224
100
AcDbEntity
8
1
62
256
6
ByLayer
370
18
48
1
60
0
100
AcDbLine
10
158.3
20
-327.8023
30
0
11
193.7
21
-327.8023
31
0
39
0
210
0
220
0
230
1
0
LINE
5
225
100
AcDbEntity
8
1
62
256
6
ByLayer
370
18
48
1
60
0
100
AcDbLine
10
193.7
20
-276.2023
30
0
11
158.3
21
-276.2023
31
0
39
0
210
0
220
0
230
1
0
LINE
5
226
100
AcDbEntity
8
1
62
256
6
ByLayer
370
18
48
1
60
0
100
AcDbLine
10
195.5
20
-278.0023
30
0
11
193.7
21
-276.2023
31
0
39
0
210
0
220
0
230
1
0
LINE
5
227
100
AcDbEntity
8
1
62
256
6
ByLayer
370
18
48
1
60
0
100
AcDbLine
10
193.7
20
-327.8023
30
0
11
195.5
21
-326.0023
31
0
39
0
210
0
220
0
230
1
0
LINE
5
228
100
AcDbEntity
8
1
62
256
6
ByLayer
370
18
48
1
60
0
100
AcDbLine
10
132.848902
20
-79
30
0
11
141.585
21
-79
31
0
39
0
210
0
220
0
230
1
0
LINE
5
229
100
AcDbEntity
8
1
62
256
6
ByLayer
370
18
48
1
60
0
100
AcDbLine
10
141.585
20
-61
30
0
11
131
21
-61
31
0
39
0
210
0
220
0
230
1
0
LINE
5
22A
100
AcDbEntity
8
1
62
256
6
ByLayer
370
18
48
1
60
0
100
AcDbLine
10
158.8
20
237.25
30
0
11
167.62
21
237.25
31
0
39
0
210
0
220
0
230
1
0
LINE
5
22B
100
AcDbEntity
8
1
62
256
6
ByLayer
370
18
48
1
60
0
100
AcDbLine
10
167.62
20
253.25
30
0
11
158.8
21
253.25
31
0
39
0
210
0
220
0
230
1
0
MTEXT
5
360
100
AcDbEntity
8
2
62
256
6
ByLayer
370
18
48
1
60
0
100
AcDbMText
10
233.332643
20
263.940871
30
0
210
0
220
0
230
1
1
\W0.8696;Dc finishing = 544.35 - 787.65
40
3
41
0
44
1.084337
50
89.9999999999991
71
7
72
5
7
iso_b_vert
0
MTEXT
5
363
100
AcDbEntity
8
SK6
62
256
6
ByLayer
370
18
48
1
60
0
100
AcDbMText
10
211.96243
20
344.618899
30
0
210
0
220
0
230
1
1
\W0.7425;826-787TC11HP
40
3
41
0
44
1.084337
50
0
71
7
72
5
7
iso_b_vert
0
DIMENSION
5
366
100
AcDbEntity
8
SK2
62
256
6
ByLayer
370
18
48
1
60
0
100
AcDbDimension
2
_U0
10
-70.5
20
20.00625
30
0
11
-70.5
21
0
31
0
70
32
71
1
72
1
41
1
210
0
220
0
230
1
3
Standard
100
AcDbAlignedDimension
13
1.03923
23
-20.00625
33
0
14
18
24
20.00625
34
0
50
90
100
AcDbRotatedDimension
1001
ACAD
1000
DSTYLE
1002
{
1070
   371
1070
    13
1070
   372
1070
    13
1070
     3
1000

1070
   170
1070
     0
1070
   144
1040
1.0
1070
   277
1070
     2
1070
   284
1070
     8
1070
   278
1070
    46
1070
   146
1040
1.166667
1070
   345
1005
16
1070
   347
1005
16
1070
   346
1005
16
1070
   344
1005
0
1070
   343
1005
0
1070
   172
1070
     1
1070
    76
1070
     0
1070
    75
1070
     0
1070
   282
1070
     0
1070
   281
1070
     0
1070
    71
1070
     0
1070
   272
1070
     4
1070
    74
1070
     0
1070
   279
1070
     0
1070
   173
1070
     1
1070
   340
1005
361
1070
   271
1070
     1
1070
    77
1070
     1
1070
    73
1070
     0
1070
   171
1070
     3
1070
   274
1070
     4
1070
   177
1070
   254
1070
   176
1070
   254
1070
   178
1070
     7
1070
    78
1070
     8
1070
    41
1040
5.0
1070
   147
1040
1.5
1070
    42
1040
0.5
1070
    44
1040
2.0
1070
   140
1040
3.0
1002
}
1001
ACAD_DSTYLE_DIM_LINETYPE
1070
   380
1005
16
1001
ACAD_DSTYLE_DIM_EXT1_LINETYPE
1070
   381
1005
16
1001
ACAD_DSTYLE_DIM_EXT2_LINETYPE
1070
   382
1005
16
0
DIMENSION
5
381
100
AcDbEntity
8
2
62
256
6
ByLayer
370
18
48
1
60
0
100
AcDbDimension
2
_U1
10
205
20
370.5
30
0
11
102.5
21
370.5
31
0
70
32
71
1
72
1
41
1
210
0
220
0
230
1
3
Standard
100
AcDbAlignedDimension
13
0
23
79.5
33
0
14
205
24
333
34
0
50
0
100
AcDbRotatedDimension
1001
ACAD
1000
DSTYLE
1002
{
1070
   371
1070
    13
1070
   372
1070
    13
1070
   170
1070
     0
1070
   144
1040
1.0
1070
   277
1070
     2
1070
   284
1070
     8
1070
   278
1070
    46
1070
   146
1040
1.166667
1070
   345
1005
16
1070
   347
1005
16
1070
   346
1005
16
1070
   344
1005
0
1070
   343
1005
0
1070
   172
1070
     1
1070
    76
1070
     0
1070
    75
1070
     0
1070
   282
1070
     0
1070
   281
1070
     0
1070
    71
1070
     0
1070
   272
1070
     4
1070
   271
1070
     4
1070
    74
1070
     0
1070
   279
1070
     0
1070
   173
1070
     1
1070
   340
1005
361
1070
    77
1070
     1
1070
    73
1070
     1
1070
   171
1070
     3
1070
   274
1070
     4
1070
   177
1070
   254
1070
   176
1070
   254
1070
   178
1070
     7
1070
    78
1070
     8
1070
    41
1040
5.0
1070
   147
1040
1.5
1070
    42
1040
0.5
1070
    44
1040
2.0
1070
   140
1040
3.0
1002
}
1001
ACAD_DSTYLE_DIM_LINETYPE
1070
   380
1005
16
1001
ACAD_DSTYLE_DIM_EXT1_LINETYPE
1070
   381
1005
16
1001
ACAD_DSTYLE_DIM_EXT2_LINETYPE
1070
   382
1005
16
0
DIMENSION
5
399
100
AcDbEntity
8
2
62
256
6
ByLayer
370
18
48
1
60
0
100
AcDbDimension
2
_U2
10
237
20
333
30
0
11
214.26298
21
323.422511
31
0
70
34
71
1
72
1
41
1
210
0
220
0
230
1
3
Standard
100
AcDb2LineAngularDimension
13
204.663903
23
322.971516
33
0
14
204.999766
24
332.589361
34
0
15
207
25
333
35
0
16
211.401139
26
321.317715
36
0
40
0
0
ENDSEC
0
SECTION
2
OBJECTS
0
DICTIONARY
5
423
330
0
100
AcDbDictionary
280
0
281
1
3
ACAD_GROUP
350
424
3
ACAD_MLINESTYLE
350
425
0
DICTIONARY
5
424
330
0
100
AcDbDictionary
280
0
281
1
0
DICTIONARY
5
425
330
0
100
AcDbDictionary
280
0
281
1
3
Standard
350
18
0
MLINESTYLE
5
18
330
425
100
AcDbMlineStyle
2
Standard
70
0
3

62
256
51
90
52
90
71
2
49
-0.5
62
256
6
ByLayer
49
0.5
62
256
6
ByLayer
0
RASTERVARIABLES
5
410
330

100
AcDbRasterVariables
90
0
70
1
71
1
72
1
0
ENDSEC
0
EOF
