0
SECTION
2
HEADER
9
$ACADVER
1
AC1015
9
$DWGCODEPAGE
3
ANSI_1252
9
$HANDSEED
5
3cc
9
$ANGBASE
50
0
9
$ANGDIR
70
0
9
$ATTMODE
70
1
9
$AUNITS
70
0
9
$AUPREC
70
0
9
$CECOLOR
62
256
9
$CELTSCALE
40
1
9
$CELTYPE
6
ByLayer
9
$CELWEIGHT
370
18
9
$CLAYER
8
0
9
$CMLJUST
70
0
9
$CMLSCALE
40
1
9
$CMLSTYLE
2
Standard
9
$DIMSTYLE
2
Standard
9
$TEXTSIZE
40
0.2
9
$TEXTSTYLE
7
Standard
9
$LUNITS
70
2
9
$LUPREC
70
4
9
$EXTNAMES
290
1
9
$INSUNITS
70
4
9
$LTSCALE
40
1
9
$LWDISPLAY
290
1
9
$PDMODE
70
0
9
$PDSIZE
40
0
9
$PLINEGEN
70
0
0
ENDSEC
0
SECTION
2
CLASSES
0
CLASS
1
RASTERVARIABLES
2
AcDbRasterVariables
3
ISM
90
0
280
0
281
0
0
ENDSEC
0
SECTION
2
TABLES
0
TABLE
2
VPORT
5
3c2
100
AcDbSymbolTable
0
VPORT
5
1
100
AcDbSymbolTableRecord
100
AcDbViewportTableRecord
2
*Active
70
0
10
0
20
0
11
1
21
1
12
-1
22
1
13
0
23
0
14
0.5
24
0.5
15
10
25
10
16
0
26
0
36
1
17
0
27
0
37
0
0
ENDTAB
0
TABLE
2
LTYPE
5
3c3
100
AcDbSymbolTable
0
LTYPE
5
14
100
AcDbSymbolTableRecord
100
AcDbLinetypeTableRecord
70
0
2
ByBlock
3

72
65
73
0
40
0
0
LTYPE
5
15
100
AcDbSymbolTableRecord
100
AcDbLinetypeTableRecord
70
0
2
ByLayer
3

72
65
73
0
40
0
0
LTYPE
5
16
100
AcDbSymbolTableRecord
100
AcDbLinetypeTableRecord
70
0
2
Continuous
3
Solid line
72
65
73
0
40
0
0
LTYPE
5
6E
100
AcDbSymbolTableRecord
100
AcDbLinetypeTableRecord
70
0
2
CENTER
3
____ _ ____ _ ____ _ ____
72
65
73
4
40
47.5
49
22
74
0
49
-8.5
74
0
49
8.5
74
0
49
-8.5
74
0
0
LTYPE
5
6F
100
AcDbSymbolTableRecord
100
AcDbLinetypeTableRecord
70
0
2
DASHED
3
__ __ __ __ __ __ __ __ __
72
65
73
2
40
25.72
49
12.86
74
0
49
-12.86
74
0
0
ENDTAB
0
TABLE
2
LAYER
5
3c4
100
AcDbSymbolTable
0
LAYER
5
10
100
AcDbSymbolTableRecord
100
AcDbLayerTableRecord
2
0
70
0
62
7
6
Continuous
290
1
370
-3
390
0
0
LAYER
5
71
100
AcDbSymbolTableRecord
100
AcDbLayerTableRecord
2
80
70
0
62
-6
6
Continuous
290
1
370
-3
390
0
0
LAYER
5
73
100
AcDbSymbolTableRecord
100
AcDbLayerTableRecord
2
81
70
0
62
-3
6
Continuous
290
1
370
-3
390
0
0
LAYER
5
81
100
AcDbSymbolTableRecord
100
AcDbLayerTableRecord
2
4
70
0
62
-2
6
CENTER
290
1
370
-3
390
0
0
LAYER
5
85
100
AcDbSymbolTableRecord
100
AcDbLayerTableRecord
2
1
70
0
62
4
6
Continuous
290
1
370
-3
390
0
0
LAYER
5
99
100
AcDbSymbolTableRecord
100
AcDbLayerTableRecord
2
2
70
0
62
7
6
Continuous
290
1
370
-3
390
0
0
LAYER
5
303
100
AcDbSymbolTableRecord
100
AcDbLayerTableRecord
2
Defpoints
70
0
62
7
6
Continuous
290
0
370
-3
390
0
0
LAYER
5
3ad
100
AcDbSymbolTableRecord
100
AcDbLayerTableRecord
2
SK3
70
0
62
1
6
DASHED
290
1
370
-3
390
0
0
LAYER
5
3ae
100
AcDbSymbolTableRecord
100
AcDbLayerTableRecord
2
SK4
70
0
62
2
6
CENTER
290
1
370
-3
390
0
0
LAYER
5
3af
100
AcDbSymbolTableRecord
100
AcDbLayerTableRecord
2
SK1
70
0
62
4
6
Continuous
290
1
370
-3
390
0
0
LAYER
5
3b0
100
AcDbSymbolTableRecord
100
AcDbLayerTableRecord
2
SK6
70
0
62
5
6
Continuous
290
1
370
-3
390
0
0
LAYER
5
3b1
100
AcDbSymbolTableRecord
100
AcDbLayerTableRecord
2
SK2
70
0
62
7
6
Continuous
290
1
370
-3
390
0
0
ENDTAB
0
TABLE
2
STYLE
5
3c5
100
AcDbSymbolTable
0
STYLE
5
11
100
AcDbSymbolTableRecord
100
AcDbTextStyleTableRecord
2
Standard
3
txt
70
0
71
0
40
0
41
1
42
0
50
0
0
STYLE
5
2FB
100
AcDbSymbolTableRecord
100
AcDbTextStyleTableRecord
2
iso_b_vert
3
simplex.shx
70
0
71
0
40
0
41
1
42
0
50
0
0
STYLE
5
2FC
100
AcDbSymbolTableRecord
100
AcDbTextStyleTableRecord
2
DWGDirectTextStyle
3
simplex
70
0
71
0
40
0
41
1
42
0
50
0
0
ENDTAB
0
TABLE
2
DIMSTYLE
5
3c6
100
AcDbSymbolTable
100
AcDbDimStyleTable
0
DIMSTYLE
105
27
100
AcDbSymbolTableRecord
100
AcDbDimStyleTableRecord
2
Standard
70
0
3
<>
41
0.18
42
0.0625
44
0.18
140
0.18
147
0.09
73
0
74
0
77
1
271
2
275
0
278
52
280
0
340
11
0
ENDTAB
0
TABLE
2
VIEW
5
3c7
100
AcDbSymbolTable
0
ENDTAB
0
TABLE
2
UCS
5
3c8
100
AcDbSymbolTable
0
ENDTAB
0
TABLE
2
APPID
5
3c9
100
AcDbSymbolTable
0
APPID
5
12
100
AcDbSymbolTableRecord
100
AcDbRegAppTableRecord
2
ACAD
70
0
0
APPID
5
2FF
100
AcDbSymbolTableRecord
100
AcDbRegAppTableRecord
2
ACAD_DSTYLE_DIMBREAK
70
0
0
APPID
5
31C
100
AcDbSymbolTableRecord
100
AcDbRegAppTableRecord
2
ACAD_DSTYLE_DIMANGULAR_EXTENSION
70
0
0
APPID
5
36C
100
AcDbSymbolTableRecord
100
AcDbRegAppTableRecord
2
ACAD_DSTYLE_DIM_LINETYPE
70
0
0
APPID
5
36D
100
AcDbSymbolTableRecord
100
AcDbRegAppTableRecord
2
ACAD_DSTYLE_DIM_EXT1_LINETYPE
70
0
0
APPID
5
36E
100
AcDbSymbolTableRecord
100
AcDbRegAppTableRecord
2
ACAD_DSTYLE_DIM_EXT2_LINETYPE
70
0
0
APPID
5
3A9
100
AcDbSymbolTableRecord
100
AcDbRegAppTableRecord
2
ACAD_MLEADERVER
70
0
0
ENDTAB
0
TABLE
2
BLOCK_RECORD
5
3ca
100
AcDbSymbolTable
0
BLOCK_RECORD
5
1F
100
AcDbSymbolTableRecord
100
AcDbBlockTableRecord
2
*Model_Space
340
0
70
0
0
BLOCK_RECORD
5
1B
100
AcDbSymbolTableRecord
100
AcDbBlockTableRecord
2
*Paper_Space
340
0
70
0
0
BLOCK_RECORD
5
23
100
AcDbSymbolTableRecord
100
AcDbBlockTableRecord
2
*Paper_Space0
340
0
70
0
0
BLOCK_RECORD
5
304
100
AcDbSymbolTableRecord
100
AcDbBlockTableRecord
2
*D1
340
0
70
0
0
BLOCK_RECORD
5
311
100
AcDbSymbolTableRecord
100
AcDbBlockTableRecord
2
_U0
340
0
70
0
0
BLOCK_RECORD
5
31F
100
AcDbSymbolTableRecord
100
AcDbBlockTableRecord
2
*D3
340
0
70
0
0
BLOCK_RECORD
5
32D
100
AcDbSymbolTableRecord
100
AcDbBlockTableRecord
2
_U1
340
0
70
0
0
BLOCK_RECORD
5
339
100
AcDbSymbolTableRecord
100
AcDbBlockTableRecord
2
*D5
340
0
70
0
0
BLOCK_RECORD
5
345
100
AcDbSymbolTableRecord
100
AcDbBlockTableRecord
2
_U2
340
0
70
0
0
ENDTAB
0
ENDSEC
0
SECTION
2
BLOCKS
0
BLOCK
5
20
100
AcDbEntity
8
0
100
AcDbBlockBegin
2
*Model_Space
70
0
10
0
20
0
30
0
3
*Model_Space
0
ENDBLK
5
21
100
AcDbEntity
8
0
100
AcDbBlockEnd
0
BLOCK
5
1C
100
AcDbEntity
8
0
100
AcDbBlockBegin
2
*Paper_Space
70
0
10
0
20
0
30
0
3
*Paper_Space
0
ENDBLK
5
1D
100
AcDbEntity
8
0
100
AcDbBlockEnd
0
BLOCK
5
24
100
AcDbEntity
8
0
100
AcDbBlockBegin
2
*Paper_Space0
70
0
10
0
20
0
30
0
3
*Paper_Space0
0
ENDBLK
5
25
100
AcDbEntity
8
0
100
AcDbBlockEnd
0
BLOCK
5
305
100
AcDbEntity
8
0
100
AcDbBlockBegin
2
*D1
70
1
10
0
20
0
30
0
3
*D1
0
LINE
5
307
100
AcDbEntity
8
0
62
256
6
ByLayer
370
-2
48
1
60
0
100
AcDbLine
10
0.53923
20
-20.00625
30
0
11
-57.5
21
-20.00625
31
0
39
0
210
0
220
0
230
1
0
LINE
5
308
100
AcDbEntity
8
0
62
256
6
ByLayer
370
-2
48
1
60
0
100
AcDbLine
10
17.5
20
20.00625
30
0
11
-57.5
21
20.00625
31
0
39
0
210
0
220
0
230
1
0
LINE
5
309
100
AcDbEntity
8
0
62
256
6
ByLayer
370
-2
48
1
60
0
100
AcDbLine
10
-55.5
20
-15.00625
30
0
11
-55.5
21
15.00625
31
0
39
0
210
0
220
0
230
1
0
SOLID
5
30A
100
AcDbEntity
8
0
62
256
6
ByLayer
370
-1
48
1
60
0
100
AcDbTrace
10
-56.333333
20
-15.00625
30
0
11
-54.666667
21
-15.00625
31
0
12
-55.5
22
-20.00625
32
0
13
-55.5
23
-20.00625
33
0
39
0
210
0
220
0
230
1
0
SOLID
5
30B
100
AcDbEntity
8
0
62
256
6
ByLayer
370
-1
48
1
60
0
100
AcDbTrace
10
-54.666667
20
15.00625
30
0
11
-56.333333
21
15.00625
31
0
12
-55.5
22
20.00625
32
0
13
-55.5
23
20.00625
33
0
39
0
210
0
220
0
230
1
0
MTEXT
5
30C
100
AcDbEntity
8
0
62
256
6
ByLayer
370
18
48
1
60
0
100
AcDbMText
10
-63
20
0
30
0
210
0
220
0
230
1
1
\A1;40
40
3
41
0
44
1
50
90
71
5
72
5
7
iso_b_vert
0
POINT
5
30D
100
AcDbEntity
8
Defpoints
62
0
6
ByLayer
370
-1
48
1
60
0
100
AcDbPoint
10
1.03923
20
-20.00625
30
0
39
0
210
0
220
0
230
1
50
360
0
POINT
5
30E
100
AcDbEntity
8
Defpoints
62
0
6
ByLayer
370
-1
48
1
60
0
100
AcDbPoint
10
18
20
20.00625
30
0
39
0
210
0
220
0
230
1
50
360
0
POINT
5
30F
100
AcDbEntity
8
Defpoints
62
0
6
ByLayer
370
-1
48
1
60
0
100
AcDbPoint
10
-55.5
20
20.00625
30
0
39
0
210
0
220
0
230
1
50
360
0
ENDBLK
5
306
100
AcDbEntity
8
0
100
AcDbBlockEnd
0
BLOCK
5
319
100
AcDbEntity
8
0
100
AcDbBlockBegin
2
_U0
70
0
10
0
20
0
30
0
3
_U0
0
MTEXT
5
312
100
AcDbEntity
8
SK2
62
256
6
ByLayer
370
18
48
1
60
0
100
AcDbMText
10
-56.091114
20
-2.162368
30
0
210
0
220
0
230
1
1
\W0.8461;%%c 40
40
3
41
0
44
1.084337
50
90
71
7
72
5
7
iso_b_vert
0
MTEXT
5
313
100
AcDbEntity
8
SK2
62
256
6
ByLayer
370
18
48
1
60
0
100
AcDbMText
10
-56.091114
20
-6.030789
30
0
210
0
220
0
230
1
1
\W0.3160; 
40
3
41
0
44
1.084337
50
90
71
7
72
5
7
iso_b_vert
0
LINE
5
314
100
AcDbEntity
8
SK2
62
256
6
ByLayer
370
13
48
1
60
0
100
AcDbLine
10
0.53923
20
-20.00625
30
0
11
-57.5
21
-20.00625
31
0
39
0
210
0
220
0
230
1
0
LINE
5
315
100
AcDbEntity
8
SK2
62
256
6
ByLayer
370
13
48
1
60
0
100
AcDbLine
10
0.53923
20
20.00625
30
0
11
-57.5
21
20.00625
31
0
39
0
210
0
220
0
230
1
0
LINE
5
316
100
AcDbEntity
8
SK2
62
256
6
ByLayer
370
13
48
1
60
0
100
AcDbLine
10
-55.5
20
-20.00625
30
0
11
-55.5
21
20.00625
31
0
39
0
210
0
220
0
230
1
0
SOLID
5
317
100
AcDbEntity
8
SK2
62
256
6
ByLayer
370
18
48
1
60
0
100
AcDbTrace
10
-55.5
20
-20.00625
30
0
11
-56.608473
21
-15.006254
31
0
12
-54.391527
22
-15.006246
32
0
13
-54.391527
23
-15.006246
33
0
39
0
210
0
220
0
230
1
0
SOLID
5
318
100
AcDbEntity
8
SK2
62
256
6
ByLayer
370
18
48
1
60
0
100
AcDbTrace
10
-55.5
20
20.00625
30
0
11
-54.391527
21
15.006254
31
0
12
-56.608473
22
15.006246
32
0
13
-56.608473
23
15.006246
33
0
39
0
210
0
220
0
230
1
0
ENDBLK
5
31A
100
AcDbEntity
8
0
100
AcDbBlockEnd
0
BLOCK
5
320
100
AcDbEntity
8
0
100
AcDbBlockBegin
2
*D3
70
1
10
0
20
0
30
0
3
*D3
0
LINE
5
322
100
AcDbEntity
8
0
62
256
6
ByLayer
370
-2
48
1
60
0
100
AcDbLine
10
125.594104
20
200.972735
30
0
11
125.449085
21
196.819943
31
0
39
0
210
0
220
0
230
1
0
LINE
5
323
100
AcDbEntity
8
0
62
256
6
ByLayer
370
-2
48
1
60
0
100
AcDbLine
10
129
20
213
30
0
11
142.204025
21
213
31
0
39
0
210
0
220
0
230
1
0
ARC
5
324
100
AcDbEntity
8
0
62
256
6
ByLayer
370
-2
48
1
60
0
100
AcDbCircle
39
0
10
126.014106
20
213
30
0
40
14.1899196857269
210
0
220
0
230
1
100
AcDbArc
50
280.846847
51
347.153153
0
SOLID
5
325
100
AcDbEntity
8
0
62
256
6
ByLayer
370
-1
48
1
60
0
100
AcDbTrace
10
128.643614
20
199.591192
30
0
11
128.72524
21
198.536011
31
0
12
125.518884
22
198.818724
32
0
13
125.518884
23
198.818724
33
0
39
0
210
0
220
0
230
1
0
SOLID
5
326
100
AcDbEntity
8
0
62
256
6
ByLayer
370
-1
48
1
60
0
100
AcDbTrace
10
140.374666
20
209.785731
30
0
11
139.322977
21
209.904132
31
0
12
140.204025
22
213
32
0
13
140.204025
23
213
33
0
39
0
210
0
220
0
230
1
0
MTEXT
5
327
100
AcDbEntity
8
0
62
256
6
ByLayer
370
18
48
1
60
0
100
AcDbMText
10
130.611696
20
208.239056
30
0
210
0
220
0
230
1
1
\A1;92%%d
40
3
41
0
44
1
50
0
71
5
72
5
7
iso_b_vert
0
POINT
5
328
100
AcDbEntity
8
Defpoints
62
0
6
ByLayer
370
-1
48
1
60
0
100
AcDbPoint
10
132.821196
20
200.549404
30
0
39
0
210
0
220
0
230
1
50
360
0
POINT
5
329
100
AcDbEntity
8
Defpoints
62
0
6
ByLayer
370
-1
48
1
60
0
100
AcDbPoint
10
126
20
213
30
0
39
0
210
0
220
0
230
1
50
360
0
POINT
5
32A
100
AcDbEntity
8
Defpoints
62
0
6
ByLayer
370
-1
48
1
60
0
100
AcDbPoint
10
125.663903
20
202.971516
30
0
39
0
210
0
220
0
230
1
50
360
0
POINT
5
32B
100
AcDbEntity
8
Defpoints
62
0
6
ByLayer
370
-1
48
1
60
0
100
AcDbPoint
10
125.999766
20
212.589361
30
0
39
0
210
0
220
0
230
1
50
360
0
POINT
5
32C
100
AcDbEntity
8
Defpoints
62
0
6
ByLayer
370
-1
48
1
60
0
100
AcDbPoint
10
127
20
213
30
0
39
0
210
0
220
0
230
1
50
360
0
ENDBLK
5
321
100
AcDbEntity
8
0
100
AcDbBlockEnd
0
BLOCK
5
334
100
AcDbEntity
8
0
100
AcDbBlockBegin
2
_U1
70
0
10
0
20
0
30
0
3
_U1
0
MTEXT
5
32E
100
AcDbEntity
8
2
62
256
6
ByLayer
370
18
48
1
60
0
100
AcDbMText
10
134.375703
20
198.202137
30
0
210
0
220
0
230
1
1
\W0.6673;92.0%%d
40
3
41
0
44
1.084337
50
44.0000000000003
71
7
72
5
7
iso_b_vert
0
LINE
5
32F
100
AcDbEntity
8
2
62
256
6
ByLayer
370
13
48
1
60
0
100
AcDbLine
10
125.594104
20
200.972735
30
0
11
125.344387
21
193.82177
31
0
39
0
210
0
220
0
230
1
0
LINE
5
330
100
AcDbEntity
8
2
62
256
6
ByLayer
370
13
48
1
60
0
100
AcDbLine
10
128
20
213
30
0
11
145.204025
21
213
31
0
39
0
210
0
220
0
230
1
0
ARC
5
331
100
AcDbEntity
8
2
62
256
6
ByLayer
370
13
48
1
60
0
100
AcDbCircle
39
0
10
126.014106
20
213
30
0
40
17.1899196857269
210
0
220
0
230
1
100
AcDbArc
50
268
51
359.999943
0
SOLID
5
332
100
AcDbEntity
8
2
62
256
6
ByLayer
370
18
48
1
60
0
100
AcDbTrace
10
125.414186
20
195.820552
30
0
11
128.584332
21
196.273886
31
0
12
128.593646
22
195.437944
32
0
13
128.593646
23
195.437944
33
0
39
0
210
0
220
0
230
1
0
SOLID
5
333
100
AcDbEntity
8
2
62
256
6
ByLayer
370
18
48
1
60
0
100
AcDbTrace
10
143.204025
20
213
30
0
11
143.475439
21
209.809127
31
0
12
142.640331
22
209.847603
32
0
13
142.640331
23
209.847603
33
0
39
0
210
0
220
0
230
1
0
ENDBLK
5
335
100
AcDbEntity
8
0
100
AcDbBlockEnd
0
BLOCK
5
33A
100
AcDbEntity
8
0
100
AcDbBlockBegin
2
*D5
70
1
10
0
20
0
30
0
3
*D5
0
LINE
5
33C
100
AcDbEntity
8
0
62
256
6
ByLayer
370
-2
48
1
60
0
100
AcDbLine
10
0
20
80
30
0
11
0
21
237.5
31
0
39
0
210
0
220
0
230
1
0
LINE
5
33D
100
AcDbEntity
8
0
62
256
6
ByLayer
370
-2
48
1
60
0
100
AcDbLine
10
126
20
213.5
30
0
11
126
21
237.5
31
0
39
0
210
0
220
0
230
1
0
LINE
5
33E
100
AcDbEntity
8
0
62
256
6
ByLayer
370
-2
48
1
60
0
100
AcDbLine
10
5
20
235.5
30
0
11
121
21
235.5
31
0
39
0
210
0
220
0
230
1
0
SOLID
5
33F
100
AcDbEntity
8
0
62
256
6
ByLayer
370
-1
48
1
60
0
100
AcDbTrace
10
5
20
236.333333
30
0
11
5
21
234.666667
31
0
12
0
22
235.5
32
0
13
0
23
235.5
33
0
39
0
210
0
220
0
230
1
0
SOLID
5
340
100
AcDbEntity
8
0
62
256
6
ByLayer
370
-1
48
1
60
0
100
AcDbTrace
10
121
20
234.666667
30
0
11
121
21
236.333333
31
0
12
126
22
235.5
32
0
13
126
23
235.5
33
0
39
0
210
0
220
0
230
1
0
MTEXT
5
341
100
AcDbEntity
8
0
62
256
6
ByLayer
370
18
48
1
60
0
100
AcDbMText
10
63
20
243
30
0
210
0
220
0
230
1
1
\A1;126
40
3
41
0
44
1
50
0
71
5
72
5
7
iso_b_vert
0
POINT
5
342
100
AcDbEntity
8
Defpoints
62
0
6
ByLayer
370
-1
48
1
60
0
100
AcDbPoint
10
0
20
79.5
30
0
39
0
210
0
220
0
230
1
50
360
0
POINT
5
343
100
AcDbEntity
8
Defpoints
62
0
6
ByLayer
370
-1
48
1
60
0
100
AcDbPoint
10
126
20
213
30
0
39
0
210
0
220
0
230
1
50
360
0
POINT
5
344
100
AcDbEntity
8
Defpoints
62
0
6
ByLayer
370
-1
48
1
60
0
100
AcDbPoint
10
126
20
235.5
30
0
39
0
210
0
220
0
230
1
50
360
0
ENDBLK
5
33B
100
AcDbEntity
8
0
100
AcDbBlockEnd
0
BLOCK
5
34C
100
AcDbEntity
8
0
100
AcDbBlockBegin
2
_U2
70
0
10
0
20
0
30
0
3
_U2
0
MTEXT
5
346
100
AcDbEntity
8
2
62
256
6
ByLayer
370
18
48
1
60
0
100
AcDbMText
10
60.621887
20
236.385114
30
0
210
0
220
0
230
1
1
\W0.6433;126
40
3
41
0
44
1.084337
50
0
71
7
72
5
7
iso_b_vert
0
LINE
5
347
100
AcDbEntity
8
2
62
256
6
ByLayer
370
13
48
1
60
0
100
AcDbLine
10
0
20
80
30
0
11
0
21
237.5
31
0
39
0
210
0
220
0
230
1
0
LINE
5
348
100
AcDbEntity
8
2
62
256
6
ByLayer
370
13
48
1
60
0
100
AcDbLine
10
126
20
213.5
30
0
11
126
21
237.5
31
0
39
0
210
0
220
0
230
1
0
LINE
5
349
100
AcDbEntity
8
2
62
256
6
ByLayer
370
13
48
1
60
0
100
AcDbLine
10
0
20
235.5
30
0
11
126
21
235.5
31
0
39
0
210
0
220
0
230
1
0
SOLID
5
34A
100
AcDbEntity
8
2
62
256
6
ByLayer
370
18
48
1
60
0
100
AcDbTrace
10
0
20
235.5
30
0
11
4.999996
21
236.608473
31
0
12
5.000004
22
234.391527
32
0
13
5.000004
23
234.391527
33
0
39
0
210
0
220
0
230
1
0
SOLID
5
34B
100
AcDbEntity
8
2
62
256
6
ByLayer
370
18
48
1
60
0
100
AcDbTrace
10
126
20
235.5
30
0
11
121.000004
21
234.391527
31
0
12
120.999996
22
236.608473
32
0
13
120.999996
23
236.608473
33
0
39
0
210
0
220
0
230
1
0
ENDBLK
5
34D
100
AcDbEntity
8
0
100
AcDbBlockEnd
0
ENDSEC
0
SECTION
2
ENTITIES
0
ARC
5
1D6
100
AcDbEntity
8
SK3
62
256
6
ByLayer
370
13
48
0.05
60
0
100
AcDbCircle
39
0
10
18.8
20
-20.2
30
0
40
0.8
210
0
220
0
230
1
100
AcDbArc
50
180
51
270
0
ARC
5
1D7
100
AcDbEntity
8
SK3
62
256
6
ByLayer
370
13
48
0.05
60
0
100
AcDbCircle
39
0
10
18.8
20
20.2
30
0
40
0.8
210
0
220
0
230
1
100
AcDbArc
50
90
51
180
0
ARC
5
1D8
100
AcDbEntity
8
SK3
62
256
6
ByLayer
370
13
48
0.05
60
0
100
AcDbCircle
39
0
10
26.2
20
20.2
30
0
40
0.8
210
0
220
0
230
1
100
AcDbArc
50
0
51
90
0
ARC
5
1D9
100
AcDbEntity
8
SK3
62
256
6
ByLayer
370
13
48
0.05
60
0
100
AcDbCircle
39
0
10
26.2
20
-20.2
30
0
40
0.8
210
0
220
0
230
1
100
AcDbArc
50
270
51
0
0
ARC
5
1DA
100
AcDbEntity
8
1
62
256
6
ByLayer
370
13
48
1
60
0
100
AcDbCircle
39
0
10
39
20
-153
30
0
40
5
210
0
220
0
230
1
100
AcDbArc
50
75
51
345
0
ARC
5
1DB
100
AcDbEntity
8
1
62
256
6
ByLayer
370
13
48
1
60
0
100
AcDbCircle
39
0
10
39
20
153
30
0
40
5
210
0
220
0
230
1
100
AcDbArc
50
75
51
345
0
ARC
5
1DC
100
AcDbEntity
8
1
62
256
6
ByLayer
370
13
48
1
60
0
100
AcDbCircle
39
0
10
98.25
20
190.788
30
0
40
3.4455
210
0
220
0
230
1
100
AcDbArc
50
75
51
345
0
ARC
5
1E0
100
AcDbEntity
8
1
62
256
6
ByLayer
370
18
48
1
60
0
100
AcDbCircle
39
0
10
125.26727
20
202.985367
30
0
40
0.396875
210
0
220
0
230
1
100
AcDbArc
50
238
51
358
0
ARC
5
1E1
100
AcDbEntity
8
1
62
256
6
ByLayer
370
18
48
1
60
0
100
AcDbCircle
39
0
10
125.603132
20
212.603212
30
0
40
0.396875
210
0
220
0
230
1
100
AcDbArc
50
358
51
118
0
ARC
5
1E2
100
AcDbEntity
8
1
62
256
6
ByLayer
370
18
48
1
60
0
100
AcDbCircle
39
0
10
117.105903
20
208.085155
30
0
40
0.396875
210
0
220
0
230
1
100
AcDbArc
50
118
51
238
0
ARC
5
1E4
100
AcDbEntity
8
1
62
256
6
ByLayer
370
18
48
1
60
0
100
AcDbCircle
39
0
10
122.658769
20
207.891245
30
0
40
0.747999999999999
210
0
220
0
230
1
100
AcDbArc
50
150.161847
51
208.024579
0
ARC
5
1E5
100
AcDbEntity
8
1
62
256
6
ByLayer
370
18
48
1
60
0
100
AcDbCircle
39
0
10
122.658769
20
207.891245
30
0
40
0.747999999999999
210
0
220
0
230
1
100
AcDbArc
50
267.975421
51
325.838153
0
ARC
5
1E6
100
AcDbEntity
8
1
62
256
6
ByLayer
370
18
48
1
60
0
100
AcDbCircle
39
0
10
122.658769
20
207.891245
30
0
40
0.747999999999999
210
0
220
0
230
1
100
AcDbArc
50
208.024579
51
267.975421
0
ARC
5
1E7
100
AcDbEntity
8
1
62
256
6
ByLayer
370
18
48
1
60
0
100
AcDbCircle
39
0
10
122.658769
20
207.891245
30
0
40
0.747999999999999
210
0
220
0
230
1
100
AcDbArc
50
28.024579
51
87.975421
0
ARC
5
1E8
100
AcDbEntity
8
1
62
256
6
ByLayer
370
18
48
1
60
0
100
AcDbCircle
39
0
10
122.658769
20
207.891245
30
0
40
0.747999999999999
210
0
220
0
230
1
100
AcDbArc
50
330.161847
51
28.024579
0
ARC
5
1E9
100
AcDbEntity
8
1
62
256
6
ByLayer
370
18
48
1
60
0
100
AcDbCircle
39
0
10
122.658769
20
207.891245
30
0
40
0.747999999999999
210
0
220
0
230
1
100
AcDbArc
50
87.975421
51
145.838153
0
ARC
5
1EA
100
AcDbEntity
8
1
62
256
6
ByLayer
370
18
48
1
60
0
100
AcDbCircle
39
0
10
122.658769
20
207.891245
30
0
40
1.035
210
0
220
0
230
1
100
AcDbArc
50
238
51
297.950841
0
ARC
5
1EB
100
AcDbEntity
8
1
62
256
6
ByLayer
370
18
48
1
60
0
100
AcDbCircle
39
0
10
122.658769
20
207.891245
30
0
40
1.035
210
0
220
0
230
1
100
AcDbArc
50
58
51
117.950841
0
ARC
5
1EE
100
AcDbEntity
8
1
62
256
6
ByLayer
370
18
48
1
60
0
100
AcDbCircle
39
0
10
122.658769
20
207.891245
30
0
40
1.035
210
0
220
0
230
1
100
AcDbArc
50
178.049159
51
238
0
ARC
5
1EF
100
AcDbEntity
8
1
62
256
6
ByLayer
370
18
48
1
60
0
100
AcDbCircle
39
0
10
122.658769
20
207.891245
30
0
40
1.035
210
0
220
0
230
1
100
AcDbArc
50
117.950841
51
178.049159
0
ARC
5
1F0
100
AcDbEntity
8
1
62
256
6
ByLayer
370
18
48
1
60
0
100
AcDbCircle
39
0
10
122.658769
20
207.891245
30
0
40
0.747999999999999
210
0
220
0
230
1
100
AcDbArc
50
145.838153
51
150.161847
0
ARC
5
1F1
100
AcDbEntity
8
1
62
256
6
ByLayer
370
18
48
1
60
0
100
AcDbCircle
39
0
10
122.658769
20
207.891245
30
0
40
1.035
210
0
220
0
230
1
100
AcDbArc
50
358.049159
51
58
0
ARC
5
1F2
100
AcDbEntity
8
1
62
256
6
ByLayer
370
18
48
1
60
0
100
AcDbCircle
39
0
10
122.658769
20
207.891245
30
0
40
0.747999999999999
210
0
220
0
230
1
100
AcDbArc
50
325.838153
51
330.161847
0
ARC
5
1F3
100
AcDbEntity
8
1
62
256
6
ByLayer
370
18
48
1
60
0
100
AcDbCircle
39
0
10
122.658769
20
207.891245
30
0
40
1.035
210
0
220
0
230
1
100
AcDbArc
50
297.950841
51
358.049159
0
ARC
5
1F4
100
AcDbEntity
8
1
62
256
6
ByLayer
370
18
48
1
60
0
100
AcDbCircle
39
0
10
117.061961
20
208.086819
30
0
40
1.05000000000009
210
0
220
0
230
1
100
AcDbArc
50
48.911654
51
94.602037
0
ARC
5
1F5
100
AcDbEntity
8
1
62
256
6
ByLayer
370
18
48
1
60
0
100
AcDbCircle
39
0
10
118.252464
20
208.859774
30
0
40
1.25
210
0
220
0
230
1
100
AcDbArc
50
58
51
148
0
ARC
5
1F6
100
AcDbEntity
8
1
62
256
6
ByLayer
370
18
48
1
60
0
100
AcDbCircle
39
0
10
118.146481
20
208.690164
30
0
40
1.25
210
0
220
0
230
1
100
AcDbArc
50
148
51
159.230131
0
ARC
5
1F7
100
AcDbEntity
8
1
62
256
6
ByLayer
370
18
48
1
60
0
100
AcDbCircle
39
0
10
117.061961
20
208.086819
30
0
40
1.05000000000009
210
0
220
0
230
1
100
AcDbArc
50
94.602037
51
307.073559
0
ARC
5
1F8
100
AcDbEntity
8
1
62
256
6
ByLayer
370
18
48
1
60
0
100
AcDbCircle
39
0
10
117.061961
20
208.086819
30
0
40
1.25
210
0
220
0
230
1
100
AcDbArc
50
239.646554
51
285.358602
0
ARC
5
1F9
100
AcDbEntity
8
1
62
256
6
ByLayer
370
18
48
1
60
0
100
AcDbCircle
39
0
10
117.061961
20
208.086819
30
0
40
1.25
210
0
220
0
230
1
100
AcDbArc
50
126
51
158.57495
0
ARC
5
1FA
100
AcDbEntity
8
1
62
256
6
ByLayer
370
18
48
1
60
0
100
AcDbCircle
39
0
10
118.271646
20
208.965706
30
0
40
1.25
210
0
220
0
230
1
100
AcDbArc
50
59.252344
51
126
0
ARC
5
1FB
100
AcDbEntity
8
1
62
256
6
ByLayer
370
18
48
1
60
0
100
AcDbCircle
39
0
10
117.061961
20
208.086819
30
0
40
1.25
210
0
220
0
230
1
100
AcDbArc
50
158.57495
51
239.646554
0
ARC
5
1FE
100
AcDbEntity
8
1
62
256
6
ByLayer
370
18
48
1
60
0
100
AcDbCircle
39
0
10
39
20
153
30
0
40
14
210
0
220
0
230
1
100
AcDbArc
50
333.013023
51
206.986977
0
ARC
5
1FF
100
AcDbEntity
8
1
62
256
6
ByLayer
370
18
48
1
60
0
100
AcDbCircle
39
0
10
39
20
-153
30
0
40
14
210
0
220
0
230
1
100
AcDbArc
50
153.013023
51
26.986977
0
ARC
5
201
100
AcDbEntity
8
1
62
256
6
ByLayer
370
18
48
1
60
0
100
AcDbCircle
39
0
10
98.25
20
190.788
30
0
40
2.34259871723677
210
0
220
0
230
1
100
AcDbArc
50
60
51
120
0
ARC
5
202
100
AcDbEntity
8
1
62
256
6
ByLayer
370
18
48
1
60
0
100
AcDbCircle
39
0
10
98.25
20
190.788
30
0
40
2.34259871723677
210
0
220
0
230
1
100
AcDbArc
50
240
51
300
0
ARC
5
203
100
AcDbEntity
8
1
62
256
6
ByLayer
370
18
48
1
60
0
100
AcDbCircle
39
0
10
98.25
20
190.788
30
0
40
2.34259871723677
210
0
220
0
230
1
100
AcDbArc
50
120
51
180
0
ARC
5
204
100
AcDbEntity
8
1
62
256
6
ByLayer
370
18
48
1
60
0
100
AcDbCircle
39
0
10
98.25
20
190.788
30
0
40
2.34259871723677
210
0
220
0
230
1
100
AcDbArc
50
300
51
360
0
ARC
5
205
100
AcDbEntity
8
1
62
256
6
ByLayer
370
18
48
1
60
0
100
AcDbCircle
39
0
10
98.25
20
190.788
30
0
40
2.34259871723677
210
0
220
0
230
1
100
AcDbArc
50
180
51
240
0
ARC
5
206
100
AcDbEntity
8
1
62
256
6
ByLayer
370
18
48
1
60
0
100
AcDbCircle
39
0
10
98.25
20
190.788
30
0
40
2.34259871723677
210
0
220
0
230
1
100
AcDbArc
50
0
51
60
0
ARC
5
207
100
AcDbEntity
8
1
62
256
6
ByLayer
370
18
48
1
60
0
100
AcDbCircle
39
0
10
117.061961
20
208.086819
30
0
40
1.05000000000009
210
0
220
0
230
1
100
AcDbArc
50
48.911654
51
94.602037
0
ARC
5
208
100
AcDbEntity
8
1
62
256
6
ByLayer
370
18
48
1
60
0
100
AcDbCircle
39
0
10
118.252464
20
208.859774
30
0
40
1.25
210
0
220
0
230
1
100
AcDbArc
50
58
51
148
0
ARC
5
209
100
AcDbEntity
8
1
62
256
6
ByLayer
370
18
48
1
60
0
100
AcDbCircle
39
0
10
118.146481
20
208.690164
30
0
40
1.25
210
0
220
0
230
1
100
AcDbArc
50
148
51
159.230131
0
ARC
5
20A
100
AcDbEntity
8
1
62
256
6
ByLayer
370
18
48
1
60
0
100
AcDbCircle
39
0
10
117.061961
20
208.086819
30
0
40
1.05000000000009
210
0
220
0
230
1
100
AcDbArc
50
94.602037
51
307.073559
0
ARC
5
20B
100
AcDbEntity
8
1
62
256
6
ByLayer
370
18
48
1
60
0
100
AcDbCircle
39
0
10
117.061961
20
208.086819
30
0
40
1.25
210
0
220
0
230
1
100
AcDbArc
50
239.646554
51
285.358602
0
ARC
5
20C
100
AcDbEntity
8
1
62
256
6
ByLayer
370
18
48
1
60
0
100
AcDbCircle
39
0
10
117.061961
20
208.086819
30
0
40
1.25
210
0
220
0
230
1
100
AcDbArc
50
126
51
158.57495
0
ARC
5
20D
100
AcDbEntity
8
1
62
256
6
ByLayer
370
18
48
1
60
0
100
AcDbCircle
39
0
10
118.271646
20
208.965706
30
0
40
1.25
210
0
220
0
230
1
100
AcDbArc
50
59.252344
51
126
0
ARC
5
20E
100
AcDbEntity
8
1
62
256
6
ByLayer
370
18
48
1
60
0
100
AcDbCircle
39
0
10
117.061961
20
208.086819
30
0
40
1.25
210
0
220
0
230
1
100
AcDbArc
50
158.57495
51
239.646554
0
ARC
5
210
100
AcDbEntity
8
1
62
256
6
ByLayer
370
18
48
1
60
0
100
AcDbCircle
39
0
10
125.26727
20
202.985367
30
0
40
0.396875
210
0
220
0
230
1
100
AcDbArc
50
238
51
358
0
ARC
5
211
100
AcDbEntity
8
1
62
256
6
ByLayer
370
18
48
1
60
0
100
AcDbCircle
39
0
10
125.603132
20
212.603212
30
0
40
0.396875
210
0
220
0
230
1
100
AcDbArc
50
358
51
118
0
ARC
5
212
100
AcDbEntity
8
1
62
256
6
ByLayer
370
18
48
1
60
0
100
AcDbCircle
39
0
10
117.105903
20
208.085155
30
0
40
0.396875
210
0
220
0
230
1
100
AcDbArc
50
118
51
238
0
ARC
5
215
100
AcDbEntity
8
1
62
256
6
ByLayer
370
18
48
1
60
0
100
AcDbCircle
39
0
10
79.4
20
174.8523
30
0
40
0.4
210
0
220
0
230
1
100
AcDbArc
50
90
51
180
0
ARC
5
216
100
AcDbEntity
8
1
62
256
6
ByLayer
370
18
48
1
60
0
100
AcDbCircle
39
0
10
88.62
20
-145.25
30
0
40
1
210
0
220
0
230
1
100
AcDbArc
50
270
51
0
0
ARC
5
217
100
AcDbEntity
8
1
62
256
6
ByLayer
370
18
48
1
60
0
100
AcDbCircle
39
0
10
88.62
20
-131.25
30
0
40
1
210
0
220
0
230
1
100
AcDbArc
50
0
51
90
0
ARC
5
218
100
AcDbEntity
8
1
62
256
6
ByLayer
370
18
48
1
60
0
100
AcDbCircle
39
0
10
88.62
20
-118.25
30
0
40
1
210
0
220
0
230
1
100
AcDbArc
50
0
51
90
0
ARC
5
219
100
AcDbEntity
8
1
62
256
6
ByLayer
370
18
48
1
60
0
100
AcDbCircle
39
0
10
1.5
20
79.5
30
0
40
1.5
210
0
220
0
230
1
100
AcDbArc
50
90
51
180
0
ARC
5
21A
100
AcDbEntity
8
1
62
256
6
ByLayer
370
18
48
1
60
0
100
AcDbCircle
39
0
10
1.5
20
-79.5
30
0
40
1.5
210
0
220
0
230
1
100
AcDbArc
50
180
51
270
0
ARC
5
21B
100
AcDbEntity
8
1
62
256
6
ByLayer
370
18
48
1
60
0
100
AcDbCircle
39
0
10
115.545644
20
167.0463
30
0
40
6.8
210
0
220
0
230
1
100
AcDbArc
50
0
51
18.346446
0
ARC
5
21C
100
AcDbEntity
8
1
62
256
6
ByLayer
370
18
48
1
60
0
100
AcDbCircle
39
0
10
115.545644
20
167.0463
30
0
40
6.8
210
0
220
0
230
1
100
AcDbArc
50
341.653554
51
0
0
ARC
5
21D
100
AcDbEntity
8
1
62
256
6
ByLayer
370
18
48
1
60
0
100
AcDbCircle
39
0
10
88.62
20
118.25
30
0
40
1
210
0
220
0
230
1
100
AcDbArc
50
270
51
0
0
ARC
5
21E
100
AcDbEntity
8
1
62
256
6
ByLayer
370
18
48
1
60
0
100
AcDbCircle
39
0
10
88.62
20
132.25
30
0
40
1
210
0
220
0
230
1
100
AcDbArc
50
0
51
90
0
ARC
5
21F
100
AcDbEntity
8
1
62
256
6
ByLayer
370
18
48
1
60
0
100
AcDbCircle
39
0
10
88.62
20
156.25
30
0
40
1
210
0
220
0
230
1
100
AcDbArc
50
270
51
0
0
ARC
5
220
100
AcDbEntity
8
1
62
256
6
ByLayer
370
18
48
1
60
0
100
AcDbCircle
39
0
10
88.62
20
170.25
30
0
40
1
210
0
220
0
230
1
100
AcDbArc
50
0
51
90
0
ARC
5
221
100
AcDbEntity
8
1
62
256
6
ByLayer
370
18
48
1
60
0
100
AcDbCircle
39
0
10
88.62
20
145.25
30
0
40
1
210
0
220
0
230
1
100
AcDbArc
50
0
51
90
0
ARC
5
222
100
AcDbEntity
8
1
62
256
6
ByLayer
370
18
48
1
60
0
100
AcDbCircle
39
0
10
88.62
20
-156.25
30
0
40
1
210
0
220
0
230
1
100
AcDbArc
50
2.735205
51
90
0
ARC
5
223
100
AcDbEntity
8
1
62
256
6
ByLayer
370
18
48
1
60
0
100
AcDbCircle
39
0
10
109.460064
20
190.788
30
0
40
13.5
210
0
220
0
230
1
100
AcDbArc
50
0
51
21.738461
0
ARC
5
224
100
AcDbEntity
8
1
62
256
6
ByLayer
370
18
48
1
60
0
100
AcDbCircle
39
0
10
109.460064
20
190.788
30
0
40
13.5
210
0
220
0
230
1
100
AcDbArc
50
338.261539
51
0
0
CIRCLE
5
1DD
100
AcDbEntity
8
1
62
256
6
ByLayer
370
18
48
1
60
0
100
AcDbCircle
10
98.25
20
190.788
30
0
40
4
39
0
210
0
220
0
230
1
0
CIRCLE
5
1DE
100
AcDbEntity
8
1
62
256
6
ByLayer
370
13
48
1
60
0
100
AcDbCircle
10
122.658769
20
207.891245
30
0
40
1.8014146404184
39
0
210
0
220
0
230
1
0
CIRCLE
5
1DF
100
AcDbEntity
8
1
62
256
6
ByLayer
370
13
48
1
60
0
100
AcDbCircle
10
122.658769
20
207.891245
30
0
40
1.88122167929295
39
0
210
0
220
0
230
1
0
CIRCLE
5
1E3
100
AcDbEntity
8
1
62
256
6
ByLayer
370
18
48
1
60
0
100
AcDbCircle
10
122.658769
20
207.891245
30
0
40
1.90468944117779
39
0
210
0
220
0
230
1
0
CIRCLE
5
1EC
100
AcDbEntity
8
1
62
256
6
ByLayer
370
18
48
1
60
0
100
AcDbCircle
10
122.658769
20
207.891245
30
0
40
1.3
39
0
210
0
220
0
230
1
0
CIRCLE
5
1ED
100
AcDbEntity
8
1
62
256
6
ByLayer
370
18
48
1
60
0
100
AcDbCircle
10
122.658769
20
207.891245
30
0
40
1.725
39
0
210
0
220
0
230
1
0
CIRCLE
5
1FC
100
AcDbEntity
8
1
62
256
6
ByLayer
370
18
48
1
60
0
100
AcDbCircle
10
39
20
153
30
0
40
4.25
39
0
210
0
220
0
230
1
0
CIRCLE
5
1FD
100
AcDbEntity
8
1
62
256
6
ByLayer
370
18
48
1
60
0
100
AcDbCircle
10
39
20
-153
30
0
40
4.25
39
0
210
0
220
0
230
1
0
CIRCLE
5
200
100
AcDbEntity
8
1
62
256
6
ByLayer
370
18
48
1
60
0
100
AcDbCircle
10
98.25
20
190.788
30
0
40
3.233
39
0
210
0
220
0
230
1
0
CIRCLE
5
20F
100
AcDbEntity
8
1
62
256
6
ByLayer
370
13
48
1
60
0
100
AcDbCircle
10
122.658769
20
207.891245
30
0
40
1.8014146404184
39
0
210
0
220
0
230
1
0
CIRCLE
5
213
100
AcDbEntity
8
1
62
256
6
ByLayer
370
13
48
1
60
0
100
AcDbCircle
10
122.658769
20
207.891245
30
0
40
1.88122167929295
39
0
210
0
220
0
230
1
0
CIRCLE
5
214
100
AcDbEntity
8
1
62
256
6
ByLayer
370
18
48
1
60
0
100
AcDbCircle
10
122.658769
20
207.891245
30
0
40
1.90468944117779
39
0
210
0
220
0
230
1
0
ELLIPSE
5
225
100
AcDbEntity
8
1
62
256
6
ByLayer
370
18
48
1
60
0
100
AcDbEllipse
10
64.663275
20
182.0023
30
0
11
1.22460635382238E-16
21
2
31
0
210
0
220
0
230
1
40
0.976296
41
0
42
6.28318530717959
0
ELLIPSE
5
226
100
AcDbEntity
8
1
62
256
6
ByLayer
370
18
48
1
60
0
100
AcDbEllipse
10
64.663275
20
182.0023
30
0
11
1.53535021610481E-16
21
2.5075
31
0
210
0
220
0
230
1
40
0.976296
41
0.0392696823939123
42
3.10222443202862
0
ELLIPSE
5
227
100
AcDbEntity
8
1
62
256
6
ByLayer
370
18
48
1
60
0
100
AcDbEllipse
10
63.333277
20
-201.5023
30
0
11
8.33543539895794E-17
21
1.36132486540519
31
0
210
0
220
0
230
1
40
0.990065
41
-2.95191601672988
42
-0.189833613980118
0
ELLIPSE
5
228
100
AcDbEntity
8
1
62
256
6
ByLayer
370
18
48
1
60
0
100
AcDbEllipse
10
63.333277
20
-201.5023
30
0
11
-1.92875500727024E-16
21
-1.05
31
0
210
0
220
0
230
1
40
0.990065
41
-0.11657138381087
42
3.02087404699355
0
ELLIPSE
5
229
100
AcDbEntity
8
1
62
256
6
ByLayer
370
18
48
1
60
0
100
AcDbEllipse
10
132.496595
20
188.652781
30
0
11
90.7895352370161
21
4.17474063037811
31
0
210
0
220
0
230
1
40
0.264052
41
1.66113829917018
42
1.6688751242422
0
ELLIPSE
5
22A
100
AcDbEntity
8
1
62
256
6
ByLayer
370
18
48
1
60
0
100
AcDbEllipse
10
132.491272
20
188.665028
30
0
11
90.7655087088007
21
4.17497947974829
31
0
210
0
220
0
230
1
40
0.263985
41
1.67222149415382
42
1.67845918138613
0
ELLIPSE
5
22B
100
AcDbEntity
8
1
62
256
6
ByLayer
370
18
48
1
60
0
100
AcDbEllipse
10
43
20
-178.647346
30
0
11
5.10000000000031
21
5.97442235937124E-15
31
0
210
0
220
0
230
1
40
0.176327
41
-0.402975099269517
42
1.69765875717926
0
ELLIPSE
5
22C
100
AcDbEntity
8
1
62
256
6
ByLayer
370
18
48
1
60
0
100
AcDbEllipse
10
69.517299
20
-167.398769
30
0
11
3.06151588455196E-16
21
4.9999999999935
31
0
210
0
220
0
230
1
40
0.8391
41
1.5707963267949
42
2.49809154479756
0
ELLIPSE
5
22D
100
AcDbEntity
8
1
62
256
6
ByLayer
370
18
48
1
60
0
100
AcDbEllipse
10
69.517299
20
167.398769
30
0
11
3.06151588455862E-16
21
5.00000000000438
31
0
210
0
220
0
230
1
40
0.8391
41
0.643501108794095
42
1.5707963267949
0
ELLIPSE
5
22E
100
AcDbEntity
8
1
62
256
6
ByLayer
370
18
48
1
60
0
100
AcDbEllipse
10
-102.498126
20
146.646968
30
0
11
1.22460635389737E-14
21
200.000000012247
31
0
210
0
220
0
230
1
40
0.8391
41
-1.74713150859062
42
-1.5707963267949
0
ELLIPSE
5
22F
100
AcDbEntity
8
1
62
256
6
ByLayer
370
18
48
1
60
0
100
AcDbEllipse
10
-102.498126
20
-146.646968
30
0
11
1.22460635389596E-14
21
200.000000012017
31
0
210
0
220
0
230
1
40
0.8391
41
-1.5707963267949
42
-1.39446114499898
0
ELLIPSE
5
230
100
AcDbEntity
8
1
62
256
6
ByLayer
370
18
48
1
60
0
100
AcDbEllipse
10
-338.37037
20
146.646968
30
0
11
407.407407410072
21
4.77259592981186E-13
31
0
210
0
220
0
230
1
40
0.490909
41
-0.435482356722783
42
-0.176335181806134
0
ELLIPSE
5
231
100
AcDbEntity
8
1
62
256
6
ByLayer
370
18
48
1
60
0
100
AcDbEllipse
10
-338.37037
20
-146.646968
30
0
11
407.40740740976
21
4.77259592980821E-13
31
0
210
0
220
0
230
1
40
0.490909
41
0.176335181806174
42
0.43548235672294
0
ELLIPSE
5
232
100
AcDbEntity
8
1
62
256
6
ByLayer
370
18
48
1
60
0
100
AcDbEllipse
10
215.703704
20
20.092632
30
0
11
203.703703703677
21
2.38629796489002E-13
31
0
210
0
220
0
230
1
40
0.490909
41
2.7061102968656
42
3.14159265358979
0
ELLIPSE
5
233
100
AcDbEntity
8
1
62
256
6
ByLayer
370
18
48
1
60
0
100
AcDbEllipse
10
215.703704
20
-20.092632
30
0
11
203.703703703937
21
2.38629796489306E-13
31
0
210
0
220
0
230
1
40
0.490909
41
3.14159265358979
42
-2.70611029686589
0
ELLIPSE
5
234
100
AcDbEntity
8
1
62
256
6
ByLayer
370
18
48
1
60
0
100
AcDbEllipse
10
115.200704
20
209.127437
30
0
11
-0.36013474888586
21
1.03937623729087
31
0
210
0
220
0
230
1
40
0.24886
41
-2.88177263677479
42
-0.259916625107548
0
ELLIPSE
5
235
100
AcDbEntity
8
1
62
256
6
ByLayer
370
18
48
1
60
0
100
AcDbEllipse
10
64.313913
20
-201.5023
30
0
11
9.33762344789563E-17
21
1.525
31
0
210
0
220
0
230
1
40
0.990065
41
0.257606593854741
42
2.88398605973505
0
ELLIPSE
5
236
100
AcDbEntity
8
1
62
256
6
ByLayer
370
18
48
1
60
0
100
AcDbEllipse
10
65.45
20
-206.370999
30
0
11
2.00000000000557
21
2.34291072917158E-15
31
0
210
0
220
0
230
1
40
0.249328
41
-0.17992919580282
42
0.684081231794328
0
ELLIPSE
5
237
100
AcDbEntity
8
1
62
256
6
ByLayer
370
18
48
1
60
0
100
AcDbEllipse
10
61.083465
20
201.5023
30
0
11
-2.50063061968738E-16
21
-1.36132486540519
31
0
210
0
220
0
230
1
40
0.990065
41
0.120718606596217
42
-0.402880169002074
0
ELLIPSE
5
238
100
AcDbEntity
8
1
62
256
6
ByLayer
370
18
48
1
60
0
100
AcDbEllipse
10
61.083465
20
201.5023
30
0
11
-1.92875500727024E-16
21
-1.05
31
0
210
0
220
0
230
1
40
0.990065
41
0.120718606596246
42
-0.402880169002056
0
ELLIPSE
5
239
100
AcDbEntity
8
1
62
256
6
ByLayer
370
18
48
1
60
0
100
AcDbEllipse
10
132.496059
20
188.654091
30
0
11
90.7869741757722
21
4.17475720714267
31
0
210
0
220
0
230
1
40
0.264045
41
1.6611352118444
42
1.66887225275155
0
ELLIPSE
5
23A
100
AcDbEntity
8
1
62
256
6
ByLayer
370
18
48
1
60
0
100
AcDbEllipse
10
132.491685
20
188.664118
30
0
11
90.7672978428777
21
4.17495721221992
31
0
210
0
220
0
230
1
40
0.26399
41
1.67222389142974
42
1.67846145736974
0
ELLIPSE
5
23B
100
AcDbEntity
8
1
62
256
6
ByLayer
370
18
48
1
60
0
100
AcDbEllipse
10
86.5
20
191.028085
30
0
11
6
21
0
31
0
210
0
220
0
230
1
40
0.93358
41
-1.39916515488192
42
-1.27409055140162
0
ELLIPSE
5
23C
100
AcDbEntity
8
1
62
256
6
ByLayer
370
18
48
1
60
0
100
AcDbEllipse
10
86.5
20
191.028085
30
0
11
6
21
0
31
0
210
0
220
0
230
1
40
0.93358
41
3.0391201464365
42
3.1415163095703
0
ELLIPSE
5
23D
100
AcDbEntity
8
1
62
256
6
ByLayer
370
18
48
1
60
0
100
AcDbEllipse
10
86.5
20
191.028085
30
0
11
6
21
0
31
0
210
0
220
0
230
1
40
0.93358
41
1.37525397998285
42
1.6802829485418
0
ELLIPSE
5
23E
100
AcDbEntity
8
1
62
256
6
ByLayer
370
18
48
1
60
0
100
AcDbEllipse
10
60.942852
20
201.5023
30
0
11
9.33762344789563E-17
21
1.525
31
0
210
0
220
0
230
1
40
0.990065
41
0
42
6.28318530717959
0
ELLIPSE
5
23F
100
AcDbEntity
8
1
62
256
6
ByLayer
370
18
48
1
60
0
100
AcDbEllipse
10
64.46916
20
182.0023
30
0
11
1.53535021610481E-16
21
2.50750000000001
31
0
210
0
220
0
230
1
40
0.993013
41
-0.833514752301042
42
-2.30807790128708
0
ELLIPSE
5
240
100
AcDbEntity
8
1
62
256
6
ByLayer
370
18
48
1
60
0
100
AcDbEllipse
10
66.2
20
204.685431
30
0
11
0.799999999999828
21
9.37164291665818E-16
31
0
210
0
220
0
230
1
40
0.249328
41
0
42
1.42971554557501
0
POINT
5
70
100
AcDbEntity
8
80
62
256
6
ByLayer
370
18
48
0.05
60
0
100
AcDbPoint
10
0
20
0
30
0
39
0
210
0
220
0
230
1
50
360
0
POINT
5
72
100
AcDbEntity
8
81
62
256
6
ByLayer
370
18
48
0.05
60
0
100
AcDbPoint
10
126
20
213
30
0
39
0
210
0
220
0
230
1
50
360
0
SPLINE
5
241
100
AcDbEntity
8
1
62
256
6
ByLayer
370
18
48
1
60
0
100
AcDbSpline
70
4
71
3
72
8
73
4
40
0
40
0
40
0
40
0
40
1
40
1
40
1
40
1
41
1
10
66.2079483177463
20
101.999720298439
30
0
41
1
10
66.2080073709447
20
101.999718721093
30
0
41
1
10
66.2080664212433
20
101.999717137127
30
0
41
1
10
66.2081254686428
20
101.999715546544
30
0
0
SPLINE
5
242
100
AcDbEntity
8
1
62
256
6
ByLayer
370
18
48
1
60
0
100
AcDbSpline
70
4
71
1
72
4
73
2
40
0
40
0
40
1
40
1
41
1
10
104.305859266818
20
156.180946592439
30
0
41
1
10
104.329035541396
20
156.180946592439
30
0
0
SPLINE
5
243
100
AcDbEntity
8
1
62
256
6
ByLayer
370
18
48
1
60
0
100
AcDbSpline
70
4
71
1
72
4
73
2
40
0
40
0
40
1
40
1
41
1
10
105.57988962845
20
156.39541950075
30
0
41
1
10
105.565836029856
20
156.39541950075
30
0
0
SPLINE
5
244
100
AcDbEntity
8
1
62
256
6
ByLayer
370
18
48
1
60
0
100
AcDbSpline
70
4
71
1
72
4
73
2
40
0
40
0
40
1
40
1
41
1
10
105.728606271983
20
156.39541950075
30
0
41
1
10
105.723896983018
20
156.39541950075
30
0
0
SPLINE
5
245
100
AcDbEntity
8
1
62
256
6
ByLayer
370
18
48
1
60
0
100
AcDbSpline
70
4
71
1
72
4
73
2
40
0
40
0
40
1
40
1
41
1
10
86.2761030169822
20
156.39541950075
30
0
41
1
10
86.2713937280175
20
156.39541950075
30
0
0
SPLINE
5
246
100
AcDbEntity
8
1
62
256
6
ByLayer
370
18
48
1
60
0
100
AcDbSpline
70
4
71
1
72
4
73
2
40
0
40
0
40
1
40
1
41
1
10
86.4341639701436
20
156.39541950075
30
0
41
1
10
86.4201103715497
20
156.39541950075
30
0
0
SPLINE
5
247
100
AcDbEntity
8
1
62
256
6
ByLayer
370
18
48
1
60
0
100
AcDbSpline
70
4
71
1
72
4
73
2
40
0
40
0
40
1
40
1
41
1
10
87.6709644586043
20
156.180946592439
30
0
41
1
10
87.6941407331824
20
156.180946592439
30
0
0
SPLINE
5
248
100
AcDbEntity
8
1
62
256
6
ByLayer
370
18
48
1
60
0
100
AcDbSpline
70
4
71
3
72
8
73
4
40
0
40
0
40
0
40
0
40
1
40
1
40
1
40
1
41
1
10
66.8829743196335
20
-99.5056005587983
30
-9E-16
41
1
10
66.8829377453983
20
-99.5056381232471
30
-9E-16
41
1
10
66.8829011560733
20
-99.505675540212
30
-9E-16
41
1
10
66.882864551683
20
-99.5057128096677
30
-9E-16
0
SPLINE
5
249
100
AcDbEntity
8
1
62
256
6
ByLayer
370
18
48
1
60
0
100
AcDbSpline
70
4
71
3
72
8
73
4
40
0
40
0
40
0
40
0
40
1
40
1
40
1
40
1
41
1
10
120.2
20
198.083522855928
30
0
41
1
10
120.803513888933
20
197.917230897428
30
0
41
1
10
121.403866213076
20
197.751810075137
30
0
41
1
10
122
20
197.587551626784
30
0
0
SPLINE
5
24A
100
AcDbEntity
8
1
62
256
6
ByLayer
370
18
48
1
60
0
100
AcDbSpline
70
4
71
3
72
10
73
6
40
0
40
0
40
0
40
0
40
0.5
40
0.5
40
1
40
1
40
1
40
1
41
1
10
120.2
20
160.6023
30
0
41
1
10
120.533564733993
20
160.6023
30
0
41
1
10
120.852420926273
20
160.6023
30
0
41
1
10
121.4546615458
20
160.6023
30
0
41
1
10
121.738054019402
20
160.6023
30
0
41
1
10
122
20
160.6023
30
0
0
SPLINE
5
24B
100
AcDbEntity
8
1
62
256
6
ByLayer
370
18
48
1
60
0
100
AcDbSpline
70
4
71
3
72
61
73
57
40
0
40
0
40
0
40
0
40
0.000169725215699
40
0.000169725215699
40
0.0626591173896195
40
0.0626591173896195
40
0.0939038134765786
40
0.0939038134765786
40
0.109526161520058
40
0.109526161520058
40
0.125148509563538
40
0.125148509563538
40
0.187637901737462
40
0.187637901737462
40
0.250127293911385
40
0.250127293911385
40
0.265749641954874
40
0.265749641954874
40
0.281371989998362
40
0.312616686085339
40
0.312616686085339
40
0.375106078259303
40
0.375106078259303
40
0.390728426302789
40
0.390728426302789
40
0.406350774346273
40
0.406350774346273
40
0.437595470433259
40
0.437595470433259
40
0.500084862607245
40
0.500084862607245
40
0.531329558694247
40
0.531329558694247
40
0.546951906737756
40
0.546951906737756
40
0.562574254781266
40
0.562574254781266
40
0.625063646955304
40
0.687553039129343
40
0.687553039129343
40
0.703175387172862
40
0.703175387172862
40
0.718797735216381
40
0.718797735216381
40
0.750042431303437
40
0.750042431303437
40
0.812531823477569
40
0.812531823477569
40
0.843776519564634
40
0.843776519564634
40
0.859398867608167
40
0.859398867608167
40
0.8750212156517
40
0.8750212156517
40
0.93751060782585
40
1
40
1
40
1
40
1
41
1
10
84.7999990374603
20
206.99605007606
30
0
41
1
10
84.8000000344494
20
206.996049997239
30
0
41
1
10
84.8000010313632
20
206.99604991747
30
0
41
1
10
84.8000387702757
20
206.996046897602
30
0
41
1
10
84.8065210788393
20
206.995525693518
30
0
41
1
10
84.8259492910138
20
206.993986089338
30
0
41
1
10
84.8340485655781
20
206.99334658452
30
0
41
1
10
84.8486917681871
20
206.992200343923
30
0
41
1
10
84.853999562373
20
206.991786281503
30
0
41
1
10
84.8653745025101
20
206.990903056709
30
0
41
1
10
84.8714466723455
20
206.990433496244
30
0
41
1
10
84.9037035587322
20
206.987952228262
30
0
41
1
10
84.935548572949
20
206.985540376586
30
0
41
1
10
85.0110759910685
20
206.980017463775
30
0
41
1
10
85.0547572983548
20
206.97690588917
30
0
41
1
10
85.1170479209168
20
206.972676694667
30
0
41
1
10
85.1298595841611
20
206.971816158113
30
0
41
1
10
85.1560631615514
20
206.970077163586
30
0
41
1
10
85.1962923791126
20
206.967438178826
30
0
41
1
10
85.2392540990245
20
206.964723357088
30
0
41
1
10
85.3287688197654
20
206.959233152182
30
0
41
1
10
85.393216169217
20
206.955492023205
30
0
41
1
10
85.4798318851911
20
206.950848729034
30
0
41
1
10
85.49745924485
20
206.949921743332
30
0
41
1
10
85.5333304558067
20
206.948074591376
30
0
41
1
10
85.5516055709171
20
206.947152892433
30
0
41
1
10
85.6071437559467
20
206.944414536056
30
0
41
1
10
85.644973229912
20
206.94263155245
30
0
41
1
10
85.7608114583392
20
206.937445880135
30
0
41
1
10
85.8411589495654
20
206.934206479518
30
0
41
1
10
85.9663267846054
20
206.929811136549
30
0
41
1
10
86.0088266239303
20
206.928423283235
30
0
41
1
10
86.0737634557267
20
206.926474820244
30
0
41
1
10
86.0956070948673
20
206.925847557029
30
0
41
1
10
86.1396962798503
20
206.924640469257
30
0
41
1
10
86.1619712315886
20
206.924060020437
30
0
41
1
10
86.2735014178903
20
206.921304469085
30
0
41
1
10
86.4541146948937
20
206.917799981882
30
0
41
1
10
86.6389186175245
20
206.916246865247
30
0
41
1
10
86.7557647653559
20
206.915929797796
30
0
41
1
10
86.7792014860777
20
206.915899080471
30
0
41
1
10
86.8262120476535
20
206.915904187988
30
0
41
1
10
86.8497078148976
20
206.915940091642
30
0
41
1
10
86.9198923147371
20
206.916146029378
30
0
41
1
10
86.9663932779977
20
206.916414268624
30
0
41
1
10
87.1050488172724
20
206.91759750699
30
0
41
1
10
87.196360037331
20
206.91889105979
30
0
41
1
10
87.3316380985996
20
206.921532443138
30
0
41
1
10
87.3764483261325
20
206.922529750193
30
0
41
1
10
87.4432305676874
20
206.924193776206
30
0
41
1
10
87.4654602312163
20
206.924777616994
30
0
41
1
10
87.5095593115554
20
206.925994101534
30
0
41
1
10
87.5314035851003
20
206.92662591489
30
0
41
1
10
87.6396143402419
20
206.929895231394
30
0
41
1
10
87.8063133390019
20
206.935831045929
30
0
41
1
10
87.9604464843649
20
206.942803998246
30
0
41
1
10
88.0342621982493
20
206.946456474744
30
0
0
SPLINE
5
24C
100
AcDbEntity
8
1
62
256
6
ByLayer
370
18
48
1
60
0
100
AcDbSpline
70
2053
71
3
72
182
73
178
40
0
40
0
40
0
40
0
40
0.0156249999999876
40
0.0156249999999876
40
0.0312499999999751
40
0.0468749999999627
40
0.0468749999999627
40
0.0546874999999561
40
0.0585937499999532
40
0.0585937499999532
40
0.0624999999999503
40
0.0624999999999503
40
0.0781249999999389
40
0.0937499999999274
40
0.0937499999999274
40
0.109374999999916
40
0.109374999999916
40
0.11718749999991
40
0.11718749999991
40
0.121093749999907
40
0.121093749999907
40
0.124999999999904
40
0.140624999999897
40
0.140624999999897
40
0.15624999999989
40
0.15624999999989
40
0.171874999999884
40
0.171874999999884
40
0.179687499999879
40
0.179687499999879
40
0.183593749999876
40
0.183593749999876
40
0.187499999999874
40
0.187499999999874
40
0.203124999999871
40
0.203124999999871
40
0.218749999999869
40
0.218749999999869
40
0.234374999999866
40
0.234374999999866
40
0.238281249999866
40
0.238281249999866
40
0.242187499999866
40
0.249999999999865
40
0.249999999999865
40
0.265624999999861
40
0.281249999999857
40
0.281249999999857
40
0.285156249999858
40
0.285156249999858
40
0.289062499999858
40
0.296874999999859
40
0.296874999999859
40
0.312499999999862
40
0.312499999999862
40
0.320312499999865
40
0.320312499999865
40
0.328124999999868
40
0.328124999999868
40
0.343749999999876
40
0.343749999999876
40
0.359374999999885
40
0.359374999999885
40
0.374999999999894
40
0.374999999999894
40
0.390624999999902
40
0.390624999999902
40
0.406249999999911
40
0.42187499999992
40
0.42187499999992
40
0.425781249999921
40
0.425781249999921
40
0.429687499999922
40
0.429687499999922
40
0.437499999999924
40
0.437499999999924
40
0.453124999999927
40
0.46874999999993
40
0.46874999999993
40
0.484374999999934
40
0.484374999999934
40
0.492187499999935
40
0.492187499999935
40
0.499999999999937
40
0.499999999999937
40
0.515624999999938
40
0.531249999999938
40
0.531249999999938
40
0.546874999999939
40
0.546874999999939
40
0.550781249999938
40
0.550781249999938
40
0.554687499999937
40
0.562499999999937
40
0.562499999999937
40
0.578124999999933
40
0.578124999999933
40
0.59374999999993
40
0.59374999999993
40
0.601562499999928
40
0.605468749999928
40
0.605468749999928
40
0.609374999999927
40
0.609374999999927
40
0.624999999999928
40
0.640624999999929
40
0.640624999999929
40
0.65624999999993
40
0.65624999999993
40
0.660156249999928
40
0.660156249999928
40
0.664062499999925
40
0.671874999999922
40
0.671874999999922
40
0.687499999999913
40
0.703124999999904
40
0.703124999999904
40
0.710937499999898
40
0.710937499999898
40
0.714843749999897
40
0.714843749999897
40
0.718749999999895
40
0.718749999999895
40
0.73437499999989
40
0.749999999999885
40
0.749999999999885
40
0.757812499999884
40
0.757812499999884
40
0.761718749999885
40
0.761718749999885
40
0.765624999999886
40
0.765624999999886
40
0.781249999999888
40
0.781249999999888
40
0.79687499999989
40
0.79687499999989
40
0.812499999999892
40
0.812499999999892
40
0.816406249999893
40
0.816406249999893
40
0.820312499999895
40
0.828124999999899
40
0.828124999999899
40
0.843749999999904
40
0.859374999999908
40
0.859374999999908
40
0.863281249999909
40
0.863281249999909
40
0.86718749999991
40
0.86718749999991
40
0.874999999999915
40
0.874999999999915
40
0.890624999999923
40
0.906249999999932
40
0.906249999999932
40
0.914062499999937
40
0.914062499999937
40
0.917968749999938
40
0.917968749999938
40
0.92187499999994
40
0.92187499999994
40
0.937499999999953
40
0.937499999999953
40
0.953124999999965
40
0.953124999999965
40
0.960937499999972
40
0.964843749999977
40
0.964843749999977
40
0.968749999999981
40
0.968749999999981
40
0.984374999999991
40
0.984374999999991
40
0.992187499999995
40
0.996093749999998
40
0.998046874999999
40
0.998046874999999
40
1
40
1
40
1
40
1
41
1
10
94
20
190.788
30
0
41
1
10
94
20
190.924188766288
30
0
41
1
10
94.0065289388219
20
191.058855754499
30
0
41
1
10
94.0319766978513
20
191.325295833318
30
0
41
1
10
94.0698171614356
20
191.588841683029
30
0
41
1
10
94.1318510363137
20
191.846773248703
30
0
41
1
10
94.1874810027984
20
192.038140918935
30
0
41
1
10
94.2175756987053
20
192.133303929949
30
0
41
1
10
94.251134227458
20
192.227684258167
30
0
41
1
10
94.2742834380506
20
192.290430047977
30
0
41
1
10
94.2862526276379
20
192.321728398141
30
0
41
1
10
94.3477530106801
20
192.477029402348
30
0
41
1
10
94.4571365167679
20
192.719102789406
30
0
41
1
10
94.5879448743841
20
192.948873604222
30
0
41
1
10
94.7295198333973
20
193.172584213868
30
0
41
1
10
94.8056894643967
20
193.28140977904
30
0
41
1
10
94.9283111204136
20
193.440046348615
30
0
41
1
10
94.9705822636315
20
193.492156912189
30
0
41
1
10
95.0361486954906
20
193.569150142718
30
0
41
1
10
95.0583913634433
20
193.594649032058
30
0
41
1
10
95.1034743235008
20
193.645101485005
30
0
41
1
10
95.2175618256067
20
193.769735574265
30
0
41
1
10
95.3384833831758
20
193.886991301798
30
0
41
1
10
95.5407522842601
20
194.065293534827
30
0
41
1
10
95.646283294529
20
194.14979154437
30
0
41
1
10
95.8664661115113
20
194.309327771249
30
0
41
1
10
95.981115704217
20
194.384367948766
30
0
41
1
10
96.1604152575189
20
194.4894774343
30
0
41
1
10
96.221405333818
20
194.523269441862
30
0
41
1
10
96.314814936097
20
194.572018009892
30
0
41
1
10
96.3462735800277
20
194.587942398616
30
0
41
1
10
96.4094106629461
20
194.618922526915
30
0
41
1
10
96.4411419955354
20
194.634006426941
30
0
41
1
10
96.6006113255741
20
194.707405626223
30
0
41
1
10
96.7307813736971
20
194.759675931474
30
0
41
1
10
96.9963735024091
20
194.851330597391
30
0
41
1
10
97.1317951640089
20
194.89071584984
30
0
41
1
10
97.4081094875485
20
194.956198623483
30
0
41
1
10
97.5490008035987
20
194.982299467516
30
0
41
1
10
97.7287842901715
20
195.006074166887
30
0
41
1
10
97.7649747698326
20
195.010389068975
30
0
41
1
10
97.8372024363892
20
195.01806135454
30
0
41
1
10
97.9454768129422
20
195.028157495329
30
0
41
1
10
98.0535520434655
20
195.034067746884
30
0
41
1
10
98.2694408723545
20
195.040394586702
30
0
41
1
10
98.5565959728374
20
195.034204727009
30
0
41
1
10
98.8423701472848
20
194.999002272604
30
0
41
1
10
99.0205393499689
20
194.967722241771
30
0
41
1
10
99.0562056164497
20
194.96098928079
30
0
41
1
10
99.1270795604335
20
194.946670540542
30
0
41
1
10
99.2327912925887
20
194.923900723463
30
0
41
1
10
99.3367417084028
20
194.897326629293
30
0
41
1
10
99.5423684430016
20
194.839243680096
30
0
41
1
10
99.6764264972905
20
194.793955309802
30
0
41
1
10
99.873158780478
20
194.71646321065
30
0
41
1
10
99.9380089383409
20
194.689035836973
30
0
41
1
10
100.066268662644
20
194.630996607124
30
0
41
1
10
100.129726188097
20
194.600360031093
30
0
41
1
10
100.317642829221
20
194.503802918127
30
0
41
1
10
100.438034429696
20
194.434096031799
30
0
41
1
10
100.669760828917
20
194.28460813782
30
0
41
1
10
100.781093068592
20
194.204824609673
30
0
41
1
10
100.995076816579
20
194.035410630983
30
0
41
1
10
101.09772744802
20
193.945779518014
30
0
41
1
10
101.294443500987
20
193.756583310587
30
0
41
1
10
101.387141438301
20
193.65833640069
30
0
41
1
10
101.56187706351
20
193.454824431593
30
0
41
1
10
101.725954954701
20
193.244287888098
30
0
41
1
10
101.869315821163
20
193.019790179169
30
0
41
1
10
101.952427235087
20
192.875018739724
30
0
41
1
10
101.968724279437
20
192.8458409421
30
0
41
1
10
102.000664356364
20
192.787033890499
30
0
41
1
10
102.016324220948
20
192.757371389218
30
0
41
1
10
102.062180256048
20
192.667965137786
30
0
41
1
10
102.091227116293
20
192.607864037631
30
0
41
1
10
102.173889295223
20
192.426081868847
30
0
41
1
10
102.272187762939
20
192.179767767462
30
0
41
1
10
102.347086912702
20
191.925561822446
30
0
41
1
10
102.410165826464
20
191.66731130235
30
0
41
1
10
102.435796229995
20
191.536164157141
30
0
41
1
10
102.465025637467
20
191.336264349349
30
0
41
1
10
102.473234831353
20
191.268979772251
30
0
41
1
10
102.486376342021
20
191.134654685298
30
0
41
1
10
102.49133474592
20
191.067474986737
30
0
41
1
10
102.501416871517
20
190.865884710857
30
0
41
1
10
102.502095847124
20
190.596960379399
30
0
41
1
10
102.477197114578
20
190.327792003092
30
0
41
1
10
102.439137031464
20
190.058535965568
30
0
41
1
10
102.413528586974
20
189.923863964391
30
0
41
1
10
102.372820914391
20
189.755504094792
30
0
41
1
10
102.364232635094
20
189.721794366743
30
0
41
1
10
102.346270822661
20
189.654742979109
30
0
41
1
10
102.318125172417
20
189.554606981695
30
0
41
1
10
102.28639623231
20
189.455789289122
30
0
41
1
10
102.218194482743
20
189.259912228749
30
0
41
1
10
102.166411791811
20
189.131667697018
30
0
41
1
10
102.050147075221
20
188.87996430127
30
0
41
1
10
101.985666064201
20
188.756504897167
30
0
41
1
10
101.879111634694
20
188.575090813669
30
0
41
1
10
101.82337246092
20
188.485329096654
30
0
41
1
10
101.763839783622
20
188.397038416693
30
0
41
1
10
101.723294573774
20
188.338511865388
30
0
41
1
10
101.702621958838
20
188.309458832986
30
0
41
1
10
101.597721956905
20
188.165884096765
30
0
41
1
10
101.41923753788
20
187.945749240297
30
0
41
1
10
101.219891141206
20
187.744576359491
30
0
41
1
10
101.010031974065
20
187.553049560138
30
0
41
1
10
100.899847327221
20
187.462107833463
30
0
41
1
10
100.755300945122
20
187.354741486294
30
0
41
1
10
100.726033093145
20
187.333572614311
30
0
41
1
10
100.666876462103
20
187.291928135151
30
0
41
1
10
100.57750724604
20
187.230710098121
30
0
41
1
10
100.486258570954
20
187.173197516665
30
0
41
1
10
100.301296303717
20
187.063045307678
30
0
41
1
10
100.048117332546
20
186.929150647098
30
0
41
1
10
99.7819443180443
20
186.821074085066
30
0
41
1
10
99.5773384638168
20
186.749945238792
30
0
41
1
10
99.5083055723181
20
186.727893481748
30
0
41
1
10
99.4034814179835
20
186.697363731449
30
0
41
1
10
99.3684069651297
20
186.687636217912
30
0
41
1
10
99.2982158557382
20
186.669133553405
30
0
41
1
10
99.2630650522769
20
186.660348378629
30
0
41
1
10
99.087037604718
20
186.618730867399
30
0
41
1
10
98.8036485227672
20
186.566877503668
30
0
41
1
10
98.5168417824432
20
186.543930516754
30
0
41
1
10
98.300441171541
20
186.53768668601
30
0
41
1
10
98.2280912844971
20
186.537436622322
30
0
41
1
10
98.1192361739461
20
186.539857102608
30
0
41
1
10
98.0828960614527
20
186.541130096692
30
0
41
1
10
98.0101043623981
20
186.544619533324
30
0
41
1
10
97.9737144569214
20
186.546834251724
30
0
41
1
10
97.7925057055419
20
186.560195763621
30
0
41
1
10
97.6492227733542
20
186.578218228734
30
0
41
1
10
97.3659258773066
20
186.628479741206
30
0
41
1
10
97.2259121850866
20
186.660719994082
30
0
41
1
10
96.9491613940127
20
186.739418146921
30
0
41
1
10
96.8124240203547
20
186.785874951839
30
0
41
1
10
96.6436206960971
20
186.853109133421
30
0
41
1
10
96.6100179432244
20
186.866996074218
30
0
41
1
10
96.5434021260758
20
186.895527965288
30
0
41
1
10
96.4442400929172
20
186.939512702785
30
0
41
1
10
96.3473356146596
20
186.987011010579
30
0
41
1
10
96.1564895041053
20
187.086606921771
30
0
41
1
10
95.9099150049522
20
187.231644314456
30
0
41
1
10
95.6789790866336
20
187.400817333113
30
0
41
1
10
95.5396369365626
20
187.514206634637
30
0
41
1
10
95.512018737068
20
187.537268189707
30
0
41
1
10
95.4572878675224
20
187.584165165972
30
0
41
1
10
95.4302121117668
20
187.607970685217
30
0
41
1
10
95.3501936413138
20
187.680141606807
30
0
41
1
10
95.2983215991544
20
187.729377639393
30
0
41
1
10
95.1470291422797
20
187.880360208524
30
0
41
1
10
94.9568120206015
20
188.090383213889
30
0
41
1
10
94.789092887086
20
188.317256441259
30
0
41
1
10
94.6717823313468
20
188.493692640456
30
0
41
1
10
94.6340943466056
20
188.553553401623
30
0
41
1
10
94.5797131710557
20
188.644929558533
30
0
41
1
10
94.5619576894869
20
188.675633606281
30
0
41
1
10
94.5273545409855
20
188.737229741798
30
0
41
1
10
94.5104824338614
20
188.768162397914
30
0
41
1
10
94.4282393644373
20
188.923485397042
30
0
41
1
10
94.3692056525229
20
189.049849506158
30
0
41
1
10
94.2641485516879
20
189.306541212642
30
0
41
1
10
94.2181265466503
20
189.436869400483
30
0
41
1
10
94.1587389218674
20
189.635243672429
30
0
41
1
10
94.1314601095742
20
189.735152578467
30
0
41
1
10
94.1078195174944
20
189.836139739671
30
0
41
1
10
94.092871392337
20
189.903704323094
30
0
41
1
10
94.0857984246863
20
189.9376354049
30
0
41
1
10
94.0525984577149
20
190.107238981782
30
0
41
1
10
94.0328545913412
20
190.243136955022
30
0
41
1
10
94.0131298514202
20
190.447259441858
30
0
41
1
10
94.0057443806003
20
190.54938994841
30
0
41
1
10
94.0014364907113
20
190.668657348677
30
0
41
1
10
94.0005130958575
20
190.719796184726
30
0
41
1
10
94.0001026487956
20
190.753894089628
30
0
41
1
10
94
20
190.770976404214
30
0
41
1
10
94
20
190.788
30
0
0
SPLINE
5
24D
100
AcDbEntity
8
1
62
256
6
ByLayer
370
18
48
1
60
0
100
AcDbSpline
70
2053
71
3
72
190
73
186
40
0
40
0
40
0
40
0
40
0.0156249999999936
40
0.0156249999999936
40
0.0312499999999871
40
0.0468749999999807
40
0.0468749999999807
40
0.0507812499999805
40
0.0507812499999805
40
0.0546874999999803
40
0.0546874999999803
40
0.0624999999999799
40
0.0624999999999799
40
0.0781249999999782
40
0.0781249999999782
40
0.0937499999999765
40
0.0937499999999765
40
0.101562499999976
40
0.101562499999976
40
0.109374999999976
40
0.109374999999976
40
0.124999999999979
40
0.124999999999979
40
0.140624999999981
40
0.140624999999981
40
0.156249999999984
40
0.156249999999984
40
0.160156249999985
40
0.160156249999985
40
0.164062499999986
40
0.171874999999989
40
0.171874999999989
40
0.187499999999995
40
0.203125
40
0.203125
40
0.210937500000004
40
0.210937500000004
40
0.214843750000006
40
0.214843750000006
40
0.218750000000008
40
0.218750000000008
40
0.234375000000012
40
0.234375000000012
40
0.250000000000016
40
0.250000000000016
40
0.26562500000002
40
0.26562500000002
40
0.269531250000021
40
0.269531250000021
40
0.273437500000021
40
0.281250000000023
40
0.281250000000023
40
0.296875000000025
40
0.312500000000026
40
0.312500000000026
40
0.316406250000026
40
0.316406250000026
40
0.320312500000026
40
0.320312500000026
40
0.328125000000028
40
0.328125000000028
40
0.343750000000033
40
0.343750000000033
40
0.359375000000037
40
0.359375000000037
40
0.367187500000039
40
0.367187500000039
40
0.371093750000041
40
0.371093750000041
40
0.375000000000043
40
0.375000000000043
40
0.390625000000056
40
0.390625000000056
40
0.406250000000068
40
0.406250000000068
40
0.42187500000008
40
0.42187500000008
40
0.425781250000083
40
0.425781250000083
40
0.429687500000085
40
0.43750000000009
40
0.43750000000009
40
0.453125000000097
40
0.468750000000104
40
0.468750000000104
40
0.476562500000106
40
0.476562500000106
40
0.480468750000107
40
0.480468750000107
40
0.484375000000109
40
0.484375000000109
40
0.500000000000108
40
0.500000000000108
40
0.515625000000107
40
0.515625000000107
40
0.531250000000106
40
0.531250000000106
40
0.539062500000107
40
0.539062500000107
40
0.546875000000108
40
0.546875000000108
40
0.562500000000108
40
0.562500000000108
40
0.578125000000108
40
0.578125000000108
40
0.582031250000108
40
0.582031250000108
40
0.585937500000109
40
0.585937500000109
40
0.593750000000108
40
0.593750000000108
40
0.609375000000104
40
0.609375000000104
40
0.6250000000001
40
0.6250000000001
40
0.632812500000099
40
0.632812500000099
40
0.636718750000098
40
0.636718750000098
40
0.640625000000098
40
0.640625000000098
40
0.656250000000095
40
0.656250000000095
40
0.671875000000093
40
0.671875000000093
40
0.687500000000091
40
0.687500000000091
40
0.69140625000009
40
0.69140625000009
40
0.695312500000089
40
0.695312500000089
40
0.703125000000089
40
0.703125000000089
40
0.718750000000087
40
0.734375000000085
40
0.734375000000085
40
0.742187500000084
40
0.742187500000084
40
0.746093750000084
40
0.746093750000084
40
0.750000000000083
40
0.750000000000083
40
0.765625000000077
40
0.765625000000077
40
0.781250000000071
40
0.781250000000071
40
0.796875000000065
40
0.796875000000065
40
0.812500000000059
40
0.812500000000059
40
0.828125000000052
40
0.828125000000052
40
0.843750000000046
40
0.843750000000046
40
0.847656250000045
40
0.847656250000045
40
0.851562500000043
40
0.851562500000043
40
0.85937500000004
40
0.85937500000004
40
0.875000000000035
40
0.875000000000035
40
0.890625000000029
40
0.890625000000029
40
0.898437500000028
40
0.898437500000028
40
0.902343750000026
40
0.902343750000026
40
0.906250000000025
40
0.906250000000025
40
0.921875000000015
40
0.921875000000015
40
0.937500000000005
40
0.937500000000005
40
0.953124999999996
40
0.953124999999996
40
0.957031249999995
40
0.957031249999995
40
0.960937499999994
40
0.960937499999994
40
0.968749999999994
40
0.968749999999994
40
0.984374999999997
40
0.984374999999997
40
1
40
1
40
1
40
1
41
1
10
92.4962985213749
20
190.959258938948
30
0
41
1
10
92.4824832804754
20
190.773598586575
30
0
41
1
10
92.4589220859132
20
190.589357685276
30
0
41
1
10
92.3930240788827
20
190.223660914743
30
0
41
1
10
92.3083436288143
20
189.860751034572
30
0
41
1
10
92.1863948255201
20
189.503546268771
30
0
41
1
10
92.098276659111
20
189.282194425495
30
0
41
1
10
92.0800566230821
20
189.238019429853
30
0
41
1
10
92.0424116505271
20
189.149864456885
30
0
41
1
10
92.022963748631
20
189.105837129789
30
0
41
1
10
91.963115001867
20
188.974747230039
30
0
41
1
10
91.9211369046274
20
188.888491313703
30
0
41
1
10
91.7890931896021
20
188.633090359808
30
0
41
1
10
91.6929332756458
20
188.467303296693
30
0
41
1
10
91.4846444523722
20
188.144670958342
30
0
41
1
10
91.3725152792533
20
187.98782556237
30
0
41
1
10
91.1922004242152
20
187.759463902133
30
0
41
1
10
91.1300715551913
20
187.684496648815
30
0
41
1
10
91.0016949537664
20
187.536930532656
30
0
41
1
10
90.9353002272132
20
187.464192089948
30
0
41
1
10
90.7319313427394
20
187.251815587756
30
0
41
1
10
90.5902788828579
20
187.1173635845
30
0
41
1
10
90.2951071539368
20
186.862528654242
30
0
41
1
10
90.1415872044877
20
186.742146302147
30
0
41
1
10
89.8225968493427
20
186.515679921016
30
0
41
1
10
89.6571275443694
20
186.40959437216
30
0
41
1
10
89.4425417730616
20
186.28633807641
30
0
41
1
10
89.3991757263955
20
186.262123154707
30
0
41
1
10
89.3119860758662
20
186.214822898988
30
0
41
1
10
89.1805793832068
20
186.145596472701
30
0
41
1
10
89.0473251741789
20
186.081495605247
30
0
41
1
10
88.7783846173911
20
185.960057494313
30
0
41
1
10
88.413321695786
20
185.816149461724
30
0
41
1
10
88.0353572336491
20
185.708271770028
30
0
41
1
10
87.7469249559429
20
185.641256746806
30
0
41
1
10
87.6499529235776
20
185.621237882331
30
0
41
1
10
87.5032238625588
20
185.594774587538
30
0
41
1
10
87.4540362675444
20
185.58653880104
30
0
41
1
10
87.355741826673
20
185.571348634839
30
0
41
1
10
87.3065980030509
20
185.564385796525
30
0
41
1
10
87.0608956962133
20
185.532701797437
30
0
41
1
10
86.8643875281678
20
185.517349937598
30
0
41
1
10
86.4714760849624
20
185.506194278129
30
0
41
1
10
86.2750728146001
20
185.510391342125
30
0
41
1
10
85.8823716245344
20
185.538414418145
30
0
41
1
10
85.6860736953628
20
185.562238730241
30
0
41
1
10
85.4407692580285
20
185.604668347996
30
0
41
1
10
85.3918196211474
20
185.613770781239
30
0
41
1
10
85.2944404670174
20
185.633139948014
30
0
41
1
10
85.1490128832561
20
185.663965566768
30
0
41
1
10
85.005484485604
20
185.700036714076
30
0
41
1
10
84.7209155813516
20
185.779040799352
30
0
41
1
10
84.3481141433874
20
185.902648757978
30
0
41
1
10
83.9883766873409
20
186.062158939944
30
0
41
1
10
83.7676838616148
20
186.173186909091
30
0
41
1
10
83.7237529230438
20
186.195960460486
30
0
41
1
10
83.6363097567744
20
186.242651489621
30
0
41
1
10
83.5927541912133
20
186.266594937905
30
0
41
1
10
83.463391172085
20
186.33976921235
30
0
41
1
10
83.3786996004657
20
186.390437276121
30
0
41
1
10
83.1291710775404
20
186.547946672925
30
0
41
1
10
82.9688691318172
20
186.66027983026
30
0
41
1
10
82.6600920079434
20
186.899142678305
30
0
41
1
10
82.5116170913128
20
187.025672897615
30
0
41
1
10
82.2978377598409
20
187.22609228146
30
0
41
1
10
82.2280695727508
20
187.294672668209
30
0
41
1
10
82.1256884061585
20
187.400231521222
30
0
41
1
10
82.0919400561382
20
187.435866068783
30
0
41
1
10
82.0252087219628
20
187.508038969859
30
0
41
1
10
81.992339744899
20
187.544454646564
30
0
41
1
10
81.8306302467092
20
187.727956334298
30
0
41
1
10
81.7094850795586
20
187.879505965903
30
0
41
1
10
81.4831730780296
20
188.191668598419
30
0
41
1
10
81.3780073027608
20
188.352282507705
30
0
41
1
10
81.1836790407434
20
188.682436435521
30
0
41
1
10
81.0945152152
20
188.851975945021
30
0
41
1
10
80.9933835051074
20
189.069571702361
30
0
41
1
10
80.9736584689016
20
189.113412403376
30
0
41
1
10
80.9353278440467
20
189.20150274057
30
0
41
1
10
80.8796523130026
20
189.333923352073
30
0
41
1
10
80.8293714427301
20
189.467177778163
30
0
41
1
10
80.7358852347165
20
189.734754737239
30
0
41
1
10
80.6300730543658
20
190.094364345314
30
0
41
1
10
80.5615324351364
20
190.459376469438
30
0
41
1
10
80.5243660266016
20
190.735143973515
30
0
41
1
10
80.5143546808438
20
190.827402101931
30
0
41
1
10
80.5029776499348
20
190.966298929763
30
0
41
1
10
80.499789290873
20
191.012750428307
30
0
41
1
10
80.494663934321
20
191.105384136247
30
0
41
1
10
80.4927235462868
20
191.15158147755
30
0
41
1
10
80.4860975536955
20
191.381976552754
30
0
41
1
10
80.4906166465628
20
191.564401872353
30
0
41
1
10
80.5187689793881
20
191.925581511668
30
0
41
1
10
80.5424033070022
20
192.104335623114
30
0
41
1
10
80.6088277845379
20
192.458223870521
30
0
41
1
10
80.6516162725645
20
192.633358063952
30
0
41
1
10
80.730623161727
20
192.893340441056
30
0
41
1
10
80.759229564806
20
192.97886872148
30
0
41
1
10
80.8208262574564
20
193.147561904567
30
0
41
1
10
80.8538253933451
20
193.230755557235
30
0
41
1
10
80.9593222749616
20
193.476967231891
30
0
41
1
10
81.0383035670594
20
193.636622901913
30
0
41
1
10
81.2134153258816
20
193.947263308745
30
0
41
1
10
81.3095452004858
20
194.098247867843
30
0
41
1
10
81.4406558015032
20
194.281608224374
30
0
41
1
10
81.4674266489508
20
194.318011237495
30
0
41
1
10
81.5220769841067
20
194.390278173707
30
0
41
1
10
81.5499717031637
20
194.426158315407
30
0
41
1
10
81.6348717923975
20
194.532419482667
30
0
41
1
10
81.693232780516
20
194.601613222759
30
0
41
1
10
81.8735040761355
20
194.804404753175
30
0
41
1
10
82.0005897501402
20
194.933224464534
30
0
41
1
10
82.2683960475742
20
195.178620949225
30
0
41
1
10
82.4091166701967
20
195.295197106952
30
0
41
1
10
82.6306062064889
20
195.460982715018
30
0
41
1
10
82.7061740607228
20
195.514728688686
30
0
41
1
10
82.822186502872
20
195.593060889499
30
0
41
1
10
82.8613009840257
20
195.618790311107
30
0
41
1
10
82.9404290320197
20
195.669482070189
30
0
41
1
10
82.9803287862271
20
195.694370660371
30
0
41
1
10
83.1811218569677
20
195.816327099151
30
0
41
1
10
83.3462653752925
20
195.906197995629
30
0
41
1
10
83.685401898584
20
196.071196232732
30
0
41
1
10
83.8593953234642
20
196.146322297312
30
0
41
1
10
84.2163259129537
20
196.281994741422
30
0
41
1
10
84.3992622109387
20
196.34254217334
30
0
41
1
10
84.6337476186211
20
196.408922504932
30
0
41
1
10
84.6809361543989
20
196.421732150755
30
0
41
1
10
84.7759047222384
20
196.44640870393
30
0
41
1
10
84.8234908529273
20
196.458225042991
30
0
41
1
10
84.9664804795924
20
196.492110622153
30
0
41
1
10
85.0621466406399
20
196.51262573676
30
0
41
1
10
85.3501497891539
20
196.568072404877
30
0
41
1
10
85.7368288374054
20
196.625769457837
30
0
41
1
10
86.1288155029459
20
196.651548122934
30
0
41
1
10
86.4248349663828
20
196.65872764399
30
0
41
1
10
86.523846934638
20
196.659091035133
30
0
41
1
10
86.6728834554865
20
196.656529802982
30
0
41
1
10
86.7227206508105
20
196.655154966406
30
0
41
1
10
86.8221797857111
20
196.65137178731
30
0
41
1
10
86.8717752625344
20
196.648966309552
30
0
41
1
10
87.1190902563014
20
196.634398421661
30
0
41
1
10
87.3148273555157
20
196.614635756872
30
0
41
1
10
87.7021993069887
20
196.559283146738
30
0
41
1
10
87.8938339003189
20
196.523692274227
30
0
41
1
10
88.2730124175081
20
196.436550951824
30
0
41
1
10
88.4605566429743
20
196.385002105117
30
0
41
1
10
88.83145105423
20
196.265287782936
30
0
41
1
10
89.0117516144749
20
196.198103552825
30
0
41
1
10
89.3623238015878
20
196.049500429415
30
0
41
1
10
89.5326269984347
20
195.968069554327
30
0
41
1
10
89.8634213060047
20
195.790836736947
30
0
41
1
10
90.023912634144
20
195.695035691071
30
0
41
1
10
90.2183075436484
20
195.56594519071
30
0
41
1
10
90.2568748278228
20
195.539658950386
30
0
41
1
10
90.3333808037009
20
195.486136340649
30
0
41
1
10
90.3713251599435
20
195.458893407209
30
0
41
1
10
90.4836044535099
20
195.376172723905
30
0
41
1
10
90.5565947946807
20
195.319561016153
30
0
41
1
10
90.7700969896867
20
195.145359521232
30
0
41
1
10
90.9051536682841
20
195.023413895312
30
0
41
1
10
91.1609955066303
20
194.767783286854
30
0
41
1
10
91.2817804757455
20
194.634098755879
30
0
41
1
10
91.4521391928871
20
194.424421951683
30
0
41
1
10
91.5071189302216
20
194.353001966528
30
0
41
1
10
91.5868324618665
20
194.243510851217
30
0
41
1
10
91.6129440625225
20
194.206620096975
30
0
41
1
10
91.6642374968633
20
194.132037121852
30
0
41
1
10
91.689350737954
20
194.094442986075
30
0
41
1
10
91.8119889322472
20
193.905387658619
30
0
41
1
10
91.9010471971643
20
193.750251994758
30
0
41
1
10
92.0615323521632
20
193.432163044568
30
0
41
1
10
92.1329581547611
20
193.269209741388
30
0
41
1
10
92.2581152879251
20
192.935260070275
30
0
41
1
10
92.3118481385807
20
192.764264638081
30
0
41
1
10
92.3675811741123
20
192.545226107469
30
0
41
1
10
92.3781547258233
20
192.501153143854
30
0
41
1
10
92.3981404770914
20
192.412467697768
30
0
41
1
10
92.4075175528741
20
192.368009598855
30
0
41
1
10
92.4337949421208
20
192.234389530651
30
0
41
1
10
92.448852450935
20
192.144938106827
30
0
41
1
10
92.4867293236944
20
191.875468772062
30
0
41
1
10
92.5022705565009
20
191.694336969419
30
0
41
1
10
92.5139626943285
20
191.329069079973
30
0
41
1
10
92.5101137622743
20
191.14491929132
30
0
41
1
10
92.4962985213749
20
190.959258938948
30
0
0
SPLINE
5
24E
100
AcDbEntity
8
1
62
256
6
ByLayer
370
18
48
1
60
0
100
AcDbSpline
70
4
71
3
72
8
73
4
40
0
40
0
40
0
40
0
40
1
40
1
40
1
40
1
41
1
10
103.523480558787
20
160.13271950075
30
0
41
1
10
103.562773351959
20
160.279135724278
30
0
41
1
10
103.602066142524
20
160.425552159015
30
0
41
1
10
103.64135893164
20
160.571968711209
30
0
0
SPLINE
5
24F
100
AcDbEntity
8
1
62
256
6
ByLayer
370
18
48
1
60
0
100
AcDbSpline
70
4
71
3
72
8
73
4
40
0
40
0
40
0
40
0
40
1
40
1
40
1
40
1
41
1
10
102.374500587841
20
160.13271950075
30
0
41
1
10
102.328063020058
20
160.279135724278
30
0
41
1
10
102.281625455357
20
160.425552159015
30
0
41
1
10
102.235187892369
20
160.571968711209
30
0
0
SPLINE
5
250
100
AcDbEntity
8
1
62
256
6
ByLayer
370
18
48
1
60
0
100
AcDbSpline
70
4
71
3
72
8
73
4
40
0
40
0
40
0
40
0
40
1
40
1
40
1
40
1
41
1
10
111.533534892204
20
160.13271950075
30
0
41
1
10
112.130038432202
20
160.279135724278
30
0
41
1
10
112.726541932619
20
160.425552159015
30
0
41
1
10
113.323045411025
20
160.571968711209
30
0
0
SPLINE
5
251
100
AcDbEntity
8
1
62
256
6
ByLayer
370
18
48
1
60
0
100
AcDbSpline
70
4
71
3
72
8
73
4
40
0
40
0
40
0
40
0
40
1
40
1
40
1
40
1
41
1
10
111.533534892204
20
160.13271950075
30
0
41
1
10
111.521380049108
20
160.132699776106
30
0
41
1
10
111.509221497715
20
160.132699776106
30
0
41
1
10
111.497059261776
20
160.13271950075
30
0
0
SPLINE
5
252
100
AcDbEntity
8
1
62
256
6
ByLayer
370
18
48
1
60
0
100
AcDbSpline
70
4
71
3
72
8
73
4
40
0
40
0
40
0
40
0
40
1
40
1
40
1
40
1
41
1
10
111.497059261776
20
160.13271950075
30
0
41
1
10
112.093562801774
20
160.279135724278
30
0
41
1
10
112.690066302192
20
160.425552159015
30
0
41
1
10
113.286569780598
20
160.571968711209
30
0
0
SPLINE
5
253
100
AcDbEntity
8
1
62
256
6
ByLayer
370
18
48
1
60
0
100
AcDbSpline
70
4
71
3
72
10
73
6
40
0
40
0
40
0
40
0
40
0.876183133825528
40
0.876183133825528
40
1
40
1
40
1
40
1
41
1
10
112.526880433937
20
160.571968711209
30
0
41
1
10
111.809436530273
20
160.38104162472
30
0
41
1
10
111.091992593587
20
160.190114729278
30
0
41
1
10
110.273163763157
20
159.972207696147
30
0
41
1
10
110.171778941885
20
159.945227139185
30
0
41
1
10
110.070394118847
20
159.918246592438
30
0
0
SPLINE
5
254
100
AcDbEntity
8
1
62
256
6
ByLayer
370
18
48
1
60
0
100
AcDbSpline
70
4
71
3
72
8
73
4
40
0
40
0
40
0
40
0
40
1
40
1
40
1
40
1
41
1
10
110.02599269057
20
159.918246592438
30
0
41
1
10
110.040796959929
20
159.918224612423
30
0
41
1
10
110.055597447988
20
159.918224612423
30
0
41
1
10
110.070394118847
20
159.918246592438
30
0
0
SPLINE
5
255
100
AcDbEntity
8
1
62
256
6
ByLayer
370
18
48
1
60
0
100
AcDbSpline
70
4
71
3
72
10
73
6
40
0
40
0
40
0
40
0
40
0.876183133825528
40
0.876183133825528
40
1
40
1
40
1
40
1
41
1
10
112.48247900566
20
160.571968711209
30
0
41
1
10
111.765035101996
20
160.38104162472
30
0
41
1
10
111.04759116531
20
160.190114729278
30
0
41
1
10
110.22876233488
20
159.972207696147
30
0
41
1
10
110.127377513608
20
159.945227139185
30
0
41
1
10
110.02599269057
20
159.918246592438
30
0
0
SPLINE
5
256
100
AcDbEntity
8
1
62
256
6
ByLayer
370
18
48
1
60
0
100
AcDbSpline
70
4
71
3
72
8
73
4
40
0
40
0
40
0
40
0
40
1
40
1
40
1
40
1
41
1
10
110.094887632288
20
160.13271950075
30
0
41
1
10
110.590082069963
20
160.279135724278
30
0
41
1
10
111.08527647478
20
160.425552159015
30
0
41
1
10
111.580470861323
20
160.571968711209
30
0
0
SPLINE
5
257
100
AcDbEntity
8
1
62
256
6
ByLayer
370
18
48
1
60
0
100
AcDbSpline
70
4
71
3
72
8
73
4
40
0
40
0
40
0
40
0
40
1
40
1
40
1
40
1
41
1
10
110.094887632288
20
160.13271950075
30
0
41
1
10
110.077681710159
20
160.132699776106
30
0
41
1
10
110.060472702594
20
160.132699776106
30
0
41
1
10
110.04326064321
20
160.13271950075
30
0
0
SPLINE
5
258
100
AcDbEntity
8
1
62
256
6
ByLayer
370
18
48
1
60
0
100
AcDbSpline
70
4
71
3
72
8
73
4
40
0
40
0
40
0
40
0
40
1
40
1
40
1
40
1
41
1
10
110.04326064321
20
160.13271950075
30
0
41
1
10
110.538455080885
20
160.279135724278
30
0
41
1
10
111.033649485702
20
160.425552159015
30
0
41
1
10
111.528843872245
20
160.571968711209
30
0
0
SPLINE
5
259
100
AcDbEntity
8
1
62
256
6
ByLayer
370
18
48
1
60
0
100
AcDbSpline
70
4
71
3
72
8
73
4
40
0
40
0
40
0
40
0
40
1
40
1
40
1
40
1
41
1
10
109.201566263078
20
160.13271950075
30
0
41
1
10
109.633958245665
20
160.279135724278
30
0
41
1
10
110.066350199561
20
160.425552159015
30
0
41
1
10
110.498742137502
20
160.571968711209
30
0
0
SPLINE
5
25A
100
AcDbEntity
8
1
62
256
6
ByLayer
370
18
48
1
60
0
100
AcDbSpline
70
4
71
3
72
8
73
4
40
0
40
0
40
0
40
0
40
1
40
1
40
1
40
1
41
1
10
109.201566263078
20
160.13271950075
30
0
41
1
10
109.182222828356
20
160.132699776106
30
0
41
1
10
109.162876695285
20
160.132699776106
30
0
41
1
10
109.143527901657
20
160.13271950075
30
0
0
SPLINE
5
25B
100
AcDbEntity
8
1
62
256
6
ByLayer
370
18
48
1
60
0
100
AcDbSpline
70
4
71
3
72
8
73
4
40
0
40
0
40
0
40
0
40
1
40
1
40
1
40
1
41
1
10
109.143527901657
20
160.13271950075
30
0
41
1
10
109.575919884244
20
160.279135724278
30
0
41
1
10
110.00831183814
20
160.425552159015
30
0
41
1
10
110.44070377608
20
160.571968711209
30
0
0
SPLINE
5
25C
100
AcDbEntity
8
1
62
256
6
ByLayer
370
18
48
1
60
0
100
AcDbSpline
70
4
71
3
72
8
73
4
40
0
40
0
40
0
40
0
40
1
40
1
40
1
40
1
41
1
10
108.210442489264
20
160.13271950075
30
0
41
1
10
108.573212936899
20
160.279135724278
30
0
41
1
10
108.935983360463
20
160.425552159015
30
0
41
1
10
109.29875377064
20
160.571968711209
30
0
0
SPLINE
5
25D
100
AcDbEntity
8
1
62
256
6
ByLayer
370
18
48
1
60
0
100
AcDbSpline
70
4
71
3
72
8
73
4
40
0
40
0
40
0
40
0
40
1
40
1
40
1
40
1
41
1
10
108.210442489264
20
160.13271950075
30
0
41
1
10
108.189266599468
20
160.132699776106
30
0
41
1
10
108.168088440967
20
160.132699776106
30
0
41
1
10
108.14690805513
20
160.13271950075
30
0
0
SPLINE
5
25E
100
AcDbEntity
8
1
62
256
6
ByLayer
370
18
48
1
60
0
100
AcDbSpline
70
4
71
3
72
8
73
4
40
0
40
0
40
0
40
0
40
1
40
1
40
1
40
1
41
1
10
108.14690805513
20
160.13271950075
30
0
41
1
10
108.509678502765
20
160.279135724278
30
0
41
1
10
108.872448926329
20
160.425552159015
30
0
41
1
10
109.235219336506
20
160.571968711209
30
0
0
SPLINE
5
25F
100
AcDbEntity
8
1
62
256
6
ByLayer
370
18
48
1
60
0
100
AcDbSpline
70
4
71
3
72
8
73
4
40
0
40
0
40
0
40
0
40
1
40
1
40
1
40
1
41
1
10
107.137146924826
20
160.13271950075
30
0
41
1
10
107.424574730842
20
160.279135724278
30
0
41
1
10
107.712002517785
20
160.425552159015
30
0
41
1
10
107.999430294123
20
160.571968711209
30
0
0
SPLINE
5
260
100
AcDbEntity
8
1
62
256
6
ByLayer
370
18
48
1
60
0
100
AcDbSpline
70
4
71
3
72
8
73
4
40
0
40
0
40
0
40
0
40
1
40
1
40
1
40
1
41
1
10
107.137146924826
20
160.13271950075
30
0
41
1
10
107.11447253639
20
160.132699776106
30
0
41
1
10
107.091796344669
20
160.132699776106
30
0
41
1
10
107.069118393959
20
160.13271950075
30
0
0
SPLINE
5
261
100
AcDbEntity
8
1
62
256
6
ByLayer
370
18
48
1
60
0
100
AcDbSpline
70
4
71
3
72
8
73
4
40
0
40
0
40
0
40
0
40
1
40
1
40
1
40
1
41
1
10
107.069118393959
20
160.13271950075
30
0
41
1
10
107.356546199974
20
160.279135724278
30
0
41
1
10
107.643973986918
20
160.425552159015
30
0
41
1
10
107.931401763255
20
160.571968711209
30
0
0
SPLINE
5
262
100
AcDbEntity
8
1
62
256
6
ByLayer
370
18
48
1
60
0
100
AcDbSpline
70
4
71
3
72
8
73
4
40
0
40
0
40
0
40
0
40
1
40
1
40
1
40
1
41
1
10
106.621262815352
20
160.571968711209
30
0
41
1
10
106.312368515325
20
160.354060971242
30
0
41
1
10
106.003474199706
20
160.136153470396
30
0
41
1
10
105.694579843472
20
159.918246592438
30
0
0
SPLINE
5
263
100
AcDbEntity
8
1
62
256
6
ByLayer
370
18
48
1
60
0
100
AcDbSpline
70
4
71
3
72
8
73
4
40
0
40
0
40
0
40
0
40
1
40
1
40
1
40
1
41
1
10
105.623130066441
20
159.918246592438
30
0
41
1
10
105.646948082382
20
159.918224612423
30
0
41
1
10
105.670764693983
20
159.918224612423
30
0
41
1
10
105.694579843472
20
159.918246592438
30
0
0
SPLINE
5
264
100
AcDbEntity
8
1
62
256
6
ByLayer
370
18
48
1
60
0
100
AcDbSpline
70
4
71
3
72
8
73
4
40
0
40
0
40
0
40
0
40
1
40
1
40
1
40
1
41
1
10
106.549813038321
20
160.571968711209
30
0
41
1
10
106.240918738294
20
160.354060971242
30
0
41
1
10
105.932024422675
20
160.136153470396
30
0
41
1
10
105.623130066441
20
159.918246592438
30
0
0
SPLINE
5
265
100
AcDbEntity
8
1
62
256
6
ByLayer
370
18
48
1
60
0
100
AcDbSpline
70
4
71
3
72
8
73
4
40
0
40
0
40
0
40
0
40
1
40
1
40
1
40
1
41
1
10
104.812775429925
20
160.13271950075
30
0
41
1
10
104.937178913232
20
160.279135724278
30
0
41
1
10
105.061582388284
20
160.425552159015
30
0
41
1
10
105.185985858745
20
160.571968711209
30
0
0
SPLINE
5
266
100
AcDbEntity
8
1
62
256
6
ByLayer
370
18
48
1
60
0
100
AcDbSpline
70
4
71
3
72
8
73
4
40
0
40
0
40
0
40
0
40
1
40
1
40
1
40
1
41
1
10
104.812775429925
20
160.13271950075
30
0
41
1
10
104.788194802991
20
160.132699776106
30
0
41
1
10
104.763613381143
20
160.132699776106
30
0
41
1
10
104.739031212398
20
160.13271950075
30
0
0
SPLINE
5
267
100
AcDbEntity
8
1
62
256
6
ByLayer
370
18
48
1
60
0
100
AcDbSpline
70
4
71
3
72
8
73
4
40
0
40
0
40
0
40
0
40
1
40
1
40
1
40
1
41
1
10
104.739031212398
20
160.13271950075
30
0
41
1
10
104.863434695704
20
160.279135724278
30
0
41
1
10
104.987838170756
20
160.425552159015
30
0
41
1
10
105.112241641217
20
160.571968711209
30
0
0
SPLINE
5
268
100
AcDbEntity
8
1
62
256
6
ByLayer
370
18
48
1
60
0
100
AcDbSpline
70
4
71
3
72
8
73
4
40
0
40
0
40
0
40
0
40
1
40
1
40
1
40
1
41
1
10
103.598356226449
20
160.13271950075
30
0
41
1
10
103.573397922178
20
160.132699776106
30
0
41
1
10
103.548439350039
20
160.132699776106
30
0
41
1
10
103.523480558787
20
160.13271950075
30
0
0
SPLINE
5
269
100
AcDbEntity
8
1
62
256
6
ByLayer
370
18
48
1
60
0
100
AcDbSpline
70
4
71
3
72
8
73
4
40
0
40
0
40
0
40
0
40
1
40
1
40
1
40
1
41
1
10
102.374500587841
20
160.13271950075
30
0
41
1
10
102.3495582136
20
160.132699776106
30
0
41
1
10
102.324616102763
20
160.132699776106
30
0
41
1
10
102.299674304052
20
160.13271950075
30
0
0
SPLINE
5
26A
100
AcDbEntity
8
1
62
256
6
ByLayer
370
18
48
1
60
0
100
AcDbSpline
70
4
71
3
72
8
73
4
40
0
40
0
40
0
40
0
40
1
40
1
40
1
40
1
41
1
10
101.160509448618
20
160.13271950075
30
0
41
1
10
101.029073868064
20
160.279135724278
30
0
41
1
10
100.897638296233
20
160.425552159015
30
0
41
1
10
100.766202729251
20
160.571968711209
30
0
0
SPLINE
5
26B
100
AcDbEntity
8
1
62
256
6
ByLayer
370
18
48
1
60
0
100
AcDbSpline
70
4
71
3
72
8
73
4
40
0
40
0
40
0
40
0
40
1
40
1
40
1
40
1
41
1
10
101.160509448618
20
160.13271950075
30
0
41
1
10
101.135976360549
20
160.132699776106
30
0
41
1
10
101.111444063002
20
160.132699776106
30
0
41
1
10
101.086912603897
20
160.13271950075
30
0
0
SPLINE
5
26C
100
AcDbEntity
8
1
62
256
6
ByLayer
370
18
48
1
60
0
100
AcDbSpline
70
4
71
3
72
8
73
4
40
0
40
0
40
0
40
0
40
1
40
1
40
1
40
1
41
1
10
101.086912603897
20
160.13271950075
30
0
41
1
10
100.955477023344
20
160.279135724278
30
0
41
1
10
100.824041451512
20
160.425552159015
30
0
41
1
10
100.69260588453
20
160.571968711209
30
0
0
SPLINE
5
26D
100
AcDbEntity
8
1
62
256
6
ByLayer
370
18
48
1
60
0
100
AcDbSpline
70
4
71
3
72
8
73
4
40
0
40
0
40
0
40
0
40
1
40
1
40
1
40
1
41
1
10
99.3324458834977
20
160.571968711209
30
0
41
1
10
99.651473115377
20
160.354060971242
30
0
41
1
10
99.9705003633599
20
160.136153470396
30
0
41
1
10
100.289527653291
20
159.918246592438
30
0
0
SPLINE
5
26E
100
AcDbEntity
8
1
62
256
6
ByLayer
370
18
48
1
60
0
100
AcDbSpline
70
4
71
3
72
8
73
4
40
0
40
0
40
0
40
0
40
1
40
1
40
1
40
1
41
1
10
100.218320913843
20
159.918246592438
30
0
41
1
10
100.242055003822
20
159.918224612423
30
0
41
1
10
100.265790602829
20
159.918224612423
30
0
41
1
10
100.289527653291
20
159.918246592438
30
0
0
SPLINE
5
26F
100
AcDbEntity
8
1
62
256
6
ByLayer
370
18
48
1
60
0
100
AcDbSpline
70
4
71
3
72
8
73
4
40
0
40
0
40
0
40
0
40
1
40
1
40
1
40
1
41
1
10
99.2612391440507
20
160.571968711209
30
0
41
1
10
99.5802663759299
20
160.354060971242
30
0
41
1
10
99.8992936239126
20
160.136153470396
30
0
41
1
10
100.218320913843
20
159.918246592438
30
0
0
SPLINE
5
270
100
AcDbEntity
8
1
62
256
6
ByLayer
370
18
48
1
60
0
100
AcDbSpline
70
4
71
3
72
8
73
4
40
0
40
0
40
0
40
0
40
1
40
1
40
1
40
1
41
1
10
98.8382446273024
20
160.13271950075
30
0
41
1
10
98.5443392539362
20
160.279135724278
30
0
41
1
10
98.2504339000718
20
160.425552159015
30
0
41
1
10
97.9565285570527
20
160.571968711209
30
0
0
SPLINE
5
271
100
AcDbEntity
8
1
62
256
6
ByLayer
370
18
48
1
60
0
100
AcDbSpline
70
4
71
3
72
8
73
4
40
0
40
0
40
0
40
0
40
1
40
1
40
1
40
1
41
1
10
98.8382446273024
20
160.13271950075
30
0
41
1
10
98.8156782595864
20
160.132699776106
30
0
41
1
10
98.7931136911087
20
160.132699776106
30
0
41
1
10
98.7705509659469
20
160.13271950075
30
0
0
SPLINE
5
272
100
AcDbEntity
8
1
62
256
6
ByLayer
370
18
48
1
60
0
100
AcDbSpline
70
4
71
3
72
8
73
4
40
0
40
0
40
0
40
0
40
1
40
1
40
1
40
1
41
1
10
98.7705509659469
20
160.13271950075
30
0
41
1
10
98.4766455925806
20
160.279135724278
30
0
41
1
10
98.1827402387162
20
160.425552159015
30
0
41
1
10
97.8888348956972
20
160.571968711209
30
0
0
SPLINE
5
273
100
AcDbEntity
8
1
62
256
6
ByLayer
370
18
48
1
60
0
100
AcDbSpline
70
4
71
3
72
8
73
4
40
0
40
0
40
0
40
0
40
1
40
1
40
1
40
1
41
1
10
97.7665944486964
20
160.13271950075
30
0
41
1
10
97.3977795409751
20
160.279135724278
30
0
41
1
10
97.0289646577262
20
160.425552159015
30
0
41
1
10
96.6601497880868
20
160.571968711209
30
0
0
SPLINE
5
274
100
AcDbEntity
8
1
62
256
6
ByLayer
370
18
48
1
60
0
100
AcDbSpline
70
4
71
3
72
8
73
4
40
0
40
0
40
0
40
0
40
1
40
1
40
1
40
1
41
1
10
97.7665944486964
20
160.13271950075
30
0
41
1
10
97.745554498806
20
160.132699776106
30
0
41
1
10
97.7245168138456
20
160.132699776106
30
0
41
1
10
97.7034814349104
20
160.13271950075
30
0
0
SPLINE
5
275
100
AcDbEntity
8
1
62
256
6
ByLayer
370
18
48
1
60
0
100
AcDbSpline
70
4
71
3
72
8
73
4
40
0
40
0
40
0
40
0
40
1
40
1
40
1
40
1
41
1
10
97.7034814349104
20
160.13271950075
30
0
41
1
10
97.3346665271889
20
160.279135724278
30
0
41
1
10
96.96585164394
20
160.425552159015
30
0
41
1
10
96.5970367743007
20
160.571968711209
30
0
0
SPLINE
5
276
100
AcDbEntity
8
1
62
256
6
ByLayer
370
18
48
1
60
0
100
AcDbSpline
70
4
71
3
72
8
73
4
40
0
40
0
40
0
40
0
40
1
40
1
40
1
40
1
41
1
10
96.7774782019195
20
160.13271950075
30
0
41
1
10
96.3395701912571
20
160.279135724278
30
0
41
1
10
95.9016622096518
20
160.425552159015
30
0
41
1
10
95.4637542442057
20
160.571968711209
30
0
0
SPLINE
5
277
100
AcDbEntity
8
1
62
256
6
ByLayer
370
18
48
1
60
0
100
AcDbSpline
70
4
71
3
72
8
73
4
40
0
40
0
40
0
40
0
40
1
40
1
40
1
40
1
41
1
10
96.7774782019195
20
160.13271950075
30
0
41
1
10
96.758296482433
20
160.132699776106
30
0
41
1
10
96.739117457849
20
160.132699776106
30
0
41
1
10
96.719941165632
20
160.13271950075
30
0
0
SPLINE
5
278
100
AcDbEntity
8
1
62
256
6
ByLayer
370
18
48
1
60
0
100
AcDbSpline
70
4
71
3
72
8
73
4
40
0
40
0
40
0
40
0
40
1
40
1
40
1
40
1
41
1
10
96.719941165632
20
160.13271950075
30
0
41
1
10
96.2820331549697
20
160.279135724278
30
0
41
1
10
95.8441251733643
20
160.425552159015
30
0
41
1
10
95.4062172079182
20
160.571968711209
30
0
0
SPLINE
5
279
100
AcDbEntity
8
1
62
256
6
ByLayer
370
18
48
1
60
0
100
AcDbSpline
70
4
71
3
72
8
73
4
40
0
40
0
40
0
40
0
40
1
40
1
40
1
40
1
41
1
10
95.8864948410526
20
160.13271950075
30
0
41
1
10
95.3863997983708
20
160.279135724278
30
0
41
1
10
94.8863047888726
20
160.425552159015
30
0
41
1
10
94.3862097978284
20
160.571968711209
30
0
0
SPLINE
5
27A
100
AcDbEntity
8
1
62
256
6
ByLayer
370
18
48
1
60
0
100
AcDbSpline
70
4
71
3
72
8
73
4
40
0
40
0
40
0
40
0
40
1
40
1
40
1
40
1
41
1
10
95.8864948410526
20
160.13271950075
30
0
41
1
10
95.8694738591449
20
160.132699776106
30
0
41
1
10
95.8524559596121
20
160.132699776106
30
0
41
1
10
95.835441175697
20
160.13271950075
30
0
0
SPLINE
5
27B
100
AcDbEntity
8
1
62
256
6
ByLayer
370
18
48
1
60
0
100
AcDbSpline
70
4
71
3
72
8
73
4
40
0
40
0
40
0
40
0
40
1
40
1
40
1
40
1
41
1
10
95.835441175697
20
160.13271950075
30
0
41
1
10
95.3353461330153
20
160.279135724278
30
0
41
1
10
94.8352511235171
20
160.425552159015
30
0
41
1
10
94.3351561324728
20
160.571968711209
30
0
0
SPLINE
5
27C
100
AcDbEntity
8
1
62
256
6
ByLayer
370
18
48
1
60
0
100
AcDbSpline
70
4
71
3
72
8
73
4
40
0
40
0
40
0
40
0
40
1
40
1
40
1
40
1
41
1
10
93.4445099685682
20
160.571968711209
30
0
41
1
10
94.2696011731124
20
160.354060971242
30
0
41
1
10
95.0946924193047
20
160.136153470396
30
0
41
1
10
95.9197837739861
20
159.918246592438
30
0
0
SPLINE
5
27D
100
AcDbEntity
8
1
62
256
6
ByLayer
370
18
48
1
60
0
100
AcDbSpline
70
4
71
3
72
8
73
4
40
0
40
0
40
0
40
0
40
1
40
1
40
1
40
1
41
1
10
95.876018626363
20
159.918246592438
30
0
41
1
10
95.8906031746986
20
159.918224612423
30
0
41
1
10
95.9051915690351
20
159.918224612423
30
0
41
1
10
95.9197837739861
20
159.918246592438
30
0
0
SPLINE
5
27E
100
AcDbEntity
8
1
62
256
6
ByLayer
370
18
48
1
60
0
100
AcDbSpline
70
4
71
3
72
8
73
4
40
0
40
0
40
0
40
0
40
1
40
1
40
1
40
1
41
1
10
93.4007448209452
20
160.571968711209
30
0
41
1
10
94.2258360254893
20
160.354060971242
30
0
41
1
10
95.0509272716818
20
160.136153470396
30
0
41
1
10
95.876018626363
20
159.918246592438
30
0
0
SPLINE
5
27F
100
AcDbEntity
8
1
62
256
6
ByLayer
370
18
48
1
60
0
100
AcDbSpline
70
4
71
3
72
8
73
4
40
0
40
0
40
0
40
0
40
1
40
1
40
1
40
1
41
1
10
94.4533629241873
20
160.13271950075
30
0
41
1
10
93.8534105572979
20
160.279135724278
30
0
41
1
10
93.253458230218
20
160.425552159015
30
0
41
1
10
92.6535059252768
20
160.571968711209
30
0
0
SPLINE
5
280
100
AcDbEntity
8
1
62
256
6
ByLayer
370
18
48
1
60
0
100
AcDbSpline
70
4
71
3
72
8
73
4
40
0
40
0
40
0
40
0
40
1
40
1
40
1
40
1
41
1
10
94.4533629241873
20
160.13271950075
30
0
41
1
10
94.4414304011545
20
160.132699776106
30
0
41
1
10
94.4295015842645
20
160.132699776106
30
0
41
1
10
94.4175764968189
20
160.13271950075
30
0
0
SPLINE
5
281
100
AcDbEntity
8
1
62
256
6
ByLayer
370
18
48
1
60
0
100
AcDbSpline
70
4
71
3
72
8
73
4
40
0
40
0
40
0
40
0
40
1
40
1
40
1
40
1
41
1
10
94.4175764968188
20
160.13271950075
30
0
41
1
10
93.8176241299295
20
160.279135724278
30
0
41
1
10
93.2176718028495
20
160.425552159015
30
0
41
1
10
92.6177194979084
20
160.571968711209
30
0
0
SPLINE
5
282
100
AcDbEntity
8
1
62
256
6
ByLayer
370
18
48
1
60
0
100
AcDbSpline
70
4
71
3
72
8
73
4
40
0
40
0
40
0
40
0
40
1
40
1
40
1
40
1
41
1
10
93.9338157146294
20
160.13271950075
30
0
41
1
10
93.2977678652062
20
160.279135724278
30
0
41
1
10
92.6617200579876
20
160.425552159015
30
0
41
1
10
92.0256722742397
20
160.571968711209
30
0
0
SPLINE
5
283
100
AcDbEntity
8
1
62
256
6
ByLayer
370
18
48
1
60
0
100
AcDbSpline
70
4
71
3
72
8
73
4
40
0
40
0
40
0
40
0
40
1
40
1
40
1
40
1
41
1
10
93.9338157146294
20
160.13271950075
30
0
41
1
10
93.9247306648565
20
160.132699776106
30
0
41
1
10
93.9156495476847
20
160.132699776106
30
0
41
1
10
93.9065723808529
20
160.13271950075
30
0
0
SPLINE
5
284
100
AcDbEntity
8
1
62
256
6
ByLayer
370
18
48
1
60
0
100
AcDbSpline
70
4
71
3
72
8
73
4
40
0
40
0
40
0
40
0
40
1
40
1
40
1
40
1
41
1
10
93.9065723808529
20
160.13271950075
30
0
41
1
10
93.2705245314298
20
160.279135724278
30
0
41
1
10
92.6344767242111
20
160.425552159015
30
0
41
1
10
91.9984289404632
20
160.571968711209
30
0
0
SPLINE
5
285
100
AcDbEntity
8
1
62
256
6
ByLayer
370
18
48
1
60
0
100
AcDbSpline
70
4
71
3
72
8
73
4
40
0
40
0
40
0
40
0
40
1
40
1
40
1
40
1
41
1
10
93.5572476471277
20
160.13271950075
30
0
41
1
10
92.8951351697128
20
160.279135724278
30
0
41
1
10
92.2330227362319
20
160.425552159015
30
0
41
1
10
91.5709103271835
20
160.571968711209
30
0
0
SPLINE
5
286
100
AcDbEntity
8
1
62
256
6
ByLayer
370
18
48
1
60
0
100
AcDbSpline
70
4
71
3
72
8
73
4
40
0
40
0
40
0
40
0
40
1
40
1
40
1
40
1
41
1
10
93.5389770505914
20
160.13271950075
30
0
41
1
10
92.8768645731764
20
160.279135724278
30
0
41
1
10
92.2147521396954
20
160.425552159015
30
0
41
1
10
91.552639730647
20
160.571968711209
30
0
0
SPLINE
5
287
100
AcDbEntity
8
1
62
256
6
ByLayer
370
18
48
1
60
0
100
AcDbSpline
70
4
71
3
72
8
73
4
40
0
40
0
40
0
40
0
40
1
40
1
40
1
40
1
41
1
10
93.3295974250577
20
160.13271950075
30
0
41
1
10
92.6518622289466
20
160.279135724278
30
0
41
1
10
91.9741270778062
20
160.425552159015
30
0
41
1
10
91.2963919516749
20
160.571968711209
30
0
0
SPLINE
5
288
100
AcDbEntity
8
1
62
256
6
ByLayer
370
18
48
1
60
0
100
AcDbSpline
70
4
71
3
72
8
73
4
40
0
40
0
40
0
40
0
40
1
40
1
40
1
40
1
41
1
10
93.3205877039831
20
160.13271950075
30
0
41
1
10
92.6428525078719
20
160.279135724278
30
0
41
1
10
91.9651173567314
20
160.425552159015
30
0
41
1
10
91.2873822306001
20
160.571968711209
30
0
0
SPLINE
5
289
100
AcDbEntity
8
1
62
256
6
ByLayer
370
18
48
1
60
0
100
AcDbSpline
70
4
71
3
72
8
73
4
40
0
40
0
40
0
40
0
40
1
40
1
40
1
40
1
41
1
10
114.793553533515
20
160.571968711209
30
0
41
1
10
113.777555152623
20
160.354060971242
30
0
41
1
10
112.761556720447
20
160.136153470396
30
0
41
1
10
111.74555815468
20
159.918246592438
30
0
0
SPLINE
5
28A
100
AcDbEntity
8
1
62
256
6
ByLayer
370
18
48
1
60
0
100
AcDbSpline
70
4
71
3
72
8
73
4
40
0
40
0
40
0
40
0
40
1
40
1
40
1
40
1
41
1
10
114.793160290445
20
160.571968711209
30
0
41
1
10
113.777161909553
20
160.354060971242
30
0
41
1
10
112.761163477376
20
160.136153470396
30
0
41
1
10
111.745164911609
20
159.918246592438
30
0
0
SPLINE
5
28B
100
AcDbEntity
8
1
62
256
6
ByLayer
370
18
48
1
60
0
100
AcDbSpline
70
4
71
3
72
8
73
4
40
0
40
0
40
0
40
0
40
1
40
1
40
1
40
1
41
1
10
112.666993905477
20
160.13271950075
30
0
41
1
10
113.343831853369
20
160.279135724278
30
0
41
1
10
114.02066975635
20
160.425552159015
30
0
41
1
10
114.697507634354
20
160.571968711209
30
0
0
SPLINE
5
28C
100
AcDbEntity
8
1
62
256
6
ByLayer
370
18
48
1
60
0
100
AcDbSpline
70
4
71
3
72
8
73
4
40
0
40
0
40
0
40
0
40
1
40
1
40
1
40
1
41
1
10
112.65720389994
20
160.13271950075
30
0
41
1
10
113.334041847832
20
160.279135724278
30
0
41
1
10
114.010879750812
20
160.425552159015
30
0
41
1
10
114.687717628817
20
160.571968711209
30
0
0
SPLINE
5
28D
100
AcDbEntity
8
1
62
256
6
ByLayer
370
18
48
1
60
0
100
AcDbSpline
70
4
71
3
72
8
73
4
40
0
40
0
40
0
40
0
40
1
40
1
40
1
40
1
41
1
10
112.435988770696
20
160.13271950075
30
0
41
1
10
113.096320901813
20
160.279135724278
30
0
41
1
10
113.756652989114
20
160.425552159015
30
0
41
1
10
114.416985052047
20
160.571968711209
30
0
0
SPLINE
5
28E
100
AcDbEntity
8
1
62
256
6
ByLayer
370
18
48
1
60
0
100
AcDbSpline
70
4
71
3
72
8
73
4
40
0
40
0
40
0
40
0
40
1
40
1
40
1
40
1
41
1
10
112.416956396927
20
160.13271950075
30
0
41
1
10
113.077288528044
20
160.279135724278
30
0
41
1
10
113.737620615344
20
160.425552159015
30
0
41
1
10
114.397952678278
20
160.571968711209
30
0
0
SPLINE
5
28F
100
AcDbEntity
8
1
62
256
6
ByLayer
370
18
48
1
60
0
100
AcDbSpline
70
4
71
3
72
8
73
4
40
0
40
0
40
0
40
0
40
1
40
1
40
1
40
1
41
1
10
112.056172456215
20
160.13271950075
30
0
41
1
10
112.689584938385
20
160.279135724278
30
0
41
1
10
113.322997378526
20
160.425552159015
30
0
41
1
10
113.956409795293
20
160.571968711209
30
0
0
SPLINE
5
290
100
AcDbEntity
8
1
62
256
6
ByLayer
370
18
48
1
60
0
100
AcDbSpline
70
4
71
3
72
8
73
4
40
0
40
0
40
0
40
0
40
1
40
1
40
1
40
1
41
1
10
112.056172456215
20
160.13271950075
30
0
41
1
10
112.046851521025
20
160.132699776106
30
0
41
1
10
112.037526651587
20
160.132699776106
30
0
41
1
10
112.028197866118
20
160.13271950075
30
0
0
SPLINE
5
291
100
AcDbEntity
8
1
62
256
6
ByLayer
370
18
48
1
60
0
100
AcDbSpline
70
4
71
3
72
8
73
4
40
0
40
0
40
0
40
0
40
1
40
1
40
1
40
1
41
1
10
112.028197866118
20
160.13271950075
30
0
41
1
10
112.661610348288
20
160.279135724278
30
0
41
1
10
113.295022788429
20
160.425552159015
30
0
41
1
10
113.928435205196
20
160.571968711209
30
0
0
SPLINE
5
292
100
AcDbEntity
8
1
62
256
6
ByLayer
370
18
48
1
60
0
100
AcDbSpline
70
4
71
3
72
8
73
4
40
0
40
0
40
0
40
0
40
1
40
1
40
1
40
1
41
1
10
102.299674304052
20
160.13271950075
30
0
41
1
10
102.25323673627
20
160.279135724278
30
0
41
1
10
102.206799171568
20
160.425552159015
30
0
41
1
10
102.160361608581
20
160.571968711209
30
0
0
SPLINE
5
293
100
AcDbEntity
8
1
62
256
6
ByLayer
370
18
48
1
60
0
100
AcDbSpline
70
4
71
3
72
8
73
4
40
0
40
0
40
0
40
0
40
1
40
1
40
1
40
1
41
1
10
103.598356226449
20
160.13271950075
30
0
41
1
10
103.637649019621
20
160.279135724278
30
0
41
1
10
103.676941810187
20
160.425552159015
30
0
41
1
10
103.716234599302
20
160.571968711209
30
0
0
SPLINE
5
294
100
AcDbEntity
8
1
62
256
6
ByLayer
370
18
48
1
60
0
100
AcDbSpline
70
4
71
3
72
8
73
4
40
0
40
0
40
0
40
0
40
1
40
1
40
1
40
1
41
1
10
113.323045411025
20
160.571968711209
30
0
41
1
10
113.331879904988
20
160.582079452719
30
0
41
1
10
113.340714398893
20
160.592190194295
30
0
41
1
10
113.349548892741
20
160.602300935937
30
0
0
SPLINE
5
295
100
AcDbEntity
8
1
62
256
6
ByLayer
370
18
48
1
60
0
100
AcDbSpline
70
4
71
3
72
8
73
4
40
0
40
0
40
0
40
0
40
1
40
1
40
1
40
1
41
1
10
113.928435205196
20
160.571968711209
30
0
41
1
10
113.937816005391
20
160.582079094561
30
0
41
1
10
113.947196805524
20
160.592189477979
30
0
41
1
10
113.956577605597
20
160.602299861463
30
0
0
SPLINE
5
296
100
AcDbEntity
8
1
62
256
6
ByLayer
370
18
48
1
60
0
100
AcDbSpline
70
4
71
3
72
8
73
4
40
0
40
0
40
0
40
0
40
1
40
1
40
1
40
1
41
1
10
113.956409795293
20
160.571968711209
30
0
41
1
10
113.965790595488
20
160.582079094561
30
0
41
1
10
113.975171395621
20
160.592189477979
30
0
41
1
10
113.984552195694
20
160.602299861463
30
0
0
SPLINE
5
297
100
AcDbEntity
8
1
62
256
6
ByLayer
370
18
48
1
60
0
100
AcDbSpline
70
4
71
3
72
8
73
4
40
0
40
0
40
0
40
0
40
1
40
1
40
1
40
1
41
1
10
114.397952678278
20
160.571968711209
30
0
41
1
10
114.407732479551
20
160.582079428202
30
0
41
1
10
114.417512280759
20
160.59219014526
30
0
41
1
10
114.427292081905
20
160.602300862383
30
0
0
SPLINE
5
298
100
AcDbEntity
8
1
62
256
6
ByLayer
370
18
48
1
60
0
100
AcDbSpline
70
4
71
3
72
8
73
4
40
0
40
0
40
0
40
0
40
1
40
1
40
1
40
1
41
1
10
114.416985052047
20
160.571968711209
30
0
41
1
10
114.42676485332
20
160.582079428202
30
0
41
1
10
114.436544654528
20
160.59219014526
30
0
41
1
10
114.446324455674
20
160.602300862383
30
0
0
SPLINE
5
299
100
AcDbEntity
8
1
62
256
6
ByLayer
370
18
48
1
60
0
100
AcDbSpline
70
4
71
3
72
8
73
4
40
0
40
0
40
0
40
0
40
1
40
1
40
1
40
1
41
1
10
114.687717628817
20
160.571968711209
30
0
41
1
10
114.697741623341
20
160.582079160962
30
0
41
1
10
114.707765617799
20
160.592189610781
30
0
41
1
10
114.717789612193
20
160.602300060665
30
0
0
SPLINE
5
29A
100
AcDbEntity
8
1
62
256
6
ByLayer
370
18
48
1
60
0
100
AcDbSpline
70
4
71
3
72
8
73
4
40
0
40
0
40
0
40
0
40
1
40
1
40
1
40
1
41
1
10
114.697507634354
20
160.571968711209
30
0
41
1
10
114.707531628878
20
160.582079160962
30
0
41
1
10
114.717555623337
20
160.592189610781
30
0
41
1
10
114.727579617731
20
160.602300060665
30
0
0
SPLINE
5
29B
100
AcDbEntity
8
1
62
256
6
ByLayer
370
18
48
1
60
0
100
AcDbSpline
70
4
71
3
72
8
73
4
40
0
40
0
40
0
40
0
40
1
40
1
40
1
40
1
41
1
10
114.793160290445
20
160.571968711209
30
0
41
1
10
114.803270930672
20
160.582079439306
30
0
41
1
10
114.813381570834
20
160.592190167468
30
0
41
1
10
114.82349221093
20
160.602300895695
30
0
0
SPLINE
5
29C
100
AcDbEntity
8
1
62
256
6
ByLayer
370
18
48
1
60
0
100
AcDbSpline
70
4
71
3
72
8
73
4
40
0
40
0
40
0
40
0
40
1
40
1
40
1
40
1
41
1
10
114.793553533515
20
160.571968711209
30
0
41
1
10
114.803664173743
20
160.582079439305
30
0
41
1
10
114.813774813904
20
160.592190167468
30
0
41
1
10
114.823885454
20
160.602300895695
30
0
0
SPLINE
5
29D
100
AcDbEntity
8
1
62
256
6
ByLayer
370
18
48
1
60
0
100
AcDbSpline
70
4
71
3
72
8
73
4
40
0
40
0
40
0
40
0
40
1
40
1
40
1
40
1
41
1
10
91.2873822306001
20
160.571968711209
30
0
41
1
10
91.2773449658274
20
160.582079142801
30
0
41
1
10
91.26730770112
20
160.592189574459
30
0
41
1
10
91.2572704364773
20
160.602300006182
30
0
0
SPLINE
5
29E
100
AcDbEntity
8
1
62
256
6
ByLayer
370
18
48
1
60
0
100
AcDbSpline
70
4
71
3
72
8
73
4
40
0
40
0
40
0
40
0
40
1
40
1
40
1
40
1
41
1
10
91.2963919516749
20
160.571968711209
30
0
41
1
10
91.2863546869021
20
160.582079142801
30
0
41
1
10
91.2763174221947
20
160.592189574459
30
0
41
1
10
91.266280157552
20
160.602300006182
30
0
0
SPLINE
5
29F
100
AcDbEntity
8
1
62
256
6
ByLayer
370
18
48
1
60
0
100
AcDbSpline
70
4
71
3
72
8
73
4
40
0
40
0
40
0
40
0
40
1
40
1
40
1
40
1
41
1
10
91.552639730647
20
160.571968711209
30
0
41
1
10
91.5428338017359
20
160.582079180695
30
0
41
1
10
91.5330278728886
20
160.592189650247
30
0
41
1
10
91.5232219441046
20
160.602300119863
30
0
0
SPLINE
5
2A0
100
AcDbEntity
8
1
62
256
6
ByLayer
370
18
48
1
60
0
100
AcDbSpline
70
4
71
3
72
8
73
4
40
0
40
0
40
0
40
0
40
1
40
1
40
1
40
1
41
1
10
91.5709103271835
20
160.571968711209
30
0
41
1
10
91.5611043982724
20
160.582079180695
30
0
41
1
10
91.5512984694251
20
160.592189650247
30
0
41
1
10
91.541492540641
20
160.602300119863
30
0
0
SPLINE
5
2A1
100
AcDbEntity
8
1
62
256
6
ByLayer
370
18
48
1
60
0
100
AcDbSpline
70
4
71
3
72
8
73
4
40
0
40
0
40
0
40
0
40
1
40
1
40
1
40
1
41
1
10
91.9984289404632
20
160.571968711209
30
0
41
1
10
91.9890090489073
20
160.582079160821
30
0
41
1
10
91.9795891574126
20
160.592189610498
30
0
41
1
10
91.9701692659786
20
160.60230006024
30
0
0
SPLINE
5
2A2
100
AcDbEntity
8
1
62
256
6
ByLayer
370
18
48
1
60
0
100
AcDbSpline
70
4
71
3
72
8
73
4
40
0
40
0
40
0
40
0
40
1
40
1
40
1
40
1
41
1
10
92.0256722742397
20
160.571968711209
30
0
41
1
10
92.0162523826838
20
160.582079160821
30
0
41
1
10
92.006832491189
20
160.592189610498
30
0
41
1
10
91.9974125997551
20
160.60230006024
30
0
0
SPLINE
5
2A3
100
AcDbEntity
8
1
62
256
6
ByLayer
370
18
48
1
60
0
100
AcDbSpline
70
4
71
3
72
8
73
4
40
0
40
0
40
0
40
0
40
1
40
1
40
1
40
1
41
1
10
92.6177194979084
20
160.571968711209
30
0
41
1
10
92.6088341433695
20
160.582079204492
30
0
41
1
10
92.5999487888881
20
160.59218969784
30
0
41
1
10
92.5910634344642
20
160.602300191253
30
0
0
SPLINE
5
2A4
100
AcDbEntity
8
1
62
256
6
ByLayer
370
18
48
1
60
0
100
AcDbSpline
70
4
71
3
72
8
73
4
40
0
40
0
40
0
40
0
40
1
40
1
40
1
40
1
41
1
10
92.6535059252768
20
160.571968711209
30
0
41
1
10
92.6446205707377
20
160.582079204492
30
0
41
1
10
92.6357352162565
20
160.59218969784
30
0
41
1
10
92.6268498618326
20
160.602300191253
30
0
0
SPLINE
5
2A5
100
AcDbEntity
8
1
62
256
6
ByLayer
370
18
48
1
60
0
100
AcDbSpline
70
4
71
3
72
8
73
4
40
0
40
0
40
0
40
0
40
1
40
1
40
1
40
1
41
1
10
93.4007448209452
20
160.571968711209
30
0
41
1
10
93.3925340479907
20
160.582079356531
30
0
41
1
10
93.3843232750896
20
160.592190001918
30
0
41
1
10
93.3761125022415
20
160.60230064737
30
0
0
SPLINE
5
2A6
100
AcDbEntity
8
1
62
256
6
ByLayer
370
18
48
1
60
0
100
AcDbSpline
70
4
71
3
72
8
73
4
40
0
40
0
40
0
40
0
40
1
40
1
40
1
40
1
41
1
10
93.4445099685682
20
160.571968711209
30
0
41
1
10
93.4362991956139
20
160.582079356531
30
0
41
1
10
93.4280884227128
20
160.592190001918
30
0
41
1
10
93.4198776498647
20
160.60230064737
30
0
0
SPLINE
5
2A7
100
AcDbEntity
8
1
62
256
6
ByLayer
370
18
48
1
60
0
100
AcDbSpline
70
4
71
3
72
8
73
4
40
0
40
0
40
0
40
0
40
1
40
1
40
1
40
1
41
1
10
94.3351561324728
20
160.571968711209
30
0
41
1
10
94.3277495156254
20
160.582079421902
30
0
41
1
10
94.3203428988262
20
160.59219013266
30
0
41
1
10
94.3129362820747
20
160.602300843483
30
0
0
SPLINE
5
2A8
100
AcDbEntity
8
1
62
256
6
ByLayer
370
18
48
1
60
0
100
AcDbSpline
70
4
71
3
72
8
73
4
40
0
40
0
40
0
40
0
40
1
40
1
40
1
40
1
41
1
10
94.3862097978284
20
160.571968711209
30
0
41
1
10
94.378803180981
20
160.582079421902
30
0
41
1
10
94.3713965641817
20
160.59219013266
30
0
41
1
10
94.3639899474302
20
160.602300843483
30
0
0
SPLINE
5
2A9
100
AcDbEntity
8
1
62
256
6
ByLayer
370
18
48
1
60
0
100
AcDbSpline
70
4
71
3
72
8
73
4
40
0
40
0
40
0
40
0
40
1
40
1
40
1
40
1
41
1
10
95.4062172079182
20
160.571968711209
30
0
41
1
10
95.3997316372938
20
160.582079374733
30
0
41
1
10
95.3932460667115
20
160.592190038323
30
0
41
1
10
95.3867604961712
20
160.602300701978
30
0
0
SPLINE
5
2AA
100
AcDbEntity
8
1
62
256
6
ByLayer
370
18
48
1
60
0
100
AcDbSpline
70
4
71
3
72
8
73
4
40
0
40
0
40
0
40
0
40
1
40
1
40
1
40
1
41
1
10
95.4637542442057
20
160.571968711209
30
0
41
1
10
95.4572686735813
20
160.582079374733
30
0
41
1
10
95.450783102999
20
160.592190038323
30
0
41
1
10
95.4442975324586
20
160.602300701978
30
0
0
SPLINE
5
2AB
100
AcDbEntity
8
1
62
256
6
ByLayer
370
18
48
1
60
0
100
AcDbSpline
70
4
71
3
72
8
73
4
40
0
40
0
40
0
40
0
40
1
40
1
40
1
40
1
41
1
10
96.5970367743007
20
160.571968711209
30
0
41
1
10
96.5915744125148
20
160.582079530503
30
0
41
1
10
96.5861120507644
20
160.592190349862
30
0
41
1
10
96.5806496890493
20
160.602301169286
30
0
0
SPLINE
5
2AC
100
AcDbEntity
8
1
62
256
6
ByLayer
370
18
48
1
60
0
100
AcDbSpline
70
4
71
3
72
8
73
4
40
0
40
0
40
0
40
0
40
1
40
1
40
1
40
1
41
1
10
96.6601497880868
20
160.571968711209
30
0
41
1
10
96.6546874263009
20
160.582079530502
30
0
41
1
10
96.6492250645506
20
160.592190349861
30
0
41
1
10
96.6437627028355
20
160.602301169286
30
0
0
SPLINE
5
2AD
100
AcDbEntity
8
1
62
256
6
ByLayer
370
18
48
1
60
0
100
AcDbSpline
70
4
71
3
72
8
73
4
40
0
40
0
40
0
40
0
40
1
40
1
40
1
40
1
41
1
10
97.8888348956972
20
160.571968711209
30
0
41
1
10
97.8844819948263
20
160.582079513202
30
0
41
1
10
97.8801290939836
20
160.59219031526
30
0
41
1
10
97.8757761931689
20
160.602301117383
30
0
0
SPLINE
5
2AE
100
AcDbEntity
8
1
62
256
6
ByLayer
370
18
48
1
60
0
100
AcDbSpline
70
4
71
3
72
8
73
4
40
0
40
0
40
0
40
0
40
1
40
1
40
1
40
1
41
1
10
97.9565285570527
20
160.571968711209
30
0
41
1
10
97.9521756561818
20
160.582079513202
30
0
41
1
10
97.9478227553391
20
160.59219031526
30
0
41
1
10
97.9434698545244
20
160.602301117383
30
0
0
SPLINE
5
2AF
100
AcDbEntity
8
1
62
256
6
ByLayer
370
18
48
1
60
0
100
AcDbSpline
70
4
71
3
72
8
73
4
40
0
40
0
40
0
40
0
40
1
40
1
40
1
40
1
41
1
10
99.2612391440507
20
160.571968711209
30
0
41
1
10
99.2580644020817
20
160.582079323753
30
0
41
1
10
99.2548896601335
20
160.592189936363
30
0
41
1
10
99.2517149182056
20
160.602300549038
30
0
0
SPLINE
5
2B0
100
AcDbEntity
8
1
62
256
6
ByLayer
370
18
48
1
60
0
100
AcDbSpline
70
4
71
3
72
8
73
4
40
0
40
0
40
0
40
0
40
1
40
1
40
1
40
1
41
1
10
99.3324458834977
20
160.571968711209
30
0
41
1
10
99.3292711415288
20
160.582079323753
30
0
41
1
10
99.3260963995806
20
160.592189936363
30
0
41
1
10
99.3229216576527
20
160.602300549038
30
0
0
SPLINE
5
2B1
100
AcDbEntity
8
1
62
256
6
ByLayer
370
18
48
1
60
0
100
AcDbSpline
70
4
71
3
72
8
73
4
40
0
40
0
40
0
40
0
40
1
40
1
40
1
40
1
41
1
10
100.69260588453
20
160.571968711209
30
0
41
1
10
100.690659343588
20
160.582079032326
30
0
41
1
10
100.688712802658
20
160.592189353509
30
0
41
1
10
100.686766261741
20
160.602299674756
30
0
0
SPLINE
5
2B2
100
AcDbEntity
8
1
62
256
6
ByLayer
370
18
48
1
60
0
100
AcDbSpline
70
4
71
3
72
8
73
4
40
0
40
0
40
0
40
0
40
1
40
1
40
1
40
1
41
1
10
100.766202729251
20
160.571968711209
30
0
41
1
10
100.764256188308
20
160.582079032326
30
0
41
1
10
100.762309647379
20
160.592189353509
30
0
41
1
10
100.760363106462
20
160.602299674756
30
0
0
SPLINE
5
2B3
100
AcDbEntity
8
1
62
256
6
ByLayer
370
18
48
1
60
0
100
AcDbSpline
70
4
71
3
72
8
73
4
40
0
40
0
40
0
40
0
40
1
40
1
40
1
40
1
41
1
10
102.160361608581
20
160.571968711209
30
0
41
1
10
102.159673853892
20
160.582079346608
30
0
41
1
10
102.158986099207
20
160.592189982073
30
0
41
1
10
102.158298344527
20
160.602300617602
30
0
0
SPLINE
5
2B4
100
AcDbEntity
8
1
62
256
6
ByLayer
370
18
48
1
60
0
100
AcDbSpline
70
4
71
3
72
8
73
4
40
0
40
0
40
0
40
0
40
1
40
1
40
1
40
1
41
1
10
102.235187892369
20
160.571968711209
30
0
41
1
10
102.23450013768
20
160.582079346608
30
0
41
1
10
102.233812382996
20
160.592189982073
30
0
41
1
10
102.233124628315
20
160.602300617602
30
0
0
SPLINE
5
2B5
100
AcDbEntity
8
1
62
256
6
ByLayer
370
18
48
1
60
0
100
AcDbSpline
70
4
71
3
72
8
73
4
40
0
40
0
40
0
40
0
40
1
40
1
40
1
40
1
41
1
10
103.64135893164
20
160.571968711209
30
0
41
1
10
103.641940867969
20
160.582079311055
30
0
41
1
10
103.642522804294
20
160.592189910965
30
0
41
1
10
103.643104740615
20
160.602300510942
30
0
0
SPLINE
5
2B6
100
AcDbEntity
8
1
62
256
6
ByLayer
370
18
48
1
60
0
100
AcDbSpline
70
4
71
3
72
8
73
4
40
0
40
0
40
0
40
0
40
1
40
1
40
1
40
1
41
1
10
103.716234599302
20
160.571968711209
30
0
41
1
10
103.71681653563
20
160.582079311055
30
0
41
1
10
103.717398471956
20
160.592189910965
30
0
41
1
10
103.717980408277
20
160.602300510942
30
0
0
SPLINE
5
2B7
100
AcDbEntity
8
1
62
256
6
ByLayer
370
18
48
1
60
0
100
AcDbSpline
70
4
71
3
72
8
73
4
40
0
40
0
40
0
40
0
40
1
40
1
40
1
40
1
41
1
10
105.112241641217
20
160.571968711209
30
0
41
1
10
105.114084129982
20
160.582079537798
30
0
41
1
10
105.115926618734
20
160.592190364453
30
0
41
1
10
105.117769107474
20
160.602301191173
30
0
0
SPLINE
5
2B8
100
AcDbEntity
8
1
62
256
6
ByLayer
370
18
48
1
60
0
100
AcDbSpline
70
4
71
3
72
8
73
4
40
0
40
0
40
0
40
0
40
1
40
1
40
1
40
1
41
1
10
105.185985858745
20
160.571968711209
30
0
41
1
10
105.187828347509
20
160.582079537798
30
0
41
1
10
105.189670836262
20
160.592190364453
30
0
41
1
10
105.191513325002
20
160.602301191173
30
0
0
SPLINE
5
2B9
100
AcDbEntity
8
1
62
256
6
ByLayer
370
18
48
1
60
0
100
AcDbSpline
70
4
71
3
72
8
73
4
40
0
40
0
40
0
40
0
40
1
40
1
40
1
40
1
41
1
10
106.549813038321
20
160.571968711209
30
0
41
1
10
106.55288687748
20
160.582079104149
30
0
41
1
10
106.555960716619
20
160.592189497154
30
0
41
1
10
106.559034555739
20
160.602299890225
30
0
0
SPLINE
5
2BA
100
AcDbEntity
8
1
62
256
6
ByLayer
370
18
48
1
60
0
100
AcDbSpline
70
4
71
3
72
8
73
4
40
0
40
0
40
0
40
0
40
1
40
1
40
1
40
1
41
1
10
106.621262815352
20
160.571968711209
30
0
41
1
10
106.624336654511
20
160.582079104149
30
0
41
1
10
106.62741049365
20
160.592189497154
30
0
41
1
10
106.630484332769
20
160.602299890225
30
0
0
SPLINE
5
2BB
100
AcDbEntity
8
1
62
256
6
ByLayer
370
18
48
1
60
0
100
AcDbSpline
70
4
71
3
72
8
73
4
40
0
40
0
40
0
40
0
40
1
40
1
40
1
40
1
41
1
10
107.931401763255
20
160.571968711209
30
0
41
1
10
107.935658565684
20
160.582079128213
30
0
41
1
10
107.939915368086
20
160.592189545282
30
0
41
1
10
107.94417217046
20
160.602299962417
30
0
0
SPLINE
5
2BC
100
AcDbEntity
8
1
62
256
6
ByLayer
370
18
48
1
60
0
100
AcDbSpline
70
4
71
3
72
8
73
4
40
0
40
0
40
0
40
0
40
1
40
1
40
1
40
1
41
1
10
107.999430294123
20
160.571968711209
30
0
41
1
10
108.003687096552
20
160.582079128213
30
0
41
1
10
108.007943898953
20
160.592189545282
30
0
41
1
10
108.012200701328
20
160.602299962417
30
0
0
SPLINE
5
2BD
100
AcDbEntity
8
1
62
256
6
ByLayer
370
18
48
1
60
0
100
AcDbSpline
70
4
71
3
72
8
73
4
40
0
40
0
40
0
40
0
40
1
40
1
40
1
40
1
41
1
10
109.235219336506
20
160.571968711209
30
0
41
1
10
109.240591995156
20
160.582079189529
30
0
41
1
10
109.24596465377
20
160.592189667915
30
0
41
1
10
109.25133731235
20
160.602300146366
30
0
0
SPLINE
5
2BE
100
AcDbEntity
8
1
62
256
6
ByLayer
370
18
48
1
60
0
100
AcDbSpline
70
4
71
3
72
8
73
4
40
0
40
0
40
0
40
0
40
1
40
1
40
1
40
1
41
1
10
109.29875377064
20
160.571968711209
30
0
41
1
10
109.30412642929
20
160.582079189529
30
0
41
1
10
109.309499087904
20
160.592189667915
30
0
41
1
10
109.314871746484
20
160.602300146366
30
0
0
SPLINE
5
2BF
100
AcDbEntity
8
1
62
256
6
ByLayer
370
18
48
1
60
0
100
AcDbSpline
70
4
71
3
72
8
73
4
40
0
40
0
40
0
40
0
40
1
40
1
40
1
40
1
41
1
10
110.44070377608
20
160.571968711209
30
0
41
1
10
110.447107604884
20
160.582079299711
30
0
41
1
10
110.453511433647
20
160.592189888279
30
0
41
1
10
110.459915262368
20
160.602300476911
30
0
0
SPLINE
5
2C0
100
AcDbEntity
8
1
62
256
6
ByLayer
370
18
48
1
60
0
100
AcDbSpline
70
4
71
3
72
8
73
4
40
0
40
0
40
0
40
0
40
1
40
1
40
1
40
1
41
1
10
110.498742137502
20
160.571968711209
30
0
41
1
10
110.505145966306
20
160.582079299711
30
0
41
1
10
110.511549795068
20
160.592189888279
30
0
41
1
10
110.517953623789
20
160.602300476911
30
0
0
SPLINE
5
2C1
100
AcDbEntity
8
1
62
256
6
ByLayer
370
18
48
1
60
0
100
AcDbSpline
70
4
71
3
72
8
73
4
40
0
40
0
40
0
40
0
40
1
40
1
40
1
40
1
41
1
10
111.528843872245
20
160.571968711209
30
0
41
1
10
111.536177960465
20
160.582079492739
30
0
41
1
10
111.543512048637
20
160.592190274334
30
0
41
1
10
111.550846136762
20
160.602301055994
30
0
0
SPLINE
5
2C2
100
AcDbEntity
8
1
62
256
6
ByLayer
370
18
48
1
60
0
100
AcDbSpline
70
4
71
3
72
8
73
4
40
0
40
0
40
0
40
0
40
1
40
1
40
1
40
1
41
1
10
111.580470861323
20
160.571968711209
30
0
41
1
10
111.587804949543
20
160.582079492738
30
0
41
1
10
111.595139037715
20
160.592190274334
30
0
41
1
10
111.60247312584
20
160.602301055994
30
0
0
SPLINE
5
2C3
100
AcDbEntity
8
1
62
256
6
ByLayer
370
18
48
1
60
0
100
AcDbSpline
70
4
71
3
72
8
73
4
40
0
40
0
40
0
40
0
40
1
40
1
40
1
40
1
41
1
10
112.48247900566
20
160.571968711209
30
0
41
1
10
112.490627372582
20
160.582079250158
30
0
41
1
10
112.49877573945
20
160.592189789172
30
0
41
1
10
112.506924106265
20
160.602300328252
30
0
0
SPLINE
5
2C4
100
AcDbEntity
8
1
62
256
6
ByLayer
370
18
48
1
60
0
100
AcDbSpline
70
4
71
3
72
8
73
4
40
0
40
0
40
0
40
0
40
1
40
1
40
1
40
1
41
1
10
112.526880433937
20
160.571968711209
30
0
41
1
10
112.535028800858
20
160.582079250158
30
0
41
1
10
112.543177167726
20
160.592189789172
30
0
41
1
10
112.551325534542
20
160.602300328252
30
0
0
SPLINE
5
2C5
100
AcDbEntity
8
1
62
256
6
ByLayer
370
18
48
1
60
0
100
AcDbSpline
70
4
71
3
72
8
73
4
40
0
40
0
40
0
40
0
40
1
40
1
40
1
40
1
41
1
10
113.286569780598
20
160.571968711209
30
0
41
1
10
113.295404274561
20
160.582079452719
30
0
41
1
10
113.304238768466
20
160.592190194295
30
0
41
1
10
113.313073262314
20
160.602300935937
30
0
0
SPLINE
5
2C6
100
AcDbEntity
8
1
62
256
6
ByLayer
370
18
48
1
60
0
100
AcDbSpline
70
4
71
3
72
32
73
28
40
0
40
0
40
0
40
0
40
0.0625000000001893
40
0.0625000000001893
40
0.125000000000379
40
0.125000000000379
40
0.250000000000701
40
0.250000000000701
40
0.312500000000775
40
0.312500000000775
40
0.375000000000849
40
0.375000000000849
40
0.437500000000924
40
0.437500000000924
40
0.500000000000998
40
0.562500000001073
40
0.593750000000998
40
0.593750000000998
40
0.625000000000924
40
0.625000000000924
40
0.750000000000627
40
0.750000000000627
40
0.812500000000455
40
0.812500000000455
40
0.875000000000281
40
0.875000000000281
40
1
40
1
40
1
40
1
41
1
10
122.333020901153
20
207.033732856655
30
0
41
1
10
122.342518001008
20
207.042396971811
30
0
41
1
10
122.352445329709
20
207.050660660369
30
0
41
1
10
122.373208249586
20
207.066368769597
30
0
41
1
10
122.384004394558
20
207.073779445659
30
0
41
1
10
122.417439577169
20
207.094498491675
30
0
41
1
10
122.441201124975
20
207.106386863007
30
0
41
1
10
122.479484080328
20
207.121024401491
30
0
41
1
10
122.492749257963
20
207.125375153931
30
0
41
1
10
122.51962042443
20
207.132718843483
30
0
41
1
10
122.533290034066
20
207.135741958884
30
0
41
1
10
122.561129985282
20
207.140440282886
30
0
41
1
10
122.575338581573
20
207.142118293061
30
0
41
1
10
122.60414461875
20
207.144012717977
30
0
41
1
10
122.632798766689
20
207.144416926746
30
0
41
1
10
122.668248634819
20
207.141327476283
30
0
41
1
10
122.689354390777
20
207.137862809345
30
0
41
1
10
122.703388163405
20
207.135190572109
30
0
41
1
10
122.710410661891
20
207.133666724838
30
0
41
1
10
122.744940709364
20
207.12525487877
30
0
41
1
10
122.770990321238
20
207.115991418471
30
0
41
1
10
122.8080795116
20
207.098703882748
30
0
41
1
10
122.820166411356
20
207.09233095445
30
0
41
1
10
122.843259687434
20
207.078719648406
30
0
41
1
10
122.85430402698
20
207.07147153484
30
0
41
1
10
122.886070622696
20
207.048475050194
30
0
41
1
10
122.905440774852
20
207.031485363639
30
0
41
1
10
122.923152192969
20
207.01287154499
30
0
0
SPLINE
5
2C7
100
AcDbEntity
8
1
62
256
6
ByLayer
370
18
48
1
60
0
100
AcDbSpline
70
4
71
3
72
24
73
20
40
0
40
0
40
0
40
0
40
0.124999999999651
40
0.124999999999651
40
0.249999999999301
40
0.249999999999301
40
0.312499999999092
40
0.312499999999092
40
0.374999999998883
40
0.374999999998883
40
0.499999999999106
40
0.499999999999106
40
0.624999999999329
40
0.624999999999329
40
0.749999999999553
40
0.749999999999553
40
0.874999999999777
40
0.874999999999777
40
1
40
1
40
1
40
1
41
1
10
122.110302129439
20
207.013514998233
30
0
41
1
10
122.119173914186
20
207.007971291848
30
0
41
1
10
122.12867241511
20
207.003108641792
30
0
41
1
10
122.148016779287
20
206.995202221869
30
0
41
1
10
122.157919049259
20
206.992104518167
30
0
41
1
10
122.173109159936
20
206.988714875957
30
0
41
1
10
122.178254524929
20
206.987792840112
30
0
41
1
10
122.188506864061
20
206.986397040933
30
0
41
1
10
122.19361379168
20
206.985920342964
30
0
41
1
10
122.208878305436
20
206.985124251116
30
0
41
1
10
122.21898001599
20
206.985434932627
30
0
41
1
10
122.239031609539
20
206.987689255375
30
0
41
1
10
122.248858780671
20
206.989629710153
30
0
41
1
10
122.267756287505
20
206.994931172887
30
0
41
1
10
122.27688965959
20
206.998299578858
30
0
41
1
10
122.294534445533
20
207.006424109678
30
0
41
1
10
122.302915092929
20
207.011125667593
30
0
41
1
10
122.318672245494
20
207.021606350989
30
0
41
1
10
122.326079544245
20
207.027400321828
30
0
41
1
10
122.333020901153
20
207.033732856655
30
0
0
SPLINE
5
2C8
100
AcDbEntity
8
1
62
256
6
ByLayer
370
18
48
1
60
0
100
AcDbSpline
70
4
71
3
72
24
73
20
40
0
40
0
40
0
40
0
40
0.124999999999164
40
0.124999999999164
40
0.187499999999007
40
0.187499999999007
40
0.24999999999885
40
0.24999999999885
40
0.374999999998533
40
0.374999999998533
40
0.499999999998217
40
0.499999999998217
40
0.624999999997901
40
0.624999999997901
40
0.687499999998034
40
0.687499999998034
40
0.749999999998167
40
0.749999999998167
40
1
40
1
40
1
40
1
41
1
10
123.143887391293
20
206.976977460604
30
0
41
1
10
123.134613571561
20
206.972056684774
30
0
41
1
10
123.124989823351
20
206.967954628924
30
0
41
1
10
123.110029173366
20
206.963030273248
30
0
41
1
10
123.104924598449
20
206.96158843011
30
0
41
1
10
123.094704644102
20
206.959167734188
30
0
41
1
10
123.089593592341
20
206.958186439134
30
0
41
1
10
123.074257959768
20
206.955897800099
30
0
41
1
10
123.064030872963
20
206.955241471153
30
0
41
1
10
123.043574483244
20
206.955614464512
30
0
41
1
10
123.033296849021
20
206.956671213957
30
0
41
1
10
123.013590064425
20
206.960325701565
30
0
41
1
10
123.00405181218
20
206.96291717706
30
0
41
1
10
122.990195246198
20
206.967878420917
30
0
41
1
10
122.985651911337
20
206.969712103606
30
0
41
1
10
122.976716940257
20
206.973737519121
30
0
41
1
10
122.97231519204
20
206.975936651773
30
0
41
1
10
122.951063721098
20
206.987617357675
30
0
41
1
10
122.936138782057
20
206.999223286416
30
0
41
1
10
122.923152192969
20
207.01287154499
30
0
0
SPLINE
5
2C9
100
AcDbEntity
8
1
62
256
6
ByLayer
370
18
48
1
60
0
100
AcDbSpline
70
4
71
3
72
24
73
20
40
0
40
0
40
0
40
0
40
0.124999999999164
40
0.124999999999164
40
0.187499999999007
40
0.187499999999007
40
0.24999999999885
40
0.24999999999885
40
0.374999999998533
40
0.374999999998533
40
0.499999999998217
40
0.499999999998217
40
0.624999999997901
40
0.624999999997901
40
0.687499999998034
40
0.687499999998034
40
0.749999999998167
40
0.749999999998167
40
1
40
1
40
1
40
1
41
1
10
122.173649744547
20
208.805512094905
30
0
41
1
10
122.18292356428
20
208.810432870735
30
0
41
1
10
122.192547312489
20
208.814534926586
30
0
41
1
10
122.207507962475
20
208.819459282262
30
0
41
1
10
122.212612537392
20
208.8209011254
30
0
41
1
10
122.222832491739
20
208.823321821322
30
0
41
1
10
122.2279435435
20
208.824303116375
30
0
41
1
10
122.243279176073
20
208.826591755411
30
0
41
1
10
122.253506262878
20
208.827248084357
30
0
41
1
10
122.273962652596
20
208.826875090998
30
0
41
1
10
122.28424028682
20
208.825818341552
30
0
41
1
10
122.303947071416
20
208.822163853945
30
0
41
1
10
122.313485323661
20
208.819572378449
30
0
41
1
10
122.327341889643
20
208.814611134592
30
0
41
1
10
122.331885224504
20
208.812777451903
30
0
41
1
10
122.340820195584
20
208.808752036389
30
0
41
1
10
122.3452219438
20
208.806552903737
30
0
41
1
10
122.366473414743
20
208.794872197834
30
0
41
1
10
122.381398353784
20
208.783266269093
30
0
41
1
10
122.394384942871
20
208.76961801052
30
0
0
SPLINE
5
2CA
100
AcDbEntity
8
1
62
256
6
ByLayer
370
18
48
1
60
0
100
AcDbSpline
70
4
71
3
72
32
73
28
40
0
40
0
40
0
40
0
40
0.0625000000001903
40
0.0625000000001903
40
0.125000000000381
40
0.125000000000381
40
0.250000000000702
40
0.250000000000702
40
0.312500000000777
40
0.312500000000777
40
0.375000000000851
40
0.375000000000851
40
0.437500000000925
40
0.437500000000925
40
0.500000000001
40
0.562500000001074
40
0.593750000000999
40
0.593750000000999
40
0.625000000000925
40
0.625000000000925
40
0.750000000000628
40
0.750000000000628
40
0.812500000000455
40
0.812500000000455
40
0.875000000000282
40
0.875000000000282
40
1
40
1
40
1
40
1
41
1
10
122.984516234688
20
208.748756698854
30
0
41
1
10
122.975019134833
20
208.740092583698
30
0
41
1
10
122.965091806132
20
208.731828895141
30
0
41
1
10
122.944328886255
20
208.716120785913
30
0
41
1
10
122.933532741283
20
208.70871010985
30
0
41
1
10
122.900097558672
20
208.687991063835
30
0
41
1
10
122.876336010865
20
208.676102692502
30
0
41
1
10
122.838053055513
20
208.661465154018
30
0
41
1
10
122.824787877878
20
208.657114401578
30
0
41
1
10
122.797916711411
20
208.649770712027
30
0
41
1
10
122.784247101775
20
208.646747596626
30
0
41
1
10
122.756407150559
20
208.642049272624
30
0
41
1
10
122.742198554268
20
208.640371262448
30
0
41
1
10
122.713392517091
20
208.638476837533
30
0
41
1
10
122.684738369152
20
208.638072628763
30
0
41
1
10
122.649288501022
20
208.641162079227
30
0
41
1
10
122.628182745064
20
208.644626746165
30
0
41
1
10
122.614148972436
20
208.647298983401
30
0
41
1
10
122.60712647395
20
208.648822830672
30
0
41
1
10
122.572596426477
20
208.65723467674
30
0
41
1
10
122.546546814603
20
208.666498137039
30
0
41
1
10
122.509457624241
20
208.683785672762
30
0
41
1
10
122.497370724485
20
208.69015860106
30
0
41
1
10
122.474277448407
20
208.703769907104
30
0
41
1
10
122.463233108861
20
208.711018020669
30
0
41
1
10
122.431466513144
20
208.734014505316
30
0
41
1
10
122.412096360988
20
208.75100419187
30
0
41
1
10
122.394384942871
20
208.76961801052
30
0
0
SPLINE
5
2CB
100
AcDbEntity
8
1
62
256
6
ByLayer
370
18
48
1
60
0
100
AcDbSpline
70
4
71
3
72
24
73
20
40
0
40
0
40
0
40
0
40
0.125000000000075
40
0.125000000000075
40
0.250000000000149
40
0.250000000000149
40
0.312499999999868
40
0.312499999999868
40
0.374999999999587
40
0.374999999999587
40
0.49999999999967
40
0.49999999999967
40
0.624999999999752
40
0.624999999999752
40
0.749999999999835
40
0.749999999999835
40
0.874999999999917
40
0.874999999999917
40
1
40
1
40
1
40
1
41
1
10
123.207235006402
20
208.768974557277
30
0
41
1
10
123.198363221655
20
208.774518263662
30
0
41
1
10
123.188864720731
20
208.779380913717
30
0
41
1
10
123.169520356553
20
208.787287333641
30
0
41
1
10
123.159618086582
20
208.790385037342
30
0
41
1
10
123.144427975905
20
208.793774679553
30
0
41
1
10
123.139282610912
20
208.794696715398
30
0
41
1
10
123.129030271779
20
208.796092514577
30
0
41
1
10
123.123923344161
20
208.796569212546
30
0
41
1
10
123.108658830405
20
208.797365304394
30
0
41
1
10
123.09855711985
20
208.797054622883
30
0
41
1
10
123.078505526302
20
208.794800300135
30
0
41
1
10
123.06867835517
20
208.792859845357
30
0
41
1
10
123.049780848336
20
208.787558382623
30
0
41
1
10
123.040647476251
20
208.784189976652
30
0
41
1
10
123.023002690308
20
208.776065445831
30
0
41
1
10
123.014622042911
20
208.771363887916
30
0
41
1
10
122.998864890347
20
208.76088320452
30
0
41
1
10
122.991457591596
20
208.755089233682
30
0
41
1
10
122.984516234688
20
208.748756698854
30
0
0
SPLINE
5
2CC
100
AcDbEntity
8
1
62
256
6
ByLayer
370
18
48
1
60
0
100
AcDbSpline
70
4
71
3
72
23
73
19
40
0
40
0
40
0
40
0
40
0.12499999999944
40
0.12499999999944
40
0.249999999998881
40
0.249999999998881
40
0.312499999998854
40
0.312499999998854
40
0.374999999998827
40
0.499999999999062
40
0.499999999999062
40
0.624999999999296
40
0.624999999999296
40
0.749999999999531
40
0.749999999999531
40
0.874999999999766
40
0.874999999999766
40
1
40
1
40
1
40
1
41
1
10
121.624368451609
20
207.926478275659
30
0
41
1
10
121.624012235213
20
207.916020322199
30
0
41
1
10
121.624559977088
20
207.905362307025
30
0
41
1
10
121.627402296286
20
207.884663463972
30
0
41
1
10
121.629679210918
20
207.874540301085
30
0
41
1
10
121.634353272803
20
207.859689675809
30
0
41
1
10
121.636132666842
20
207.8547721846
30
0
41
1
10
121.64005714067
20
207.84520234842
30
0
41
1
10
121.646491339705
20
207.831228886494
30
0
41
1
10
121.654483259672
20
207.818344120315
30
0
41
1
10
121.666480560622
20
207.802110399379
30
0
41
1
10
121.673076704079
20
207.794581627689
30
0
41
1
10
121.687128301449
20
207.78087920977
30
0
41
1
10
121.694618887852
20
207.774658861437
30
0
41
1
10
121.710493893182
20
207.763450072387
30
0
41
1
10
121.718753308999
20
207.758554949727
30
0
41
1
10
121.73571275988
20
207.750165428134
30
0
41
1
10
121.744436424798
20
207.746655197999
30
0
41
1
10
121.753393782978
20
207.743817724532
30
0
0
SPLINE
5
2CD
100
AcDbEntity
8
1
62
256
6
ByLayer
370
18
48
1
60
0
100
AcDbSpline
70
4
71
3
72
24
73
20
40
0
40
0
40
0
40
0
40
0.124999999999664
40
0.124999999999664
40
0.187499999999361
40
0.187499999999361
40
0.249999999999057
40
0.249999999999057
40
0.374999999999114
40
0.374999999999114
40
0.49999999999917
40
0.49999999999917
40
0.624999999999227
40
0.624999999999227
40
0.687499999999409
40
0.687499999999409
40
0.74999999999959
40
0.74999999999959
40
1
40
1
40
1
40
1
41
1
10
122.110302129439
20
207.013514998233
30
0
41
1
10
122.101398922516
20
207.019078339373
30
0
41
1
10
122.09302917676
20
207.025354543444
30
0
41
1
10
122.081275241117
20
207.03583858235
30
0
41
1
10
122.077471110907
20
207.039535086405
30
0
41
1
10
122.070258190436
20
207.047169299341
30
0
41
1
10
122.066849460644
20
207.051102031832
30
0
41
1
10
122.057189211963
20
207.063230480838
30
0
41
1
10
122.05149995697
20
207.071754355059
30
0
41
1
10
122.041579433359
20
207.089648090467
30
0
41
1
10
122.037347697326
20
207.09907353415
30
0
41
1
10
122.030642973331
20
207.11796161873
30
0
41
1
10
122.02810993375
20
207.127515556466
30
0
41
1
10
122.025465792448
20
207.141994048557
30
0
41
1
10
122.02477797921
20
207.146844942359
30
0
41
1
10
122.02378824117
20
207.156594709116
30
0
41
1
10
122.023487657578
20
207.161506046527
30
0
41
1
10
122.022956909007
20
207.185750284283
30
0
41
1
10
122.025529403555
20
207.204480836422
30
0
41
1
10
122.03084033685
20
207.222556230031
30
0
0
SPLINE
5
2CE
100
AcDbEntity
8
1
62
256
6
ByLayer
370
18
48
1
60
0
100
AcDbSpline
70
4
71
3
72
32
73
28
40
0
40
0
40
0
40
0
40
0.0624999999999106
40
0.0624999999999106
40
0.124999999999821
40
0.124999999999821
40
0.249999999999838
40
0.249999999999838
40
0.312499999999882
40
0.312499999999882
40
0.374999999999926
40
0.374999999999926
40
0.43749999999997
40
0.43749999999997
40
0.500000000000014
40
0.562500000000058
40
0.59375000000008
40
0.59375000000008
40
0.625000000000102
40
0.625000000000102
40
0.750000000000143
40
0.750000000000143
40
0.812500000000108
40
0.812500000000108
40
0.875000000000072
40
0.875000000000072
40
1
40
1
40
1
40
1
41
1
10
121.753393782978
20
207.743817724532
30
0
41
1
10
121.765649013885
20
207.7399355651
30
0
41
1
10
121.777773070018
20
207.735480490663
30
0
41
1
10
121.801766830989
20
207.725373911766
30
0
41
1
10
121.813587580217
20
207.719739651608
30
0
41
1
10
121.84826433907
20
207.701173198576
30
0
41
1
10
121.870453291648
20
207.686558311076
30
0
41
1
10
121.902293398335
20
207.66075038044
30
0
41
1
10
121.912701836097
20
207.651446701938
30
0
41
1
10
121.932514052075
20
207.631864421703
30
0
41
1
10
121.941975808306
20
207.621545863523
30
0
41
1
10
121.959983313907
20
207.599800363443
30
0
41
1
10
121.968550639599
20
207.588341718074
30
0
41
1
10
121.984614869321
20
207.564355935033
30
0
41
1
10
121.999313112748
20
207.539755414962
30
0
41
1
10
122.014390161657
20
207.50752312905
30
0
41
1
10
122.02195971301
20
207.487519167754
30
0
41
1
10
122.026673944177
20
207.474033490311
30
0
41
1
10
122.028871373523
20
207.467191788454
30
0
41
1
10
122.038880789741
20
207.433090530634
30
0
41
1
10
122.043906529617
20
207.405903475881
30
0
41
1
10
122.047514651302
20
207.365142616814
30
0
41
1
10
122.048050698022
20
207.351489047638
30
0
41
1
10
122.04783259696
20
207.324683826611
30
0
41
1
10
122.047089031615
20
207.311494446506
30
0
41
1
10
122.043090258517
20
207.272482078766
30
0
41
1
10
122.038083516874
20
207.247207891544
30
0
41
1
10
122.03084033685
20
207.222556230031
30
0
0
SPLINE
5
2CF
100
AcDbEntity
8
1
62
256
6
ByLayer
370
18
48
1
60
0
100
AcDbSpline
70
4
71
3
72
23
73
19
40
0
40
0
40
0
40
0
40
0.125000000000207
40
0.125000000000207
40
0.187500000000472
40
0.187500000000472
40
0.250000000000736
40
0.250000000000736
40
0.375000000000963
40
0.375000000000963
40
0.50000000000119
40
0.50000000000119
40
0.625000000001416
40
0.687500000001431
40
0.687500000001431
40
0.750000000001446
40
0.750000000001446
40
1
40
1
40
1
40
1
41
1
10
121.624368451609
20
207.926478275659
30
0
41
1
10
121.624726954269
20
207.937003350253
30
0
41
1
10
121.625975009932
20
207.947419831268
30
0
41
1
10
121.629179826358
20
207.962881718806
30
0
41
1
10
121.630480597752
20
207.968036985456
30
0
41
1
10
121.633493838547
20
207.9781337722
30
0
41
1
10
121.635200571854
20
207.983067384186
30
0
41
1
10
121.640892429849
20
207.997539625966
30
0
41
1
10
121.645445525084
20
208.006751833263
30
0
41
1
10
121.656018282196
20
208.024328374717
30
0
41
1
10
121.66208875041
20
208.032724949843
30
0
41
1
10
121.675145853373
20
208.048004823225
30
0
41
1
10
121.685697788383
20
208.058475019893
30
0
41
1
10
121.697310200373
20
208.067544312545
30
0
41
1
10
121.705287408862
20
208.073277105921
30
0
41
1
10
121.709405814415
20
208.075993030411
30
0
41
1
10
121.730214746183
20
208.088569979096
30
0
41
1
10
121.74778220746
20
208.09568554299
30
0
41
1
10
121.766148434052
20
208.100086829544
30
0
0
SPLINE
5
2D0
100
AcDbEntity
8
1
62
256
6
ByLayer
370
18
48
1
60
0
100
AcDbSpline
70
4
71
3
72
18
73
14
40
0
40
0
40
0
40
0
40
0.125000000000026
40
0.125000000000026
40
0.250000000000051
40
0.250000000000051
40
0.500000000000279
40
0.500000000000279
40
0.625000000000187
40
0.625000000000187
40
0.750000000000094
40
0.750000000000094
40
1
40
1
40
1
40
1
41
1
10
122.009927688927
20
208.263413440792
30
0
41
1
10
122.002129575767
20
208.252614543683
30
0
41
1
10
121.993876514349
20
208.242260288975
30
0
41
1
10
121.976483961849
20
208.222413614717
30
0
41
1
10
121.967374124253
20
208.212964248131
30
0
41
1
10
121.939295980223
20
208.186367058872
30
0
41
1
10
121.919427327838
20
208.170766478858
30
0
41
1
10
121.887976223303
20
208.150238362872
30
0
41
1
10
121.877231831446
20
208.14389698041
30
0
41
1
10
121.855629126385
20
208.132372736775
30
0
41
1
10
121.84471653806
20
208.127153298278
30
0
41
1
10
121.811639501586
20
208.113012506546
30
0
41
1
10
121.789137372289
20
208.105595903728
30
0
41
1
10
121.766148434052
20
208.100086829544
30
0
0
SPLINE
5
2D1
100
AcDbEntity
8
1
62
256
6
ByLayer
370
18
48
1
60
0
100
AcDbSpline
70
4
71
3
72
16
73
12
40
0
40
0
40
0
40
0
40
0.249999999999837
40
0.249999999999837
40
0.499999999999675
40
0.499999999999675
40
0.624999999999717
40
0.624999999999717
40
0.74999999999976
40
0.74999999999976
40
1
40
1
40
1
40
1
41
1
10
122.079763663424
20
208.601976109942
30
0
41
1
10
122.084892327355
20
208.578887516224
30
0
41
1
10
122.088124762572
20
208.555227076289
30
0
41
1
10
122.090485060746
20
208.506771200422
30
0
41
1
10
122.089602581985
20
208.482350654368
30
0
41
1
10
122.084927257565
20
208.445292963758
30
0
41
1
10
122.082804854137
20
208.432861554452
30
0
41
1
10
122.077337586381
20
208.407848722543
30
0
41
1
10
122.074037628839
20
208.395472931295
30
0
41
1
10
122.062416963121
20
208.358726966912
30
0
41
1
10
122.052394630807
20
208.334732698853
30
0
41
1
10
122.039832469155
20
208.311271093175
30
0
0
SPLINE
5
2D2
100
AcDbEntity
8
1
62
256
6
ByLayer
370
18
48
1
60
0
100
AcDbSpline
70
4
71
3
72
24
73
20
40
0
40
0
40
0
40
0
40
0.1249999999998
40
0.1249999999998
40
0.249999999999599
40
0.249999999999599
40
0.312499999999599
40
0.312499999999599
40
0.374999999999599
40
0.374999999999599
40
0.499999999999679
40
0.499999999999679
40
0.62499999999976
40
0.62499999999976
40
0.74999999999984
40
0.74999999999984
40
0.87499999999992
40
0.87499999999992
40
1
40
1
40
1
40
1
41
1
10
122.173649744547
20
208.805512094905
30
0
41
1
10
122.164381752074
20
208.800594411073
30
0
41
1
10
122.155391474597
20
208.794788213083
30
0
41
1
10
122.138820382081
20
208.781958285198
30
0
41
1
10
122.131163653639
20
208.774912255412
30
0
41
1
10
122.120603388064
20
208.763416932547
30
0
41
1
10
122.117223083819
20
208.75940905181
30
0
41
1
10
122.110874395204
20
208.751204295363
30
0
41
1
10
122.107902166146
20
208.747007342607
30
0
41
1
10
122.099565465252
20
208.734146338109
30
0
41
1
10
122.094777346032
20
208.725213782323
30
0
41
1
10
122.086699466623
20
208.70665842802
30
0
41
1
10
122.083471784108
20
208.697153430842
30
0
41
1
10
122.078629477379
20
208.678080735159
30
0
41
1
10
122.076991247354
20
208.668457674512
30
0
41
1
10
122.075236378401
20
208.649054306562
30
0
41
1
10
122.075138010443
20
208.639429439288
30
0
41
1
10
122.076381321296
20
208.620502365606
30
0
41
1
10
122.077721107867
20
208.611171435673
30
0
41
1
10
122.079763663424
20
208.601976109942
30
0
0
SPLINE
5
2D3
100
AcDbEntity
8
1
62
256
6
ByLayer
370
18
48
1
60
0
100
AcDbSpline
70
4
71
3
72
23
73
19
40
0
40
0
40
0
40
0
40
0.124999999999799
40
0.124999999999799
40
0.249999999999599
40
0.249999999999599
40
0.312499999999751
40
0.312499999999751
40
0.374999999999903
40
0.499999999999923
40
0.499999999999923
40
0.624999999999942
40
0.624999999999942
40
0.749999999999961
40
0.749999999999961
40
0.874999999999981
40
0.874999999999981
40
1
40
1
40
1
40
1
41
1
10
123.693168684232
20
207.856011279851
30
0
41
1
10
123.693524900628
20
207.86646923331
30
0
41
1
10
123.692977158752
20
207.877127248485
30
0
41
1
10
123.690134839555
20
207.897826091538
30
0
41
1
10
123.687857924922
20
207.907949254425
30
0
41
1
10
123.683183863038
20
207.922799879701
30
0
41
1
10
123.681404468998
20
207.92771737091
30
0
41
1
10
123.677479995171
20
207.93728720709
30
0
41
1
10
123.671045796135
20
207.951260669016
30
0
41
1
10
123.663053876169
20
207.964145435194
30
0
41
1
10
123.651056575219
20
207.980379156131
30
0
41
1
10
123.644460431762
20
207.987907927821
30
0
41
1
10
123.630408834392
20
208.001610345739
30
0
41
1
10
123.622918247989
20
208.007830694073
30
0
41
1
10
123.607043242659
20
208.019039483123
30
0
41
1
10
123.598783826841
20
208.023934605783
30
0
41
1
10
123.581824375961
20
208.032324127376
30
0
41
1
10
123.573100711043
20
208.035834357511
30
0
41
1
10
123.564143352863
20
208.038671830978
30
0
0
SPLINE
5
2D4
100
AcDbEntity
8
1
62
256
6
ByLayer
370
18
48
1
60
0
100
AcDbSpline
70
4
71
3
72
24
73
20
40
0
40
0
40
0
40
0
40
0.125000000000009
40
0.125000000000009
40
0.187499999999878
40
0.187499999999878
40
0.249999999999748
40
0.249999999999748
40
0.374999999999486
40
0.374999999999486
40
0.499999999999224
40
0.499999999999224
40
0.624999999998962
40
0.624999999998962
40
0.687499999998985
40
0.687499999998985
40
0.749999999999009
40
0.749999999999009
40
1
40
1
40
1
40
1
41
1
10
123.207235006402
20
208.768974557277
30
0
41
1
10
123.216138213325
20
208.763411216137
30
0
41
1
10
123.22450795908
20
208.757135012065
30
0
41
1
10
123.236261894723
20
208.746650973159
30
0
41
1
10
123.240066024934
20
208.742954469105
30
0
41
1
10
123.247278945405
20
208.735320256169
30
0
41
1
10
123.250687675197
20
208.731387523678
30
0
41
1
10
123.260347923877
20
208.719259074672
30
0
41
1
10
123.266037178871
20
208.710735200451
30
0
41
1
10
123.275957702482
20
208.692841465043
30
0
41
1
10
123.280189438514
20
208.68341602136
30
0
41
1
10
123.286894162509
20
208.66452793678
30
0
41
1
10
123.289427202091
20
208.654973999044
30
0
41
1
10
123.292071343393
20
208.640495506953
30
0
41
1
10
123.292759156631
20
208.635644613151
30
0
41
1
10
123.29374889467
20
208.625894846393
30
0
41
1
10
123.294049478262
20
208.620983508982
30
0
41
1
10
123.294580226833
20
208.596739271227
30
0
41
1
10
123.292007732286
20
208.578008719088
30
0
41
1
10
123.286696798991
20
208.559933325479
30
0
0
SPLINE
5
2D5
100
AcDbEntity
8
1
62
256
6
ByLayer
370
18
48
1
60
0
100
AcDbSpline
70
4
71
3
72
32
73
28
40
0
40
0
40
0
40
0
40
0.0624999999999951
40
0.0624999999999951
40
0.12499999999999
40
0.12499999999999
40
0.249999999999982
40
0.249999999999982
40
0.312500000000014
40
0.312500000000014
40
0.375000000000046
40
0.375000000000046
40
0.437500000000079
40
0.437500000000079
40
0.500000000000111
40
0.562500000000143
40
0.593750000000159
40
0.593750000000159
40
0.625000000000175
40
0.625000000000175
40
0.750000000000193
40
0.750000000000193
40
0.812500000000144
40
0.812500000000144
40
0.875000000000096
40
0.875000000000096
40
1
40
1
40
1
40
1
41
1
10
123.564143352863
20
208.038671830978
30
0
41
1
10
123.551888121956
20
208.042553990409
30
0
41
1
10
123.539764065823
20
208.047009064846
30
0
41
1
10
123.515770304852
20
208.057115643744
30
0
41
1
10
123.503949555624
20
208.062749903902
30
0
41
1
10
123.469272796771
20
208.081316356934
30
0
41
1
10
123.447083844192
20
208.095931244434
30
0
41
1
10
123.415243737506
20
208.12173917507
30
0
41
1
10
123.404835299744
20
208.131042853571
30
0
41
1
10
123.385023083766
20
208.150625133806
30
0
41
1
10
123.375561327535
20
208.160943691987
30
0
41
1
10
123.357553821934
20
208.182689192067
30
0
41
1
10
123.348986496241
20
208.194147837435
30
0
41
1
10
123.33292226652
20
208.218133620477
30
0
41
1
10
123.318224023092
20
208.242734140547
30
0
41
1
10
123.303146974184
20
208.27496642646
30
0
41
1
10
123.29557742283
20
208.294970387756
30
0
41
1
10
123.290863191664
20
208.308456065199
30
0
41
1
10
123.288665762318
20
208.315297767056
30
0
41
1
10
123.278656346099
20
208.349399024876
30
0
41
1
10
123.273630606224
20
208.376586079628
30
0
41
1
10
123.270022484539
20
208.417346938695
30
0
41
1
10
123.269486437819
20
208.431000507872
30
0
41
1
10
123.269704538881
20
208.457805728899
30
0
41
1
10
123.270448104226
20
208.470995109003
30
0
41
1
10
123.274446877323
20
208.510007476744
30
0
41
1
10
123.279453618967
20
208.535281663965
30
0
41
1
10
123.286696798991
20
208.559933325479
30
0
0
SPLINE
5
2D6
100
AcDbEntity
8
1
62
256
6
ByLayer
370
18
48
1
60
0
100
AcDbSpline
70
4
71
3
72
18
73
14
40
0
40
0
40
0
40
0
40
0.124999999999901
40
0.124999999999901
40
0.249999999999802
40
0.249999999999802
40
0.499999999999779
40
0.499999999999779
40
0.624999999999835
40
0.624999999999835
40
0.749999999999891
40
0.749999999999891
40
1
40
1
40
1
40
1
41
1
10
123.307609446914
20
207.519076114718
30
0
41
1
10
123.315407560074
20
207.529875011827
30
0
41
1
10
123.323660621491
20
207.540229266535
30
0
41
1
10
123.341053173992
20
207.560075940793
30
0
41
1
10
123.350163011589
20
207.569525307378
30
0
41
1
10
123.378241155618
20
207.596122496637
30
0
41
1
10
123.398109808003
20
207.611723076652
30
0
41
1
10
123.429560912538
20
207.632251192638
30
0
41
1
10
123.440305304394
20
207.6385925751
30
0
41
1
10
123.461908009456
20
207.650116818734
30
0
41
1
10
123.472820597781
20
207.655336257232
30
0
41
1
10
123.505897634254
20
207.669477048963
30
0
41
1
10
123.528399763552
20
207.676893651782
30
0
41
1
10
123.551388701789
20
207.682402725965
30
0
0
SPLINE
5
2D7
100
AcDbEntity
8
1
62
256
6
ByLayer
370
18
48
1
60
0
100
AcDbSpline
70
4
71
3
72
16
73
12
40
0
40
0
40
0
40
0
40
0.250000000000254
40
0.250000000000254
40
0.500000000000508
40
0.500000000000508
40
0.625000000000481
40
0.625000000000481
40
0.750000000000455
40
0.750000000000455
40
1
40
1
40
1
40
1
41
1
10
123.237773472417
20
207.180513445567
30
0
41
1
10
123.232644808486
20
207.203602039285
30
0
41
1
10
123.229412373269
20
207.22726247922
30
0
41
1
10
123.227052075094
20
207.275718355088
30
0
41
1
10
123.227934553856
20
207.300138901142
30
0
41
1
10
123.232609878276
20
207.337196591752
30
0
41
1
10
123.234732281704
20
207.349628001057
30
0
41
1
10
123.24019954946
20
207.374640832967
30
0
41
1
10
123.243499507002
20
207.387016624215
30
0
41
1
10
123.25512017272
20
207.423762588599
30
0
41
1
10
123.265142505035
20
207.447756856657
30
0
41
1
10
123.277704666685
20
207.471218462334
30
0
0
SPLINE
5
2D8
100
AcDbEntity
8
1
62
256
6
ByLayer
370
18
48
1
60
0
100
AcDbSpline
70
4
71
3
72
24
73
20
40
0
40
0
40
0
40
0
40
0.124999999999781
40
0.124999999999781
40
0.249999999999562
40
0.249999999999562
40
0.312499999999453
40
0.312499999999453
40
0.374999999999344
40
0.374999999999344
40
0.499999999999475
40
0.499999999999475
40
0.624999999999606
40
0.624999999999606
40
0.749999999999738
40
0.749999999999738
40
0.874999999999869
40
0.874999999999869
40
1
40
1
40
1
40
1
41
1
10
123.143887391293
20
206.976977460604
30
0
41
1
10
123.153155383767
20
206.981895144436
30
0
41
1
10
123.162145661243
20
206.987701342427
30
0
41
1
10
123.17871675376
20
207.000531270312
30
0
41
1
10
123.186373482202
20
207.007577300098
30
0
41
1
10
123.196933747777
20
207.019072622963
30
0
41
1
10
123.200314052021
20
207.0230805037
30
0
41
1
10
123.206662740637
20
207.031285260147
30
0
41
1
10
123.209634969695
20
207.035482212903
30
0
41
1
10
123.217971670588
20
207.0483432174
30
0
41
1
10
123.222759789809
20
207.057275773187
30
0
41
1
10
123.230837669218
20
207.07583112749
30
0
41
1
10
123.234065351732
20
207.085336124668
30
0
41
1
10
123.238907658462
20
207.104408820351
30
0
41
1
10
123.240545888487
20
207.114031880997
30
0
41
1
10
123.24230075744
20
207.133435248948
30
0
41
1
10
123.242399125398
20
207.143060116222
30
0
41
1
10
123.241155814545
20
207.161987189904
30
0
41
1
10
123.239816027974
20
207.171318119837
30
0
41
1
10
123.237773472417
20
207.180513445567
30
0
0
SPLINE
5
2D9
100
AcDbEntity
8
1
62
256
6
ByLayer
370
18
48
1
60
0
100
AcDbSpline
70
4
71
3
72
23
73
19
40
0
40
0
40
0
40
0
40
0.125000000000285
40
0.125000000000285
40
0.187500000000267
40
0.187500000000267
40
0.250000000000249
40
0.250000000000249
40
0.375000000000214
40
0.375000000000214
40
0.500000000000179
40
0.500000000000179
40
0.625000000000145
40
0.687500000000027
40
0.687500000000027
40
0.74999999999991
40
0.74999999999991
40
1
40
1
40
1
40
1
41
1
10
123.693168684232
20
207.856011279851
30
0
41
1
10
123.692810181572
20
207.845486205257
30
0
41
1
10
123.691562125908
20
207.835069724242
30
0
41
1
10
123.688357309482
20
207.819607836703
30
0
41
1
10
123.687056538089
20
207.814452570054
30
0
41
1
10
123.684043297294
20
207.80435578331
30
0
41
1
10
123.682336563987
20
207.799422171324
30
0
41
1
10
123.676644705992
20
207.784949929544
30
0
41
1
10
123.672091610757
20
207.775737722247
30
0
41
1
10
123.661518853645
20
207.758161180793
30
0
41
1
10
123.655448385431
20
207.749764605667
30
0
41
1
10
123.642391282468
20
207.734484732285
30
0
41
1
10
123.631839347458
20
207.724014535617
30
0
41
1
10
123.620226935468
20
207.714945242965
30
0
41
1
10
123.612249726979
20
207.709212449589
30
0
41
1
10
123.608131321426
20
207.706496525098
30
0
41
1
10
123.587322389658
20
207.693919576414
30
0
41
1
10
123.569754928381
20
207.68680401252
30
0
41
1
10
123.551388701789
20
207.682402725965
30
0
0
SPLINE
5
2DA
100
AcDbEntity
8
1
62
256
6
ByLayer
370
18
48
1
60
0
100
AcDbSpline
70
4
71
3
72
28
73
24
40
0
40
0
40
0
40
0
40
0.125260134858329
40
0.125260134858329
40
0.187890202287465
40
0.187890202287465
40
0.2505202697166
40
0.2505202697166
40
0.375780404574641
40
0.375780404574641
40
0.438410472003646
40
0.438410472003646
40
0.501040539432651
40
0.501040539432651
40
0.626300674290676
40
0.626300674290676
40
0.751560809148702
40
0.751560809148702
40
0.814190876577715
40
0.814190876577715
40
0.876820944006728
40
0.876820944006728
40
1
40
1
40
1
40
1
41
1
10
116.884539102779
20
202.878438476925
30
0
41
1
10
116.861969738009
20
202.892541381262
30
0
41
1
10
116.839069542146
20
202.90528753784
30
0
41
1
10
116.804363289798
20
202.922492952429
30
0
41
1
10
116.792735340376
20
202.927908568059
30
0
41
1
10
116.769388325154
20
202.938115414866
30
0
41
1
10
116.757637977817
20
202.942914681262
30
0
41
1
10
116.723134078386
20
202.956097982864
30
0
41
1
10
116.700856309602
20
202.96339571154
30
0
41
1
10
116.668778291589
20
202.972519850277
30
0
41
1
10
116.65826661822
20
202.975266763132
30
0
41
1
10
116.63795026488
20
202.980164969434
30
0
41
1
10
116.628234590367
20
202.982297494701
30
0
41
1
10
116.600416638778
20
202.987915156452
30
0
41
1
10
116.583631412903
20
202.990626303498
30
0
41
1
10
116.553855806875
20
202.994688501868
30
0
41
1
10
116.541317206671
20
202.995983485728
30
0
41
1
10
116.526051831626
20
202.99733470777
30
0
41
1
10
116.521550702461
20
202.997684608012
30
0
41
1
10
116.51375471489
20
202.998241968779
30
0
41
1
10
116.510471977556
20
202.998448492799
30
0
41
1
10
116.502725495994
20
202.998906889608
30
0
41
1
10
116.500067137092
20
202.999026361188
30
0
41
1
10
116.500010151683
20
202.999028916167
30
0
0
SPLINE
5
2DB
100
AcDbEntity
8
1
62
256
6
ByLayer
370
18
48
1
60
0
100
AcDbSpline
70
4
71
3
72
17
73
13
40
0
40
0
40
0
40
0
40
0.124678562059653
40
0.124678562059653
40
0.187017843089477
40
0.187017843089477
40
0.2493571241193
40
0.498714248238586
40
0.498714248238586
40
0.997428496477158
40
0.997428496477158
40
1
40
1
40
1
40
1
41
1
10
94.994679084931
20
210.619571507915
30
0
41
1
10
94.970503691458
20
210.618240328808
30
0
41
1
10
94.9477589134624
20
210.616987866381
30
0
41
1
10
94.9158176800797
20
210.615228929562
30
0
41
1
10
94.9055251076604
20
210.61466212789
30
0
41
1
10
94.8857132874177
20
210.613571091982
30
0
41
1
10
94.838146409426
20
210.610951536901
30
0
41
1
10
94.8003006595596
20
210.60886714156
30
0
41
1
10
94.7277196957057
20
210.604869537151
30
0
41
1
10
94.7035914790134
20
210.603540432336
30
0
41
1
10
94.703536270209
20
210.603537391287
30
0
41
1
10
94.7035376401721
20
210.603537466749
30
0
41
1
10
94.7035386387583
20
210.603537521754
30
0
0
SPLINE
5
2DC
100
AcDbEntity
8
1
62
256
6
ByLayer
370
18
48
1
60
0
100
AcDbSpline
70
4
71
3
72
103
73
99
40
0
40
0
40
0
40
0
40
0.0013999647163254
40
0.0013999647163254
40
0.0326062158189175
40
0.0326062158189175
40
0.0482093413702132
40
0.0482093413702132
40
0.0560109041458605
40
0.0560109041458605
40
0.0638124669215076
40
0.0638124669215076
40
0.0950187180240979
40
0.0950187180240979
40
0.126224969126688
40
0.126224969126688
40
0.134026531902336
40
0.134026531902336
40
0.141828094677985
40
0.141828094677985
40
0.157431220229285
40
0.173034345780585
40
0.173034345780585
40
0.176935127168411
40
0.176935127168411
40
0.180835908556236
40
0.188637471331886
40
0.188637471331886
40
0.219843722434488
40
0.219843722434488
40
0.25104997353709
40
0.25104997353709
40
0.282256224639695
40
0.282256224639695
40
0.290057787415348
40
0.290057787415348
40
0.297859350191
40
0.313462475742307
40
0.313462475742307
40
0.34466872684492
40
0.34466872684492
40
0.375874977947534
40
0.375874977947534
40
0.391478103498842
40
0.399279666274497
40
0.399279666274497
40
0.407081229050151
40
0.407081229050151
40
0.438287480152772
40
0.438287480152772
40
0.469493731255393
40
0.500699982358013
40
0.531906233460633
40
0.531906233460633
40
0.539707796236289
40
0.539707796236289
40
0.547509359011944
40
0.547509359011944
40
0.563112484563258
40
0.563112484563258
40
0.594318735665883
40
0.625524986768507
40
0.625524986768507
40
0.656731237871132
40
0.656731237871132
40
0.672334363422444
40
0.680135926198098
40
0.680135926198098
40
0.687937488973752
40
0.687937488973752
40
0.719143740076374
40
0.750349991178995
40
0.750349991178995
40
0.781556242281616
40
0.781556242281616
40
0.812762493384237
40
0.812762493384237
40
0.820564056159893
40
0.820564056159893
40
0.828365618935549
40
0.828365618935549
40
0.843968744486864
40
0.843968744486864
40
0.875174995589493
40
0.875174995589493
40
0.906381246692122
40
0.906381246692122
40
0.937587497794751
40
0.937587497794751
40
0.953190623346066
40
0.953190623346066
40
0.957091404733895
40
0.957091404733895
40
0.960992186121723
40
0.960992186121723
40
0.968793748897378
40
0.968793748897378
40
1
40
1
40
1
40
1
41
1
10
112.537409734739
20
211.644815802158
30
0
41
1
10
112.537413169562
20
211.644816879672
30
0
41
1
10
112.537386269716
20
211.644808678592
30
0
41
1
10
112.536054242332
20
211.644401779321
30
0
41
1
10
112.519725909958
20
211.639406244397
30
0
41
1
10
112.472736367493
20
211.625104542947
30
0
41
1
10
112.453317324523
20
211.619202063322
30
0
41
1
10
112.418507170676
20
211.608653628817
30
0
41
1
10
112.405949737855
20
211.604852975272
30
0
41
1
10
112.378955087248
20
211.596696143352
30
0
41
1
10
112.364576056817
20
211.592357553776
30
0
41
1
10
112.288371443725
20
211.569406659165
30
0
41
1
10
112.213656105222
20
211.547027418786
30
0
41
1
10
112.038597525914
20
211.495208412099
30
0
41
1
10
111.938247861435
20
211.465766427724
30
0
41
1
10
111.797418009046
20
211.425073516765
30
0
41
1
10
111.768480521961
20
211.416740166362
30
0
41
1
10
111.7090710115
20
211.399696176805
30
0
41
1
10
111.678575433166
20
211.390978877195
30
0
41
1
10
111.585125665088
20
211.364372755794
30
0
41
1
10
111.455141329163
20
211.327643014842
30
0
41
1
10
111.314752765925
20
211.28866181446
30
0
41
1
10
111.223843476489
20
211.263670302305
30
0
41
1
10
111.205585723249
20
211.258663223401
30
0
41
1
10
111.168760128721
20
211.248589104133
30
0
41
1
10
111.113127220587
20
211.23340741048
30
0
41
1
10
111.05632605573
20
211.21802349286
30
0
41
1
10
110.864453783209
20
211.166334065521
30
0
41
1
10
110.702867497105
20
211.123676767173
30
0
41
1
10
110.364672353554
20
211.036670862703
30
0
41
1
10
110.188059008333
20
210.992320245995
30
0
41
1
10
109.820434477103
20
210.902745272943
30
0
41
1
10
109.629421230408
20
210.857519464376
30
0
41
1
10
109.381784196931
20
210.800923136469
30
0
41
1
10
109.331888679962
20
210.789618214344
30
0
41
1
10
109.23157624813
20
210.767094618787
30
0
41
1
10
109.080230545561
20
210.733416877855
30
0
41
1
10
108.926293255802
20
210.700108940463
30
0
41
1
10
108.615043663538
20
210.634106385884
30
0
41
1
10
108.403051025686
20
210.590923188854
30
0
41
1
10
107.970319018959
20
210.50680743188
30
0
41
1
10
107.749578697076
20
210.465874128972
30
0
41
1
10
107.411922744744
20
210.406609663996
30
0
41
1
10
107.241455992823
20
210.377511227579
30
0
41
1
10
107.068512706947
20
210.349297816886
30
0
41
1
10
106.952663337328
20
210.330695005087
30
0
41
1
10
106.894437895856
20
210.321493234496
30
0
41
1
10
106.60299640174
20
210.276188461543
30
0
41
1
10
106.368026276794
20
210.242065406871
30
0
41
1
10
105.894524929119
20
210.178394060877
30
0
41
1
10
105.417461818231
20
210.119297154551
30
0
41
1
10
104.691196570794
20
210.045327394181
30
0
41
1
10
104.199792778545
20
210.006409257723
30
0
41
1
10
103.890333197431
20
209.985519762489
30
0
41
1
10
103.828324509148
20
209.981513568362
30
0
41
1
10
103.704071089525
20
209.97384918639
30
0
41
1
10
103.641822116548
20
209.970191258813
30
0
41
1
10
103.455506751112
20
209.959787472529
30
0
41
1
10
103.331609445937
20
209.953594910919
30
0
41
1
10
102.960845665056
20
209.937219124633
30
0
41
1
10
102.468966018496
20
209.921257615586
30
0
41
1
10
101.981990312024
20
209.916718672945
30
0
41
1
10
101.497494275959
20
209.917710099819
30
0
41
1
10
101.256485910975
20
209.920971047197
30
0
41
1
10
100.896891747163
20
209.929857402961
30
0
41
1
10
100.717574879104
20
209.935299034551
30
0
41
1
10
100.538995489977
20
209.942206971358
30
0
41
1
10
100.420108826625
20
209.947134420183
30
0
41
1
10
100.360720347767
20
209.949760566277
30
0
41
1
10
100.064501026087
20
209.96367312059
30
0
41
1
10
99.5998462436655
20
209.990709451069
30
0
41
1
10
99.1535081386509
20
210.026001973301
30
0
41
1
10
98.7163912279234
20
210.064790102381
30
0
41
1
10
98.5024424875221
20
210.085932305022
30
0
41
1
10
98.0840459154759
20
210.131076338599
30
0
41
1
10
97.8795960342339
20
210.155078958147
30
0
41
1
10
97.6303092984052
20
210.186457886758
30
0
41
1
10
97.5807664690974
20
210.192802362981
30
0
41
1
10
97.482321494591
20
210.205617949707
30
0
41
1
10
97.4333800002159
20
210.212094361733
30
0
41
1
10
97.2877980149726
20
210.231661817285
30
0
41
1
10
97.192851544874
20
210.244829392075
30
0
41
1
10
96.9143151442946
20
210.284536833658
30
0
41
1
10
96.7370137796147
20
210.311281022576
30
0
41
1
10
96.3994167731685
20
210.364467549019
30
0
41
1
10
96.2391189178267
20
210.390911271649
30
0
41
1
10
95.9362419081533
20
210.442648850517
30
0
41
1
10
95.7936577700749
20
210.467944408726
30
0
41
1
10
95.5940485462263
20
210.5043526785
30
0
41
1
10
95.5298950325267
20
210.516232388566
30
0
41
1
10
95.4528291790828
20
210.530685410142
30
0
41
1
10
95.4375724456976
20
210.533556163754
30
0
41
1
10
95.4073761035958
20
210.539255980973
30
0
41
1
10
95.3924300243266
20
210.542086287069
30
0
41
1
10
95.3482158273068
20
210.550484650392
30
0
41
1
10
95.3195263425616
20
210.55596866755
30
0
41
1
10
95.1800116921582
20
210.582786861956
30
0
41
1
10
95.0809561335286
20
210.602314915998
30
0
41
1
10
94.9946790849306
20
210.619571507916
30
0
0
SPLINE
5
2DD
100
AcDbEntity
8
1
62
256
6
ByLayer
370
18
48
1
60
0
100
AcDbSpline
70
4
71
3
72
46
73
42
40
0
40
0
40
0
40
0
40
0.124999999999997
40
0.124999999999997
40
0.187499999999997
40
0.187499999999997
40
0.203124999999997
40
0.203124999999997
40
0.218749999999997
40
0.249999999999994
40
0.249999999999994
40
0.312499999999985
40
0.374999999999976
40
0.374999999999976
40
0.437499999999967
40
0.437499999999967
40
0.499999999999958
40
0.499999999999958
40
0.531249999999954
40
0.531249999999954
40
0.546874999999955
40
0.546874999999955
40
0.562499999999955
40
0.562499999999955
40
0.624999999999956
40
0.624999999999956
40
0.687499999999957
40
0.687499999999957
40
0.749999999999958
40
0.749999999999958
40
0.812499999999959
40
0.812499999999959
40
0.828124999999959
40
0.828124999999959
40
0.843749999999959
40
0.843749999999959
40
0.874999999999965
40
0.874999999999965
40
0.937499999999982
40
0.937499999999982
40
1
40
1
40
1
40
1
41
1
10
94.9946790849307
20
210.619571507916
30
0
41
1
10
95.0748374943373
20
210.576432822788
30
0
41
1
10
95.1814378112754
20
210.519270351304
30
0
41
1
10
95.3808875135138
20
210.41358603756
30
0
41
1
10
95.4539775013892
20
210.37503249412
30
0
41
1
10
95.5537145417965
20
210.322788060823
30
0
41
1
10
95.5740778352797
20
210.312138260908
30
0
41
1
10
95.6155133516094
20
210.290505612612
30
0
41
1
10
95.6787762247649
20
210.257532907497
30
0
41
1
10
95.7453411493932
20
210.223023326015
30
0
41
1
10
95.8828176916562
20
210.152044114848
30
0
41
1
10
96.0777004623972
20
210.05217961439
30
0
41
1
10
96.2954072879476
20
209.942784805084
30
0
41
1
10
96.5245434563334
20
209.829085479025
30
0
41
1
10
96.6448249436304
20
209.770082741715
30
0
41
1
10
96.8970447346944
20
209.648253087849
30
0
41
1
10
97.0289807749473
20
209.585425071285
30
0
41
1
10
97.2359949448443
20
209.488711785226
30
0
41
1
10
97.3065202765645
20
209.456062628093
30
0
41
1
10
97.4146592193431
20
209.406527379411
30
0
41
1
10
97.4511205795393
20
209.389911670165
30
0
41
1
10
97.5247267599132
20
209.35655495387
30
0
41
1
10
97.5618500917703
20
209.33982356441
30
0
41
1
10
97.7490807072767
20
209.255933161786
30
0
41
1
10
97.9040160425925
20
209.188068418562
30
0
41
1
10
98.2247248715559
20
209.051722501844
30
0
41
1
10
98.3904940113127
20
208.983238251358
30
0
41
1
10
98.7338184791662
20
208.846721363875
30
0
41
1
10
98.9113661237574
20
208.778683883338
30
0
41
1
10
99.279786042812
20
208.644427532753
30
0
41
1
10
99.4706443382623
20
208.57820043509
30
0
41
1
10
99.7190699074411
20
208.497712197489
30
0
41
1
10
99.769250538869
20
208.481730917901
30
0
41
1
10
99.8706542944874
20
208.450037449506
30
0
41
1
10
99.9217295083055
20
208.434371744621
30
0
41
1
10
100.075988159039
20
208.388011516552
30
0
41
1
10
100.180256365193
20
208.357935861574
30
0
41
1
10
100.497678460107
20
208.27069273015
30
0
41
1
10
100.715419486134
20
208.216479813601
30
0
41
1
10
101.165542548056
20
208.119171946695
30
0
41
1
10
101.397909709068
20
208.076064009922
30
0
41
1
10
101.639353317245
20
208.040659793116
30
0
0
SPLINE
5
2DE
100
AcDbEntity
8
1
62
256
6
ByLayer
370
18
48
1
60
0
100
AcDbSpline
70
4
71
3
72
29
73
25
40
0
40
0
40
0
40
0
40
0.124999999999942
40
0.124999999999942
40
0.187499999999915
40
0.187499999999915
40
0.249999999999887
40
0.249999999999887
40
0.374999999999833
40
0.374999999999833
40
0.437499999999877
40
0.437499999999877
40
0.49999999999992
40
0.562499999999964
40
0.562499999999964
40
0.625000000000008
40
0.625000000000008
40
0.750000000000097
40
0.750000000000097
40
0.812500000000137
40
0.812500000000137
40
0.875000000000176
40
0.875000000000176
40
1
40
1
40
1
40
1
41
1
10
114.408174669942
20
211.62239190585
30
0
41
1
10
114.407261843168
20
211.625026393249
30
0
41
1
10
114.409118907392
20
211.62772252926
30
0
41
1
10
114.415948897371
20
211.631860604302
30
0
41
1
10
114.418904564615
20
211.633255793465
30
0
41
1
10
114.42621648499
20
211.636080423212
30
0
41
1
10
114.430567485459
20
211.637504539724
30
0
41
1
10
114.445413844829
20
211.641732821959
30
0
41
1
10
114.457760926982
20
211.644524238024
30
0
41
1
10
114.479947971763
20
211.64868661394
30
0
41
1
10
114.487998492254
20
211.65007526558
30
0
41
1
10
114.504985677847
20
211.652787291849
30
0
41
1
10
114.52292075384
20
211.655447474271
30
0
41
1
10
114.542695980752
20
211.65801326464
30
0
41
1
10
114.563390997901
20
211.660534980115
30
0
41
1
10
114.574258864002
20
211.661780157982
30
0
41
1
10
114.607790171665
20
211.665400242106
30
0
41
1
10
114.631269362719
20
211.667653696556
30
0
41
1
10
114.668094762865
20
211.670820114259
30
0
41
1
10
114.680639669334
20
211.671839624676
30
0
41
1
10
114.7062790426
20
211.673807289296
30
0
41
1
10
114.71922871014
20
211.674744178159
30
0
41
1
10
114.758284865855
20
211.6774084696
30
0
41
1
10
114.784670515387
20
211.678996746554
30
0
41
1
10
114.811406912313
20
211.680397941743
30
0
0
SPLINE
5
2DF
100
AcDbEntity
8
1
62
256
6
ByLayer
370
18
48
1
60
0
100
AcDbSpline
70
4
71
3
72
55
73
51
40
0
40
0
40
0
40
0
40
0.0003545697494539
40
0.0003545697494539
40
0.0628324091401049
40
0.0628324091401049
40
0.125310248530756
40
0.125310248530756
40
0.187788087921407
40
0.187788087921407
40
0.219027007616732
40
0.219027007616732
40
0.226836737540564
40
0.226836737540564
40
0.234646467464396
40
0.250265927312061
40
0.250265927312061
40
0.312743766702711
40
0.312743766702711
40
0.375221606093363
40
0.375221606093363
40
0.437699445484013
40
0.437699445484013
40
0.453318905331676
40
0.453318905331676
40
0.468938365179339
40
0.500177284874665
40
0.500177284874665
40
0.562655124265316
40
0.625132963655968
40
0.625132963655968
40
0.656371883351291
40
0.656371883351291
40
0.671991343198951
40
0.679801073122783
40
0.679801073122783
40
0.687610803046616
40
0.687610803046616
40
0.750088642437298
40
0.750088642437298
40
0.812566481827981
40
0.875044321218663
40
0.875044321218663
40
0.906283240914004
40
0.906283240914004
40
0.921902700761673
40
0.921902700761673
40
0.937522160609341
40
0.937522160609341
40
1
40
1
40
1
40
1
41
1
10
91.2500013807182
20
207.15000011425
30
0
41
1
10
91.2500003840246
20
207.150000031776
30
0
41
1
10
91.2499988409367
20
207.14999990409
30
0
41
1
10
91.2500445692906
20
207.150003688013
30
0
41
1
10
91.2665289375817
20
207.151367525732
30
0
41
1
10
91.331401265375
20
207.156737270291
30
0
41
1
10
91.3797915834127
20
207.160743373469
30
0
41
1
10
91.5083185205849
20
207.17139205836
30
0
41
1
10
91.5884541788482
20
207.178034539643
30
0
41
1
10
91.732939643607
20
207.190024121879
30
0
41
1
10
91.7851547115031
20
207.194358852005
30
0
41
1
10
91.8555893937206
20
207.200209568549
30
0
41
1
10
91.8699351667374
20
207.201401373527
30
0
41
1
10
91.8990686653021
20
207.203822049905
30
0
41
1
10
91.9434592054715
20
207.207510937087
30
0
41
1
10
91.9899089979818
20
207.211372624855
30
0
41
1
10
92.149273546104
20
207.224625938024
30
0
41
1
10
92.2912383923217
20
207.236445304042
30
0
41
1
10
92.6034604233487
20
207.262483179958
30
0
41
1
10
92.7737188365392
20
207.276701760391
30
0
41
1
10
93.1425856433641
20
207.307567166573
30
0
41
1
10
93.3411923357304
20
207.324213798518
30
0
41
1
10
93.6076494444094
20
207.346598269284
30
0
41
1
10
93.6618766034118
20
207.351156156407
30
0
41
1
10
93.7720734881442
20
207.360423591387
30
0
41
1
10
93.9394867710807
20
207.374510528652
30
0
41
1
10
94.113180214888
20
207.389150465742
30
0
41
1
10
94.4687976269325
20
207.419160741602
30
0
41
1
10
94.9648685108411
20
207.461119196113
30
0
41
1
10
95.5040952150169
20
207.506968625468
30
0
41
1
10
95.924847252527
20
207.542851901811
30
0
41
1
10
96.0678240641962
20
207.555062741508
30
0
41
1
10
96.2864357177286
20
207.573761865311
30
0
41
1
10
96.3967785691734
20
207.583207182383
30
0
41
1
10
96.5086915840875
20
207.592798046175
30
0
41
1
10
96.5836510924319
20
207.599224538525
30
0
41
1
10
96.6213229073099
20
207.60245550565
30
0
41
1
10
96.9611139156167
20
207.63160959116
30
0
41
1
10
97.2696914884168
20
207.658167064512
30
0
41
1
10
97.899502409733
20
207.712555596392
30
0
41
1
10
98.5419715029509
20
207.768217892613
30
0
41
1
10
99.2095503743515
20
207.826462152259
30
0
41
1
10
99.7198067948731
20
207.871148463608
30
0
41
1
10
99.8914900815214
20
207.886211318625
30
0
41
1
10
100.151454441919
20
207.909063330721
30
0
41
1
10
100.238621146339
20
207.916732912327
30
0
41
1
10
100.413013086384
20
207.932091984383
30
0
41
1
10
100.500284788287
20
207.939785540359
30
0
41
1
10
100.937018121736
20
207.978323485722
30
0
41
1
10
101.287601817519
20
208.009378146377
30
0
41
1
10
101.639353317245
20
208.040659793116
30
0
0
SPLINE
5
2E0
100
AcDbEntity
8
1
62
256
6
ByLayer
370
18
48
1
60
0
100
AcDbSpline
70
4
71
3
72
8
73
4
40
0
40
0
40
0
40
0
40
1
40
1
40
1
40
1
41
1
10
101.639353317245
20
208.040659793116
30
0
41
1
10
102.090257892704
20
208.034995026781
30
0
41
1
10
102.54379333697
20
208.043811653563
30
0
41
1
10
103
20
208.067720431666
30
0
0
SPLINE
5
2E1
100
AcDbEntity
8
1
62
256
6
ByLayer
370
18
48
1
60
0
100
AcDbSpline
70
4
71
3
72
12
73
8
40
0
40
0
40
0
40
0
40
0.500000000000061
40
0.500000000000061
40
0.75000000000003
40
0.75000000000003
40
1
40
1
40
1
40
1
41
1
10
116.5
20
205.248552466183
30
0
41
1
10
116.5
20
205.362669146736
30
0
41
1
10
116.490312075139
20
205.474335340552
30
0
41
1
10
116.462407025071
20
205.638473847558
30
0
41
1
10
116.450854369779
20
205.692653476982
30
0
41
1
10
116.423331738361
20
205.799781551128
30
0
41
1
10
116.407520065376
20
205.852129245612
30
0
41
1
10
116.389774976893
20
205.903342918703
30
0
0
SPLINE
5
2E2
100
AcDbEntity
8
1
62
256
6
ByLayer
370
18
48
1
60
0
100
AcDbSpline
70
4
71
3
72
31
73
27
40
0
40
0
40
0
40
0
40
0.0312500000000153
40
0.0468750000000187
40
0.0468750000000187
40
0.062500000000022
40
0.062500000000022
40
0.125000000000016
40
0.125000000000016
40
0.250000000000002
40
0.250000000000002
40
0.374999999999988
40
0.374999999999988
40
0.499999999999973
40
0.499999999999973
40
0.531249999999974
40
0.531249999999974
40
0.562499999999974
40
0.562499999999974
40
0.624999999999975
40
0.624999999999975
40
0.749999999999984
40
0.749999999999984
40
0.874999999999992
40
0.874999999999992
40
1
40
1
40
1
40
1
41
1
10
114.793423689275
20
210.510533976637
30
0
41
1
10
114.690218495082
20
210.47762361284
30
0
41
1
10
114.53402016723
20
210.427959585728
30
0
41
1
10
114.37571199209
20
210.37791690565
30
0
41
1
10
114.269701267459
20
210.344478696188
30
0
41
1
10
114.216447113485
20
210.327717385919
30
0
41
1
10
113.949507596489
20
210.243901739645
30
0
41
1
10
113.733432404571
20
210.17669901216
30
0
41
1
10
113.077607520094
20
209.975400874376
30
0
41
1
10
112.630275335171
20
209.841617668919
30
0
41
1
10
111.714816846842
20
209.578817158195
30
0
41
1
10
111.246691490283
20
209.449794427945
30
0
41
1
10
110.288533490935
20
209.200431322342
30
0
41
1
10
109.798503810992
20
209.080086595576
30
0
41
1
10
109.171200058121
20
208.937617456809
30
0
41
1
10
109.044938769219
20
208.90950910542
30
0
41
1
10
108.791193023879
20
208.854218410014
30
0
41
1
10
108.663896678006
20
208.827077121512
30
0
41
1
10
108.281297917752
20
208.74735889171
30
0
41
1
10
108.025057467998
20
208.696438224553
30
0
41
1
10
107.25276309699
20
208.550884543695
30
0
41
1
10
106.733139845199
20
208.463470699254
30
0
41
1
10
105.684017044932
20
208.310478540701
30
0
41
1
10
105.154517383793
20
208.244901736351
30
0
41
1
10
104.085168647285
20
208.13781097337
30
0
41
1
10
103.545319945372
20
208.096299439002
30
0
41
1
10
103
20
208.067720431666
30
0
0
SPLINE
5
2E3
100
AcDbEntity
8
1
62
256
6
ByLayer
370
18
48
1
60
0
100
AcDbSpline
70
4
71
3
72
8
73
4
40
0
40
0
40
0
40
0
40
1
40
1
40
1
40
1
41
1
10
116.460603691393
20
203
30
0
41
1
10
116.473794256776
20
203
30
0
41
1
10
116.486925947824
20
202.999673986816
30
0
41
1
10
116.5
20
202.999029367963
30
0
0
SPLINE
5
2E4
100
AcDbEntity
8
1
62
256
6
ByLayer
370
18
48
1
60
0
100
AcDbSpline
70
4
71
3
72
74
73
70
40
0
40
0
40
0
40
0
40
0.0312500000000048
40
0.0312500000000048
40
0.0625000000000096
40
0.0937500000000144
40
0.125000000000019
40
0.125000000000019
40
0.140625000000023
40
0.148437500000024
40
0.148437500000024
40
0.156250000000026
40
0.156250000000026
40
0.187500000000031
40
0.187500000000031
40
0.218750000000035
40
0.25000000000004
40
0.281250000000045
40
0.281250000000045
40
0.296875000000047
40
0.304687500000047
40
0.304687500000047
40
0.312500000000048
40
0.312500000000048
40
0.343750000000044
40
0.343750000000044
40
0.37500000000004
40
0.406250000000037
40
0.437500000000033
40
0.437500000000033
40
0.453125000000033
40
0.453125000000033
40
0.460937500000032
40
0.460937500000032
40
0.468750000000032
40
0.500000000000031
40
0.500000000000031
40
0.53125000000003
40
0.562500000000029
40
0.593750000000028
40
0.593750000000028
40
0.609375000000028
40
0.609375000000028
40
0.61718750000003
40
0.61718750000003
40
0.625000000000031
40
0.656250000000031
40
0.687500000000031
40
0.718750000000031
40
0.750000000000031
40
0.750000000000031
40
0.765625000000032
40
0.765625000000032
40
0.773437500000032
40
0.773437500000032
40
0.781250000000033
40
0.81250000000003
40
0.843750000000027
40
0.875000000000023
40
0.90625000000002
40
0.90625000000002
40
0.914062500000019
40
0.914062500000019
40
0.921875000000018
40
0.921875000000018
40
0.937500000000014
40
0.937500000000014
40
0.968750000000007
40
1
40
1
40
1
40
1
41
1
10
51.4755356262221
20
146.646968374165
30
0
41
1
10
51.3286489926527
20
146.358525070552
30
0
41
1
10
51.1726401007634
20
146.076874360361
30
0
41
1
10
50.8428815883817
20
145.526781728833
30
0
41
1
10
50.4953808242542
20
144.989899021024
30
0
41
1
10
49.9216141939636
20
144.223671122454
30
0
41
1
10
49.5040719025264
20
143.738929348399
30
0
41
1
10
49.1775834252379
20
143.385295914113
30
0
41
1
10
49.0110032894133
20
143.210962121629
30
0
41
1
10
48.8393547627814
20
143.040400543794
30
0
41
1
10
48.7237868840832
20
142.927537932121
30
0
41
1
10
48.6653774626676
20
142.871475337372
30
0
41
1
10
48.3713909541755
20
142.594157171049
30
0
41
1
10
48.1298605892507
20
142.381697905228
30
0
41
1
10
47.6344491769683
20
141.975074550576
30
0
41
1
10
47.1266859235882
20
141.586748096496
30
0
41
1
10
46.3284287312583
20
141.058481060024
30
0
41
1
10
45.7717984560992
20
140.742519078922
30
0
41
1
10
45.3450042916197
20
140.519347222421
30
0
41
1
10
45.1292747192125
20
140.411214350226
30
0
41
1
10
44.9099986197879
20
140.308331350318
30
0
41
1
10
44.7630196797798
20
140.240919274114
30
0
41
1
10
44.6891619818275
20
140.207816604147
30
0
41
1
10
44.3193239872985
20
140.045884293553
30
0
41
1
10
44.0205834488546
20
139.927267952186
30
0
41
1
10
43.4175042079136
20
139.711349280911
30
0
41
1
10
42.8088263173972
20
139.516746477924
30
0
41
1
10
41.879192086887
20
139.28810052505
30
0
41
1
10
41.2483207700122
20
139.177977436651
30
0
41
1
10
40.7709256285823
20
139.111528668544
30
0
41
1
10
40.6110863411969
20
139.092072078332
30
0
41
1
10
40.3702508853846
20
139.066984279081
30
0
41
1
10
40.2897582465357
20
139.05930171269
30
0
41
1
10
40.1285596207103
20
139.045327010108
30
0
41
1
10
39.7258503797956
20
139.01393759803
30
0
41
1
10
39.3245629481182
20
139.000101802726
30
0
41
1
10
38.6842797885752
20
138.999899593595
30
0
41
1
10
38.0457734924613
20
139.021634084429
30
0
41
1
10
37.09329350498
20
139.119415817446
30
0
41
1
10
36.4618417394904
20
139.228247669779
30
0
41
1
10
35.9896032617728
20
139.326545283705
30
0
41
1
10
35.8324156953794
20
139.362092606936
30
0
41
1
10
35.5969772468248
20
139.419647897107
30
0
41
1
10
35.5184870657549
20
139.439557581158
30
0
41
1
10
35.3621708772191
20
139.480653485486
30
0
41
1
10
34.9728213367165
20
139.586635073025
30
0
41
1
10
34.2848308028522
20
139.806287297734
30
0
41
1
10
33.3942808401416
20
140.159396422503
30
0
41
1
10
32.5302761772634
20
140.572247795705
30
0
41
1
10
31.9720677937616
20
140.887538107547
30
0
41
1
10
31.5602171989954
20
141.139328732244
30
0
41
1
10
31.4240690084591
20
141.225815143895
30
0
41
1
10
31.2215761311006
20
141.359438932366
30
0
41
1
10
31.1544414849124
20
141.404581584221
30
0
41
1
10
31.0212463106895
20
141.495826573979
30
0
41
1
10
30.6906818345495
20
141.72651408626
30
0
41
1
10
30.1172663564256
20
142.164704206676
30
0
41
1
10
29.3978201526204
20
142.796897262017
30
0
41
1
10
28.7231639819854
20
143.476700787687
30
0
41
1
10
28.3034607288532
20
143.961869835271
30
0
41
1
10
28.050744041383
20
144.275306407612
30
0
41
1
10
28.0006811550504
20
144.338504612361
30
0
41
1
10
27.9015236263907
20
144.465930654876
30
0
41
1
10
27.8524008336104
20
144.53019615003
30
0
41
1
10
27.7066964990038
20
144.724284093797
30
0
41
1
10
27.6119456768295
20
144.855168862536
30
0
41
1
10
27.3347992873944
20
145.252270368955
30
0
41
1
10
26.9842034527826
20
145.793587699603
30
0
41
1
10
26.6713500543376
20
146.358526941991
30
0
41
1
10
26.5244643737779
20
146.646968374165
30
0
0
SPLINE
5
2E5
100
AcDbEntity
8
1
62
256
6
ByLayer
370
18
48
1
60
0
100
AcDbSpline
70
4
71
3
72
74
73
70
40
0
40
0
40
0
40
0
40
0.0312500000000087
40
0.0312500000000087
40
0.0625000000000174
40
0.0937500000000262
40
0.125000000000035
40
0.125000000000035
40
0.14062500000004
40
0.148437500000043
40
0.148437500000043
40
0.156250000000046
40
0.156250000000046
40
0.187500000000055
40
0.187500000000055
40
0.218750000000064
40
0.250000000000073
40
0.281250000000082
40
0.281250000000082
40
0.296875000000085
40
0.304687500000087
40
0.304687500000087
40
0.312500000000088
40
0.312500000000088
40
0.343750000000089
40
0.343750000000089
40
0.375000000000089
40
0.40625000000009
40
0.43750000000009
40
0.43750000000009
40
0.453125000000092
40
0.453125000000092
40
0.460937500000093
40
0.460937500000093
40
0.468750000000094
40
0.500000000000097
40
0.500000000000097
40
0.5312500000001
40
0.562500000000103
40
0.593750000000106
40
0.593750000000106
40
0.609375000000106
40
0.609375000000106
40
0.617187500000105
40
0.617187500000105
40
0.625000000000104
40
0.656250000000098
40
0.687500000000092
40
0.718750000000086
40
0.75000000000008
40
0.75000000000008
40
0.765625000000078
40
0.765625000000078
40
0.773437500000076
40
0.773437500000076
40
0.781250000000075
40
0.812500000000066
40
0.843750000000057
40
0.875000000000048
40
0.906250000000039
40
0.906250000000039
40
0.914062500000036
40
0.914062500000036
40
0.921875000000033
40
0.921875000000033
40
0.937500000000026
40
0.937500000000026
40
0.968750000000013
40
1
40
1
40
1
40
1
41
1
10
26.5244643737779
20
-146.646968374165
30
0
41
1
10
26.6713510073473
20
-146.358525070552
30
0
41
1
10
26.8273598992366
20
-146.076874360361
30
0
41
1
10
27.1571184116183
20
-145.526781728833
30
0
41
1
10
27.5046191757459
20
-144.989899021025
30
0
41
1
10
28.0783858060365
20
-144.223671122454
30
0
41
1
10
28.4959280974735
20
-143.738929348399
30
0
41
1
10
28.8224165747621
20
-143.385295914113
30
0
41
1
10
28.9889967105868
20
-143.210962121629
30
0
41
1
10
29.1606452372187
20
-143.040400543794
30
0
41
1
10
29.2762131159169
20
-142.927537932121
30
0
41
1
10
29.3346225373325
20
-142.871475337372
30
0
41
1
10
29.6286090458245
20
-142.594157171049
30
0
41
1
10
29.8701394107494
20
-142.381697905228
30
0
41
1
10
30.3655508230319
20
-141.975074550577
30
0
41
1
10
30.8733139296464
20
-141.586747876061
30
0
41
1
10
31.6715715295569
20
-141.058481443616
30
0
41
1
10
32.2282015439008
20
-140.742519078923
30
0
41
1
10
32.6549957083804
20
-140.519347222422
30
0
41
1
10
32.8707252807876
20
-140.411214350226
30
0
41
1
10
33.0900013802122
20
-140.308331350318
30
0
41
1
10
33.2369803202202
20
-140.240919274114
30
0
41
1
10
33.3108380181725
20
-140.207816604147
30
0
41
1
10
33.6806760127016
20
-140.045884293553
30
0
41
1
10
33.9794165511455
20
-139.927267952186
30
0
41
1
10
34.5824957920865
20
-139.711349280912
30
0
41
1
10
35.191173682603
20
-139.516746477924
30
0
41
1
10
36.1208077775066
20
-139.288100009862
30
0
41
1
10
36.7516792299879
20
-139.177977436651
30
0
41
1
10
37.2290743714177
20
-139.111528668544
30
0
41
1
10
37.3889136588032
20
-139.092072078333
30
0
41
1
10
37.6297491146156
20
-139.066984279081
30
0
41
1
10
37.7102417534645
20
-139.05930171269
30
0
41
1
10
37.8714403792898
20
-139.045327010108
30
0
41
1
10
38.2741496202045
20
-139.01393759803
30
0
41
1
10
38.675437051882
20
-139.000101802726
30
0
41
1
10
39.3157202114248
20
-138.999899593595
30
0
41
1
10
39.9542264967687
20
-139.021634217013
30
0
41
1
10
40.9067064950199
20
-139.119415817446
30
0
41
1
10
41.5381582605097
20
-139.22824766978
30
0
41
1
10
42.0103967382272
20
-139.326545283706
30
0
41
1
10
42.1675843046206
20
-139.362092606937
30
0
41
1
10
42.4030227531753
20
-139.419647897108
30
0
41
1
10
42.4815129342452
20
-139.439557581158
30
0
41
1
10
42.637829122781
20
-139.480653485487
30
0
41
1
10
43.0271786632836
20
-139.586635073025
30
0
41
1
10
43.7151691971478
20
-139.806287297734
30
0
41
1
10
44.6057191879265
20
-140.159396362077
30
0
41
1
10
45.4697238227366
20
-140.572247795705
30
0
41
1
10
46.0279322062385
20
-140.887538107548
30
0
41
1
10
46.4397828010049
20
-141.139328732244
30
0
41
1
10
46.5759309915409
20
-141.225815143895
30
0
41
1
10
46.7784238688994
20
-141.359438932366
30
0
41
1
10
46.8455585150878
20
-141.404581584221
30
0
41
1
10
46.9787536893105
20
-141.495826573979
30
0
41
1
10
47.3093181654506
20
-141.72651408626
30
0
41
1
10
47.8827336435744
20
-142.164704206676
30
0
41
1
10
48.6021798473796
20
-142.796897262017
30
0
41
1
10
49.2768360180146
20
-143.476700787687
30
0
41
1
10
49.6965392711468
20
-143.961869835271
30
0
41
1
10
49.949255958617
20
-144.275306407612
30
0
41
1
10
49.9993188449497
20
-144.338504612362
30
0
41
1
10
50.0984763736092
20
-144.465930654876
30
0
41
1
10
50.1475991663897
20
-144.530196150031
30
0
41
1
10
50.2933035009962
20
-144.724284093797
30
0
41
1
10
50.3880543231705
20
-144.855168862536
30
0
41
1
10
50.6652007126056
20
-145.252270368955
30
0
41
1
10
51.0157963684488
20
-145.793587812066
30
0
41
1
10
51.3286499456623
20
-146.358526941991
30
0
41
1
10
51.4755356262221
20
-146.646968374165
30
0
0
SPLINE
5
2E6
100
AcDbEntity
8
1
62
256
6
ByLayer
370
18
48
1
60
0
100
AcDbSpline
70
4
71
3
72
26
73
22
40
0
40
0
40
0
40
0
40
0.106262117536188
40
0.106262117536188
40
0.321802694938714
40
0.321802694938714
40
0.429572983639953
40
0.429572983639953
40
0.483458127990536
40
0.483458127990536
40
0.537343272341119
40
0.537343272341119
40
0.752883849743556
40
0.752883849743556
40
0.860654138444746
40
0.860654138444746
40
0.914539282795335
40
0.914539282795335
40
0.968424427145924
40
0.968424427145924
40
1
40
1
40
1
40
1
41
1
10
115.477352646599
20
208.545703674383
30
0
41
1
10
115.47008058364
20
208.577171579955
30
0
41
1
10
115.462194196784
20
208.609418185036
30
0
41
1
10
115.436413920027
20
208.709480918598
30
0
41
1
10
115.417049143635
20
208.777855050206
30
0
41
1
10
115.384939754264
20
208.882212092967
30
0
41
1
10
115.373722784002
20
208.917304454909
30
0
41
1
10
115.35611481802
20
208.970405958277
30
0
41
1
10
115.350114944563
20
208.988183760827
30
0
41
1
10
115.337850441488
20
209.023896210507
30
0
41
1
10
115.331573553859
20
209.041865231499
30
0
41
1
10
115.299660484298
20
209.131702944609
30
0
41
1
10
115.272738578143
20
209.202784486052
30
0
41
1
10
115.230259093398
20
209.308238607343
30
0
41
1
10
115.215748113636
20
209.343194273281
30
0
41
1
10
115.193442118796
20
209.395328384419
30
0
41
1
10
115.18591679482
20
209.412656473876
30
0
41
1
10
115.170683105097
20
209.447211154667
30
0
41
1
10
115.162956686495
20
209.464477209737
30
0
41
1
10
115.150632547464
20
209.491608047665
30
0
41
1
10
115.146066535565
20
209.501573272582
30
0
41
1
10
115.141487936045
20
209.511479878289
30
0
0
SPLINE
5
2E7
100
AcDbEntity
8
1
62
256
6
ByLayer
370
18
48
1
60
0
100
AcDbSpline
70
4
71
3
72
98
73
94
40
0
40
0
40
0
40
0
40
0.0312500000000781
40
0.0312500000000781
40
0.0625000000001563
40
0.0625000000001563
40
0.0781250000001952
40
0.0781250000001952
40
0.0937500000002341
40
0.0937500000002341
40
0.125000000000324
40
0.125000000000324
40
0.156250000000415
40
0.156250000000415
40
0.164062500000428
40
0.164062500000428
40
0.171875000000442
40
0.171875000000442
40
0.18750000000047
40
0.18750000000047
40
0.218750000000513
40
0.218750000000513
40
0.234375000000531
40
0.24218750000054
40
0.24218750000054
40
0.250000000000549
40
0.250000000000549
40
0.281250000000579
40
0.281250000000579
40
0.31250000000061
40
0.31250000000061
40
0.328125000000629
40
0.328125000000629
40
0.343750000000649
40
0.343750000000649
40
0.375000000000677
40
0.375000000000677
40
0.390625000000688
40
0.398437500000687
40
0.398437500000687
40
0.406250000000685
40
0.406250000000685
40
0.437500000000667
40
0.468750000000649
40
0.468750000000649
40
0.48437500000064
40
0.48437500000064
40
0.500000000000631
40
0.500000000000631
40
0.531250000000599
40
0.562500000000566
40
0.562500000000566
40
0.578125000000548
40
0.578125000000548
40
0.59375000000053
40
0.59375000000053
40
0.625000000000508
40
0.625000000000508
40
0.656250000000485
40
0.656250000000485
40
0.671875000000468
40
0.671875000000468
40
0.687500000000451
40
0.687500000000451
40
0.718750000000416
40
0.718750000000416
40
0.750000000000382
40
0.750000000000382
40
0.757812500000371
40
0.757812500000371
40
0.76562500000036
40
0.78125000000035
40
0.78125000000035
40
0.81250000000033
40
0.81250000000033
40
0.828125000000317
40
0.835937500000305
40
0.835937500000305
40
0.843750000000292
40
0.843750000000292
40
0.875000000000238
40
0.875000000000238
40
0.906250000000185
40
0.906250000000185
40
0.921875000000158
40
0.921875000000158
40
0.937500000000131
40
0.937500000000131
40
0.968750000000066
40
0.968750000000066
40
0.984375000000033
40
0.984375000000033
40
1
40
1
40
1
40
1
41
1
10
63.9396270399692
20
-200.024524425484
30
0
41
1
10
63.9787560543089
20
-200.013037334053
30
0
41
1
10
64.0197987984469
20
-200.003325894742
30
0
41
1
10
64.1057524203069
20
-199.988145897563
30
0
41
1
10
64.1506628302809
20
-199.982673827452
30
0
41
1
10
64.2210455501115
20
-199.978275529771
30
0
41
1
10
64.2450102396957
20
-199.977445886514
30
0
41
1
10
64.2939791815518
20
-199.977189196133
30
0
41
1
10
64.3190256130965
20
-199.977770374702
30
0
41
1
10
64.3945730822345
20
-199.981745372734
30
0
41
1
10
64.4458403121253
20
-199.987352344438
30
0
41
1
10
64.5499524882023
20
-200.004975702742
30
0
41
1
10
64.6027984213747
20
-200.016989117823
30
0
41
1
10
64.6697111959569
20
-200.036451338539
30
0
41
1
10
64.6831365151295
20
-200.040566711762
30
0
41
1
10
64.7100692986104
20
-200.049257287586
30
0
41
1
10
64.7236062865745
20
-200.053843201889
30
0
41
1
10
64.764095562996
20
-200.06822724531
30
0
41
1
10
64.7908808161444
20
-200.078630383993
30
0
41
1
10
64.8705731723393
20
-200.112269338114
30
0
41
1
10
64.9228193081582
20
-200.137927612903
30
0
41
1
10
64.9996673217576
20
-200.18134179111
30
0
41
1
10
65.0377102064806
20
-200.204283174018
30
0
41
1
10
65.0751348637035
20
-200.229115881344
30
0
41
1
10
65.0999412539596
20
-200.246097664375
30
0
41
1
10
65.1122766838054
20
-200.254805804303
30
0
41
1
10
65.1731397537069
20
-200.299098493372
30
0
41
1
10
65.2195971484334
20
-200.337172681377
30
0
41
1
10
65.3080614174444
20
-200.418475216717
30
0
41
1
10
65.3500685226928
20
-200.461703711691
30
0
41
1
10
65.4096044014173
20
-200.530491515522
30
0
41
1
10
65.4288982415669
20
-200.554126200128
30
0
41
1
10
65.4658514114896
20
-200.602159120481
30
0
41
1
10
65.4835679138314
20
-200.626618439234
30
0
41
1
10
65.5344659516612
20
-200.701312635684
30
0
41
1
10
65.5654044588607
20
-200.752858864272
30
0
41
1
10
65.6072794148204
20
-200.83284480301
30
0
41
1
10
65.627080520007
20
-200.87350625389
30
0
41
1
10
65.645139558135
20
-200.915195346316
30
0
41
1
10
65.6567854581277
20
-200.943220471547
30
0
41
1
10
65.6624180626955
20
-200.957367249245
30
0
41
1
10
65.6894182304526
20
-201.028252648001
30
0
41
1
10
65.7254444343769
20
-201.14317439048
30
0
41
1
10
65.7474040946131
20
-201.261078727232
30
0
41
1
10
65.7584923237019
20
-201.350655682741
30
0
41
1
10
65.7612893356732
20
-201.380706529386
30
0
41
1
10
65.7650403579413
20
-201.441202194549
30
0
41
1
10
65.7659888776637
20
-201.471724421898
30
0
41
1
10
65.7660057837511
20
-201.562627901796
30
0
41
1
10
65.7585856977294
20
-201.682779764437
30
0
41
1
10
65.7367632280273
20
-201.800899247645
30
0
41
1
10
65.714967826873
20
-201.888728183525
30
0
41
1
10
65.7067958047716
20
-201.917877451277
30
0
41
1
10
65.6886060377611
20
-201.975918745054
30
0
41
1
10
65.6786670596623
20
-202.004555826426
30
0
41
1
10
65.6464498787225
20
-202.08918948726
30
0
41
1
10
65.6217568760064
20
-202.143987356772
30
0
41
1
10
65.5661353286143
20
-202.250456793739
30
0
41
1
10
65.5352069531174
20
-202.302128377144
30
0
41
1
10
65.4840703416155
20
-202.377279101194
30
0
41
1
10
65.4661776600291
20
-202.401999292099
30
0
41
1
10
65.4292437622896
20
-202.450041884271
30
0
41
1
10
65.4101668402717
20
-202.473425254062
30
0
41
1
10
65.351158458281
20
-202.541701907622
30
0
41
1
10
65.3094557018873
20
-202.584728486082
30
0
41
1
10
65.2214398276095
20
-202.665844558173
30
0
41
1
10
65.1751269609097
20
-202.703934644673
30
0
41
1
10
65.1142985473066
20
-202.748349911279
30
0
41
1
10
65.1019642453595
20
-202.757086294751
30
0
41
1
10
65.0771942222821
20
-202.77410075163
30
0
41
1
10
65.0398336338365
20
-202.798976358412
30
0
41
1
10
65.0018843891917
20
-202.821945488596
30
0
41
1
10
64.9252657167697
20
-202.865403003645
30
0
41
1
10
64.8732285142873
20
-202.891073890437
30
0
41
1
10
64.79394435018
20
-202.924738937222
30
0
41
1
10
64.753994275506
20
-202.940358493559
30
0
41
1
10
64.7136148421164
20
-202.954155993211
30
0
41
1
10
64.6866031090733
20
-202.962947556797
30
0
41
1
10
64.6730453149477
20
-202.967140592974
30
0
41
1
10
64.6056383063814
20
-202.986917589734
30
0
41
1
10
64.5524555254705
20
-202.999110743698
30
0
41
1
10
64.4477765282352
20
-203.017006032847
30
0
41
1
10
64.3962793378706
20
-203.02270488931
30
0
41
1
10
64.3204599986326
20
-203.026782797981
30
0
41
1
10
64.2953735095639
20
-203.027391074409
30
0
41
1
10
64.2463548058429
20
-203.027186730139
30
0
41
1
10
64.2223447857513
20
-203.026381479993
30
0
41
1
10
64.1517751764227
20
-203.02204218767
30
0
41
1
10
64.1066725823575
20
-203.016590093326
30
0
41
1
10
64.0418523605789
20
-203.005181860984
30
0
41
1
10
64.0207187896692
20
-203.000839198374
30
0
41
1
10
63.9793945639561
20
-202.991161098466
30
0
41
1
10
63.9592220793094
20
-202.98582808355
30
0
41
1
10
63.9396270399692
20
-202.980075574516
30
0
0
SPLINE
5
2E8
100
AcDbEntity
8
1
62
256
6
ByLayer
370
18
48
1
60
0
100
AcDbSpline
70
4
71
3
72
24
73
20
40
0
40
0
40
0
40
0
40
0.124999999999986
40
0.124999999999986
40
0.18749999999998
40
0.18749999999998
40
0.249999999999973
40
0.249999999999973
40
0.37499999999996
40
0.37499999999996
40
0.499999999999947
40
0.499999999999947
40
0.624999999999935
40
0.624999999999935
40
0.687499999999928
40
0.687499999999928
40
0.749999999999922
40
0.749999999999922
40
1
40
1
40
1
40
1
41
1
10
97.0787006413815
20
192.81675
30
0
41
1
10
97.1738621211683
20
192.81675
30
0
41
1
10
97.2698824458707
20
192.81675
30
0
41
1
10
97.415538990813
20
192.81675
30
0
41
1
10
97.4644032065714
20
192.81675
30
0
41
1
10
97.5620958014689
20
192.81675
30
0
41
1
10
97.6109941615574
20
192.81675
30
0
41
1
10
97.7578568662177
20
192.81675
30
0
41
1
10
97.8559894946421
20
192.81675
30
0
41
1
10
98.0527526188769
20
192.81675
30
0
41
1
10
98.1513834718467
20
192.81675
30
0
41
1
10
98.3491677810368
20
192.81675
30
0
41
1
10
98.4483213213707
20
192.81675
30
0
41
1
10
98.597437381536
20
192.81675
30
0
41
1
10
98.6472629789093
20
192.81675
30
0
41
1
10
98.7461733697871
20
192.81675
30
0
41
1
10
98.7953630258501
20
192.81675
30
0
41
1
10
99.0400900978289
20
192.81675
30
0
41
1
10
99.2319808034466
20
192.81675
30
0
41
1
10
99.4212993586182
20
192.81675
30
0
0
SPLINE
5
2E9
100
AcDbEntity
8
1
62
256
6
ByLayer
370
18
48
1
60
0
100
AcDbSpline
70
4
71
3
72
24
73
20
40
0
40
0
40
0
40
0
40
0.124999999999936
40
0.124999999999936
40
0.187499999999921
40
0.187499999999921
40
0.249999999999905
40
0.249999999999905
40
0.37499999999991
40
0.37499999999991
40
0.499999999999914
40
0.499999999999914
40
0.624999999999918
40
0.624999999999918
40
0.68749999999992
40
0.68749999999992
40
0.749999999999923
40
0.749999999999923
40
1
40
1
40
1
40
1
41
1
10
97.0787006413818
20
188.75925
30
0
41
1
10
97.1738621211689
20
188.75925
30
0
41
1
10
97.2698824458716
20
188.75925
30
0
41
1
10
97.4155389908146
20
188.75925
30
0
41
1
10
97.4644032065729
20
188.75925
30
0
41
1
10
97.5620958014697
20
188.75925
30
0
41
1
10
97.6109941615582
20
188.75925
30
0
41
1
10
97.7578568662175
20
188.75925
30
0
41
1
10
97.855989494641
20
188.75925
30
0
41
1
10
98.0527526188736
20
188.75925
30
0
41
1
10
98.1513834718419
20
188.75925
30
0
41
1
10
98.3491677810289
20
188.75925
30
0
41
1
10
98.4483213213611
20
188.75925
30
0
41
1
10
98.5974373815232
20
188.75925
30
0
41
1
10
98.6472629788972
20
188.75925
30
0
41
1
10
98.7461733697775
20
188.75925
30
0
41
1
10
98.7953630258417
20
188.75925
30
0
41
1
10
99.0400900978257
20
188.75925
30
0
41
1
10
99.2319808034458
20
188.75925
30
0
41
1
10
99.4212993586186
20
188.75925
30
0
0
SPLINE
5
2EA
100
AcDbEntity
8
1
62
256
6
ByLayer
370
18
48
1
60
0
100
AcDbSpline
70
4
71
3
72
20
73
16
40
0
40
0
40
0
40
0
40
0.250000000000081
40
0.250000000000081
40
0.375000000000097
40
0.375000000000097
40
0.43750000000009
40
0.43750000000009
40
0.500000000000084
40
0.500000000000084
40
0.62500000000007
40
0.62500000000007
40
0.750000000000056
40
0.750000000000056
40
1
40
1
40
1
40
1
41
1
10
95.907401282763
20
190.788
30
0
41
1
10
96.0031456223729
20
190.953834060741
30
0
41
1
10
96.0996902732768
20
191.121054301306
30
0
41
1
10
96.2462520896328
20
191.374906813684
30
0
41
1
10
96.2953976874342
20
191.460029486044
30
0
41
1
10
96.3696137258326
20
191.588575435287
30
0
41
1
10
96.3944352004073
20
191.631567490369
30
0
41
1
10
96.4442512304502
20
191.717851385435
30
0
41
1
10
96.4692729924516
20
191.761190348516
30
0
41
1
10
96.5439599380455
20
191.890551932947
30
0
41
1
10
96.5934457054399
20
191.976263796325
30
0
41
1
10
96.6918464163457
20
192.146698827115
30
0
41
1
10
96.740761852303
20
192.231422847468
30
0
41
1
10
96.8867528173248
20
192.484286616331
30
0
41
1
10
96.9830754139252
20
192.65112224756
30
0
41
1
10
97.0787006413816
20
192.81675
30
0
0
SPLINE
5
2EB
100
AcDbEntity
8
1
62
256
6
ByLayer
370
18
48
1
60
0
100
AcDbSpline
70
4
71
3
72
20
73
16
40
0
40
0
40
0
40
0
40
0.249999999999953
40
0.249999999999953
40
0.374999999999929
40
0.374999999999929
40
0.437499999999917
40
0.437499999999917
40
0.499999999999905
40
0.499999999999905
40
0.624999999999928
40
0.624999999999928
40
0.749999999999952
40
0.749999999999952
40
1
40
1
40
1
40
1
41
1
10
99.4212993586185
20
188.75925
30
0
41
1
10
99.5170436982285
20
188.925084060742
30
0
41
1
10
99.6135883491322
20
189.092304301306
30
0
41
1
10
99.7601501654882
20
189.346156813684
30
0
41
1
10
99.8092957632896
20
189.431279486044
30
0
41
1
10
99.883511801688
20
189.559825435287
30
0
41
1
10
99.9083332762629
20
189.602817490369
30
0
41
1
10
99.9581493063056
20
189.689101385435
30
0
41
1
10
99.9831710683071
20
189.732440348516
30
0
41
1
10
100.057858013901
20
189.861801932947
30
0
41
1
10
100.107343781295
20
189.947513796325
30
0
41
1
10
100.205744492201
20
190.117948827115
30
0
41
1
10
100.254659928159
20
190.202672847468
30
0
41
1
10
100.40065089318
20
190.455536616331
30
0
41
1
10
100.49697348978
20
190.62237224756
30
0
41
1
10
100.592598717237
20
190.788
30
0
0
SPLINE
5
2EC
100
AcDbEntity
8
1
62
256
6
ByLayer
370
18
48
1
60
0
100
AcDbSpline
70
4
71
3
72
20
73
16
40
0
40
0
40
0
40
0
40
0.250000000000063
40
0.250000000000063
40
0.375000000000071
40
0.375000000000071
40
0.43750000000006
40
0.43750000000006
40
0.500000000000049
40
0.500000000000049
40
0.625000000000044
40
0.625000000000044
40
0.75000000000004
40
0.75000000000004
40
1
40
1
40
1
40
1
41
1
10
95.9074012827632
20
190.788
30
0
41
1
10
96.003145622373
20
190.622165939258
30
0
41
1
10
96.099690273277
20
190.454945698694
30
0
41
1
10
96.2462520896329
20
190.201093186316
30
0
41
1
10
96.2953976874342
20
190.115970513955
30
0
41
1
10
96.3696137258327
20
189.987424564713
30
0
41
1
10
96.3944352004077
20
189.944432509631
30
0
41
1
10
96.4442512304504
20
189.858148614565
30
0
41
1
10
96.4692729924519
20
189.814809651483
30
0
41
1
10
96.5439599380458
20
189.685448067053
30
0
41
1
10
96.59344570544
20
189.599736203674
30
0
41
1
10
96.6918464163459
20
189.429301172884
30
0
41
1
10
96.7407618523031
20
189.344577152532
30
0
41
1
10
96.8867528173249
20
189.091713383668
30
0
41
1
10
96.9830754139253
20
188.924877752439
30
0
41
1
10
97.0787006413818
20
188.75925
30
0
0
SPLINE
5
2ED
100
AcDbEntity
8
1
62
256
6
ByLayer
370
18
48
1
60
0
100
AcDbSpline
70
4
71
3
72
20
73
16
40
0
40
0
40
0
40
0
40
0.250000000000027
40
0.250000000000027
40
0.375000000000049
40
0.375000000000049
40
0.437500000000051
40
0.437500000000051
40
0.500000000000053
40
0.500000000000053
40
0.625000000000044
40
0.625000000000044
40
0.750000000000035
40
0.750000000000035
40
1
40
1
40
1
40
1
41
1
10
99.4212993586184
20
192.81675
30
0
41
1
10
99.5170436982282
20
192.650915939259
30
0
41
1
10
99.6135883491321
20
192.483695698694
30
0
41
1
10
99.7601501654882
20
192.229843186316
30
0
41
1
10
99.8092957632895
20
192.144720513956
30
0
41
1
10
99.883511801688
20
192.016174564713
30
0
41
1
10
99.9083332762627
20
191.973182509631
30
0
41
1
10
99.9581493063056
20
191.886898614565
30
0
41
1
10
99.9831710683071
20
191.843559651484
30
0
41
1
10
100.057858013901
20
191.714198067053
30
0
41
1
10
100.107343781295
20
191.628486203674
30
0
41
1
10
100.205744492201
20
191.458051172884
30
0
41
1
10
100.254659928158
20
191.373327152532
30
0
41
1
10
100.40065089318
20
191.120463383668
30
0
41
1
10
100.496973489781
20
190.95362775244
30
0
41
1
10
100.592598717237
20
190.788
30
0
0
SPLINE
5
2EE
100
AcDbEntity
8
1
62
256
6
ByLayer
370
18
48
1
60
0
100
AcDbSpline
70
4
71
3
72
28
73
24
40
0
40
0
40
0
40
0
40
0.125260134858329
40
0.125260134858329
40
0.187890202287465
40
0.187890202287465
40
0.2505202697166
40
0.2505202697166
40
0.375780404574641
40
0.375780404574641
40
0.438410472003646
40
0.438410472003646
40
0.501040539432651
40
0.501040539432651
40
0.626300674290676
40
0.626300674290676
40
0.751560809148702
40
0.751560809148702
40
0.814190876577715
40
0.814190876577715
40
0.876820944006728
40
0.876820944006728
40
1
40
1
40
1
40
1
41
1
10
116.884539102779
20
202.878438476925
30
0
41
1
10
116.861969738009
20
202.892541381262
30
0
41
1
10
116.839069542146
20
202.90528753784
30
0
41
1
10
116.804363289798
20
202.922492952429
30
0
41
1
10
116.792735340376
20
202.927908568059
30
0
41
1
10
116.769388325154
20
202.938115414866
30
0
41
1
10
116.757637977817
20
202.942914681262
30
0
41
1
10
116.723134078386
20
202.956097982864
30
0
41
1
10
116.700856309602
20
202.96339571154
30
0
41
1
10
116.668778291589
20
202.972519850277
30
0
41
1
10
116.65826661822
20
202.975266763132
30
0
41
1
10
116.63795026488
20
202.980164969434
30
0
41
1
10
116.628234590367
20
202.982297494701
30
0
41
1
10
116.600416638778
20
202.987915156452
30
0
41
1
10
116.583631412903
20
202.990626303498
30
0
41
1
10
116.553855806875
20
202.994688501868
30
0
41
1
10
116.541317206671
20
202.995983485728
30
0
41
1
10
116.526051831626
20
202.99733470777
30
0
41
1
10
116.521550702461
20
202.997684608012
30
0
41
1
10
116.51375471489
20
202.998241968779
30
0
41
1
10
116.510471977556
20
202.998448492799
30
0
41
1
10
116.502725495994
20
202.998906889608
30
0
41
1
10
116.500067137092
20
202.999026361188
30
0
41
1
10
116.500010151683
20
202.999028916167
30
0
0
SPLINE
5
2EF
100
AcDbEntity
8
1
62
256
6
ByLayer
370
18
48
1
60
0
100
AcDbSpline
70
4
71
3
72
103
73
99
40
0
40
0
40
0
40
0
40
0.0013999647163254
40
0.0013999647163254
40
0.0326062158189175
40
0.0326062158189175
40
0.0482093413702132
40
0.0482093413702132
40
0.0560109041458605
40
0.0560109041458605
40
0.0638124669215076
40
0.0638124669215076
40
0.0950187180240979
40
0.0950187180240979
40
0.126224969126688
40
0.126224969126688
40
0.134026531902336
40
0.134026531902336
40
0.141828094677985
40
0.141828094677985
40
0.157431220229285
40
0.173034345780585
40
0.173034345780585
40
0.176935127168411
40
0.176935127168411
40
0.180835908556236
40
0.188637471331886
40
0.188637471331886
40
0.219843722434488
40
0.219843722434488
40
0.25104997353709
40
0.25104997353709
40
0.282256224639695
40
0.282256224639695
40
0.290057787415348
40
0.290057787415348
40
0.297859350191
40
0.313462475742307
40
0.313462475742307
40
0.34466872684492
40
0.34466872684492
40
0.375874977947534
40
0.375874977947534
40
0.391478103498842
40
0.399279666274497
40
0.399279666274497
40
0.407081229050151
40
0.407081229050151
40
0.438287480152772
40
0.438287480152772
40
0.469493731255393
40
0.500699982358013
40
0.531906233460633
40
0.531906233460633
40
0.539707796236289
40
0.539707796236289
40
0.547509359011944
40
0.547509359011944
40
0.563112484563258
40
0.563112484563258
40
0.594318735665883
40
0.625524986768507
40
0.625524986768507
40
0.656731237871132
40
0.656731237871132
40
0.672334363422444
40
0.680135926198098
40
0.680135926198098
40
0.687937488973752
40
0.687937488973752
40
0.719143740076374
40
0.750349991178995
40
0.750349991178995
40
0.781556242281616
40
0.781556242281616
40
0.812762493384237
40
0.812762493384237
40
0.820564056159893
40
0.820564056159893
40
0.828365618935549
40
0.828365618935549
40
0.843968744486864
40
0.843968744486864
40
0.875174995589493
40
0.875174995589493
40
0.906381246692122
40
0.906381246692122
40
0.937587497794751
40
0.937587497794751
40
0.953190623346066
40
0.953190623346066
40
0.957091404733895
40
0.957091404733895
40
0.960992186121723
40
0.960992186121723
40
0.968793748897378
40
0.968793748897378
40
1
40
1
40
1
40
1
41
1
10
112.537409734739
20
211.644815802158
30
0
41
1
10
112.537413169562
20
211.644816879672
30
0
41
1
10
112.537386269716
20
211.644808678592
30
0
41
1
10
112.536054242332
20
211.644401779321
30
0
41
1
10
112.519725909958
20
211.639406244397
30
0
41
1
10
112.472736367493
20
211.625104542947
30
0
41
1
10
112.453317324523
20
211.619202063322
30
0
41
1
10
112.418507170676
20
211.608653628817
30
0
41
1
10
112.405949737855
20
211.604852975272
30
0
41
1
10
112.378955087248
20
211.596696143352
30
0
41
1
10
112.364576056817
20
211.592357553776
30
0
41
1
10
112.288371443725
20
211.569406659165
30
0
41
1
10
112.213656105222
20
211.547027418786
30
0
41
1
10
112.038597525914
20
211.495208412099
30
0
41
1
10
111.938247861435
20
211.465766427724
30
0
41
1
10
111.797418009046
20
211.425073516765
30
0
41
1
10
111.768480521961
20
211.416740166362
30
0
41
1
10
111.7090710115
20
211.399696176805
30
0
41
1
10
111.678575433166
20
211.390978877195
30
0
41
1
10
111.585125665088
20
211.364372755794
30
0
41
1
10
111.455141329163
20
211.327643014842
30
0
41
1
10
111.314752765925
20
211.28866181446
30
0
41
1
10
111.223843476489
20
211.263670302305
30
0
41
1
10
111.205585723249
20
211.258663223401
30
0
41
1
10
111.168760128721
20
211.248589104133
30
0
41
1
10
111.113127220587
20
211.23340741048
30
0
41
1
10
111.05632605573
20
211.21802349286
30
0
41
1
10
110.864453783209
20
211.166334065521
30
0
41
1
10
110.702867497105
20
211.123676767173
30
0
41
1
10
110.364672353554
20
211.036670862703
30
0
41
1
10
110.188059008333
20
210.992320245995
30
0
41
1
10
109.820434477103
20
210.902745272943
30
0
41
1
10
109.629421230408
20
210.857519464376
30
0
41
1
10
109.381784196931
20
210.800923136469
30
0
41
1
10
109.331888679962
20
210.789618214344
30
0
41
1
10
109.23157624813
20
210.767094618787
30
0
41
1
10
109.080230545561
20
210.733416877855
30
0
41
1
10
108.926293255802
20
210.700108940463
30
0
41
1
10
108.615043663538
20
210.634106385884
30
0
41
1
10
108.403051025686
20
210.590923188854
30
0
41
1
10
107.970319018959
20
210.50680743188
30
0
41
1
10
107.749578697076
20
210.465874128972
30
0
41
1
10
107.411922744744
20
210.406609663996
30
0
41
1
10
107.241455992823
20
210.377511227579
30
0
41
1
10
107.068512706947
20
210.349297816886
30
0
41
1
10
106.952663337328
20
210.330695005087
30
0
41
1
10
106.894437895856
20
210.321493234496
30
0
41
1
10
106.60299640174
20
210.276188461543
30
0
41
1
10
106.368026276794
20
210.242065406871
30
0
41
1
10
105.894524929119
20
210.178394060877
30
0
41
1
10
105.417461818231
20
210.119297154551
30
0
41
1
10
104.691196570794
20
210.045327394181
30
0
41
1
10
104.199792778545
20
210.006409257723
30
0
41
1
10
103.890333197431
20
209.985519762489
30
0
41
1
10
103.828324509148
20
209.981513568362
30
0
41
1
10
103.704071089525
20
209.97384918639
30
0
41
1
10
103.641822116548
20
209.970191258813
30
0
41
1
10
103.455506751112
20
209.959787472529
30
0
41
1
10
103.331609445937
20
209.953594910919
30
0
41
1
10
102.960845665056
20
209.937219124633
30
0
41
1
10
102.468966018496
20
209.921257615586
30
0
41
1
10
101.981990312024
20
209.916718672945
30
0
41
1
10
101.497494275959
20
209.917710099819
30
0
41
1
10
101.256485910975
20
209.920971047197
30
0
41
1
10
100.896891747163
20
209.929857402961
30
0
41
1
10
100.717574879104
20
209.935299034551
30
0
41
1
10
100.538995489977
20
209.942206971358
30
0
41
1
10
100.420108826625
20
209.947134420183
30
0
41
1
10
100.360720347767
20
209.949760566277
30
0
41
1
10
100.064501026087
20
209.96367312059
30
0
41
1
10
99.5998462436655
20
209.990709451069
30
0
41
1
10
99.1535081386509
20
210.026001973301
30
0
41
1
10
98.7163912279234
20
210.064790102381
30
0
41
1
10
98.5024424875221
20
210.085932305022
30
0
41
1
10
98.0840459154759
20
210.131076338599
30
0
41
1
10
97.8795960342339
20
210.155078958147
30
0
41
1
10
97.6303092984052
20
210.186457886758
30
0
41
1
10
97.5807664690974
20
210.192802362981
30
0
41
1
10
97.482321494591
20
210.205617949707
30
0
41
1
10
97.4333800002159
20
210.212094361733
30
0
41
1
10
97.2877980149726
20
210.231661817285
30
0
41
1
10
97.192851544874
20
210.244829392075
30
0
41
1
10
96.9143151442946
20
210.284536833658
30
0
41
1
10
96.7370137796147
20
210.311281022576
30
0
41
1
10
96.3994167731685
20
210.364467549019
30
0
41
1
10
96.2391189178267
20
210.390911271649
30
0
41
1
10
95.9362419081533
20
210.442648850517
30
0
41
1
10
95.7936577700749
20
210.467944408726
30
0
41
1
10
95.5940485462263
20
210.5043526785
30
0
41
1
10
95.5298950325267
20
210.516232388566
30
0
41
1
10
95.4528291790828
20
210.530685410142
30
0
41
1
10
95.4375724456976
20
210.533556163754
30
0
41
1
10
95.4073761035958
20
210.539255980973
30
0
41
1
10
95.3924300243266
20
210.542086287069
30
0
41
1
10
95.3482158273068
20
210.550484650392
30
0
41
1
10
95.3195263425616
20
210.55596866755
30
0
41
1
10
95.1800116921582
20
210.582786861956
30
0
41
1
10
95.0809561335286
20
210.602314915998
30
0
41
1
10
94.9946790849306
20
210.619571507916
30
0
0
SPLINE
5
2F0
100
AcDbEntity
8
1
62
256
6
ByLayer
370
18
48
1
60
0
100
AcDbSpline
70
4
71
3
72
8
73
4
40
0
40
0
40
0
40
0
40
1
40
1
40
1
40
1
41
1
10
101.639353317245
20
208.040659793116
30
0
41
1
10
102.090257892704
20
208.034995026781
30
0
41
1
10
102.54379333697
20
208.043811653563
30
0
41
1
10
103
20
208.067720431666
30
0
0
SPLINE
5
2F1
100
AcDbEntity
8
1
62
256
6
ByLayer
370
18
48
1
60
0
100
AcDbSpline
70
4
71
3
72
29
73
25
40
0
40
0
40
0
40
0
40
0.124999999999942
40
0.124999999999942
40
0.187499999999915
40
0.187499999999915
40
0.249999999999887
40
0.249999999999887
40
0.374999999999833
40
0.374999999999833
40
0.437499999999877
40
0.437499999999877
40
0.49999999999992
40
0.562499999999964
40
0.562499999999964
40
0.625000000000008
40
0.625000000000008
40
0.750000000000097
40
0.750000000000097
40
0.812500000000137
40
0.812500000000137
40
0.875000000000176
40
0.875000000000176
40
1
40
1
40
1
40
1
41
1
10
114.408174669942
20
211.62239190585
30
0
41
1
10
114.407261843168
20
211.625026393249
30
0
41
1
10
114.409118907392
20
211.62772252926
30
0
41
1
10
114.415948897371
20
211.631860604302
30
0
41
1
10
114.418904564615
20
211.633255793465
30
0
41
1
10
114.42621648499
20
211.636080423212
30
0
41
1
10
114.430567485459
20
211.637504539724
30
0
41
1
10
114.445413844829
20
211.641732821959
30
0
41
1
10
114.457760926982
20
211.644524238024
30
0
41
1
10
114.479947971763
20
211.64868661394
30
0
41
1
10
114.487998492254
20
211.65007526558
30
0
41
1
10
114.504985677847
20
211.652787291849
30
0
41
1
10
114.52292075384
20
211.655447474271
30
0
41
1
10
114.542695980752
20
211.65801326464
30
0
41
1
10
114.563390997901
20
211.660534980115
30
0
41
1
10
114.574258864002
20
211.661780157982
30
0
41
1
10
114.607790171665
20
211.665400242106
30
0
41
1
10
114.631269362719
20
211.667653696556
30
0
41
1
10
114.668094762865
20
211.670820114259
30
0
41
1
10
114.680639669334
20
211.671839624676
30
0
41
1
10
114.7062790426
20
211.673807289296
30
0
41
1
10
114.71922871014
20
211.674744178159
30
0
41
1
10
114.758284865855
20
211.6774084696
30
0
41
1
10
114.784670515387
20
211.678996746554
30
0
41
1
10
114.811406912313
20
211.680397941743
30
0
0
SPLINE
5
2F2
100
AcDbEntity
8
1
62
256
6
ByLayer
370
18
48
1
60
0
100
AcDbSpline
70
4
71
3
72
12
73
8
40
0
40
0
40
0
40
0
40
0.500000000000061
40
0.500000000000061
40
0.75000000000003
40
0.75000000000003
40
1
40
1
40
1
40
1
41
1
10
116.5
20
205.248552466183
30
0
41
1
10
116.5
20
205.362669146736
30
0
41
1
10
116.490312075139
20
205.474335340552
30
0
41
1
10
116.462407025071
20
205.638473847558
30
0
41
1
10
116.450854369779
20
205.692653476982
30
0
41
1
10
116.423331738361
20
205.799781551128
30
0
41
1
10
116.407520065376
20
205.852129245612
30
0
41
1
10
116.389774976893
20
205.903342918703
30
0
0
SPLINE
5
2F3
100
AcDbEntity
8
1
62
256
6
ByLayer
370
18
48
1
60
0
100
AcDbSpline
70
4
71
3
72
31
73
27
40
0
40
0
40
0
40
0
40
0.0312500000000153
40
0.0468750000000187
40
0.0468750000000187
40
0.062500000000022
40
0.062500000000022
40
0.125000000000016
40
0.125000000000016
40
0.250000000000002
40
0.250000000000002
40
0.374999999999988
40
0.374999999999988
40
0.499999999999973
40
0.499999999999973
40
0.531249999999974
40
0.531249999999974
40
0.562499999999974
40
0.562499999999974
40
0.624999999999975
40
0.624999999999975
40
0.749999999999984
40
0.749999999999984
40
0.874999999999992
40
0.874999999999992
40
1
40
1
40
1
40
1
41
1
10
114.793423689275
20
210.510533976637
30
0
41
1
10
114.690218495082
20
210.47762361284
30
0
41
1
10
114.53402016723
20
210.427959585728
30
0
41
1
10
114.37571199209
20
210.37791690565
30
0
41
1
10
114.269701267459
20
210.344478696188
30
0
41
1
10
114.216447113485
20
210.327717385919
30
0
41
1
10
113.949507596489
20
210.243901739645
30
0
41
1
10
113.733432404571
20
210.17669901216
30
0
41
1
10
113.077607520094
20
209.975400874376
30
0
41
1
10
112.630275335171
20
209.841617668919
30
0
41
1
10
111.714816846842
20
209.578817158195
30
0
41
1
10
111.246691490283
20
209.449794427945
30
0
41
1
10
110.288533490935
20
209.200431322342
30
0
41
1
10
109.798503810992
20
209.080086595576
30
0
41
1
10
109.171200058121
20
208.937617456809
30
0
41
1
10
109.044938769219
20
208.90950910542
30
0
41
1
10
108.791193023879
20
208.854218410014
30
0
41
1
10
108.663896678006
20
208.827077121512
30
0
41
1
10
108.281297917752
20
208.74735889171
30
0
41
1
10
108.025057467998
20
208.696438224553
30
0
41
1
10
107.25276309699
20
208.550884543695
30
0
41
1
10
106.733139845199
20
208.463470699254
30
0
41
1
10
105.684017044932
20
208.310478540701
30
0
41
1
10
105.154517383793
20
208.244901736351
30
0
41
1
10
104.085168647285
20
208.13781097337
30
0
41
1
10
103.545319945372
20
208.096299439002
30
0
41
1
10
103
20
208.067720431666
30
0
0
SPLINE
5
2F4
100
AcDbEntity
8
1
62
256
6
ByLayer
370
18
48
1
60
0
100
AcDbSpline
70
4
71
3
72
8
73
4
40
0
40
0
40
0
40
0
40
1
40
1
40
1
40
1
41
1
10
116.460603691393
20
203
30
0
41
1
10
116.473794256776
20
203
30
0
41
1
10
116.486925947824
20
202.999673986816
30
0
41
1
10
116.5
20
202.999029367963
30
0
0
SPLINE
5
2F5
100
AcDbEntity
8
1
62
256
6
ByLayer
370
18
48
1
60
0
100
AcDbSpline
70
4
71
3
72
55
73
51
40
0
40
0
40
0
40
0
40
0.0003545697494539
40
0.0003545697494539
40
0.0628324091401049
40
0.0628324091401049
40
0.125310248530756
40
0.125310248530756
40
0.187788087921407
40
0.187788087921407
40
0.219027007616732
40
0.219027007616732
40
0.226836737540564
40
0.226836737540564
40
0.234646467464396
40
0.250265927312061
40
0.250265927312061
40
0.312743766702711
40
0.312743766702711
40
0.375221606093363
40
0.375221606093363
40
0.437699445484013
40
0.437699445484013
40
0.453318905331676
40
0.453318905331676
40
0.468938365179339
40
0.500177284874665
40
0.500177284874665
40
0.562655124265316
40
0.625132963655968
40
0.625132963655968
40
0.656371883351291
40
0.656371883351291
40
0.671991343198951
40
0.679801073122783
40
0.679801073122783
40
0.687610803046616
40
0.687610803046616
40
0.750088642437298
40
0.750088642437298
40
0.812566481827981
40
0.875044321218663
40
0.875044321218663
40
0.906283240914004
40
0.906283240914004
40
0.921902700761673
40
0.921902700761673
40
0.937522160609341
40
0.937522160609341
40
1
40
1
40
1
40
1
41
1
10
91.2500013807182
20
207.15000011425
30
0
41
1
10
91.2500003840246
20
207.150000031776
30
0
41
1
10
91.2499988409367
20
207.14999990409
30
0
41
1
10
91.2500445692906
20
207.150003688013
30
0
41
1
10
91.2665289375817
20
207.151367525732
30
0
41
1
10
91.331401265375
20
207.156737270291
30
0
41
1
10
91.3797915834127
20
207.160743373469
30
0
41
1
10
91.5083185205849
20
207.17139205836
30
0
41
1
10
91.5884541788482
20
207.178034539643
30
0
41
1
10
91.732939643607
20
207.190024121879
30
0
41
1
10
91.7851547115031
20
207.194358852005
30
0
41
1
10
91.8555893937206
20
207.200209568549
30
0
41
1
10
91.8699351667374
20
207.201401373527
30
0
41
1
10
91.8990686653021
20
207.203822049905
30
0
41
1
10
91.9434592054715
20
207.207510937087
30
0
41
1
10
91.9899089979818
20
207.211372624855
30
0
41
1
10
92.149273546104
20
207.224625938024
30
0
41
1
10
92.2912383923217
20
207.236445304042
30
0
41
1
10
92.6034604233487
20
207.262483179958
30
0
41
1
10
92.7737188365392
20
207.276701760391
30
0
41
1
10
93.1425856433641
20
207.307567166573
30
0
41
1
10
93.3411923357304
20
207.324213798518
30
0
41
1
10
93.6076494444094
20
207.346598269284
30
0
41
1
10
93.6618766034118
20
207.351156156407
30
0
41
1
10
93.7720734881442
20
207.360423591387
30
0
41
1
10
93.9394867710807
20
207.374510528652
30
0
41
1
10
94.113180214888
20
207.389150465742
30
0
41
1
10
94.4687976269325
20
207.419160741602
30
0
41
1
10
94.9648685108411
20
207.461119196113
30
0
41
1
10
95.5040952150169
20
207.506968625468
30
0
41
1
10
95.924847252527
20
207.542851901811
30
0
41
1
10
96.0678240641962
20
207.555062741508
30
0
41
1
10
96.2864357177286
20
207.573761865311
30
0
41
1
10
96.3967785691734
20
207.583207182383
30
0
41
1
10
96.5086915840875
20
207.592798046175
30
0
41
1
10
96.5836510924319
20
207.599224538525
30
0
41
1
10
96.6213229073099
20
207.60245550565
30
0
41
1
10
96.9611139156167
20
207.63160959116
30
0
41
1
10
97.2696914884168
20
207.658167064512
30
0
41
1
10
97.899502409733
20
207.712555596392
30
0
41
1
10
98.5419715029509
20
207.768217892613
30
0
41
1
10
99.2095503743515
20
207.826462152259
30
0
41
1
10
99.7198067948731
20
207.871148463608
30
0
41
1
10
99.8914900815214
20
207.886211318625
30
0
41
1
10
100.151454441919
20
207.909063330721
30
0
41
1
10
100.238621146339
20
207.916732912327
30
0
41
1
10
100.413013086384
20
207.932091984383
30
0
41
1
10
100.500284788287
20
207.939785540359
30
0
41
1
10
100.937018121736
20
207.978323485722
30
0
41
1
10
101.287601817519
20
208.009378146377
30
0
41
1
10
101.639353317245
20
208.040659793116
30
0
0
SPLINE
5
2F6
100
AcDbEntity
8
1
62
256
6
ByLayer
370
18
48
1
60
0
100
AcDbSpline
70
4
71
3
72
46
73
42
40
0
40
0
40
0
40
0
40
0.124999999999997
40
0.124999999999997
40
0.187499999999997
40
0.187499999999997
40
0.203124999999997
40
0.203124999999997
40
0.218749999999997
40
0.249999999999994
40
0.249999999999994
40
0.312499999999985
40
0.374999999999976
40
0.374999999999976
40
0.437499999999967
40
0.437499999999967
40
0.499999999999958
40
0.499999999999958
40
0.531249999999954
40
0.531249999999954
40
0.546874999999955
40
0.546874999999955
40
0.562499999999955
40
0.562499999999955
40
0.624999999999956
40
0.624999999999956
40
0.687499999999957
40
0.687499999999957
40
0.749999999999958
40
0.749999999999958
40
0.812499999999959
40
0.812499999999959
40
0.828124999999959
40
0.828124999999959
40
0.843749999999959
40
0.843749999999959
40
0.874999999999965
40
0.874999999999965
40
0.937499999999982
40
0.937499999999982
40
1
40
1
40
1
40
1
41
1
10
94.9946790849307
20
210.619571507916
30
0
41
1
10
95.0748374943373
20
210.576432822788
30
0
41
1
10
95.1814378112754
20
210.519270351304
30
0
41
1
10
95.3808875135138
20
210.41358603756
30
0
41
1
10
95.4539775013892
20
210.37503249412
30
0
41
1
10
95.5537145417965
20
210.322788060823
30
0
41
1
10
95.5740778352797
20
210.312138260908
30
0
41
1
10
95.6155133516094
20
210.290505612612
30
0
41
1
10
95.6787762247649
20
210.257532907497
30
0
41
1
10
95.7453411493932
20
210.223023326015
30
0
41
1
10
95.8828176916562
20
210.152044114848
30
0
41
1
10
96.0777004623972
20
210.05217961439
30
0
41
1
10
96.2954072879476
20
209.942784805084
30
0
41
1
10
96.5245434563334
20
209.829085479025
30
0
41
1
10
96.6448249436304
20
209.770082741715
30
0
41
1
10
96.8970447346944
20
209.648253087849
30
0
41
1
10
97.0289807749473
20
209.585425071285
30
0
41
1
10
97.2359949448443
20
209.488711785226
30
0
41
1
10
97.3065202765645
20
209.456062628093
30
0
41
1
10
97.4146592193431
20
209.406527379411
30
0
41
1
10
97.4511205795393
20
209.389911670165
30
0
41
1
10
97.5247267599132
20
209.35655495387
30
0
41
1
10
97.5618500917703
20
209.33982356441
30
0
41
1
10
97.7490807072767
20
209.255933161786
30
0
41
1
10
97.9040160425925
20
209.188068418562
30
0
41
1
10
98.2247248715559
20
209.051722501844
30
0
41
1
10
98.3904940113127
20
208.983238251358
30
0
41
1
10
98.7338184791662
20
208.846721363875
30
0
41
1
10
98.9113661237574
20
208.778683883338
30
0
41
1
10
99.279786042812
20
208.644427532753
30
0
41
1
10
99.4706443382623
20
208.57820043509
30
0
41
1
10
99.7190699074411
20
208.497712197489
30
0
41
1
10
99.769250538869
20
208.481730917901
30
0
41
1
10
99.8706542944874
20
208.450037449506
30
0
41
1
10
99.9217295083055
20
208.434371744621
30
0
41
1
10
100.075988159039
20
208.388011516552
30
0
41
1
10
100.180256365193
20
208.357935861574
30
0
41
1
10
100.497678460107
20
208.27069273015
30
0
41
1
10
100.715419486134
20
208.216479813601
30
0
41
1
10
101.165542548056
20
208.119171946695
30
0
41
1
10
101.397909709068
20
208.076064009922
30
0
41
1
10
101.639353317245
20
208.040659793116
30
0
0
SPLINE
5
2F7
100
AcDbEntity
8
1
62
256
6
ByLayer
370
18
48
1
60
0
100
AcDbSpline
70
4
71
3
72
17
73
13
40
0
40
0
40
0
40
0
40
0.124678562059653
40
0.124678562059653
40
0.187017843089477
40
0.187017843089477
40
0.2493571241193
40
0.498714248238586
40
0.498714248238586
40
0.997428496477158
40
0.997428496477158
40
1
40
1
40
1
40
1
41
1
10
94.994679084931
20
210.619571507915
30
0
41
1
10
94.970503691458
20
210.618240328808
30
0
41
1
10
94.9477589134624
20
210.616987866381
30
0
41
1
10
94.9158176800797
20
210.615228929562
30
0
41
1
10
94.9055251076604
20
210.61466212789
30
0
41
1
10
94.8857132874177
20
210.613571091982
30
0
41
1
10
94.838146409426
20
210.610951536901
30
0
41
1
10
94.8003006595596
20
210.60886714156
30
0
41
1
10
94.7277196957057
20
210.604869537151
30
0
41
1
10
94.7035914790134
20
210.603540432336
30
0
41
1
10
94.703536270209
20
210.603537391287
30
0
41
1
10
94.7035376401721
20
210.603537466749
30
0
41
1
10
94.7035386387583
20
210.603537521754
30
0
0
SPLINE
5
2F8
100
AcDbEntity
8
1
62
256
6
ByLayer
370
18
48
1
60
0
100
AcDbSpline
70
4
71
3
72
51
73
47
40
0
40
0
40
0
40
0
40
0.0625000000000847
40
0.0625000000000847
40
0.12500000000017
40
0.12500000000017
40
0.140625000000178
40
0.140625000000178
40
0.156250000000187
40
0.156250000000187
40
0.187500000000185
40
0.187500000000185
40
0.2500000000002
40
0.2500000000002
40
0.312500000000215
40
0.312500000000215
40
0.37500000000023
40
0.37500000000023
40
0.390625000000228
40
0.390625000000228
40
0.406250000000227
40
0.437500000000224
40
0.437500000000224
40
0.500000000000194
40
0.500000000000194
40
0.531250000000168
40
0.531250000000168
40
0.562500000000142
40
0.562500000000142
40
0.625000000000091
40
0.625000000000091
40
0.687500000000041
40
0.687500000000041
40
0.718750000000026
40
0.718750000000026
40
0.750000000000011
40
0.750000000000011
40
0.812500000000002
40
0.812500000000002
40
0.874999999999992
40
0.874999999999992
40
0.906249999999998
40
0.906249999999998
40
0.937500000000003
40
0.937500000000003
40
1
40
1
40
1
40
1
41
1
10
66.3124905918148
20
180.316563038124
30
0
41
1
10
66.3650592763502
20
180.374857885344
30
0
41
1
10
66.4132185065855
20
180.43501550514
30
0
41
1
10
66.5019064904064
20
180.559068992593
30
0
41
1
10
66.5424245332982
20
180.622963921976
30
0
41
1
10
66.5887163158179
20
180.705233651168
30
0
41
1
10
66.5977560249873
20
180.721807914983
30
0
41
1
10
66.6154057198784
20
180.755199846836
30
0
41
1
10
66.624026547952
20
180.772039984464
30
0
41
1
10
66.6491484699849
20
180.822713323017
30
0
41
1
10
66.6649227000286
20
180.856716606274
30
0
41
1
10
66.7095311653741
20
180.959437855716
30
0
41
1
10
66.7356604091583
20
181.028863737558
30
0
41
1
10
66.7815131982113
20
181.169924831862
30
0
41
1
10
66.8012336584047
20
181.241557937565
30
0
41
1
10
66.8348104621105
20
181.387485064555
30
0
41
1
10
66.8486678228408
20
181.461777485134
30
0
41
1
10
66.8625223858083
20
181.556710560486
30
0
41
1
10
66.865119424036
20
181.575807451047
30
0
41
1
10
66.8699407605567
20
181.613988422304
30
0
41
1
10
66.8766260882589
20
181.671323814491
30
0
41
1
10
66.8817164438655
20
181.728859277642
30
0
41
1
10
66.8898564752342
20
181.844216490954
30
0
41
1
10
66.8925789507175
20
181.921505284117
30
0
41
1
10
66.8926852731649
20
182.038062765694
30
0
41
1
10
66.8920537767624
20
182.077018784902
30
0
41
1
10
66.8894189674706
20
182.155138729854
30
0
41
1
10
66.887404504437
20
182.194406254044
30
0
41
1
10
66.8793284816625
20
182.310925426523
30
0
41
1
10
66.871246317937
20
182.387343806874
30
0
41
1
10
66.8494593548663
20
182.538125993912
30
0
41
1
10
66.8357500722275
20
182.612492210107
30
0
41
1
10
66.810547505899
20
182.722811361605
30
0
41
1
10
66.8013534573386
20
182.759442345217
30
0
41
1
10
66.7814104666351
20
182.832017451036
30
0
41
1
10
66.7706799647935
20
182.867907133464
30
0
41
1
10
66.7361304408336
20
182.974473872858
30
0
41
1
10
66.7099614202677
20
183.04405308716
30
0
41
1
10
66.6507507067081
20
183.180633733163
30
0
41
1
10
66.6177143474126
20
183.247632980022
30
0
41
1
10
66.562320140958
20
183.346371418985
30
0
41
1
10
66.542879201101
20
183.378990101742
30
0
41
1
10
66.501881227901
20
183.443662623714
30
0
41
1
10
66.4804502735037
20
183.475512902695
30
0
41
1
10
66.413419915732
20
183.569362220974
30
0
41
1
10
66.3650294574397
20
183.629775181658
30
0
41
1
10
66.3124905918148
20
183.688036961876
30
0
0
SPLINE
5
2F9
100
AcDbEntity
8
1
62
256
6
ByLayer
370
18
48
1
60
0
100
AcDbSpline
70
4
71
3
72
32
73
28
40
0
40
0
40
0
40
0
40
0.0312499999999669
40
0.0312499999999669
40
0.0624999999999341
40
0.124999999999928
40
0.187499999999921
40
0.187499999999921
40
0.249999999999914
40
0.249999999999914
40
0.37499999999992
40
0.37499999999992
40
0.499999999999925
40
0.499999999999925
40
0.562499999999896
40
0.562499999999896
40
0.624999999999866
40
0.687499999999837
40
0.687499999999837
40
0.749999999999808
40
0.749999999999808
40
0.812499999999779
40
0.843749999999814
40
0.843749999999814
40
0.874999999999849
40
0.874999999999849
40
1
40
1
40
1
40
1
41
1
10
79
20
136.835305244258
30
0
41
1
10
79.0000000000001
20
136.840633318756
30
0
41
1
10
79.0001206943908
20
136.846024838437
30
0
41
1
10
79.0006041018803
20
136.856731942742
30
0
41
1
10
79.0016914505882
20
136.872755232468
30
0
41
1
10
79.0053087308257
20
136.899274854107
30
0
41
1
10
79.010154047026
20
136.920291021046
30
0
41
1
10
79.0160104322216
20
136.941204892796
30
0
41
1
10
79.0194529845535
20
136.951633475295
30
0
41
1
10
79.0313282383249
20
136.982602341529
30
0
41
1
10
79.0412147855056
20
137.002644721624
30
0
41
1
10
79.0652382997022
20
137.041443534256
30
0
41
1
10
79.0793649612095
20
137.060202882338
30
0
41
1
10
79.1043700124079
20
137.087204939841
30
0
41
1
10
79.113290060583
20
137.095946230762
30
0
41
1
10
79.1321851689085
20
137.112690357652
30
0
41
1
10
79.1521870342864
20
137.128754269038
30
0
41
1
10
79.1745953975711
20
137.143346132774
30
0
41
1
10
79.1983601487023
20
137.157112003797
30
0
41
1
10
79.2109318983836
20
137.163573251513
30
0
41
1
10
79.2369117292918
20
137.175239881098
30
0
41
1
10
79.2571336572785
20
137.183117773935
30
0
41
1
10
79.2785616779281
20
137.189572389205
30
0
41
1
10
79.2931327764906
20
137.193538619356
30
0
41
1
10
79.3005579618444
20
137.195350482972
30
0
41
1
10
79.3378014450057
20
137.20339212604
30
0
41
1
10
79.3684394041097
20
137.206751150103
30
0
41
1
10
79.4
20
137.206751150103
30
0
0
LINE
5
74
100
AcDbEntity
8
80
62
256
6
ByLayer
370
18
48
0.05
60
0
100
AcDbLine
10
0
20
0
30
0
11
-53
21
0
31
0
39
0
210
0
220
0
230
1
0
LINE
5
75
100
AcDbEntity
8
SK3
62
256
6
ByLayer
370
13
48
0.05
60
0
100
AcDbLine
10
1.03923
20
-20.00625
30
0
11
18
21
-20.00625
31
0
39
0
210
0
220
0
230
1
0
LINE
5
77
100
AcDbEntity
8
SK3
62
256
6
ByLayer
370
13
48
0.05
60
0
100
AcDbLine
10
18
20
20.00625
30
0
11
1.03923
21
20.00625
31
0
39
0
210
0
220
0
230
1
0
LINE
5
78
100
AcDbEntity
8
SK3
62
256
6
ByLayer
370
13
48
0.05
60
0
100
AcDbLine
10
26.2
20
21
30
0
11
18.8
21
21
31
0
39
0
210
0
220
0
230
1
0
LINE
5
79
100
AcDbEntity
8
SK3
62
256
6
ByLayer
370
13
48
0.05
60
0
100
AcDbLine
10
1.03923
20
20.00625
30
0
11
0
21
20.60625
31
0
39
0
210
0
220
0
230
1
0
LINE
5
7A
100
AcDbEntity
8
SK3
62
256
6
ByLayer
370
13
48
0.05
60
0
100
AcDbLine
10
18.8
20
-21
30
0
11
26.2
21
-21
31
0
39
0
210
0
220
0
230
1
0
LINE
5
7B
100
AcDbEntity
8
SK3
62
256
6
ByLayer
370
13
48
0.05
60
0
100
AcDbLine
10
1.03923
20
-20.00625
30
0
11
1.03923
21
20.00625
31
0
39
0
210
0
220
0
230
1
0
LINE
5
7C
100
AcDbEntity
8
SK3
62
256
6
ByLayer
370
13
48
0.05
60
0
100
AcDbLine
10
18
20
-20.2
30
0
11
18
21
20.2
31
0
39
0
210
0
220
0
230
1
0
LINE
5
7D
100
AcDbEntity
8
SK3
62
256
6
ByLayer
370
13
48
0.05
60
0
100
AcDbLine
10
18.8
20
-21
30
0
11
18.8
21
21
31
0
39
0
210
0
220
0
230
1
0
LINE
5
7E
100
AcDbEntity
8
SK3
62
256
6
ByLayer
370
13
48
0.05
60
0
100
AcDbLine
10
26.2
20
-21
30
0
11
26.2
21
21
31
0
39
0
210
0
220
0
230
1
0
LINE
5
7F
100
AcDbEntity
8
SK3
62
256
6
ByLayer
370
13
48
0.05
60
0
100
AcDbLine
10
27
20
-20.2
30
0
11
27
21
20.2
31
0
39
0
210
0
220
0
230
1
0
LINE
5
80
100
AcDbEntity
8
4
62
256
6
ByLayer
370
18
48
0.05
60
0
100
AcDbLine
10
0
20
0
30
0
11
67
21
0
31
0
39
0
210
0
220
0
230
1
0
LINE
5
82
100
AcDbEntity
8
SK4
62
256
6
ByLayer
370
18
48
0.05
60
0
100
AcDbLine
10
-9.861822
20
0
30
0
11
70.138178
21
0
31
0
39
0
210
0
220
0
230
1
0
LINE
5
84
100
AcDbEntity
8
1
62
256
6
ByLayer
370
18
48
1
60
0
100
AcDbLine
10
98.457318
20
156.444293
30
0
11
98.443952
21
156.444293
31
0
39
0
210
0
220
0
230
1
0
LINE
5
86
100
AcDbEntity
8
1
62
256
6
ByLayer
370
18
48
1
60
0
100
AcDbLine
10
93.556048
20
156.444293
30
0
11
93.542682
21
156.444293
31
0
39
0
210
0
220
0
230
1
0
LINE
5
87
100
AcDbEntity
8
1
62
256
6
ByLayer
370
18
48
1
60
0
100
AcDbLine
10
90.829197
20
156.180947
30
0
11
90.831865
21
156.202113
31
0
39
0
210
0
220
0
230
1
0
LINE
5
88
100
AcDbEntity
8
1
62
256
6
ByLayer
370
18
48
1
60
0
100
AcDbLine
10
101.170803
20
156.180947
30
0
11
101.168135
21
156.202113
31
0
39
0
210
0
220
0
230
1
0
LINE
5
89
100
AcDbEntity
8
1
62
256
6
ByLayer
370
18
48
1
60
0
100
AcDbLine
10
102.696174
20
156.411796
30
0
11
102.698578
21
156.39542
31
0
39
0
210
0
220
0
230
1
0
LINE
5
8A
100
AcDbEntity
8
1
62
256
6
ByLayer
370
18
48
1
60
0
100
AcDbLine
10
89.303826
20
156.411796
30
0
11
89.301422
21
156.39542
31
0
39
0
210
0
220
0
230
1
0
LINE
5
8B
100
AcDbEntity
8
1
62
256
6
ByLayer
370
18
48
1
60
0
100
AcDbLine
10
103.530824
20
156.408141
30
0
11
103.532926
21
156.39542
31
0
39
0
210
0
220
0
230
1
0
LINE
5
8C
100
AcDbEntity
8
1
62
256
6
ByLayer
370
18
48
1
60
0
100
AcDbLine
10
88.469176
20
156.408141
30
0
11
88.467074
21
156.39542
31
0
39
0
210
0
220
0
230
1
0
LINE
5
8D
100
AcDbEntity
8
1
62
256
6
ByLayer
370
18
48
1
60
0
100
AcDbLine
10
104.246709
20
156.405179
30
0
11
104.248476
21
156.39542
31
0
39
0
210
0
220
0
230
1
0
LINE
5
8E
100
AcDbEntity
8
1
62
256
6
ByLayer
370
18
48
1
60
0
100
AcDbLine
10
87.753291
20
156.405179
30
0
11
87.751524
21
156.39542
31
0
39
0
210
0
220
0
230
1
0
LINE
5
8F
100
AcDbEntity
8
1
62
256
6
ByLayer
370
18
48
1
60
0
100
AcDbLine
10
104.832538
20
156.402656
30
0
11
104.833943
21
156.39542
31
0
39
0
210
0
220
0
230
1
0
LINE
5
90
100
AcDbEntity
8
1
62
256
6
ByLayer
370
18
48
1
60
0
100
AcDbLine
10
87.167462
20
156.402656
30
0
11
87.166057
21
156.39542
31
0
39
0
210
0
220
0
230
1
0
LINE
5
91
100
AcDbEntity
8
1
62
256
6
ByLayer
370
18
48
1
60
0
100
AcDbLine
10
87.670964
20
156.180947
30
0
11
87.671984
21
156.185943
31
0
39
0
210
0
220
0
230
1
0
LINE
5
92
100
AcDbEntity
8
1
62
256
6
ByLayer
370
18
48
1
60
0
100
AcDbLine
10
104.329036
20
156.180947
30
0
11
104.328016
21
156.185943
31
0
39
0
210
0
220
0
230
1
0
LINE
5
93
100
AcDbEntity
8
1
62
256
6
ByLayer
370
18
48
1
60
0
100
AcDbLine
10
105.579272
20
156.398353
30
0
11
105.57989
21
156.39542
31
0
39
0
210
0
220
0
230
1
0
LINE
5
94
100
AcDbEntity
8
1
62
256
6
ByLayer
370
18
48
1
60
0
100
AcDbLine
10
86.420728
20
156.398353
30
0
11
86.42011
21
156.39542
31
0
39
0
210
0
220
0
230
1
0
LINE
5
95
100
AcDbEntity
8
1
62
256
6
ByLayer
370
18
48
1
60
0
100
AcDbLine
10
105.728399
20
156.396387
30
0
11
105.728606
21
156.39542
31
0
39
0
210
0
220
0
230
1
0
LINE
5
96
100
AcDbEntity
8
1
62
256
6
ByLayer
370
18
48
1
60
0
100
AcDbLine
10
86.271601
20
156.396387
30
0
11
86.271394
21
156.39542
31
0
39
0
210
0
220
0
230
1
0
LINE
5
97
100
AcDbEntity
8
81
62
256
6
ByLayer
370
18
48
0.05
60
0
100
AcDbLine
10
126
20
213
30
0
11
136.236752
21
213
31
0
39
0
210
0
220
0
230
1
0
LINE
5
98
100
AcDbEntity
8
2
62
256
6
ByLayer
370
13
48
1
60
0
100
AcDbLine
10
156
20
213
30
0
11
155.582003
21
209.825
31
0
39
0
210
0
220
0
230
1
0
LINE
5
9A
100
AcDbEntity
8
2
62
256
6
ByLayer
370
13
48
1
60
0
100
AcDbLine
10
128
20
213
30
0
11
158
21
213
31
0
39
0
210
0
220
0
230
1
0
LINE
5
9B
100
AcDbEntity
8
2
62
256
6
ByLayer
370
13
48
1
60
0
100
AcDbLine
10
155.582003
20
209.825
30
0
11
156.417997
21
209.825
31
0
39
0
210
0
220
0
230
1
0
LINE
5
9C
100
AcDbEntity
8
2
62
256
6
ByLayer
370
13
48
1
60
0
100
AcDbLine
10
156
20
213
30
0
11
156.417997
21
209.825
31
0
39
0
210
0
220
0
230
1
0
LINE
5
9D
100
AcDbEntity
8
2
62
256
6
ByLayer
370
13
48
1
60
0
100
AcDbLine
10
155.922654
20
211.825
30
0
11
155.791002
21
209.825
31
0
39
0
210
0
220
0
230
1
0
LINE
5
9E
100
AcDbEntity
8
2
62
256
6
ByLayer
370
13
48
1
60
0
100
AcDbLine
10
156.077346
20
211.825
30
0
11
156.208998
21
209.825
31
0
39
0
210
0
220
0
230
1
0
LINE
5
9F
100
AcDbEntity
8
2
62
256
6
ByLayer
370
13
48
1
60
0
100
AcDbLine
10
156
20
213
30
0
11
156
21
148
31
0
39
0
210
0
220
0
230
1
0
LINE
5
A0
100
AcDbEntity
8
2
62
256
6
ByLayer
370
18
48
1
60
0
100
AcDbLine
10
156
20
148
30
0
11
156
21
136
31
0
39
0
210
0
220
0
230
1
0
LINE
5
A1
100
AcDbEntity
8
SK1
62
256
6
ByLayer
370
13
48
1
60
0
100
AcDbLine
10
-20.5
20
-42.819524
30
0
11
0.000563
21
-42.819524
31
0
39
0
210
0
220
0
230
1
0
LINE
5
A3
100
AcDbEntity
8
SK1
62
256
6
ByLayer
370
13
48
1
60
0
100
AcDbLine
10
-20.5
20
-29.022524
30
0
11
0.000563
21
-29.022524
31
0
39
0
210
0
220
0
230
1
0
LINE
5
A4
100
AcDbEntity
8
SK1
62
256
6
ByLayer
370
13
48
1
60
0
100
AcDbLine
10
-20.5
20
29.022524
30
0
11
0.000563
21
29.022524
31
0
39
0
210
0
220
0
230
1
0
LINE
5
A5
100
AcDbEntity
8
SK1
62
256
6
ByLayer
370
13
48
1
60
0
100
AcDbLine
10
-20.5
20
42.819524
30
0
11
0.000563
21
42.819524
31
0
39
0
210
0
220
0
230
1
0
LINE
5
A6
100
AcDbEntity
8
1
62
256
6
ByLayer
370
13
48
1
60
0
100
AcDbLine
10
88.62
20
-146.25
30
0
11
88.62
21
-130.25
31
0
39
0
210
0
220
0
230
1
0
LINE
5
A7
100
AcDbEntity
8
1
62
256
6
ByLayer
370
18
48
1
60
0
100
AcDbLine
10
89.62
20
-145.25
30
0
11
89.62
21
-131.25
31
0
39
0
210
0
220
0
230
1
0
LINE
5
A8
100
AcDbEntity
8
1
62
256
6
ByLayer
370
13
48
1
60
0
100
AcDbLine
10
88.62
20
-130.249489
30
0
11
88.62
21
-117.25
31
0
39
0
210
0
220
0
230
1
0
LINE
5
A9
100
AcDbEntity
8
1
62
256
6
ByLayer
370
18
48
1
60
0
100
AcDbLine
10
89.62
20
-131.249856
30
0
11
89.62
21
-118.250001
31
0
39
0
210
0
220
0
230
1
0
LINE
5
AA
100
AcDbEntity
8
1
62
256
6
ByLayer
370
18
48
1
60
0
100
AcDbLine
10
122
20
197.587552
30
0
11
122
21
160.6023
31
0
39
0
210
0
220
0
230
1
0
LINE
5
AB
100
AcDbEntity
8
1
62
256
6
ByLayer
370
18
48
1
60
0
100
AcDbLine
10
90.5
20
160.6023
30
0
11
120.2
21
160.6023
31
0
39
0
210
0
220
0
230
1
0
LINE
5
AC
100
AcDbEntity
8
1
62
256
6
ByLayer
370
18
48
1
60
0
100
AcDbLine
10
120.2
20
160.6023
30
0
11
120.2
21
198.083523
31
0
39
0
210
0
220
0
230
1
0
LINE
5
AD
100
AcDbEntity
8
1
62
256
6
ByLayer
370
18
48
1
60
0
100
AcDbLine
10
88.034262
20
206.946456
30
0
11
120.2
21
198.083523
31
0
39
0
210
0
220
0
230
1
0
LINE
5
AE
100
AcDbEntity
8
1
62
256
6
ByLayer
370
18
48
1
60
0
100
AcDbLine
10
89.619809
20
159.722109
30
0
11
90.5
21
160.6023
31
0
39
0
210
0
220
0
230
1
0
LINE
5
AF
100
AcDbEntity
8
1
62
256
6
ByLayer
370
18
48
1
60
0
100
AcDbLine
10
116.895592
20
207.748586
30
0
11
125.056958
21
202.648798
31
0
39
0
210
0
220
0
230
1
0
LINE
5
B0
100
AcDbEntity
8
1
62
256
6
ByLayer
370
18
48
1
60
0
100
AcDbLine
10
125.663903
20
202.971516
30
0
11
125.999766
21
212.589361
31
0
39
0
210
0
220
0
230
1
0
LINE
5
B1
100
AcDbEntity
8
1
62
256
6
ByLayer
370
18
48
1
60
0
100
AcDbLine
10
125.416811
20
212.953632
30
0
11
116.919582
21
208.435575
31
0
39
0
210
0
220
0
230
1
0
LINE
5
B2
100
AcDbEntity
8
1
62
256
6
ByLayer
370
18
48
1
60
0
100
AcDbLine
10
98.770551
20
160.13272
30
0
11
98.773528
21
160.164959
31
0
39
0
210
0
220
0
230
1
0
LINE
5
B3
100
AcDbEntity
8
1
62
256
6
ByLayer
370
18
48
1
60
0
100
AcDbLine
10
107.137147
20
160.13272
30
0
11
107.134155
21
160.165849
31
0
39
0
210
0
220
0
230
1
0
LINE
5
B4
100
AcDbEntity
8
1
62
256
6
ByLayer
370
18
48
1
60
0
100
AcDbLine
10
100.221452
20
159.964744
30
0
11
100.218321
21
159.918247
31
0
39
0
210
0
220
0
230
1
0
LINE
5
B5
100
AcDbEntity
8
1
62
256
6
ByLayer
370
18
48
1
60
0
100
AcDbLine
10
99.291682
20
160.602299
30
0
11
99.331467
21
160.575125
31
0
39
0
210
0
220
0
230
1
0
LINE
5
B6
100
AcDbEntity
8
1
62
256
6
ByLayer
370
18
48
1
60
0
100
AcDbLine
10
105.691438
20
159.966433
30
0
11
105.69458
21
159.918247
31
0
39
0
210
0
220
0
230
1
0
LINE
5
B7
100
AcDbEntity
8
1
62
256
6
ByLayer
370
18
48
1
60
0
100
AcDbLine
10
106.591786
20
160.602299
30
0
11
106.550091
21
160.572885
31
0
39
0
210
0
220
0
230
1
0
LINE
5
B8
100
AcDbEntity
8
1
62
256
6
ByLayer
370
18
48
1
60
0
100
AcDbLine
10
101.086913
20
160.13272
30
0
11
101.088931
21
160.181593
31
0
39
0
210
0
220
0
230
1
0
LINE
5
B9
100
AcDbEntity
8
1
62
256
6
ByLayer
370
18
48
1
60
0
100
AcDbLine
10
101.088931
20
160.181593
30
0
11
100.711276
21
160.602294
31
0
39
0
210
0
220
0
230
1
0
LINE
5
BA
100
AcDbEntity
8
1
62
256
6
ByLayer
370
18
48
1
60
0
100
AcDbLine
10
101.088931
20
160.181593
30
0
11
101.116638
21
160.181593
31
0
39
0
210
0
220
0
230
1
0
LINE
5
BB
100
AcDbEntity
8
1
62
256
6
ByLayer
370
18
48
1
60
0
100
AcDbLine
10
104.812775
20
160.13272
30
0
11
104.810865
21
160.181593
31
0
39
0
210
0
220
0
230
1
0
LINE
5
BC
100
AcDbEntity
8
1
62
256
6
ByLayer
370
18
48
1
60
0
100
AcDbLine
10
104.780556
20
160.181593
30
0
11
104.810865
21
160.181593
31
0
39
0
210
0
220
0
230
1
0
LINE
5
BD
100
AcDbEntity
8
1
62
256
6
ByLayer
370
18
48
1
60
0
100
AcDbLine
10
104.810865
20
160.181593
30
0
11
105.168314
21
160.602294
31
0
39
0
210
0
220
0
230
1
0
LINE
5
BE
100
AcDbEntity
8
1
62
256
6
ByLayer
370
18
48
1
60
0
100
AcDbLine
10
107.75
20
159.0613
30
0
11
100.18791
21
159.0613
31
0
39
0
210
0
220
0
230
1
0
LINE
5
BF
100
AcDbEntity
8
1
62
256
6
ByLayer
370
18
48
1
60
0
100
AcDbLine
10
100.18791
20
159.0613
30
0
11
98.25
21
159.0613
31
0
39
0
210
0
220
0
230
1
0
LINE
5
C0
100
AcDbEntity
8
1
62
256
6
ByLayer
370
18
48
1
60
0
100
AcDbLine
10
102.299674
20
160.13272
30
0
11
102.300387
21
160.181593
31
0
39
0
210
0
220
0
230
1
0
LINE
5
C1
100
AcDbEntity
8
1
62
256
6
ByLayer
370
18
48
1
60
0
100
AcDbLine
10
102.300387
20
160.181593
30
0
11
102.166958
21
160.602294
31
0
39
0
210
0
220
0
230
1
0
LINE
5
C2
100
AcDbEntity
8
1
62
256
6
ByLayer
370
18
48
1
60
0
100
AcDbLine
10
102.300387
20
160.181593
30
0
11
102.359
21
160.181593
31
0
39
0
210
0
220
0
230
1
0
LINE
5
C3
100
AcDbEntity
8
1
62
256
6
ByLayer
370
18
48
1
60
0
100
AcDbLine
10
103.598356
20
160.13272
30
0
11
103.597753
21
160.181593
31
0
39
0
210
0
220
0
230
1
0
LINE
5
C4
100
AcDbEntity
8
1
62
256
6
ByLayer
370
18
48
1
60
0
100
AcDbLine
10
103.536597
20
160.181593
30
0
11
103.597753
21
160.181593
31
0
39
0
210
0
220
0
230
1
0
LINE
5
C5
100
AcDbEntity
8
1
62
256
6
ByLayer
370
18
48
1
60
0
100
AcDbLine
10
103.597753
20
160.181593
30
0
11
103.710653
21
160.602294
31
0
39
0
210
0
220
0
230
1
0
LINE
5
C6
100
AcDbEntity
8
1
62
256
6
ByLayer
370
18
48
1
60
0
100
AcDbLine
10
113.323045
20
160.571969
30
0
11
113.928435
21
160.571969
31
0
39
0
210
0
220
0
230
1
0
LINE
5
C7
100
AcDbEntity
8
1
62
256
6
ByLayer
370
18
48
1
60
0
100
AcDbLine
10
113.95641
20
160.571969
30
0
11
114.397953
21
160.571969
31
0
39
0
210
0
220
0
230
1
0
LINE
5
C8
100
AcDbEntity
8
1
62
256
6
ByLayer
370
18
48
1
60
0
100
AcDbLine
10
114.416985
20
160.571969
30
0
11
114.687718
21
160.571969
31
0
39
0
210
0
220
0
230
1
0
LINE
5
C9
100
AcDbEntity
8
1
62
256
6
ByLayer
370
18
48
1
60
0
100
AcDbLine
10
114.697508
20
160.571969
30
0
11
114.79316
21
160.571969
31
0
39
0
210
0
220
0
230
1
0
LINE
5
CA
100
AcDbEntity
8
1
62
256
6
ByLayer
370
18
48
1
60
0
100
AcDbLine
10
91.206421
20
160.571969
30
0
11
91.287382
21
160.571969
31
0
39
0
210
0
220
0
230
1
0
LINE
5
CB
100
AcDbEntity
8
1
62
256
6
ByLayer
370
18
48
1
60
0
100
AcDbLine
10
91.296392
20
160.571969
30
0
11
91.55264
21
160.571969
31
0
39
0
210
0
220
0
230
1
0
LINE
5
CC
100
AcDbEntity
8
1
62
256
6
ByLayer
370
18
48
1
60
0
100
AcDbLine
10
91.57091
20
160.571969
30
0
11
91.998429
21
160.571969
31
0
39
0
210
0
220
0
230
1
0
LINE
5
CD
100
AcDbEntity
8
1
62
256
6
ByLayer
370
18
48
1
60
0
100
AcDbLine
10
92.025672
20
160.571969
30
0
11
92.617719
21
160.571969
31
0
39
0
210
0
220
0
230
1
0
LINE
5
CE
100
AcDbEntity
8
1
62
256
6
ByLayer
370
18
48
1
60
0
100
AcDbLine
10
92.653506
20
160.571969
30
0
11
93.400745
21
160.571969
31
0
39
0
210
0
220
0
230
1
0
LINE
5
CF
100
AcDbEntity
8
1
62
256
6
ByLayer
370
18
48
1
60
0
100
AcDbLine
10
93.44451
20
160.571969
30
0
11
94.335156
21
160.571969
31
0
39
0
210
0
220
0
230
1
0
LINE
5
D0
100
AcDbEntity
8
1
62
256
6
ByLayer
370
18
48
1
60
0
100
AcDbLine
10
94.38621
20
160.571969
30
0
11
95.406217
21
160.571969
31
0
39
0
210
0
220
0
230
1
0
LINE
5
D1
100
AcDbEntity
8
1
62
256
6
ByLayer
370
18
48
1
60
0
100
AcDbLine
10
95.463754
20
160.571969
30
0
11
96.597037
21
160.571969
31
0
39
0
210
0
220
0
230
1
0
LINE
5
D2
100
AcDbEntity
8
1
62
256
6
ByLayer
370
18
48
1
60
0
100
AcDbLine
10
96.66015
20
160.571969
30
0
11
97.888835
21
160.571969
31
0
39
0
210
0
220
0
230
1
0
LINE
5
D3
100
AcDbEntity
8
1
62
256
6
ByLayer
370
18
48
1
60
0
100
AcDbLine
10
97.956529
20
160.571969
30
0
11
99.261239
21
160.571969
31
0
39
0
210
0
220
0
230
1
0
LINE
5
D4
100
AcDbEntity
8
1
62
256
6
ByLayer
370
18
48
1
60
0
100
AcDbLine
10
99.332446
20
160.571969
30
0
11
100.692606
21
160.571969
31
0
39
0
210
0
220
0
230
1
0
LINE
5
D5
100
AcDbEntity
8
1
62
256
6
ByLayer
370
18
48
1
60
0
100
AcDbLine
10
100.766203
20
160.571969
30
0
11
102.160362
21
160.571969
31
0
39
0
210
0
220
0
230
1
0
LINE
5
D6
100
AcDbEntity
8
1
62
256
6
ByLayer
370
18
48
1
60
0
100
AcDbLine
10
102.235188
20
160.571969
30
0
11
103.641359
21
160.571969
31
0
39
0
210
0
220
0
230
1
0
LINE
5
D7
100
AcDbEntity
8
1
62
256
6
ByLayer
370
18
48
1
60
0
100
AcDbLine
10
103.716235
20
160.571969
30
0
11
105.112242
21
160.571969
31
0
39
0
210
0
220
0
230
1
0
LINE
5
D8
100
AcDbEntity
8
1
62
256
6
ByLayer
370
18
48
1
60
0
100
AcDbLine
10
105.185986
20
160.571969
30
0
11
106.549813
21
160.571969
31
0
39
0
210
0
220
0
230
1
0
LINE
5
D9
100
AcDbEntity
8
1
62
256
6
ByLayer
370
18
48
1
60
0
100
AcDbLine
10
106.621263
20
160.571969
30
0
11
107.931402
21
160.571969
31
0
39
0
210
0
220
0
230
1
0
LINE
5
DA
100
AcDbEntity
8
1
62
256
6
ByLayer
370
18
48
1
60
0
100
AcDbLine
10
107.99943
20
160.571969
30
0
11
109.235219
21
160.571969
31
0
39
0
210
0
220
0
230
1
0
LINE
5
DB
100
AcDbEntity
8
1
62
256
6
ByLayer
370
18
48
1
60
0
100
AcDbLine
10
109.298754
20
160.571969
30
0
11
110.440704
21
160.571969
31
0
39
0
210
0
220
0
230
1
0
LINE
5
DC
100
AcDbEntity
8
1
62
256
6
ByLayer
370
18
48
1
60
0
100
AcDbLine
10
110.498742
20
160.571969
30
0
11
111.528844
21
160.571969
31
0
39
0
210
0
220
0
230
1
0
LINE
5
DD
100
AcDbEntity
8
1
62
256
6
ByLayer
370
18
48
1
60
0
100
AcDbLine
10
111.580471
20
160.571969
30
0
11
112.482479
21
160.571969
31
0
39
0
210
0
220
0
230
1
0
LINE
5
DE
100
AcDbEntity
8
1
62
256
6
ByLayer
370
18
48
1
60
0
100
AcDbLine
10
112.52688
20
160.571969
30
0
11
113.28657
21
160.571969
31
0
39
0
210
0
220
0
230
1
0
LINE
5
DF
100
AcDbEntity
8
1
62
256
6
ByLayer
370
18
48
1
60
0
100
AcDbLine
10
102.356972
20
203
30
0
11
105.482716
21
203
31
0
39
0
210
0
220
0
230
1
0
LINE
5
E0
100
AcDbEntity
8
1
62
256
6
ByLayer
370
18
48
1
60
0
100
AcDbLine
10
102.902219
20
202.85
30
0
11
115
21
202.85
31
0
39
0
210
0
220
0
230
1
0
LINE
5
E1
100
AcDbEntity
8
1
62
256
6
ByLayer
370
18
48
1
60
0
100
AcDbLine
10
107.75
20
159.0613
30
0
11
98.25
21
159.0613
31
0
39
0
210
0
220
0
230
1
0
LINE
5
E2
100
AcDbEntity
8
1
62
256
6
ByLayer
370
18
48
1
60
0
100
AcDbLine
10
116.5
20
-158.0023
30
0
11
116.5
21
-206.0023
31
0
39
0
210
0
220
0
230
1
0
LINE
5
E3
100
AcDbEntity
8
1
62
256
6
ByLayer
370
18
48
1
60
0
100
AcDbLine
10
114.7
20
-156.2023
30
0
11
114.7
21
-207.8023
31
0
39
0
210
0
220
0
230
1
0
LINE
5
E4
100
AcDbEntity
8
1
62
256
6
ByLayer
370
18
48
1
60
0
100
AcDbLine
10
79.3
20
-156.2023
30
0
11
79.3
21
-207.8023
31
0
39
0
210
0
220
0
230
1
0
LINE
5
E5
100
AcDbEntity
8
1
62
256
6
ByLayer
370
18
48
1
60
0
100
AcDbLine
10
63.458467
20
-200.459942
30
0
11
63.211797
21
-200.459942
31
0
39
0
210
0
220
0
230
1
0
LINE
5
E6
100
AcDbEntity
8
1
62
256
6
ByLayer
370
18
48
1
60
0
100
AcDbLine
10
63.486481
20
-200.226698
30
0
11
63.458467
21
-200.459942
31
0
39
0
210
0
220
0
230
1
0
LINE
5
E7
100
AcDbEntity
8
1
62
256
6
ByLayer
370
18
48
1
60
0
100
AcDbLine
10
79.8
20
-128.25
30
0
11
79.8
21
-148.25
31
0
39
0
210
0
220
0
230
1
0
LINE
5
E8
100
AcDbEntity
8
1
62
256
6
ByLayer
370
18
48
1
60
0
100
AcDbLine
10
123.207786
20
212.151576
30
0
11
123.194532
21
211.772027
31
0
39
0
210
0
220
0
230
1
0
LINE
5
E9
100
AcDbEntity
8
1
62
256
6
ByLayer
370
18
48
1
60
0
100
AcDbLine
10
124.969706
20
202.147031
30
0
11
124.988717
21
202.691438
31
0
39
0
210
0
220
0
230
1
0
LINE
5
EA
100
AcDbEntity
8
1
62
256
6
ByLayer
370
18
48
1
60
0
100
AcDbLine
10
117.192404
20
209.522173
30
0
11
117.086421
21
209.352563
31
0
39
0
210
0
220
0
230
1
0
LINE
5
EB
100
AcDbEntity
8
1
62
256
6
ByLayer
370
18
48
1
60
0
100
AcDbLine
10
122.509283
20
212.101972
30
0
11
122.598812
21
211.45528
31
0
39
0
210
0
220
0
230
1
0
LINE
5
EC
100
AcDbEntity
8
1
62
256
6
ByLayer
370
18
48
1
60
0
100
AcDbLine
10
118.914864
20
209.919834
30
0
11
119.280894
21
209.691113
31
0
39
0
210
0
220
0
230
1
0
LINE
5
ED
100
AcDbEntity
8
1
62
256
6
ByLayer
370
18
48
1
60
0
100
AcDbLine
10
116.9
20
202.868777
30
0
11
120.690836
21
200.5
31
0
39
0
210
0
220
0
230
1
0
LINE
5
EE
100
AcDbEntity
8
1
62
256
6
ByLayer
370
18
48
1
60
0
100
AcDbLine
10
117.393036
20
206.88146
30
0
11
124.969706
21
202.147031
31
0
39
0
210
0
220
0
230
1
0
LINE
5
EF
100
AcDbEntity
8
1
62
256
6
ByLayer
370
18
48
1
60
0
100
AcDbLine
10
124.969706
20
202.147031
30
0
11
124.912191
21
200.5
31
0
39
0
210
0
220
0
230
1
0
LINE
5
F0
100
AcDbEntity
8
1
62
256
6
ByLayer
370
18
48
1
60
0
100
AcDbLine
10
120.690836
20
200.5
30
0
11
124.912191
21
200.5
31
0
39
0
210
0
220
0
230
1
0
LINE
5
F1
100
AcDbEntity
8
1
62
256
6
ByLayer
370
18
48
1
60
0
100
AcDbLine
10
117.536914
20
209.976977
30
0
11
116.32723
21
209.09809
31
0
39
0
210
0
220
0
230
1
0
LINE
5
F2
100
AcDbEntity
8
1
62
256
6
ByLayer
370
18
48
1
60
0
100
AcDbLine
10
118.910718
20
210.03999
30
0
11
121.71474
21
211.515257
31
0
39
0
210
0
220
0
230
1
0
LINE
5
F3
100
AcDbEntity
8
1
62
256
6
ByLayer
370
18
48
1
60
0
100
AcDbLine
10
121.642316
20
212.038391
30
0
11
121.71474
21
211.515257
31
0
39
0
210
0
220
0
230
1
0
LINE
5
F4
100
AcDbEntity
8
1
62
256
6
ByLayer
370
18
48
1
60
0
100
AcDbLine
10
122.193757
20
211.76728
30
0
11
121.71474
21
211.515257
31
0
39
0
210
0
220
0
230
1
0
LINE
5
F5
100
AcDbEntity
8
1
62
256
6
ByLayer
370
18
48
1
60
0
100
AcDbLine
10
122.193757
20
211.76728
30
0
11
122.204673
21
212.079887
31
0
39
0
210
0
220
0
230
1
0
LINE
5
F6
100
AcDbEntity
8
1
62
256
6
ByLayer
370
13
48
1
60
0
100
AcDbLine
10
116.430295
20
207.008163
30
0
11
116.9
21
205.65256
31
0
39
0
210
0
220
0
230
1
0
LINE
5
F7
100
AcDbEntity
8
1
62
256
6
ByLayer
370
13
48
1
60
0
100
AcDbLine
10
116.389775
20
205.903343
30
0
11
116.9
21
205.65256
31
0
39
0
210
0
220
0
230
1
0
LINE
5
F8
100
AcDbEntity
8
1
62
256
6
ByLayer
370
13
48
1
60
0
100
AcDbLine
10
114.811407
20
211.680398
30
0
11
115.898341
21
208.543423
31
0
39
0
210
0
220
0
230
1
0
LINE
5
F9
100
AcDbEntity
8
1
62
256
6
ByLayer
370
13
48
1
60
0
100
AcDbLine
10
116.9
20
205.65256
30
0
11
116.9
21
202.868777
31
0
39
0
210
0
220
0
230
1
0
LINE
5
FA
100
AcDbEntity
8
1
62
256
6
ByLayer
370
13
48
1
60
0
100
AcDbLine
10
116.9
20
205.65256
30
0
11
116.5
21
205.248552
31
0
39
0
210
0
220
0
230
1
0
LINE
5
FB
100
AcDbEntity
8
1
62
256
6
ByLayer
370
13
48
1
60
0
100
AcDbLine
10
116.05234
20
206.877205
30
0
11
116.430295
21
207.008163
31
0
39
0
210
0
220
0
230
1
0
LINE
5
FC
100
AcDbEntity
8
1
62
256
6
ByLayer
370
13
48
1
60
0
100
AcDbLine
10
115.638473
20
208.453381
30
0
11
115.898341
21
208.543423
31
0
39
0
210
0
220
0
230
1
0
LINE
5
FD
100
AcDbEntity
8
1
62
256
6
ByLayer
370
18
48
1
60
0
100
AcDbLine
10
123.207786
20
212.151576
30
0
11
123.209621
21
212.204123
31
0
39
0
210
0
220
0
230
1
0
LINE
5
FE
100
AcDbEntity
8
1
62
256
6
ByLayer
370
18
48
1
60
0
100
AcDbLine
10
124.033742
20
212.218247
30
0
11
123.208605
21
212.175004
31
0
39
0
210
0
220
0
230
1
0
LINE
5
FF
100
AcDbEntity
8
1
62
256
6
ByLayer
370
18
48
1
60
0
100
AcDbLine
10
114.408175
20
211.622392
30
0
11
114.793424
21
210.510534
31
0
39
0
210
0
220
0
230
1
0
LINE
5
100
100
AcDbEntity
8
1
62
256
6
ByLayer
370
18
48
1
60
0
100
AcDbLine
10
114.811407
20
211.680398
30
0
11
121.642316
21
212.038391
31
0
39
0
210
0
220
0
230
1
0
LINE
5
101
100
AcDbEntity
8
1
62
256
6
ByLayer
370
18
48
1
60
0
100
AcDbLine
10
122.509283
20
212.101972
30
0
11
122.204888
21
212.086019
31
0
39
0
210
0
220
0
230
1
0
LINE
5
102
100
AcDbEntity
8
1
62
256
6
ByLayer
370
18
48
1
60
0
100
AcDbLine
10
116.5
20
205.248552
30
0
11
116.5
21
202.999029
31
0
39
0
210
0
220
0
230
1
0
LINE
5
103
100
AcDbEntity
8
1
62
256
6
ByLayer
370
18
48
1
60
0
100
AcDbLine
10
116.389775
20
205.903343
30
0
11
114.793424
21
210.510534
31
0
39
0
210
0
220
0
230
1
0
LINE
5
104
100
AcDbEntity
8
1
62
256
6
ByLayer
370
13
48
1
60
0
100
AcDbLine
10
103
20
208.06772
30
0
11
103
21
203
31
0
39
0
210
0
220
0
230
1
0
LINE
5
105
100
AcDbEntity
8
1
62
256
6
ByLayer
370
18
48
1
60
0
100
AcDbLine
10
116.460604
20
203
30
0
11
105.481654
21
203
31
0
39
0
210
0
220
0
230
1
0
LINE
5
106
100
AcDbEntity
8
1
62
256
6
ByLayer
370
18
48
1
60
0
100
AcDbLine
10
52.400003
20
179
30
0
11
53.000023
21
179
31
0
39
0
210
0
220
0
230
1
0
LINE
5
107
100
AcDbEntity
8
1
62
256
6
ByLayer
370
18
48
1
60
0
100
AcDbLine
10
47
20
-179
30
0
11
42.354682
21
-177.755291
31
0
39
0
210
0
220
0
230
1
0
LINE
5
108
100
AcDbEntity
8
1
62
256
6
ByLayer
370
18
48
1
60
0
100
AcDbLine
10
47.691482
20
-179
30
0
11
47
21
-179
31
0
39
0
210
0
220
0
230
1
0
LINE
5
109
100
AcDbEntity
8
1
62
256
6
ByLayer
370
18
48
1
60
0
100
AcDbLine
10
24.792239
20
172.322807
30
0
11
25
21
173.105118
31
0
39
0
210
0
220
0
230
1
0
LINE
5
10A
100
AcDbEntity
8
1
62
256
6
ByLayer
370
18
48
1
60
0
100
AcDbLine
10
67
20
172.475962
30
0
11
67
21
172.322807
31
0
39
0
210
0
220
0
230
1
0
LINE
5
10B
100
AcDbEntity
8
1
62
256
6
ByLayer
370
18
48
1
60
0
100
AcDbLine
10
65.943018
20
177.912637
30
0
11
67
21
177.726263
31
0
39
0
210
0
220
0
230
1
0
LINE
5
10C
100
AcDbEntity
8
1
62
256
6
ByLayer
370
18
48
1
60
0
100
AcDbLine
10
52.4
20
178.244708
30
0
11
65.943018
21
177.912637
31
0
39
0
210
0
220
0
230
1
0
LINE
5
10D
100
AcDbEntity
8
1
62
256
6
ByLayer
370
18
48
1
60
0
100
AcDbLine
10
52.4
20
179
30
0
11
52.4
21
178.244708
31
0
39
0
210
0
220
0
230
1
0
LINE
5
10E
100
AcDbEntity
8
1
62
256
6
ByLayer
370
18
48
1
60
0
100
AcDbLine
10
47
20
179
30
0
11
52.4
21
179
31
0
39
0
210
0
220
0
230
1
0
LINE
5
10F
100
AcDbEntity
8
1
62
256
6
ByLayer
370
18
48
1
60
0
100
AcDbLine
10
25
20
173.105118
30
0
11
47
21
179
31
0
39
0
210
0
220
0
230
1
0
LINE
5
110
100
AcDbEntity
8
1
62
256
6
ByLayer
370
18
48
1
60
0
100
AcDbLine
10
25
20
-173.105118
30
0
11
24.792239
21
-172.322807
31
0
39
0
210
0
220
0
230
1
0
LINE
5
111
100
AcDbEntity
8
1
62
256
6
ByLayer
370
18
48
1
60
0
100
AcDbLine
10
67
20
-172.322807
30
0
11
67
21
-173.562157
31
0
39
0
210
0
220
0
230
1
0
LINE
5
112
100
AcDbEntity
8
1
62
256
6
ByLayer
370
18
48
1
60
0
100
AcDbLine
10
42.354736
20
-177.755305
30
0
11
25
21
-173.105118
31
0
39
0
210
0
220
0
230
1
0
LINE
5
113
100
AcDbEntity
8
1
62
256
6
ByLayer
370
18
48
1
60
0
100
AcDbLine
10
67
20
-179
30
0
11
47.691482
21
-179
31
0
39
0
210
0
220
0
230
1
0
LINE
5
114
100
AcDbEntity
8
1
62
256
6
ByLayer
370
18
48
1
60
0
100
AcDbLine
10
17.973424
20
146.646968
30
0
11
23.484546
21
167.398769
31
0
39
0
210
0
220
0
230
1
0
LINE
5
115
100
AcDbEntity
8
1
62
256
6
ByLayer
370
18
48
1
60
0
100
AcDbLine
10
23.484546
20
167.398769
30
0
11
24.792239
21
172.322807
31
0
39
0
210
0
220
0
230
1
0
LINE
5
116
100
AcDbEntity
8
1
62
256
6
ByLayer
370
18
48
1
60
0
100
AcDbLine
10
67
20
172.322807
30
0
11
67
21
171.398769
31
0
39
0
210
0
220
0
230
1
0
LINE
5
117
100
AcDbEntity
8
1
62
256
6
ByLayer
370
13
48
1
60
0
100
AcDbLine
10
24.792239
20
172.322807
30
0
11
67
21
172.322807
31
0
39
0
210
0
220
0
230
1
0
LINE
5
118
100
AcDbEntity
8
1
62
256
6
ByLayer
370
13
48
1
60
0
100
AcDbLine
10
65.321801
20
167.398769
30
0
11
23.484546
21
167.398769
31
0
39
0
210
0
220
0
230
1
0
LINE
5
119
100
AcDbEntity
8
1
62
256
6
ByLayer
370
18
48
1
60
0
100
AcDbLine
10
24.792239
20
-172.322807
30
0
11
23.484546
21
-167.398769
31
0
39
0
210
0
220
0
230
1
0
LINE
5
11A
100
AcDbEntity
8
1
62
256
6
ByLayer
370
13
48
1
60
0
100
AcDbLine
10
67
20
-172.322807
30
0
11
24.792239
21
-172.322807
31
0
39
0
210
0
220
0
230
1
0
LINE
5
11B
100
AcDbEntity
8
1
62
256
6
ByLayer
370
18
48
1
60
0
100
AcDbLine
10
67
20
-171.398769
30
0
11
67
21
-172.322807
31
0
39
0
210
0
220
0
230
1
0
LINE
5
11C
100
AcDbEntity
8
1
62
256
6
ByLayer
370
18
48
1
60
0
100
AcDbLine
10
23.484546
20
-167.398769
30
0
11
17.973424
21
-146.646968
31
0
39
0
210
0
220
0
230
1
0
LINE
5
11D
100
AcDbEntity
8
1
62
256
6
ByLayer
370
13
48
1
60
0
100
AcDbLine
10
23.484546
20
-167.398769
30
0
11
65.321801
21
-167.398769
31
0
39
0
210
0
220
0
230
1
0
LINE
5
11E
100
AcDbEntity
8
1
62
256
6
ByLayer
370
18
48
1
60
0
100
AcDbLine
10
65.321801
20
-167.398769
30
0
11
65.321801
21
-146.646968
31
0
39
0
210
0
220
0
230
1
0
LINE
5
11F
100
AcDbEntity
8
1
62
256
6
ByLayer
370
18
48
1
60
0
100
AcDbLine
10
67
20
171.398769
30
0
11
67
21
-171.398769
31
0
39
0
210
0
220
0
230
1
0
LINE
5
120
100
AcDbEntity
8
1
62
256
6
ByLayer
370
18
48
1
60
0
100
AcDbLine
10
65.321801
20
146.646968
30
0
11
65.321801
21
167.398769
31
0
39
0
210
0
220
0
230
1
0
LINE
5
121
100
AcDbEntity
8
1
62
256
6
ByLayer
370
18
48
1
60
0
100
AcDbLine
10
2
20
86.5
30
0
11
2
21
62.277411
31
0
39
0
210
0
220
0
230
1
0
LINE
5
122
100
AcDbEntity
8
1
62
256
6
ByLayer
370
13
48
1
60
0
100
AcDbLine
10
65.321801
20
146.646968
30
0
11
51.475536
21
146.646968
31
0
39
0
210
0
220
0
230
1
0
LINE
5
123
100
AcDbEntity
8
1
62
256
6
ByLayer
370
13
48
1
60
0
100
AcDbLine
10
26.524464
20
146.646968
30
0
11
17.973424
21
146.646968
31
0
39
0
210
0
220
0
230
1
0
LINE
5
124
100
AcDbEntity
8
1
62
256
6
ByLayer
370
18
48
1
60
0
100
AcDbLine
10
2
20
86.5
30
0
11
17.973424
21
146.646968
31
0
39
0
210
0
220
0
230
1
0
LINE
5
125
100
AcDbEntity
8
1
62
256
6
ByLayer
370
18
48
1
60
0
100
AcDbLine
10
2
20
-86.5
30
0
11
2
21
-62.277411
31
0
39
0
210
0
220
0
230
1
0
LINE
5
126
100
AcDbEntity
8
1
62
256
6
ByLayer
370
13
48
1
60
0
100
AcDbLine
10
26.524464
20
-146.646968
30
0
11
17.973424
21
-146.646968
31
0
39
0
210
0
220
0
230
1
0
LINE
5
127
100
AcDbEntity
8
1
62
256
6
ByLayer
370
13
48
1
60
0
100
AcDbLine
10
65.321801
20
-146.646968
30
0
11
51.475536
21
-146.646968
31
0
39
0
210
0
220
0
230
1
0
LINE
5
128
100
AcDbEntity
8
1
62
256
6
ByLayer
370
18
48
1
60
0
100
AcDbLine
10
17.973424
20
-146.646968
30
0
11
2
21
-86.5
31
0
39
0
210
0
220
0
230
1
0
LINE
5
129
100
AcDbEntity
8
1
62
256
6
ByLayer
370
13
48
1
60
0
100
AcDbLine
10
1.5
20
-81
30
0
11
1.5
21
81
31
0
39
0
210
0
220
0
230
1
0
LINE
5
12A
100
AcDbEntity
8
1
62
256
6
ByLayer
370
18
48
1
60
0
100
AcDbLine
10
0
20
-79.5
30
0
11
0
21
79.5
31
0
39
0
210
0
220
0
230
1
0
LINE
5
12B
100
AcDbEntity
8
1
62
256
6
ByLayer
370
18
48
1
60
0
100
AcDbLine
10
62.71945
20
-111.562414
30
0
11
62.71945
21
111.562414
31
0
39
0
210
0
220
0
230
1
0
LINE
5
12C
100
AcDbEntity
8
1
62
256
6
ByLayer
370
18
48
1
60
0
100
AcDbLine
10
2
20
20.092632
30
0
11
2
21
62.277411
31
0
39
0
210
0
220
0
230
1
0
LINE
5
12D
100
AcDbEntity
8
1
62
256
6
ByLayer
370
13
48
1
60
0
100
AcDbLine
10
2
20
62.277411
30
0
11
31.012346
21
62.277411
31
0
39
0
210
0
220
0
230
1
0
LINE
5
12E
100
AcDbEntity
8
1
62
256
6
ByLayer
370
18
48
1
60
0
100
AcDbLine
10
2
20
-62.277411
30
0
11
2
21
-20.092632
31
0
39
0
210
0
220
0
230
1
0
LINE
5
12F
100
AcDbEntity
8
1
62
256
6
ByLayer
370
13
48
1
60
0
100
AcDbLine
10
31.012346
20
-62.277411
30
0
11
2
21
-62.277411
31
0
39
0
210
0
220
0
230
1
0
LINE
5
130
100
AcDbEntity
8
1
62
256
6
ByLayer
370
18
48
1
60
0
100
AcDbLine
10
2
20
20.092632
30
0
11
2
21
-20.092632
31
0
39
0
210
0
220
0
230
1
0
LINE
5
131
100
AcDbEntity
8
1
62
256
6
ByLayer
370
18
48
1
60
0
100
AcDbLine
10
12
20
20.092632
30
0
11
12
21
-20.092632
31
0
39
0
210
0
220
0
230
1
0
LINE
5
132
100
AcDbEntity
8
1
62
256
6
ByLayer
370
13
48
1
60
0
100
AcDbLine
10
12
20
20.092632
30
0
11
2
21
20.092632
31
0
39
0
210
0
220
0
230
1
0
LINE
5
133
100
AcDbEntity
8
1
62
256
6
ByLayer
370
13
48
1
60
0
100
AcDbLine
10
2
20
-20.092632
30
0
11
12
21
-20.092632
31
0
39
0
210
0
220
0
230
1
0
LINE
5
134
100
AcDbEntity
8
1
62
256
6
ByLayer
370
18
48
1
60
0
100
AcDbLine
10
79.8
20
135.250537
30
0
11
79.8
21
148.25
31
0
39
0
210
0
220
0
230
1
0
LINE
5
135
100
AcDbEntity
8
1
62
256
6
ByLayer
370
18
48
1
60
0
100
AcDbLine
10
79.8
20
153.25
30
0
11
79.8
21
173.25
31
0
39
0
210
0
220
0
230
1
0
LINE
5
136
100
AcDbEntity
8
1
62
256
6
ByLayer
370
18
48
1
60
0
100
AcDbLine
10
79
20
-207.229989
30
0
11
79
21
-208.0023
31
0
39
0
210
0
220
0
230
1
0
LINE
5
137
100
AcDbEntity
8
1
62
256
6
ByLayer
370
18
48
1
60
0
100
AcDbLine
10
71.039105
20
-207.229989
30
0
11
74.672543
21
-208.0023
31
0
39
0
210
0
220
0
230
1
0
LINE
5
138
100
AcDbEntity
8
1
62
256
6
ByLayer
370
18
48
1
60
0
100
AcDbLine
10
53.456245
20
-203.492637
30
0
11
63.929254
21
-205.718743
31
0
39
0
210
0
220
0
230
1
0
LINE
5
139
100
AcDbEntity
8
1
62
256
6
ByLayer
370
18
48
1
60
0
100
AcDbLine
10
63.929254
20
-202.976979
30
0
11
63.929254
21
-205.718743
31
0
39
0
210
0
220
0
230
1
0
LINE
5
13A
100
AcDbEntity
8
1
62
256
6
ByLayer
370
18
48
1
60
0
100
AcDbLine
10
63.929254
20
-178.998844
30
0
11
63.929254
21
-200.027621
31
0
39
0
210
0
220
0
230
1
0
LINE
5
13B
100
AcDbEntity
8
1
62
256
6
ByLayer
370
18
48
1
60
0
100
AcDbLine
10
53
20
-203.395659
30
0
11
53
21
-178.999444
31
0
39
0
210
0
220
0
230
1
0
LINE
5
13C
100
AcDbEntity
8
1
62
256
6
ByLayer
370
18
48
1
60
0
100
AcDbLine
10
53
20
-203.395659
30
0
11
53.456245
21
-203.492637
31
0
39
0
210
0
220
0
230
1
0
LINE
5
13D
100
AcDbEntity
8
1
62
256
6
ByLayer
370
18
48
1
60
0
100
AcDbLine
10
53.456245
20
-178.998833
30
0
11
53.456245
21
-203.492637
31
0
39
0
210
0
220
0
230
1
0
LINE
5
13E
100
AcDbEntity
8
1
62
256
6
ByLayer
370
13
48
1
60
0
100
AcDbLine
10
63.939627
20
-178.999621
30
0
11
63.939627
21
-200.024524
31
0
39
0
210
0
220
0
230
1
0
LINE
5
13F
100
AcDbEntity
8
1
62
256
6
ByLayer
370
13
48
1
60
0
100
AcDbLine
10
63.939627
20
-202.980076
30
0
11
63.939627
21
-205.720948
31
0
39
0
210
0
220
0
230
1
0
LINE
5
140
100
AcDbEntity
8
1
62
256
6
ByLayer
370
18
48
1
60
0
100
AcDbLine
10
67.417713
20
-206.460238
30
0
11
63.939627
21
-205.720948
31
0
39
0
210
0
220
0
230
1
0
LINE
5
141
100
AcDbEntity
8
1
62
256
6
ByLayer
370
13
48
1
60
0
100
AcDbLine
10
79
20
-207.229989
30
0
11
71.039105
21
-207.229989
31
0
39
0
210
0
220
0
230
1
0
LINE
5
142
100
AcDbEntity
8
1
62
256
6
ByLayer
370
18
48
1
60
0
100
AcDbLine
10
79
20
-207.229989
30
0
11
79
21
-197.618387
31
0
39
0
210
0
220
0
230
1
0
LINE
5
143
100
AcDbEntity
8
1
62
256
6
ByLayer
370
18
48
1
60
0
100
AcDbLine
10
67
20
-206.055868
30
0
11
67
21
-197.618387
31
0
39
0
210
0
220
0
230
1
0
LINE
5
144
100
AcDbEntity
8
1
62
256
6
ByLayer
370
18
48
1
60
0
100
AcDbLine
10
71.039105
20
-207.229989
30
0
11
67.417713
21
-206.460238
31
0
39
0
210
0
220
0
230
1
0
LINE
5
145
100
AcDbEntity
8
1
62
256
6
ByLayer
370
18
48
1
60
0
100
AcDbLine
10
79
20
-110.533721
30
0
11
79
21
-197.618387
31
0
39
0
210
0
220
0
230
1
0
LINE
5
146
100
AcDbEntity
8
1
62
256
6
ByLayer
370
18
48
1
60
0
100
AcDbLine
10
67
20
-173.561248
30
0
11
67
21
-197.618387
31
0
39
0
210
0
220
0
230
1
0
LINE
5
147
100
AcDbEntity
8
1
62
256
6
ByLayer
370
18
48
1
60
0
100
AcDbLine
10
79
20
-197.618387
30
0
11
67
21
-197.618387
31
0
39
0
210
0
220
0
230
1
0
LINE
5
148
100
AcDbEntity
8
1
62
256
6
ByLayer
370
18
48
1
60
0
100
AcDbLine
10
79
20
-110.533721
30
0
11
67
21
-110.533721
31
0
39
0
210
0
220
0
230
1
0
LINE
5
149
100
AcDbEntity
8
1
62
256
6
ByLayer
370
18
48
1
60
0
100
AcDbLine
10
79
20
-92.5523
30
0
11
79
21
-110.533721
31
0
39
0
210
0
220
0
230
1
0
LINE
5
14A
100
AcDbEntity
8
1
62
256
6
ByLayer
370
18
48
1
60
0
100
AcDbLine
10
67
20
-92.5523
30
0
11
79
21
-92.5523
31
0
39
0
210
0
220
0
230
1
0
LINE
5
14B
100
AcDbEntity
8
1
62
256
6
ByLayer
370
18
48
1
60
0
100
AcDbLine
10
52.95
20
189.5023
30
0
11
52.95
21
198.5023
31
0
39
0
210
0
220
0
230
1
0
LINE
5
14C
100
AcDbEntity
8
SK1
62
256
6
ByLayer
370
18
48
1
60
0
100
AcDbLine
10
-20.5
20
-29.022524
30
0
11
-20.5
21
-42.819524
31
0
39
0
210
0
220
0
230
1
0
LINE
5
14D
100
AcDbEntity
8
SK1
62
256
6
ByLayer
370
18
48
1
60
0
100
AcDbLine
10
-19.3985
20
-27.921024
30
0
11
-19.3985
21
-43.921024
31
0
39
0
210
0
220
0
230
1
0
LINE
5
14E
100
AcDbEntity
8
1
62
256
6
ByLayer
370
18
48
1
60
0
100
AcDbLine
10
61.491052
20
200.536368
30
0
11
60.675882
21
200.536368
31
0
39
0
210
0
220
0
230
1
0
LINE
5
14F
100
AcDbEntity
8
1
62
256
6
ByLayer
370
18
48
1
60
0
100
AcDbLine
10
61.293933
20
200.019099
30
0
11
61.245774
21
200.150882
31
0
39
0
210
0
220
0
230
1
0
LINE
5
150
100
AcDbEntity
8
1
62
256
6
ByLayer
370
18
48
1
60
0
100
AcDbLine
10
61.208655
20
200.459942
30
0
11
61.245774
21
200.150882
31
0
39
0
210
0
220
0
230
1
0
LINE
5
151
100
AcDbEntity
8
1
62
256
6
ByLayer
370
18
48
1
60
0
100
AcDbLine
10
60.675882
20
200.536368
30
0
11
60.555034
21
200.249969
31
0
39
0
210
0
220
0
230
1
0
LINE
5
152
100
AcDbEntity
8
1
62
256
6
ByLayer
370
18
48
1
60
0
100
AcDbLine
10
79.8
20
-153.25
30
0
11
79.8
21
-156.202574
31
0
39
0
210
0
220
0
230
1
0
LINE
5
153
100
AcDbEntity
8
1
62
256
6
ByLayer
370
13
48
1
60
0
100
AcDbLine
10
88.62
20
133.25
30
0
11
88.62
21
117.25
31
0
39
0
210
0
220
0
230
1
0
LINE
5
154
100
AcDbEntity
8
1
62
256
6
ByLayer
370
18
48
1
60
0
100
AcDbLine
10
89.62
20
132.25
30
0
11
89.62
21
118.25
31
0
39
0
210
0
220
0
230
1
0
LINE
5
155
100
AcDbEntity
8
SK1
62
256
6
ByLayer
370
18
48
1
60
0
100
AcDbLine
10
-20.5
20
29.022524
30
0
11
-20.5
21
42.819524
31
0
39
0
210
0
220
0
230
1
0
LINE
5
156
100
AcDbEntity
8
SK1
62
256
6
ByLayer
370
18
48
1
60
0
100
AcDbLine
10
-19.3985
20
43.921024
30
0
11
-19.3985
21
27.921024
31
0
39
0
210
0
220
0
230
1
0
LINE
5
157
100
AcDbEntity
8
1
62
256
6
ByLayer
370
13
48
1
60
0
100
AcDbLine
10
88.62
20
171.25
30
0
11
88.62
21
155.25
31
0
39
0
210
0
220
0
230
1
0
LINE
5
158
100
AcDbEntity
8
1
62
256
6
ByLayer
370
18
48
1
60
0
100
AcDbLine
10
89.62
20
170.25
30
0
11
89.62
21
156.25
31
0
39
0
210
0
220
0
230
1
0
LINE
5
159
100
AcDbEntity
8
1
62
256
6
ByLayer
370
18
48
1
60
0
100
AcDbLine
10
124.969706
20
202.147031
30
0
11
124.988717
21
202.691438
31
0
39
0
210
0
220
0
230
1
0
LINE
5
15A
100
AcDbEntity
8
1
62
256
6
ByLayer
370
18
48
1
60
0
100
AcDbLine
10
117.192404
20
209.522173
30
0
11
117.086421
21
209.352563
31
0
39
0
210
0
220
0
230
1
0
LINE
5
15B
100
AcDbEntity
8
1
62
256
6
ByLayer
370
18
48
1
60
0
100
AcDbLine
10
118.914864
20
209.919834
30
0
11
119.280894
21
209.691113
31
0
39
0
210
0
220
0
230
1
0
LINE
5
15C
100
AcDbEntity
8
1
62
256
6
ByLayer
370
18
48
1
60
0
100
AcDbLine
10
122.509283
20
212.101972
30
0
11
122.598812
21
211.45528
31
0
39
0
210
0
220
0
230
1
0
LINE
5
15D
100
AcDbEntity
8
1
62
256
6
ByLayer
370
18
48
1
60
0
100
AcDbLine
10
123.207786
20
212.151576
30
0
11
123.194532
21
211.772027
31
0
39
0
210
0
220
0
230
1
0
LINE
5
15E
100
AcDbEntity
8
1
62
256
6
ByLayer
370
18
48
1
60
0
100
AcDbLine
10
122.193757
20
211.76728
30
0
11
121.71474
21
211.515257
31
0
39
0
210
0
220
0
230
1
0
LINE
5
15F
100
AcDbEntity
8
1
62
256
6
ByLayer
370
18
48
1
60
0
100
AcDbLine
10
122.193757
20
211.76728
30
0
11
122.204673
21
212.079887
31
0
39
0
210
0
220
0
230
1
0
LINE
5
160
100
AcDbEntity
8
1
62
256
6
ByLayer
370
18
48
1
60
0
100
AcDbLine
10
116.9
20
202.868777
30
0
11
120.690836
21
200.5
31
0
39
0
210
0
220
0
230
1
0
LINE
5
161
100
AcDbEntity
8
1
62
256
6
ByLayer
370
18
48
1
60
0
100
AcDbLine
10
124.969706
20
202.147031
30
0
11
124.912191
21
200.5
31
0
39
0
210
0
220
0
230
1
0
LINE
5
162
100
AcDbEntity
8
1
62
256
6
ByLayer
370
18
48
1
60
0
100
AcDbLine
10
120.690836
20
200.5
30
0
11
124.912191
21
200.5
31
0
39
0
210
0
220
0
230
1
0
LINE
5
163
100
AcDbEntity
8
1
62
256
6
ByLayer
370
18
48
1
60
0
100
AcDbLine
10
117.393036
20
206.88146
30
0
11
124.969706
21
202.147031
31
0
39
0
210
0
220
0
230
1
0
LINE
5
164
100
AcDbEntity
8
1
62
256
6
ByLayer
370
18
48
1
60
0
100
AcDbLine
10
121.642316
20
212.038391
30
0
11
121.71474
21
211.515257
31
0
39
0
210
0
220
0
230
1
0
LINE
5
165
100
AcDbEntity
8
1
62
256
6
ByLayer
370
18
48
1
60
0
100
AcDbLine
10
117.536914
20
209.976977
30
0
11
116.32723
21
209.09809
31
0
39
0
210
0
220
0
230
1
0
LINE
5
166
100
AcDbEntity
8
1
62
256
6
ByLayer
370
18
48
1
60
0
100
AcDbLine
10
118.910718
20
210.03999
30
0
11
121.71474
21
211.515257
31
0
39
0
210
0
220
0
230
1
0
LINE
5
167
100
AcDbEntity
8
1
62
256
6
ByLayer
370
13
48
1
60
0
100
AcDbLine
10
116.430295
20
207.008163
30
0
11
116.9
21
205.65256
31
0
39
0
210
0
220
0
230
1
0
LINE
5
168
100
AcDbEntity
8
1
62
256
6
ByLayer
370
13
48
1
60
0
100
AcDbLine
10
116.389775
20
205.903343
30
0
11
116.9
21
205.65256
31
0
39
0
210
0
220
0
230
1
0
LINE
5
169
100
AcDbEntity
8
1
62
256
6
ByLayer
370
13
48
1
60
0
100
AcDbLine
10
114.811407
20
211.680398
30
0
11
115.898341
21
208.543423
31
0
39
0
210
0
220
0
230
1
0
LINE
5
16A
100
AcDbEntity
8
1
62
256
6
ByLayer
370
13
48
1
60
0
100
AcDbLine
10
116.9
20
205.65256
30
0
11
116.9
21
202.868777
31
0
39
0
210
0
220
0
230
1
0
LINE
5
16B
100
AcDbEntity
8
1
62
256
6
ByLayer
370
13
48
1
60
0
100
AcDbLine
10
116.9
20
205.65256
30
0
11
116.5
21
205.248552
31
0
39
0
210
0
220
0
230
1
0
LINE
5
16C
100
AcDbEntity
8
1
62
256
6
ByLayer
370
13
48
1
60
0
100
AcDbLine
10
116.05234
20
206.877205
30
0
11
116.430295
21
207.008163
31
0
39
0
210
0
220
0
230
1
0
LINE
5
16D
100
AcDbEntity
8
1
62
256
6
ByLayer
370
13
48
1
60
0
100
AcDbLine
10
115.638473
20
208.453381
30
0
11
115.898341
21
208.543423
31
0
39
0
210
0
220
0
230
1
0
LINE
5
16E
100
AcDbEntity
8
1
62
256
6
ByLayer
370
18
48
1
60
0
100
AcDbLine
10
123.207786
20
212.151576
30
0
11
123.209621
21
212.204123
31
0
39
0
210
0
220
0
230
1
0
LINE
5
16F
100
AcDbEntity
8
1
62
256
6
ByLayer
370
18
48
1
60
0
100
AcDbLine
10
124.033742
20
212.218247
30
0
11
123.208605
21
212.175004
31
0
39
0
210
0
220
0
230
1
0
LINE
5
170
100
AcDbEntity
8
1
62
256
6
ByLayer
370
18
48
1
60
0
100
AcDbLine
10
114.408175
20
211.622392
30
0
11
114.793424
21
210.510534
31
0
39
0
210
0
220
0
230
1
0
LINE
5
171
100
AcDbEntity
8
1
62
256
6
ByLayer
370
18
48
1
60
0
100
AcDbLine
10
114.811407
20
211.680398
30
0
11
121.642316
21
212.038391
31
0
39
0
210
0
220
0
230
1
0
LINE
5
172
100
AcDbEntity
8
1
62
256
6
ByLayer
370
18
48
1
60
0
100
AcDbLine
10
122.509283
20
212.101972
30
0
11
122.204888
21
212.086019
31
0
39
0
210
0
220
0
230
1
0
LINE
5
173
100
AcDbEntity
8
1
62
256
6
ByLayer
370
18
48
1
60
0
100
AcDbLine
10
116.460604
20
203
30
0
11
105.481654
21
203
31
0
39
0
210
0
220
0
230
1
0
LINE
5
174
100
AcDbEntity
8
1
62
256
6
ByLayer
370
18
48
1
60
0
100
AcDbLine
10
116.5
20
205.248552
30
0
11
116.5
21
202.999029
31
0
39
0
210
0
220
0
230
1
0
LINE
5
175
100
AcDbEntity
8
1
62
256
6
ByLayer
370
18
48
1
60
0
100
AcDbLine
10
116.389775
20
205.903343
30
0
11
114.793424
21
210.510534
31
0
39
0
210
0
220
0
230
1
0
LINE
5
176
100
AcDbEntity
8
1
62
256
6
ByLayer
370
13
48
1
60
0
100
AcDbLine
10
103
20
208.06772
30
0
11
103
21
203
31
0
39
0
210
0
220
0
230
1
0
LINE
5
177
100
AcDbEntity
8
1
62
256
6
ByLayer
370
18
48
1
60
0
100
AcDbLine
10
125.663903
20
202.971516
30
0
11
125.999766
21
212.589361
31
0
39
0
210
0
220
0
230
1
0
LINE
5
178
100
AcDbEntity
8
1
62
256
6
ByLayer
370
18
48
1
60
0
100
AcDbLine
10
125.416811
20
212.953632
30
0
11
116.919582
21
208.435575
31
0
39
0
210
0
220
0
230
1
0
LINE
5
179
100
AcDbEntity
8
1
62
256
6
ByLayer
370
18
48
1
60
0
100
AcDbLine
10
116.895592
20
207.748586
30
0
11
125.056958
21
202.648798
31
0
39
0
210
0
220
0
230
1
0
LINE
5
17A
100
AcDbEntity
8
1
62
256
6
ByLayer
370
18
48
1
60
0
100
AcDbLine
10
89.62
20
145.25
30
0
11
89.62
21
132.24979
31
0
39
0
210
0
220
0
230
1
0
LINE
5
17B
100
AcDbEntity
8
1
62
256
6
ByLayer
370
13
48
1
60
0
100
AcDbLine
10
88.62
20
146.25
30
0
11
88.62
21
133.249898
31
0
39
0
210
0
220
0
230
1
0
LINE
5
17C
100
AcDbEntity
8
1
62
256
6
ByLayer
370
13
48
1
60
0
100
AcDbLine
10
88.62
20
-156.202048
30
0
11
88.62
21
-155.25
31
0
39
0
210
0
220
0
230
1
0
LINE
5
17D
100
AcDbEntity
8
1
62
256
6
ByLayer
370
18
48
1
60
0
100
AcDbLine
10
79.8
20
-115.25
30
0
11
79.8
21
-128.250399
31
0
39
0
210
0
220
0
230
1
0
LINE
5
17E
100
AcDbEntity
8
1
62
256
6
ByLayer
370
18
48
1
60
0
100
AcDbLine
10
79.5
20
208.1023
30
0
11
79.5
21
207.327018
31
0
39
0
210
0
220
0
230
1
0
LINE
5
17F
100
AcDbEntity
8
1
62
256
6
ByLayer
370
18
48
1
60
0
100
AcDbLine
10
75.143006
20
208.1023
30
0
11
71.495593
21
207.327018
31
0
39
0
210
0
220
0
230
1
0
LINE
5
180
100
AcDbEntity
8
1
62
256
6
ByLayer
370
18
48
1
60
0
100
AcDbLine
10
53.343755
20
203.468726
30
0
11
53
21
203.395659
31
0
39
0
210
0
220
0
230
1
0
LINE
5
181
100
AcDbEntity
8
1
62
256
6
ByLayer
370
18
48
1
60
0
100
AcDbLine
10
53
20
178.228938
30
0
11
53
21
203.395659
31
0
39
0
210
0
220
0
230
1
0
LINE
5
182
100
AcDbEntity
8
1
62
256
6
ByLayer
370
18
48
1
60
0
100
AcDbLine
10
79.5
20
115.249777
30
0
11
79.5
21
92.5523
31
0
39
0
210
0
220
0
230
1
0
LINE
5
183
100
AcDbEntity
8
1
62
256
6
ByLayer
370
18
48
1
60
0
100
AcDbLine
10
79.5
20
92.5523
30
0
11
79.4
21
92.5523
31
0
39
0
210
0
220
0
230
1
0
LINE
5
184
100
AcDbEntity
8
1
62
256
6
ByLayer
370
18
48
1
60
0
100
AcDbLine
10
79
20
92.5523
30
0
11
79.4
21
92.5523
31
0
39
0
210
0
220
0
230
1
0
LINE
5
185
100
AcDbEntity
8
1
62
256
6
ByLayer
370
13
48
1
60
0
100
AcDbLine
10
79.4
20
115.249777
30
0
11
79.4
21
92.5523
31
0
39
0
210
0
220
0
230
1
0
LINE
5
186
100
AcDbEntity
8
1
62
256
6
ByLayer
370
18
48
1
60
0
100
AcDbLine
10
60.898854
20
205.074612
30
0
11
53.343755
21
203.468726
31
0
39
0
210
0
220
0
230
1
0
LINE
5
187
100
AcDbEntity
8
1
62
256
6
ByLayer
370
18
48
1
60
0
100
AcDbLine
10
53.343755
20
203.468726
30
0
11
53.343755
21
178.220698
31
0
39
0
210
0
220
0
230
1
0
LINE
5
188
100
AcDbEntity
8
1
62
256
6
ByLayer
370
13
48
1
60
0
100
AcDbLine
10
66.312491
20
183.688037
30
0
11
66.312491
21
204.882912
31
0
39
0
210
0
220
0
230
1
0
LINE
5
189
100
AcDbEntity
8
1
62
256
6
ByLayer
370
13
48
1
60
0
100
AcDbLine
10
66.312491
20
177.847208
30
0
11
66.312491
21
180.316563
31
0
39
0
210
0
220
0
230
1
0
LINE
5
18A
100
AcDbEntity
8
1
62
256
6
ByLayer
370
18
48
1
60
0
100
AcDbLine
10
79.5
20
137.206751
30
0
11
79.5
21
153.249833
31
0
39
0
210
0
220
0
230
1
0
LINE
5
18B
100
AcDbEntity
8
1
62
256
6
ByLayer
370
18
48
1
60
0
100
AcDbLine
10
79.5
20
137.206751
30
0
11
79.5
21
135.249938
31
0
39
0
210
0
220
0
230
1
0
LINE
5
18C
100
AcDbEntity
8
1
62
256
6
ByLayer
370
18
48
1
60
0
100
AcDbLine
10
79.4
20
137.206751
30
0
11
79.5
21
137.206751
31
0
39
0
210
0
220
0
230
1
0
LINE
5
18D
100
AcDbEntity
8
1
62
256
6
ByLayer
370
13
48
1
60
0
100
AcDbLine
10
79.4
20
153.249833
30
0
11
79.4
21
137.206751
31
0
39
0
210
0
220
0
230
1
0
LINE
5
18E
100
AcDbEntity
8
1
62
256
6
ByLayer
370
13
48
1
60
0
100
AcDbLine
10
79.4
20
137.206751
30
0
11
79.4
21
135.249938
31
0
39
0
210
0
220
0
230
1
0
LINE
5
18F
100
AcDbEntity
8
1
62
256
6
ByLayer
370
18
48
1
60
0
100
AcDbLine
10
79.5
20
175.2523
30
0
11
79.5
21
173.249928
31
0
39
0
210
0
220
0
230
1
0
LINE
5
190
100
AcDbEntity
8
1
62
256
6
ByLayer
370
13
48
1
60
0
100
AcDbLine
10
79.4
20
175.2523
30
0
11
79.4
21
173.249928
31
0
39
0
210
0
220
0
230
1
0
LINE
5
191
100
AcDbEntity
8
1
62
256
6
ByLayer
370
18
48
1
60
0
100
AcDbLine
10
67
20
197.1829
30
0
11
67
21
172.474732
31
0
39
0
210
0
220
0
230
1
0
LINE
5
192
100
AcDbEntity
8
1
62
256
6
ByLayer
370
18
48
1
60
0
100
AcDbLine
10
79.5
20
197.1829
30
0
11
79.5
21
175.2523
31
0
39
0
210
0
220
0
230
1
0
LINE
5
193
100
AcDbEntity
8
1
62
256
6
ByLayer
370
18
48
1
60
0
100
AcDbLine
10
79
20
106.5523
30
0
11
79
21
174.8523
31
0
39
0
210
0
220
0
230
1
0
LINE
5
194
100
AcDbEntity
8
1
62
256
6
ByLayer
370
18
48
1
60
0
100
AcDbLine
10
79.5
20
175.2523
30
0
11
79.4
21
175.2523
31
0
39
0
210
0
220
0
230
1
0
LINE
5
195
100
AcDbEntity
8
1
62
256
6
ByLayer
370
18
48
1
60
0
100
AcDbLine
10
79
20
92.5523
30
0
11
67
21
92.5523
31
0
39
0
210
0
220
0
230
1
0
LINE
5
196
100
AcDbEntity
8
1
62
256
6
ByLayer
370
18
48
1
60
0
100
AcDbLine
10
79
20
106.5523
30
0
11
79
21
92.5523
31
0
39
0
210
0
220
0
230
1
0
LINE
5
197
100
AcDbEntity
8
1
62
256
6
ByLayer
370
18
48
1
60
0
100
AcDbLine
10
67
20
106.5523
30
0
11
79
21
106.5523
31
0
39
0
210
0
220
0
230
1
0
LINE
5
198
100
AcDbEntity
8
1
62
256
6
ByLayer
370
18
48
1
60
0
100
AcDbLine
10
67
20
197.1829
30
0
11
67
21
204.685431
31
0
39
0
210
0
220
0
230
1
0
LINE
5
199
100
AcDbEntity
8
1
62
256
6
ByLayer
370
13
48
1
60
0
100
AcDbLine
10
79.5
20
207.327018
30
0
11
71.495593
21
207.327018
31
0
39
0
210
0
220
0
230
1
0
LINE
5
19A
100
AcDbEntity
8
1
62
256
6
ByLayer
370
18
48
1
60
0
100
AcDbLine
10
71.495593
20
207.327018
30
0
11
60.898854
21
205.074612
31
0
39
0
210
0
220
0
230
1
0
LINE
5
19B
100
AcDbEntity
8
1
62
256
6
ByLayer
370
18
48
1
60
0
100
AcDbLine
10
66.312491
20
204.882912
30
0
11
60.898854
21
205.074612
31
0
39
0
210
0
220
0
230
1
0
LINE
5
19C
100
AcDbEntity
8
1
62
256
6
ByLayer
370
18
48
1
60
0
100
AcDbLine
10
67
20
197.1829
30
0
11
79.5
21
197.1829
31
0
39
0
210
0
220
0
230
1
0
LINE
5
19D
100
AcDbEntity
8
1
62
256
6
ByLayer
370
18
48
1
60
0
100
AcDbLine
10
79.5
20
207.327018
30
0
11
79.5
21
197.1829
31
0
39
0
210
0
220
0
230
1
0
LINE
5
19E
100
AcDbEntity
8
1
62
256
6
ByLayer
370
18
48
1
60
0
100
AcDbLine
10
79.8
20
115.25
30
0
11
79.8
21
135.25
31
0
39
0
210
0
220
0
230
1
0
LINE
5
19F
100
AcDbEntity
8
1
62
256
6
ByLayer
370
18
48
1
60
0
100
AcDbLine
10
52.95
20
-189.5023
30
0
11
52.95
21
-195.726021
31
0
39
0
210
0
220
0
230
1
0
LINE
5
1A0
100
AcDbEntity
8
1
62
256
6
ByLayer
370
18
48
1
60
0
100
AcDbLine
10
52.95
20
-195.726021
30
0
11
52.95
21
-198.5023
31
0
39
0
210
0
220
0
230
1
0
LINE
5
1A1
100
AcDbEntity
8
1
62
256
6
ByLayer
370
18
48
1
60
0
100
AcDbLine
10
79.8
20
-146.25
30
0
11
88.62
21
-146.25
31
0
39
0
210
0
220
0
230
1
0
LINE
5
1A2
100
AcDbEntity
8
1
62
256
6
ByLayer
370
18
48
1
60
0
100
AcDbLine
10
88.62
20
-130.25
30
0
11
79.8
21
-130.25
31
0
39
0
210
0
220
0
230
1
0
LINE
5
1A3
100
AcDbEntity
8
1
62
256
6
ByLayer
370
18
48
1
60
0
100
AcDbLine
10
88.62
20
-117.25
30
0
11
79.8
21
-117.25
31
0
39
0
210
0
220
0
230
1
0
LINE
5
1A4
100
AcDbEntity
8
1
62
256
6
ByLayer
370
18
48
1
60
0
100
AcDbLine
10
84.824733
20
206.99605
30
0
11
79.500013
21
206.99605
31
0
39
0
210
0
220
0
230
1
0
LINE
5
1A5
100
AcDbEntity
8
1
62
256
6
ByLayer
370
18
48
1
60
0
100
AcDbLine
10
107.75
20
159.0613
30
0
11
114.793579
21
160.571969
31
0
39
0
210
0
220
0
230
1
0
LINE
5
1A6
100
AcDbEntity
8
1
62
256
6
ByLayer
370
18
48
1
60
0
100
AcDbLine
10
91.206421
20
160.571969
30
0
11
98.25
21
159.0613
31
0
39
0
210
0
220
0
230
1
0
LINE
5
1A7
100
AcDbEntity
8
1
62
256
6
ByLayer
370
18
48
1
60
0
100
AcDbLine
10
114.793579
20
160.571969
30
0
11
114.823911
21
160.602301
31
0
39
0
210
0
220
0
230
1
0
LINE
5
1A8
100
AcDbEntity
8
1
62
256
6
ByLayer
370
18
48
1
60
0
100
AcDbLine
10
91.176089
20
160.602301
30
0
11
91.206421
21
160.571969
31
0
39
0
210
0
220
0
230
1
0
LINE
5
1A9
100
AcDbEntity
8
1
62
256
6
ByLayer
370
18
48
1
60
0
100
AcDbLine
10
115
20
202.85
30
0
11
114.85
21
203
31
0
39
0
210
0
220
0
230
1
0
LINE
5
1AA
100
AcDbEntity
8
1
62
256
6
ByLayer
370
18
48
1
60
0
100
AcDbLine
10
115
20
199.516314
30
0
11
115
21
202.85
31
0
39
0
210
0
220
0
230
1
0
LINE
5
1AB
100
AcDbEntity
8
1
62
256
6
ByLayer
370
18
48
1
60
0
100
AcDbLine
10
79.3
20
-207.8023
30
0
11
114.7
21
-207.8023
31
0
39
0
210
0
220
0
230
1
0
LINE
5
1AC
100
AcDbEntity
8
1
62
256
6
ByLayer
370
18
48
1
60
0
100
AcDbLine
10
114.7
20
-156.2023
30
0
11
79.3
21
-156.2023
31
0
39
0
210
0
220
0
230
1
0
LINE
5
1AD
100
AcDbEntity
8
1
62
256
6
ByLayer
370
18
48
1
60
0
100
AcDbLine
10
116.5
20
-158.0023
30
0
11
114.7
21
-156.2023
31
0
39
0
210
0
220
0
230
1
0
LINE
5
1AE
100
AcDbEntity
8
1
62
256
6
ByLayer
370
18
48
1
60
0
100
AcDbLine
10
114.7
20
-207.8023
30
0
11
116.5
21
-206.0023
31
0
39
0
210
0
220
0
230
1
0
LINE
5
1AF
100
AcDbEntity
8
1
62
256
6
ByLayer
370
18
48
1
60
0
100
AcDbLine
10
79
20
-207.5023
30
0
11
79.3
21
-207.8023
31
0
39
0
210
0
220
0
230
1
0
LINE
5
1B0
100
AcDbEntity
8
1
62
256
6
ByLayer
370
18
48
1
60
0
100
AcDbLine
10
79.3
20
-156.2023
30
0
11
79
21
-156.5023
31
0
39
0
210
0
220
0
230
1
0
LINE
5
1B1
100
AcDbEntity
8
1
62
256
6
ByLayer
370
18
48
1
60
0
100
AcDbLine
10
79.8
20
-128.25
30
0
11
79
21
-128.25
31
0
39
0
210
0
220
0
230
1
0
LINE
5
1B2
100
AcDbEntity
8
1
62
256
6
ByLayer
370
18
48
1
60
0
100
AcDbLine
10
79
20
-148.25
30
0
11
79.8
21
-148.25
31
0
39
0
210
0
220
0
230
1
0
LINE
5
1B3
100
AcDbEntity
8
1
62
256
6
ByLayer
370
18
48
1
60
0
100
AcDbLine
10
94.765239
20
210.665239
30
0
11
91.25
21
207.15
31
0
39
0
210
0
220
0
230
1
0
LINE
5
1B4
100
AcDbEntity
8
1
62
256
6
ByLayer
370
18
48
1
60
0
100
AcDbLine
10
123.209621
20
212.204123
30
0
11
112.454063
21
211.640448
31
0
39
0
210
0
220
0
230
1
0
LINE
5
1B5
100
AcDbEntity
8
1
62
256
6
ByLayer
370
18
48
1
60
0
100
AcDbLine
10
91.25
20
207.15214
30
0
11
91.25
21
206.060387
31
0
39
0
210
0
220
0
230
1
0
LINE
5
1B6
100
AcDbEntity
8
1
62
256
6
ByLayer
370
18
48
1
60
0
100
AcDbLine
10
2
20
81
30
0
11
1.5
21
81
31
0
39
0
210
0
220
0
230
1
0
LINE
5
1B7
100
AcDbEntity
8
1
62
256
6
ByLayer
370
18
48
1
60
0
100
AcDbLine
10
1.5
20
-81
30
0
11
2
21
-81
31
0
39
0
210
0
220
0
230
1
0
LINE
5
1B8
100
AcDbEntity
8
1
62
256
6
ByLayer
370
18
48
1
60
0
100
AcDbLine
10
79.8
20
148.25
30
0
11
79.5
21
148.25
31
0
39
0
210
0
220
0
230
1
0
LINE
5
1B9
100
AcDbEntity
8
1
62
256
6
ByLayer
370
18
48
1
60
0
100
AcDbLine
10
79.8
20
173.25
30
0
11
79
21
173.25
31
0
39
0
210
0
220
0
230
1
0
LINE
5
1BA
100
AcDbEntity
8
1
62
256
6
ByLayer
370
18
48
1
60
0
100
AcDbLine
10
79
20
153.25
30
0
11
79.8
21
153.25
31
0
39
0
210
0
220
0
230
1
0
LINE
5
1BB
100
AcDbEntity
8
1
62
256
6
ByLayer
370
18
48
1
60
0
100
AcDbLine
10
74.672543
20
-208.0023
30
0
11
79
21
-208.0023
31
0
39
0
210
0
220
0
230
1
0
LINE
5
1BC
100
AcDbEntity
8
1
62
256
6
ByLayer
370
18
48
1
60
0
100
AcDbLine
10
52.95
20
189.5023
30
0
11
53.000008
21
189.452292
31
0
39
0
210
0
220
0
230
1
0
LINE
5
1BD
100
AcDbEntity
8
1
62
256
6
ByLayer
370
18
48
1
60
0
100
AcDbLine
10
53
20
198.5523
30
0
11
52.95
21
198.5023
31
0
39
0
210
0
220
0
230
1
0
LINE
5
1BE
100
AcDbEntity
8
SK1
62
256
6
ByLayer
370
18
48
1
60
0
100
AcDbLine
10
-20.5
20
-42.819524
30
0
11
-19.3985
21
-43.921024
31
0
39
0
210
0
220
0
230
1
0
LINE
5
1BF
100
AcDbEntity
8
SK1
62
256
6
ByLayer
370
18
48
1
60
0
100
AcDbLine
10
-19.3985
20
-27.921024
30
0
11
-20.5
21
-29.022524
31
0
39
0
210
0
220
0
230
1
0
LINE
5
1C0
100
AcDbEntity
8
SK1
62
256
6
ByLayer
370
18
48
1
60
0
100
AcDbLine
10
-19.3985
20
-43.921024
30
0
11
0.000512
21
-43.921024
31
0
39
0
210
0
220
0
230
1
0
LINE
5
1C1
100
AcDbEntity
8
SK1
62
256
6
ByLayer
370
18
48
1
60
0
100
AcDbLine
10
0.000512
20
-27.921024
30
0
11
-19.3985
21
-27.921024
31
0
39
0
210
0
220
0
230
1
0
LINE
5
1C2
100
AcDbEntity
8
1
62
256
6
ByLayer
370
18
48
1
60
0
100
AcDbLine
10
79.8
20
-153.25
30
0
11
79
21
-153.25
31
0
39
0
210
0
220
0
230
1
0
LINE
5
1C3
100
AcDbEntity
8
1
62
256
6
ByLayer
370
18
48
1
60
0
100
AcDbLine
10
79.8
20
117.25
30
0
11
88.62
21
117.25
31
0
39
0
210
0
220
0
230
1
0
LINE
5
1C4
100
AcDbEntity
8
1
62
256
6
ByLayer
370
18
48
1
60
0
100
AcDbLine
10
88.62
20
133.25
30
0
11
79.8
21
133.25
31
0
39
0
210
0
220
0
230
1
0
LINE
5
1C5
100
AcDbEntity
8
SK1
62
256
6
ByLayer
370
18
48
1
60
0
100
AcDbLine
10
-19.3985
20
27.921024
30
0
11
0.000512
21
27.921024
31
0
39
0
210
0
220
0
230
1
0
LINE
5
1C6
100
AcDbEntity
8
SK1
62
256
6
ByLayer
370
18
48
1
60
0
100
AcDbLine
10
0.000512
20
43.921024
30
0
11
-19.3985
21
43.921024
31
0
39
0
210
0
220
0
230
1
0
LINE
5
1C7
100
AcDbEntity
8
SK1
62
256
6
ByLayer
370
18
48
1
60
0
100
AcDbLine
10
-20.5
20
29.022524
30
0
11
-19.3985
21
27.921024
31
0
39
0
210
0
220
0
230
1
0
LINE
5
1C8
100
AcDbEntity
8
SK1
62
256
6
ByLayer
370
18
48
1
60
0
100
AcDbLine
10
-19.3985
20
43.921024
30
0
11
-20.5
21
42.819524
31
0
39
0
210
0
220
0
230
1
0
LINE
5
1C9
100
AcDbEntity
8
1
62
256
6
ByLayer
370
18
48
1
60
0
100
AcDbLine
10
79.8
20
155.25
30
0
11
88.62
21
155.25
31
0
39
0
210
0
220
0
230
1
0
LINE
5
1CA
100
AcDbEntity
8
1
62
256
6
ByLayer
370
18
48
1
60
0
100
AcDbLine
10
88.62
20
171.25
30
0
11
79.8
21
171.25
31
0
39
0
210
0
220
0
230
1
0
LINE
5
1CB
100
AcDbEntity
8
1
62
256
6
ByLayer
370
18
48
1
60
0
100
AcDbLine
10
91.25
20
207.15214
30
0
11
91.25
21
206.060387
31
0
39
0
210
0
220
0
230
1
0
LINE
5
1CC
100
AcDbEntity
8
1
62
256
6
ByLayer
370
18
48
1
60
0
100
AcDbLine
10
123.209621
20
212.204123
30
0
11
112.454063
21
211.640448
31
0
39
0
210
0
220
0
230
1
0
LINE
5
1CD
100
AcDbEntity
8
1
62
256
6
ByLayer
370
18
48
1
60
0
100
AcDbLine
10
94.765239
20
210.665239
30
0
11
91.25
21
207.15
31
0
39
0
210
0
220
0
230
1
0
LINE
5
1CE
100
AcDbEntity
8
1
62
256
6
ByLayer
370
18
48
1
60
0
100
AcDbLine
10
88.62
20
146.25
30
0
11
79.8
21
146.25
31
0
39
0
210
0
220
0
230
1
0
LINE
5
1CF
100
AcDbEntity
8
1
62
256
6
ByLayer
370
18
48
1
60
0
100
AcDbLine
10
88.62
20
-155.25
30
0
11
79.8
21
-155.25
31
0
39
0
210
0
220
0
230
1
0
LINE
5
1D0
100
AcDbEntity
8
1
62
256
6
ByLayer
370
18
48
1
60
0
100
AcDbLine
10
79.8
20
-115.25
30
0
11
79
21
-115.25
31
0
39
0
210
0
220
0
230
1
0
LINE
5
1D1
100
AcDbEntity
8
1
62
256
6
ByLayer
370
18
48
1
60
0
100
AcDbLine
10
79.5
20
208.1023
30
0
11
75.143006
21
208.1023
31
0
39
0
210
0
220
0
230
1
0
LINE
5
1D2
100
AcDbEntity
8
1
62
256
6
ByLayer
370
18
48
1
60
0
100
AcDbLine
10
79.8
20
135.25
30
0
11
79
21
135.25
31
0
39
0
210
0
220
0
230
1
0
LINE
5
1D3
100
AcDbEntity
8
1
62
256
6
ByLayer
370
18
48
1
60
0
100
AcDbLine
10
79
20
115.25
30
0
11
79.8
21
115.25
31
0
39
0
210
0
220
0
230
1
0
LINE
5
1D4
100
AcDbEntity
8
1
62
256
6
ByLayer
370
18
48
1
60
0
100
AcDbLine
10
52.95
20
-198.5023
30
0
11
53.000008
21
-198.552308
31
0
39
0
210
0
220
0
230
1
0
LINE
5
1D5
100
AcDbEntity
8
1
62
256
6
ByLayer
370
18
48
1
60
0
100
AcDbLine
10
53.000008
20
-189.452292
30
0
11
52.95
21
-189.5023
31
0
39
0
210
0
220
0
230
1
0
MTEXT
5
2FA
100
AcDbEntity
8
2
62
256
6
ByLayer
370
18
48
1
60
0
100
AcDbMText
10
154.538856
20
139.858187
30
0
210
0
220
0
230
1
1
\W0.8696;Dc finishing = 384.35 - 467.65
40
3
41
0
44
1.084337
50
89.9999999999992
71
7
72
5
7
iso_b_vert
0
MTEXT
5
2FD
100
AcDbEntity
8
SK6
62
256
6
ByLayer
370
18
48
1
60
0
100
AcDbMText
10
132.96243
20
225.368899
30
0
210
0
220
0
230
1
1
\W0.7513;826-467TC11HP
40
3
41
0
44
1.084337
50
0
71
7
72
5
7
iso_b_vert
0
DIMENSION
5
300
100
AcDbEntity
8
SK2
62
256
6
ByLayer
370
18
48
1
60
0
100
AcDbDimension
2
_U0
10
-55.5
20
20.00625
30
0
11
-55.5
21
0
31
0
70
32
71
1
72
1
41
1
210
0
220
0
230
1
3
Standard
100
AcDbAlignedDimension
13
1.03923
23
-20.00625
33
0
14
18
24
20.00625
34
0
50
90
100
AcDbRotatedDimension
1001
ACAD
1000
DSTYLE
1002
{
1070
   371
1070
    13
1070
   372
1070
    13
1070
     3
1000

1070
   170
1070
     0
1070
   144
1040
1.0
1070
   277
1070
     2
1070
   284
1070
     8
1070
   278
1070
    46
1070
   146
1040
1.166667
1070
   345
1005
16
1070
   347
1005
16
1070
   346
1005
16
1070
   344
1005
0
1070
   343
1005
0
1070
   172
1070
     1
1070
    76
1070
     0
1070
    75
1070
     0
1070
   282
1070
     0
1070
   281
1070
     0
1070
    71
1070
     0
1070
   272
1070
     4
1070
    74
1070
     0
1070
   279
1070
     0
1070
   173
1070
     1
1070
   340
1005
2FB
1070
   271
1070
     1
1070
    77
1070
     1
1070
    73
1070
     0
1070
   171
1070
     3
1070
   274
1070
     4
1070
   177
1070
   254
1070
   176
1070
   254
1070
   178
1070
     7
1070
    78
1070
     8
1070
    41
1040
5.0
1070
   147
1040
1.5
1070
    42
1040
0.5
1070
    44
1040
2.0
1070
   140
1040
3.0
1002
}
1001
ACAD_DSTYLE_DIM_LINETYPE
1070
   380
1005
16
1001
ACAD_DSTYLE_DIM_EXT1_LINETYPE
1070
   381
1005
16
1001
ACAD_DSTYLE_DIM_EXT2_LINETYPE
1070
   382
1005
16
0
DIMENSION
5
31B
100
AcDbEntity
8
2
62
256
6
ByLayer
370
18
48
1
60
0
100
AcDbDimension
2
_U1
10
127
20
213
30
0
11
135.871252
21
202.792626
31
0
70
34
71
1
72
1
41
1
210
0
220
0
230
1
3
Standard
100
AcDb2LineAngularDimension
13
125.663903
23
202.971516
33
0
14
125.999766
24
212.589361
34
0
15
126
25
213
35
0
16
132.821196
26
200.549404
36
0
40
0
0
DIMENSION
5
336
100
AcDbEntity
8
2
62
256
6
ByLayer
370
18
48
1
60
0
100
AcDbDimension
2
_U2
10
126
20
235.5
30
0
11
63
21
235.5
31
0
70
32
71
1
72
1
41
1
210
0
220
0
230
1
3
Standard
100
AcDbAlignedDimension
13
0
23
79.5
33
0
14
126
24
213
34
0
50
0
100
AcDbRotatedDimension
1001
ACAD
1000
DSTYLE
1002
{
1070
   371
1070
    13
1070
   372
1070
    13
1070
   170
1070
     0
1070
   144
1040
1.0
1070
   277
1070
     2
1070
   284
1070
     8
1070
   278
1070
    46
1070
   146
1040
1.166667
1070
   345
1005
16
1070
   347
1005
16
1070
   346
1005
16
1070
   344
1005
0
1070
   343
1005
0
1070
   172
1070
     1
1070
    76
1070
     0
1070
    75
1070
     0
1070
   282
1070
     0
1070
   281
1070
     0
1070
    71
1070
     0
1070
   272
1070
     4
1070
   271
1070
     4
1070
    74
1070
     0
1070
   279
1070
     0
1070
   173
1070
     1
1070
   340
1005
2FB
1070
    77
1070
     1
1070
    73
1070
     1
1070
   171
1070
     3
1070
   274
1070
     4
1070
   177
1070
   254
1070
   176
1070
   254
1070
   178
1070
     7
1070
    78
1070
     8
1070
    41
1040
5.0
1070
   147
1040
1.5
1070
    42
1040
0.5
1070
    44
1040
2.0
1070
   140
1040
3.0
1002
}
1001
ACAD_DSTYLE_DIM_LINETYPE
1070
   380
1005
16
1001
ACAD_DSTYLE_DIM_EXT1_LINETYPE
1070
   381
1005
16
1001
ACAD_DSTYLE_DIM_EXT2_LINETYPE
1070
   382
1005
16
0
ENDSEC
0
SECTION
2
OBJECTS
0
DICTIONARY
5
3bf
330
0
100
AcDbDictionary
280
0
281
1
3
ACAD_GROUP
350
3c0
3
ACAD_MLINESTYLE
350
3c1
0
DICTIONARY
5
3c0
330
0
100
AcDbDictionary
280
0
281
1
0
DICTIONARY
5
3c1
330
0
100
AcDbDictionary
280
0
281
1
3
Standard
350
18
0
MLINESTYLE
5
18
330
3c1
100
AcDbMlineStyle
2
Standard
70
0
3

62
256
51
90
52
90
71
2
49
-0.5
62
256
6
ByLayer
49
0.5
62
256
6
ByLayer
0
RASTERVARIABLES
5
3ac
330

100
AcDbRasterVariables
90
0
70
1
71
1
72
1
0
ENDSEC
0
EOF
