0
SECTION
2
HEADER
9
$ACADVER
1
AC1015
9
$DWGCODEPAGE
3
ANSI_1252
9
$HANDSEED
5
3c9
9
$ANGBASE
50
0
9
$ANGDIR
70
0
9
$ATTMODE
70
1
9
$AUNITS
70
0
9
$AUPREC
70
0
9
$CECOLOR
62
256
9
$CELTSCALE
40
1
9
$CELTYPE
6
ByLayer
9
$CELWEIGHT
370
18
9
$CLAYER
8
0
9
$CMLJUST
70
0
9
$CMLSCALE
40
1
9
$CMLSTYLE
2
Standard
9
$DIMSTYLE
2
Standard
9
$TEXTSIZE
40
0.2
9
$TEXTSTYLE
7
Standard
9
$LUNITS
70
2
9
$LUPREC
70
4
9
$EXTNAMES
290
1
9
$INSUNITS
70
4
9
$LTSCALE
40
1
9
$LWDISPLAY
290
1
9
$PDMODE
70
0
9
$PDSIZE
40
0
9
$PLINEGEN
70
0
0
ENDSEC
0
SECTION
2
CLASSES
0
CLASS
1
RASTERVARIABLES
2
AcDbRasterVariables
3
ISM
90
0
280
0
281
0
0
ENDSEC
0
SECTION
2
TABLES
0
TABLE
2
VPORT
5
3bf
100
AcDbSymbolTable
0
VPORT
5
1
100
AcDbSymbolTableRecord
100
AcDbViewportTableRecord
2
*Active
70
0
10
0
20
0
11
1
21
1
12
-1
22
1
13
0
23
0
14
0.5
24
0.5
15
10
25
10
16
0
26
0
36
1
17
0
27
0
37
0
0
ENDTAB
0
TABLE
2
LTYPE
5
3c0
100
AcDbSymbolTable
0
LTYPE
5
14
100
AcDbSymbolTableRecord
100
AcDbLinetypeTableRecord
70
0
2
ByBlock
3

72
65
73
0
40
0
0
LTYPE
5
15
100
AcDbSymbolTableRecord
100
AcDbLinetypeTableRecord
70
0
2
ByLayer
3

72
65
73
0
40
0
0
LTYPE
5
16
100
AcDbSymbolTableRecord
100
AcDbLinetypeTableRecord
70
0
2
Continuous
3
Solid line
72
65
73
0
40
0
0
LTYPE
5
6E
100
AcDbSymbolTableRecord
100
AcDbLinetypeTableRecord
70
0
2
CENTER
3
____ _ ____ _ ____ _ ____
72
65
73
4
40
47.5
49
22
74
0
49
-8.5
74
0
49
8.5
74
0
49
-8.5
74
0
0
LTYPE
5
6F
100
AcDbSymbolTableRecord
100
AcDbLinetypeTableRecord
70
0
2
DASHED
3
__ __ __ __ __ __ __ __ __
72
65
73
2
40
25.72
49
12.86
74
0
49
-12.86
74
0
0
ENDTAB
0
TABLE
2
LAYER
5
3c1
100
AcDbSymbolTable
0
LAYER
5
10
100
AcDbSymbolTableRecord
100
AcDbLayerTableRecord
2
0
70
0
62
7
6
Continuous
290
1
370
-3
390
0
0
LAYER
5
71
100
AcDbSymbolTableRecord
100
AcDbLayerTableRecord
2
1
70
0
62
4
6
Continuous
290
1
370
-3
390
0
0
LAYER
5
74
100
AcDbSymbolTableRecord
100
AcDbLayerTableRecord
2
80
70
0
62
-6
6
Continuous
290
1
370
-3
390
0
0
LAYER
5
76
100
AcDbSymbolTableRecord
100
AcDbLayerTableRecord
2
81
70
0
62
-3
6
Continuous
290
1
370
-3
390
0
0
LAYER
5
87
100
AcDbSymbolTableRecord
100
AcDbLayerTableRecord
2
4
70
0
62
-2
6
CENTER
290
1
370
-3
390
0
0
LAYER
5
8D
100
AcDbSymbolTableRecord
100
AcDbLayerTableRecord
2
2
70
0
62
7
6
Continuous
290
1
370
-3
390
0
0
LAYER
5
2E7
100
AcDbSymbolTableRecord
100
AcDbLayerTableRecord
2
Defpoints
70
0
62
7
6
Continuous
290
0
370
-3
390
0
0
LAYER
5
3aa
100
AcDbSymbolTableRecord
100
AcDbLayerTableRecord
2
SK4
70
0
62
2
6
CENTER
290
1
370
-3
390
0
0
LAYER
5
3ab
100
AcDbSymbolTableRecord
100
AcDbLayerTableRecord
2
SK3
70
0
62
1
6
DASHED
290
1
370
-3
390
0
0
LAYER
5
3ac
100
AcDbSymbolTableRecord
100
AcDbLayerTableRecord
2
SK1
70
0
62
4
6
Continuous
290
1
370
-3
390
0
0
LAYER
5
3ad
100
AcDbSymbolTableRecord
100
AcDbLayerTableRecord
2
SK6
70
0
62
5
6
Continuous
290
1
370
-3
390
0
0
LAYER
5
3ae
100
AcDbSymbolTableRecord
100
AcDbLayerTableRecord
2
SK2
70
0
62
7
6
Continuous
290
1
370
-3
390
0
0
ENDTAB
0
TABLE
2
STYLE
5
3c2
100
AcDbSymbolTable
0
STYLE
5
11
100
AcDbSymbolTableRecord
100
AcDbTextStyleTableRecord
2
Standard
3
txt
70
0
71
0
40
0
41
1
42
0
50
0
0
STYLE
5
2DF
100
AcDbSymbolTableRecord
100
AcDbTextStyleTableRecord
2
iso_b_vert
3
simplex.shx
70
0
71
0
40
0
41
1
42
0
50
0
0
STYLE
5
2E0
100
AcDbSymbolTableRecord
100
AcDbTextStyleTableRecord
2
DWGDirectTextStyle
3
simplex
70
0
71
0
40
0
41
1
42
0
50
0
0
ENDTAB
0
TABLE
2
DIMSTYLE
5
3c3
100
AcDbSymbolTable
100
AcDbDimStyleTable
0
DIMSTYLE
105
27
100
AcDbSymbolTableRecord
100
AcDbDimStyleTableRecord
2
Standard
70
0
3
<>
41
0.18
42
0.0625
44
0.18
140
0.18
147
0.09
73
0
74
0
77
1
271
2
275
0
278
52
280
0
340
11
0
ENDTAB
0
TABLE
2
VIEW
5
3c4
100
AcDbSymbolTable
0
ENDTAB
0
TABLE
2
UCS
5
3c5
100
AcDbSymbolTable
0
ENDTAB
0
TABLE
2
APPID
5
3c6
100
AcDbSymbolTable
0
APPID
5
12
100
AcDbSymbolTableRecord
100
AcDbRegAppTableRecord
2
ACAD
70
0
0
APPID
5
2E3
100
AcDbSymbolTableRecord
100
AcDbRegAppTableRecord
2
ACAD_DSTYLE_DIMBREAK
70
0
0
APPID
5
331
100
AcDbSymbolTableRecord
100
AcDbRegAppTableRecord
2
ACAD_DSTYLE_DIMANGULAR_EXTENSION
70
0
0
APPID
5
369
100
AcDbSymbolTableRecord
100
AcDbRegAppTableRecord
2
ACAD_DSTYLE_DIM_LINETYPE
70
0
0
APPID
5
36A
100
AcDbSymbolTableRecord
100
AcDbRegAppTableRecord
2
ACAD_DSTYLE_DIM_EXT1_LINETYPE
70
0
0
APPID
5
36B
100
AcDbSymbolTableRecord
100
AcDbRegAppTableRecord
2
ACAD_DSTYLE_DIM_EXT2_LINETYPE
70
0
0
APPID
5
3A6
100
AcDbSymbolTableRecord
100
AcDbRegAppTableRecord
2
ACAD_MLEADERVER
70
0
0
ENDTAB
0
TABLE
2
BLOCK_RECORD
5
3c7
100
AcDbSymbolTable
0
BLOCK_RECORD
5
1F
100
AcDbSymbolTableRecord
100
AcDbBlockTableRecord
2
*Model_Space
340
0
70
0
0
BLOCK_RECORD
5
1B
100
AcDbSymbolTableRecord
100
AcDbBlockTableRecord
2
*Paper_Space
340
0
70
0
0
BLOCK_RECORD
5
23
100
AcDbSymbolTableRecord
100
AcDbBlockTableRecord
2
*Paper_Space0
340
0
70
0
0
BLOCK_RECORD
5
2E8
100
AcDbSymbolTableRecord
100
AcDbBlockTableRecord
2
*D1
340
0
70
0
0
BLOCK_RECORD
5
2F4
100
AcDbSymbolTableRecord
100
AcDbBlockTableRecord
2
_U0
340
0
70
0
0
BLOCK_RECORD
5
300
100
AcDbSymbolTableRecord
100
AcDbBlockTableRecord
2
*D3
340
0
70
0
0
BLOCK_RECORD
5
30D
100
AcDbSymbolTableRecord
100
AcDbBlockTableRecord
2
_U1
340
0
70
0
0
BLOCK_RECORD
5
31A
100
AcDbSymbolTableRecord
100
AcDbBlockTableRecord
2
*D5
340
0
70
0
0
BLOCK_RECORD
5
326
100
AcDbSymbolTableRecord
100
AcDbBlockTableRecord
2
_U2
340
0
70
0
0
BLOCK_RECORD
5
334
100
AcDbSymbolTableRecord
100
AcDbBlockTableRecord
2
*D7
340
0
70
0
0
BLOCK_RECORD
5
342
100
AcDbSymbolTableRecord
100
AcDbBlockTableRecord
2
_U3
340
0
70
0
0
ENDTAB
0
ENDSEC
0
SECTION
2
BLOCKS
0
BLOCK
5
20
100
AcDbEntity
8
0
100
AcDbBlockBegin
2
*Model_Space
70
0
10
0
20
0
30
0
3
*Model_Space
0
ENDBLK
5
21
100
AcDbEntity
8
0
100
AcDbBlockEnd
0
BLOCK
5
1C
100
AcDbEntity
8
0
100
AcDbBlockBegin
2
*Paper_Space
70
0
10
0
20
0
30
0
3
*Paper_Space
0
ENDBLK
5
1D
100
AcDbEntity
8
0
100
AcDbBlockEnd
0
BLOCK
5
24
100
AcDbEntity
8
0
100
AcDbBlockBegin
2
*Paper_Space0
70
0
10
0
20
0
30
0
3
*Paper_Space0
0
ENDBLK
5
25
100
AcDbEntity
8
0
100
AcDbBlockEnd
0
BLOCK
5
2E9
100
AcDbEntity
8
0
100
AcDbBlockBegin
2
*D1
70
1
10
0
20
0
30
0
3
*D1
0
LINE
5
2EB
100
AcDbEntity
8
0
62
256
6
ByLayer
370
-2
48
1
60
0
100
AcDbLine
10
0
20
51.4
30
0
11
0
21
114.211732
31
0
39
0
210
0
220
0
230
1
0
LINE
5
2EC
100
AcDbEntity
8
0
62
256
6
ByLayer
370
-2
48
1
60
0
100
AcDbLine
10
117.000001
20
92.5
30
0
11
117.000001
21
114.211732
31
0
39
0
210
0
220
0
230
1
0
LINE
5
2ED
100
AcDbEntity
8
0
62
256
6
ByLayer
370
-2
48
1
60
0
100
AcDbLine
10
3.175
20
112.211732
30
0
11
113.825001
21
112.211732
31
0
39
0
210
0
220
0
230
1
0
SOLID
5
2EE
100
AcDbEntity
8
0
62
256
6
ByLayer
370
-1
48
1
60
0
100
AcDbTrace
10
3.175
20
112.740899
30
0
11
3.175
21
111.682566
31
0
12
0
22
112.211732
32
0
13
0
23
112.211732
33
0
39
0
210
0
220
0
230
1
0
SOLID
5
2EF
100
AcDbEntity
8
0
62
256
6
ByLayer
370
-1
48
1
60
0
100
AcDbTrace
10
113.825001
20
111.682566
30
0
11
113.825001
21
112.740899
31
0
12
117.000001
22
112.211732
32
0
13
117.000001
23
112.211732
33
0
39
0
210
0
220
0
230
1
0
MTEXT
5
2F0
100
AcDbEntity
8
0
62
256
6
ByLayer
370
18
48
1
60
0
100
AcDbMText
10
58.5
20
119.711732
30
0
210
0
220
0
230
1
1
\A1;117.0
40
3
41
0
44
1
50
0
71
5
72
5
7
iso_b_vert
0
POINT
5
2F1
100
AcDbEntity
8
Defpoints
62
0
6
ByLayer
370
-1
48
1
60
0
100
AcDbPoint
10
0
20
49.4
30
0
39
0
210
0
220
0
230
1
50
360
0
POINT
5
2F2
100
AcDbEntity
8
Defpoints
62
0
6
ByLayer
370
-1
48
1
60
0
100
AcDbPoint
10
117.000001
20
90.5
30
0
39
0
210
0
220
0
230
1
50
360
0
POINT
5
2F3
100
AcDbEntity
8
Defpoints
62
0
6
ByLayer
370
-1
48
1
60
0
100
AcDbPoint
10
117.000001
20
112.211732
30
0
39
0
210
0
220
0
230
1
50
360
0
ENDBLK
5
2EA
100
AcDbEntity
8
0
100
AcDbBlockEnd
0
BLOCK
5
2FB
100
AcDbEntity
8
0
100
AcDbBlockBegin
2
_U0
70
0
10
0
20
0
30
0
3
_U0
0
MTEXT
5
2F5
100
AcDbEntity
8
2
62
256
6
ByLayer
370
18
48
1
60
0
100
AcDbMText
10
54.76866
20
113.096847
30
0
210
0
220
0
230
1
1
\W0.6717;117.0
40
3
41
0
44
1.084337
50
0
71
7
72
5
7
iso_b_vert
0
LINE
5
2F6
100
AcDbEntity
8
2
62
256
6
ByLayer
370
13
48
1
60
0
100
AcDbLine
10
0
20
51.4
30
0
11
0
21
114.211732
31
0
39
0
210
0
220
0
230
1
0
LINE
5
2F7
100
AcDbEntity
8
2
62
256
6
ByLayer
370
13
48
1
60
0
100
AcDbLine
10
117.000001
20
92.5
30
0
11
117.000001
21
114.211732
31
0
39
0
210
0
220
0
230
1
0
LINE
5
2F8
100
AcDbEntity
8
2
62
256
6
ByLayer
370
13
48
1
60
0
100
AcDbLine
10
0
20
112.211732
30
0
11
117.000001
21
112.211732
31
0
39
0
210
0
220
0
230
1
0
SOLID
5
2F9
100
AcDbEntity
8
2
62
256
6
ByLayer
370
18
48
1
60
0
100
AcDbTrace
10
0
20
112.211732
30
0
11
3.174998
21
112.629729
31
0
12
3.175002
22
111.793736
32
0
13
3.175002
23
111.793736
33
0
39
0
210
0
220
0
230
1
0
SOLID
5
2FA
100
AcDbEntity
8
2
62
256
6
ByLayer
370
18
48
1
60
0
100
AcDbTrace
10
117.000001
20
112.211732
30
0
11
113.825002
21
111.793736
31
0
12
113.824999
22
112.629729
32
0
13
113.824999
23
112.629729
33
0
39
0
210
0
220
0
230
1
0
ENDBLK
5
2FC
100
AcDbEntity
8
0
100
AcDbBlockEnd
0
BLOCK
5
301
100
AcDbEntity
8
0
100
AcDbBlockBegin
2
*D3
70
1
10
0
20
0
30
0
3
*D3
0
LINE
5
303
100
AcDbEntity
8
0
62
256
6
ByLayer
370
-2
48
1
60
0
100
AcDbLine
10
8.269616
20
20.00625
30
0
11
-20.97867
21
20.00625
31
0
39
0
210
0
220
0
230
1
0
LINE
5
304
100
AcDbEntity
8
0
62
256
6
ByLayer
370
-2
48
1
60
0
100
AcDbLine
10
-0.960769
20
-20.00625
30
0
11
-20.97867
21
-20.00625
31
0
39
0
210
0
220
0
230
1
0
LINE
5
305
100
AcDbEntity
8
0
62
256
6
ByLayer
370
-2
48
1
60
0
100
AcDbLine
10
-18.97867
20
16.83125
30
0
11
-18.97867
21
-16.83125
31
0
39
0
210
0
220
0
230
1
0
SOLID
5
306
100
AcDbEntity
8
0
62
256
6
ByLayer
370
-1
48
1
60
0
100
AcDbTrace
10
-18.449504
20
16.83125
30
0
11
-19.507837
21
16.83125
31
0
12
-18.97867
22
20.00625
32
0
13
-18.97867
23
20.00625
33
0
39
0
210
0
220
0
230
1
0
SOLID
5
307
100
AcDbEntity
8
0
62
256
6
ByLayer
370
-1
48
1
60
0
100
AcDbTrace
10
-19.507837
20
-16.83125
30
0
11
-18.449504
21
-16.83125
31
0
12
-18.97867
22
-20.00625
32
0
13
-18.97867
23
-20.00625
33
0
39
0
210
0
220
0
230
1
0
MTEXT
5
308
100
AcDbEntity
8
0
62
256
6
ByLayer
370
18
48
1
60
0
100
AcDbMText
10
-27.72867
20
0
30
0
210
0
220
0
230
1
1
\A1;40
40
3.5
41
0
44
1
50
90
71
5
72
5
7
iso_b_vert
0
POINT
5
309
100
AcDbEntity
8
Defpoints
62
0
6
ByLayer
370
-1
48
1
60
0
100
AcDbPoint
10
10.269616
20
20.00625
30
0
39
0
210
0
220
0
230
1
50
360
0
POINT
5
30A
100
AcDbEntity
8
Defpoints
62
0
6
ByLayer
370
-1
48
1
60
0
100
AcDbPoint
10
1.039231
20
-20.00625
30
0
39
0
210
0
220
0
230
1
50
360
0
POINT
5
30B
100
AcDbEntity
8
Defpoints
62
0
6
ByLayer
370
-1
48
1
60
0
100
AcDbPoint
10
-18.97867
20
-20.00625
30
0
39
0
210
0
220
0
230
1
50
360
0
ENDBLK
5
302
100
AcDbEntity
8
0
100
AcDbBlockEnd
0
BLOCK
5
315
100
AcDbEntity
8
0
100
AcDbBlockBegin
2
_U1
70
0
10
0
20
0
30
0
3
_U1
0
MTEXT
5
30E
100
AcDbEntity
8
SK2
62
256
6
ByLayer
370
18
48
1
60
0
100
AcDbMText
10
-19.668304
20
1.161447
30
0
210
0
220
0
230
1
1
\W0.6754;40
40
3.5
41
0
44
1.084337
50
90
71
7
72
5
7
iso_b_vert
0
MTEXT
5
30F
100
AcDbEntity
8
SK2
62
256
6
ByLayer
370
18
48
1
60
0
100
AcDbMText
10
-19.668304
20
-5.304342
30
0
210
0
220
0
230
1
1
\W0.8513;%%c 
40
3.5
41
0
44
1.084337
50
90
71
7
72
5
7
iso_b_vert
0
LINE
5
310
100
AcDbEntity
8
SK2
62
256
6
ByLayer
370
13
48
1
60
0
100
AcDbLine
10
-0.960769
20
20.00625
30
0
11
-20.97867
21
20.00625
31
0
39
0
210
0
220
0
230
1
0
LINE
5
311
100
AcDbEntity
8
SK2
62
256
6
ByLayer
370
13
48
1
60
0
100
AcDbLine
10
-0.960769
20
-20.00625
30
0
11
-20.97867
21
-20.00625
31
0
39
0
210
0
220
0
230
1
0
LINE
5
312
100
AcDbEntity
8
SK2
62
256
6
ByLayer
370
13
48
1
60
0
100
AcDbLine
10
-18.97867
20
20.00625
30
0
11
-18.97867
21
-20.00625
31
0
39
0
210
0
220
0
230
1
0
SOLID
5
313
100
AcDbEntity
8
SK2
62
256
6
ByLayer
370
18
48
1
60
0
100
AcDbTrace
10
-18.97867
20
20.00625
30
0
11
-18.560674
21
16.831252
31
0
12
-19.396667
22
16.831248
32
0
13
-19.396667
23
16.831248
33
0
39
0
210
0
220
0
230
1
0
SOLID
5
314
100
AcDbEntity
8
SK2
62
256
6
ByLayer
370
18
48
1
60
0
100
AcDbTrace
10
-18.97867
20
-20.00625
30
0
11
-19.396667
21
-16.831252
31
0
12
-18.560674
22
-16.831248
32
0
13
-18.560674
23
-16.831248
33
0
39
0
210
0
220
0
230
1
0
ENDBLK
5
316
100
AcDbEntity
8
0
100
AcDbBlockEnd
0
BLOCK
5
31B
100
AcDbEntity
8
0
100
AcDbBlockBegin
2
*D5
70
1
10
0
20
0
30
0
3
*D5
0
LINE
5
31D
100
AcDbEntity
8
0
62
256
6
ByLayer
370
-2
48
1
60
0
100
AcDbLine
10
-1.4
20
50
30
0
11
-41.696803
21
50
31
0
39
0
210
0
220
0
230
1
0
LINE
5
31E
100
AcDbEntity
8
0
62
256
6
ByLayer
370
-2
48
1
60
0
100
AcDbLine
10
-1.4
20
-50
30
0
11
-41.696803
21
-50
31
0
39
0
210
0
220
0
230
1
0
LINE
5
31F
100
AcDbEntity
8
0
62
256
6
ByLayer
370
-2
48
1
60
0
100
AcDbLine
10
-39.696803
20
46.825
30
0
11
-39.696803
21
-46.825
31
0
39
0
210
0
220
0
230
1
0
SOLID
5
320
100
AcDbEntity
8
0
62
256
6
ByLayer
370
-1
48
1
60
0
100
AcDbTrace
10
-39.167637
20
46.825
30
0
11
-40.22597
21
46.825
31
0
12
-39.696803
22
50
32
0
13
-39.696803
23
50
33
0
39
0
210
0
220
0
230
1
0
SOLID
5
321
100
AcDbEntity
8
0
62
256
6
ByLayer
370
-1
48
1
60
0
100
AcDbTrace
10
-40.22597
20
-46.825
30
0
11
-39.167637
21
-46.825
31
0
12
-39.696803
22
-50
32
0
13
-39.696803
23
-50
33
0
39
0
210
0
220
0
230
1
0
MTEXT
5
322
100
AcDbEntity
8
0
62
256
6
ByLayer
370
18
48
1
60
0
100
AcDbMText
10
-48.446803
20
0
30
0
210
0
220
0
230
1
1
\A1;100
40
3.5
41
0
44
1
50
90
71
5
72
5
7
iso_b_vert
0
POINT
5
323
100
AcDbEntity
8
Defpoints
62
0
6
ByLayer
370
-1
48
1
60
0
100
AcDbPoint
10
0.6
20
50
30
0
39
0
210
0
220
0
230
1
50
360
0
POINT
5
324
100
AcDbEntity
8
Defpoints
62
0
6
ByLayer
370
-1
48
1
60
0
100
AcDbPoint
10
0.6
20
-50
30
0
39
0
210
0
220
0
230
1
50
360
0
POINT
5
325
100
AcDbEntity
8
Defpoints
62
0
6
ByLayer
370
-1
48
1
60
0
100
AcDbPoint
10
-39.696803
20
-50
30
0
39
0
210
0
220
0
230
1
50
360
0
ENDBLK
5
31C
100
AcDbEntity
8
0
100
AcDbBlockEnd
0
BLOCK
5
32E
100
AcDbEntity
8
0
100
AcDbBlockBegin
2
_U2
70
0
10
0
20
0
30
0
3
_U2
0
MTEXT
5
327
100
AcDbEntity
8
SK2
62
256
6
ByLayer
370
18
48
1
60
0
100
AcDbMText
10
-40.386437
20
0.475801
30
0
210
0
220
0
230
1
1
\W0.6433;100
40
3.5
41
0
44
1.084337
50
90
71
7
72
5
7
iso_b_vert
0
MTEXT
5
328
100
AcDbEntity
8
SK2
62
256
6
ByLayer
370
18
48
1
60
0
100
AcDbMText
10
-40.386437
20
-6.080731
30
0
210
0
220
0
230
1
1
\W0.8728;%%c 
40
3.5
41
0
44
1.084337
50
90
71
7
72
5
7
iso_b_vert
0
LINE
5
329
100
AcDbEntity
8
SK2
62
256
6
ByLayer
370
13
48
1
60
0
100
AcDbLine
10
-1.4
20
50
30
0
11
-41.696803
21
50
31
0
39
0
210
0
220
0
230
1
0
LINE
5
32A
100
AcDbEntity
8
SK2
62
256
6
ByLayer
370
13
48
1
60
0
100
AcDbLine
10
-1.4
20
-50
30
0
11
-41.696803
21
-50
31
0
39
0
210
0
220
0
230
1
0
LINE
5
32B
100
AcDbEntity
8
SK2
62
256
6
ByLayer
370
13
48
1
60
0
100
AcDbLine
10
-39.696803
20
50
30
0
11
-39.696803
21
-50
31
0
39
0
210
0
220
0
230
1
0
SOLID
5
32C
100
AcDbEntity
8
SK2
62
256
6
ByLayer
370
18
48
1
60
0
100
AcDbTrace
10
-39.696803
20
50
30
0
11
-39.278807
21
46.825002
31
0
12
-40.1148
22
46.824998
32
0
13
-40.1148
23
46.824998
33
0
39
0
210
0
220
0
230
1
0
SOLID
5
32D
100
AcDbEntity
8
SK2
62
256
6
ByLayer
370
18
48
1
60
0
100
AcDbTrace
10
-39.696803
20
-50
30
0
11
-40.1148
21
-46.825002
31
0
12
-39.278807
22
-46.824998
32
0
13
-39.278807
23
-46.824998
33
0
39
0
210
0
220
0
230
1
0
ENDBLK
5
32F
100
AcDbEntity
8
0
100
AcDbBlockEnd
0
BLOCK
5
335
100
AcDbEntity
8
0
100
AcDbBlockBegin
2
*D7
70
1
10
0
20
0
30
0
3
*D7
0
LINE
5
337
100
AcDbEntity
8
0
62
256
6
ByLayer
370
-2
48
1
60
0
100
AcDbLine
10
116.594104
20
78.472735
30
0
11
116.477186
21
75.124627
31
0
39
0
210
0
220
0
230
1
0
LINE
5
338
100
AcDbEntity
8
0
62
256
6
ByLayer
370
-2
48
1
60
0
100
AcDbLine
10
121.500001
20
90.5
30
0
11
132.39885
21
90.5
31
0
39
0
210
0
220
0
230
1
0
ARC
5
339
100
AcDbEntity
8
0
62
256
6
ByLayer
370
-2
48
1
60
0
100
AcDbCircle
39
0
10
117.014106
20
90.5
30
0
40
13.3847448128182
210
0
220
0
230
1
100
AcDbArc
50
281.62322
51
346.37678
0
SOLID
5
33A
100
AcDbEntity
8
0
62
256
6
ByLayer
370
-1
48
1
60
0
100
AcDbTrace
10
119.666409
20
77.917029
30
0
11
119.755182
21
76.862425
31
0
12
116.546985
22
77.123409
32
0
13
116.546985
23
77.123409
33
0
39
0
210
0
220
0
230
1
0
SOLID
5
33B
100
AcDbEntity
8
0
62
256
6
ByLayer
370
-1
48
1
60
0
100
AcDbTrace
10
130.54771
20
87.284649
30
0
11
129.496847
21
87.410173
31
0
12
130.39885
22
90.5
32
0
13
130.39885
23
90.5
33
0
39
0
210
0
220
0
230
1
0
MTEXT
5
33C
100
AcDbEntity
8
0
62
256
6
ByLayer
370
18
48
1
60
0
100
AcDbMText
10
121.052374
20
86.31825
30
0
210
0
220
0
230
1
1
\A1;92%%d
40
3
41
0
44
1
50
0
71
5
72
5
7
iso_b_vert
0
POINT
5
33D
100
AcDbEntity
8
Defpoints
62
0
6
ByLayer
370
-1
48
1
60
0
100
AcDbPoint
10
123.434943
20
78.755885
30
0
39
0
210
0
220
0
230
1
50
360
0
POINT
5
33E
100
AcDbEntity
8
Defpoints
62
0
6
ByLayer
370
-1
48
1
60
0
100
AcDbPoint
10
118.500001
20
90.5
30
0
39
0
210
0
220
0
230
1
50
360
0
POINT
5
33F
100
AcDbEntity
8
Defpoints
62
0
6
ByLayer
370
-1
48
1
60
0
100
AcDbPoint
10
116.663903
20
80.471516
30
0
39
0
210
0
220
0
230
1
50
360
0
POINT
5
340
100
AcDbEntity
8
Defpoints
62
0
6
ByLayer
370
-1
48
1
60
0
100
AcDbPoint
10
116.999766
20
90.089361
30
0
39
0
210
0
220
0
230
1
50
360
0
POINT
5
341
100
AcDbEntity
8
Defpoints
62
0
6
ByLayer
370
-1
48
1
60
0
100
AcDbPoint
10
119.500001
20
90.5
30
0
39
0
210
0
220
0
230
1
50
360
0
ENDBLK
5
336
100
AcDbEntity
8
0
100
AcDbBlockEnd
0
BLOCK
5
349
100
AcDbEntity
8
0
100
AcDbBlockBegin
2
_U3
70
0
10
0
20
0
30
0
3
_U3
0
MTEXT
5
343
100
AcDbEntity
8
2
62
256
6
ByLayer
370
18
48
1
60
0
100
AcDbMText
10
126.059523
20
77.481819
30
0
210
0
220
0
230
1
1
\W0.6002;92%%d
40
3
41
0
44
1.084337
50
44
71
7
72
5
7
iso_b_vert
0
LINE
5
344
100
AcDbEntity
8
2
62
256
6
ByLayer
370
13
48
1
60
0
100
AcDbLine
10
116.594104
20
78.472735
30
0
11
116.372487
21
72.126455
31
0
39
0
210
0
220
0
230
1
0
LINE
5
345
100
AcDbEntity
8
2
62
256
6
ByLayer
370
13
48
1
60
0
100
AcDbLine
10
120.500001
20
90.5
30
0
11
135.39885
21
90.5
31
0
39
0
210
0
220
0
230
1
0
ARC
5
346
100
AcDbEntity
8
2
62
256
6
ByLayer
370
13
48
1
60
0
100
AcDbCircle
39
0
10
117.014106
20
90.5
30
0
40
16.3847448128182
210
0
220
0
230
1
100
AcDbArc
50
268
51
359.999943
0
SOLID
5
347
100
AcDbEntity
8
2
62
256
6
ByLayer
370
18
48
1
60
0
100
AcDbTrace
10
116.442286
20
74.125236
30
0
11
119.611405
21
74.585698
31
0
12
119.622599
22
73.74978
32
0
13
119.622599
23
73.74978
33
0
39
0
210
0
220
0
230
1
0
SOLID
5
348
100
AcDbEntity
8
2
62
256
6
ByLayer
370
18
48
1
60
0
100
AcDbTrace
10
133.39885
20
90.5
30
0
11
133.663087
21
87.308524
31
0
12
132.828068
22
87.348879
32
0
13
132.828068
23
87.348879
33
0
39
0
210
0
220
0
230
1
0
ENDBLK
5
34A
100
AcDbEntity
8
0
100
AcDbBlockEnd
0
ENDSEC
0
SECTION
2
ENTITIES
0
ARC
5
1AF
100
AcDbEntity
8
SK3
62
256
6
ByLayer
370
13
48
0.05
60
0
100
AcDbCircle
39
0
10
20.300001
20
-20.2
30
0
40
0.8
210
0
220
0
230
1
100
AcDbArc
50
180
51
270
0
ARC
5
1B0
100
AcDbEntity
8
SK3
62
256
6
ByLayer
370
13
48
0.05
60
0
100
AcDbCircle
39
0
10
27.700001
20
20.2
30
0
40
0.8
210
0
220
0
230
1
100
AcDbArc
50
0
51
90
0
ARC
5
1B1
100
AcDbEntity
8
SK3
62
256
6
ByLayer
370
13
48
0.05
60
0
100
AcDbCircle
39
0
10
27.700001
20
-20.2
30
0
40
0.8
210
0
220
0
230
1
100
AcDbArc
50
270
51
0
0
ARC
5
1B2
100
AcDbEntity
8
SK3
62
256
6
ByLayer
370
13
48
0.05
60
0
100
AcDbCircle
39
0
10
20.300001
20
20.2
30
0
40
0.8
210
0
220
0
230
1
100
AcDbArc
50
90
51
180
0
ARC
5
1B3
100
AcDbEntity
8
1
62
256
6
ByLayer
370
13
48
1
60
0
100
AcDbCircle
39
0
10
89.25
20
68.288
30
0
40
3.4455
210
0
220
0
230
1
100
AcDbArc
50
75
51
345
0
ARC
5
1B4
100
AcDbEntity
8
1
62
256
6
ByLayer
370
18
48
1
60
0
100
AcDbCircle
39
0
10
100.460064
20
68.288
30
0
40
13.5
210
0
220
0
230
1
100
AcDbArc
50
0
51
21.738461
0
ARC
5
1B5
100
AcDbEntity
8
1
62
256
6
ByLayer
370
18
48
1
60
0
100
AcDbCircle
39
0
10
100.460064
20
68.288
30
0
40
13.5
210
0
220
0
230
1
100
AcDbArc
50
338.261539
51
0
0
ARC
5
1B6
100
AcDbEntity
8
1
62
256
6
ByLayer
370
18
48
1
60
0
100
AcDbCircle
39
0
10
74.876759
20
30.66455
30
0
40
0.5
210
0
220
0
230
1
100
AcDbArc
50
273
51
3
0
ARC
5
1B7
100
AcDbEntity
8
1
62
256
6
ByLayer
370
18
48
1
60
0
100
AcDbCircle
39
0
10
74.09172
20
45.643993
30
0
40
0.5
210
0
220
0
230
1
100
AcDbArc
50
3
51
93
0
ARC
5
1B8
100
AcDbEntity
8
1
62
256
6
ByLayer
370
18
48
1
60
0
100
AcDbCircle
39
0
10
74.09172
20
-45.643993
30
0
40
0.5
210
0
220
0
230
1
100
AcDbArc
50
267
51
357
0
ARC
5
1B9
100
AcDbEntity
8
1
62
256
6
ByLayer
370
18
48
1
60
0
100
AcDbCircle
39
0
10
74.876759
20
-30.66455
30
0
40
0.5
210
0
220
0
230
1
100
AcDbArc
50
357
51
87
0
ARC
5
1BA
100
AcDbEntity
8
1
62
256
6
ByLayer
370
18
48
1
60
0
100
AcDbCircle
39
0
10
106.545644
20
44.5463
30
0
40
6.8
210
0
220
0
230
1
100
AcDbArc
50
0
51
18.346446
0
ARC
5
1BB
100
AcDbEntity
8
1
62
256
6
ByLayer
370
18
48
1
60
0
100
AcDbCircle
39
0
10
106.545644
20
44.5463
30
0
40
6.8
210
0
220
0
230
1
100
AcDbArc
50
341.653554
51
0
0
ARC
5
1BC
100
AcDbEntity
8
1
62
256
6
ByLayer
370
18
48
1
60
0
100
AcDbCircle
39
0
10
30.791052
20
51
30
0
40
14
210
0
220
0
230
1
100
AcDbArc
50
93.034539
51
145
0
ARC
5
1BD
100
AcDbEntity
8
1
62
256
6
ByLayer
370
18
48
1
60
0
100
AcDbCircle
39
0
10
30.791052
20
-51
30
0
40
14
210
0
220
0
230
1
100
AcDbArc
50
215
51
266.976307
0
ARC
5
1BE
100
AcDbEntity
8
1
62
256
6
ByLayer
370
18
48
1
60
0
100
AcDbCircle
39
0
10
6.753195
20
-62
30
0
40
12
210
0
220
0
230
1
100
AcDbArc
50
35
51
90
0
ARC
5
1BF
100
AcDbEntity
8
1
62
256
6
ByLayer
370
18
48
1
60
0
100
AcDbCircle
39
0
10
6.753195
20
62
30
0
40
12
210
0
220
0
230
1
100
AcDbArc
50
270
51
325
0
ARC
5
1C0
100
AcDbEntity
8
1
62
256
6
ByLayer
370
18
48
1
60
0
100
AcDbCircle
39
0
10
56
20
75.203092
30
0
40
1.9
210
0
220
0
230
1
100
AcDbArc
50
37.597492
51
142.39684
0
ARC
5
1C2
100
AcDbEntity
8
1
62
256
6
ByLayer
370
18
48
1
60
0
100
AcDbCircle
39
0
10
113.658769
20
85.391245
30
0
40
0.747999999999999
210
0
220
0
230
1
100
AcDbArc
50
150.161847
51
208.024579
0
ARC
5
1C3
100
AcDbEntity
8
1
62
256
6
ByLayer
370
18
48
1
60
0
100
AcDbCircle
39
0
10
113.658769
20
85.391245
30
0
40
0.747999999999999
210
0
220
0
230
1
100
AcDbArc
50
208.024579
51
267.975421
0
ARC
5
1C4
100
AcDbEntity
8
1
62
256
6
ByLayer
370
18
48
1
60
0
100
AcDbCircle
39
0
10
113.658769
20
85.391245
30
0
40
0.747999999999999
210
0
220
0
230
1
100
AcDbArc
50
267.975421
51
325.838153
0
ARC
5
1C5
100
AcDbEntity
8
1
62
256
6
ByLayer
370
18
48
1
60
0
100
AcDbCircle
39
0
10
113.658769
20
85.391245
30
0
40
0.747999999999999
210
0
220
0
230
1
100
AcDbArc
50
330.161847
51
28.024579
0
ARC
5
1C6
100
AcDbEntity
8
1
62
256
6
ByLayer
370
18
48
1
60
0
100
AcDbCircle
39
0
10
113.658769
20
85.391245
30
0
40
0.747999999999999
210
0
220
0
230
1
100
AcDbArc
50
28.024579
51
87.975421
0
ARC
5
1C7
100
AcDbEntity
8
1
62
256
6
ByLayer
370
18
48
1
60
0
100
AcDbCircle
39
0
10
113.658769
20
85.391245
30
0
40
0.747999999999999
210
0
220
0
230
1
100
AcDbArc
50
87.975421
51
145.838153
0
ARC
5
1CA
100
AcDbEntity
8
1
62
256
6
ByLayer
370
18
48
1
60
0
100
AcDbCircle
39
0
10
113.658769
20
85.391245
30
0
40
1.035
210
0
220
0
230
1
100
AcDbArc
50
117.950841
51
178.049159
0
ARC
5
1CB
100
AcDbEntity
8
1
62
256
6
ByLayer
370
18
48
1
60
0
100
AcDbCircle
39
0
10
113.658769
20
85.391245
30
0
40
0.747999999999999
210
0
220
0
230
1
100
AcDbArc
50
145.838153
51
150.161847
0
ARC
5
1CC
100
AcDbEntity
8
1
62
256
6
ByLayer
370
18
48
1
60
0
100
AcDbCircle
39
0
10
113.658769
20
85.391245
30
0
40
0.747999999999999
210
0
220
0
230
1
100
AcDbArc
50
325.838153
51
330.161847
0
ARC
5
1CD
100
AcDbEntity
8
1
62
256
6
ByLayer
370
18
48
1
60
0
100
AcDbCircle
39
0
10
113.658769
20
85.391245
30
0
40
1.035
210
0
220
0
230
1
100
AcDbArc
50
297.950841
51
358.049159
0
ARC
5
1CE
100
AcDbEntity
8
1
62
256
6
ByLayer
370
18
48
1
60
0
100
AcDbCircle
39
0
10
113.658769
20
85.391245
30
0
40
1.035
210
0
220
0
230
1
100
AcDbArc
50
238
51
297.950841
0
ARC
5
1CF
100
AcDbEntity
8
1
62
256
6
ByLayer
370
18
48
1
60
0
100
AcDbCircle
39
0
10
113.658769
20
85.391245
30
0
40
1.035
210
0
220
0
230
1
100
AcDbArc
50
358.049159
51
58
0
ARC
5
1D0
100
AcDbEntity
8
1
62
256
6
ByLayer
370
18
48
1
60
0
100
AcDbCircle
39
0
10
113.658769
20
85.391245
30
0
40
1.035
210
0
220
0
230
1
100
AcDbArc
50
178.049159
51
238
0
ARC
5
1D1
100
AcDbEntity
8
1
62
256
6
ByLayer
370
18
48
1
60
0
100
AcDbCircle
39
0
10
113.658769
20
85.391245
30
0
40
1.035
210
0
220
0
230
1
100
AcDbArc
50
58
51
117.950841
0
ARC
5
1D2
100
AcDbEntity
8
1
62
256
6
ByLayer
370
18
48
1
60
0
100
AcDbCircle
39
0
10
68.5
20
-15.0023
30
0
40
1.5
210
0
220
0
230
1
100
AcDbArc
50
0
51
90
0
ARC
5
1D3
100
AcDbEntity
8
1
62
256
6
ByLayer
370
18
48
1
60
0
100
AcDbCircle
39
0
10
108.061961
20
85.586819
30
0
40
1.05000000000009
210
0
220
0
230
1
100
AcDbArc
50
48.911654
51
94.602037
0
ARC
5
1D4
100
AcDbEntity
8
1
62
256
6
ByLayer
370
18
48
1
60
0
100
AcDbCircle
39
0
10
109.146481
20
86.190164
30
0
40
1.25
210
0
220
0
230
1
100
AcDbArc
50
148
51
159.230131
0
ARC
5
1D5
100
AcDbEntity
8
1
62
256
6
ByLayer
370
18
48
1
60
0
100
AcDbCircle
39
0
10
109.252464
20
86.359774
30
0
40
1.25
210
0
220
0
230
1
100
AcDbArc
50
58
51
148
0
ARC
5
1D6
100
AcDbEntity
8
1
62
256
6
ByLayer
370
18
48
1
60
0
100
AcDbCircle
39
0
10
108.061961
20
85.586819
30
0
40
1.05000000000009
210
0
220
0
230
1
100
AcDbArc
50
94.602037
51
307.073559
0
ARC
5
1D7
100
AcDbEntity
8
1
62
256
6
ByLayer
370
18
48
1
60
0
100
AcDbCircle
39
0
10
109.271646
20
86.465706
30
0
40
1.25
210
0
220
0
230
1
100
AcDbArc
50
59.252344
51
126
0
ARC
5
1D8
100
AcDbEntity
8
1
62
256
6
ByLayer
370
18
48
1
60
0
100
AcDbCircle
39
0
10
108.061961
20
85.586819
30
0
40
1.25
210
0
220
0
230
1
100
AcDbArc
50
126
51
158.57495
0
ARC
5
1D9
100
AcDbEntity
8
1
62
256
6
ByLayer
370
18
48
1
60
0
100
AcDbCircle
39
0
10
108.061961
20
85.586819
30
0
40
1.25
210
0
220
0
230
1
100
AcDbArc
50
239.646554
51
285.358602
0
ARC
5
1DA
100
AcDbEntity
8
1
62
256
6
ByLayer
370
18
48
1
60
0
100
AcDbCircle
39
0
10
108.061961
20
85.586819
30
0
40
1.25
210
0
220
0
230
1
100
AcDbArc
50
158.57495
51
239.646554
0
ARC
5
1DC
100
AcDbEntity
8
1
62
256
6
ByLayer
370
18
48
1
60
0
100
AcDbCircle
39
0
10
89.25
20
68.288
30
0
40
2.34259871723677
210
0
220
0
230
1
100
AcDbArc
50
60
51
120
0
ARC
5
1DD
100
AcDbEntity
8
1
62
256
6
ByLayer
370
18
48
1
60
0
100
AcDbCircle
39
0
10
89.25
20
68.288
30
0
40
2.34259871723677
210
0
220
0
230
1
100
AcDbArc
50
240
51
300
0
ARC
5
1DE
100
AcDbEntity
8
1
62
256
6
ByLayer
370
18
48
1
60
0
100
AcDbCircle
39
0
10
89.25
20
68.288
30
0
40
2.34259871723677
210
0
220
0
230
1
100
AcDbArc
50
120
51
180
0
ARC
5
1DF
100
AcDbEntity
8
1
62
256
6
ByLayer
370
18
48
1
60
0
100
AcDbCircle
39
0
10
89.25
20
68.288
30
0
40
2.34259871723677
210
0
220
0
230
1
100
AcDbArc
50
300
51
360
0
ARC
5
1E0
100
AcDbEntity
8
1
62
256
6
ByLayer
370
18
48
1
60
0
100
AcDbCircle
39
0
10
89.25
20
68.288
30
0
40
2.34259871723677
210
0
220
0
230
1
100
AcDbArc
50
180
51
240
0
ARC
5
1E1
100
AcDbEntity
8
1
62
256
6
ByLayer
370
18
48
1
60
0
100
AcDbCircle
39
0
10
89.25
20
68.288
30
0
40
2.34259871723677
210
0
220
0
230
1
100
AcDbArc
50
0
51
60
0
ARC
5
1E4
100
AcDbEntity
8
1
62
256
6
ByLayer
370
18
48
1
60
0
100
AcDbCircle
39
0
10
116.26727
20
80.485367
30
0
40
0.396875
210
0
220
0
230
1
100
AcDbArc
50
238
51
358
0
ARC
5
1E5
100
AcDbEntity
8
1
62
256
6
ByLayer
370
18
48
1
60
0
100
AcDbCircle
39
0
10
116.603132
20
90.103212
30
0
40
0.396875
210
0
220
0
230
1
100
AcDbArc
50
358
51
118
0
ARC
5
1E6
100
AcDbEntity
8
1
62
256
6
ByLayer
370
18
48
1
60
0
100
AcDbCircle
39
0
10
108.105903
20
85.585155
30
0
40
0.396875
210
0
220
0
230
1
100
AcDbArc
50
118
51
238
0
ARC
5
1E8
100
AcDbEntity
8
1
62
256
6
ByLayer
370
18
48
1
60
0
100
AcDbCircle
39
0
10
108.061961
20
85.586819
30
0
40
1.05000000000009
210
0
220
0
230
1
100
AcDbArc
50
48.911654
51
94.602037
0
ARC
5
1E9
100
AcDbEntity
8
1
62
256
6
ByLayer
370
18
48
1
60
0
100
AcDbCircle
39
0
10
109.252464
20
86.359774
30
0
40
1.25
210
0
220
0
230
1
100
AcDbArc
50
58
51
148
0
ARC
5
1EA
100
AcDbEntity
8
1
62
256
6
ByLayer
370
18
48
1
60
0
100
AcDbCircle
39
0
10
109.146481
20
86.190164
30
0
40
1.25
210
0
220
0
230
1
100
AcDbArc
50
148
51
159.230131
0
ARC
5
1EB
100
AcDbEntity
8
1
62
256
6
ByLayer
370
18
48
1
60
0
100
AcDbCircle
39
0
10
108.061961
20
85.586819
30
0
40
1.05000000000009
210
0
220
0
230
1
100
AcDbArc
50
94.602037
51
307.073559
0
ARC
5
1EC
100
AcDbEntity
8
1
62
256
6
ByLayer
370
18
48
1
60
0
100
AcDbCircle
39
0
10
108.061961
20
85.586819
30
0
40
1.25
210
0
220
0
230
1
100
AcDbArc
50
239.646554
51
285.358602
0
ARC
5
1ED
100
AcDbEntity
8
1
62
256
6
ByLayer
370
18
48
1
60
0
100
AcDbCircle
39
0
10
108.061961
20
85.586819
30
0
40
1.25
210
0
220
0
230
1
100
AcDbArc
50
126
51
158.57495
0
ARC
5
1EE
100
AcDbEntity
8
1
62
256
6
ByLayer
370
18
48
1
60
0
100
AcDbCircle
39
0
10
109.271646
20
86.465706
30
0
40
1.25
210
0
220
0
230
1
100
AcDbArc
50
59.252344
51
126
0
ARC
5
1EF
100
AcDbEntity
8
1
62
256
6
ByLayer
370
18
48
1
60
0
100
AcDbCircle
39
0
10
108.061961
20
85.586819
30
0
40
1.25
210
0
220
0
230
1
100
AcDbArc
50
158.57495
51
239.646554
0
ARC
5
1F1
100
AcDbEntity
8
1
62
256
6
ByLayer
370
18
48
1
60
0
100
AcDbCircle
39
0
10
116.26727
20
80.485367
30
0
40
0.396875
210
0
220
0
230
1
100
AcDbArc
50
238
51
358
0
ARC
5
1F2
100
AcDbEntity
8
1
62
256
6
ByLayer
370
18
48
1
60
0
100
AcDbCircle
39
0
10
116.603132
20
90.103212
30
0
40
0.396875
210
0
220
0
230
1
100
AcDbArc
50
358
51
118
0
ARC
5
1F3
100
AcDbEntity
8
1
62
256
6
ByLayer
370
18
48
1
60
0
100
AcDbCircle
39
0
10
108.105903
20
85.585155
30
0
40
0.396875
210
0
220
0
230
1
100
AcDbArc
50
118
51
238
0
CIRCLE
5
1C1
100
AcDbEntity
8
1
62
256
6
ByLayer
370
18
48
1
60
0
100
AcDbCircle
10
89.25
20
68.288
30
0
40
4
39
0
210
0
220
0
230
1
0
CIRCLE
5
1C8
100
AcDbEntity
8
1
62
256
6
ByLayer
370
18
48
1
60
0
100
AcDbCircle
10
113.658769
20
85.391245
30
0
40
1.725
39
0
210
0
220
0
230
1
0
CIRCLE
5
1C9
100
AcDbEntity
8
1
62
256
6
ByLayer
370
18
48
1
60
0
100
AcDbCircle
10
113.658769
20
85.391245
30
0
40
1.3
39
0
210
0
220
0
230
1
0
CIRCLE
5
1DB
100
AcDbEntity
8
1
62
256
6
ByLayer
370
18
48
1
60
0
100
AcDbCircle
10
89.25
20
68.288
30
0
40
3.233
39
0
210
0
220
0
230
1
0
CIRCLE
5
1E2
100
AcDbEntity
8
1
62
256
6
ByLayer
370
13
48
1
60
0
100
AcDbCircle
10
113.658769
20
85.391245
30
0
40
1.8014146404184
39
0
210
0
220
0
230
1
0
CIRCLE
5
1E3
100
AcDbEntity
8
1
62
256
6
ByLayer
370
13
48
1
60
0
100
AcDbCircle
10
113.658769
20
85.391245
30
0
40
1.88122167929295
39
0
210
0
220
0
230
1
0
CIRCLE
5
1E7
100
AcDbEntity
8
1
62
256
6
ByLayer
370
18
48
1
60
0
100
AcDbCircle
10
113.658769
20
85.391245
30
0
40
1.90468944117779
39
0
210
0
220
0
230
1
0
CIRCLE
5
1F0
100
AcDbEntity
8
1
62
256
6
ByLayer
370
13
48
1
60
0
100
AcDbCircle
10
113.658769
20
85.391245
30
0
40
1.8014146404184
39
0
210
0
220
0
230
1
0
CIRCLE
5
1F4
100
AcDbEntity
8
1
62
256
6
ByLayer
370
13
48
1
60
0
100
AcDbCircle
10
113.658769
20
85.391245
30
0
40
1.88122167929295
39
0
210
0
220
0
230
1
0
CIRCLE
5
1F5
100
AcDbEntity
8
1
62
256
6
ByLayer
370
18
48
1
60
0
100
AcDbCircle
10
113.658769
20
85.391245
30
0
40
1.90468944117779
39
0
210
0
220
0
230
1
0
ELLIPSE
5
1F6
100
AcDbEntity
8
1
62
256
6
ByLayer
370
13
48
1
60
0
100
AcDbEllipse
10
33.947643
20
-54.464833
30
0
11
3.99920157160998
21
0.0799173925517326
31
0
210
0
220
0
230
1
40
0.486784
41
-2.70268581464867
42
-0.46938159333547
0
ELLIPSE
5
1F7
100
AcDbEntity
8
1
62
256
6
ByLayer
370
13
48
1
60
0
100
AcDbEllipse
10
33.934257
20
-53.794975
30
0
11
3.23235467025377
21
0.0645932325299379
31
0
210
0
220
0
230
1
40
0.486784
41
-2.54459989057234
42
-0.630191867291063
0
ELLIPSE
5
1F8
100
AcDbEntity
8
1
62
256
6
ByLayer
370
18
48
1
60
0
100
AcDbEllipse
10
77.5
20
68.528085
30
0
11
6
21
0
31
0
210
0
220
0
230
1
40
0.93358
41
3.03912014643649
42
3.1415163095703
0
ELLIPSE
5
1F9
100
AcDbEntity
8
1
62
256
6
ByLayer
370
18
48
1
60
0
100
AcDbEllipse
10
77.5
20
68.528085
30
0
11
6
21
0
31
0
210
0
220
0
230
1
40
0.93358
41
1.37525397998284
42
1.68028294854179
0
ELLIPSE
5
1FA
100
AcDbEntity
8
1
62
256
6
ByLayer
370
13
48
1
60
0
100
AcDbEllipse
10
68.5
20
-57.766569
30
0
11
-1.5
21
1.83690953073357E-16
31
0
210
0
220
0
230
1
40
0.766044
41
1.5707963267949
42
3.14159265358979
0
ELLIPSE
5
1FB
100
AcDbEntity
8
1
62
256
6
ByLayer
370
18
48
1
60
0
100
AcDbEllipse
10
123.496638
20
66.152704
30
0
11
90.7896882899429
21
4.17473640304959
31
0
210
0
220
0
230
1
40
0.264053
41
1.66113862077618
42
1.66887543305601
0
ELLIPSE
5
1FC
100
AcDbEntity
8
1
62
256
6
ByLayer
370
18
48
1
60
0
100
AcDbEllipse
10
123.497239
20
66.151821
30
0
11
90.7914749243929
21
4.1746608094219
31
0
210
0
220
0
230
1
40
0.264058
41
1.6722560688325
42
1.67849199603692
0
ELLIPSE
5
1FD
100
AcDbEntity
8
1
62
256
6
ByLayer
370
18
48
1
60
0
100
AcDbEllipse
10
123.496657
20
66.152657
30
0
11
90.7897811626203
21
4.17473582821617
31
0
210
0
220
0
230
1
40
0.264053
41
1.66113873160819
42
1.66887553606049
0
ELLIPSE
5
1FE
100
AcDbEntity
8
1
62
256
6
ByLayer
370
18
48
1
60
0
100
AcDbEllipse
10
123.497239
20
66.151821
30
0
11
90.7914749243929
21
4.1746608094219
31
0
210
0
220
0
230
1
40
0.264058
41
1.6722560688325
42
1.67849199603692
0
ELLIPSE
5
1FF
100
AcDbEntity
8
1
62
256
6
ByLayer
370
18
48
1
60
0
100
AcDbEllipse
10
40.850174
20
0.001263
30
0
11
64.3938322032584
21
-8.85164007640258
31
0
210
0
220
0
230
1
40
0.99999
41
1.56616282047104
42
1.5754804843123
0
ELLIPSE
5
200
100
AcDbEntity
8
1
62
256
6
ByLayer
370
18
48
1
60
0
100
AcDbEllipse
10
40.850394
20
-0.002863
30
0
11
64.3919442693181
21
8.85943910692712
31
0
210
0
220
0
230
1
40
0.999978
41
-1.57560337067673
42
-1.56628559103777
0
ELLIPSE
5
201
100
AcDbEntity
8
1
62
256
6
ByLayer
370
18
48
1
60
0
100
AcDbEllipse
10
33.947643
20
-54.464833
30
0
11
3.49185286223161
21
0.0697788723391384
31
0
210
0
220
0
230
1
40
0.486784
41
-2.79514199285927
42
-0.37209052418992
0
ELLIPSE
5
202
100
AcDbEntity
8
1
62
256
6
ByLayer
370
18
48
1
60
0
100
AcDbEllipse
10
33.947643
20
-54.464833
30
0
11
4.49910176806123
21
0.0899070666206992
31
0
210
0
220
0
230
1
40
0.486784
41
-2.59626693737229
42
-0.54176351012143
0
ELLIPSE
5
203
100
AcDbEntity
8
1
62
256
6
ByLayer
370
18
48
1
60
0
100
AcDbEllipse
10
34
20
-57.084877
30
0
11
4.50069656137367
21
-0.0172572728557636
31
0
210
0
220
0
230
1
40
0.65441
41
0.842465571002129
42
2.31084546962206
0
ELLIPSE
5
204
100
AcDbEntity
8
1
62
256
6
ByLayer
370
18
48
1
60
0
100
AcDbEllipse
10
56
20
77.674352
30
0
11
2.50000000000001
21
2.92863841145632E-15
31
0
210
0
220
0
230
1
40
0.657352
41
0
42
6.28318530717959
0
ELLIPSE
5
205
100
AcDbEntity
8
1
62
256
6
ByLayer
370
13
48
1
60
0
100
AcDbEllipse
10
69
20
58.941435
30
0
11
1.5
21
0
31
0
210
0
220
0
230
1
40
0.766044
41
0
42
1.5707963267949
0
ELLIPSE
5
206
100
AcDbEntity
8
1
62
256
6
ByLayer
370
18
48
1
60
0
100
AcDbEllipse
10
106.200704
20
86.627437
30
0
11
-0.36013474888586
21
1.03937623729087
31
0
210
0
220
0
230
1
40
0.24886
41
-2.88177263677485
42
-0.259916625107602
0
ELLIPSE
5
207
100
AcDbEntity
8
1
62
256
6
ByLayer
370
18
48
1
60
0
100
AcDbEllipse
10
56
20
76.616477
30
0
11
1.8
21
0
31
0
210
0
220
0
230
1
40
0.788905
41
-0.0598067561259394
42
0
0
ELLIPSE
5
208
100
AcDbEntity
8
1
62
256
6
ByLayer
370
18
48
1
60
0
100
AcDbEllipse
10
56
20
76.616477
30
0
11
1.8
21
0
31
0
210
0
220
0
230
1
40
0.788905
41
0
42
2.23974137975413
0
ELLIPSE
5
209
100
AcDbEntity
8
1
62
256
6
ByLayer
370
18
48
1
60
0
100
AcDbEllipse
10
56
20
76.616477
30
0
11
1.8
21
0
31
0
210
0
220
0
230
1
40
0.788905
41
2.23974060308141
42
-3.08182222799833
0
ELLIPSE
5
20A
100
AcDbEntity
8
1
62
256
6
ByLayer
370
18
48
1
60
0
100
AcDbEllipse
10
56
20
76.494042
30
0
11
2.43803518639975
21
0
31
0
210
0
220
0
230
1
40
0.788905
41
0.304912573115473
42
2.83664352153573
0
ELLIPSE
5
20B
100
AcDbEntity
8
1
62
256
6
ByLayer
370
18
48
1
60
0
100
AcDbEllipse
10
56
20
76.616477
30
0
11
-2.22060403785022
21
2.71936581407501E-16
31
0
210
0
220
0
230
1
40
0.788905
41
-2.98678949806917
42
-0.154839522354355
0
ELLIPSE
5
20C
100
AcDbEntity
8
1
62
256
6
ByLayer
370
18
48
1
60
0
100
AcDbEllipse
10
33.947643
20
-54.464833
30
0
11
-2.34213111790634
21
-0.0468035953191513
31
0
210
0
220
0
230
1
40
0.486784
41
2.63134839666639
42
3.02653450518027
0
ELLIPSE
5
20D
100
AcDbEntity
8
1
62
256
6
ByLayer
370
18
48
1
60
0
100
AcDbEllipse
10
33.947643
20
-54.464833
30
0
11
-2.34213111790634
21
-0.0468035953191513
31
0
210
0
220
0
230
1
40
0.486784
41
1.58415084546982
42
2.63134839666639
0
ELLIPSE
5
20E
100
AcDbEntity
8
1
62
256
6
ByLayer
370
18
48
1
60
0
100
AcDbEllipse
10
33.947643
20
-54.464833
30
0
11
-2.34213111790634
21
-0.0468035953191513
31
0
210
0
220
0
230
1
40
0.486784
41
0.536953294273237
42
1.58415084546982
0
ELLIPSE
5
20F
100
AcDbEntity
8
1
62
256
6
ByLayer
370
18
48
1
60
0
100
AcDbEllipse
10
33.947643
20
-54.464833
30
0
11
-2.34213111790634
21
-0.0468035953191513
31
0
210
0
220
0
230
1
40
0.486784
41
0.0629334307359251
42
0.536953294273237
0
ELLIPSE
5
210
100
AcDbEntity
8
1
62
256
6
ByLayer
370
18
48
1
60
0
100
AcDbEllipse
10
33.947643
20
-54.464833
30
0
11
3.23235467025377
21
0.0645932325299379
31
0
210
0
220
0
230
1
40
0.486784
41
-2.86385360222502
42
-0.294031049784604
0
POINT
5
70
100
AcDbEntity
8
1
62
256
6
ByLayer
370
13
48
1
60
1
100
AcDbPoint
10
131.389059
20
179.074715
30
0
39
0
210
0
220
0
230
1
50
360
0
POINT
5
72
100
AcDbEntity
8
1
62
256
6
ByLayer
370
13
48
1
60
1
100
AcDbPoint
10
77.46648
20
179.074715
30
0
39
0
210
0
220
0
230
1
50
360
0
POINT
5
73
100
AcDbEntity
8
80
62
256
6
ByLayer
370
13
48
1
60
0
100
AcDbPoint
10
0
20
0
30
0
39
0
210
0
220
0
230
1
50
360
0
POINT
5
75
100
AcDbEntity
8
81
62
256
6
ByLayer
370
18
48
1
60
0
100
AcDbPoint
10
117.000001
20
90.5
30
0
39
0
210
0
220
0
230
1
50
360
0
SPLINE
5
211
100
AcDbEntity
8
1
62
256
6
ByLayer
370
18
48
1
60
0
100
AcDbSpline
70
4
71
3
72
8
73
4
40
0
40
0
40
0
40
0
40
1
40
1
40
1
40
1
41
1
10
111.2
20
75.5835228559284
30
0
41
1
10
111.803513888933
20
75.4172308974285
30
0
41
1
10
112.403866213076
20
75.251810075137
30
0
41
1
10
113
20
75.0875516267841
30
0
0
SPLINE
5
212
100
AcDbEntity
8
1
62
256
6
ByLayer
370
18
48
1
60
0
100
AcDbSpline
70
4
71
3
72
10
73
6
40
0
40
0
40
0
40
0
40
0.5
40
0.5
40
1
40
1
40
1
40
1
41
1
10
111.2
20
38.1023
30
0
41
1
10
111.533564733993
20
38.1023000000001
30
0
41
1
10
111.852420926273
20
38.1023
30
0
41
1
10
112.4546615458
20
38.1023
30
0
41
1
10
112.738054019402
20
38.1023
30
0
41
1
10
113
20
38.1023
30
0
0
SPLINE
5
213
100
AcDbEntity
8
1
62
256
6
ByLayer
370
18
48
1
60
0
100
AcDbSpline
70
4
71
3
72
61
73
57
40
0
40
0
40
0
40
0
40
0.0001611608790626
40
0.0001611608790626
40
0.0626510883241269
40
0.0626510883241269
40
0.093896052046659
40
0.093896052046659
40
0.109518533907925
40
0.109518533907925
40
0.125141015769191
40
0.125141015769191
40
0.187630943214251
40
0.187630943214251
40
0.250120870659312
40
0.250120870659312
40
0.265743352520577
40
0.265743352520577
40
0.281365834381843
40
0.312610798104374
40
0.312610798104374
40
0.375100725549442
40
0.375100725549442
40
0.390723207410707
40
0.390723207410707
40
0.406345689271973
40
0.406345689271973
40
0.437590652994505
40
0.437590652994505
40
0.500080580439562
40
0.500080580439562
40
0.531325544162091
40
0.531325544162091
40
0.546948026023355
40
0.546948026023355
40
0.56257050788462
40
0.56257050788462
40
0.625060435329678
40
0.687550362774736
40
0.687550362774736
40
0.703172844636001
40
0.703172844636001
40
0.718795326497265
40
0.718795326497265
40
0.750040290219785
40
0.750040290219785
40
0.812530217664824
40
0.812530217664824
40
0.843775181387349
40
0.843775181387349
40
0.859397663248615
40
0.859397663248615
40
0.875020145109882
40
0.875020145109882
40
0.937510072554941
40
1
40
1
40
1
40
1
41
1
10
75.7999990410287
20
84.4960500761289
30
0
41
1
10
75.8000000379899
20
84.496049996956
30
0
41
1
10
75.8000010349036
20
84.496049917187
30
0
41
1
10
75.8000387702758
20
84.4960468976026
30
0
41
1
10
75.8065210788394
20
84.4955256935183
30
0
41
1
10
75.8259492910137
20
84.4939860893385
30
0
41
1
10
75.8340485655781
20
84.4933465845203
30
0
41
1
10
75.8486917681872
20
84.4922003439231
30
0
41
1
10
75.853999562373
20
84.4917862815036
30
0
41
1
10
75.8653745025101
20
84.4909030567086
30
0
41
1
10
75.8714466723456
20
84.490433496244
30
0
41
1
10
75.9037035587322
20
84.4879522282619
30
0
41
1
10
75.935548572949
20
84.4855403765855
30
0
41
1
10
76.0110759910685
20
84.4800174637746
30
0
41
1
10
76.0547572983547
20
84.4769058891703
30
0
41
1
10
76.1170479209167
20
84.472676694667
30
0
41
1
10
76.129859584161
20
84.4718161581132
30
0
41
1
10
76.1560631615515
20
84.4700771635856
30
0
41
1
10
76.1962923791127
20
84.4674381788265
30
0
41
1
10
76.2392540990245
20
84.4647233570878
30
0
41
1
10
76.3287688197654
20
84.4592331521818
30
0
41
1
10
76.3932161692169
20
84.4554920232047
30
0
41
1
10
76.479831885191
20
84.4508487290339
30
0
41
1
10
76.49745924485
20
84.4499217433321
30
0
41
1
10
76.5333304558067
20
84.448074591376
30
0
41
1
10
76.5516055709171
20
84.4471528924332
30
0
41
1
10
76.6071437559468
20
84.4444145360562
30
0
41
1
10
76.644973229912
20
84.4426315524498
30
0
41
1
10
76.7608114583393
20
84.4374458801354
30
0
41
1
10
76.8411589495653
20
84.4342064795181
30
0
41
1
10
76.9663267846053
20
84.4298111365496
30
0
41
1
10
77.0088266239304
20
84.4284232832346
30
0
41
1
10
77.0737634557267
20
84.4264748202446
30
0
41
1
10
77.0956070948674
20
84.4258475570294
30
0
41
1
10
77.1396962798504
20
84.4246404692567
30
0
41
1
10
77.1619712315887
20
84.4240600204369
30
0
41
1
10
77.2735014178903
20
84.4213044690846
30
0
41
1
10
77.4541146132042
20
84.4178002070601
30
0
41
1
10
77.6389186175245
20
84.4162468652474
30
0
41
1
10
77.7557647653561
20
84.4159297977958
30
0
41
1
10
77.7792014860777
20
84.4158990804714
30
0
41
1
10
77.8262120476535
20
84.4159041879878
30
0
41
1
10
77.8497078148974
20
84.4159400916416
30
0
41
1
10
77.9198923147371
20
84.4161460293786
30
0
41
1
10
77.9663932779976
20
84.4164142686244
30
0
41
1
10
78.1050488172726
20
84.4175975069907
30
0
41
1
10
78.196360037331
20
84.4188910597904
30
0
41
1
10
78.3316380985996
20
84.4215324431385
30
0
41
1
10
78.3764483261325
20
84.4225297501929
30
0
41
1
10
78.4432305676875
20
84.4241937762063
30
0
41
1
10
78.4654602312164
20
84.424777616994
30
0
41
1
10
78.5095593115554
20
84.4259941015342
30
0
41
1
10
78.5314035851004
20
84.4266259148895
30
0
41
1
10
78.639614340242
20
84.429895231394
30
0
41
1
10
78.8063129825987
20
84.4358304408667
30
0
41
1
10
78.9604464843649
20
84.4428039982465
30
0
41
1
10
79.0342621982493
20
84.4464564747443
30
0
0
SPLINE
5
214
100
AcDbEntity
8
1
62
256
6
ByLayer
370
18
48
1
60
0
100
AcDbSpline
70
2053
71
3
72
182
73
178
40
0
40
0
40
0
40
0
40
0.0156250000000076
40
0.0156250000000076
40
0.0312500000000152
40
0.0468750000000228
40
0.0468750000000228
40
0.0546875000000267
40
0.0585937500000283
40
0.0585937500000283
40
0.06250000000003
40
0.06250000000003
40
0.0781250000000402
40
0.0937500000000503
40
0.0937500000000503
40
0.10937500000006
40
0.10937500000006
40
0.117187500000066
40
0.117187500000066
40
0.121093750000068
40
0.121093750000068
40
0.12500000000007
40
0.140625000000084
40
0.140625000000084
40
0.156250000000098
40
0.156250000000098
40
0.171875000000111
40
0.171875000000111
40
0.179687500000118
40
0.179687500000118
40
0.183593750000122
40
0.183593750000122
40
0.187500000000125
40
0.187500000000125
40
0.203125000000135
40
0.203125000000135
40
0.218750000000145
40
0.218750000000145
40
0.234375000000154
40
0.234375000000154
40
0.238281250000156
40
0.238281250000156
40
0.242187500000158
40
0.250000000000163
40
0.250000000000163
40
0.265625000000174
40
0.281250000000186
40
0.281250000000186
40
0.285156250000188
40
0.285156250000188
40
0.289062500000191
40
0.296875000000195
40
0.296875000000195
40
0.312500000000203
40
0.312500000000203
40
0.320312500000208
40
0.320312500000208
40
0.328125000000212
40
0.328125000000212
40
0.34375000000022
40
0.34375000000022
40
0.359375000000229
40
0.359375000000229
40
0.375000000000238
40
0.375000000000238
40
0.390625000000246
40
0.390625000000246
40
0.406250000000255
40
0.421875000000263
40
0.421875000000263
40
0.425781250000265
40
0.425781250000265
40
0.429687500000267
40
0.429687500000267
40
0.437500000000271
40
0.437500000000271
40
0.453125000000278
40
0.468750000000286
40
0.468750000000286
40
0.484375000000293
40
0.484375000000293
40
0.492187500000296
40
0.492187500000296
40
0.5000000000003
40
0.5000000000003
40
0.515625000000305
40
0.531250000000309
40
0.531250000000309
40
0.546875000000314
40
0.546875000000314
40
0.550781250000314
40
0.550781250000314
40
0.554687500000314
40
0.562500000000314
40
0.562500000000314
40
0.578125000000311
40
0.578125000000311
40
0.593750000000308
40
0.593750000000308
40
0.601562500000306
40
0.605468750000306
40
0.605468750000306
40
0.609375000000306
40
0.609375000000306
40
0.625000000000297
40
0.640625000000287
40
0.640625000000287
40
0.656250000000278
40
0.656250000000278
40
0.660156250000275
40
0.660156250000275
40
0.664062500000272
40
0.671875000000265
40
0.671875000000265
40
0.687500000000248
40
0.703125000000232
40
0.703125000000232
40
0.710937500000224
40
0.710937500000224
40
0.71484375000022
40
0.71484375000022
40
0.718750000000216
40
0.718750000000216
40
0.734375000000204
40
0.750000000000192
40
0.750000000000192
40
0.757812500000186
40
0.757812500000186
40
0.761718750000183
40
0.761718750000183
40
0.76562500000018
40
0.76562500000018
40
0.781250000000165
40
0.781250000000165
40
0.796875000000151
40
0.796875000000151
40
0.812500000000136
40
0.812500000000136
40
0.816406250000132
40
0.816406250000132
40
0.820312500000127
40
0.828125000000121
40
0.828125000000121
40
0.843750000000109
40
0.859375000000098
40
0.859375000000098
40
0.863281250000094
40
0.863281250000094
40
0.867187500000091
40
0.867187500000091
40
0.875000000000084
40
0.875000000000084
40
0.890625000000072
40
0.906250000000059
40
0.906250000000059
40
0.914062500000053
40
0.914062500000053
40
0.917968750000049
40
0.917968750000049
40
0.921875000000046
40
0.921875000000046
40
0.937500000000037
40
0.937500000000037
40
0.953125000000029
40
0.953125000000029
40
0.960937500000024
40
0.964843750000024
40
0.964843750000024
40
0.968750000000023
40
0.968750000000023
40
0.984375000000012
40
0.984375000000012
40
0.992187500000006
40
0.996093750000003
40
0.998046875000002
40
0.998046875000002
40
1
40
1
40
1
40
1
41
1
10
85.0000000000001
20
68.288
30
0
41
1
10
85
20
68.4241887662885
30
0
41
1
10
85.006528938822
20
68.5588557544993
30
0
41
1
10
85.0319766978513
20
68.8252958333185
30
0
41
1
10
85.0698171614358
20
69.0888416830288
30
0
41
1
10
85.1318510363137
20
69.3467732487036
30
0
41
1
10
85.1874810027984
20
69.5381409189353
30
0
41
1
10
85.2175756987052
20
69.6333039299495
30
0
41
1
10
85.2511342274579
20
69.7276842581671
30
0
41
1
10
85.2742834380507
20
69.7904300479771
30
0
41
1
10
85.286252627638
20
69.8217283981409
30
0
41
1
10
85.3477530106799
20
69.9770294023481
30
0
41
1
10
85.4571365167679
20
70.2191027894064
30
0
41
1
10
85.5879448743841
20
70.4488736042218
30
0
41
1
10
85.7295198333973
20
70.672584213868
30
0
41
1
10
85.8056894643965
20
70.7814097790398
30
0
41
1
10
85.9283111204136
20
70.9400463486149
30
0
41
1
10
85.9705822636315
20
70.9921569121892
30
0
41
1
10
86.0361486954906
20
71.0691501427181
30
0
41
1
10
86.0583913634434
20
71.0946490320578
30
0
41
1
10
86.1034743235007
20
71.1451014850046
30
0
41
1
10
86.2175618256069
20
71.2697355742649
30
0
41
1
10
86.338483383176
20
71.386991301798
30
0
41
1
10
86.5407522842601
20
71.5652935348272
30
0
41
1
10
86.6462832945291
20
71.6497915443699
30
0
41
1
10
86.8664661115112
20
71.8093277712492
30
0
41
1
10
86.981115704217
20
71.8843679487659
30
0
41
1
10
87.160415257519
20
71.9894774342998
30
0
41
1
10
87.2214053338179
20
72.023269441862
30
0
41
1
10
87.3148149360972
20
72.0720180098924
30
0
41
1
10
87.3462735800278
20
72.0879423986157
30
0
41
1
10
87.4094106629462
20
72.1189225269145
30
0
41
1
10
87.4411419955354
20
72.134006426941
30
0
41
1
10
87.6006113255742
20
72.2074056262232
30
0
41
1
10
87.7307813736971
20
72.2596759314739
30
0
41
1
10
87.9963735024091
20
72.3513305973909
30
0
41
1
10
88.1317951640087
20
72.3907158498396
30
0
41
1
10
88.4081094875485
20
72.4561986234827
30
0
41
1
10
88.5490008035988
20
72.482299467516
30
0
41
1
10
88.7287842901715
20
72.5060741668874
30
0
41
1
10
88.7649747698326
20
72.5103890689746
30
0
41
1
10
88.8372024363894
20
72.5180613545401
30
0
41
1
10
88.9454768129421
20
72.528157495329
30
0
41
1
10
89.0535520434656
20
72.5340677468837
30
0
41
1
10
89.2694408723544
20
72.5403945867022
30
0
41
1
10
89.5565959728373
20
72.5342047270088
30
0
41
1
10
89.8423701472847
20
72.4990022726042
30
0
41
1
10
90.0205393499688
20
72.4677222417709
30
0
41
1
10
90.0562056164496
20
72.4609892807904
30
0
41
1
10
90.1270795604335
20
72.4466705405418
30
0
41
1
10
90.2327912925887
20
72.4239007234634
30
0
41
1
10
90.3367417084028
20
72.3973266292928
30
0
41
1
10
90.5423684430015
20
72.3392436800963
30
0
41
1
10
90.6764264972906
20
72.2939553098018
30
0
41
1
10
90.873158780478
20
72.2164632106503
30
0
41
1
10
90.9380089383408
20
72.1890358369735
30
0
41
1
10
91.0662686626435
20
72.1309966071244
30
0
41
1
10
91.1297261880972
20
72.1003600310934
30
0
41
1
10
91.3176428292207
20
72.0038029181271
30
0
41
1
10
91.4380344296954
20
71.9340960317994
30
0
41
1
10
91.6697608289174
20
71.7846081378206
30
0
41
1
10
91.7810930685922
20
71.7048246096733
30
0
41
1
10
91.9950768165796
20
71.5354106309831
30
0
41
1
10
92.0977274480203
20
71.4457795180145
30
0
41
1
10
92.2944435009871
20
71.2565833105873
30
0
41
1
10
92.3871414383015
20
71.1583364006898
30
0
41
1
10
92.5618770635098
20
70.9548244315933
30
0
41
1
10
92.7259549547011
20
70.7442878880981
30
0
41
1
10
92.8693158211631
20
70.519790179169
30
0
41
1
10
92.9524272350873
20
70.3750187397238
30
0
41
1
10
92.9687242794371
20
70.3458409421
30
0
41
1
10
93.0006643563635
20
70.2870338904987
30
0
41
1
10
93.0163242209484
20
70.257371389218
30
0
41
1
10
93.0621802560477
20
70.1679651377856
30
0
41
1
10
93.0912271162934
20
70.1078640376311
30
0
41
1
10
93.173889295223
20
69.9260818688474
30
0
41
1
10
93.2721877629385
20
69.6797677674624
30
0
41
1
10
93.3470869127024
20
69.4255618224458
30
0
41
1
10
93.4101658264644
20
69.1673113023501
30
0
41
1
10
93.4357962299954
20
69.036164157141
30
0
41
1
10
93.4650256374668
20
68.8362643493487
30
0
41
1
10
93.4732348313535
20
68.7689797722509
30
0
41
1
10
93.4863763420208
20
68.6346546852977
30
0
41
1
10
93.4913347459201
20
68.5674749867375
30
0
41
1
10
93.5014168715169
20
68.3658847108576
30
0
41
1
10
93.5020958471246
20
68.0969603793994
30
0
41
1
10
93.4771971145784
20
67.8277920030922
30
0
41
1
10
93.4391370314646
20
67.5585359655679
30
0
41
1
10
93.4135285869743
20
67.4238639643912
30
0
41
1
10
93.3728209143911
20
67.255504094792
30
0
41
1
10
93.3642326350944
20
67.2217943667426
30
0
41
1
10
93.3462708226613
20
67.1547429791092
30
0
41
1
10
93.3181251724176
20
67.054606981695
30
0
41
1
10
93.2863962323096
20
66.9557892891223
30
0
41
1
10
93.2181944827435
20
66.7599122287494
30
0
41
1
10
93.1664117918111
20
66.631667697018
30
0
41
1
10
93.0501470752209
20
66.3799643012699
30
0
41
1
10
92.9856660642013
20
66.2565048971666
30
0
41
1
10
92.8791116346933
20
66.0750908136688
30
0
41
1
10
92.8233724609199
20
65.9853290966537
30
0
41
1
10
92.7638397836214
20
65.8970384166926
30
0
41
1
10
92.7232945737739
20
65.8385118653881
30
0
41
1
10
92.7026219588379
20
65.8094588329864
30
0
41
1
10
92.5977219569051
20
65.6658840967656
30
0
41
1
10
92.41923753788
20
65.4457492402969
30
0
41
1
10
92.2198911412064
20
65.2445763594908
30
0
41
1
10
92.0100319740649
20
65.0530495601377
30
0
41
1
10
91.8998473272215
20
64.9621078334631
30
0
41
1
10
91.7553009451222
20
64.8547414862942
30
0
41
1
10
91.7260330931447
20
64.8335726143114
30
0
41
1
10
91.666876462103
20
64.7919281351516
30
0
41
1
10
91.5775072460397
20
64.7307100981215
30
0
41
1
10
91.4862585709541
20
64.6731975166649
30
0
41
1
10
91.3012963037166
20
64.5630453076782
30
0
41
1
10
91.0481173325464
20
64.4291506470981
30
0
41
1
10
90.7819443180443
20
64.3210740850667
30
0
41
1
10
90.5773384638169
20
64.2499452387924
30
0
41
1
10
90.5083055723181
20
64.2278934817475
30
0
41
1
10
90.4034814179833
20
64.1973637314487
30
0
41
1
10
90.3684069651296
20
64.1876362179122
30
0
41
1
10
90.2982158557381
20
64.1691335534049
30
0
41
1
10
90.2630650522769
20
64.1603483786289
30
0
41
1
10
90.0870376047181
20
64.1187308673988
30
0
41
1
10
89.8036485227673
20
64.0668775036683
30
0
41
1
10
89.5168417824431
20
64.0439305167542
30
0
41
1
10
89.3004411715411
20
64.0376866860097
30
0
41
1
10
89.2280912844971
20
64.0374366223218
30
0
41
1
10
89.1192361739461
20
64.0398571026078
30
0
41
1
10
89.0828960614527
20
64.0411300966916
30
0
41
1
10
89.0101043623981
20
64.0446195333244
30
0
41
1
10
88.9737144569214
20
64.046834251724
30
0
41
1
10
88.792505705542
20
64.0601957636206
30
0
41
1
10
88.6492227733541
20
64.0782182287345
30
0
41
1
10
88.3659258773066
20
64.1284797412058
30
0
41
1
10
88.2259121850865
20
64.160719994082
30
0
41
1
10
87.9491613940127
20
64.2394181469213
30
0
41
1
10
87.8124240203549
20
64.285874951839
30
0
41
1
10
87.6436206960971
20
64.3531091334206
30
0
41
1
10
87.6100179432245
20
64.3669960742182
30
0
41
1
10
87.5434021260758
20
64.3955279652886
30
0
41
1
10
87.4442400929174
20
64.4395127027851
30
0
41
1
10
87.3473356146596
20
64.4870110105788
30
0
41
1
10
87.1564895041053
20
64.5866069217712
30
0
41
1
10
86.909915004952
20
64.7316443144563
30
0
41
1
10
86.6789790866334
20
64.9008173331129
30
0
41
1
10
86.5396369365626
20
65.0142066346373
30
0
41
1
10
86.512018737068
20
65.0372681897072
30
0
41
1
10
86.4572878675224
20
65.0841651659725
30
0
41
1
10
86.4302121117667
20
65.1079706852174
30
0
41
1
10
86.3501936413138
20
65.1801416068072
30
0
41
1
10
86.2983215991546
20
65.2293776393934
30
0
41
1
10
86.1470291422797
20
65.3803602085239
30
0
41
1
10
85.9568120206015
20
65.5903832138886
30
0
41
1
10
85.789092887086
20
65.8172564412592
30
0
41
1
10
85.6717823313468
20
65.9936926404561
30
0
41
1
10
85.6340943466056
20
66.0535534016234
30
0
41
1
10
85.5797131710558
20
66.144929558533
30
0
41
1
10
85.5619576894871
20
66.1756336062805
30
0
41
1
10
85.5273545409855
20
66.2372297417976
30
0
41
1
10
85.5104824338615
20
66.2681623979135
30
0
41
1
10
85.4282393644373
20
66.4234853970427
30
0
41
1
10
85.369205652523
20
66.5498495061579
30
0
41
1
10
85.2641485516879
20
66.8065412126416
30
0
41
1
10
85.2181265466502
20
66.9368694004828
30
0
41
1
10
85.1587389218676
20
67.1352436724294
30
0
41
1
10
85.1314601095742
20
67.2351525784669
30
0
41
1
10
85.1078195174944
20
67.3361397396707
30
0
41
1
10
85.092871392337
20
67.4037043230943
30
0
41
1
10
85.0857984246864
20
67.4376354049003
30
0
41
1
10
85.052598457715
20
67.607238981782
30
0
41
1
10
85.0328545913413
20
67.743136955022
30
0
41
1
10
85.0131298514204
20
67.9472594418581
30
0
41
1
10
85.0057443806004
20
68.0493899484098
30
0
41
1
10
85.0014364907111
20
68.1686573486772
30
0
41
1
10
85.0005130958575
20
68.2197961847257
30
0
41
1
10
85.0001026487956
20
68.2538940896276
30
0
41
1
10
85.0000000000001
20
68.2709764042139
30
0
41
1
10
85.0000000000001
20
68.288
30
0
0
SPLINE
5
215
100
AcDbEntity
8
1
62
256
6
ByLayer
370
18
48
1
60
0
100
AcDbSpline
70
2053
71
3
72
190
73
186
40
0
40
0
40
0
40
0
40
0.0156249999999919
40
0.0156249999999919
40
0.0312499999999839
40
0.0468749999999758
40
0.0468749999999758
40
0.0507812499999755
40
0.0507812499999755
40
0.0546874999999753
40
0.0546874999999753
40
0.0624999999999753
40
0.0624999999999753
40
0.0781249999999748
40
0.0781249999999748
40
0.0937499999999743
40
0.0937499999999743
40
0.101562499999974
40
0.101562499999974
40
0.109374999999974
40
0.109374999999974
40
0.124999999999972
40
0.124999999999972
40
0.140624999999971
40
0.140624999999971
40
0.15624999999997
40
0.15624999999997
40
0.160156249999969
40
0.160156249999969
40
0.164062499999967
40
0.171874999999965
40
0.171874999999965
40
0.18749999999996
40
0.203124999999954
40
0.203124999999954
40
0.210937499999951
40
0.210937499999951
40
0.214843749999951
40
0.214843749999951
40
0.21874999999995
40
0.21874999999995
40
0.234374999999949
40
0.234374999999949
40
0.249999999999947
40
0.249999999999947
40
0.265624999999946
40
0.265624999999946
40
0.269531249999946
40
0.269531249999946
40
0.273437499999946
40
0.281249999999948
40
0.281249999999948
40
0.29687499999995
40
0.312499999999953
40
0.312499999999953
40
0.316406249999954
40
0.316406249999954
40
0.320312499999956
40
0.320312499999956
40
0.328124999999957
40
0.328124999999957
40
0.34374999999996
40
0.34374999999996
40
0.359374999999963
40
0.359374999999963
40
0.367187499999965
40
0.367187499999965
40
0.371093749999966
40
0.371093749999966
40
0.374999999999967
40
0.374999999999967
40
0.390624999999977
40
0.390624999999977
40
0.406249999999987
40
0.406249999999987
40
0.421874999999996
40
0.421874999999996
40
0.425781249999999
40
0.425781249999999
40
0.429687500000001
40
0.437500000000004
40
0.437500000000004
40
0.45312500000001
40
0.468750000000015
40
0.468750000000015
40
0.476562500000017
40
0.476562500000017
40
0.480468750000017
40
0.480468750000017
40
0.484375000000018
40
0.484375000000018
40
0.500000000000015
40
0.500000000000015
40
0.515625000000012
40
0.515625000000012
40
0.531250000000009
40
0.531250000000009
40
0.539062500000008
40
0.539062500000008
40
0.546875000000008
40
0.546875000000008
40
0.562500000000004
40
0.562500000000004
40
0.578125
40
0.578125
40
0.58203125
40
0.58203125
40
0.5859375
40
0.5859375
40
0.593749999999997
40
0.593749999999997
40
0.609374999999992
40
0.609374999999992
40
0.624999999999988
40
0.624999999999988
40
0.632812499999985
40
0.632812499999985
40
0.636718749999984
40
0.636718749999984
40
0.640624999999983
40
0.640624999999983
40
0.656249999999982
40
0.656249999999982
40
0.67187499999998
40
0.67187499999998
40
0.687499999999979
40
0.687499999999979
40
0.691406249999979
40
0.691406249999979
40
0.695312499999979
40
0.695312499999979
40
0.70312499999998
40
0.70312499999998
40
0.718749999999981
40
0.734374999999982
40
0.734374999999982
40
0.742187499999983
40
0.742187499999983
40
0.746093749999983
40
0.746093749999983
40
0.749999999999982
40
0.749999999999982
40
0.76562499999998
40
0.76562499999998
40
0.781249999999978
40
0.781249999999978
40
0.796874999999976
40
0.796874999999976
40
0.812499999999974
40
0.812499999999974
40
0.828124999999972
40
0.828124999999972
40
0.84374999999997
40
0.84374999999997
40
0.84765624999997
40
0.84765624999997
40
0.85156249999997
40
0.85156249999997
40
0.859374999999972
40
0.859374999999972
40
0.874999999999974
40
0.874999999999974
40
0.890624999999976
40
0.890624999999976
40
0.898437499999977
40
0.898437499999977
40
0.902343749999977
40
0.902343749999977
40
0.906249999999977
40
0.906249999999977
40
0.921874999999976
40
0.921874999999976
40
0.937499999999974
40
0.937499999999974
40
0.953124999999972
40
0.953124999999972
40
0.957031249999973
40
0.957031249999973
40
0.960937499999974
40
0.960937499999974
40
0.968749999999979
40
0.968749999999979
40
0.984374999999989
40
0.984374999999989
40
1
40
1
40
1
40
1
41
1
10
83.4962985213748
20
68.4592589389479
30
0
41
1
10
83.4824832804754
20
68.2735985865753
30
0
41
1
10
83.4589220859132
20
68.0893576852758
30
0
41
1
10
83.3930240788827
20
67.7236609147431
30
0
41
1
10
83.3083436288145
20
67.3607510345728
30
0
41
1
10
83.1863948255201
20
67.0035462687706
30
0
41
1
10
83.098276659111
20
66.7821944254953
30
0
41
1
10
83.080056623082
20
66.7380194298528
30
0
41
1
10
83.0424116505272
20
66.6498644568856
30
0
41
1
10
83.022963748631
20
66.6058371297892
30
0
41
1
10
82.963115001867
20
66.4747472300395
30
0
41
1
10
82.9211369046273
20
66.3884913137032
30
0
41
1
10
82.789093189602
20
66.1330903598085
30
0
41
1
10
82.6929332756457
20
65.967303296693
30
0
41
1
10
82.4846444523723
20
65.6446709583423
30
0
41
1
10
82.3725152792533
20
65.4878255623701
30
0
41
1
10
82.1922004242154
20
65.2594639021329
30
0
41
1
10
82.1300715551915
20
65.1844966488156
30
0
41
1
10
82.0016949537665
20
65.0369305326566
30
0
41
1
10
81.9353002272133
20
64.9641920899483
30
0
41
1
10
81.7319313427395
20
64.7518155877557
30
0
41
1
10
81.5902788828578
20
64.6173635845001
30
0
41
1
10
81.2951071539368
20
64.3625286542423
30
0
41
1
10
81.1415872044876
20
64.242146302147
30
0
41
1
10
80.8225968493427
20
64.0156799210163
30
0
41
1
10
80.6571275443695
20
63.9095943721599
30
0
41
1
10
80.4425417730616
20
63.7863380764104
30
0
41
1
10
80.3991757263954
20
63.7621231547064
30
0
41
1
10
80.3119860758662
20
63.7148228989884
30
0
41
1
10
80.1805793832067
20
63.6455964727013
30
0
41
1
10
80.0473251741789
20
63.5814956052469
30
0
41
1
10
79.7783846173912
20
63.4600574943128
30
0
41
1
10
79.4133216957858
20
63.3161494617246
30
0
41
1
10
79.0353572336489
20
63.208271770028
30
0
41
1
10
78.746924955943
20
63.1412567468067
30
0
41
1
10
78.6499529235776
20
63.121237882331
30
0
41
1
10
78.5032238625589
20
63.094774587538
30
0
41
1
10
78.4540362675444
20
63.0865388010399
30
0
41
1
10
78.3557418266731
20
63.0713486348395
30
0
41
1
10
78.306598003051
20
63.0643857965254
30
0
41
1
10
78.0608956962134
20
63.0327017974367
30
0
41
1
10
77.8643875281677
20
63.0173499375978
30
0
41
1
10
77.4714760849624
20
63.0061942781289
30
0
41
1
10
77.2750728146002
20
63.0103913421252
30
0
41
1
10
76.8823716245344
20
63.0384144181456
30
0
41
1
10
76.6860736953628
20
63.0622387302413
30
0
41
1
10
76.4407692580286
20
63.1046683479958
30
0
41
1
10
76.3918196211475
20
63.1137707812388
30
0
41
1
10
76.2944404670174
20
63.133139948014
30
0
41
1
10
76.1490128832561
20
63.1639655667684
30
0
41
1
10
76.005484485604
20
63.2000367140763
30
0
41
1
10
75.7209157381408
20
63.2790411114581
30
0
41
1
10
75.3481141433874
20
63.4026487579782
30
0
41
1
10
74.9883766873409
20
63.5621589399443
30
0
41
1
10
74.7676838616148
20
63.6731869090909
30
0
41
1
10
74.7237529230439
20
63.6959604604856
30
0
41
1
10
74.6363097567744
20
63.7426514896214
30
0
41
1
10
74.5927541912133
20
63.7665949379053
30
0
41
1
10
74.4633911720851
20
63.8397692123504
30
0
41
1
10
74.3786996004657
20
63.8904372761216
30
0
41
1
10
74.1291710775405
20
64.047946672925
30
0
41
1
10
73.9688691318171
20
64.1602798302603
30
0
41
1
10
73.6600920079433
20
64.3991426783052
30
0
41
1
10
73.5116170913126
20
64.525672897615
30
0
41
1
10
73.297837759841
20
64.7260922814602
30
0
41
1
10
73.2280695727508
20
64.7946726682093
30
0
41
1
10
73.1256884061585
20
64.9002315212223
30
0
41
1
10
73.0919400561383
20
64.9358660687825
30
0
41
1
10
73.0252087219628
20
65.0080389698589
30
0
41
1
10
72.9923397448989
20
65.0444546465639
30
0
41
1
10
72.8306302467092
20
65.2279563342977
30
0
41
1
10
72.7094850795585
20
65.3795059659031
30
0
41
1
10
72.4831730780296
20
65.6916685984194
30
0
41
1
10
72.3780073027606
20
65.8522825077047
30
0
41
1
10
72.1836790407434
20
66.1824364355212
30
0
41
1
10
72.0945152152001
20
66.3519759450211
30
0
41
1
10
71.9933835051075
20
66.5695717023615
30
0
41
1
10
71.9736584689016
20
66.6134124033762
30
0
41
1
10
71.9353278440467
20
66.7015027405704
30
0
41
1
10
71.8796523130025
20
66.8339233520736
30
0
41
1
10
71.8293714427301
20
66.9671777781637
30
0
41
1
10
71.7358852347166
20
67.2347547372393
30
0
41
1
10
71.6300730543658
20
67.5943643453138
30
0
41
1
10
71.5615324351366
20
67.9593764694376
30
0
41
1
10
71.5243660266016
20
68.2351439735148
30
0
41
1
10
71.5143546808441
20
68.3274021019305
30
0
41
1
10
71.5029776499348
20
68.466298929763
30
0
41
1
10
71.499789290873
20
68.5127504283075
30
0
41
1
10
71.4946639343211
20
68.6053841362466
30
0
41
1
10
71.4927235462868
20
68.6515814775496
30
0
41
1
10
71.4860975536955
20
68.8819765527535
30
0
41
1
10
71.4906166465628
20
69.0644018723527
30
0
41
1
10
71.5187689793881
20
69.4255815116687
30
0
41
1
10
71.5424033070022
20
69.6043356231137
30
0
41
1
10
71.6088277845378
20
69.9582238705208
30
0
41
1
10
71.6516162725646
20
70.1333580639517
30
0
41
1
10
71.7306231617269
20
70.3933404410561
30
0
41
1
10
71.7592295648059
20
70.4788687214798
30
0
41
1
10
71.8208262574564
20
70.6475619045673
30
0
41
1
10
71.8538253933451
20
70.7307555572355
30
0
41
1
10
71.9593222749616
20
70.9769672318906
30
0
41
1
10
72.0383035670595
20
71.1366229019134
30
0
41
1
10
72.2134153258817
20
71.447263308745
30
0
41
1
10
72.309545200486
20
71.5982478678432
30
0
41
1
10
72.4406558015032
20
71.7816082243738
30
0
41
1
10
72.4674266489508
20
71.8180112374952
30
0
41
1
10
72.5220769841067
20
71.8902781737078
30
0
41
1
10
72.5499717031636
20
71.926158315407
30
0
41
1
10
72.6348717923975
20
72.0324194826668
30
0
41
1
10
72.6932327805161
20
72.1016132227593
30
0
41
1
10
72.8735040761356
20
72.3044047531749
30
0
41
1
10
73.0005897501402
20
72.4332244645345
30
0
41
1
10
73.2683960475742
20
72.6786209492254
30
0
41
1
10
73.4091166701967
20
72.7951971069519
30
0
41
1
10
73.6306062064889
20
72.960982715018
30
0
41
1
10
73.7061740607228
20
73.014728688686
30
0
41
1
10
73.8221865028721
20
73.0930608894992
30
0
41
1
10
73.8613009840257
20
73.1187903111071
30
0
41
1
10
73.9404290320197
20
73.1694820701888
30
0
41
1
10
73.9803287862271
20
73.1943706603709
30
0
41
1
10
74.1811218569677
20
73.3163270991516
30
0
41
1
10
74.3462653752926
20
73.4061979956288
30
0
41
1
10
74.685401898584
20
73.5711962327322
30
0
41
1
10
74.8593953234642
20
73.6463222973117
30
0
41
1
10
75.2163259129537
20
73.781994741422
30
0
41
1
10
75.3992622109389
20
73.8425421733397
30
0
41
1
10
75.6337476186212
20
73.9089225049321
30
0
41
1
10
75.6809361543989
20
73.9217321507546
30
0
41
1
10
75.7759047222384
20
73.9464087039302
30
0
41
1
10
75.8234908529273
20
73.958225042991
30
0
41
1
10
75.9664804795924
20
73.9921106221535
30
0
41
1
10
76.0621466406398
20
74.0126257367604
30
0
41
1
10
76.3501498295476
20
74.068072271074
30
0
41
1
10
76.7368288374054
20
74.1257694578371
30
0
41
1
10
77.1288155029459
20
74.1515481229339
30
0
41
1
10
77.4248349663829
20
74.1587276439897
30
0
41
1
10
77.523846934638
20
74.1590910351329
30
0
41
1
10
77.6728834554864
20
74.1565298029817
30
0
41
1
10
77.7227206508105
20
74.1551549664058
30
0
41
1
10
77.8221797857112
20
74.1513717873104
30
0
41
1
10
77.8717752625343
20
74.1489663095524
30
0
41
1
10
78.1190902563013
20
74.1343984216616
30
0
41
1
10
78.3148273555157
20
74.1146357568721
30
0
41
1
10
78.7021993069888
20
74.0592831467384
30
0
41
1
10
78.8938339003191
20
74.0236922742276
30
0
41
1
10
79.2730124175081
20
73.9365509518238
30
0
41
1
10
79.4605566429743
20
73.8850021051166
30
0
41
1
10
79.83145105423
20
73.7652877829361
30
0
41
1
10
80.011751614475
20
73.6981035528252
30
0
41
1
10
80.3623238015879
20
73.549500429415
30
0
41
1
10
80.5326269984348
20
73.468069554327
30
0
41
1
10
80.8634213060047
20
73.2908367369473
30
0
41
1
10
81.0239126341441
20
73.1950356910708
30
0
41
1
10
81.2183075436485
20
73.0659451907106
30
0
41
1
10
81.2568748278228
20
73.0396589503856
30
0
41
1
10
81.3333808037008
20
72.9861363406487
30
0
41
1
10
81.3713251599435
20
72.9588934072093
30
0
41
1
10
81.48360445351
20
72.8761727239054
30
0
41
1
10
81.5565947946808
20
72.8195610161529
30
0
41
1
10
81.7700969896868
20
72.6453595212321
30
0
41
1
10
81.9051536682842
20
72.5234138953115
30
0
41
1
10
82.1609955066303
20
72.2677832868547
30
0
41
1
10
82.2817804757455
20
72.1340987558796
30
0
41
1
10
82.452139192887
20
71.9244219516831
30
0
41
1
10
82.5071189302217
20
71.8530019665286
30
0
41
1
10
82.5868324618664
20
71.7435108512172
30
0
41
1
10
82.6129440625224
20
71.7066200969747
30
0
41
1
10
82.6642374968632
20
71.6320371218519
30
0
41
1
10
82.689350737954
20
71.5944429860747
30
0
41
1
10
82.8119889322473
20
71.4053876586187
30
0
41
1
10
82.9010471971644
20
71.2502519947585
30
0
41
1
10
83.0615323521632
20
70.932163044568
30
0
41
1
10
83.1329581547611
20
70.7692097413876
30
0
41
1
10
83.2581152879251
20
70.4352600702757
30
0
41
1
10
83.3118481385807
20
70.2642646380807
30
0
41
1
10
83.3675811741123
20
70.0452261074687
30
0
41
1
10
83.3781547258232
20
70.0011531438539
30
0
41
1
10
83.3981404770915
20
69.9124676977675
30
0
41
1
10
83.4075175528741
20
69.8680095988552
30
0
41
1
10
83.4337949421209
20
69.7343895306508
30
0
41
1
10
83.448852450935
20
69.6449381068272
30
0
41
1
10
83.4867293236945
20
69.3754687720619
30
0
41
1
10
83.5022705565008
20
69.1943369694188
30
0
41
1
10
83.5139626943285
20
68.829069079973
30
0
41
1
10
83.5101137622743
20
68.6449192913207
30
0
41
1
10
83.4962985213748
20
68.4592589389479
30
0
0
SPLINE
5
216
100
AcDbEntity
8
1
62
256
6
ByLayer
370
18
48
1
60
0
100
AcDbSpline
70
4
71
3
72
24
73
20
40
0
40
0
40
0
40
0
40
0.125000000000095
40
0.125000000000095
40
0.25000000000019
40
0.25000000000019
40
0.312500000000062
40
0.312500000000062
40
0.374999999999935
40
0.374999999999935
40
0.499999999999948
40
0.499999999999948
40
0.624999999999961
40
0.624999999999961
40
0.749999999999974
40
0.749999999999974
40
0.874999999999987
40
0.874999999999987
40
1
40
1
40
1
40
1
41
1
10
113.173649744548
20
86.3055120949053
30
0
41
1
10
113.164381752074
20
86.3005944110732
30
0
41
1
10
113.155391474598
20
86.2947882130826
30
0
41
1
10
113.138820382081
20
86.2819582851977
30
0
41
1
10
113.131163653638
20
86.2749122554121
30
0
41
1
10
113.120603388063
20
86.2634169325466
30
0
41
1
10
113.117223083819
20
86.2594090518102
30
0
41
1
10
113.110874395204
20
86.2512042953626
30
0
41
1
10
113.107902166146
20
86.2470073426067
30
0
41
1
10
113.099565465252
20
86.2341463381093
30
0
41
1
10
113.094777346032
20
86.225213782323
30
0
41
1
10
113.086699466623
20
86.20665842802
30
0
41
1
10
113.083471784108
20
86.197153430842
30
0
41
1
10
113.078629477379
20
86.1780807351593
30
0
41
1
10
113.076991247354
20
86.1684576745125
30
0
41
1
10
113.075236378401
20
86.1490543065617
30
0
41
1
10
113.075138010443
20
86.1394294392881
30
0
41
1
10
113.076381321295
20
86.1205023656061
30
0
41
1
10
113.077721107867
20
86.1111714356728
30
0
41
1
10
113.079763663424
20
86.1019761099424
30
0
0
SPLINE
5
217
100
AcDbEntity
8
1
62
256
6
ByLayer
370
18
48
1
60
0
100
AcDbSpline
70
4
71
3
72
23
73
19
40
0
40
0
40
0
40
0
40
0.125000000000079
40
0.125000000000079
40
0.187500000000279
40
0.187500000000279
40
0.250000000000479
40
0.250000000000479
40
0.375000000000637
40
0.375000000000637
40
0.500000000000794
40
0.500000000000794
40
0.625000000000952
40
0.687500000000872
40
0.687500000000872
40
0.750000000000791
40
0.750000000000791
40
1
40
1
40
1
40
1
41
1
10
112.624368451609
20
85.4264782756591
30
0
41
1
10
112.624726954269
20
85.4370033502528
30
0
41
1
10
112.625975009932
20
85.4474198312677
30
0
41
1
10
112.629179826358
20
85.4628817188064
30
0
41
1
10
112.630480597752
20
85.4680369854559
30
0
41
1
10
112.633493838547
20
85.4781337722002
30
0
41
1
10
112.635200571854
20
85.4830673841861
30
0
41
1
10
112.640892429849
20
85.4975396259655
30
0
41
1
10
112.645445525084
20
85.5067518332626
30
0
41
1
10
112.656018282196
20
85.5243283747169
30
0
41
1
10
112.66208875041
20
85.5327249498424
30
0
41
1
10
112.675145853372
20
85.5480048232247
30
0
41
1
10
112.685697788383
20
85.5584750198927
30
0
41
1
10
112.697310200373
20
85.5675443125449
30
0
41
1
10
112.705287408862
20
85.573277105921
30
0
41
1
10
112.709405814415
20
85.5759930304114
30
0
41
1
10
112.730214746183
20
85.5885699790956
30
0
41
1
10
112.74778220746
20
85.5956855429898
30
0
41
1
10
112.766148434052
20
85.6000868295442
30
0
0
SPLINE
5
218
100
AcDbEntity
8
1
62
256
6
ByLayer
370
18
48
1
60
0
100
AcDbSpline
70
4
71
3
72
18
73
14
40
0
40
0
40
0
40
0
40
0.124999999999899
40
0.124999999999899
40
0.249999999999797
40
0.249999999999797
40
0.499999999999864
40
0.499999999999864
40
0.624999999999846
40
0.624999999999846
40
0.749999999999828
40
0.749999999999828
40
1
40
1
40
1
40
1
41
1
10
113.009927688927
20
85.763413440792
30
0
41
1
10
113.002129575767
20
85.7526145436833
30
0
41
1
10
112.993876514349
20
85.742260288975
30
0
41
1
10
112.976483961849
20
85.7224136147173
30
0
41
1
10
112.967374124252
20
85.7129642481315
30
0
41
1
10
112.939295980223
20
85.6863670588724
30
0
41
1
10
112.919427327838
20
85.6707664788582
30
0
41
1
10
112.887976223303
20
85.6502383628723
30
0
41
1
10
112.877231831446
20
85.6438969804103
30
0
41
1
10
112.855629126385
20
85.6323727367752
30
0
41
1
10
112.84471653806
20
85.627153298278
30
0
41
1
10
112.811639501586
20
85.6130125065466
30
0
41
1
10
112.789137372289
20
85.6055959037278
30
0
41
1
10
112.766148434052
20
85.6000868295442
30
0
0
SPLINE
5
219
100
AcDbEntity
8
1
62
256
6
ByLayer
370
18
48
1
60
0
100
AcDbSpline
70
4
71
3
72
16
73
12
40
0
40
0
40
0
40
0
40
0.24999999999987
40
0.24999999999987
40
0.499999999999739
40
0.499999999999739
40
0.624999999999804
40
0.624999999999804
40
0.749999999999869
40
0.749999999999869
40
1
40
1
40
1
40
1
41
1
10
113.079763663424
20
86.1019761099422
30
0
41
1
10
113.084892327355
20
86.0788875162243
30
0
41
1
10
113.088124762572
20
86.0552270762885
30
0
41
1
10
113.090485060746
20
86.0067712004222
30
0
41
1
10
113.089602581985
20
85.9823506543684
30
0
41
1
10
113.084927257564
20
85.9452929637579
30
0
41
1
10
113.082804854137
20
85.9328615544521
30
0
41
1
10
113.077337586381
20
85.9078487225432
30
0
41
1
10
113.074037628839
20
85.8954729312951
30
0
41
1
10
113.062416963121
20
85.8587269669121
30
0
41
1
10
113.052394630807
20
85.8347326988531
30
0
41
1
10
113.039832469155
20
85.8112710931753
30
0
0
SPLINE
5
21A
100
AcDbEntity
8
1
62
256
6
ByLayer
370
18
48
1
60
0
100
AcDbSpline
70
4
71
3
72
18
73
14
40
0
40
0
40
0
40
0
40
0.125000000000019
40
0.125000000000019
40
0.250000000000037
40
0.250000000000037
40
0.499999999999898
40
0.499999999999898
40
0.624999999999895
40
0.624999999999895
40
0.749999999999892
40
0.749999999999892
40
1
40
1
40
1
40
1
41
1
10
114.307609446914
20
85.0190761147178
30
0
41
1
10
114.315407560074
20
85.0298750118266
30
0
41
1
10
114.323660621491
20
85.0402292665349
30
0
41
1
10
114.341053173992
20
85.0600759407926
30
0
41
1
10
114.350163011588
20
85.0695253073783
30
0
41
1
10
114.378241155618
20
85.0961224966375
30
0
41
1
10
114.398109808002
20
85.1117230766517
30
0
41
1
10
114.429560912537
20
85.1322511926376
30
0
41
1
10
114.440305304394
20
85.1385925750996
30
0
41
1
10
114.461908009456
20
85.1501168187345
30
0
41
1
10
114.472820597781
20
85.1553362572319
30
0
41
1
10
114.505897634254
20
85.1694770489632
30
0
41
1
10
114.528399763552
20
85.1768936517819
30
0
41
1
10
114.551388701789
20
85.1824027259655
30
0
0
SPLINE
5
21B
100
AcDbEntity
8
1
62
256
6
ByLayer
370
18
48
1
60
0
100
AcDbSpline
70
4
71
3
72
16
73
12
40
0
40
0
40
0
40
0
40
0.249999999999946
40
0.249999999999946
40
0.499999999999891
40
0.499999999999891
40
0.624999999999857
40
0.624999999999857
40
0.749999999999823
40
0.749999999999823
40
1
40
1
40
1
40
1
41
1
10
114.237773472417
20
84.6805134455676
30
0
41
1
10
114.232644808486
20
84.7036020392854
30
0
41
1
10
114.229412373269
20
84.7272624792204
30
0
41
1
10
114.227052075094
20
84.7757183550878
30
0
41
1
10
114.227934553856
20
84.800138901142
30
0
41
1
10
114.232609878276
20
84.8371965917521
30
0
41
1
10
114.234732281704
20
84.8496280010571
30
0
41
1
10
114.24019954946
20
84.8746408329668
30
0
41
1
10
114.243499507002
20
84.8870166242151
30
0
41
1
10
114.25512017272
20
84.9237625885986
30
0
41
1
10
114.265142505034
20
84.9477568566573
30
0
41
1
10
114.277704666685
20
84.9712184623345
30
0
0
SPLINE
5
21C
100
AcDbEntity
8
1
62
256
6
ByLayer
370
18
48
1
60
0
100
AcDbSpline
70
4
71
3
72
24
73
20
40
0
40
0
40
0
40
0
40
0.124999999999917
40
0.124999999999917
40
0.249999999999835
40
0.249999999999835
40
0.312499999999849
40
0.312499999999849
40
0.374999999999862
40
0.374999999999862
40
0.49999999999989
40
0.49999999999989
40
0.624999999999918
40
0.624999999999918
40
0.749999999999945
40
0.749999999999945
40
0.874999999999972
40
0.874999999999972
40
1
40
1
40
1
40
1
41
1
10
114.143887391293
20
84.4769774606045
30
0
41
1
10
114.153155383767
20
84.4818951444365
30
0
41
1
10
114.162145661243
20
84.4877013424272
30
0
41
1
10
114.17871675376
20
84.5005312703121
30
0
41
1
10
114.186373482202
20
84.5075773000976
30
0
41
1
10
114.196933747777
20
84.5190726229631
30
0
41
1
10
114.200314052021
20
84.5230805036996
30
0
41
1
10
114.206662740637
20
84.5312852601471
30
0
41
1
10
114.209634969695
20
84.5354822129032
30
0
41
1
10
114.217971670588
20
84.5483432174005
30
0
41
1
10
114.222759789809
20
84.557275773187
30
0
41
1
10
114.230837669218
20
84.5758311274898
30
0
41
1
10
114.234065351732
20
84.5853361246678
30
0
41
1
10
114.238907658462
20
84.6044088203506
30
0
41
1
10
114.240545888487
20
84.6140318809974
30
0
41
1
10
114.242300757439
20
84.6334352489482
30
0
41
1
10
114.242399125398
20
84.6430601162218
30
0
41
1
10
114.241155814545
20
84.6619871899039
30
0
41
1
10
114.239816027974
20
84.6713181198371
30
0
41
1
10
114.237773472417
20
84.6805134455676
30
0
0
SPLINE
5
21D
100
AcDbEntity
8
1
62
256
6
ByLayer
370
18
48
1
60
0
100
AcDbSpline
70
4
71
3
72
23
73
19
40
0
40
0
40
0
40
0
40
0.125000000000232
40
0.125000000000232
40
0.187500000000187
40
0.187500000000187
40
0.250000000000142
40
0.250000000000142
40
0.374999999999993
40
0.374999999999993
40
0.499999999999844
40
0.499999999999844
40
0.624999999999694
40
0.68749999999972
40
0.68749999999972
40
0.749999999999745
40
0.749999999999745
40
1
40
1
40
1
40
1
41
1
10
114.693168684232
20
85.3560112798507
30
0
41
1
10
114.692810181572
20
85.3454862052571
30
0
41
1
10
114.691562125908
20
85.335069724242
30
0
41
1
10
114.688357309482
20
85.3196078367033
30
0
41
1
10
114.687056538089
20
85.314452570054
30
0
41
1
10
114.684043297294
20
85.3043557833096
30
0
41
1
10
114.682336563987
20
85.2994221713237
30
0
41
1
10
114.676644705991
20
85.2849499295442
30
0
41
1
10
114.672091610757
20
85.2757377222471
30
0
41
1
10
114.661518853645
20
85.258161180793
30
0
41
1
10
114.655448385431
20
85.2497646056672
30
0
41
1
10
114.642391282468
20
85.2344847322851
30
0
41
1
10
114.631839347458
20
85.2240145356171
30
0
41
1
10
114.620226935468
20
85.2149452429647
30
0
41
1
10
114.612249726979
20
85.2092124495888
30
0
41
1
10
114.608131321426
20
85.2064965250984
30
0
41
1
10
114.587322389658
20
85.1939195764141
30
0
41
1
10
114.569754928381
20
85.1868040125199
30
0
41
1
10
114.551388701789
20
85.1824027259655
30
0
0
SPLINE
5
21E
100
AcDbEntity
8
1
62
256
6
ByLayer
370
18
48
1
60
0
100
AcDbSpline
70
4
71
3
72
32
73
28
40
0
40
0
40
0
40
0
40
0.0624999999999651
40
0.0624999999999651
40
0.12499999999993
40
0.12499999999993
40
0.249999999999802
40
0.249999999999802
40
0.312499999999785
40
0.312499999999785
40
0.374999999999768
40
0.374999999999768
40
0.437499999999751
40
0.437499999999751
40
0.499999999999734
40
0.562499999999717
40
0.593749999999716
40
0.593749999999716
40
0.624999999999716
40
0.624999999999716
40
0.749999999999773
40
0.749999999999773
40
0.812499999999802
40
0.812499999999802
40
0.874999999999831
40
0.874999999999831
40
1
40
1
40
1
40
1
41
1
10
113.333020901153
20
84.5337328566553
30
0
41
1
10
113.342518001008
20
84.5423969718112
30
0
41
1
10
113.352445329709
20
84.5506606603686
30
0
41
1
10
113.373208249586
20
84.5663687695969
30
0
41
1
10
113.384004394558
20
84.5737794456594
30
0
41
1
10
113.417439577169
20
84.5944984916746
30
0
41
1
10
113.441201124976
20
84.6063868630074
30
0
41
1
10
113.479484080328
20
84.6210244014915
30
0
41
1
10
113.492749257963
20
84.6253751539311
30
0
41
1
10
113.51962042443
20
84.6327188434827
30
0
41
1
10
113.533290034066
20
84.6357419588841
30
0
41
1
10
113.561129985282
20
84.6404402828862
30
0
41
1
10
113.575338581573
20
84.6421182930611
30
0
41
1
10
113.60414461875
20
84.644012717977
30
0
41
1
10
113.632798766689
20
84.6444169267464
30
0
41
1
10
113.668248634818
20
84.6413274762829
30
0
41
1
10
113.689354390777
20
84.6378628093451
30
0
41
1
10
113.703388163405
20
84.6351905721086
30
0
41
1
10
113.710410661891
20
84.6336667248379
30
0
41
1
10
113.744940709364
20
84.6252548787701
30
0
41
1
10
113.770990321238
20
84.6159914184712
30
0
41
1
10
113.8080795116
20
84.5987038827482
30
0
41
1
10
113.820166411356
20
84.5923309544501
30
0
41
1
10
113.843259687434
20
84.5787196484056
30
0
41
1
10
113.85430402698
20
84.5714715348404
30
0
41
1
10
113.886070622696
20
84.5484750501936
30
0
41
1
10
113.905440774852
20
84.5314853636394
30
0
41
1
10
113.923152192969
20
84.5128715449897
30
0
0
SPLINE
5
21F
100
AcDbEntity
8
1
62
256
6
ByLayer
370
18
48
1
60
0
100
AcDbSpline
70
4
71
3
72
24
73
20
40
0
40
0
40
0
40
0
40
0.125000000000119
40
0.125000000000119
40
0.250000000000239
40
0.250000000000239
40
0.312500000000219
40
0.312500000000219
40
0.375000000000199
40
0.375000000000199
40
0.500000000000159
40
0.500000000000159
40
0.625000000000119
40
0.625000000000119
40
0.75000000000008
40
0.75000000000008
40
0.87500000000004
40
0.87500000000004
40
1
40
1
40
1
40
1
41
1
10
113.110302129439
20
84.5135149982329
30
0
41
1
10
113.119173914186
20
84.5079712918478
30
0
41
1
10
113.12867241511
20
84.5031086417924
30
0
41
1
10
113.148016779287
20
84.4952022218689
30
0
41
1
10
113.157919049259
20
84.4921045181673
30
0
41
1
10
113.173109159936
20
84.4887148759567
30
0
41
1
10
113.178254524929
20
84.4877928401119
30
0
41
1
10
113.188506864061
20
84.4863970409331
30
0
41
1
10
113.19361379168
20
84.4859203429643
30
0
41
1
10
113.208878305436
20
84.4851242511158
30
0
41
1
10
113.21898001599
20
84.485434932627
30
0
41
1
10
113.239031609539
20
84.4876892553747
30
0
41
1
10
113.248858780671
20
84.4896297101525
30
0
41
1
10
113.267756287505
20
84.4949311728869
30
0
41
1
10
113.27688965959
20
84.4982995788577
30
0
41
1
10
113.294534445533
20
84.5064241096782
30
0
41
1
10
113.302915092929
20
84.5111256675933
30
0
41
1
10
113.318672245494
20
84.5216063509893
30
0
41
1
10
113.326079544245
20
84.5274003218278
30
0
41
1
10
113.333020901153
20
84.5337328566553
30
0
0
SPLINE
5
220
100
AcDbEntity
8
1
62
256
6
ByLayer
370
18
48
1
60
0
100
AcDbSpline
70
4
71
3
72
24
73
20
40
0
40
0
40
0
40
0
40
0.125000000000028
40
0.125000000000028
40
0.187500000000068
40
0.187500000000068
40
0.250000000000108
40
0.250000000000108
40
0.375000000000187
40
0.375000000000187
40
0.500000000000265
40
0.500000000000265
40
0.625000000000344
40
0.625000000000344
40
0.687500000000381
40
0.687500000000381
40
0.750000000000419
40
0.750000000000419
40
1
40
1
40
1
40
1
41
1
10
114.143887391293
20
84.4769774606045
30
0
41
1
10
114.134613571561
20
84.4720566847742
30
0
41
1
10
114.124989823351
20
84.4679546289241
30
0
41
1
10
114.110029173366
20
84.4630302732482
30
0
41
1
10
114.104924598449
20
84.4615884301101
30
0
41
1
10
114.094704644102
20
84.4591677341878
30
0
41
1
10
114.089593592341
20
84.4581864391342
30
0
41
1
10
114.074257959768
20
84.4558978000989
30
0
41
1
10
114.064030872963
20
84.455241471153
30
0
41
1
10
114.043574483244
20
84.4556144645119
30
0
41
1
10
114.033296849021
20
84.4566712139573
30
0
41
1
10
114.013590064425
20
84.4603257015646
30
0
41
1
10
114.00405181218
20
84.4629171770601
30
0
41
1
10
113.990195246198
20
84.4678784209174
30
0
41
1
10
113.985651911337
20
84.4697121036066
30
0
41
1
10
113.976716940257
20
84.4737375191207
30
0
41
1
10
113.97231519204
20
84.4759366517733
30
0
41
1
10
113.951063721098
20
84.4876173576754
30
0
41
1
10
113.936138782057
20
84.4992232864164
30
0
41
1
10
113.923152192969
20
84.5128715449897
30
0
0
SPLINE
5
221
100
AcDbEntity
8
1
62
256
6
ByLayer
370
18
48
1
60
0
100
AcDbSpline
70
4
71
3
72
24
73
20
40
0
40
0
40
0
40
0
40
0.125000000000297
40
0.125000000000297
40
0.187500000000275
40
0.187500000000275
40
0.250000000000254
40
0.250000000000254
40
0.375000000000209
40
0.375000000000209
40
0.500000000000164
40
0.500000000000164
40
0.625000000000119
40
0.625000000000119
40
0.687499999999945
40
0.687499999999945
40
0.749999999999772
40
0.749999999999772
40
1
40
1
40
1
40
1
41
1
10
114.207235006402
20
86.2689745572768
30
0
41
1
10
114.216138213325
20
86.2634112161368
30
0
41
1
10
114.22450795908
20
86.2571350120654
30
0
41
1
10
114.236261894723
20
86.2466509731596
30
0
41
1
10
114.240066024933
20
86.2429544691048
30
0
41
1
10
114.247278945405
20
86.2353202561691
30
0
41
1
10
114.250687675197
20
86.231387523678
30
0
41
1
10
114.260347923877
20
86.2192590746719
30
0
41
1
10
114.266037178871
20
86.2107352004506
30
0
41
1
10
114.275957702482
20
86.1928414650428
30
0
41
1
10
114.280189438514
20
86.1834160213602
30
0
41
1
10
114.286894162509
20
86.1645279367797
30
0
41
1
10
114.289427202091
20
86.1549739990442
30
0
41
1
10
114.292071343393
20
86.140495506953
30
0
41
1
10
114.292759156631
20
86.1356446131508
30
0
41
1
10
114.29374889467
20
86.1258948463933
30
0
41
1
10
114.294049478262
20
86.1209835089821
30
0
41
1
10
114.294580226834
20
86.0967392712267
30
0
41
1
10
114.292007732286
20
86.0780087190877
30
0
41
1
10
114.286696798991
20
86.0599333254789
30
0
0
SPLINE
5
222
100
AcDbEntity
8
1
62
256
6
ByLayer
370
18
48
1
60
0
100
AcDbSpline
70
4
71
3
72
32
73
28
40
0
40
0
40
0
40
0
40
0.0625000000000109
40
0.0625000000000109
40
0.125000000000022
40
0.125000000000022
40
0.250000000000044
40
0.250000000000044
40
0.31250000000009
40
0.31250000000009
40
0.375000000000137
40
0.375000000000137
40
0.437500000000184
40
0.437500000000184
40
0.50000000000023
40
0.562500000000277
40
0.5937500000003
40
0.5937500000003
40
0.625000000000324
40
0.625000000000324
40
0.750000000000286
40
0.750000000000286
40
0.812500000000213
40
0.812500000000213
40
0.87500000000014
40
0.87500000000014
40
1
40
1
40
1
40
1
41
1
10
114.564143352863
20
85.538671830978
30
0
41
1
10
114.551888121956
20
85.5425539904093
30
0
41
1
10
114.539764065823
20
85.5470090648464
30
0
41
1
10
114.515770304851
20
85.557115643744
30
0
41
1
10
114.503949555624
20
85.5627499039017
30
0
41
1
10
114.469272796771
20
85.5813163569336
30
0
41
1
10
114.447083844193
20
85.5959312444341
30
0
41
1
10
114.415243737506
20
85.6217391750699
30
0
41
1
10
114.404835299744
20
85.6310428535713
30
0
41
1
10
114.385023083766
20
85.6506251338063
30
0
41
1
10
114.375561327535
20
85.6609436919867
30
0
41
1
10
114.357553821934
20
85.682689192067
30
0
41
1
10
114.348986496241
20
85.6941478374356
30
0
41
1
10
114.33292226652
20
85.7181336204768
30
0
41
1
10
114.318223902957
20
85.7427340836326
30
0
41
1
10
114.303146974184
20
85.7749664264596
30
0
41
1
10
114.29557742283
20
85.7949703877559
30
0
41
1
10
114.290863191664
20
85.8084560651989
30
0
41
1
10
114.288665762318
20
85.8152977670557
30
0
41
1
10
114.278656346099
20
85.8493990248761
30
0
41
1
10
114.273630606224
20
85.8765860796285
30
0
41
1
10
114.270022484538
20
85.9173469386955
30
0
41
1
10
114.269486437819
20
85.9310005078722
30
0
41
1
10
114.269704538881
20
85.9578057288993
30
0
41
1
10
114.270448104226
20
85.9709951090036
30
0
41
1
10
114.274446877323
20
86.0100074767436
30
0
41
1
10
114.279453618966
20
86.0352816639654
30
0
41
1
10
114.286696798991
20
86.0599333254789
30
0
0
SPLINE
5
223
100
AcDbEntity
8
1
62
256
6
ByLayer
370
18
48
1
60
0
100
AcDbSpline
70
4
71
3
72
23
73
19
40
0
40
0
40
0
40
0
40
0.125000000000097
40
0.125000000000097
40
0.250000000000194
40
0.250000000000194
40
0.312500000000267
40
0.312500000000267
40
0.37500000000034
40
0.500000000000272
40
0.500000000000272
40
0.625000000000204
40
0.625000000000204
40
0.750000000000136
40
0.750000000000136
40
0.875000000000068
40
0.875000000000068
40
1
40
1
40
1
40
1
41
1
10
114.693168684232
20
85.3560112798507
30
0
41
1
10
114.693524900628
20
85.3664692333105
30
0
41
1
10
114.692977158752
20
85.3771272484848
30
0
41
1
10
114.690134839554
20
85.397826091538
30
0
41
1
10
114.687857924922
20
85.4079492544246
30
0
41
1
10
114.683183863038
20
85.4227998797005
30
0
41
1
10
114.681404468998
20
85.4277173709097
30
0
41
1
10
114.677479995171
20
85.4372872070901
30
0
41
1
10
114.671045796135
20
85.4512606690159
30
0
41
1
10
114.663053876169
20
85.4641454351944
30
0
41
1
10
114.651056575219
20
85.4803791561309
30
0
41
1
10
114.644460431762
20
85.487907927821
30
0
41
1
10
114.630408834392
20
85.5016103457394
30
0
41
1
10
114.622918247989
20
85.5078306940725
30
0
41
1
10
114.607043242659
20
85.5190394831228
30
0
41
1
10
114.598783826841
20
85.5239346057828
30
0
41
1
10
114.581824375961
20
85.5323241273761
30
0
41
1
10
114.573100711043
20
85.5358343575108
30
0
41
1
10
114.564143352863
20
85.538671830978
30
0
0
SPLINE
5
224
100
AcDbEntity
8
1
62
256
6
ByLayer
370
18
48
1
60
0
100
AcDbSpline
70
4
71
3
72
24
73
20
40
0
40
0
40
0
40
0
40
0.12500000000042
40
0.12500000000042
40
0.187500000000521
40
0.187500000000521
40
0.250000000000622
40
0.250000000000622
40
0.37500000000072
40
0.37500000000072
40
0.500000000000818
40
0.500000000000818
40
0.625000000000916
40
0.625000000000916
40
0.687500000000812
40
0.687500000000812
40
0.750000000000708
40
0.750000000000708
40
1
40
1
40
1
40
1
41
1
10
113.110302129439
20
84.5135149982329
30
0
41
1
10
113.101398922516
20
84.519078339373
30
0
41
1
10
113.09302917676
20
84.5253545434445
30
0
41
1
10
113.081275241117
20
84.5358385823502
30
0
41
1
10
113.077471110907
20
84.539535086405
30
0
41
1
10
113.070258190436
20
84.5471692993407
30
0
41
1
10
113.066849460643
20
84.5511020318319
30
0
41
1
10
113.057189211963
20
84.5632304808378
30
0
41
1
10
113.051499956969
20
84.5717543550592
30
0
41
1
10
113.041579433359
20
84.5896480904669
30
0
41
1
10
113.037347697326
20
84.5990735341495
30
0
41
1
10
113.030642973331
20
84.6179616187301
30
0
41
1
10
113.02810993375
20
84.6275155564655
30
0
41
1
10
113.025465792448
20
84.6419940485569
30
0
41
1
10
113.02477797921
20
84.6468449423589
30
0
41
1
10
113.02378824117
20
84.6565947091165
30
0
41
1
10
113.023487657578
20
84.6615060465276
30
0
41
1
10
113.022956909007
20
84.6857502842829
30
0
41
1
10
113.025529403555
20
84.7044808364219
30
0
41
1
10
113.03084033685
20
84.7225562300308
30
0
0
SPLINE
5
225
100
AcDbEntity
8
1
62
256
6
ByLayer
370
18
48
1
60
0
100
AcDbSpline
70
4
71
3
72
32
73
28
40
0
40
0
40
0
40
0
40
0.0625000000000114
40
0.0625000000000114
40
0.125000000000023
40
0.125000000000023
40
0.250000000000046
40
0.250000000000046
40
0.312500000000093
40
0.312500000000093
40
0.375000000000141
40
0.375000000000141
40
0.437500000000188
40
0.437500000000188
40
0.500000000000235
40
0.562500000000283
40
0.593750000000307
40
0.593750000000307
40
0.62500000000033
40
0.62500000000033
40
0.750000000000294
40
0.750000000000294
40
0.812500000000219
40
0.812500000000219
40
0.875000000000144
40
0.875000000000144
40
1
40
1
40
1
40
1
41
1
10
112.753393782977
20
85.2438177245317
30
0
41
1
10
112.765649013885
20
85.2399355651005
30
0
41
1
10
112.777773070018
20
85.2354804906633
30
0
41
1
10
112.801766830989
20
85.2253739117658
30
0
41
1
10
112.813587580216
20
85.2197396516081
30
0
41
1
10
112.84826433907
20
85.201173198576
30
0
41
1
10
112.870453291648
20
85.1865583110758
30
0
41
1
10
112.902293398335
20
85.1607503804398
30
0
41
1
10
112.912701836097
20
85.1514467019384
30
0
41
1
10
112.932514052075
20
85.1318644217034
30
0
41
1
10
112.941975808306
20
85.121545863523
30
0
41
1
10
112.959983313907
20
85.0998003634427
30
0
41
1
10
112.968550639599
20
85.0883417180742
30
0
41
1
10
112.984614869321
20
85.0643559350331
30
0
41
1
10
112.999313112748
20
85.0397554149622
30
0
41
1
10
113.014390161657
20
85.0075231290502
30
0
41
1
10
113.02195971301
20
84.9875191677538
30
0
41
1
10
113.026673944177
20
84.9740334903108
30
0
41
1
10
113.028871373523
20
84.9671917884541
30
0
41
1
10
113.038880789741
20
84.9330905306336
30
0
41
1
10
113.043906529616
20
84.9059034758812
30
0
41
1
10
113.047514651302
20
84.8651426168144
30
0
41
1
10
113.048050698021
20
84.8514890476377
30
0
41
1
10
113.047832596959
20
84.8246838266105
30
0
41
1
10
113.047089031615
20
84.8114944465061
30
0
41
1
10
113.043090258517
20
84.7724820787662
30
0
41
1
10
113.038083516874
20
84.7472078915442
30
0
41
1
10
113.03084033685
20
84.7225562300308
30
0
0
SPLINE
5
226
100
AcDbEntity
8
1
62
256
6
ByLayer
370
18
48
1
60
0
100
AcDbSpline
70
4
71
3
72
23
73
19
40
0
40
0
40
0
40
0
40
0.124999999999738
40
0.124999999999738
40
0.249999999999475
40
0.249999999999475
40
0.312499999999369
40
0.312499999999369
40
0.374999999999262
40
0.49999999999941
40
0.49999999999941
40
0.624999999999557
40
0.624999999999557
40
0.749999999999705
40
0.749999999999705
40
0.874999999999852
40
0.874999999999852
40
1
40
1
40
1
40
1
41
1
10
112.624368451609
20
85.4264782756591
30
0
41
1
10
112.624012235213
20
85.4160203221992
30
0
41
1
10
112.624559977088
20
85.4053623070249
30
0
41
1
10
112.627402296286
20
85.3846634639718
30
0
41
1
10
112.629679210918
20
85.3745403010851
30
0
41
1
10
112.634353272803
20
85.3596896758093
30
0
41
1
10
112.636132666842
20
85.3547721846001
30
0
41
1
10
112.64005714067
20
85.3452023484197
30
0
41
1
10
112.646491339705
20
85.3312288864938
30
0
41
1
10
112.654483259672
20
85.3183441203153
30
0
41
1
10
112.666480560622
20
85.3021103993789
30
0
41
1
10
112.673076704079
20
85.2945816276887
30
0
41
1
10
112.687128301449
20
85.2808792097703
30
0
41
1
10
112.694618887852
20
85.2746588614372
30
0
41
1
10
112.710493893182
20
85.2634500723868
30
0
41
1
10
112.718753308999
20
85.2585549497269
30
0
41
1
10
112.73571275988
20
85.2501654281336
30
0
41
1
10
112.744436424798
20
85.2466551979991
30
0
41
1
10
112.753393782977
20
85.2438177245317
30
0
0
SPLINE
5
227
100
AcDbEntity
8
1
62
256
6
ByLayer
370
18
48
1
60
0
100
AcDbSpline
70
4
71
3
72
24
73
20
40
0
40
0
40
0
40
0
40
0.125000000000232
40
0.125000000000232
40
0.187500000000219
40
0.187500000000219
40
0.250000000000206
40
0.250000000000206
40
0.375000000000178
40
0.375000000000178
40
0.500000000000149
40
0.500000000000149
40
0.625000000000121
40
0.625000000000121
40
0.687500000000105
40
0.687500000000105
40
0.75000000000009
40
0.75000000000009
40
1
40
1
40
1
40
1
41
1
10
113.173649744548
20
86.3055120949053
30
0
41
1
10
113.18292356428
20
86.3104328707356
30
0
41
1
10
113.192547312489
20
86.3145349265856
30
0
41
1
10
113.207507962475
20
86.3194592822616
30
0
41
1
10
113.212612537392
20
86.3209011253997
30
0
41
1
10
113.222832491739
20
86.3233218213219
30
0
41
1
10
113.2279435435
20
86.3243031163755
30
0
41
1
10
113.243279176073
20
86.3265917554108
30
0
41
1
10
113.253506262878
20
86.3272480843566
30
0
41
1
10
113.273962652597
20
86.3268750909978
30
0
41
1
10
113.28424028682
20
86.3258183415524
30
0
41
1
10
113.303947071416
20
86.322163853945
30
0
41
1
10
113.313485323661
20
86.3195723784495
30
0
41
1
10
113.327341889643
20
86.3146111345925
30
0
41
1
10
113.331885224504
20
86.312777451903
30
0
41
1
10
113.340820195584
20
86.308752036389
30
0
41
1
10
113.3452219438
20
86.3065529037366
30
0
41
1
10
113.366473414743
20
86.2948721978344
30
0
41
1
10
113.381398353784
20
86.2832662690934
30
0
41
1
10
113.394384942871
20
86.26961801052
30
0
0
SPLINE
5
228
100
AcDbEntity
8
1
62
256
6
ByLayer
370
18
48
1
60
0
100
AcDbSpline
70
4
71
3
72
32
73
28
40
0
40
0
40
0
40
0
40
0.0624999999999397
40
0.0624999999999397
40
0.124999999999879
40
0.124999999999879
40
0.249999999999699
40
0.249999999999699
40
0.312499999999656
40
0.312499999999656
40
0.374999999999612
40
0.374999999999612
40
0.437499999999569
40
0.437499999999569
40
0.499999999999526
40
0.562499999999483
40
0.593749999999499
40
0.593749999999499
40
0.624999999999516
40
0.624999999999516
40
0.74999999999964
40
0.74999999999964
40
0.812499999999702
40
0.812499999999702
40
0.874999999999764
40
0.874999999999764
40
1
40
1
40
1
40
1
41
1
10
113.984516234688
20
86.2487566988544
30
0
41
1
10
113.975019134833
20
86.2400925836985
30
0
41
1
10
113.965091806132
20
86.2318288951411
30
0
41
1
10
113.944328886254
20
86.2161207859129
30
0
41
1
10
113.933532741283
20
86.2087101098502
30
0
41
1
10
113.900097558672
20
86.1879910638352
30
0
41
1
10
113.876336010865
20
86.1761026925022
30
0
41
1
10
113.838053055513
20
86.1614651540183
30
0
41
1
10
113.824787877878
20
86.1571144015786
30
0
41
1
10
113.797916711411
20
86.149770712027
30
0
41
1
10
113.784247101775
20
86.1467475966257
30
0
41
1
10
113.756407150559
20
86.1420492726236
30
0
41
1
10
113.742198554267
20
86.1403712624486
30
0
41
1
10
113.71339251709
20
86.1384768375327
30
0
41
1
10
113.684738369152
20
86.1380726287632
30
0
41
1
10
113.649288501022
20
86.1411620792268
30
0
41
1
10
113.628182745064
20
86.1446267461647
30
0
41
1
10
113.614148972436
20
86.1472989834012
30
0
41
1
10
113.60712647395
20
86.1488228306719
30
0
41
1
10
113.572596426477
20
86.1572346767397
30
0
41
1
10
113.546546814602
20
86.1664981370386
30
0
41
1
10
113.509457624241
20
86.1837856727616
30
0
41
1
10
113.497370724484
20
86.1901586010598
30
0
41
1
10
113.474277448407
20
86.2037699071041
30
0
41
1
10
113.463233108861
20
86.2110180206693
30
0
41
1
10
113.431466513145
20
86.2340145053162
30
0
41
1
10
113.412096360988
20
86.2510041918704
30
0
41
1
10
113.394384942871
20
86.26961801052
30
0
0
SPLINE
5
229
100
AcDbEntity
8
1
62
256
6
ByLayer
370
18
48
1
60
0
100
AcDbSpline
70
4
71
3
72
24
73
20
40
0
40
0
40
0
40
0
40
0.125000000000121
40
0.125000000000121
40
0.250000000000242
40
0.250000000000242
40
0.312500000000223
40
0.312500000000223
40
0.375000000000203
40
0.375000000000203
40
0.500000000000163
40
0.500000000000163
40
0.625000000000122
40
0.625000000000122
40
0.750000000000081
40
0.750000000000081
40
0.875000000000041
40
0.875000000000041
40
1
40
1
40
1
40
1
41
1
10
114.207235006402
20
86.2689745572768
30
0
41
1
10
114.198363221655
20
86.2745182636619
30
0
41
1
10
114.188864720731
20
86.2793809137173
30
0
41
1
10
114.169520356553
20
86.2872873336409
30
0
41
1
10
114.159618086582
20
86.2903850373424
30
0
41
1
10
114.144427975905
20
86.2937746795531
30
0
41
1
10
114.139282610912
20
86.2946967153979
30
0
41
1
10
114.129030271779
20
86.2960925145766
30
0
41
1
10
114.123923344161
20
86.2965692125455
30
0
41
1
10
114.108658830405
20
86.2973653043939
30
0
41
1
10
114.098557119851
20
86.2970546228827
30
0
41
1
10
114.078505526302
20
86.294800300135
30
0
41
1
10
114.06867835517
20
86.2928598453572
30
0
41
1
10
114.049780848335
20
86.2875583826228
30
0
41
1
10
114.04064747625
20
86.284189976652
30
0
41
1
10
114.023002690308
20
86.2760654458315
30
0
41
1
10
114.014622042911
20
86.2713638879164
30
0
41
1
10
113.998864890347
20
86.2608832045205
30
0
41
1
10
113.991457591596
20
86.2550892336819
30
0
41
1
10
113.984516234688
20
86.2487566988544
30
0
0
SPLINE
5
22A
100
AcDbEntity
8
1
62
256
6
ByLayer
370
18
48
1
60
0
100
AcDbSpline
70
4
71
3
72
30
73
26
40
0
40
0
40
0
40
0
40
0.0625000000000042
40
0.0625000000000042
40
0.125000000000008
40
0.125000000000008
40
0.250000000000009
40
0.250000000000009
40
0.312500000000009
40
0.312500000000009
40
0.37500000000001
40
0.37500000000001
40
0.500000000000011
40
0.500000000000011
40
0.625000000000012
40
0.625000000000012
40
0.750000000000013
40
0.750000000000013
40
0.875000000000013
40
0.875000000000013
40
0.937500000000014
40
0.968750000000013
40
0.984375000000006
40
0.984375000000006
40
1
40
1
40
1
40
1
41
1
10
70
20
-83.6133058583988
30
0
41
1
10
70.0000000000001
20
-83.5496762700904
30
0
41
1
10
69.9960098580031
20
-83.4842704305672
30
0
41
1
10
69.9814132386092
20
-83.3499154765071
30
0
41
1
10
69.9708015768573
20
-83.2809664136786
30
0
41
1
10
69.9305583477258
20
-83.0688132335013
30
0
41
1
10
69.8925849002773
20
-82.9203057731475
30
0
41
1
10
69.8232198786196
20
-82.686929335096
30
0
41
1
10
69.7980108985324
20
-82.6073673478836
30
0
41
1
10
69.7439548490402
20
-82.4446944181657
30
0
41
1
10
69.7150871970244
20
-82.3615331031039
30
0
41
1
10
69.6240761428346
20
-82.1076932572416
30
0
41
1
10
69.5574616584335
20
-81.9323754396431
30
0
41
1
10
69.4155605839056
20
-81.5696026008379
30
0
41
1
10
69.3402611744686
20
-81.3821477318759
30
0
41
1
10
69.1834719238398
20
-80.9950537366047
30
0
41
1
10
69.1019744731163
20
-80.7954148273635
30
0
41
1
10
68.934878448152
20
-80.3838078157191
30
0
41
1
10
68.8492746721205
20
-80.1718400736147
30
0
41
1
10
68.7192031083646
20
-79.8444531706742
30
0
41
1
10
68.6537490746182
20
-79.6783996015379
30
0
41
1
10
68.576952641874
20
-79.4804843290044
30
0
41
1
10
68.5439787924279
20
-79.3947594792579
30
0
41
1
10
68.521986197377
20
-79.3374078780245
30
0
41
1
10
68.5109750973942
20
-79.3086055156102
30
0
41
1
10
68.5
20
-79.2798049186272
30
0
0
SPLINE
5
22B
100
AcDbEntity
8
1
62
256
6
ByLayer
370
18
48
1
60
0
100
AcDbSpline
70
4
71
3
72
28
73
24
40
0
40
0
40
0
40
0
40
0.125260134574674
40
0.125260134574674
40
0.187890201861982
40
0.187890201861982
40
0.25052026914929
40
0.25052026914929
40
0.375780403723964
40
0.375780403723964
40
0.438410471011313
40
0.438410471011313
40
0.501040538298661
40
0.501040538298661
40
0.626300672873375
40
0.626300672873375
40
0.751560807448088
40
0.751560807448088
40
0.814190874735455
40
0.814190874735455
40
0.876820942022822
40
0.876820942022822
40
1
40
1
40
1
40
1
41
1
10
107.88453910278
20
80.3784384769251
30
0
41
1
10
107.861969738009
20
80.3925413812623
30
0
41
1
10
107.839069542146
20
80.4052875378404
30
0
41
1
10
107.804363289798
20
80.4224929524289
30
0
41
1
10
107.792735340376
20
80.4279085680595
30
0
41
1
10
107.769388325154
20
80.4381154148663
30
0
41
1
10
107.757637977817
20
80.4429146812623
30
0
41
1
10
107.723134078386
20
80.4560979828636
30
0
41
1
10
107.700856309602
20
80.4633957115404
30
0
41
1
10
107.668778291589
20
80.4725198502771
30
0
41
1
10
107.65826661822
20
80.4752667631323
30
0
41
1
10
107.63795026488
20
80.480164969434
30
0
41
1
10
107.628234590367
20
80.4822974947008
30
0
41
1
10
107.600416638778
20
80.4879151564524
30
0
41
1
10
107.583631412903
20
80.4906263034978
30
0
41
1
10
107.553855806875
20
80.4946885018677
30
0
41
1
10
107.541317206671
20
80.4959834857282
30
0
41
1
10
107.526051831626
20
80.4973347077703
30
0
41
1
10
107.521550702461
20
80.4976846080125
30
0
41
1
10
107.51375471489
20
80.4982419687786
30
0
41
1
10
107.510471977556
20
80.4984484927986
30
0
41
1
10
107.5027254959
20
80.4989068896139
30
0
41
1
10
107.500067136994
20
80.4990263611912
30
0
41
1
10
107.50001015168
20
80.4990289161674
30
0
0
SPLINE
5
22C
100
AcDbEntity
8
1
62
256
6
ByLayer
370
18
48
1
60
0
100
AcDbSpline
70
4
71
3
72
17
73
13
40
0
40
0
40
0
40
0
40
0.124678561966101
40
0.124678561966101
40
0.18701784294915
40
0.18701784294915
40
0.249357123932199
40
0.498714247864404
40
0.498714247864404
40
0.997428495728816
40
0.997428495728816
40
1
40
1
40
1
40
1
41
1
10
85.994679084931
20
88.1195715079151
30
0
41
1
10
85.9705036914581
20
88.1182403288077
30
0
41
1
10
85.9477589134623
20
88.1169878663814
30
0
41
1
10
85.9158176800797
20
88.1152289295618
30
0
41
1
10
85.9055251076604
20
88.11466212789
30
0
41
1
10
85.8857132874177
20
88.1135710919826
30
0
41
1
10
85.838146409426
20
88.1109515369008
30
0
41
1
10
85.8003006595597
20
88.1088671415603
30
0
41
1
10
85.7277196957057
20
88.1048695371506
30
0
41
1
10
85.7035914790135
20
88.1035404323356
30
0
41
1
10
85.703536270209
20
88.1035373912868
30
0
41
1
10
85.7035376401732
20
88.103537466749
30
0
41
1
10
85.7035386387594
20
88.1035375217546
30
0
0
SPLINE
5
22D
100
AcDbEntity
8
1
62
256
6
ByLayer
370
18
48
1
60
0
100
AcDbSpline
70
4
71
3
72
103
73
99
40
0
40
0
40
0
40
0
40
0.001399529598519
40
0.001399529598519
40
0.0326057942985608
40
0.0326057942985608
40
0.0482089266485815
40
0.0482089266485815
40
0.056010492823592
40
0.056010492823592
40
0.0638120589986024
40
0.0638120589986024
40
0.095018323698644
40
0.095018323698644
40
0.126224588398685
40
0.126224588398685
40
0.134026154573696
40
0.134026154573696
40
0.141827720748708
40
0.141827720748708
40
0.157430853098729
40
0.17303398544875
40
0.17303398544875
40
0.176934768536256
40
0.176934768536256
40
0.180835551623762
40
0.188637117798773
40
0.188637117798773
40
0.219843382498821
40
0.219843382498821
40
0.251049647198869
40
0.251049647198869
40
0.282255911898917
40
0.282255911898917
40
0.29005747807393
40
0.29005747807393
40
0.297859044248943
40
0.313462176598968
40
0.313462176598968
40
0.344668441299018
40
0.344668441299018
40
0.375874705999067
40
0.375874705999067
40
0.391477838349093
40
0.399279404524106
40
0.399279404524106
40
0.407080970699119
40
0.407080970699119
40
0.438287235399167
40
0.438287235399167
40
0.469493500099216
40
0.500699764799264
40
0.531906029499313
40
0.531906029499313
40
0.539707595674326
40
0.539707595674326
40
0.547509161849338
40
0.547509161849338
40
0.563112294199364
40
0.563112294199364
40
0.594318558899413
40
0.625524823599462
40
0.625524823599462
40
0.656731088299511
40
0.656731088299511
40
0.672334220649536
40
0.680135786824548
40
0.680135786824548
40
0.68793735299956
40
0.68793735299956
40
0.719143617699602
40
0.750349882399645
40
0.750349882399645
40
0.781556147099688
40
0.781556147099688
40
0.81276241179973
40
0.81276241179973
40
0.820563977974741
40
0.820563977974741
40
0.828365544149753
40
0.828365544149753
40
0.843968676499774
40
0.843968676499774
40
0.875174941199817
40
0.875174941199817
40
0.906381205899859
40
0.906381205899859
40
0.937587470599902
40
0.937587470599902
40
0.953190602949923
40
0.953190602949923
40
0.957091386037429
40
0.957091386037429
40
0.960992169124936
40
0.960992169124936
40
0.968793735299949
40
0.968793735299949
40
1
40
1
40
1
40
1
41
1
10
103.537409737937
20
89.1448158031612
30
0
41
1
10
103.537413152815
20
89.1448168745654
30
0
41
1
10
103.537386251916
20
89.1448086731545
30
0
41
1
10
103.536054242332
20
89.144401779321
30
0
41
1
10
103.519725909958
20
89.1394062443973
30
0
41
1
10
103.472736367493
20
89.1251045429469
30
0
41
1
10
103.453317324523
20
89.1192020633225
30
0
41
1
10
103.418507170676
20
89.1086536288169
30
0
41
1
10
103.405949737855
20
89.1048529752716
30
0
41
1
10
103.378955087248
20
89.0966961433524
30
0
41
1
10
103.364576056817
20
89.0923575537759
30
0
41
1
10
103.288371443726
20
89.0694066591648
30
0
41
1
10
103.213656105222
20
89.0470274187858
30
0
41
1
10
103.038597525914
20
88.9952084120987
30
0
41
1
10
102.938247861435
20
88.965766427724
30
0
41
1
10
102.797418009046
20
88.9250735167647
30
0
41
1
10
102.768480521961
20
88.9167401663618
30
0
41
1
10
102.7090710115
20
88.8996961768052
30
0
41
1
10
102.678575433166
20
88.8909788771954
30
0
41
1
10
102.585125665088
20
88.8643727557942
30
0
41
1
10
102.455141521488
20
88.8276430939471
30
0
41
1
10
102.314752765925
20
88.7886618144601
30
0
41
1
10
102.223843476489
20
88.7636703023053
30
0
41
1
10
102.205585723249
20
88.7586632234016
30
0
41
1
10
102.168760128721
20
88.7485891041329
30
0
41
1
10
102.113127220587
20
88.73340741048
30
0
41
1
10
102.05632605573
20
88.7180234928604
30
0
41
1
10
101.864453783209
20
88.6663340655208
30
0
41
1
10
101.702867497105
20
88.6236767671726
30
0
41
1
10
101.364672353555
20
88.5366708627032
30
0
41
1
10
101.188059008333
20
88.4923202459948
30
0
41
1
10
100.820434477104
20
88.4027452729435
30
0
41
1
10
100.629421230408
20
88.357519464376
30
0
41
1
10
100.381784196931
20
88.3009231364695
30
0
41
1
10
100.331888679962
20
88.2896182143443
30
0
41
1
10
100.23157624813
20
88.2670946187874
30
0
41
1
10
100.080230545562
20
88.2334168778555
30
0
41
1
10
99.926293255802
20
88.2001089404629
30
0
41
1
10
99.6150436635379
20
88.1341063858836
30
0
41
1
10
99.4030510256858
20
88.0909231888537
30
0
41
1
10
98.9703190189593
20
88.0068074318804
30
0
41
1
10
98.7495786970761
20
87.9658741289724
30
0
41
1
10
98.4119227447438
20
87.9066096639962
30
0
41
1
10
98.2414559928231
20
87.877511227579
30
0
41
1
10
98.0685127069471
20
87.8492978168862
30
0
41
1
10
97.9526633373276
20
87.8306950050866
30
0
41
1
10
97.8944378958562
20
87.8214932344957
30
0
41
1
10
97.6029964017405
20
87.7761884615434
30
0
41
1
10
97.3680262767941
20
87.7420654068715
30
0
41
1
10
96.8945249291185
20
87.6783940608765
30
0
41
1
10
96.4174619127101
20
87.6192972729338
30
0
41
1
10
95.6911964506552
20
87.5453275037173
30
0
41
1
10
95.1997927785448
20
87.5064092577235
30
0
41
1
10
94.8903331974311
20
87.485519762489
30
0
41
1
10
94.8283245091476
20
87.4815135683622
30
0
41
1
10
94.7040710895254
20
87.4738491863901
30
0
41
1
10
94.6418221165478
20
87.4701912588131
30
0
41
1
10
94.455506751112
20
87.4597874725287
30
0
41
1
10
94.3316094459373
20
87.4535949109194
30
0
41
1
10
93.9608456650557
20
87.4372191246332
30
0
41
1
10
93.468966031766
20
87.4212575058815
30
0
41
1
10
92.9819903120245
20
87.4167186729451
30
0
41
1
10
92.497494275959
20
87.4177100998193
30
0
41
1
10
92.2564859109755
20
87.4209710471973
30
0
41
1
10
91.8968917471632
20
87.4298574029614
30
0
41
1
10
91.7175748791045
20
87.4352990345514
30
0
41
1
10
91.5389954899767
20
87.4422069713583
30
0
41
1
10
91.420108826625
20
87.4471344201835
30
0
41
1
10
91.3607203477665
20
87.4497605662771
30
0
41
1
10
91.0645010260876
20
87.46367312059
30
0
41
1
10
90.5998464303419
20
87.4907088957045
30
0
41
1
10
90.1535081386508
20
87.5260019733009
30
0
41
1
10
89.7163912279233
20
87.564790102381
30
0
41
1
10
89.5024424875222
20
87.5859323050221
30
0
41
1
10
89.0840459154759
20
87.6310763385989
30
0
41
1
10
88.8795960342339
20
87.6550789581469
30
0
41
1
10
88.6303092984052
20
87.6864578867576
30
0
41
1
10
88.5807664690973
20
87.6928023629806
30
0
41
1
10
88.4823214945911
20
87.7056179497067
30
0
41
1
10
88.4333800002161
20
87.7120943617332
30
0
41
1
10
88.2877980149726
20
87.7316618172849
30
0
41
1
10
88.192851544874
20
87.7448293920751
30
0
41
1
10
87.9143151442947
20
87.7845368336584
30
0
41
1
10
87.7370137796146
20
87.8112810225762
30
0
41
1
10
87.3994167731686
20
87.8644675490185
30
0
41
1
10
87.2391189178267
20
87.890911271649
30
0
41
1
10
86.9362419081532
20
87.9426488505172
30
0
41
1
10
86.7936577700749
20
87.9679444087263
30
0
41
1
10
86.5940485462263
20
88.0043526784999
30
0
41
1
10
86.5298950325267
20
88.0162323885663
30
0
41
1
10
86.4528291790828
20
88.0306854101425
30
0
41
1
10
86.4375724456976
20
88.0335561637544
30
0
41
1
10
86.4073761035958
20
88.0392559809725
30
0
41
1
10
86.3924300243266
20
88.0420862870695
30
0
41
1
10
86.3482158273068
20
88.0504846503927
30
0
41
1
10
86.3195263425616
20
88.0559686675498
30
0
41
1
10
86.1800116921583
20
88.0827868619565
30
0
41
1
10
86.0809561335287
20
88.1023149159981
30
0
41
1
10
85.9946790849305
20
88.1195715079155
30
0
0
SPLINE
5
22E
100
AcDbEntity
8
1
62
256
6
ByLayer
370
18
48
1
60
0
100
AcDbSpline
70
4
71
3
72
46
73
42
40
0
40
0
40
0
40
0
40
0.124999999999992
40
0.124999999999992
40
0.187499999999988
40
0.187499999999988
40
0.203124999999988
40
0.203124999999988
40
0.218749999999988
40
0.249999999999986
40
0.249999999999986
40
0.312499999999983
40
0.374999999999981
40
0.374999999999981
40
0.437499999999978
40
0.437499999999978
40
0.499999999999976
40
0.499999999999976
40
0.531249999999975
40
0.531249999999975
40
0.546874999999976
40
0.546874999999976
40
0.562499999999977
40
0.562499999999977
40
0.62499999999998
40
0.62499999999998
40
0.687499999999983
40
0.687499999999983
40
0.749999999999986
40
0.749999999999986
40
0.812499999999989
40
0.812499999999989
40
0.828124999999992
40
0.828124999999992
40
0.843749999999995
40
0.843749999999995
40
0.874999999999998
40
0.874999999999998
40
0.937499999999999
40
0.937499999999999
40
1
40
1
40
1
40
1
41
1
10
85.9946790849307
20
88.119571507916
30
0
41
1
10
86.0748374943373
20
88.076432822788
30
0
41
1
10
86.1814378112754
20
88.0192703513036
30
0
41
1
10
86.3808875135138
20
87.9135860375602
30
0
41
1
10
86.4539775013893
20
87.8750324941199
30
0
41
1
10
86.5537145417966
20
87.8227880608234
30
0
41
1
10
86.5740778352798
20
87.8121382609082
30
0
41
1
10
86.6155133516094
20
87.7905056126125
30
0
41
1
10
86.6787762247649
20
87.7575329074966
30
0
41
1
10
86.7453411493933
20
87.7230233260156
30
0
41
1
10
86.8828176916564
20
87.652044114848
30
0
41
1
10
87.0777004623972
20
87.5521796143904
30
0
41
1
10
87.2954072879476
20
87.4427848050839
30
0
41
1
10
87.5245434563334
20
87.3290854790247
30
0
41
1
10
87.6448249436305
20
87.2700827417156
30
0
41
1
10
87.8970447346944
20
87.1482530878487
30
0
41
1
10
88.0289807749472
20
87.0854250712852
30
0
41
1
10
88.2359949448443
20
86.9887117852262
30
0
41
1
10
88.3065202765644
20
86.9560626280934
30
0
41
1
10
88.414659219343
20
86.9065273794113
30
0
41
1
10
88.4511205795393
20
86.8899116701654
30
0
41
1
10
88.5247267599131
20
86.8565549538699
30
0
41
1
10
88.5618500917702
20
86.8398235644099
30
0
41
1
10
88.7490807072768
20
86.7559331617862
30
0
41
1
10
88.9040160425925
20
86.6880684185621
30
0
41
1
10
89.2247248715559
20
86.5517225018444
30
0
41
1
10
89.3904940113127
20
86.4832382513583
30
0
41
1
10
89.7338184791662
20
86.346721363875
30
0
41
1
10
89.9113661237574
20
86.2786838833384
30
0
41
1
10
90.2797860428121
20
86.1444275327533
30
0
41
1
10
90.4706443382624
20
86.0782004350895
30
0
41
1
10
90.7190699074411
20
85.9977121974885
30
0
41
1
10
90.7692505388688
20
85.9817309179014
30
0
41
1
10
90.8706542944875
20
85.9500374495063
30
0
41
1
10
90.9217295083054
20
85.934371744621
30
0
41
1
10
91.0759881590387
20
85.8880115165521
30
0
41
1
10
91.1802563651927
20
85.8579358615743
30
0
41
1
10
91.4976784601074
20
85.7706927301501
30
0
41
1
10
91.7154194861344
20
85.7164798136016
30
0
41
1
10
92.1655425480564
20
85.6191719466951
30
0
41
1
10
92.397909709068
20
85.5760640099219
30
0
41
1
10
92.6393533172455
20
85.5406597931161
30
0
0
SPLINE
5
22F
100
AcDbEntity
8
1
62
256
6
ByLayer
370
18
48
1
60
0
100
AcDbSpline
70
4
71
3
72
29
73
25
40
0
40
0
40
0
40
0
40
0.125000000000026
40
0.125000000000026
40
0.187500000000038
40
0.187500000000038
40
0.250000000000051
40
0.250000000000051
40
0.375000000000056
40
0.375000000000056
40
0.437500000000059
40
0.437500000000059
40
0.500000000000061
40
0.562500000000064
40
0.562500000000064
40
0.625000000000066
40
0.625000000000066
40
0.750000000000071
40
0.750000000000071
40
0.812500000000069
40
0.812500000000069
40
0.875000000000067
40
0.875000000000067
40
1
40
1
40
1
40
1
41
1
10
105.408174669942
20
89.1223919058502
30
0
41
1
10
105.407261843168
20
89.1250263932491
30
0
41
1
10
105.409118907392
20
89.1277225292596
30
0
41
1
10
105.415948897371
20
89.1318606043026
30
0
41
1
10
105.418904564615
20
89.1332557934647
30
0
41
1
10
105.42621648499
20
89.1360804232118
30
0
41
1
10
105.430567485459
20
89.1375045397245
30
0
41
1
10
105.445413844829
20
89.141732821959
30
0
41
1
10
105.457760926982
20
89.1445242380244
30
0
41
1
10
105.479947971763
20
89.14868661394
30
0
41
1
10
105.487998492254
20
89.1500752655801
30
0
41
1
10
105.504985677847
20
89.1527872918492
30
0
41
1
10
105.522920687735
20
89.1554474829462
30
0
41
1
10
105.542695980752
20
89.1580132646399
30
0
41
1
10
105.563390997901
20
89.160534980115
30
0
41
1
10
105.574258864002
20
89.1617801579824
30
0
41
1
10
105.607790171665
20
89.1654002421058
30
0
41
1
10
105.631269362719
20
89.1676536965566
30
0
41
1
10
105.668094762865
20
89.1708201142589
30
0
41
1
10
105.680639669333
20
89.1718396246757
30
0
41
1
10
105.7062790426
20
89.1738072892966
30
0
41
1
10
105.71922871014
20
89.1747441781591
30
0
41
1
10
105.758284865855
20
89.1774084695998
30
0
41
1
10
105.784670515387
20
89.1789967465538
30
0
41
1
10
105.811406912313
20
89.1803979417427
30
0
0
SPLINE
5
230
100
AcDbEntity
8
1
62
256
6
ByLayer
370
18
48
1
60
0
100
AcDbSpline
70
4
71
3
72
12
73
8
40
0
40
0
40
0
40
0
40
0.49999999999994
40
0.49999999999994
40
0.74999999999997
40
0.74999999999997
40
1
40
1
40
1
40
1
41
1
10
107.5
20
82.7485524661829
30
0
41
1
10
107.5
20
82.8626691467356
30
0
41
1
10
107.490312075139
20
82.9743353405519
30
0
41
1
10
107.462407025071
20
83.1384738475577
30
0
41
1
10
107.450854369779
20
83.1926534769823
30
0
41
1
10
107.423331738361
20
83.2997815511277
30
0
41
1
10
107.407520065376
20
83.3521292456118
30
0
41
1
10
107.389774976893
20
83.4033429187027
30
0
0
SPLINE
5
231
100
AcDbEntity
8
1
62
256
6
ByLayer
370
18
48
1
60
0
100
AcDbSpline
70
4
71
3
72
31
73
27
40
0
40
0
40
0
40
0
40
0.0312499999999964
40
0.0468749999999953
40
0.0468749999999953
40
0.0624999999999941
40
0.0624999999999941
40
0.124999999999995
40
0.124999999999995
40
0.249999999999995
40
0.249999999999995
40
0.374999999999994
40
0.374999999999994
40
0.499999999999994
40
0.499999999999994
40
0.531249999999994
40
0.531249999999994
40
0.562499999999994
40
0.562499999999994
40
0.624999999999993
40
0.624999999999993
40
0.749999999999996
40
0.749999999999996
40
0.874999999999998
40
0.874999999999998
40
1
40
1
40
1
40
1
41
1
10
105.793423689275
20
88.0105339766367
30
0
41
1
10
105.690218495082
20
87.9776236128405
30
0
41
1
10
105.53402016723
20
87.9279595857283
30
0
41
1
10
105.37571199209
20
87.87791690565
30
0
41
1
10
105.269701267459
20
87.8444786961882
30
0
41
1
10
105.216447113485
20
87.8277173859196
30
0
41
1
10
104.949507596489
20
87.7439017396451
30
0
41
1
10
104.733432404571
20
87.6766990121597
30
0
41
1
10
104.077607520094
20
87.475400874376
30
0
41
1
10
103.630275335171
20
87.3416176689188
30
0
41
1
10
102.714816846842
20
87.0788171581949
30
0
41
1
10
102.246691490283
20
86.949794427945
30
0
41
1
10
101.288533490935
20
86.7004313223421
30
0
41
1
10
100.798503810992
20
86.5800865955757
30
0
41
1
10
100.171200058121
20
86.4376174568089
30
0
41
1
10
100.044938769219
20
86.4095091054201
30
0
41
1
10
99.7911930238786
20
86.3542184100141
30
0
41
1
10
99.6638966780056
20
86.3270771215117
30
0
41
1
10
99.2812979177519
20
86.2473588917107
30
0
41
1
10
99.0250574679986
20
86.1964382245528
30
0
41
1
10
98.2527630969904
20
86.0508845436946
30
0
41
1
10
97.7331398451988
20
85.9634706992538
30
0
41
1
10
96.6840170449322
20
85.8104785407014
30
0
41
1
10
96.1545173837933
20
85.7449017363515
30
0
41
1
10
95.0851686472852
20
85.6378109733698
30
0
41
1
10
94.5453199453723
20
85.5962994390022
30
0
41
1
10
94
20
85.5677204316665
30
0
0
SPLINE
5
232
100
AcDbEntity
8
1
62
256
6
ByLayer
370
18
48
1
60
0
100
AcDbSpline
70
4
71
3
72
8
73
4
40
0
40
0
40
0
40
0
40
1
40
1
40
1
40
1
41
1
10
107.460603691393
20
80.5
30
0
41
1
10
107.473794256776
20
80.5
30
0
41
1
10
107.486925947824
20
80.499673986816
30
0
41
1
10
107.5
20
80.4990293679635
30
0
0
SPLINE
5
233
100
AcDbEntity
8
1
62
256
6
ByLayer
370
18
48
1
60
0
100
AcDbSpline
70
4
71
3
72
55
73
51
40
0
40
0
40
0
40
0
40
0.0003545055419673
40
0.0003545055419673
40
0.0628323489455973
40
0.0628323489455973
40
0.125310192349227
40
0.125310192349227
40
0.187788035752858
40
0.187788035752858
40
0.219026957454672
40
0.219026957454672
40
0.226836687880126
40
0.226836687880126
40
0.234646418305579
40
0.250265879156487
40
0.250265879156487
40
0.312743722560116
40
0.312743722560116
40
0.375221565963746
40
0.375221565963746
40
0.437699409367375
40
0.437699409367375
40
0.453318870218283
40
0.453318870218283
40
0.468938331069191
40
0.500177252771007
40
0.500177252771007
40
0.562655096174637
40
0.625132939578267
40
0.625132939578267
40
0.656371861280081
40
0.656371861280081
40
0.671991322130987
40
0.67980105255644
40
0.67980105255644
40
0.687610782981894
40
0.687610782981894
40
0.750088626385513
40
0.750088626385513
40
0.812566469789133
40
0.875044313192753
40
0.875044313192753
40
0.906283234894562
40
0.906283234894562
40
0.921902695745467
40
0.921902695745467
40
0.937522156596373
40
0.937522156596373
40
1
40
1
40
1
40
1
41
1
10
82.2500013805203
20
84.6500001142334
30
0
41
1
10
82.2500003838266
20
84.6500000317601
30
0
41
1
10
82.2499988409824
20
84.6499999040944
30
0
41
1
10
82.2500445692907
20
84.6500036880131
30
0
41
1
10
82.2665289375817
20
84.6513675257322
30
0
41
1
10
82.3314012653751
20
84.6567372702914
30
0
41
1
10
82.3797915834127
20
84.6607433734694
30
0
41
1
10
82.5083185205849
20
84.6713920583599
30
0
41
1
10
82.5884541788483
20
84.6780345396427
30
0
41
1
10
82.732939643607
20
84.6900241218793
30
0
41
1
10
82.7851547115031
20
84.6943588520051
30
0
41
1
10
82.8555893937206
20
84.700209568549
30
0
41
1
10
82.8699351667374
20
84.7014013735271
30
0
41
1
10
82.8990686653021
20
84.7038220499055
30
0
41
1
10
82.9434592054716
20
84.7075109370867
30
0
41
1
10
82.9899089979818
20
84.7113726248551
30
0
41
1
10
83.149273546104
20
84.7246259380237
30
0
41
1
10
83.2912383923216
20
84.7364453040424
30
0
41
1
10
83.6034604233486
20
84.7624831799581
30
0
41
1
10
83.7737188365391
20
84.7767017603912
30
0
41
1
10
84.1425856433639
20
84.8075671665725
30
0
41
1
10
84.3411923357305
20
84.8242137985184
30
0
41
1
10
84.6076494444094
20
84.8465982692838
30
0
41
1
10
84.6618766034118
20
84.8511561564073
30
0
41
1
10
84.7720734881442
20
84.8604235913872
30
0
41
1
10
84.9394867710808
20
84.8745105286525
30
0
41
1
10
85.1131802148879
20
84.8891504657419
30
0
41
1
10
85.4687976269325
20
84.9191607416021
30
0
41
1
10
85.9648687908086
20
84.9611191731832
30
0
41
1
10
86.504095215017
20
85.0069686254686
30
0
41
1
10
86.9248472525269
20
85.0428519018107
30
0
41
1
10
87.0678240641963
20
85.0550627415082
30
0
41
1
10
87.2864357177286
20
85.0737618653112
30
0
41
1
10
87.3967785691734
20
85.083207182383
30
0
41
1
10
87.5086915840874
20
85.0927980461752
30
0
41
1
10
87.5836510924319
20
85.0992245385253
30
0
41
1
10
87.6213229073099
20
85.1024555056498
30
0
41
1
10
87.9611139156166
20
85.1316095911599
30
0
41
1
10
88.2696914884169
20
85.158167064512
30
0
41
1
10
88.899502409733
20
85.212555596392
30
0
41
1
10
89.541971502951
20
85.2682178926132
30
0
41
1
10
90.2095503743514
20
85.3264621522591
30
0
41
1
10
90.7198067948731
20
85.3711484636085
30
0
41
1
10
90.8914900815215
20
85.3862113186254
30
0
41
1
10
91.1514544419194
20
85.4090633307216
30
0
41
1
10
91.2386211463389
20
85.4167329123267
30
0
41
1
10
91.4130130863843
20
85.4320919843832
30
0
41
1
10
91.5002847882876
20
85.4397855403592
30
0
41
1
10
91.9370181217355
20
85.4783234857224
30
0
41
1
10
92.2876018175187
20
85.5093781463773
30
0
41
1
10
92.6393533172455
20
85.5406597931161
30
0
0
SPLINE
5
234
100
AcDbEntity
8
1
62
256
6
ByLayer
370
18
48
1
60
0
100
AcDbSpline
70
4
71
3
72
8
73
4
40
0
40
0
40
0
40
0
40
1
40
1
40
1
40
1
41
1
10
92.6393533172455
20
85.5406597931161
30
0
41
1
10
93.0902578927044
20
85.5349950267813
30
0
41
1
10
93.5437933369697
20
85.543811653563
30
0
41
1
10
94
20
85.5677204316665
30
0
0
SPLINE
5
235
100
AcDbEntity
8
1
62
256
6
ByLayer
370
18
48
1
60
0
100
AcDbSpline
70
4
71
3
72
24
73
20
40
0
40
0
40
0
40
0
40
0.125000000000019
40
0.125000000000019
40
0.18750000000002
40
0.18750000000002
40
0.250000000000021
40
0.250000000000021
40
0.375000000000023
40
0.375000000000023
40
0.500000000000026
40
0.500000000000026
40
0.625000000000028
40
0.625000000000028
40
0.687500000000029
40
0.687500000000029
40
0.75000000000003
40
0.75000000000003
40
1
40
1
40
1
40
1
41
1
10
88.0787006413814
20
70.3167500000001
30
0
41
1
10
88.1738621211683
20
70.3167500000001
30
0
41
1
10
88.2698824458707
20
70.3167500000001
30
0
41
1
10
88.4155389908131
20
70.3167500000001
30
0
41
1
10
88.4644032065714
20
70.3167500000001
30
0
41
1
10
88.5620958014687
20
70.3167500000001
30
0
41
1
10
88.6109941615574
20
70.3167500000001
30
0
41
1
10
88.7578568662176
20
70.3167500000001
30
0
41
1
10
88.8559894946421
20
70.3167500000001
30
0
41
1
10
89.0527526188769
20
70.31675
30
0
41
1
10
89.1513834718466
20
70.3167500000001
30
0
41
1
10
89.3491677810368
20
70.3167500000001
30
0
41
1
10
89.4483213213707
20
70.3167500000001
30
0
41
1
10
89.5974373815359
20
70.3167500000001
30
0
41
1
10
89.6472629789094
20
70.3167500000001
30
0
41
1
10
89.7461733697871
20
70.31675
30
0
41
1
10
89.7953630258501
20
70.3167500000001
30
0
41
1
10
90.0400900978289
20
70.3167500000001
30
0
41
1
10
90.2319808034467
20
70.3167500000001
30
0
41
1
10
90.4212993586182
20
70.3167500000001
30
0
0
SPLINE
5
236
100
AcDbEntity
8
1
62
256
6
ByLayer
370
18
48
1
60
0
100
AcDbSpline
70
4
71
3
72
24
73
20
40
0
40
0
40
0
40
0
40
0.124999999999985
40
0.124999999999985
40
0.187499999999977
40
0.187499999999977
40
0.24999999999997
40
0.24999999999997
40
0.374999999999972
40
0.374999999999972
40
0.499999999999974
40
0.499999999999974
40
0.624999999999976
40
0.624999999999976
40
0.687499999999977
40
0.687499999999977
40
0.749999999999978
40
0.749999999999978
40
1
40
1
40
1
40
1
41
1
10
88.0787006413818
20
66.2592500000001
30
0
41
1
10
88.1738621211689
20
66.2592500000001
30
0
41
1
10
88.2698824458716
20
66.25925
30
0
41
1
10
88.4155389908146
20
66.2592500000001
30
0
41
1
10
88.4644032065729
20
66.2592500000001
30
0
41
1
10
88.5620958014698
20
66.2592500000001
30
0
41
1
10
88.6109941615582
20
66.25925
30
0
41
1
10
88.7578568662174
20
66.2592500000001
30
0
41
1
10
88.855989494641
20
66.2592500000001
30
0
41
1
10
89.0527526188736
20
66.2592500000001
30
0
41
1
10
89.1513834718419
20
66.2592500000001
30
0
41
1
10
89.3491677810289
20
66.25925
30
0
41
1
10
89.448321321361
20
66.2592500000001
30
0
41
1
10
89.597437381523
20
66.2592500000001
30
0
41
1
10
89.6472629788972
20
66.2592500000001
30
0
41
1
10
89.7461733697775
20
66.2592500000001
30
0
41
1
10
89.7953630258416
20
66.2592500000001
30
0
41
1
10
90.0400900978257
20
66.25925
30
0
41
1
10
90.2319808034458
20
66.2592500000001
30
0
41
1
10
90.4212993586186
20
66.2592500000001
30
0
0
SPLINE
5
237
100
AcDbEntity
8
1
62
256
6
ByLayer
370
18
48
1
60
0
100
AcDbSpline
70
4
71
3
72
20
73
16
40
0
40
0
40
0
40
0
40
0.249999999999999
40
0.249999999999999
40
0.375000000000014
40
0.375000000000014
40
0.437500000000006
40
0.437500000000006
40
0.499999999999998
40
0.499999999999998
40
0.624999999999991
40
0.624999999999991
40
0.749999999999984
40
0.749999999999984
40
1
40
1
40
1
40
1
41
1
10
86.907401282763
20
68.2879999999998
30
0
41
1
10
87.0031456223729
20
68.4538340607413
30
0
41
1
10
87.0996902732767
20
68.6210543013058
30
0
41
1
10
87.2462520896328
20
68.874906813684
30
0
41
1
10
87.2953976874341
20
68.9600294860441
30
0
41
1
10
87.3696137258325
20
69.0885754352868
30
0
41
1
10
87.3944352004074
20
69.1315674903692
30
0
41
1
10
87.4442512304502
20
69.2178513854348
30
0
41
1
10
87.4692729924516
20
69.2611903485163
30
0
41
1
10
87.5439599380456
20
69.3905519329471
30
0
41
1
10
87.5934457054398
20
69.4762637963254
30
0
41
1
10
87.6918464163458
20
69.6466988271154
30
0
41
1
10
87.7407618523029
20
69.7314228474677
30
0
41
1
10
87.8867528173248
20
69.9842866163314
30
0
41
1
10
87.9830754139252
20
70.1511222475602
30
0
41
1
10
88.0787006413815
20
70.3167500000001
30
0
0
SPLINE
5
238
100
AcDbEntity
8
1
62
256
6
ByLayer
370
18
48
1
60
0
100
AcDbSpline
70
4
71
3
72
20
73
16
40
0
40
0
40
0
40
0
40
0.250000000000008
40
0.250000000000008
40
0.375000000000008
40
0.375000000000008
40
0.437500000000008
40
0.437500000000008
40
0.500000000000009
40
0.500000000000009
40
0.625000000000009
40
0.625000000000009
40
0.750000000000009
40
0.750000000000009
40
1
40
1
40
1
40
1
41
1
10
90.4212993586185
20
66.2592500000002
30
0
41
1
10
90.5170436982284
20
66.4250840607416
30
0
41
1
10
90.6135883491322
20
66.5923043013059
30
0
41
1
10
90.7601501654883
20
66.8461568136843
30
0
41
1
10
90.8092957632895
20
66.9312794860443
30
0
41
1
10
90.883511801688
20
67.0598254352869
30
0
41
1
10
90.9083332762629
20
67.1028174903694
30
0
41
1
10
90.9581493063056
20
67.1891013854349
30
0
41
1
10
90.9831710683071
20
67.2324403485164
30
0
41
1
10
91.057858013901
20
67.3618019329471
30
0
41
1
10
91.1073437812952
20
67.4475137963256
30
0
41
1
10
91.2057444922011
20
67.6179488271154
30
0
41
1
10
91.2546599281583
20
67.7026728474677
30
0
41
1
10
91.4006508931802
20
67.9555366163315
30
0
41
1
10
91.4969734897805
20
68.1223722475603
30
0
41
1
10
91.5925987172369
20
68.288
30
0
0
SPLINE
5
239
100
AcDbEntity
8
1
62
256
6
ByLayer
370
18
48
1
60
0
100
AcDbSpline
70
4
71
3
72
20
73
16
40
0
40
0
40
0
40
0
40
0.250000000000025
40
0.250000000000025
40
0.375000000000053
40
0.375000000000053
40
0.437500000000047
40
0.437500000000047
40
0.500000000000041
40
0.500000000000041
40
0.625000000000038
40
0.625000000000038
40
0.750000000000036
40
0.750000000000036
40
1
40
1
40
1
40
1
41
1
10
86.9074012827631
20
68.288
30
0
41
1
10
87.003145622373
20
68.1221659392586
30
0
41
1
10
87.0996902732768
20
67.954945698694
30
0
41
1
10
87.2462520896329
20
67.7010931863157
30
0
41
1
10
87.2953976874342
20
67.6159705139556
30
0
41
1
10
87.3696137258327
20
67.487424564713
30
0
41
1
10
87.3944352004075
20
67.4444325096306
30
0
41
1
10
87.4442512304504
20
67.358148614565
30
0
41
1
10
87.4692729924519
20
67.3148096514834
30
0
41
1
10
87.5439599380457
20
67.1854480670528
30
0
41
1
10
87.59344570544
20
67.0997362036744
30
0
41
1
10
87.6918464163459
20
66.9293011728844
30
0
41
1
10
87.7407618523031
20
66.8445771525321
30
0
41
1
10
87.886752817325
20
66.5917133836683
30
0
41
1
10
87.9830754139254
20
66.4248777524394
30
0
41
1
10
88.0787006413818
20
66.2592499999997
30
0
0
SPLINE
5
23A
100
AcDbEntity
8
1
62
256
6
ByLayer
370
18
48
1
60
0
100
AcDbSpline
70
4
71
3
72
20
73
16
40
0
40
0
40
0
40
0
40
0.250000000000027
40
0.250000000000027
40
0.375000000000037
40
0.375000000000037
40
0.437500000000037
40
0.437500000000037
40
0.500000000000038
40
0.500000000000038
40
0.62500000000003
40
0.62500000000003
40
0.750000000000023
40
0.750000000000023
40
1
40
1
40
1
40
1
41
1
10
90.4212993586183
20
70.3167500000003
30
0
41
1
10
90.5170436982282
20
70.1509159392587
30
0
41
1
10
90.613588349132
20
69.9836956986943
30
0
41
1
10
90.7601501654882
20
69.729843186316
30
0
41
1
10
90.8092957632895
20
69.6447205139558
30
0
41
1
10
90.883511801688
20
69.5161745647132
30
0
41
1
10
90.9083332762628
20
69.4731825096308
30
0
41
1
10
90.9581493063056
20
69.3868986145652
30
0
41
1
10
90.9831710683071
20
69.3435596514838
30
0
41
1
10
91.057858013901
20
69.2141980670528
30
0
41
1
10
91.1073437812953
20
69.1284862036745
30
0
41
1
10
91.2057444922012
20
68.9580511728846
30
0
41
1
10
91.2546599281584
20
68.8733271525322
30
0
41
1
10
91.4006508931803
20
68.6204633836684
30
0
41
1
10
91.4969734897807
20
68.4536277524396
30
0
41
1
10
91.5925987172371
20
68.2879999999998
30
0
0
SPLINE
5
23B
100
AcDbEntity
8
1
62
256
6
ByLayer
370
18
48
1
60
0
100
AcDbSpline
70
4
71
3
72
28
73
24
40
0
40
0
40
0
40
0
40
0.125260134793321
40
0.125260134793321
40
0.187890202189953
40
0.187890202189953
40
0.250520269586585
40
0.250520269586585
40
0.375780404379791
40
0.375780404379791
40
0.438410471776352
40
0.438410471776352
40
0.501040539172914
40
0.501040539172914
40
0.626300673966011
40
0.626300673966011
40
0.751560808759109
40
0.751560808759109
40
0.81419087615566
40
0.81419087615566
40
0.87682094355221
40
0.87682094355221
40
1
40
1
40
1
40
1
41
1
10
107.884539102779
20
80.3784384769251
30
0
41
1
10
107.861969738009
20
80.3925413812623
30
0
41
1
10
107.839069542146
20
80.4052875378404
30
0
41
1
10
107.804363289798
20
80.4224929524289
30
0
41
1
10
107.792735340376
20
80.4279085680595
30
0
41
1
10
107.769388325154
20
80.4381154148663
30
0
41
1
10
107.757637977817
20
80.4429146812623
30
0
41
1
10
107.723134078386
20
80.4560979828636
30
0
41
1
10
107.700856309602
20
80.4633957115406
30
0
41
1
10
107.668778291589
20
80.4725198502771
30
0
41
1
10
107.65826661822
20
80.4752667631323
30
0
41
1
10
107.63795026488
20
80.480164969434
30
0
41
1
10
107.628234590367
20
80.4822974947008
30
0
41
1
10
107.600416638778
20
80.4879151564525
30
0
41
1
10
107.583631412903
20
80.4906263034978
30
0
41
1
10
107.553855806875
20
80.4946885018676
30
0
41
1
10
107.541317206671
20
80.4959834857283
30
0
41
1
10
107.526051831626
20
80.4973347077703
30
0
41
1
10
107.521550702461
20
80.4976846080125
30
0
41
1
10
107.51375471489
20
80.4982419687786
30
0
41
1
10
107.510471977556
20
80.4984484927986
30
0
41
1
10
107.502725495973
20
80.4989068896095
30
0
41
1
10
107.50006713707
20
80.499026361188
30
0
41
1
10
107.500010151682
20
80.499028916167
30
0
0
SPLINE
5
23C
100
AcDbEntity
8
1
62
256
6
ByLayer
370
18
48
1
60
0
100
AcDbSpline
70
4
71
3
72
55
73
51
40
0
40
0
40
0
40
0
40
0.0003546040252747
40
0.0003546040252747
40
0.0628324412736965
40
0.0628324412736965
40
0.125310278522119
40
0.125310278522119
40
0.18778811577054
40
0.18778811577054
40
0.219027034394751
40
0.219027034394751
40
0.226836764050804
40
0.226836764050804
40
0.234646493706856
40
0.250265953018961
40
0.250265953018961
40
0.31274379026738
40
0.31274379026738
40
0.375221627515799
40
0.375221627515799
40
0.437699464764217
40
0.437699464764217
40
0.453318924076321
40
0.453318924076321
40
0.468938383388425
40
0.500177302012633
40
0.500177302012633
40
0.562655139261049
40
0.625132976509465
40
0.625132976509465
40
0.656371895133674
40
0.656371895133674
40
0.671991354445777
40
0.679801084101829
40
0.679801084101829
40
0.687610813757881
40
0.687610813757881
40
0.750088651006307
40
0.750088651006307
40
0.812566488254733
40
0.875044325503159
40
0.875044325503159
40
0.906283244127372
40
0.906283244127372
40
0.921902703439477
40
0.921902703439477
40
0.937522162751583
40
0.937522162751583
40
1
40
1
40
1
40
1
41
1
10
82.2500013808238
20
84.6500001142585
30
0
41
1
10
82.2500003841302
20
84.6500000317852
30
0
41
1
10
82.2499988409123
20
84.6499999040886
30
0
41
1
10
82.2500445692907
20
84.6500036880131
30
0
41
1
10
82.2665289375817
20
84.6513675257322
30
0
41
1
10
82.3314012653751
20
84.6567372702914
30
0
41
1
10
82.3797915834126
20
84.6607433734694
30
0
41
1
10
82.5083185205849
20
84.6713920583597
30
0
41
1
10
82.5884541788482
20
84.6780345396427
30
0
41
1
10
82.732939643607
20
84.6900241218793
30
0
41
1
10
82.7851547115031
20
84.6943588520052
30
0
41
1
10
82.8555893937206
20
84.700209568549
30
0
41
1
10
82.8699351667374
20
84.7014013735271
30
0
41
1
10
82.8990686653021
20
84.7038220499055
30
0
41
1
10
82.9434592054716
20
84.7075109370867
30
0
41
1
10
82.9899089979818
20
84.7113726248552
30
0
41
1
10
83.149273546104
20
84.7246259380237
30
0
41
1
10
83.2912383923216
20
84.7364453040424
30
0
41
1
10
83.6034604233486
20
84.7624831799581
30
0
41
1
10
83.7737188365391
20
84.7767017603912
30
0
41
1
10
84.142585643364
20
84.8075671665725
30
0
41
1
10
84.3411923357305
20
84.8242137985184
30
0
41
1
10
84.6076494444093
20
84.8465982692837
30
0
41
1
10
84.6618766034118
20
84.8511561564073
30
0
41
1
10
84.7720734881442
20
84.8604235913872
30
0
41
1
10
84.9394867710808
20
84.8745105286525
30
0
41
1
10
85.1131802148879
20
84.889150465742
30
0
41
1
10
85.4687976269325
20
84.9191607416021
30
0
41
1
10
85.9648685108411
20
84.9611191961134
30
0
41
1
10
86.504095215017
20
85.0069686254686
30
0
41
1
10
86.9248472525269
20
85.0428519018107
30
0
41
1
10
87.0678240641962
20
85.0550627415082
30
0
41
1
10
87.2864357177286
20
85.0737618653112
30
0
41
1
10
87.3967785691734
20
85.083207182383
30
0
41
1
10
87.5086915840875
20
85.0927980461752
30
0
41
1
10
87.5836510924319
20
85.0992245385252
30
0
41
1
10
87.6213229073099
20
85.1024555056498
30
0
41
1
10
87.9611139156166
20
85.1316095911599
30
0
41
1
10
88.2696914884169
20
85.158167064512
30
0
41
1
10
88.899502409733
20
85.2125555963921
30
0
41
1
10
89.5419712818836
20
85.2682178359229
30
0
41
1
10
90.2095503743514
20
85.326462152259
30
0
41
1
10
90.7198067948731
20
85.3711484636085
30
0
41
1
10
90.8914900815215
20
85.3862113186254
30
0
41
1
10
91.1514544419194
20
85.4090633307216
30
0
41
1
10
91.2386211463389
20
85.4167329123267
30
0
41
1
10
91.4130130863843
20
85.4320919843832
30
0
41
1
10
91.5002847882875
20
85.4397855403591
30
0
41
1
10
91.9370181217354
20
85.4783234857224
30
0
41
1
10
92.2876018175187
20
85.5093781463773
30
0
41
1
10
92.6393533172455
20
85.5406597931161
30
0
0
SPLINE
5
23D
100
AcDbEntity
8
1
62
256
6
ByLayer
370
18
48
1
60
0
100
AcDbSpline
70
4
71
3
72
17
73
13
40
0
40
0
40
0
40
0
40
0.124678562101913
40
0.124678562101913
40
0.187017843152872
40
0.187017843152872
40
0.24935712420383
40
0.498714248407657
40
0.498714248407657
40
0.99742849681531
40
0.99742849681531
40
1
40
1
40
1
40
1
41
1
10
85.994679084931
20
88.1195715079151
30
0
41
1
10
85.970503691458
20
88.1182403288077
30
0
41
1
10
85.9477589134623
20
88.1169878663814
30
0
41
1
10
85.9158176800797
20
88.1152289295618
30
0
41
1
10
85.9055251076604
20
88.11466212789
30
0
41
1
10
85.8857132874177
20
88.1135710919826
30
0
41
1
10
85.838146409426
20
88.1109515369007
30
0
41
1
10
85.8003006595597
20
88.1088671415602
30
0
41
1
10
85.7277196957056
20
88.1048695371506
30
0
41
1
10
85.7035914790135
20
88.1035404323358
30
0
41
1
10
85.703536270209
20
88.1035373912868
30
0
41
1
10
85.7035376401717
20
88.103537466749
30
0
41
1
10
85.7035386387579
20
88.1035375217545
30
0
0
SPLINE
5
23E
100
AcDbEntity
8
1
62
256
6
ByLayer
370
18
48
1
60
0
100
AcDbSpline
70
4
71
3
72
103
73
99
40
0
40
0
40
0
40
0
40
0.0013992254142227
40
0.0013992254142227
40
0.0326054996200256
40
0.0326054996200256
40
0.0482086367229271
40
0.0482086367229271
40
0.0560102052743776
40
0.0560102052743776
40
0.0638117738258284
40
0.0638117738258284
40
0.0950180480316311
40
0.0950180480316311
40
0.126224322237434
40
0.126224322237434
40
0.134025890788885
40
0.134025890788885
40
0.141827459340335
40
0.141827459340335
40
0.157430596443237
40
0.17303373354614
40
0.17303373354614
40
0.176934517821865
40
0.176934517821865
40
0.18083530209759
40
0.18863687064904
40
0.18863687064904
40
0.219843144854845
40
0.219843144854845
40
0.251049419060649
40
0.251049419060649
40
0.282255693266454
40
0.282255693266454
40
0.290057261817905
40
0.290057261817905
40
0.297858830369356
40
0.313461967472257
40
0.313461967472257
40
0.344668241678061
40
0.344668241678061
40
0.375874515883865
40
0.375874515883865
40
0.391477652986767
40
0.399279221538218
40
0.399279221538218
40
0.407080790089669
40
0.407080790089669
40
0.438287064295477
40
0.438287064295477
40
0.469493338501285
40
0.500699612707093
40
0.531905886912901
40
0.531905886912901
40
0.539707455464352
40
0.539707455464352
40
0.547509024015802
40
0.547509024015802
40
0.563112161118704
40
0.563112161118704
40
0.594318435324507
40
0.62552470953031
40
0.62552470953031
40
0.656730983736114
40
0.656730983736114
40
0.672334120839014
40
0.680135689390465
40
0.680135689390465
40
0.687937257941917
40
0.687937257941917
40
0.719143532147725
40
0.750349806353532
40
0.750349806353532
40
0.78155608055934
40
0.78155608055934
40
0.812762354765148
40
0.812762354765148
40
0.8205639233166
40
0.8205639233166
40
0.828365491868051
40
0.828365491868051
40
0.843968628970956
40
0.843968628970956
40
0.875174903176766
40
0.875174903176766
40
0.906381177382575
40
0.906381177382575
40
0.937587451588384
40
0.937587451588384
40
0.953190588691288
40
0.953190588691288
40
0.957091372967015
40
0.957091372967015
40
0.960992157242741
40
0.960992157242741
40
0.968793725794193
40
0.968793725794193
40
1
40
1
40
1
40
1
41
1
10
103.537409740162
20
89.1448158038594
30
0
41
1
10
103.537413141103
20
89.1448168709948
30
0
41
1
10
103.537386239472
20
89.1448086693532
30
0
41
1
10
103.536054242332
20
89.1444017793211
30
0
41
1
10
103.519725909958
20
89.1394062443973
30
0
41
1
10
103.472736367493
20
89.1251045429468
30
0
41
1
10
103.453317324523
20
89.1192020633225
30
0
41
1
10
103.418507170676
20
89.1086536288169
30
0
41
1
10
103.405949737855
20
89.1048529752717
30
0
41
1
10
103.378955087248
20
89.0966961433525
30
0
41
1
10
103.364576056817
20
89.0923575537759
30
0
41
1
10
103.288371443725
20
89.0694066591649
30
0
41
1
10
103.213656105222
20
89.0470274187858
30
0
41
1
10
103.038597525914
20
88.9952084120987
30
0
41
1
10
102.938247861435
20
88.9657664277239
30
0
41
1
10
102.797418009046
20
88.9250735167647
30
0
41
1
10
102.768480521961
20
88.9167401663618
30
0
41
1
10
102.7090710115
20
88.8996961768053
30
0
41
1
10
102.678575433166
20
88.8909788771953
30
0
41
1
10
102.585125665088
20
88.8643727557941
30
0
41
1
10
102.455141521488
20
88.8276430939472
30
0
41
1
10
102.314752765925
20
88.78866181446
30
0
41
1
10
102.223843476489
20
88.7636703023052
30
0
41
1
10
102.205585723249
20
88.7586632234015
30
0
41
1
10
102.168760128721
20
88.7485891041329
30
0
41
1
10
102.113127220587
20
88.7334074104799
30
0
41
1
10
102.05632605573
20
88.7180234928604
30
0
41
1
10
101.864453783209
20
88.6663340655207
30
0
41
1
10
101.702867497105
20
88.6236767671726
30
0
41
1
10
101.364672353554
20
88.5366708627032
30
0
41
1
10
101.188059008333
20
88.492320245995
30
0
41
1
10
100.820434477103
20
88.4027452729435
30
0
41
1
10
100.629421230408
20
88.357519464376
30
0
41
1
10
100.381784196931
20
88.3009231364695
30
0
41
1
10
100.331888679961
20
88.2896182143443
30
0
41
1
10
100.23157624813
20
88.2670946187874
30
0
41
1
10
100.080230545562
20
88.2334168778555
30
0
41
1
10
99.926293255802
20
88.2001089404628
30
0
41
1
10
99.6150436635379
20
88.1341063858836
30
0
41
1
10
99.4030510256858
20
88.0909231888537
30
0
41
1
10
98.9703190189593
20
88.0068074318804
30
0
41
1
10
98.7495786970761
20
87.9658741289724
30
0
41
1
10
98.4119227447438
20
87.9066096639962
30
0
41
1
10
98.2414559928231
20
87.877511227579
30
0
41
1
10
98.068512706947
20
87.8492978168862
30
0
41
1
10
97.9526633373276
20
87.8306950050866
30
0
41
1
10
97.8944378958562
20
87.8214932344957
30
0
41
1
10
97.6029964017405
20
87.7761884615434
30
0
41
1
10
97.3680262767941
20
87.7420654068714
30
0
41
1
10
96.8945249291185
20
87.6783940608765
30
0
41
1
10
96.4174619127101
20
87.6192972729338
30
0
41
1
10
95.6911964506552
20
87.5453275037173
30
0
41
1
10
95.1997927785448
20
87.5064092577235
30
0
41
1
10
94.8903331974311
20
87.485519762489
30
0
41
1
10
94.8283245091476
20
87.4815135683621
30
0
41
1
10
94.7040710895254
20
87.4738491863899
30
0
41
1
10
94.6418221165478
20
87.470191258813
30
0
41
1
10
94.4555067511119
20
87.4597874725287
30
0
41
1
10
94.3316094459373
20
87.4535949109194
30
0
41
1
10
93.9608456650556
20
87.4372191246332
30
0
41
1
10
93.468966031766
20
87.4212575058814
30
0
41
1
10
92.9819903120244
20
87.4167186729451
30
0
41
1
10
92.497494275959
20
87.4177100998193
30
0
41
1
10
92.2564859109755
20
87.4209710471973
30
0
41
1
10
91.8968917471632
20
87.4298574029614
30
0
41
1
10
91.7175748791045
20
87.4352990345513
30
0
41
1
10
91.5389954899766
20
87.4422069713584
30
0
41
1
10
91.420108826625
20
87.4471344201835
30
0
41
1
10
91.3607203477665
20
87.4497605662771
30
0
41
1
10
91.0645010260875
20
87.46367312059
30
0
41
1
10
90.599846430342
20
87.4907088957046
30
0
41
1
10
90.1535081386508
20
87.5260019733009
30
0
41
1
10
89.7163912279233
20
87.5647901023811
30
0
41
1
10
89.5024424875221
20
87.5859323050223
30
0
41
1
10
89.0840459154759
20
87.631076338599
30
0
41
1
10
88.8795960342339
20
87.6550789581469
30
0
41
1
10
88.6303092984052
20
87.6864578867576
30
0
41
1
10
88.5807664690973
20
87.6928023629807
30
0
41
1
10
88.4823214945911
20
87.7056179497067
30
0
41
1
10
88.433380000216
20
87.7120943617332
30
0
41
1
10
88.2877980149726
20
87.7316618172849
30
0
41
1
10
88.192851544874
20
87.744829392075
30
0
41
1
10
87.9143151442946
20
87.7845368336583
30
0
41
1
10
87.7370137796146
20
87.8112810225762
30
0
41
1
10
87.3994167731685
20
87.8644675490186
30
0
41
1
10
87.2391189178266
20
87.8909112716491
30
0
41
1
10
86.9362419081532
20
87.9426488505172
30
0
41
1
10
86.7936577700749
20
87.9679444087263
30
0
41
1
10
86.5940485462263
20
88.0043526784999
30
0
41
1
10
86.5298950325267
20
88.0162323885663
30
0
41
1
10
86.4528291790828
20
88.0306854101425
30
0
41
1
10
86.4375724456976
20
88.0335561637544
30
0
41
1
10
86.4073761035957
20
88.0392559809726
30
0
41
1
10
86.3924300243266
20
88.0420862870695
30
0
41
1
10
86.3482158273068
20
88.0504846503926
30
0
41
1
10
86.3195263425616
20
88.0559686675498
30
0
41
1
10
86.1800116921582
20
88.0827868619565
30
0
41
1
10
86.0809561335287
20
88.1023149159981
30
0
41
1
10
85.9946790849305
20
88.1195715079155
30
0
0
SPLINE
5
23F
100
AcDbEntity
8
1
62
256
6
ByLayer
370
18
48
1
60
0
100
AcDbSpline
70
4
71
3
72
46
73
42
40
0
40
0
40
0
40
0
40
0.125000000000001
40
0.125000000000001
40
0.187500000000001
40
0.187500000000001
40
0.203125000000001
40
0.203125000000001
40
0.218750000000001
40
0.250000000000001
40
0.250000000000001
40
0.312500000000002
40
0.375000000000002
40
0.375000000000002
40
0.437500000000003
40
0.437500000000003
40
0.500000000000004
40
0.500000000000004
40
0.531250000000002
40
0.531250000000002
40
0.546875000000002
40
0.546875000000002
40
0.562500000000001
40
0.562500000000001
40
0.624999999999996
40
0.624999999999996
40
0.687499999999991
40
0.687499999999991
40
0.749999999999986
40
0.749999999999986
40
0.812499999999981
40
0.812499999999981
40
0.828124999999982
40
0.828124999999982
40
0.843749999999983
40
0.843749999999983
40
0.874999999999987
40
0.874999999999987
40
0.937499999999994
40
0.937499999999994
40
1
40
1
40
1
40
1
41
1
10
85.9946790849307
20
88.119571507916
30
0
41
1
10
86.0748374943373
20
88.076432822788
30
0
41
1
10
86.1814378112754
20
88.0192703513036
30
0
41
1
10
86.3808875135138
20
87.9135860375601
30
0
41
1
10
86.4539775013893
20
87.8750324941198
30
0
41
1
10
86.5537145417965
20
87.8227880608235
30
0
41
1
10
86.5740778352797
20
87.8121382609083
30
0
41
1
10
86.6155133516094
20
87.7905056126124
30
0
41
1
10
86.6787762247649
20
87.7575329074965
30
0
41
1
10
86.7453411493932
20
87.7230233260156
30
0
41
1
10
86.8828176916563
20
87.652044114848
30
0
41
1
10
87.0776998621805
20
87.552178942977
30
0
41
1
10
87.2954072879476
20
87.4427848050839
30
0
41
1
10
87.5245434563334
20
87.3290854790247
30
0
41
1
10
87.6448249436305
20
87.2700827417155
30
0
41
1
10
87.8970447346944
20
87.1482530878487
30
0
41
1
10
88.0289807749472
20
87.0854250712852
30
0
41
1
10
88.2359949448443
20
86.9887117852262
30
0
41
1
10
88.3065202765644
20
86.9560626280934
30
0
41
1
10
88.414659219343
20
86.9065273794113
30
0
41
1
10
88.4511205795393
20
86.8899116701654
30
0
41
1
10
88.5247267599131
20
86.8565549538699
30
0
41
1
10
88.5618500917702
20
86.8398235644099
30
0
41
1
10
88.7490807072767
20
86.7559331617862
30
0
41
1
10
88.9040160425925
20
86.6880684185621
30
0
41
1
10
89.2247248715559
20
86.5517225018445
30
0
41
1
10
89.3904940113127
20
86.4832382513583
30
0
41
1
10
89.7338184791662
20
86.3467213638751
30
0
41
1
10
89.9113661237574
20
86.2786838833384
30
0
41
1
10
90.2797860428121
20
86.1444275327534
30
0
41
1
10
90.4706443382624
20
86.0782004350895
30
0
41
1
10
90.719069907441
20
85.9977121974885
30
0
41
1
10
90.7692505388688
20
85.9817309179014
30
0
41
1
10
90.8706542944873
20
85.9500374495064
30
0
41
1
10
90.9217295083054
20
85.934371744621
30
0
41
1
10
91.0759881590386
20
85.8880115165521
30
0
41
1
10
91.1802563651927
20
85.8579358615744
30
0
41
1
10
91.4976784601073
20
85.7706927301501
30
0
41
1
10
91.7154194861344
20
85.7164798136016
30
0
41
1
10
92.1655425480564
20
85.6191719466951
30
0
41
1
10
92.397909709068
20
85.5760640099219
30
0
41
1
10
92.6393533172455
20
85.5406597931161
30
0
0
SPLINE
5
240
100
AcDbEntity
8
1
62
256
6
ByLayer
370
18
48
1
60
0
100
AcDbSpline
70
4
71
3
72
8
73
4
40
0
40
0
40
0
40
0
40
1
40
1
40
1
40
1
41
1
10
92.6393533172455
20
85.5406597931161
30
0
41
1
10
93.0902578927044
20
85.5349950267813
30
0
41
1
10
93.5437933369697
20
85.543811653563
30
0
41
1
10
94
20
85.5677204316665
30
0
0
SPLINE
5
241
100
AcDbEntity
8
1
62
256
6
ByLayer
370
18
48
1
60
0
100
AcDbSpline
70
4
71
3
72
29
73
25
40
0
40
0
40
0
40
0
40
0.12500000000003
40
0.12500000000003
40
0.187500000000044
40
0.187500000000044
40
0.250000000000057
40
0.250000000000057
40
0.375000000000063
40
0.375000000000063
40
0.437500000000064
40
0.437500000000064
40
0.500000000000065
40
0.562500000000066
40
0.562500000000066
40
0.625000000000067
40
0.625000000000067
40
0.75000000000007
40
0.75000000000007
40
0.812500000000036
40
0.812500000000036
40
0.875000000000002
40
0.875000000000002
40
1
40
1
40
1
40
1
41
1
10
105.408174669942
20
89.1223919058502
30
0
41
1
10
105.407261843168
20
89.1250263932491
30
0
41
1
10
105.409118907392
20
89.1277225292596
30
0
41
1
10
105.415948897371
20
89.1318606043026
30
0
41
1
10
105.418904564615
20
89.1332557934647
30
0
41
1
10
105.42621648499
20
89.1360804232118
30
0
41
1
10
105.430567485459
20
89.1375045397246
30
0
41
1
10
105.445413844829
20
89.141732821959
30
0
41
1
10
105.457760926982
20
89.1445242380244
30
0
41
1
10
105.479947971763
20
89.14868661394
30
0
41
1
10
105.487998492254
20
89.1500752655801
30
0
41
1
10
105.504985677847
20
89.1527872918493
30
0
41
1
10
105.522920687735
20
89.1554474829462
30
0
41
1
10
105.542695980752
20
89.1580132646399
30
0
41
1
10
105.563390997901
20
89.160534980115
30
0
41
1
10
105.574258864002
20
89.1617801579824
30
0
41
1
10
105.607790171665
20
89.1654002421058
30
0
41
1
10
105.631269362719
20
89.1676536965566
30
0
41
1
10
105.668094762865
20
89.170820114259
30
0
41
1
10
105.680639669333
20
89.1718396246757
30
0
41
1
10
105.7062790426
20
89.1738072892966
30
0
41
1
10
105.71922871014
20
89.1747441781591
30
0
41
1
10
105.758284865855
20
89.1774084695998
30
0
41
1
10
105.784670515387
20
89.1789967465538
30
0
41
1
10
105.811406912313
20
89.1803979417427
30
0
0
SPLINE
5
242
100
AcDbEntity
8
1
62
256
6
ByLayer
370
18
48
1
60
0
100
AcDbSpline
70
4
71
3
72
12
73
8
40
0
40
0
40
0
40
0
40
0.49999999999994
40
0.49999999999994
40
0.74999999999997
40
0.74999999999997
40
1
40
1
40
1
40
1
41
1
10
107.5
20
82.7485524661829
30
0
41
1
10
107.5
20
82.8626691467356
30
0
41
1
10
107.490312075139
20
82.9743353405519
30
0
41
1
10
107.462407025071
20
83.1384738475577
30
0
41
1
10
107.450854369779
20
83.1926534769823
30
0
41
1
10
107.423331738361
20
83.2997815511277
30
0
41
1
10
107.407520065376
20
83.3521292456118
30
0
41
1
10
107.389774976893
20
83.4033429187027
30
0
0
SPLINE
5
243
100
AcDbEntity
8
1
62
256
6
ByLayer
370
18
48
1
60
0
100
AcDbSpline
70
4
71
3
72
31
73
27
40
0
40
0
40
0
40
0
40
0.0312499999999997
40
0.0468750000000003
40
0.0468750000000003
40
0.062500000000001
40
0.062500000000001
40
0.124999999999999
40
0.124999999999999
40
0.249999999999999
40
0.249999999999999
40
0.374999999999999
40
0.374999999999999
40
0.499999999999999
40
0.499999999999999
40
0.53125
40
0.53125
40
0.562500000000001
40
0.562500000000001
40
0.625000000000002
40
0.625000000000002
40
0.750000000000001
40
0.750000000000001
40
0.875000000000001
40
0.875000000000001
40
1
40
1
40
1
40
1
41
1
10
105.793423689275
20
88.0105339766367
30
0
41
1
10
105.690218495082
20
87.9776236128406
30
0
41
1
10
105.53402016723
20
87.9279595857283
30
0
41
1
10
105.37571199209
20
87.8779169056499
30
0
41
1
10
105.269701267459
20
87.8444786961882
30
0
41
1
10
105.216447113485
20
87.8277173859195
30
0
41
1
10
104.949507596489
20
87.7439017396452
30
0
41
1
10
104.733432404571
20
87.6766990121596
30
0
41
1
10
104.077607520094
20
87.475400874376
30
0
41
1
10
103.630275335171
20
87.3416176689188
30
0
41
1
10
102.714816846842
20
87.0788171581949
30
0
41
1
10
102.246691490283
20
86.9497944279451
30
0
41
1
10
101.288533490934
20
86.7004313223421
30
0
41
1
10
100.798503810992
20
86.5800865955758
30
0
41
1
10
100.171200058121
20
86.4376174568089
30
0
41
1
10
100.044938769219
20
86.4095091054202
30
0
41
1
10
99.7911930238786
20
86.3542184100142
30
0
41
1
10
99.6638966780056
20
86.3270771215118
30
0
41
1
10
99.2812979177519
20
86.2473588917107
30
0
41
1
10
99.0250574679985
20
86.1964382245528
30
0
41
1
10
98.2527630969904
20
86.0508845436946
30
0
41
1
10
97.7331398451988
20
85.9634706992538
30
0
41
1
10
96.6840170449322
20
85.8104785407014
30
0
41
1
10
96.1545173837933
20
85.7449017363516
30
0
41
1
10
95.0851686472852
20
85.6378109733698
30
0
41
1
10
94.5453199453723
20
85.5962994390022
30
0
41
1
10
94
20
85.5677204316665
30
0
0
SPLINE
5
244
100
AcDbEntity
8
1
62
256
6
ByLayer
370
18
48
1
60
0
100
AcDbSpline
70
4
71
3
72
8
73
4
40
0
40
0
40
0
40
0
40
1
40
1
40
1
40
1
41
1
10
107.460603691393
20
80.5
30
0
41
1
10
107.473794256776
20
80.5
30
0
41
1
10
107.486925947824
20
80.499673986816
30
0
41
1
10
107.5
20
80.4990293679635
30
0
0
SPLINE
5
245
100
AcDbEntity
8
1
62
256
6
ByLayer
370
18
48
1
60
0
100
AcDbSpline
70
4
71
3
72
74
73
70
40
0
40
0
40
0
40
0
40
0.0312470486363364
40
0.0624940972726727
40
0.0937411459090091
40
0.124988194545346
40
0.124988194545346
40
0.132799956704429
40
0.132799956704429
40
0.140611718863512
40
0.156235243181679
40
0.156235243181679
40
0.187482291818013
40
0.218729340454347
40
0.249976389090682
40
0.249976389090682
40
0.257788151249766
40
0.257788151249766
40
0.26559991340885
40
0.26559991340885
40
0.281223437727019
40
0.281223437727019
40
0.312470486363357
40
0.343717534999694
40
0.374964583636032
40
0.374964583636032
40
0.3905881079542
40
0.3905881079542
40
0.398399870113284
40
0.398399870113284
40
0.406211632272369
40
0.437458680908711
40
0.468705729545054
40
0.499952778181396
40
0.499952778181396
40
0.515576302499566
40
0.523388064658651
40
0.523388064658651
40
0.531199826817736
40
0.531199826817736
40
0.56244687545408
40
0.593693924090424
40
0.624940972726767
40
0.624940972726767
40
0.656188021363111
40
0.656188021363111
40
0.687435069999454
40
0.718682118635798
40
0.749929167272141
40
0.781176215908485
40
0.781176215908485
40
0.788987978067571
40
0.788987978067571
40
0.796799740226657
40
0.812423264544829
40
0.812423264544829
40
0.843670313181174
40
0.874917361817518
40
0.906164410453862
40
0.906164410453862
40
0.913976172612948
40
0.913976172612948
40
0.921787934772034
40
0.921787934772034
40
0.937411459090206
40
0.937411459090206
40
0.968658507726549
40
0.999905556362892
40
1
40
1
40
1
40
1
41
1
10
30.7910517808701
20
64.9435155720824
30
0
41
1
10
30.8642385234222
20
64.93877238553
30
0
41
1
10
31.0187950520404
20
64.929001676653
30
0
41
1
10
31.2744292720263
20
64.9137976741948
30
0
41
1
10
31.5535947429627
20
64.8983403611942
30
0
41
1
10
31.7555159856025
20
64.8880624008617
30
0
41
1
10
31.8867954791878
20
64.8817102454935
30
0
41
1
10
31.9133299625603
20
64.8804422653866
30
0
41
1
10
31.9667979961527
20
64.8779205202223
30
0
41
1
10
32.04749258961
20
64.8741641350329
30
0
41
1
10
32.129650391338
20
64.8704926129853
30
0
41
1
10
32.2958882054121
20
64.8632787580874
30
0
41
1
10
32.522658272563
20
64.854004985476
30
0
41
1
10
32.8779473601234
20
64.8413776548961
30
0
41
1
10
33.124940578775
20
64.8339797494898
30
0
41
1
10
33.2825546096662
20
64.8297277138711
30
0
41
1
10
33.3142398351802
20
64.828895898176
30
0
41
1
10
33.3779380919928
20
64.8272708115701
30
0
41
1
10
33.4099881306009
20
64.8264766723779
30
0
41
1
10
33.5062846516718
20
64.8241624421782
30
0
41
1
10
33.5706972064929
20
64.822709769328
30
0
41
1
10
33.7645686641965
20
64.8186282081587
30
0
41
1
10
34.0247519665047
20
64.8139234368105
30
0
41
1
10
34.4199959494958
20
64.8091710689546
30
0
41
1
10
34.686805168142
20
64.8076001565964
30
0
41
1
10
34.888178885023
20
64.8070441235974
30
0
41
1
10
34.9555148459105
20
64.8069624773594
30
0
41
1
10
35.0568413462772
20
64.8069985410865
30
0
41
1
10
35.0906926849931
20
64.8070370839276
30
0
41
1
10
35.158200306408
20
64.8071667161233
30
0
41
1
10
35.3266543229819
20
64.8076220552824
30
0
41
1
10
35.6270695639671
20
64.8096095432563
30
0
41
1
10
36.0217857259017
20
64.8146422865464
30
0
41
1
10
36.2810553696098
20
64.8195150332563
30
0
41
1
10
36.4740331025034
20
64.8237117686994
30
0
41
1
10
36.570152903263
20
64.8259456707679
30
0
41
1
10
36.6657108725215
20
64.8283776796383
30
0
41
1
10
36.729290110043
20
64.8300424506084
30
0
41
1
10
36.7609833495075
20
64.8308957304714
30
0
41
1
10
36.9184357244006
20
64.835248986234
30
0
41
1
10
37.164883501999
20
64.8427956947077
30
0
41
1
10
37.518577494753
20
64.8555966556095
30
0
41
1
10
37.7438105244703
20
64.8649473985137
30
0
41
1
10
37.9637043792523
20
64.8746209889919
30
0
41
1
10
38.0710057078277
20
64.8796204625833
30
0
41
1
10
38.2800090152254
20
64.8898492404729
30
0
41
1
10
38.4806404856743
20
64.9001706638152
30
0
41
1
10
38.7572448236967
20
64.9156270174979
30
0
41
1
10
39.0097867580959
20
64.9307645332141
30
0
41
1
10
39.1619843790276
20
64.9404491012446
30
0
41
1
10
39.2519170730872
20
64.9463120308288
30
0
41
1
10
39.269661649946
20
64.9474762992875
30
0
41
1
10
39.3045347439347
20
64.9497781859433
30
0
41
1
10
39.3558785227643
20
64.9531882423952
30
0
41
1
10
39.4043532066212
20
64.9564649336479
30
0
41
1
10
39.4975340134126
20
64.9628273782939
30
0
41
1
10
39.6117378544835
20
64.9708013072054
30
0
41
1
10
39.7533814744678
20
64.9810304637193
30
0
41
1
10
39.8279536459967
20
64.9865607254441
30
0
41
1
10
39.8682074480666
20
64.9895710791752
30
0
41
1
10
39.8759400155152
20
64.9901508396848
30
0
41
1
10
39.8907629767505
20
64.9912646255236
30
0
41
1
10
39.8978604460759
20
64.9917991859843
30
0
41
1
10
39.9181025984275
20
64.9933267485745
30
0
41
1
10
39.9302139070628
20
64.994244852894
30
0
41
1
10
39.9624676696325
20
64.9966968040401
30
0
41
1
10
39.9946057619765
20
64.9991597564543
30
0
41
1
10
40.005438212464
20
64.9999952552236
30
0
41
1
10
40.0054990408792
20
64.9999999318297
30
0
41
1
10
40.0055000380404
20
65.000000008443
30
0
0
SPLINE
5
246
100
AcDbEntity
8
1
62
256
6
ByLayer
370
18
48
1
60
0
100
AcDbSpline
70
4
71
3
72
36
73
32
40
0
40
0
40
0
40
0
40
0.124999999999987
40
0.124999999999987
40
0.187499999999981
40
0.187499999999981
40
0.218749999999987
40
0.218749999999987
40
0.249999999999992
40
0.249999999999992
40
0.374999999999969
40
0.374999999999969
40
0.406249999999967
40
0.406249999999967
40
0.437499999999964
40
0.437499999999964
40
0.499999999999963
40
0.499999999999963
40
0.624999999999968
40
0.624999999999968
40
0.656249999999969
40
0.656249999999969
40
0.687499999999971
40
0.749999999999982
40
0.812499999999993
40
0.812499999999993
40
0.843749999999995
40
0.843749999999995
40
0.874999999999996
40
0.874999999999996
40
1
40
1
40
1
40
1
41
1
10
41.8
20
64.435219406781
30
0
41
1
10
41.7469682339939
20
64.4352194067809
30
0
41
1
10
41.6948351600385
20
64.4359127951219
30
0
41
1
10
41.6179270418968
20
64.4379438960834
30
0
41
1
10
41.5925078629537
20
64.438787234409
30
0
41
1
10
41.5547116972385
20
64.4403056158612
30
0
41
1
10
41.5421396013276
20
64.4408554393391
30
0
41
1
10
41.5172480372165
20
64.4420345269569
30
0
41
1
10
41.5049642786443
20
64.4426618580713
30
0
41
1
10
41.4443387719409
20
64.4459825271159
30
0
41
1
10
41.3983542207497
20
64.4492229914107
30
0
41
1
10
41.3439852047297
20
64.4539764324977
30
0
41
1
10
41.333268392144
20
64.4549625668996
30
0
41
1
10
41.312153658692
20
64.4570062756791
30
0
41
1
10
41.3017283893689
20
64.4580669036535
30
0
41
1
10
41.2712206881421
20
64.4613269838489
30
0
41
1
10
41.2518648581001
20
64.4636069628524
30
0
41
1
10
41.1966528964743
20
64.4707497507834
30
0
41
1
10
41.1636252553509
20
64.475912595402
30
0
41
1
10
41.1271778919195
20
64.4828562189494
30
0
41
1
10
41.1201231299465
20
64.4842720419374
30
0
41
1
10
41.1066537289592
20
64.4871226214784
30
0
41
1
10
41.087354483591
20
64.4914369739599
30
0
41
1
10
41.0596206192549
20
64.4988122126242
30
0
41
1
10
41.0420933959711
20
64.5048995240747
30
0
41
1
10
41.0307210367524
20
64.5095340179116
30
0
41
1
10
41.0272262821671
20
64.5110903757168
30
0
41
1
10
41.0208397200372
20
64.5142262654193
30
0
41
1
10
41.0179496125488
20
64.5158059585488
30
0
41
1
10
41.0051458809272
20
64.5236893868537
30
0
41
1
10
41.0000000000001
20
64.5300053466443
30
0
41
1
10
41
20
64.5363269794618
30
0
0
SPLINE
5
247
100
AcDbEntity
8
1
62
256
6
ByLayer
370
18
48
1
60
0
100
AcDbSpline
70
4
71
3
72
76
73
72
40
0
40
0
40
0
40
0
40
0.0308745445106402
40
0.0308745445106402
40
0.0465056002443391
40
0.0465056002443391
40
0.0543211281111884
40
0.0543211281111884
40
0.0621366559780376
40
0.0933987674454356
40
0.124660878912834
40
0.155922990380231
40
0.155922990380231
40
0.17155404611393
40
0.17155404611393
40
0.187185101847629
40
0.187185101847629
40
0.218447213315027
40
0.249709324782425
40
0.280971436249823
40
0.280971436249823
40
0.296602491983522
40
0.296602491983522
40
0.312233547717222
40
0.312233547717222
40
0.343495659184619
40
0.374757770652016
40
0.406019882119413
40
0.43728199358681
40
0.43728199358681
40
0.44509752145366
40
0.44509752145366
40
0.452913049320509
40
0.468544105054208
40
0.468544105054208
40
0.499806216521604
40
0.531068327989
40
0.562330439456396
40
0.562330439456396
40
0.570145967323246
40
0.570145967323246
40
0.577961495190096
40
0.577961495190096
40
0.593592550923795
40
0.593592550923795
40
0.624854662391197
40
0.656116773858598
40
0.687378885325999
40
0.687378885325999
40
0.703009941059699
40
0.703009941059699
40
0.710825468926548
40
0.710825468926548
40
0.718640996793398
40
0.749903108260798
40
0.781165219728198
40
0.812427331195598
40
0.812427331195598
40
0.828058386929298
40
0.828058386929298
40
0.843689442662998
40
0.843689442662998
40
0.874951554130398
40
0.906213665597798
40
0.937475777065199
40
0.937475777065199
40
0.953106832798899
40
0.953106832798899
40
0.968737888532599
40
0.968737888532599
40
1
40
1
40
1
40
1
41
1
10
40.0054996081263
20
-64.9999999706092
30
0
41
1
10
40.0054453057288
20
-64.9999957637361
30
0
41
1
10
40.0001900462469
20
-64.9995904561331
30
0
41
1
10
39.9842889966903
20
-64.9983698115341
30
0
41
1
10
39.977583984785
20
-64.9978557109778
30
0
41
1
10
39.9654503848979
20
-64.9969280121165
30
0
41
1
10
39.9610573008533
20
-64.9965925041423
30
0
41
1
10
39.9516185849841
20
-64.9958727475701
30
0
41
1
10
39.9263672399806
20
-64.9939498644894
30
0
41
1
10
39.8661976423544
20
-64.9893981292963
30
0
41
1
10
39.7553019183471
20
-64.9811714153171
30
0
41
1
10
39.6610042358126
20
-64.9743580708397
30
0
41
1
10
39.5825255321647
20
-64.968791193336
30
0
41
1
10
39.555071810635
20
-64.966859439226
30
0
41
1
10
39.4975367358396
20
-64.9628507909432
30
0
41
1
10
39.4673865489919
20
-64.9607692489436
30
0
41
1
10
39.3736893411317
20
-64.9543704807327
30
0
41
1
10
39.2398897527908
20
-64.9454117466477
30
0
41
1
10
39.0132868876797
20
-64.9309820730671
30
0
41
1
10
38.8450737486467
20
-64.9208885157943
30
0
41
1
10
38.712407262911
20
-64.913211200688
30
0
41
1
10
38.6670993536418
20
-64.9106342627615
30
0
41
1
10
38.5742828233406
20
-64.9054567846628
30
0
41
1
10
38.5267461197654
20
-64.9028547356796
30
0
41
1
10
38.38094839834
20
-64.8950411157282
30
0
41
1
10
38.1802786181708
20
-64.8847220737449
30
0
41
1
10
37.8610151765468
20
-64.8698276958931
30
0
41
1
10
37.5236815916217
20
-64.8557939959051
30
0
41
1
10
37.2866401812255
20
-64.8471966385301
30
0
41
1
10
37.1345829950347
20
-64.842119725439
30
0
41
1
10
37.1039415317075
20
-64.8411180913163
30
0
41
1
10
37.0424483361422
20
-64.8391519112412
30
0
41
1
10
36.9499364459265
20
-64.8362594830216
30
0
41
1
10
36.8566161258711
20
-64.8335413306804
30
0
41
1
10
36.668913206782
20
-64.8283471499508
30
0
41
1
10
36.4158132886139
20
-64.8220673062825
30
0
41
1
10
36.0277968167135
20
-64.8147365618545
30
0
41
1
10
35.7635147567065
20
-64.8113422452242
30
0
41
1
10
35.5965445508121
20
-64.8097193335573
30
0
41
1
10
35.5630606684636
20
-64.8094196848829
30
0
41
1
10
35.4959115709414
20
-64.8088710815203
30
0
41
1
10
35.4622125852173
20
-64.8086219413741
30
0
41
1
10
35.3612620956805
20
-64.8079543799672
30
0
41
1
10
35.2940639210139
20
-64.8076148402965
30
0
41
1
10
35.0927707022706
20
-64.8069098780944
30
0
41
1
10
34.8251822572183
20
-64.806806326656
30
0
41
1
10
34.4261616979512
20
-64.8091158985741
30
0
41
1
10
34.1617229300525
20
-64.8122697188748
30
0
41
1
10
33.9639959796547
20
-64.8152291599685
30
0
41
1
10
33.8981874716188
20
-64.8163146490188
30
0
41
1
10
33.7996280219987
20
-64.8180899414377
30
0
41
1
10
33.7668046048614
20
-64.8187062134969
30
0
41
1
10
33.7015099665047
20
-64.8199813381345
30
0
41
1
10
33.53896535956
20
-64.8232789554078
30
0
41
1
10
33.2525402799495
20
-64.8301754176076
30
0
41
1
10
32.8834661431163
20
-64.8411974467167
30
0
41
1
10
32.6459326942735
20
-64.8496185460836
30
0
41
1
10
32.4710247808171
20
-64.8562818171447
30
0
41
1
10
32.4132631545325
20
-64.8585608029633
30
0
41
1
10
32.298838243783
20
-64.863225149211
30
0
41
1
10
32.2420689175708
20
-64.8656153267692
30
0
41
1
10
32.0748278099606
20
-64.8728694798622
30
0
41
1
10
31.8593148861176
20
-64.8827901613342
30
0
41
1
10
31.5578750220186
20
-64.8981135422098
30
0
41
1
10
31.3713596946968
20
-64.908427786832
30
0
41
1
10
31.2369543434729
20
-64.9161265152881
30
0
41
1
10
31.1930671798818
20
-64.918686586749
30
0
41
1
10
31.1071465520898
20
-64.9237817646088
30
0
41
1
10
31.0650908447377
20
-64.9263182371298
30
0
41
1
10
30.9418969315893
20
-64.9338621240059
30
0
41
1
10
30.8642382615813
20
-64.9387724024997
30
0
41
1
10
30.7910517808701
20
-64.9435155720824
30
0
0
SPLINE
5
248
100
AcDbEntity
8
1
62
256
6
ByLayer
370
18
48
1
60
0
100
AcDbSpline
70
4
71
3
72
32
73
28
40
0
40
0
40
0
40
0
40
0.124999999999976
40
0.124999999999976
40
0.187499999999968
40
0.187499999999968
40
0.24999999999996
40
0.24999999999996
40
0.374999999999959
40
0.374999999999959
40
0.437499999999961
40
0.437499999999961
40
0.499999999999962
40
0.499999999999962
40
0.624999999999992
40
0.624999999999992
40
0.65624999999999
40
0.65624999999999
40
0.687499999999988
40
0.749999999999981
40
0.812499999999974
40
0.812499999999974
40
0.843749999999971
40
0.843749999999971
40
0.874999999999968
40
0.874999999999968
40
1
40
1
40
1
40
1
41
1
10
41
20
-64.5363269794618
30
0
41
1
10
41
20
-64.5300044479886
30
0
41
1
10
41.0051466891615
20
-64.5237219509782
30
0
41
1
10
41.0202702072121
20
-64.5143609955819
30
0
41
1
10
41.0265544106484
20
-64.5112513186464
30
0
41
1
10
41.0416647364745
20
-64.5050559047087
30
0
41
1
10
41.0505390467911
20
-64.5019592927305
30
0
41
1
10
41.0804626519649
20
-64.4929049979514
30
0
41
1
10
41.1048860955883
20
-64.4871219692416
30
0
41
1
10
41.1481758882744
20
-64.4788467606285
30
0
41
1
10
41.1637515395303
20
-64.4761509109454
30
0
41
1
10
41.1971053702807
20
-64.4709221454956
30
0
41
1
10
41.2146587971479
20
-64.4684236119289
30
0
41
1
10
41.2698664858958
20
-64.4612716130812
30
0
41
1
10
41.3100440222134
20
-64.4569584363713
30
0
41
1
10
41.3645824736022
20
-64.4521722344851
30
0
41
1
10
41.375733928703
20
-64.4512435030851
30
0
41
1
10
41.3983593247197
20
-64.4494588142869
30
0
41
1
10
41.432673622164
20
-64.4468988385906
30
0
41
1
10
41.4917043219428
20
-64.4432087218727
30
0
41
1
10
41.540859822287
20
-64.4408687622259
30
0
41
1
10
41.578459778176
20
-64.4393485174184
30
0
41
1
10
41.5911155357318
20
-64.4388809541765
30
0
41
1
10
41.6166762068217
20
-64.4380258775543
30
0
41
1
10
41.6296115070801
20
-64.4376376141277
30
0
41
1
10
41.6944910242084
20
-64.4359131066037
30
0
41
1
10
41.7469607905038
20
-64.4352194067809
30
0
41
1
10
41.8
20
-64.435219406781
30
0
0
SPLINE
5
249
100
AcDbEntity
8
1
62
256
6
ByLayer
370
18
48
1
60
0
100
AcDbSpline
70
4
71
3
72
72
73
68
40
0
40
0
40
0
40
0
40
0.0625000000000076
40
0.0625000000000076
40
0.125000000000015
40
0.125000000000015
40
0.132812500000014
40
0.132812500000014
40
0.140625000000012
40
0.140625000000012
40
0.156250000000008
40
0.156250000000008
40
0.187499999999999
40
0.187499999999999
40
0.249999999999981
40
0.249999999999981
40
0.265624999999976
40
0.265624999999976
40
0.281249999999972
40
0.281249999999972
40
0.312499999999964
40
0.312499999999964
40
0.37499999999995
40
0.37499999999995
40
0.406249999999944
40
0.406249999999944
40
0.414062499999943
40
0.414062499999943
40
0.421874999999942
40
0.437499999999944
40
0.437499999999944
40
0.499999999999949
40
0.499999999999949
40
0.531249999999951
40
0.531249999999951
40
0.546874999999952
40
0.546874999999952
40
0.562499999999953
40
0.562499999999953
40
0.624999999999962
40
0.624999999999962
40
0.656249999999964
40
0.656249999999964
40
0.671874999999965
40
0.679687499999966
40
0.679687499999966
40
0.687499999999967
40
0.687499999999967
40
0.749999999999969
40
0.749999999999969
40
0.81249999999997
40
0.81249999999997
40
0.820312499999972
40
0.820312499999972
40
0.828124999999974
40
0.828124999999974
40
0.843749999999976
40
0.843749999999976
40
0.874999999999982
40
0.874999999999982
40
0.937499999999995
40
0.937499999999995
40
0.953124999999994
40
0.953124999999994
40
0.968749999999993
40
0.968749999999993
40
1
40
1
40
1
40
1
41
1
10
30.7910517808701
20
-58.2488901481289
30
0
41
1
10
30.9544286753365
20
-58.3224045657613
30
0
41
1
10
31.1284188056521
20
-58.388810722476
30
0
41
1
10
31.4967636830112
20
-58.5084778536268
30
0
41
1
10
31.691120014492
20
-58.5617358523439
30
0
41
1
10
31.921572569172
20
-58.6142915370201
30
0
41
1
10
31.9473432907621
20
-58.620028203023
30
0
41
1
10
31.9992174112659
20
-58.631294837327
30
0
41
1
10
32.0253466565022
20
-58.6368299633705
30
0
41
1
10
32.1039288057163
20
-58.6530605477091
30
0
41
1
10
32.1566388676493
20
-58.663396167013
30
0
41
1
10
32.3157194296095
20
-58.6929811816614
30
0
41
1
10
32.4230389016313
20
-58.7108110918562
30
0
41
1
10
32.7487239925901
20
-58.7587899605202
30
0
41
1
10
32.9707946671735
20
-58.7834635801177
30
0
41
1
10
33.2546623925112
20
-58.8051797994574
30
0
41
1
10
33.3117516302507
20
-58.809063917752
30
0
41
1
10
33.4265710063529
20
-58.8159025985697
30
0
41
1
10
33.4844152451045
20
-58.8188607872455
30
0
41
1
10
33.6575629864697
20
-58.8262656000731
30
0
41
1
10
33.772761882988
20
-58.829269662704
30
0
41
1
10
34.1176779850923
20
-58.832647167005
30
0
41
1
10
34.3467184634221
20
-58.8274226487454
30
0
41
1
10
34.688923377301
20
-58.8083274434319
30
0
41
1
10
34.8027647503036
20
-58.800076806221
30
0
41
1
10
34.9447751125994
20
-58.7873291290244
30
0
41
1
10
34.9731935940669
20
-58.7846545134572
30
0
41
1
10
35.0298065619234
20
-58.7790782300943
30
0
41
1
10
35.1144020686751
20
-58.7703730861418
30
0
41
1
10
35.1980349273887
20
-58.760653418524
30
0
41
1
10
35.4747029984821
20
-58.7260226962653
30
0
41
1
10
35.6893283751062
20
-58.6912198626936
30
0
41
1
10
36.0013409422309
20
-58.6282656137292
30
0
41
1
10
36.103683648943
20
-58.6054806693903
30
0
41
1
10
36.2546560990539
20
-58.5685101983013
30
0
41
1
10
36.3045561742825
20
-58.555720624389
30
0
41
1
10
36.4034939256749
20
-58.529186487597
30
0
41
1
10
36.4523137794206
20
-58.5154990509339
30
0
41
1
10
36.6924381703831
20
-58.4451897136454
30
0
41
1
10
36.8726932066251
20
-58.3827708523789
30
0
41
1
10
37.1257774157336
20
-58.279767571679
30
0
41
1
10
37.2072427452844
20
-58.2438637053751
30
0
41
1
10
37.3250387433951
20
-58.1875750611807
30
0
41
1
10
37.3828350307911
20
-58.1588218469772
30
0
41
1
10
37.4389564429817
20
-58.1291340206256
30
0
41
1
10
37.4759952040546
20
-58.1091315955591
30
0
41
1
10
37.4943452444372
20
-58.0990147039369
30
0
41
1
10
37.6573635264761
20
-58.0072432919059
30
0
41
1
10
37.7864548973809
20
-57.921031825533
30
0
41
1
10
38.0142433141445
20
-57.7392409845281
30
0
41
1
10
38.1129387744589
20
-57.6436628753591
30
0
41
1
10
38.2063265036527
20
-57.530481159811
30
0
41
1
10
38.2164563947085
20
-57.5178264392354
30
0
41
1
10
38.2362186502882
20
-57.4923569595573
30
0
41
1
10
38.2458520429656
20
-57.4795396437564
30
0
41
1
10
38.2738785618995
20
-57.4410156277281
30
0
41
1
10
38.2914427074329
20
-57.4151811394494
30
0
41
1
10
38.3408272456483
20
-57.3372226533259
30
0
41
1
10
38.3693446281283
20
-57.284644029501
30
0
41
1
10
38.4419157046025
20
-57.1250778394111
30
0
41
1
10
38.4730641380714
20
-57.0162665675715
30
0
41
1
10
38.4900908293812
20
-56.8770756342018
30
0
41
1
10
38.4923946836223
20
-56.8490780803762
30
0
41
1
10
38.4947651601869
20
-56.7927586572176
30
0
41
1
10
38.4948280614519
20
-56.7644103800412
30
0
41
1
10
38.4916270495155
20
-56.6793396160009
30
0
41
1
10
38.4849925633078
20
-56.6224568505364
30
0
41
1
10
38.4738472079138
20
-56.5654083539349
30
0
0
SPLINE
5
24A
100
AcDbEntity
8
1
62
256
6
ByLayer
370
18
48
1
60
0
100
AcDbSpline
70
4
71
3
72
26
73
22
40
0
40
0
40
0
40
0
40
0.125000000000033
40
0.125000000000033
40
0.250000000000066
40
0.375000000000099
40
0.375000000000099
40
0.437500000000101
40
0.437500000000101
40
0.468750000000103
40
0.468750000000103
40
0.500000000000104
40
0.625000000000074
40
0.750000000000044
40
0.750000000000044
40
0.875000000000015
40
0.875000000000015
40
0.906250000000009
40
0.906250000000009
40
0.937500000000003
40
1
40
1
40
1
40
1
41
1
10
38.4738472079138
20
-56.5654083539349
30
0
41
1
10
38.4603540551336
20
-56.4963424468091
30
0
41
1
10
38.4403774156844
20
-56.4265704452468
30
0
41
1
10
38.387938637228
20
-56.2857817939383
30
0
41
1
10
38.3230117655946
20
-56.1437480578743
30
0
41
1
10
38.233389516936
20
-55.9996147454255
30
0
41
1
10
38.1567743421206
20
-55.8909008596109
30
0
41
1
10
38.1296669841
20
-55.8545609457853
30
0
41
1
10
38.0866111466373
20
-55.7999233009801
30
0
41
1
10
38.071871366766
20
-55.7817054681499
30
0
41
1
10
38.0417493516147
20
-55.74542217332
30
0
41
1
10
37.964747696338
20
-55.6549834415409
30
0
41
1
10
37.8110963834287
20
-55.4946877818038
30
0
41
1
10
37.6536488504864
20
-55.3563138159635
30
0
41
1
10
37.4857452425306
20
-55.2203615826482
30
0
41
1
10
37.3965661277743
20
-55.1535954887911
30
0
41
1
10
37.2783626892194
20
-55.0719433868306
30
0
41
1
10
37.2543731324569
20
-55.0556962606027
30
0
41
1
10
37.205862156734
20
-55.0234898399207
30
0
41
1
10
37.1322495444323
20
-54.9755779134049
30
0
41
1
10
37.0561011251597
20
-54.9288855602978
30
0
41
1
10
37.0042034321439
20
-54.8983266182546
30
0
0
SPLINE
5
24B
100
AcDbEntity
8
1
62
256
6
ByLayer
370
18
48
1
60
0
100
AcDbSpline
70
4
71
3
72
18
73
14
40
0
40
0
40
0
40
0
40
0.249999999999954
40
0.249999999999954
40
0.499999999999909
40
0.499999999999909
40
0.624999999999886
40
0.624999999999886
40
0.687499999999898
40
0.687499999999898
40
0.749999999999911
40
0.749999999999911
40
1
40
1
40
1
40
1
41
1
10
30.9734107766278
20
-54.8983266182546
30
0
41
1
10
30.8440956204362
20
-54.974933136207
30
0
41
1
10
30.7228470558319
20
-55.0545263765793
30
0
41
1
10
30.4957972182689
20
-55.218667791654
30
0
41
1
10
30.38999808113
20
-55.303218682803
30
0
41
1
10
30.2428805452475
20
-55.4332117715679
30
0
41
1
10
30.1957765983846
20
-55.4770725183329
30
0
41
1
10
30.1280695172247
20
-55.543605119045
30
0
41
1
10
30.1059922986892
20
-55.5659063381581
30
0
41
1
10
30.0628333489905
20
-55.610748545923
30
0
41
1
10
30.0417174175224
20
-55.6333280334251
30
0
41
1
10
29.9392003354045
20
-55.7462085250046
30
0
41
1
10
29.8668532581852
20
-55.8365134451012
30
0
41
1
10
29.8038439011847
20
-55.9265217466172
30
0
0
SPLINE
5
24C
100
AcDbEntity
8
1
62
256
6
ByLayer
370
18
48
1
60
0
100
AcDbSpline
70
4
71
3
72
24
73
20
40
0
40
0
40
0
40
0
40
0.124662896245634
40
0.124662896245634
40
0.155924935665433
40
0.155924935665433
40
0.187186975085232
40
0.187186975085232
40
0.249711053924829
40
0.249711053924829
40
0.499807369283219
40
0.499807369283219
40
0.74990368464161
40
0.74990368464161
40
0.812427763481208
40
0.812427763481208
40
0.874951842320806
40
0.874951842320806
40
1
40
1
40
1
40
1
41
1
10
29.9945008351094
20
64.9773210878788
30
0
41
1
10
29.9944323312762
20
64.9773224705605
30
0
41
1
10
29.9985675506734
20
64.9772411043347
30
0
41
1
10
30.0091140619352
20
64.9770222651751
30
0
41
1
10
30.0114991262195
20
64.9769724039847
30
0
41
1
10
30.0168146838236
20
64.9768599634369
30
0
41
1
10
30.0197485641476
20
64.9767973104667
30
0
41
1
10
30.0293475264865
20
64.976589509229
30
0
41
1
10
30.0368039923027
20
64.9764247158523
30
0
41
1
10
30.0792892408967
20
64.9754514985056
30
0
41
1
10
30.1298471568122
20
64.9742173854796
30
0
41
1
10
30.2633088779781
20
64.970024046522
30
0
41
1
10
30.3462106661972
20
64.9670689939649
30
0
41
1
10
30.4708106650076
20
64.9614085214148
30
0
41
1
10
30.4967792687364
20
64.9601763609868
30
0
41
1
10
30.5505380368754
20
64.9574993850268
30
0
41
1
10
30.5783627061261
20
64.9560530457945
30
0
41
1
10
30.6646640652969
20
64.9513511237325
30
0
41
1
10
30.7259644909681
20
64.9477338382251
30
0
41
1
10
30.79105178087
20
64.9435155720824
30
0
0
SPLINE
5
24D
100
AcDbEntity
8
1
62
256
6
ByLayer
370
18
48
1
60
0
100
AcDbSpline
70
4
71
3
72
55
73
51
40
0
40
0
40
0
40
0
40
0.0156249999999989
40
0.0156249999999989
40
0.0312499999999979
40
0.0312499999999979
40
0.0624999999999959
40
0.0624999999999959
40
0.124999999999991
40
0.124999999999991
40
0.187499999999986
40
0.187499999999986
40
0.249999999999981
40
0.249999999999981
40
0.312499999999977
40
0.312499999999977
40
0.343749999999975
40
0.343749999999975
40
0.374999999999973
40
0.374999999999973
40
0.437499999999972
40
0.49999999999997
40
0.49999999999997
40
0.562499999999969
40
0.562499999999969
40
0.624999999999967
40
0.624999999999967
40
0.687499999999966
40
0.687499999999966
40
0.749999999999964
40
0.749999999999964
40
0.765624999999966
40
0.765624999999966
40
0.781249999999968
40
0.781249999999968
40
0.812499999999974
40
0.812499999999974
40
0.84374999999998
40
0.84374999999998
40
0.874999999999985
40
0.874999999999985
40
0.890624999999988
40
0.890624999999988
40
0.906249999999992
40
0.906249999999992
40
0.937499999999994
40
0.937499999999994
40
0.968749999999997
40
0.968749999999997
40
1
40
1
40
1
40
1
41
1
10
27.1438284307444
20
44.9457885594236
30
0
41
1
10
27.1141368925108
20
44.9963945207851
30
0
41
1
10
27.0852177803267
20
45.0472470087237
30
0
41
1
10
27.0288570760351
20
45.1494235481465
30
0
41
1
10
27.0014039114419
20
45.2007727866323
30
0
41
1
10
26.9214517903869
20
45.3549430700781
30
0
41
1
10
26.8712552949871
20
45.4580609289838
30
0
41
1
10
26.7290704952067
20
45.7683285425263
30
0
41
1
10
26.6454412485562
20
45.9763873717212
30
0
41
1
10
26.4971430642445
20
46.3945670250234
30
0
41
1
10
26.4324948510631
20
46.6046901029851
30
0
41
1
10
26.3201008343418
20
47.0267744506125
30
0
41
1
10
26.2723652122049
20
47.2387368275389
30
0
41
1
10
26.19253118578
20
47.664362179397
30
0
41
1
10
26.1604378009792
20
47.8780257002143
30
0
41
1
10
26.1235129750515
20
48.1997406762819
30
0
41
1
10
26.1130780441097
20
48.3071827338954
30
0
41
1
10
26.0959147617497
20
48.5224699516311
30
0
41
1
10
26.0891847734658
20
48.6303528872179
30
0
41
1
10
26.0745486595636
20
48.9543663565507
30
0
41
1
10
26.0698965781483
20
49.3852980382914
30
0
41
1
10
26.0943841994436
20
49.8140999777531
30
0
41
1
10
26.1336013878552
20
50.2418253728814
30
0
41
1
10
26.1605730046221
20
50.4551499269853
30
0
41
1
10
26.2298749885227
20
50.8806765055526
30
0
41
1
10
26.2722007745114
20
51.0928788648396
30
0
41
1
10
26.3734008124372
20
51.5160741006702
30
0
41
1
10
26.4322657692019
20
51.7270676565729
30
0
41
1
10
26.5684932705344
20
52.1477028295752
30
0
41
1
10
26.6458370718383
20
52.3573458165696
30
0
41
1
10
26.7560189510678
20
52.6184127162227
30
0
41
1
10
26.7787475526336
20
52.6706059246592
30
0
41
1
10
26.8255635562179
20
52.7747445952278
30
0
41
1
10
26.8496354878407
20
52.8266576176783
30
0
41
1
10
26.9239222264003
20
52.9819091107971
30
0
41
1
10
26.9762038870886
20
53.0847609701513
30
0
41
1
10
27.0867905863196
20
53.2890465702286
30
0
41
1
10
27.1450940332664
20
53.3904806856701
30
0
41
1
10
27.2683805300702
20
53.5917762990675
30
0
41
1
10
27.3333610569501
20
53.6916383910224
30
0
41
1
10
27.4364906383227
20
53.8400992470995
30
0
41
1
10
27.4718496589255
20
53.8894127982168
30
0
41
1
10
27.5443408515266
20
53.9872278166614
30
0
41
1
10
27.5814811546373
20
54.0357447123744
30
0
41
1
10
27.6957407664256
20
54.1800560711478
30
0
41
1
10
27.7756884670699
20
54.274615707224
30
0
41
1
10
27.9441677858694
20
54.4599873895453
30
0
41
1
10
28.0326935314222
20
54.550801999667
30
0
41
1
10
28.2197535559986
20
54.7280616674059
30
0
41
1
10
28.3182768648177
20
54.8145115144246
30
0
41
1
10
28.4228350972041
20
54.8983266182546
30
0
0
SPLINE
5
24E
100
AcDbEntity
8
1
62
256
6
ByLayer
370
18
48
1
60
0
100
AcDbSpline
70
4
71
3
72
16
73
12
40
0
40
0
40
0
40
0
40
0.499999999999992
40
0.499999999999992
40
0.74999999999999
40
0.74999999999999
40
0.874999999999993
40
0.937499999999996
40
0.968749999999998
40
0.968749999999998
40
1
40
1
40
1
40
1
41
1
10
28.4228350972041
20
54.8983266182546
30
0
41
1
10
28.8161653883146
20
55.2136247869067
30
0
41
1
10
29.2100342848448
20
55.5100767203236
30
0
41
1
10
29.8019830085771
20
55.9268401425873
30
0
41
1
10
29.9994903806062
20
56.0611022298666
30
0
41
1
10
30.2960829517095
20
56.2554927179476
30
0
41
1
10
30.4444621472321
20
56.3509367024903
30
0
41
1
10
30.6177264737291
20
56.4592138877561
30
0
41
1
10
30.6920170008899
20
56.5049582348097
30
0
41
1
10
30.7415517854537
20
56.5353075947969
30
0
41
1
10
30.7663400858668
20
56.5504190732362
30
0
41
1
10
30.7910517808701
20
56.5654083539349
30
0
0
SPLINE
5
24F
100
AcDbEntity
8
1
62
256
6
ByLayer
370
18
48
1
60
0
100
AcDbSpline
70
4
71
3
72
20
73
16
40
0
40
0
40
0
40
0
40
0.249401830494219
40
0.249401830494219
40
0.498803660988438
40
0.498803660988438
40
0.561154118611994
40
0.561154118611994
40
0.62350457623555
40
0.62350457623555
40
0.74820549148266
40
0.74820549148266
40
0.997607321976882
40
0.997607321976882
40
1
40
1
40
1
40
1
41
1
10
30.79105178087
20
-64.9435155720825
30
0
41
1
10
30.6608738916814
20
-64.9519523188469
30
0
41
1
10
30.5467563893068
20
-64.957946189367
30
0
41
1
10
30.3493729696862
20
-64.9669372497989
30
0
41
1
10
30.2661101075975
20
-64.9699282587968
30
0
41
1
10
30.1817166936682
20
-64.9725894560216
30
0
41
1
10
30.1658269491966
20
-64.9730665499046
30
0
41
1
10
30.1360547524234
20
-64.9739255643776
30
0
41
1
10
30.1221640856382
20
-64.9743076467789
30
0
41
1
10
30.0838432768166
20
-64.9753237242116
30
0
41
1
10
30.0626377107781
20
-64.9758325814317
30
0
41
1
10
30.0117356713298
20
-64.9769996623651
30
0
41
1
10
29.99469114574
20
-64.9773172729082
30
0
41
1
10
29.9945002141954
20
-64.9773211002799
30
0
41
1
10
29.9944985108062
20
-64.9773211349903
30
0
41
1
10
29.9945008070206
20
-64.9773210900513
30
0
0
SPLINE
5
250
100
AcDbEntity
8
1
62
256
6
ByLayer
370
18
48
1
60
0
100
AcDbSpline
70
4
71
3
72
35
73
31
40
0
40
0
40
0
40
0
40
0.124999999999925
40
0.124999999999925
40
0.187499999999888
40
0.187499999999888
40
0.218749999999867
40
0.218749999999867
40
0.249999999999847
40
0.249999999999847
40
0.374999999999815
40
0.499999999999785
40
0.499999999999785
40
0.515624999999794
40
0.515624999999794
40
0.531249999999802
40
0.531249999999802
40
0.56249999999982
40
0.56249999999982
40
0.624999999999855
40
0.624999999999855
40
0.749999999999924
40
0.749999999999924
40
0.812499999999959
40
0.812499999999959
40
0.84374999999997
40
0.84374999999997
40
0.874999999999981
40
0.874999999999981
40
1
40
1
40
1
40
1
41
1
10
29.8038439011847
20
-55.9265217466172
30
0
41
1
10
29.7247616554699
20
-56.0240694147378
30
0
41
1
10
29.6606720740172
20
-56.1233075765222
30
0
41
1
10
29.586767480007
20
-56.2753009525252
30
0
41
1
10
29.5658518282094
20
-56.3264870339608
30
0
41
1
10
29.5401555236105
20
-56.4041162589366
30
0
41
1
10
29.5325372092032
20
-56.4301343114247
30
0
41
1
10
29.5192228876605
20
-56.4824645806661
30
0
41
1
10
29.513524878711
20
-56.5088088166412
30
0
41
1
10
29.4900831648652
20
-56.6402342249544
30
0
41
1
10
29.4842624719948
20
-56.85016851632
30
0
41
1
10
29.5397417761225
20
-57.059519279606
30
0
41
1
10
29.5886934652566
20
-57.1768912051009
30
0
41
1
10
29.5943802751981
20
-57.1899268374568
30
0
41
1
10
29.6062533738736
20
-57.2159853974911
30
0
41
1
10
29.6124464285489
20
-57.2290215711772
30
0
41
1
10
29.6317166843525
20
-57.2679801074354
30
0
41
1
10
29.6454872934011
20
-57.2937636924707
30
0
41
1
10
29.689526827977
20
-57.3705396587513
30
0
41
1
10
29.7225198783757
20
-57.4209585752689
30
0
41
1
10
29.8321865471889
20
-57.5698036126028
30
0
41
1
10
29.9194934233056
20
-57.665840625332
30
0
41
1
10
30.0719027718325
20
-57.8042489413273
30
0
41
1
10
30.1262941699486
20
-57.8494384244672
30
0
41
1
10
30.2134123477999
20
-57.9156397750746
30
0
41
1
10
30.2433191156956
20
-57.9373976463703
30
0
41
1
10
30.3046000079454
20
-57.9800885530317
30
0
41
1
10
30.3360115236085
20
-58.0010502904829
30
0
41
1
10
30.4968986117293
20
-58.1038970633522
30
0
41
1
10
30.6378027081741
20
-58.1799329288807
30
0
41
1
10
30.7910517808692
20
-58.2488901481294
30
0
0
SPLINE
5
251
100
AcDbEntity
8
1
62
256
6
ByLayer
370
18
48
1
60
0
100
AcDbSpline
70
4
71
3
72
8
73
4
40
0
40
0
40
0
40
0
40
1
40
1
40
1
40
1
41
1
10
29.8038439011847
20
-55.9265217466172
30
0
41
1
10
29.3425327038127
20
-55.6092772432125
30
0
41
1
10
28.882316750566
20
-55.2666524937554
30
0
41
1
10
28.4228350972042
20
-54.8983266182546
30
0
0
SPLINE
5
252
100
AcDbEntity
8
1
62
256
6
ByLayer
370
18
48
1
60
0
100
AcDbSpline
70
4
71
3
72
57
73
53
40
0
40
0
40
0
40
0
40
0.0156249999999924
40
0.0156249999999924
40
0.0234374999999913
40
0.0234374999999913
40
0.0312499999999901
40
0.0312499999999901
40
0.0624999999999899
40
0.0624999999999899
40
0.0937499999999897
40
0.0937499999999897
40
0.124999999999989
40
0.124999999999989
40
0.187499999999983
40
0.187499999999983
40
0.203124999999983
40
0.203124999999983
40
0.218749999999983
40
0.218749999999983
40
0.249999999999989
40
0.249999999999989
40
0.312499999999992
40
0.312499999999992
40
0.374999999999996
40
0.374999999999996
40
0.4375
40
0.4375
40
0.500000000000003
40
0.500000000000003
40
0.531250000000002
40
0.531250000000002
40
0.546875000000004
40
0.546875000000004
40
0.562500000000006
40
0.562500000000006
40
0.625000000000008
40
0.687500000000011
40
0.687500000000011
40
0.750000000000013
40
0.750000000000013
40
0.812500000000016
40
0.812500000000016
40
0.875000000000019
40
0.875000000000019
40
0.906250000000017
40
0.906250000000017
40
0.921875000000013
40
0.921875000000013
40
0.937500000000008
40
0.937500000000008
40
1
40
1
40
1
40
1
41
1
10
28.4228350972043
20
-54.8983266182545
30
0
41
1
10
28.3700786409667
20
-54.8560364249687
30
0
41
1
10
28.318670204038
20
-54.8129152271436
30
0
41
1
10
28.2434253935523
20
-54.7470819724216
30
0
41
1
10
28.2186451422328
20
-54.7249351789778
30
0
41
1
10
28.1698739748352
20
-54.6804468910237
30
0
41
1
10
28.1458586939448
20
-54.6580845616437
30
0
41
1
10
28.0275401228214
20
-54.5457118867547
30
0
41
1
10
27.9384814317685
20
-54.4540276812246
30
0
41
1
10
27.7696794789913
20
-54.2676861688475
30
0
41
1
10
27.6899454119924
20
-54.1730259274225
30
0
41
1
10
27.5384978462425
20
-53.9811456095741
30
0
41
1
10
27.4667893826268
20
-53.8839239261428
30
0
41
1
10
27.2622741702409
20
-53.5888725439419
30
0
41
1
10
27.1400036223415
20
-53.3876801238653
30
0
41
1
10
27.0015978725571
20
-53.1315833599946
30
0
41
1
10
26.9746923974104
20
-53.0802187216928
30
0
41
1
10
26.9224353998601
20
-52.9773759856951
30
0
41
1
10
26.8970697118959
20
-52.925871659554
30
0
41
1
10
26.8231451370212
20
-52.7711224159248
30
0
41
1
10
26.7767549238548
20
-52.6676416481545
30
0
41
1
10
26.6454952069548
20
-52.3563390064306
30
0
41
1
10
26.5684980948949
20
-52.1476609844258
30
0
41
1
10
26.4326565234313
20
-51.7283307807419
30
0
41
1
10
26.3738282918155
20
-51.5176768342383
30
0
41
1
10
26.2725651661779
20
-51.0945861127581
30
0
41
1
10
26.2301383500997
20
-50.8821484592791
30
0
41
1
10
26.1606235885366
20
-50.4556050005441
30
0
41
1
10
26.1335395037861
20
-50.2414987754208
30
0
41
1
10
26.1040303312689
20
-49.9191304329747
30
0
41
1
10
26.0960506568692
20
-49.8114723949093
30
0
41
1
10
26.0868506133421
20
-49.6496841492029
30
0
41
1
10
26.0842450301922
20
-49.5956795498342
30
0
41
1
10
26.0799643338842
20
-49.4877693668447
30
0
41
1
10
26.07828788619
20
-49.4338481805835
30
0
41
1
10
26.0722083066315
20
-49.1644105444066
30
0
41
1
10
26.077182824172
20
-48.7343848447103
30
0
41
1
10
26.1112747633325
20
-48.306487258828
30
0
41
1
10
26.1602347620467
20
-47.8796763393179
30
0
41
1
10
26.1921462246541
20
-47.6668140251685
30
0
41
1
10
26.2716352922508
20
-47.2422343929635
30
0
41
1
10
26.3192070790173
20
-47.0305166496695
30
0
41
1
10
26.4314249046549
20
-46.6083290741174
30
0
41
1
10
26.4960593237085
20
-46.3978583925977
30
0
41
1
10
26.6075170858144
20
-46.0832125844937
30
0
41
1
10
26.6470950724463
20
-45.9785079143495
30
0
41
1
10
26.7104040065228
20
-45.8217390159289
30
0
41
1
10
26.7321647033387
20
-45.7695307873478
30
0
41
1
10
26.777062162128
20
-45.6652149030766
30
0
41
1
10
26.8002110985867
20
-45.613082304546
30
0
41
1
10
26.9192570876439
20
-45.353343236159
30
0
41
1
10
27.0251510714706
20
-45.1480610658406
30
0
41
1
10
27.1438284307445
20
-44.9457885594237
30
0
0
SPLINE
5
253
100
AcDbEntity
8
1
62
256
6
ByLayer
370
18
48
1
60
0
100
AcDbSpline
70
4
71
3
72
58
73
54
40
0
40
0
40
0
40
0
40
0.124999999999997
40
0.124999999999997
40
0.249999999999993
40
0.249999999999993
40
0.312499999999991
40
0.312499999999991
40
0.37499999999999
40
0.37499999999999
40
0.437499999999988
40
0.437499999999988
40
0.453124999999989
40
0.453124999999989
40
0.46874999999999
40
0.46874999999999
40
0.499999999999996
40
0.499999999999996
40
0.562500000000004
40
0.562500000000004
40
0.593750000000008
40
0.593750000000008
40
0.625000000000013
40
0.625000000000013
40
0.656250000000017
40
0.656250000000017
40
0.687500000000021
40
0.687500000000021
40
0.718750000000025
40
0.75000000000003
40
0.75000000000003
40
0.781250000000034
40
0.781250000000034
40
0.796875000000036
40
0.796875000000036
40
0.804687500000035
40
0.804687500000035
40
0.812500000000034
40
0.812500000000034
40
0.843750000000037
40
0.843750000000037
40
0.875000000000041
40
0.875000000000041
40
0.906250000000044
40
0.906250000000044
40
0.914062500000042
40
0.914062500000042
40
0.921875000000039
40
0.937500000000029
40
0.937500000000029
40
0.968750000000015
40
0.968750000000015
40
1
40
1
40
1
40
1
41
1
10
21.4424391272095
20
32.68907746952
30
0
41
1
10
21.776882139296
20
33.2527979588966
30
0
41
1
10
22.1164686034633
20
33.80754933714
30
0
41
1
10
22.8030014609781
20
34.9017843065851
30
0
41
1
10
23.1499896749912
20
35.4412400755675
30
0
41
1
10
23.6732824340402
20
36.2408967095103
30
0
41
1
10
23.8481726630879
20
36.5058628766867
30
0
41
1
10
24.1982041835867
20
37.0330272855387
30
0
41
1
10
24.373349926599
20
37.2952231165251
30
0
41
1
10
24.722970943994
20
37.8173669411932
30
0
41
1
10
24.8974539471247
20
38.0773108311648
30
0
41
1
10
25.114290878427
20
38.4012939340214
30
0
41
1
10
25.1575934883883
20
38.4660439339965
30
0
41
1
10
25.2440412470615
20
38.5954655291449
30
0
41
1
10
25.2871754360622
20
38.660120805794
30
0
41
1
10
25.416064270722
20
38.8536464050572
30
0
41
1
10
25.5013805212764
20
38.9821853756871
30
0
41
1
10
25.7550588975669
20
39.3665706560769
30
0
41
1
10
25.9212018271372
20
39.6211664278367
30
0
41
1
10
26.1634495433898
20
40.0016476322362
30
0
41
1
10
26.2430263630754
20
40.1282434508466
30
0
41
1
10
26.3992357339903
20
40.3812200243983
30
0
41
1
10
26.4758700362864
20
40.5076001365145
30
0
41
1
10
26.6254218573172
20
40.7604570226249
30
0
41
1
10
26.698421845988
20
40.8870864549115
30
0
41
1
10
26.8389185598805
20
41.13940739259
30
0
41
1
10
26.9064942012727
20
41.2652222444699
30
0
41
1
10
27.0350583476634
20
41.516444945831
30
0
41
1
10
27.1570383198818
20
41.7672604454748
30
0
41
1
10
27.2627738587024
20
42.0179312730044
30
0
41
1
10
27.3585191320104
20
42.2689143948693
30
0
41
1
10
27.401395208989
20
42.3945627921389
30
0
41
1
10
27.4565652991286
20
42.5835849436705
30
0
41
1
10
27.4734288106984
20
42.6466841303325
30
0
41
1
10
27.4962089500415
20
42.7415103436247
30
0
41
1
10
27.5033715471744
20
42.7731057734379
30
0
41
1
10
27.516757951575
20
42.8360287517638
30
0
41
1
10
27.522990385479
20
42.8673916919923
30
0
41
1
10
27.5518072229118
20
43.0237141265495
30
0
41
1
10
27.567332475752
20
43.1471974596112
30
0
41
1
10
27.5826122474396
20
43.3910170540209
30
0
41
1
10
27.5823639506538
20
43.5113533164853
30
0
41
1
10
27.5660315744048
20
43.7488644127715
30
0
41
1
10
27.5499495503324
20
43.8660392010791
30
0
41
1
10
27.5203317590248
20
44.0105128641559
30
0
41
1
10
27.5139274409886
20
44.0393312205903
30
0
41
1
10
27.5002495343158
20
44.0965151162573
30
0
41
1
10
27.4784143784582
20
44.1816938571808
30
0
41
1
10
27.4527766240886
20
44.2651296080837
30
0
41
1
10
27.3968336132742
20
44.4297992333389
30
0
41
1
10
27.3533213631294
20
44.5366462565035
30
0
41
1
10
27.2559086948085
20
44.7450580593403
30
0
41
1
10
27.2020108837992
20
44.846622967259
30
0
41
1
10
27.1438284307441
20
44.9457885594236
30
0
0
SPLINE
5
254
100
AcDbEntity
8
1
62
256
6
ByLayer
370
18
48
1
60
0
100
AcDbSpline
70
4
71
3
72
14
73
10
40
0
40
0
40
0
40
0
40
0.25
40
0.25
40
0.5
40
0.5
40
0.75
40
0.75
40
1
40
1
40
1
40
1
41
1
10
21.4424391272179
20
-32.68907746952
30
0
41
1
10
21.2197978375482
20
-32.313804396882
30
0
41
1
10
21.0106285242708
20
-31.932493098118
30
0
41
1
10
20.6159064156378
20
-31.1592854259599
30
0
41
1
10
20.4303631029578
20
-30.7673848023702
30
0
41
1
10
20.0802933463737
20
-29.9741636599624
30
0
41
1
10
19.9157728306607
20
-29.5728404840912
30
0
41
1
10
19.6056235112936
20
-28.7617267459759
30
0
41
1
10
19.4599985859688
20
-28.3519344454398
30
0
41
1
10
19.3229231608242
20
-27.9383102041512
30
0
0
SPLINE
5
255
100
AcDbEntity
8
1
62
256
6
ByLayer
370
18
48
1
60
0
100
AcDbSpline
70
4
71
3
72
21
73
17
40
0
40
0
40
0
40
0
40
0.0625000000000058
40
0.0625000000000058
40
0.125000000000012
40
0.250000000000008
40
0.250000000000008
40
0.500000000000001
40
0.500000000000001
40
0.749999999999993
40
0.749999999999993
40
0.87499999999999
40
0.87499999999999
40
0.937499999999995
40
0.937499999999995
40
1
40
1
40
1
40
1
41
1
10
19.3229231608242
20
27.9383102041512
30
0
41
1
10
19.3571531516968
20
28.0415989883299
30
0
41
1
10
19.3919596763136
20
28.1447753724682
30
0
41
1
10
19.4626365020749
20
28.3505398453971
30
0
41
1
10
19.5702984666681
20
28.6584579370616
30
0
41
1
10
19.68302336289
20
28.9641358613557
30
0
41
1
10
19.915577208637
20
29.5723484187495
30
0
41
1
10
20.0800722087026
20
29.9736381400405
30
0
41
1
10
20.4301354660046
20
30.7668934150132
30
0
41
1
10
20.6156976973167
20
31.1588616349522
30
0
41
1
10
20.9118197903643
20
31.7389475013622
30
0
41
1
10
21.0134946126421
20
31.9309964621262
30
0
41
1
10
21.1707532839531
20
32.2169697731352
30
0
41
1
10
21.2239642890191
20
32.3119440225335
30
0
41
1
10
21.3320233695464
20
32.5011681758415
30
0
41
1
10
21.3868879746664
20
32.5954432126508
30
0
41
1
10
21.4424391272153
20
32.6890774695155
30
0
0
SPLINE
5
256
100
AcDbEntity
8
1
62
256
6
ByLayer
370
18
48
1
60
0
100
AcDbSpline
70
4
71
3
72
14
73
10
40
0
40
0
40
0
40
0
40
0.5
40
0.5
40
0.625
40
0.625
40
0.75
40
0.75
40
1
40
1
40
1
40
1
41
1
10
19.3229231608242
20
27.9383102041512
30
0
41
1
10
18.7978684331912
20
26.3539608350127
30
0
41
1
10
18.3029076344067
20
24.7560717453792
30
0
41
1
10
17.7285743566693
20
22.7387486647829
30
0
41
1
10
17.6159300427752
20
22.3342841830435
30
0
41
1
10
17.3952706546382
20
21.5232724535922
30
0
41
1
10
17.287460501295
20
21.1174756203118
30
0
41
1
10
16.9718881117456
20
19.8994993749418
30
0
41
1
10
16.7719480894621
20
19.0865995734401
30
0
41
1
10
16.583019924847
20
18.2727341246513
30
0
0
SPLINE
5
257
100
AcDbEntity
8
1
62
256
6
ByLayer
370
18
48
1
60
0
100
AcDbSpline
70
4
71
3
72
10
73
6
40
0
40
0
40
0
40
0
40
0.5
40
0.5
40
1
40
1
40
1
40
1
41
1
10
16.583019924847
20
-18.2727341246513
30
0
41
1
10
16.9619135458324
20
-19.9049334715022
30
0
41
1
10
17.3832700089805
20
-21.52551732891
30
0
41
1
10
18.300057394649
20
-24.7464223609412
30
0
41
1
10
18.7954775867628
20
-26.3467464708118
30
0
41
1
10
19.3229231608242
20
-27.9383102041512
30
0
0
SPLINE
5
258
100
AcDbEntity
8
1
62
256
6
ByLayer
370
18
48
1
60
0
100
AcDbSpline
70
4
71
3
72
43
73
39
40
0
40
0
40
0
40
0
40
0.0624999999999454
40
0.0624999999999454
40
0.124999999999891
40
0.124999999999891
40
0.187499999999836
40
0.249999999999782
40
0.249999999999782
40
0.374999999999681
40
0.374999999999681
40
0.437499999999631
40
0.437499999999631
40
0.468749999999606
40
0.468749999999606
40
0.484374999999595
40
0.492187499999588
40
0.496093749999584
40
0.496093749999584
40
0.498046874999582
40
0.498046874999582
40
0.499999999999581
40
0.531249999999609
40
0.531249999999609
40
0.562499999999637
40
0.562499999999637
40
0.624999999999689
40
0.624999999999689
40
0.687499999999741
40
0.687499999999741
40
0.749999999999792
40
0.749999999999792
40
0.812499999999844
40
0.874999999999896
40
0.874999999999896
40
0.937499999999948
40
0.937499999999948
40
1
40
1
40
1
40
1
41
1
10
16.583019924847
20
18.2727341246513
30
0
41
1
10
16.4070223590479
20
17.5145711574378
30
0
41
1
10
16.2265723206913
20
16.7572514256485
30
0
41
1
10
15.8626436762173
20
15.2431855300341
30
0
41
1
10
15.6791526808464
20
14.4864277203177
30
0
41
1
10
15.3158890866239
20
12.9722946428819
30
0
41
1
10
14.9563349210229
20
11.4575676940802
30
0
41
1
10
14.6200284422841
20
9.93911884172735
30
0
41
1
10
14.1467217009628
20
7.65645804011251
30
0
41
1
10
13.872715206736
20
6.12803509722204
30
0
41
1
10
13.585376464772
20
3.81560122780814
30
0
41
1
10
13.5102794073824
20
3.04147871150434
30
0
41
1
10
13.4349770887101
20
1.87431636204485
30
0
41
1
10
13.4160791224862
20
1.4842691898495
30
0
41
1
10
13.3975605121722
20
0.897624936089073
30
0
41
1
10
13.3907548990199
20
0.603909978514082
30
0
41
1
10
13.3871844218476
20
0.26054299590237
30
0
41
1
10
13.3865958648609
20
0.113234961943363
30
0
41
1
10
13.386458911631
20
0.0395557575351404
30
0
41
1
10
13.3864395379711
20
0.0149152613361707
30
0
41
1
10
13.3864530422154
20
-0.0339715518920229
30
0
41
1
10
13.3870086376281
20
-0.449428984042981
30
0
41
1
10
13.3950794982686
20
-0.863514324761184
30
0
41
1
10
13.4231412824875
20
-1.64061943482932
30
0
41
1
10
13.4436049349293
20
-2.02799753559305
30
0
41
1
10
13.5231693766683
20
-3.18681383359421
30
0
41
1
10
13.6005170170601
20
-3.95492063169922
30
0
41
1
10
13.7952522335369
20
-5.48382397989252
30
0
41
1
10
13.9125693575742
20
-6.24463339268738
30
0
41
1
10
14.1770563340602
20
-7.76080188862733
30
0
41
1
10
14.3241852168708
20
-8.51616845176011
30
0
41
1
10
14.638375093599
20
-10.0232624943665
30
0
41
1
10
14.9724673592999
20
-11.5267228798006
30
0
41
1
10
15.3287306801911
20
-13.0261354087775
30
0
41
1
10
15.6884665764427
20
-14.5249139360582
30
0
41
1
10
15.8700778600345
20
-15.2739849121086
30
0
41
1
10
16.2302496807531
20
-16.7726838509504
30
0
41
1
10
16.4088188833853
20
-17.5223102316467
30
0
41
1
10
16.583019924847
20
-18.2727341246513
30
0
0
SPLINE
5
259
100
AcDbEntity
8
1
62
256
6
ByLayer
370
18
48
1
60
0
100
AcDbSpline
70
4
71
3
72
59
73
55
40
0
40
0
40
0
40
0
40
0.0625000000000357
40
0.0625000000000357
40
0.0937500000000504
40
0.0937500000000504
40
0.109375000000058
40
0.117187500000066
40
0.117187500000066
40
0.125000000000074
40
0.125000000000074
40
0.156250000000104
40
0.156250000000104
40
0.187500000000135
40
0.187500000000135
40
0.218750000000166
40
0.218750000000166
40
0.234375000000181
40
0.234375000000181
40
0.242187500000186
40
0.242187500000186
40
0.25000000000019
40
0.25000000000019
40
0.281250000000192
40
0.281250000000192
40
0.312500000000193
40
0.312500000000193
40
0.343750000000195
40
0.343750000000195
40
0.375000000000197
40
0.375000000000197
40
0.406250000000198
40
0.406250000000198
40
0.421875000000199
40
0.421875000000199
40
0.437500000000199
40
0.437500000000199
40
0.500000000000176
40
0.500000000000176
40
0.562500000000152
40
0.562500000000152
40
0.625000000000129
40
0.625000000000129
40
0.687500000000106
40
0.687500000000106
40
0.750000000000083
40
0.750000000000083
40
0.812500000000059
40
0.812500000000059
40
0.843750000000048
40
0.843750000000048
40
0.875000000000036
40
0.875000000000036
40
1
40
1
40
1
40
1
41
1
10
27.1438284307444
20
-44.9457885594236
30
0
41
1
10
27.2601496757753
20
-44.7475317906019
30
0
41
1
10
27.3591455487751
20
-44.5402058183849
30
0
41
1
10
27.4705730559439
20
-44.2130062348167
30
0
41
1
10
27.5015100567935
20
-44.1012278159148
30
0
41
1
10
27.537128258454
20
-43.9290946236517
30
0
41
1
10
27.5522408880603
20
-43.8419110546513
30
0
41
1
10
27.5630469381263
20
-43.7529741630262
30
0
41
1
10
27.5692669717886
20
-43.6932845709775
30
0
41
1
10
27.571882791189
20
-43.6632399937537
30
0
41
1
10
27.5823920894023
20
-43.5129502295183
30
0
41
1
10
27.5826354441567
20
-43.3917655530597
30
0
41
1
10
27.5673789178636
20
-43.1475619089694
30
0
41
1
10
27.5518850036688
20
-43.0245426019197
30
0
41
1
10
27.5063404381123
20
-42.7766706831472
30
0
41
1
10
27.476297635417
20
-42.651817476001
30
0
41
1
10
27.421491109558
20
-42.4631215708298
30
0
41
1
10
27.401600728982
20
-42.399986545336
30
0
41
1
10
27.3694908997865
20
-42.3049216223914
30
0
41
1
10
27.3584000367943
20
-42.2731491613777
30
0
41
1
10
27.335526363862
20
-42.2095907291927
30
0
41
1
10
27.3237612342662
20
-42.1778520848824
30
0
41
1
10
27.2633840719238
20
-42.0193382886026
30
0
41
1
10
27.2101351036999
20
-41.8930976969709
30
0
41
1
10
27.0957578132072
20
-41.6412161106464
30
0
41
1
10
27.0346272435241
20
-41.5155753116509
30
0
41
1
10
26.9060827102163
20
-41.2644455719552
30
0
41
1
10
26.838666298422
20
-41.1389570720786
30
0
41
1
10
26.6988027200423
20
-40.8877677559285
30
0
41
1
10
26.6263533552819
20
-40.7620674241534
30
0
41
1
10
26.4774042752677
20
-40.5101592970174
30
0
41
1
10
26.4009027499131
20
-40.3839519429844
30
0
41
1
10
26.2836891894586
20
-40.1940801075618
30
0
41
1
10
26.2442063033835
20
-40.1306964155494
30
0
41
1
10
26.164497701574
20
-40.0037168878923
30
0
41
1
10
26.1242541207831
20
-39.9400935178476
30
0
41
1
10
25.921875022559
20
-39.6221948921894
30
0
41
1
10
25.7559662348734
20
-39.3679663459363
30
0
41
1
10
25.4194743026785
20
-38.8580566310436
30
0
41
1
10
25.2488667289086
20
-38.6023871121515
30
0
41
1
10
24.9050029311622
20
-38.0885716363372
30
0
41
1
10
24.7317338122269
20
-37.8304319440177
30
0
41
1
10
24.383877504102
20
-37.310966365812
30
0
41
1
10
24.2092831320791
20
-37.0496440584943
30
0
41
1
10
23.8596939047014
20
-36.5232787760644
30
0
41
1
10
23.6846948286127
20
-36.258237996567
30
0
41
1
10
23.3349627448903
20
-35.7239942963576
30
0
41
1
10
23.1602271107248
20
-35.4547928532673
30
0
41
1
10
22.8987084440028
20
-35.0475680883526
30
0
41
1
10
22.8116320501026
20
-34.9112562518542
30
0
41
1
10
22.6377278337865
20
-34.637442299443
30
0
41
1
10
22.5508813612642
20
-34.4999105595084
30
0
41
1
10
22.1175925417293
20
-33.8094586746121
30
0
41
1
10
21.7765211779318
20
-33.2521895403786
30
0
41
1
10
21.4424391272179
20
-32.68907746952
30
0
0
SPLINE
5
25A
100
AcDbEntity
8
1
62
256
6
ByLayer
370
18
48
1
60
0
100
AcDbSpline
70
4
71
3
72
73
73
69
40
0
40
0
40
0
40
0
40
0.0256421294592841
40
0.0256421294592841
40
0.0355196465017112
40
0.0355196465017112
40
0.0453971635441383
40
0.0453971635441383
40
0.0651521976289913
40
0.0651521976289913
40
0.104662265798699
40
0.144172333968406
40
0.144172333968406
40
0.183682402138113
40
0.183682402138113
40
0.203437436222968
40
0.203437436222968
40
0.223192470307822
40
0.223192470307822
40
0.262702538477532
40
0.302212606647241
40
0.302212606647241
40
0.321967640732096
40
0.321967640732096
40
0.341722674816951
40
0.341722674816951
40
0.38123274298666
40
0.42074281115637
40
0.42074281115637
40
0.46025287932608
40
0.46025287932608
40
0.470130396368507
40
0.470130396368507
40
0.480007913410935
40
0.499762947495792
40
0.499762947495792
40
0.539273015665505
40
0.578783083835218
40
0.578783083835218
40
0.598538117920074
40
0.598538117920074
40
0.618293152004931
40
0.618293152004931
40
0.657803220174646
40
0.697313288344362
40
0.697313288344362
40
0.707190805386789
40
0.707190805386789
40
0.717068322429216
40
0.717068322429216
40
0.736823356514067
40
0.736823356514067
40
0.776333424683769
40
0.815843492853471
40
0.815843492853471
40
0.835598526938321
40
0.835598526938321
40
0.855353561023171
40
0.855353561023171
40
0.89486362919287
40
0.93437369736257
40
0.93437369736257
40
0.954128731447419
40
0.964006248489844
40
0.964006248489844
40
0.973883765532269
40
0.973883765532269
40
1
40
1
40
1
40
1
41
1
10
58.3830437695965
20
85.5022992847832
30
0
41
1
10
58.3671679718907
20
85.5022918806968
30
0
41
1
10
58.3497122299061
20
85.5022267971515
30
0
41
1
10
58.323287926443
20
85.5020599322697
30
0
41
1
10
58.3156987190215
20
85.5020053136648
30
0
41
1
10
58.3000314434501
20
85.501879915462
30
0
41
1
10
58.2919428090481
20
85.5018090333605
30
0
41
1
10
58.267012269522
20
85.5015733351831
30
0
41
1
10
58.2495397355127
20
85.5013858610826
30
0
41
1
10
58.1945964934225
20
85.5007401560024
30
0
41
1
10
58.114613171928
20
85.4996575726149
30
0
41
1
10
58.0212286393442
20
85.4982108260684
30
0
41
1
10
57.9209810020865
20
85.4966211188959
30
0
41
1
10
57.8674269297418
20
85.4957547222605
30
0
41
1
10
57.7816713373156
20
85.4943779391329
30
0
41
1
10
57.7521240005779
20
85.4939052948276
30
0
41
1
10
57.691885065342
20
85.4929511683747
30
0
41
1
10
57.6611189008163
20
85.4924684802775
30
0
41
1
10
57.5668988120074
20
85.4910126178536
30
0
41
1
10
57.4361540738472
20
85.4890512269791
30
0
41
1
10
57.295146173425
20
85.4871418148579
30
0
41
1
10
57.1854133910604
20
85.4857634807565
30
0
41
1
10
57.148171744465
20
85.4853129892772
30
0
41
1
10
57.0723225111423
20
85.4844357043435
30
0
41
1
10
57.0336019676024
20
85.4840078107613
30
0
41
1
10
56.9166887467068
20
85.4827824089889
30
0
41
1
10
56.7582584615806
20
85.4812972385481
30
0
41
1
10
56.5948341433179
20
85.4801696483712
30
0
41
1
10
56.4288838856715
20
85.4792480735537
30
0
41
1
10
56.3446461689919
20
85.4788902535657
30
0
41
1
10
56.2377007495322
20
85.478587592957
30
0
41
1
10
56.2162320938411
20
85.4785343293837
30
0
41
1
10
56.1734049858373
20
85.4784431048227
30
0
41
1
10
56.1092262486171
20
85.478328898613
30
0
41
1
10
56.0452310495533
20
85.478282366286
30
0
41
1
10
55.917481571255
20
85.4782786814119
30
0
41
1
10
55.7477903106257
20
85.4785121905421
30
0
41
1
10
55.5793723805818
20
85.4792090767279
30
0
41
1
10
55.4535482927369
20
85.4798979701234
30
0
41
1
10
55.4116193040155
20
85.4801559061135
30
0
41
1
10
55.3289184233972
20
85.4807181641951
30
0
41
1
10
55.2880298600642
20
85.4810230235207
30
0
41
1
10
55.1667190182313
20
85.4820021481528
30
0
41
1
10
55.008576497168
20
85.4834794958407
30
0
41
1
10
54.857493884807
20
85.48522831932
30
0
41
1
10
54.7652942699742
20
85.4863818626596
30
0
41
1
10
54.746965963576
20
85.4866155890613
30
0
41
1
10
54.7105341839849
20
85.4870884302237
30
0
41
1
10
54.6924386486268
20
85.4873274552368
30
0
41
1
10
54.6387943376279
20
85.4880474586455
30
0
41
1
10
54.603784443132
20
85.488532686785
30
0
41
1
10
54.5009532803863
20
85.4899951117706
30
0
41
1
10
54.3696964824349
20
85.4919629122423
30
0
41
1
10
54.2497859728582
20
85.4938731458468
30
0
41
1
10
54.1640999453048
20
85.4952484530819
30
0
41
1
10
54.1362434225769
20
85.4956973715246
30
0
41
1
10
54.081976989762
20
85.4965695931237
30
0
41
1
10
54.0557737022142
20
85.4969895549914
30
0
41
1
10
53.9798712206116
20
85.498193734439
30
0
41
1
10
53.8858738914381
20
85.4996506512535
30
0
41
1
10
53.8057583808611
20
85.5007355758641
30
0
41
1
10
53.7508268979727
20
85.501381785633
30
0
41
1
10
53.724651973344
20
85.5016630152742
30
0
41
1
10
53.7004243785302
20
85.5018760360145
30
0
41
1
10
53.6847077483976
20
85.502002279145
30
0
41
1
10
53.6770671661711
20
85.5020574927438
30
0
41
1
10
53.6501503297363
20
85.502228171315
30
0
41
1
10
53.632322543809
20
85.5022940421011
30
0
41
1
10
53.6161503312189
20
85.5022996145659
30
0
0
SPLINE
5
25B
100
AcDbEntity
8
1
62
256
6
ByLayer
370
18
48
1
60
0
100
AcDbSpline
70
4
71
3
72
31
73
27
40
0
40
0
40
0
40
0
40
0.0156249999999954
40
0.0156249999999954
40
0.031249999999991
40
0.0624999999999876
40
0.124999999999983
40
0.124999999999983
40
0.24999999999998
40
0.24999999999998
40
0.374999999999977
40
0.374999999999977
40
0.499999999999974
40
0.499999999999974
40
0.562499999999975
40
0.593749999999976
40
0.593749999999976
40
0.624999999999976
40
0.624999999999976
40
0.749999999999985
40
0.749999999999985
40
0.874999999999994
40
0.874999999999994
40
0.937499999999997
40
0.937499999999997
40
1
40
1
40
1
40
1
41
1
10
69
20
79.8954130836944
30
0
41
1
10
69.0109419476607
20
79.9210953143322
30
0
41
1
10
69.0219472673477
20
79.9468339545124
30
0
41
1
10
69.0439137529845
20
79.9980312311951
30
0
41
1
10
69.0768471051276
20
80.0745244931838
30
0
41
1
10
69.153540981265
20
80.2508996794901
30
0
41
1
10
69.2188976852671
20
80.3984939329649
30
0
41
1
10
69.348773733674
20
80.68897275245
30
0
41
1
10
69.4342462595345
20
80.876350034009
30
0
41
1
10
69.6011373097205
20
81.2388146794513
30
0
41
1
10
69.6825613692341
20
81.413901683566
30
0
41
1
10
69.8393098857049
20
81.7519112967341
30
0
41
1
10
69.914642551792
20
81.9148338094725
30
0
41
1
10
70.0212158175025
20
82.1500931047131
30
0
41
1
10
70.0728899806304
20
82.2654401547843
30
0
41
1
10
70.1217233479872
20
82.3773496059595
30
0
41
1
10
70.1535940275201
20
82.4511895231838
30
0
41
1
10
70.1691941771292
20
82.487742940061
30
0
41
1
10
70.2452600572027
20
82.6683918590804
30
0
41
1
10
70.2998020439628
20
82.8057327125957
30
0
41
1
10
70.3923263490519
20
83.0661276293855
30
0
41
1
10
70.4303494881968
20
83.1891816186517
30
0
41
1
10
70.4706874326695
20
83.3630056850972
30
0
41
1
10
70.4813334362613
20
83.4191532431696
30
0
41
1
10
70.4959869541333
20
83.5278422974781
30
0
41
1
10
70.5000000000001
20
83.5803837716652
30
0
41
1
10
70.5
20
83.6311093477431
30
0
0
SPLINE
5
25C
100
AcDbEntity
8
1
62
256
6
ByLayer
370
18
48
1
60
0
100
AcDbSpline
70
4
71
3
72
37
73
33
40
0
40
0
40
0
40
0
40
0.124999999999968
40
0.124999999999968
40
0.187499999999936
40
0.187499999999936
40
0.218749999999937
40
0.218749999999937
40
0.249999999999938
40
0.249999999999938
40
0.374999999999922
40
0.374999999999922
40
0.406249999999915
40
0.406249999999915
40
0.437499999999909
40
0.437499999999909
40
0.499999999999896
40
0.499999999999896
40
0.62499999999987
40
0.62499999999987
40
0.656249999999873
40
0.656249999999873
40
0.687499999999876
40
0.687499999999876
40
0.749999999999884
40
0.812499999999892
40
0.812499999999892
40
0.843749999999904
40
0.843749999999904
40
0.874999999999916
40
0.874999999999916
40
1
40
1
40
1
40
1
41
1
10
70.5
20
15.0112399890578
30
0
41
1
10
70.5000000000001
20
14.9121085231619
30
0
41
1
10
70.4903183062112
20
14.8146242324433
30
0
41
1
10
70.4618481680461
20
14.6707707423454
30
0
41
1
10
70.4500164152423
20
14.6232179804694
30
0
41
1
10
70.4286748086253
20
14.5525002916537
30
0
41
1
10
70.4209483581881
20
14.5289950369522
30
0
41
1
10
70.4043226771094
20
14.4823455311853
30
0
41
1
10
70.3954681586893
20
14.4593209842871
30
0
41
1
10
70.3485417692183
20
14.3456690239999
30
0
41
1
10
70.3025836954829
20
14.2594122621182
30
0
41
1
10
70.2347064702098
20
14.1573715684617
30
0
41
1
10
70.2206048699612
20
14.1372550328102
30
0
41
1
10
70.191332553926
20
14.0976144813328
30
0
41
1
10
70.1761234188104
20
14.0780441549303
30
0
41
1
10
70.1291375425905
20
14.0205847227976
30
0
41
1
10
70.0961715861499
20
13.9841252464066
30
0
41
1
10
69.9925026339727
20
13.8801128845677
30
0
41
1
10
69.9170736168915
20
13.8178753854847
30
0
41
1
10
69.8147085913673
20
13.7491647380032
30
0
41
1
10
69.7937675748099
20
13.7358459317113
30
0
41
1
10
69.7514058354548
20
13.7103563010305
30
0
41
1
10
69.7299905724148
20
13.6981834684801
30
0
41
1
10
69.6650547820071
20
13.6633487593864
30
0
41
1
10
69.5766369872772
20
13.6213846218396
30
0
41
1
10
69.4846033165409
20
13.5882441933976
30
0
41
1
10
69.414204373812
20
13.5667410440109
30
0
41
1
10
69.3905087070542
20
13.560133009316
30
0
41
1
10
69.342650589945
20
13.5480560173273
30
0
41
1
10
69.3184381955398
20
13.542578814561
30
0
41
1
10
69.1971984756797
20
13.5182987685279
30
0
41
1
10
69.0991374768898
20
13.5085539111405
30
0
41
1
10
69
20
13.5085539111404
30
0
0
SPLINE
5
25D
100
AcDbEntity
8
1
62
256
6
ByLayer
370
18
48
1
60
0
100
AcDbSpline
70
4
71
3
72
26
73
22
40
0
40
0
40
0
40
0
40
0.106262117466483
40
0.106262117466483
40
0.321802694869769
40
0.321802694869769
40
0.429572983571371
40
0.429572983571371
40
0.483458127922209
40
0.483458127922209
40
0.537343272273047
40
0.537343272273047
40
0.752883849676424
40
0.752883849676424
40
0.860654138378076
40
0.860654138378076
40
0.914539282728947
40
0.914539282728947
40
0.968424427079817
40
0.968424427079817
40
1
40
1
40
1
40
1
41
1
10
106.477352646585
20
86.0457036744453
30
0
41
1
10
106.470080583629
20
86.0771715799973
30
0
41
1
10
106.462194196778
20
86.1094181850574
30
0
41
1
10
106.436413920027
20
86.2094809185977
30
0
41
1
10
106.417049143635
20
86.2778550502064
30
0
41
1
10
106.384939754264
20
86.3822120929666
30
0
41
1
10
106.373722784002
20
86.4173044549086
30
0
41
1
10
106.356114818021
20
86.4704059582771
30
0
41
1
10
106.350114944563
20
86.4881837608268
30
0
41
1
10
106.337850441488
20
86.523896210507
30
0
41
1
10
106.331573553859
20
86.5418652314989
30
0
41
1
10
106.299660484298
20
86.6317029446093
30
0
41
1
10
106.272738578143
20
86.7027844860521
30
0
41
1
10
106.230259093398
20
86.8082386073432
30
0
41
1
10
106.215748113636
20
86.843194273281
30
0
41
1
10
106.193442118796
20
86.8953283844196
30
0
41
1
10
106.18591679482
20
86.9126564738757
30
0
41
1
10
106.170683105097
20
86.9472111546674
30
0
41
1
10
106.162956686495
20
86.9644772097375
30
0
41
1
10
106.150632547455
20
86.9916080476863
30
0
41
1
10
106.146066535546
20
87.0015732726237
30
0
41
1
10
106.141487936016
20
87.0114798783511
30
0
0
SPLINE
5
25E
100
AcDbEntity
8
1
62
256
6
ByLayer
370
18
48
1
60
0
100
AcDbSpline
70
4
71
3
72
8
73
4
40
0
40
0
40
0
40
0
40
1
40
1
40
1
40
1
41
1
10
94.5234805587871
20
37.63271950075
30
0
41
1
10
94.5627733519594
20
37.7791357242777
30
0
41
1
10
94.6020661425245
20
37.9255521590151
30
0
41
1
10
94.6413589316396
20
38.0719687112093
30
0
0
SPLINE
5
25F
100
AcDbEntity
8
1
62
256
6
ByLayer
370
18
48
1
60
0
100
AcDbSpline
70
4
71
3
72
8
73
4
40
0
40
0
40
0
40
0
40
1
40
1
40
1
40
1
41
1
10
93.3745005878408
20
37.63271950075
30
0
41
1
10
93.3280630200582
20
37.7791357242777
30
0
41
1
10
93.2816254553569
20
37.9255521590151
30
0
41
1
10
93.2351878923691
20
38.0719687112093
30
0
0
SPLINE
5
260
100
AcDbEntity
8
1
62
256
6
ByLayer
370
18
48
1
60
0
100
AcDbSpline
70
4
71
3
72
8
73
4
40
0
40
0
40
0
40
0
40
1
40
1
40
1
40
1
41
1
10
102.533534892204
20
37.63271950075
30
0
41
1
10
103.130038432202
20
37.7791357242777
30
0
41
1
10
103.726541932619
20
37.9255521590151
30
0
41
1
10
104.323045411025
20
38.0719687112093
30
0
0
SPLINE
5
261
100
AcDbEntity
8
1
62
256
6
ByLayer
370
18
48
1
60
0
100
AcDbSpline
70
4
71
3
72
8
73
4
40
0
40
0
40
0
40
0
40
1
40
1
40
1
40
1
41
1
10
102.533534892204
20
37.63271950075
30
0
41
1
10
102.521380049108
20
37.6326997761056
30
0
41
1
10
102.509221497715
20
37.6326997761056
30
0
41
1
10
102.497059261776
20
37.63271950075
30
0
0
SPLINE
5
262
100
AcDbEntity
8
1
62
256
6
ByLayer
370
18
48
1
60
0
100
AcDbSpline
70
4
71
3
72
8
73
4
40
0
40
0
40
0
40
0
40
1
40
1
40
1
40
1
41
1
10
102.497059261776
20
37.63271950075
30
0
41
1
10
103.093562801774
20
37.7791357242777
30
0
41
1
10
103.690066302192
20
37.9255521590151
30
0
41
1
10
104.286569780598
20
38.0719687112093
30
0
0
SPLINE
5
263
100
AcDbEntity
8
1
62
256
6
ByLayer
370
18
48
1
60
0
100
AcDbSpline
70
4
71
3
72
10
73
6
40
0
40
0
40
0
40
0
40
0.876183133825517
40
0.876183133825517
40
1
40
1
40
1
40
1
41
1
10
103.526880433937
20
38.0719687112093
30
0
41
1
10
102.809436530273
20
37.88104162472
30
0
41
1
10
102.091992593587
20
37.6901147292779
30
0
41
1
10
101.273163763157
20
37.4722076961469
30
0
41
1
10
101.171778941885
20
37.4452271391851
30
0
41
1
10
101.070394118847
20
37.4182465924386
30
0
0
SPLINE
5
264
100
AcDbEntity
8
1
62
256
6
ByLayer
370
18
48
1
60
0
100
AcDbSpline
70
4
71
3
72
8
73
4
40
0
40
0
40
0
40
0
40
1
40
1
40
1
40
1
41
1
10
101.02599269057
20
37.4182465924386
30
0
41
1
10
101.040796959929
20
37.4182246124231
30
0
41
1
10
101.055597447988
20
37.4182246124231
30
0
41
1
10
101.070394118847
20
37.4182465924386
30
0
0
SPLINE
5
265
100
AcDbEntity
8
1
62
256
6
ByLayer
370
18
48
1
60
0
100
AcDbSpline
70
4
71
3
72
10
73
6
40
0
40
0
40
0
40
0
40
0.876183133825517
40
0.876183133825517
40
1
40
1
40
1
40
1
41
1
10
103.48247900566
20
38.0719687112093
30
0
41
1
10
102.765035101996
20
37.88104162472
30
0
41
1
10
102.04759116531
20
37.6901147292779
30
0
41
1
10
101.22876233488
20
37.4722076961469
30
0
41
1
10
101.127377513608
20
37.4452271391851
30
0
41
1
10
101.02599269057
20
37.4182465924386
30
0
0
SPLINE
5
266
100
AcDbEntity
8
1
62
256
6
ByLayer
370
18
48
1
60
0
100
AcDbSpline
70
4
71
3
72
8
73
4
40
0
40
0
40
0
40
0
40
1
40
1
40
1
40
1
41
1
10
101.094887632288
20
37.63271950075
30
0
41
1
10
101.590082069963
20
37.7791357242777
30
0
41
1
10
102.08527647478
20
37.9255521590151
30
0
41
1
10
102.580470861324
20
38.0719687112093
30
0
0
SPLINE
5
267
100
AcDbEntity
8
1
62
256
6
ByLayer
370
18
48
1
60
0
100
AcDbSpline
70
4
71
3
72
8
73
4
40
0
40
0
40
0
40
0
40
1
40
1
40
1
40
1
41
1
10
101.094887632288
20
37.63271950075
30
0
41
1
10
101.077681710159
20
37.6326997761056
30
0
41
1
10
101.060472702594
20
37.6326997761056
30
0
41
1
10
101.04326064321
20
37.63271950075
30
0
0
SPLINE
5
268
100
AcDbEntity
8
1
62
256
6
ByLayer
370
18
48
1
60
0
100
AcDbSpline
70
4
71
3
72
8
73
4
40
0
40
0
40
0
40
0
40
1
40
1
40
1
40
1
41
1
10
101.04326064321
20
37.63271950075
30
0
41
1
10
101.538455080885
20
37.7791357242777
30
0
41
1
10
102.033649485702
20
37.9255521590151
30
0
41
1
10
102.528843872245
20
38.0719687112093
30
0
0
SPLINE
5
269
100
AcDbEntity
8
1
62
256
6
ByLayer
370
18
48
1
60
0
100
AcDbSpline
70
4
71
3
72
8
73
4
40
0
40
0
40
0
40
0
40
1
40
1
40
1
40
1
41
1
10
100.201566263078
20
37.63271950075
30
0
41
1
10
100.633958245665
20
37.7791357242777
30
0
41
1
10
101.066350199561
20
37.9255521590151
30
0
41
1
10
101.498742137502
20
38.0719687112093
30
0
0
SPLINE
5
26A
100
AcDbEntity
8
1
62
256
6
ByLayer
370
18
48
1
60
0
100
AcDbSpline
70
4
71
3
72
8
73
4
40
0
40
0
40
0
40
0
40
1
40
1
40
1
40
1
41
1
10
100.201566263078
20
37.63271950075
30
0
41
1
10
100.182222828356
20
37.6326997761056
30
0
41
1
10
100.162876695285
20
37.6326997761056
30
0
41
1
10
100.143527901657
20
37.63271950075
30
0
0
SPLINE
5
26B
100
AcDbEntity
8
1
62
256
6
ByLayer
370
18
48
1
60
0
100
AcDbSpline
70
4
71
3
72
8
73
4
40
0
40
0
40
0
40
0
40
1
40
1
40
1
40
1
41
1
10
100.143527901657
20
37.63271950075
30
0
41
1
10
100.575919884244
20
37.7791357242777
30
0
41
1
10
101.00831183814
20
37.9255521590151
30
0
41
1
10
101.44070377608
20
38.0719687112093
30
0
0
SPLINE
5
26C
100
AcDbEntity
8
1
62
256
6
ByLayer
370
18
48
1
60
0
100
AcDbSpline
70
4
71
3
72
8
73
4
40
0
40
0
40
0
40
0
40
1
40
1
40
1
40
1
41
1
10
99.2104424892639
20
37.63271950075
30
0
41
1
10
99.5732129368991
20
37.7791357242777
30
0
41
1
10
99.9359833604629
20
37.9255521590151
30
0
41
1
10
100.29875377064
20
38.0719687112093
30
0
0
SPLINE
5
26D
100
AcDbEntity
8
1
62
256
6
ByLayer
370
18
48
1
60
0
100
AcDbSpline
70
4
71
3
72
8
73
4
40
0
40
0
40
0
40
0
40
1
40
1
40
1
40
1
41
1
10
99.2104424892639
20
37.63271950075
30
0
41
1
10
99.1892665994686
20
37.6326997761056
30
0
41
1
10
99.1680884409673
20
37.6326997761056
30
0
41
1
10
99.1469080551296
20
37.63271950075
30
0
0
SPLINE
5
26E
100
AcDbEntity
8
1
62
256
6
ByLayer
370
18
48
1
60
0
100
AcDbSpline
70
4
71
3
72
8
73
4
40
0
40
0
40
0
40
0
40
1
40
1
40
1
40
1
41
1
10
99.1469080551296
20
37.63271950075
30
0
41
1
10
99.5096785027648
20
37.7791357242777
30
0
41
1
10
99.8724489263286
20
37.9255521590151
30
0
41
1
10
100.235219336506
20
38.0719687112093
30
0
0
SPLINE
5
26F
100
AcDbEntity
8
1
62
256
6
ByLayer
370
18
48
1
60
0
100
AcDbSpline
70
4
71
3
72
8
73
4
40
0
40
0
40
0
40
0
40
1
40
1
40
1
40
1
41
1
10
98.1371469248264
20
37.63271950075
30
0
41
1
10
98.4245747308419
20
37.7791357242777
30
0
41
1
10
98.7120025177854
20
37.9255521590151
30
0
41
1
10
98.9994302941225
20
38.0719687112093
30
0
0
SPLINE
5
270
100
AcDbEntity
8
1
62
256
6
ByLayer
370
18
48
1
60
0
100
AcDbSpline
70
4
71
3
72
8
73
4
40
0
40
0
40
0
40
0
40
1
40
1
40
1
40
1
41
1
10
98.1371469248264
20
37.63271950075
30
0
41
1
10
98.1144725363899
20
37.6326997761056
30
0
41
1
10
98.0917963446689
20
37.6326997761056
30
0
41
1
10
98.0691183939589
20
37.63271950075
30
0
0
SPLINE
5
271
100
AcDbEntity
8
1
62
256
6
ByLayer
370
18
48
1
60
0
100
AcDbSpline
70
4
71
3
72
8
73
4
40
0
40
0
40
0
40
0
40
1
40
1
40
1
40
1
41
1
10
98.0691183939589
20
37.63271950075
30
0
41
1
10
98.3565461999745
20
37.7791357242777
30
0
41
1
10
98.643973986918
20
37.9255521590151
30
0
41
1
10
98.9314017632551
20
38.0719687112093
30
0
0
SPLINE
5
272
100
AcDbEntity
8
1
62
256
6
ByLayer
370
18
48
1
60
0
100
AcDbSpline
70
4
71
3
72
8
73
4
40
0
40
0
40
0
40
0
40
1
40
1
40
1
40
1
41
1
10
97.6212628153516
20
38.0719687112093
30
0
41
1
10
97.3123685153249
20
37.8540609712421
30
0
41
1
10
97.003474199706
20
37.6361534703958
30
0
41
1
10
96.6945798434715
20
37.4182465924386
30
0
0
SPLINE
5
273
100
AcDbEntity
8
1
62
256
6
ByLayer
370
18
48
1
60
0
100
AcDbSpline
70
4
71
3
72
8
73
4
40
0
40
0
40
0
40
0
40
1
40
1
40
1
40
1
41
1
10
96.623130066441
20
37.4182465924386
30
0
41
1
10
96.6469480823823
20
37.4182246124231
30
0
41
1
10
96.6707646939828
20
37.4182246124231
30
0
41
1
10
96.6945798434715
20
37.4182465924386
30
0
0
SPLINE
5
274
100
AcDbEntity
8
1
62
256
6
ByLayer
370
18
48
1
60
0
100
AcDbSpline
70
4
71
3
72
8
73
4
40
0
40
0
40
0
40
0
40
1
40
1
40
1
40
1
41
1
10
97.5498130383211
20
38.0719687112093
30
0
41
1
10
97.2409187382943
20
37.8540609712421
30
0
41
1
10
96.9320244226755
20
37.6361534703958
30
0
41
1
10
96.623130066441
20
37.4182465924386
30
0
0
SPLINE
5
275
100
AcDbEntity
8
1
62
256
6
ByLayer
370
18
48
1
60
0
100
AcDbSpline
70
4
71
3
72
8
73
4
40
0
40
0
40
0
40
0
40
1
40
1
40
1
40
1
41
1
10
95.8127754299255
20
37.63271950075
30
0
41
1
10
95.9371789132321
20
37.7791357242777
30
0
41
1
10
96.0615823882839
20
37.9255521590151
30
0
41
1
10
96.1859858587451
20
38.0719687112093
30
0
0
SPLINE
5
276
100
AcDbEntity
8
1
62
256
6
ByLayer
370
18
48
1
60
0
100
AcDbSpline
70
4
71
3
72
8
73
4
40
0
40
0
40
0
40
0
40
1
40
1
40
1
40
1
41
1
10
95.8127754299256
20
37.63271950075
30
0
41
1
10
95.7881948029911
20
37.6326997761056
30
0
41
1
10
95.7636133811428
20
37.6326997761056
30
0
41
1
10
95.7390312123978
20
37.63271950075
30
0
0
SPLINE
5
277
100
AcDbEntity
8
1
62
256
6
ByLayer
370
18
48
1
60
0
100
AcDbSpline
70
4
71
3
72
8
73
4
40
0
40
0
40
0
40
0
40
1
40
1
40
1
40
1
41
1
10
95.7390312123978
20
37.63271950075
30
0
41
1
10
95.8634346957043
20
37.7791357242777
30
0
41
1
10
95.9878381707561
20
37.9255521590151
30
0
41
1
10
96.1122416412173
20
38.0719687112093
30
0
0
SPLINE
5
278
100
AcDbEntity
8
1
62
256
6
ByLayer
370
18
48
1
60
0
100
AcDbSpline
70
4
71
3
72
8
73
4
40
0
40
0
40
0
40
0
40
1
40
1
40
1
40
1
41
1
10
94.5983562264491
20
37.63271950075
30
0
41
1
10
94.5733979221776
20
37.6326997761056
30
0
41
1
10
94.5484393500389
20
37.6326997761056
30
0
41
1
10
94.5234805587871
20
37.63271950075
30
0
0
SPLINE
5
279
100
AcDbEntity
8
1
62
256
6
ByLayer
370
18
48
1
60
0
100
AcDbSpline
70
4
71
3
72
8
73
4
40
0
40
0
40
0
40
0
40
1
40
1
40
1
40
1
41
1
10
93.3745005878408
20
37.63271950075
30
0
41
1
10
93.3495582136
20
37.6326997761056
30
0
41
1
10
93.3246161027632
20
37.6326997761056
30
0
41
1
10
93.2996743040522
20
37.63271950075
30
0
0
SPLINE
5
27A
100
AcDbEntity
8
1
62
256
6
ByLayer
370
18
48
1
60
0
100
AcDbSpline
70
4
71
3
72
8
73
4
40
0
40
0
40
0
40
0
40
1
40
1
40
1
40
1
41
1
10
92.1605094486176
20
37.63271950075
30
0
41
1
10
92.0290738680644
20
37.7791357242777
30
0
41
1
10
91.8976382962325
20
37.9255521590151
30
0
41
1
10
91.7662027292507
20
38.0719687112093
30
0
0
SPLINE
5
27B
100
AcDbEntity
8
1
62
256
6
ByLayer
370
18
48
1
60
0
100
AcDbSpline
70
4
71
3
72
8
73
4
40
0
40
0
40
0
40
0
40
1
40
1
40
1
40
1
41
1
10
92.1605094486176
20
37.63271950075
30
0
41
1
10
92.135976360549
20
37.6326997761056
30
0
41
1
10
92.1114440630016
20
37.6326997761056
30
0
41
1
10
92.0869126038968
20
37.63271950075
30
0
0
SPLINE
5
27C
100
AcDbEntity
8
1
62
256
6
ByLayer
370
18
48
1
60
0
100
AcDbSpline
70
4
71
3
72
8
73
4
40
0
40
0
40
0
40
0
40
1
40
1
40
1
40
1
41
1
10
92.0869126038968
20
37.63271950075
30
0
41
1
10
91.9554770233436
20
37.7791357242777
30
0
41
1
10
91.8240414515117
20
37.9255521590151
30
0
41
1
10
91.6926058845299
20
38.0719687112093
30
0
0
SPLINE
5
27D
100
AcDbEntity
8
1
62
256
6
ByLayer
370
18
48
1
60
0
100
AcDbSpline
70
4
71
3
72
8
73
4
40
0
40
0
40
0
40
0
40
1
40
1
40
1
40
1
41
1
10
90.3324458834978
20
38.0719687112093
30
0
41
1
10
90.651473115377
20
37.8540609712421
30
0
41
1
10
90.9705003633598
20
37.6361534703958
30
0
41
1
10
91.2895276532906
20
37.4182465924386
30
0
0
SPLINE
5
27E
100
AcDbEntity
8
1
62
256
6
ByLayer
370
18
48
1
60
0
100
AcDbSpline
70
4
71
3
72
8
73
4
40
0
40
0
40
0
40
0
40
1
40
1
40
1
40
1
41
1
10
91.2183209138435
20
37.4182465924386
30
0
41
1
10
91.2420550038218
20
37.4182246124231
30
0
41
1
10
91.265790602829
20
37.4182246124231
30
0
41
1
10
91.2895276532906
20
37.4182465924386
30
0
0
SPLINE
5
27F
100
AcDbEntity
8
1
62
256
6
ByLayer
370
18
48
1
60
0
100
AcDbSpline
70
4
71
3
72
8
73
4
40
0
40
0
40
0
40
0
40
1
40
1
40
1
40
1
41
1
10
90.2612391440506
20
38.0719687112093
30
0
41
1
10
90.5802663759299
20
37.8540609712421
30
0
41
1
10
90.8992936239127
20
37.6361534703958
30
0
41
1
10
91.2183209138435
20
37.4182465924386
30
0
0
SPLINE
5
280
100
AcDbEntity
8
1
62
256
6
ByLayer
370
18
48
1
60
0
100
AcDbSpline
70
4
71
3
72
8
73
4
40
0
40
0
40
0
40
0
40
1
40
1
40
1
40
1
41
1
10
89.8382446273025
20
37.63271950075
30
0
41
1
10
89.5443392539361
20
37.7791357242777
30
0
41
1
10
89.2504339000718
20
37.9255521590151
30
0
41
1
10
88.9565285570528
20
38.0719687112093
30
0
0
SPLINE
5
281
100
AcDbEntity
8
1
62
256
6
ByLayer
370
18
48
1
60
0
100
AcDbSpline
70
4
71
3
72
8
73
4
40
0
40
0
40
0
40
0
40
1
40
1
40
1
40
1
41
1
10
89.8382446273025
20
37.63271950075
30
0
41
1
10
89.8156782595864
20
37.6326997761056
30
0
41
1
10
89.7931136911087
20
37.6326997761056
30
0
41
1
10
89.7705509659469
20
37.63271950075
30
0
0
SPLINE
5
282
100
AcDbEntity
8
1
62
256
6
ByLayer
370
18
48
1
60
0
100
AcDbSpline
70
4
71
3
72
8
73
4
40
0
40
0
40
0
40
0
40
1
40
1
40
1
40
1
41
1
10
89.7705509659469
20
37.63271950075
30
0
41
1
10
89.4766455925806
20
37.7791357242777
30
0
41
1
10
89.1827402387162
20
37.9255521590151
30
0
41
1
10
88.8888348956972
20
38.0719687112093
30
0
0
SPLINE
5
283
100
AcDbEntity
8
1
62
256
6
ByLayer
370
18
48
1
60
0
100
AcDbSpline
70
4
71
3
72
8
73
4
40
0
40
0
40
0
40
0
40
1
40
1
40
1
40
1
41
1
10
88.7665944486965
20
37.63271950075
30
0
41
1
10
88.3977795409751
20
37.7791357242777
30
0
41
1
10
88.0289646577261
20
37.9255521590151
30
0
41
1
10
87.6601497880868
20
38.0719687112093
30
0
0
SPLINE
5
284
100
AcDbEntity
8
1
62
256
6
ByLayer
370
18
48
1
60
0
100
AcDbSpline
70
4
71
3
72
8
73
4
40
0
40
0
40
0
40
0
40
1
40
1
40
1
40
1
41
1
10
88.7665944486965
20
37.63271950075
30
0
41
1
10
88.745554498806
20
37.6326997761056
30
0
41
1
10
88.7245168138456
20
37.6326997761056
30
0
41
1
10
88.7034814349103
20
37.63271950075
30
0
0
SPLINE
5
285
100
AcDbEntity
8
1
62
256
6
ByLayer
370
18
48
1
60
0
100
AcDbSpline
70
4
71
3
72
8
73
4
40
0
40
0
40
0
40
0
40
1
40
1
40
1
40
1
41
1
10
88.7034814349103
20
37.63271950075
30
0
41
1
10
88.3346665271889
20
37.7791357242777
30
0
41
1
10
87.96585164394
20
37.9255521590151
30
0
41
1
10
87.5970367743006
20
38.0719687112093
30
0
0
SPLINE
5
286
100
AcDbEntity
8
1
62
256
6
ByLayer
370
18
48
1
60
0
100
AcDbSpline
70
4
71
3
72
8
73
4
40
0
40
0
40
0
40
0
40
1
40
1
40
1
40
1
41
1
10
87.7774782019195
20
37.63271950075
30
0
41
1
10
87.3395701912571
20
37.7791357242777
30
0
41
1
10
86.9016622096518
20
37.9255521590151
30
0
41
1
10
86.4637542442057
20
38.0719687112093
30
0
0
SPLINE
5
287
100
AcDbEntity
8
1
62
256
6
ByLayer
370
18
48
1
60
0
100
AcDbSpline
70
4
71
3
72
8
73
4
40
0
40
0
40
0
40
0
40
1
40
1
40
1
40
1
41
1
10
87.7774782019195
20
37.63271950075
30
0
41
1
10
87.758296482433
20
37.6326997761056
30
0
41
1
10
87.7391174578491
20
37.6326997761056
30
0
41
1
10
87.7199411656321
20
37.63271950075
30
0
0
SPLINE
5
288
100
AcDbEntity
8
1
62
256
6
ByLayer
370
18
48
1
60
0
100
AcDbSpline
70
4
71
3
72
8
73
4
40
0
40
0
40
0
40
0
40
1
40
1
40
1
40
1
41
1
10
87.7199411656321
20
37.63271950075
30
0
41
1
10
87.2820331549696
20
37.7791357242777
30
0
41
1
10
86.8441251733644
20
37.9255521590151
30
0
41
1
10
86.4062172079182
20
38.0719687112093
30
0
0
SPLINE
5
289
100
AcDbEntity
8
1
62
256
6
ByLayer
370
18
48
1
60
0
100
AcDbSpline
70
4
71
3
72
8
73
4
40
0
40
0
40
0
40
0
40
1
40
1
40
1
40
1
41
1
10
86.8864948410526
20
37.63271950075
30
0
41
1
10
86.3863997983709
20
37.7791357242777
30
0
41
1
10
85.8863047888727
20
37.9255521590151
30
0
41
1
10
85.3862097978284
20
38.0719687112093
30
0
0
SPLINE
5
28A
100
AcDbEntity
8
1
62
256
6
ByLayer
370
18
48
1
60
0
100
AcDbSpline
70
4
71
3
72
8
73
4
40
0
40
0
40
0
40
0
40
1
40
1
40
1
40
1
41
1
10
86.8864948410526
20
37.63271950075
30
0
41
1
10
86.869473859145
20
37.6326997761056
30
0
41
1
10
86.8524559596122
20
37.6326997761056
30
0
41
1
10
86.835441175697
20
37.63271950075
30
0
0
SPLINE
5
28B
100
AcDbEntity
8
1
62
256
6
ByLayer
370
18
48
1
60
0
100
AcDbSpline
70
4
71
3
72
8
73
4
40
0
40
0
40
0
40
0
40
1
40
1
40
1
40
1
41
1
10
86.8354411756971
20
37.63271950075
30
0
41
1
10
86.3353461330153
20
37.7791357242777
30
0
41
1
10
85.8352511235171
20
37.9255521590151
30
0
41
1
10
85.3351561324728
20
38.0719687112093
30
0
0
SPLINE
5
28C
100
AcDbEntity
8
1
62
256
6
ByLayer
370
18
48
1
60
0
100
AcDbSpline
70
4
71
3
72
8
73
4
40
0
40
0
40
0
40
0
40
1
40
1
40
1
40
1
41
1
10
84.4445099685682
20
38.0719687112093
30
0
41
1
10
85.2696011731124
20
37.8540609712421
30
0
41
1
10
86.0946924193047
20
37.6361534703958
30
0
41
1
10
86.9197837739861
20
37.4182465924386
30
0
0
SPLINE
5
28D
100
AcDbEntity
8
1
62
256
6
ByLayer
370
18
48
1
60
0
100
AcDbSpline
70
4
71
3
72
8
73
4
40
0
40
0
40
0
40
0
40
1
40
1
40
1
40
1
41
1
10
86.8760186263631
20
37.4182465924386
30
0
41
1
10
86.8906031746986
20
37.4182246124231
30
0
41
1
10
86.9051915690351
20
37.4182246124231
30
0
41
1
10
86.9197837739861
20
37.4182465924386
30
0
0
SPLINE
5
28E
100
AcDbEntity
8
1
62
256
6
ByLayer
370
18
48
1
60
0
100
AcDbSpline
70
4
71
3
72
8
73
4
40
0
40
0
40
0
40
0
40
1
40
1
40
1
40
1
41
1
10
84.4007448209452
20
38.0719687112093
30
0
41
1
10
85.2258360254894
20
37.8540609712421
30
0
41
1
10
86.0509272716818
20
37.6361534703958
30
0
41
1
10
86.8760186263631
20
37.4182465924386
30
0
0
SPLINE
5
28F
100
AcDbEntity
8
1
62
256
6
ByLayer
370
18
48
1
60
0
100
AcDbSpline
70
4
71
3
72
8
73
4
40
0
40
0
40
0
40
0
40
1
40
1
40
1
40
1
41
1
10
85.4533629241873
20
37.63271950075
30
0
41
1
10
84.8534105572979
20
37.7791357242777
30
0
41
1
10
84.253458230218
20
37.9255521590151
30
0
41
1
10
83.6535059252768
20
38.0719687112093
30
0
0
SPLINE
5
290
100
AcDbEntity
8
1
62
256
6
ByLayer
370
18
48
1
60
0
100
AcDbSpline
70
4
71
3
72
8
73
4
40
0
40
0
40
0
40
0
40
1
40
1
40
1
40
1
41
1
10
85.4533629241874
20
37.63271950075
30
0
41
1
10
85.4414304011546
20
37.6326997761056
30
0
41
1
10
85.4295015842645
20
37.6326997761056
30
0
41
1
10
85.4175764968189
20
37.63271950075
30
0
0
SPLINE
5
291
100
AcDbEntity
8
1
62
256
6
ByLayer
370
18
48
1
60
0
100
AcDbSpline
70
4
71
3
72
8
73
4
40
0
40
0
40
0
40
0
40
1
40
1
40
1
40
1
41
1
10
85.4175764968189
20
37.63271950075
30
0
41
1
10
84.8176241299295
20
37.7791357242777
30
0
41
1
10
84.2176718028496
20
37.9255521590151
30
0
41
1
10
83.6177194979084
20
38.0719687112093
30
0
0
SPLINE
5
292
100
AcDbEntity
8
1
62
256
6
ByLayer
370
18
48
1
60
0
100
AcDbSpline
70
4
71
3
72
8
73
4
40
0
40
0
40
0
40
0
40
1
40
1
40
1
40
1
41
1
10
84.9338157146295
20
37.63271950075
30
0
41
1
10
84.2977678652063
20
37.7791357242777
30
0
41
1
10
83.6617200579876
20
37.9255521590151
30
0
41
1
10
83.0256722742398
20
38.0719687112093
30
0
0
SPLINE
5
293
100
AcDbEntity
8
1
62
256
6
ByLayer
370
18
48
1
60
0
100
AcDbSpline
70
4
71
3
72
8
73
4
40
0
40
0
40
0
40
0
40
1
40
1
40
1
40
1
41
1
10
84.9338157146295
20
37.63271950075
30
0
41
1
10
84.9247306648566
20
37.6326997761056
30
0
41
1
10
84.9156495476847
20
37.6326997761056
30
0
41
1
10
84.906572380853
20
37.63271950075
30
0
0
SPLINE
5
294
100
AcDbEntity
8
1
62
256
6
ByLayer
370
18
48
1
60
0
100
AcDbSpline
70
4
71
3
72
8
73
4
40
0
40
0
40
0
40
0
40
1
40
1
40
1
40
1
41
1
10
84.906572380853
20
37.63271950075
30
0
41
1
10
84.2705245314298
20
37.7791357242777
30
0
41
1
10
83.6344767242112
20
37.9255521590151
30
0
41
1
10
82.9984289404633
20
38.0719687112093
30
0
0
SPLINE
5
295
100
AcDbEntity
8
1
62
256
6
ByLayer
370
18
48
1
60
0
100
AcDbSpline
70
4
71
3
72
8
73
4
40
0
40
0
40
0
40
0
40
1
40
1
40
1
40
1
41
1
10
84.5572476471278
20
37.63271950075
30
0
41
1
10
83.8951351697128
20
37.7791357242777
30
0
41
1
10
83.2330227362319
20
37.9255521590151
30
0
41
1
10
82.5709103271835
20
38.0719687112093
30
0
0
SPLINE
5
296
100
AcDbEntity
8
1
62
256
6
ByLayer
370
18
48
1
60
0
100
AcDbSpline
70
4
71
3
72
8
73
4
40
0
40
0
40
0
40
0
40
1
40
1
40
1
40
1
41
1
10
84.5572476471278
20
37.63271950075
30
0
41
1
10
84.5511533472769
20
37.6326997761056
30
0
41
1
10
84.5450631444658
20
37.6326997761056
30
0
41
1
10
84.5389770505914
20
37.63271950075
30
0
0
SPLINE
5
297
100
AcDbEntity
8
1
62
256
6
ByLayer
370
18
48
1
60
0
100
AcDbSpline
70
4
71
3
72
8
73
4
40
0
40
0
40
0
40
0
40
1
40
1
40
1
40
1
41
1
10
84.5389770505914
20
37.63271950075
30
0
41
1
10
83.8768645731764
20
37.7791357242777
30
0
41
1
10
83.2147521396955
20
37.9255521590151
30
0
41
1
10
82.5526397306471
20
38.0719687112093
30
0
0
SPLINE
5
298
100
AcDbEntity
8
1
62
256
6
ByLayer
370
18
48
1
60
0
100
AcDbSpline
70
4
71
3
72
8
73
4
40
0
40
0
40
0
40
0
40
1
40
1
40
1
40
1
41
1
10
84.3295974250578
20
37.63271950075
30
0
41
1
10
83.6518622289467
20
37.7791357242777
30
0
41
1
10
82.9741270778063
20
37.9255521590151
30
0
41
1
10
82.2963919516748
20
38.0719687112093
30
0
0
SPLINE
5
299
100
AcDbEntity
8
1
62
256
6
ByLayer
370
18
48
1
60
0
100
AcDbSpline
70
4
71
3
72
8
73
4
40
0
40
0
40
0
40
0
40
1
40
1
40
1
40
1
41
1
10
84.3295974250578
20
37.63271950075
30
0
41
1
10
84.326589985878
20
37.6326997761056
30
0
41
1
10
84.3235867435642
20
37.6326997761056
30
0
41
1
10
84.3205877039831
20
37.63271950075
30
0
0
SPLINE
5
29A
100
AcDbEntity
8
1
62
256
6
ByLayer
370
18
48
1
60
0
100
AcDbSpline
70
4
71
3
72
8
73
4
40
0
40
0
40
0
40
0
40
1
40
1
40
1
40
1
41
1
10
84.3205877039831
20
37.63271950075
30
0
41
1
10
83.6428525078719
20
37.7791357242777
30
0
41
1
10
82.9651173567315
20
37.9255521590151
30
0
41
1
10
82.2873822306
20
38.0719687112093
30
0
0
SPLINE
5
29B
100
AcDbEntity
8
1
62
256
6
ByLayer
370
18
48
1
60
0
100
AcDbSpline
70
4
71
3
72
8
73
4
40
0
40
0
40
0
40
0
40
1
40
1
40
1
40
1
41
1
10
105.793553533515
20
38.0719687112093
30
0
41
1
10
104.777555152623
20
37.8540609712421
30
0
41
1
10
103.761556720447
20
37.6361534703958
30
0
41
1
10
102.74555815468
20
37.4182465924386
30
0
0
SPLINE
5
29C
100
AcDbEntity
8
1
62
256
6
ByLayer
370
18
48
1
60
0
100
AcDbSpline
70
4
71
3
72
8
73
4
40
0
40
0
40
0
40
0
40
1
40
1
40
1
40
1
41
1
10
102.745164911609
20
37.4182465924386
30
0
41
1
10
102.74530070667
20
37.4182246124231
30
0
41
1
10
102.7454317878
20
37.4182246124231
30
0
41
1
10
102.74555815468
20
37.4182465924386
30
0
0
SPLINE
5
29D
100
AcDbEntity
8
1
62
256
6
ByLayer
370
18
48
1
60
0
100
AcDbSpline
70
4
71
3
72
8
73
4
40
0
40
0
40
0
40
0
40
1
40
1
40
1
40
1
41
1
10
105.793160290445
20
38.0719687112093
30
0
41
1
10
104.777161909553
20
37.8540609712421
30
0
41
1
10
103.761163477376
20
37.6361534703958
30
0
41
1
10
102.745164911609
20
37.4182465924386
30
0
0
SPLINE
5
29E
100
AcDbEntity
8
1
62
256
6
ByLayer
370
18
48
1
60
0
100
AcDbSpline
70
4
71
3
72
8
73
4
40
0
40
0
40
0
40
0
40
1
40
1
40
1
40
1
41
1
10
103.666993905477
20
37.63271950075
30
0
41
1
10
104.343831853369
20
37.7791357242777
30
0
41
1
10
105.02066975635
20
37.9255521590151
30
0
41
1
10
105.697507634354
20
38.0719687112093
30
0
0
SPLINE
5
29F
100
AcDbEntity
8
1
62
256
6
ByLayer
370
18
48
1
60
0
100
AcDbSpline
70
4
71
3
72
8
73
4
40
0
40
0
40
0
40
0
40
1
40
1
40
1
40
1
41
1
10
103.666993905477
20
37.63271950075
30
0
41
1
10
103.6637347656
20
37.6326997761056
30
0
41
1
10
103.660471428296
20
37.6326997761056
30
0
41
1
10
103.65720389994
20
37.63271950075
30
0
0
SPLINE
5
2A0
100
AcDbEntity
8
1
62
256
6
ByLayer
370
18
48
1
60
0
100
AcDbSpline
70
4
71
3
72
8
73
4
40
0
40
0
40
0
40
0
40
1
40
1
40
1
40
1
41
1
10
103.65720389994
20
37.63271950075
30
0
41
1
10
104.334041847832
20
37.7791357242777
30
0
41
1
10
105.010879750812
20
37.9255521590151
30
0
41
1
10
105.687717628817
20
38.0719687112093
30
0
0
SPLINE
5
2A1
100
AcDbEntity
8
1
62
256
6
ByLayer
370
18
48
1
60
0
100
AcDbSpline
70
4
71
3
72
8
73
4
40
0
40
0
40
0
40
0
40
1
40
1
40
1
40
1
41
1
10
103.435988770696
20
37.63271950075
30
0
41
1
10
104.096320901813
20
37.7791357242777
30
0
41
1
10
104.756652989113
20
37.9255521590151
30
0
41
1
10
105.416985052047
20
38.0719687112093
30
0
0
SPLINE
5
2A2
100
AcDbEntity
8
1
62
256
6
ByLayer
370
18
48
1
60
0
100
AcDbSpline
70
4
71
3
72
8
73
4
40
0
40
0
40
0
40
0
40
1
40
1
40
1
40
1
41
1
10
103.435988770696
20
37.63271950075
30
0
41
1
10
103.429648740128
20
37.6326997761056
30
0
41
1
10
103.423304611407
20
37.6326997761056
30
0
41
1
10
103.416956396927
20
37.63271950075
30
0
0
SPLINE
5
2A3
100
AcDbEntity
8
1
62
256
6
ByLayer
370
18
48
1
60
0
100
AcDbSpline
70
4
71
3
72
8
73
4
40
0
40
0
40
0
40
0
40
1
40
1
40
1
40
1
41
1
10
103.416956396927
20
37.63271950075
30
0
41
1
10
104.077288528044
20
37.7791357242777
30
0
41
1
10
104.737620615344
20
37.9255521590151
30
0
41
1
10
105.397952678278
20
38.0719687112093
30
0
0
SPLINE
5
2A4
100
AcDbEntity
8
1
62
256
6
ByLayer
370
18
48
1
60
0
100
AcDbSpline
70
4
71
3
72
8
73
4
40
0
40
0
40
0
40
0
40
1
40
1
40
1
40
1
41
1
10
103.056172456215
20
37.63271950075
30
0
41
1
10
103.689584938385
20
37.7791357242777
30
0
41
1
10
104.322997378526
20
37.9255521590151
30
0
41
1
10
104.956409795293
20
38.0719687112093
30
0
0
SPLINE
5
2A5
100
AcDbEntity
8
1
62
256
6
ByLayer
370
18
48
1
60
0
100
AcDbSpline
70
4
71
3
72
8
73
4
40
0
40
0
40
0
40
0
40
1
40
1
40
1
40
1
41
1
10
103.056172456215
20
37.63271950075
30
0
41
1
10
103.046851521025
20
37.6326997761056
30
0
41
1
10
103.037526651587
20
37.6326997761056
30
0
41
1
10
103.028197866118
20
37.63271950075
30
0
0
SPLINE
5
2A6
100
AcDbEntity
8
1
62
256
6
ByLayer
370
18
48
1
60
0
100
AcDbSpline
70
4
71
3
72
8
73
4
40
0
40
0
40
0
40
0
40
1
40
1
40
1
40
1
41
1
10
103.028197866118
20
37.63271950075
30
0
41
1
10
103.661610348289
20
37.7791357242777
30
0
41
1
10
104.295022788429
20
37.9255521590151
30
0
41
1
10
104.928435205196
20
38.0719687112093
30
0
0
SPLINE
5
2A7
100
AcDbEntity
8
1
62
256
6
ByLayer
370
18
48
1
60
0
100
AcDbSpline
70
4
71
3
72
8
73
4
40
0
40
0
40
0
40
0
40
1
40
1
40
1
40
1
41
1
10
93.2996743040522
20
37.63271950075
30
0
41
1
10
93.2532367362696
20
37.7791357242777
30
0
41
1
10
93.2067991715683
20
37.9255521590151
30
0
41
1
10
93.1603616085806
20
38.0719687112093
30
0
0
SPLINE
5
2A8
100
AcDbEntity
8
1
62
256
6
ByLayer
370
18
48
1
60
0
100
AcDbSpline
70
4
71
3
72
8
73
4
40
0
40
0
40
0
40
0
40
1
40
1
40
1
40
1
41
1
10
94.5983562264491
20
37.63271950075
30
0
41
1
10
94.6376490196214
20
37.7791357242777
30
0
41
1
10
94.6769418101864
20
37.9255521590151
30
0
41
1
10
94.7162345993015
20
38.0719687112093
30
0
0
SPLINE
5
2A9
100
AcDbEntity
8
1
62
256
6
ByLayer
370
18
48
1
60
0
100
AcDbSpline
70
4
71
3
72
8
73
4
40
0
40
0
40
0
40
0
40
1
40
1
40
1
40
1
41
1
10
104.323045411025
20
38.0719687112093
30
0
41
1
10
104.331879904988
20
38.0820794527195
30
0
41
1
10
104.340714398893
20
38.0921901942955
30
0
41
1
10
104.349548892742
20
38.1023009359367
30
0
0
SPLINE
5
2AA
100
AcDbEntity
8
1
62
256
6
ByLayer
370
18
48
1
60
0
100
AcDbSpline
70
4
71
3
72
8
73
4
40
0
40
0
40
0
40
0
40
1
40
1
40
1
40
1
41
1
10
104.928435205196
20
38.0719687112093
30
0
41
1
10
104.937816005391
20
38.0820790945615
30
0
41
1
10
104.947196805524
20
38.0921894779795
30
0
41
1
10
104.956577605597
20
38.1022998614626
30
0
0
SPLINE
5
2AB
100
AcDbEntity
8
1
62
256
6
ByLayer
370
18
48
1
60
0
100
AcDbSpline
70
4
71
3
72
8
73
4
40
0
40
0
40
0
40
0
40
1
40
1
40
1
40
1
41
1
10
104.956409795293
20
38.0719687112093
30
0
41
1
10
104.965790595488
20
38.0820790945615
30
0
41
1
10
104.975171395621
20
38.0921894779795
30
0
41
1
10
104.984552195694
20
38.1022998614626
30
0
0
SPLINE
5
2AC
100
AcDbEntity
8
1
62
256
6
ByLayer
370
18
48
1
60
0
100
AcDbSpline
70
4
71
3
72
8
73
4
40
0
40
0
40
0
40
0
40
1
40
1
40
1
40
1
41
1
10
105.397952678278
20
38.0719687112093
30
0
41
1
10
105.407732479551
20
38.0820794282016
30
0
41
1
10
105.417512280759
20
38.0921901452597
30
0
41
1
10
105.427292081905
20
38.1023008623831
30
0
0
SPLINE
5
2AD
100
AcDbEntity
8
1
62
256
6
ByLayer
370
18
48
1
60
0
100
AcDbSpline
70
4
71
3
72
8
73
4
40
0
40
0
40
0
40
0
40
1
40
1
40
1
40
1
41
1
10
105.416985052047
20
38.0719687112093
30
0
41
1
10
105.42676485332
20
38.0820794282016
30
0
41
1
10
105.436544654528
20
38.0921901452597
30
0
41
1
10
105.446324455674
20
38.1023008623831
30
0
0
SPLINE
5
2AE
100
AcDbEntity
8
1
62
256
6
ByLayer
370
18
48
1
60
0
100
AcDbSpline
70
4
71
3
72
8
73
4
40
0
40
0
40
0
40
0
40
1
40
1
40
1
40
1
41
1
10
105.687717628817
20
38.0719687112093
30
0
41
1
10
105.697741623341
20
38.0820791609623
30
0
41
1
10
105.707765617799
20
38.0921896107811
30
0
41
1
10
105.717789612193
20
38.1023000606651
30
0
0
SPLINE
5
2AF
100
AcDbEntity
8
1
62
256
6
ByLayer
370
18
48
1
60
0
100
AcDbSpline
70
4
71
3
72
8
73
4
40
0
40
0
40
0
40
0
40
1
40
1
40
1
40
1
41
1
10
105.697507634354
20
38.0719687112093
30
0
41
1
10
105.707531628878
20
38.0820791609623
30
0
41
1
10
105.717555623337
20
38.0921896107811
30
0
41
1
10
105.727579617731
20
38.1023000606651
30
0
0
SPLINE
5
2B0
100
AcDbEntity
8
1
62
256
6
ByLayer
370
18
48
1
60
0
100
AcDbSpline
70
4
71
3
72
8
73
4
40
0
40
0
40
0
40
0
40
1
40
1
40
1
40
1
41
1
10
105.793160290445
20
38.0719687112093
30
0
41
1
10
105.803270930672
20
38.0820794393056
30
0
41
1
10
105.813381570834
20
38.0921901674677
30
0
41
1
10
105.82349221093
20
38.1023008956951
30
0
0
SPLINE
5
2B1
100
AcDbEntity
8
1
62
256
6
ByLayer
370
18
48
1
60
0
100
AcDbSpline
70
4
71
3
72
8
73
4
40
0
40
0
40
0
40
0
40
1
40
1
40
1
40
1
41
1
10
105.793553533515
20
38.0719687112093
30
0
41
1
10
105.803664173743
20
38.0820794393056
30
0
41
1
10
105.813774813904
20
38.0921901674677
30
0
41
1
10
105.823885454
20
38.1023008956951
30
0
0
SPLINE
5
2B2
100
AcDbEntity
8
1
62
256
6
ByLayer
370
18
48
1
60
0
100
AcDbSpline
70
4
71
3
72
8
73
4
40
0
40
0
40
0
40
0
40
1
40
1
40
1
40
1
41
1
10
82.2873822306
20
38.0719687112093
30
0
41
1
10
82.2773449658274
20
38.0820791428011
30
0
41
1
10
82.2673077011199
20
38.0921895744588
30
0
41
1
10
82.2572704364772
20
38.1023000061817
30
0
0
SPLINE
5
2B3
100
AcDbEntity
8
1
62
256
6
ByLayer
370
18
48
1
60
0
100
AcDbSpline
70
4
71
3
72
8
73
4
40
0
40
0
40
0
40
0
40
1
40
1
40
1
40
1
41
1
10
82.2963919516748
20
38.0719687112093
30
0
41
1
10
82.2863546869021
20
38.0820791428011
30
0
41
1
10
82.2763174221947
20
38.0921895744588
30
0
41
1
10
82.266280157552
20
38.1023000061817
30
0
0
SPLINE
5
2B4
100
AcDbEntity
8
1
62
256
6
ByLayer
370
18
48
1
60
0
100
AcDbSpline
70
4
71
3
72
8
73
4
40
0
40
0
40
0
40
0
40
1
40
1
40
1
40
1
41
1
10
82.5526397306471
20
38.0719687112093
30
0
41
1
10
82.542833801736
20
38.0820791806951
30
0
41
1
10
82.5330278728887
20
38.0921896502466
30
0
41
1
10
82.5232219441046
20
38.1023001198634
30
0
0
SPLINE
5
2B5
100
AcDbEntity
8
1
62
256
6
ByLayer
370
18
48
1
60
0
100
AcDbSpline
70
4
71
3
72
8
73
4
40
0
40
0
40
0
40
0
40
1
40
1
40
1
40
1
41
1
10
82.5709103271835
20
38.0719687112093
30
0
41
1
10
82.5611043982724
20
38.0820791806951
30
0
41
1
10
82.5512984694251
20
38.0921896502466
30
0
41
1
10
82.5414925406411
20
38.1023001198633
30
0
0
SPLINE
5
2B6
100
AcDbEntity
8
1
62
256
6
ByLayer
370
18
48
1
60
0
100
AcDbSpline
70
4
71
3
72
8
73
4
40
0
40
0
40
0
40
0
40
1
40
1
40
1
40
1
41
1
10
82.9984289404633
20
38.0719687112093
30
0
41
1
10
82.9890090489073
20
38.0820791608206
30
0
41
1
10
82.9795891574126
20
38.0921896104977
30
0
41
1
10
82.9701692659786
20
38.1023000602399
30
0
0
SPLINE
5
2B7
100
AcDbEntity
8
1
62
256
6
ByLayer
370
18
48
1
60
0
100
AcDbSpline
70
4
71
3
72
8
73
4
40
0
40
0
40
0
40
0
40
1
40
1
40
1
40
1
41
1
10
83.0256722742398
20
38.0719687112093
30
0
41
1
10
83.0162523826838
20
38.0820791608206
30
0
41
1
10
83.0068324911891
20
38.0921896104977
30
0
41
1
10
82.9974125997551
20
38.1023000602399
30
0
0
SPLINE
5
2B8
100
AcDbEntity
8
1
62
256
6
ByLayer
370
18
48
1
60
0
100
AcDbSpline
70
4
71
3
72
8
73
4
40
0
40
0
40
0
40
0
40
1
40
1
40
1
40
1
41
1
10
83.6177194979084
20
38.0719687112093
30
0
41
1
10
83.6088341433693
20
38.0820792044917
30
0
41
1
10
83.5999487888881
20
38.0921896978399
30
0
41
1
10
83.5910634344642
20
38.1023001912533
30
0
0
SPLINE
5
2B9
100
AcDbEntity
8
1
62
256
6
ByLayer
370
18
48
1
60
0
100
AcDbSpline
70
4
71
3
72
8
73
4
40
0
40
0
40
0
40
0
40
1
40
1
40
1
40
1
41
1
10
83.6535059252768
20
38.0719687112093
30
0
41
1
10
83.6446205707378
20
38.0820792044917
30
0
41
1
10
83.6357352162565
20
38.0921896978399
30
0
41
1
10
83.6268498618326
20
38.1023001912533
30
0
0
SPLINE
5
2BA
100
AcDbEntity
8
1
62
256
6
ByLayer
370
18
48
1
60
0
100
AcDbSpline
70
4
71
3
72
8
73
4
40
0
40
0
40
0
40
0
40
1
40
1
40
1
40
1
41
1
10
84.4007448209452
20
38.0719687112093
30
0
41
1
10
84.3925340479908
20
38.0820793565307
30
0
41
1
10
84.3843232750897
20
38.0921900019179
30
0
41
1
10
84.3761125022416
20
38.1023006473704
30
0
0
SPLINE
5
2BB
100
AcDbEntity
8
1
62
256
6
ByLayer
370
18
48
1
60
0
100
AcDbSpline
70
4
71
3
72
8
73
4
40
0
40
0
40
0
40
0
40
1
40
1
40
1
40
1
41
1
10
84.4445099685682
20
38.0719687112093
30
0
41
1
10
84.4362991956138
20
38.0820793565307
30
0
41
1
10
84.4280884227127
20
38.0921900019179
30
0
41
1
10
84.4198776498646
20
38.1023006473704
30
0
0
SPLINE
5
2BC
100
AcDbEntity
8
1
62
256
6
ByLayer
370
18
48
1
60
0
100
AcDbSpline
70
4
71
3
72
8
73
4
40
0
40
0
40
0
40
0
40
1
40
1
40
1
40
1
41
1
10
85.3351561324728
20
38.0719687112093
30
0
41
1
10
85.3277495156254
20
38.0820794219017
30
0
41
1
10
85.3203428988261
20
38.0921901326598
30
0
41
1
10
85.3129362820746
20
38.1023008434832
30
0
0
SPLINE
5
2BD
100
AcDbEntity
8
1
62
256
6
ByLayer
370
18
48
1
60
0
100
AcDbSpline
70
4
71
3
72
8
73
4
40
0
40
0
40
0
40
0
40
1
40
1
40
1
40
1
41
1
10
85.3862097978284
20
38.0719687112093
30
0
41
1
10
85.3788031809809
20
38.0820794219017
30
0
41
1
10
85.3713965641817
20
38.0921901326598
30
0
41
1
10
85.3639899474302
20
38.1023008434831
30
0
0
SPLINE
5
2BE
100
AcDbEntity
8
1
62
256
6
ByLayer
370
18
48
1
60
0
100
AcDbSpline
70
4
71
3
72
8
73
4
40
0
40
0
40
0
40
0
40
1
40
1
40
1
40
1
41
1
10
86.4062172079182
20
38.0719687112093
30
0
41
1
10
86.3997316372938
20
38.0820793747333
30
0
41
1
10
86.3932460667116
20
38.092190038323
30
0
41
1
10
86.3867604961711
20
38.1023007019779
30
0
0
SPLINE
5
2BF
100
AcDbEntity
8
1
62
256
6
ByLayer
370
18
48
1
60
0
100
AcDbSpline
70
4
71
3
72
8
73
4
40
0
40
0
40
0
40
0
40
1
40
1
40
1
40
1
41
1
10
86.4637542442057
20
38.0719687112093
30
0
41
1
10
86.4572686735813
20
38.0820793747332
30
0
41
1
10
86.4507831029991
20
38.092190038323
30
0
41
1
10
86.4442975324586
20
38.102300701978
30
0
0
SPLINE
5
2C0
100
AcDbEntity
8
1
62
256
6
ByLayer
370
18
48
1
60
0
100
AcDbSpline
70
4
71
3
72
8
73
4
40
0
40
0
40
0
40
0
40
1
40
1
40
1
40
1
41
1
10
87.5970367743006
20
38.0719687112093
30
0
41
1
10
87.5915744125148
20
38.0820795305025
30
0
41
1
10
87.5861120507645
20
38.0921903498616
30
0
41
1
10
87.5806496890494
20
38.1023011692859
30
0
0
SPLINE
5
2C1
100
AcDbEntity
8
1
62
256
6
ByLayer
370
18
48
1
60
0
100
AcDbSpline
70
4
71
3
72
8
73
4
40
0
40
0
40
0
40
0
40
1
40
1
40
1
40
1
41
1
10
87.6601497880868
20
38.0719687112093
30
0
41
1
10
87.654687426301
20
38.0820795305025
30
0
41
1
10
87.6492250645506
20
38.0921903498615
30
0
41
1
10
87.6437627028355
20
38.1023011692858
30
0
0
SPLINE
5
2C2
100
AcDbEntity
8
1
62
256
6
ByLayer
370
18
48
1
60
0
100
AcDbSpline
70
4
71
3
72
8
73
4
40
0
40
0
40
0
40
0
40
1
40
1
40
1
40
1
41
1
10
88.8888348956972
20
38.0719687112093
30
0
41
1
10
88.8844819948263
20
38.0820795132016
30
0
41
1
10
88.8801290939836
20
38.0921903152596
30
0
41
1
10
88.875776193169
20
38.1023011173828
30
0
0
SPLINE
5
2C3
100
AcDbEntity
8
1
62
256
6
ByLayer
370
18
48
1
60
0
100
AcDbSpline
70
4
71
3
72
8
73
4
40
0
40
0
40
0
40
0
40
1
40
1
40
1
40
1
41
1
10
88.9565285570528
20
38.0719687112093
30
0
41
1
10
88.9521756561818
20
38.0820795132016
30
0
41
1
10
88.9478227553391
20
38.0921903152596
30
0
41
1
10
88.9434698545245
20
38.1023011173828
30
0
0
SPLINE
5
2C4
100
AcDbEntity
8
1
62
256
6
ByLayer
370
18
48
1
60
0
100
AcDbSpline
70
4
71
3
72
8
73
4
40
0
40
0
40
0
40
0
40
1
40
1
40
1
40
1
41
1
10
90.2612391440506
20
38.0719687112093
30
0
41
1
10
90.2580644020817
20
38.0820793237532
30
0
41
1
10
90.2548896601334
20
38.0921899363628
30
0
41
1
10
90.2517149182056
20
38.1023005490378
30
0
0
SPLINE
5
2C5
100
AcDbEntity
8
1
62
256
6
ByLayer
370
18
48
1
60
0
100
AcDbSpline
70
4
71
3
72
8
73
4
40
0
40
0
40
0
40
0
40
1
40
1
40
1
40
1
41
1
10
90.3324458834978
20
38.0719687112093
30
0
41
1
10
90.3292711415289
20
38.0820793237532
30
0
41
1
10
90.3260963995806
20
38.0921899363628
30
0
41
1
10
90.3229216576528
20
38.1023005490378
30
0
0
SPLINE
5
2C6
100
AcDbEntity
8
1
62
256
6
ByLayer
370
18
48
1
60
0
100
AcDbSpline
70
4
71
3
72
8
73
4
40
0
40
0
40
0
40
0
40
1
40
1
40
1
40
1
41
1
10
91.6926058845299
20
38.0719687112093
30
0
41
1
10
91.6906593435876
20
38.082079032326
30
0
41
1
10
91.688712802658
20
38.0921893535084
30
0
41
1
10
91.686766261741
20
38.1022996747561
30
0
0
SPLINE
5
2C7
100
AcDbEntity
8
1
62
256
6
ByLayer
370
18
48
1
60
0
100
AcDbSpline
70
4
71
3
72
8
73
4
40
0
40
0
40
0
40
0
40
1
40
1
40
1
40
1
41
1
10
91.7662027292507
20
38.0719687112093
30
0
41
1
10
91.7642561883084
20
38.082079032326
30
0
41
1
10
91.7623096473787
20
38.0921893535084
30
0
41
1
10
91.7603631064616
20
38.1022996747561
30
0
0
SPLINE
5
2C8
100
AcDbEntity
8
1
62
256
6
ByLayer
370
18
48
1
60
0
100
AcDbSpline
70
4
71
3
72
8
73
4
40
0
40
0
40
0
40
0
40
1
40
1
40
1
40
1
41
1
10
93.1603616085806
20
38.0719687112093
30
0
41
1
10
93.1596738538915
20
38.0820793466081
30
0
41
1
10
93.158986099207
20
38.0921899820727
30
0
41
1
10
93.1582983445269
20
38.1023006176025
30
0
0
SPLINE
5
2C9
100
AcDbEntity
8
1
62
256
6
ByLayer
370
18
48
1
60
0
100
AcDbSpline
70
4
71
3
72
8
73
4
40
0
40
0
40
0
40
0
40
1
40
1
40
1
40
1
41
1
10
93.2351878923691
20
38.0719687112093
30
0
41
1
10
93.2345001376801
20
38.0820793466081
30
0
41
1
10
93.2338123829956
20
38.0921899820727
30
0
41
1
10
93.2331246283155
20
38.1023006176025
30
0
0
SPLINE
5
2CA
100
AcDbEntity
8
1
62
256
6
ByLayer
370
18
48
1
60
0
100
AcDbSpline
70
4
71
3
72
8
73
4
40
0
40
0
40
0
40
0
40
1
40
1
40
1
40
1
41
1
10
94.6413589316396
20
38.0719687112093
30
0
41
1
10
94.6419408679685
20
38.0820793110546
30
0
41
1
10
94.6425228042937
20
38.0921899109657
30
0
41
1
10
94.6431047406151
20
38.1023005109419
30
0
0
SPLINE
5
2CB
100
AcDbEntity
8
1
62
256
6
ByLayer
370
18
48
1
60
0
100
AcDbSpline
70
4
71
3
72
8
73
4
40
0
40
0
40
0
40
0
40
1
40
1
40
1
40
1
41
1
10
94.7162345993015
20
38.0719687112093
30
0
41
1
10
94.7168165356305
20
38.0820793110546
30
0
41
1
10
94.7173984719557
20
38.0921899109657
30
0
41
1
10
94.7179804082771
20
38.1023005109419
30
0
0
SPLINE
5
2CC
100
AcDbEntity
8
1
62
256
6
ByLayer
370
18
48
1
60
0
100
AcDbSpline
70
4
71
3
72
8
73
4
40
0
40
0
40
0
40
0
40
1
40
1
40
1
40
1
41
1
10
96.1122416412173
20
38.0719687112093
30
0
41
1
10
96.1140841299817
20
38.0820795377985
30
0
41
1
10
96.115926618734
20
38.0921903644534
30
0
41
1
10
96.1177691074745
20
38.1023011911735
30
0
0
SPLINE
5
2CD
100
AcDbEntity
8
1
62
256
6
ByLayer
370
18
48
1
60
0
100
AcDbSpline
70
4
71
3
72
8
73
4
40
0
40
0
40
0
40
0
40
1
40
1
40
1
40
1
41
1
10
96.1859858587451
20
38.0719687112093
30
0
41
1
10
96.1878283475094
20
38.0820795377985
30
0
41
1
10
96.1896708362618
20
38.0921903644534
30
0
41
1
10
96.1915133250022
20
38.1023011911735
30
0
0
SPLINE
5
2CE
100
AcDbEntity
8
1
62
256
6
ByLayer
370
18
48
1
60
0
100
AcDbSpline
70
4
71
3
72
8
73
4
40
0
40
0
40
0
40
0
40
1
40
1
40
1
40
1
41
1
10
97.5498130383211
20
38.0719687112093
30
0
41
1
10
97.5528868774803
20
38.0820791041491
30
0
41
1
10
97.5559607166194
20
38.0921894971547
30
0
41
1
10
97.5590345557387
20
38.1022998902255
30
0
0
SPLINE
5
2CF
100
AcDbEntity
8
1
62
256
6
ByLayer
370
18
48
1
60
0
100
AcDbSpline
70
4
71
3
72
8
73
4
40
0
40
0
40
0
40
0
40
1
40
1
40
1
40
1
41
1
10
97.6212628153516
20
38.0719687112093
30
0
41
1
10
97.6243366545107
20
38.0820791041491
30
0
41
1
10
97.6274104936498
20
38.0921894971547
30
0
41
1
10
97.6304843327692
20
38.1022998902255
30
0
0
SPLINE
5
2D0
100
AcDbEntity
8
1
62
256
6
ByLayer
370
18
48
1
60
0
100
AcDbSpline
70
4
71
3
72
8
73
4
40
0
40
0
40
0
40
0
40
1
40
1
40
1
40
1
41
1
10
98.9314017632551
20
38.0719687112093
30
0
41
1
10
98.9356585656844
20
38.0820791282128
30
0
41
1
10
98.9399153680861
20
38.0921895452822
30
0
41
1
10
98.9441721704604
20
38.1022999624167
30
0
0
SPLINE
5
2D1
100
AcDbEntity
8
1
62
256
6
ByLayer
370
18
48
1
60
0
100
AcDbSpline
70
4
71
3
72
8
73
4
40
0
40
0
40
0
40
0
40
1
40
1
40
1
40
1
41
1
10
98.9994302941225
20
38.0719687112093
30
0
41
1
10
99.0036870965519
20
38.0820791282128
30
0
41
1
10
99.0079438989536
20
38.0921895452822
30
0
41
1
10
99.0122007013278
20
38.1022999624167
30
0
0
SPLINE
5
2D2
100
AcDbEntity
8
1
62
256
6
ByLayer
370
18
48
1
60
0
100
AcDbSpline
70
4
71
3
72
8
73
4
40
0
40
0
40
0
40
0
40
1
40
1
40
1
40
1
41
1
10
100.235219336506
20
38.0719687112093
30
0
41
1
10
100.240591995155
20
38.0820791895293
30
0
41
1
10
100.24596465377
20
38.0921896679151
30
0
41
1
10
100.25133731235
20
38.1023001463662
30
0
0
SPLINE
5
2D3
100
AcDbEntity
8
1
62
256
6
ByLayer
370
18
48
1
60
0
100
AcDbSpline
70
4
71
3
72
8
73
4
40
0
40
0
40
0
40
0
40
1
40
1
40
1
40
1
41
1
10
100.29875377064
20
38.0719687112093
30
0
41
1
10
100.30412642929
20
38.0820791895293
30
0
41
1
10
100.309499087904
20
38.0921896679151
30
0
41
1
10
100.314871746485
20
38.1023001463662
30
0
0
SPLINE
5
2D4
100
AcDbEntity
8
1
62
256
6
ByLayer
370
18
48
1
60
0
100
AcDbSpline
70
4
71
3
72
8
73
4
40
0
40
0
40
0
40
0
40
1
40
1
40
1
40
1
41
1
10
101.44070377608
20
38.0719687112093
30
0
41
1
10
101.447107604885
20
38.082079299711
30
0
41
1
10
101.453511433647
20
38.0921898882786
30
0
41
1
10
101.459915262368
20
38.1023004769115
30
0
0
SPLINE
5
2D5
100
AcDbEntity
8
1
62
256
6
ByLayer
370
18
48
1
60
0
100
AcDbSpline
70
4
71
3
72
8
73
4
40
0
40
0
40
0
40
0
40
1
40
1
40
1
40
1
41
1
10
101.498742137502
20
38.0719687112093
30
0
41
1
10
101.505145966306
20
38.0820792997111
30
0
41
1
10
101.511549795068
20
38.0921898882786
30
0
41
1
10
101.517953623789
20
38.1023004769115
30
0
0
SPLINE
5
2D6
100
AcDbEntity
8
1
62
256
6
ByLayer
370
18
48
1
60
0
100
AcDbSpline
70
4
71
3
72
8
73
4
40
0
40
0
40
0
40
0
40
1
40
1
40
1
40
1
41
1
10
102.528843872245
20
38.0719687112093
30
0
41
1
10
102.536177960465
20
38.0820794927386
30
0
41
1
10
102.543512048637
20
38.0921902743336
30
0
41
1
10
102.550846136762
20
38.1023010559939
30
0
0
SPLINE
5
2D7
100
AcDbEntity
8
1
62
256
6
ByLayer
370
18
48
1
60
0
100
AcDbSpline
70
4
71
3
72
8
73
4
40
0
40
0
40
0
40
0
40
1
40
1
40
1
40
1
41
1
10
102.580470861324
20
38.0719687112093
30
0
41
1
10
102.587804949543
20
38.0820794927386
30
0
41
1
10
102.595139037715
20
38.0921902743336
30
0
41
1
10
102.60247312584
20
38.1023010559939
30
0
0
SPLINE
5
2D8
100
AcDbEntity
8
1
62
256
6
ByLayer
370
18
48
1
60
0
100
AcDbSpline
70
4
71
3
72
8
73
4
40
0
40
0
40
0
40
0
40
1
40
1
40
1
40
1
41
1
10
103.48247900566
20
38.0719687112093
30
0
41
1
10
103.490627372582
20
38.0820792501579
30
0
41
1
10
103.49877573945
20
38.0921897891724
30
0
41
1
10
103.506924106265
20
38.102300328252
30
0
0
SPLINE
5
2D9
100
AcDbEntity
8
1
62
256
6
ByLayer
370
18
48
1
60
0
100
AcDbSpline
70
4
71
3
72
8
73
4
40
0
40
0
40
0
40
0
40
1
40
1
40
1
40
1
41
1
10
103.526880433937
20
38.0719687112093
30
0
41
1
10
103.535028800858
20
38.0820792501579
30
0
41
1
10
103.543177167726
20
38.0921897891724
30
0
41
1
10
103.551325534542
20
38.102300328252
30
0
0
SPLINE
5
2DA
100
AcDbEntity
8
1
62
256
6
ByLayer
370
18
48
1
60
0
100
AcDbSpline
70
4
71
3
72
8
73
4
40
0
40
0
40
0
40
0
40
1
40
1
40
1
40
1
41
1
10
104.286569780598
20
38.0719687112093
30
0
41
1
10
104.295404274561
20
38.0820794527195
30
0
41
1
10
104.304238768466
20
38.0921901942955
30
0
41
1
10
104.313073262314
20
38.1023009359367
30
0
0
SPLINE
5
2DB
100
AcDbEntity
8
1
62
256
6
ByLayer
370
18
48
1
60
0
100
AcDbSpline
70
4
71
3
72
20
73
16
40
0
40
0
40
0
40
0
40
0.250000000000043
40
0.250000000000043
40
0.375000000000068
40
0.375000000000068
40
0.437500000000067
40
0.437500000000067
40
0.500000000000065
40
0.500000000000065
40
0.625000000000047
40
0.625000000000047
40
0.750000000000029
40
0.750000000000029
40
1
40
1
40
1
40
1
41
1
10
34.0017010994324
20
-55.6042181973087
30
0
41
1
10
33.8327623111983
20
-55.5137641945571
30
0
41
1
10
33.6625880975712
20
-55.4313967858657
30
0
41
1
10
33.404633300655
20
-55.3254760785092
30
0
41
1
10
33.3181981398483
20
-55.2931161894052
30
0
41
1
10
33.1877771985727
20
-55.2496046821239
30
0
41
1
10
33.1441757422389
20
-55.2359374338757
30
0
41
1
10
33.0567056478735
20
-55.2103518005185
30
0
41
1
10
33.0127893624981
20
-55.1984256265043
30
0
41
1
10
32.8817600997397
20
-55.1656077089646
30
0
41
1
10
32.7950174989738
20
-55.1475777445469
30
0
41
1
10
32.6226724164382
20
-55.1187082787283
30
0
41
1
10
32.537068951096
20
-55.1078625741671
30
0
41
1
10
32.2817672178247
20
-55.0848402425241
30
0
41
1
10
32.1135727983351
20
-55.0821480347221
30
0
41
1
10
31.9467712494532
20
-55.0882403350519
30
0
0
SPLINE
5
2DC
100
AcDbEntity
8
1
62
256
6
ByLayer
370
18
48
1
60
0
100
AcDbSpline
70
4
71
3
72
20
73
16
40
0
40
0
40
0
40
0
40
0.249999999999997
40
0.249999999999997
40
0.375000000000013
40
0.375000000000013
40
0.437500000000022
40
0.437500000000022
40
0.500000000000032
40
0.500000000000032
40
0.625000000000024
40
0.625000000000024
40
0.750000000000016
40
0.750000000000016
40
1
40
1
40
1
40
1
41
1
10
34.0017010994322
20
-55.6042181973087
30
0
41
1
10
34.1642915842024
20
-55.5049826697058
30
0
41
1
10
34.3284178426138
20
-55.4137603328315
30
0
41
1
10
34.5779555264509
20
-55.294397199136
30
0
41
1
10
34.6616944393995
20
-55.2575297507322
30
0
41
1
10
34.7882577684812
20
-55.2072112615634
30
0
41
1
10
34.8306044262003
20
-55.1912674255116
30
0
41
1
10
34.9156298787398
20
-55.1611127418315
30
0
41
1
10
34.9583552329582
20
-55.146891609956
30
0
41
1
10
35.0859408280238
20
-55.1072235196389
30
0
41
1
10
35.1705501897356
20
-55.0846547960849
30
0
41
1
10
35.3389324680304
20
-55.0467601670899
30
0
41
1
10
35.4227061062085
20
-55.0314280133221
30
0
41
1
10
35.6729201945105
20
-54.9950156129543
30
0
41
1
10
35.8382573504114
20
-54.9834888434515
30
0
41
1
10
36.0025726306669
20
-54.9808105437152
30
0
0
SPLINE
5
2DD
100
AcDbEntity
8
1
62
256
6
ByLayer
370
18
48
1
60
0
100
AcDbSpline
70
4
71
3
72
16
73
12
40
0
40
0
40
0
40
0
40
0.284869580076167
40
0.284869580076167
40
0.427304370114197
40
0.427304370114197
40
0.569739160152227
40
0.569739160152227
40
0.854608740228287
40
0.854608740228287
40
1
40
1
40
1
40
1
41
1
10
31.9467712494534
20
-55.0882403350535
30
0
41
1
10
31.944095851652
20
-55.0179644792955
30
0
41
1
10
31.9414399546983
20
-54.9492385276943
30
0
41
1
10
31.9374930303773
20
-54.8490840461226
30
0
41
1
10
31.9361825356952
20
-54.8161653338641
30
0
41
1
10
31.9335921535102
20
-54.75183559132
30
0
41
1
10
31.9323103500594
20
-54.720375458768
30
0
41
1
10
31.9285080434628
20
-54.6282640855249
30
0
41
1
10
31.9260308136494
20
-54.5698907959162
30
0
41
1
10
31.9223859418048
20
-54.4868145005152
30
0
41
1
10
31.9211709859098
20
-54.4596208460619
30
0
41
1
10
31.9199731387835
20
-54.433327814145
30
0
0
LINE
5
77
100
AcDbEntity
8
SK4
62
256
6
ByLayer
370
13
48
0.05
60
0
100
AcDbLine
10
-11.7
20
0
30
0
11
58.3
21
0
31
0
39
0
210
0
220
0
230
1
0
LINE
5
79
100
AcDbEntity
8
80
62
256
6
ByLayer
370
13
48
0.05
60
0
100
AcDbLine
10
0
20
0
30
0
11
-32
21
0
31
0
39
0
210
0
220
0
230
1
0
LINE
5
7A
100
AcDbEntity
8
SK3
62
256
6
ByLayer
370
13
48
0.05
60
0
100
AcDbLine
10
1E-06
20
-20.60625
30
0
11
1.039231
21
-20.00625
31
0
39
0
210
0
220
0
230
1
0
LINE
5
7C
100
AcDbEntity
8
SK3
62
256
6
ByLayer
370
13
48
0.05
60
0
100
AcDbLine
10
1.039231
20
20.00625
30
0
11
1E-06
21
20.60625
31
0
39
0
210
0
220
0
230
1
0
LINE
5
7D
100
AcDbEntity
8
SK3
62
256
6
ByLayer
370
13
48
0.05
60
0
100
AcDbLine
10
1.039231
20
20.00625
30
0
11
1.039231
21
-20.00625
31
0
39
0
210
0
220
0
230
1
0
LINE
5
7E
100
AcDbEntity
8
SK3
62
256
6
ByLayer
370
13
48
0.05
60
0
100
AcDbLine
10
19.500001
20
20.2
30
0
11
19.500001
21
-20.2
31
0
39
0
210
0
220
0
230
1
0
LINE
5
7F
100
AcDbEntity
8
SK3
62
256
6
ByLayer
370
13
48
0.05
60
0
100
AcDbLine
10
20.300001
20
-21
30
0
11
27.700001
21
-21
31
0
39
0
210
0
220
0
230
1
0
LINE
5
80
100
AcDbEntity
8
SK3
62
256
6
ByLayer
370
13
48
0.05
60
0
100
AcDbLine
10
20.300001
20
21
30
0
11
20.300001
21
-21
31
0
39
0
210
0
220
0
230
1
0
LINE
5
81
100
AcDbEntity
8
SK3
62
256
6
ByLayer
370
13
48
0.05
60
0
100
AcDbLine
10
28.500001
20
20.2
30
0
11
28.500001
21
-20.2
31
0
39
0
210
0
220
0
230
1
0
LINE
5
82
100
AcDbEntity
8
SK3
62
256
6
ByLayer
370
13
48
0.05
60
0
100
AcDbLine
10
27.700001
20
21
30
0
11
27.700001
21
-21
31
0
39
0
210
0
220
0
230
1
0
LINE
5
83
100
AcDbEntity
8
SK3
62
256
6
ByLayer
370
13
48
0.05
60
0
100
AcDbLine
10
27.700001
20
21
30
0
11
20.300001
21
21
31
0
39
0
210
0
220
0
230
1
0
LINE
5
84
100
AcDbEntity
8
SK3
62
256
6
ByLayer
370
13
48
0.05
60
0
100
AcDbLine
10
1.039231
20
-20.00625
30
0
11
19.500001
21
-20.00625
31
0
39
0
210
0
220
0
230
1
0
LINE
5
85
100
AcDbEntity
8
SK3
62
256
6
ByLayer
370
13
48
0.05
60
0
100
AcDbLine
10
19.500001
20
20.00625
30
0
11
1.039231
21
20.00625
31
0
39
0
210
0
220
0
230
1
0
LINE
5
86
100
AcDbEntity
8
4
62
256
6
ByLayer
370
13
48
0.05
60
0
100
AcDbLine
10
0.3
20
0
30
0
11
50.000001
21
0
31
0
39
0
210
0
220
0
230
1
0
LINE
5
88
100
AcDbEntity
8
1
62
256
6
ByLayer
370
18
48
1
60
0
100
AcDbLine
10
106.000001
20
-82.74605
30
0
11
106.000001
21
-82.74605
31
0
39
0
210
0
220
0
230
1
0
LINE
5
89
100
AcDbEntity
8
1
62
256
6
ByLayer
370
18
48
1
60
0
100
AcDbLine
10
95.745483
20
37.468246
30
0
11
95.745487
21
37.468228
31
0
39
0
210
0
220
0
230
1
0
LINE
5
8A
100
AcDbEntity
8
1
62
256
6
ByLayer
370
18
48
1
60
0
100
AcDbLine
10
78.254515
20
37.468228
30
0
11
78.254519
21
37.468246
31
0
39
0
210
0
220
0
230
1
0
LINE
5
8B
100
AcDbEntity
8
81
62
256
6
ByLayer
370
18
48
1
60
0
100
AcDbLine
10
117.000001
20
90.5
30
0
11
120.000001
21
90.5
31
0
39
0
210
0
220
0
230
1
0
LINE
5
8C
100
AcDbEntity
8
2
62
256
6
ByLayer
370
13
48
1
60
0
100
AcDbLine
10
149.582004
20
87.325
30
0
11
150.417998
21
87.325
31
0
39
0
210
0
220
0
230
1
0
LINE
5
8E
100
AcDbEntity
8
2
62
256
6
ByLayer
370
13
48
1
60
0
100
AcDbLine
10
149.922655
20
89.325
30
0
11
149.791003
21
87.325
31
0
39
0
210
0
220
0
230
1
0
LINE
5
8F
100
AcDbEntity
8
2
62
256
6
ByLayer
370
13
48
1
60
0
100
AcDbLine
10
150.000001
20
90.5
30
0
11
149.582004
21
87.325
31
0
39
0
210
0
220
0
230
1
0
LINE
5
90
100
AcDbEntity
8
2
62
256
6
ByLayer
370
13
48
1
60
0
100
AcDbLine
10
150.000001
20
90.5
30
0
11
150.417998
21
87.325
31
0
39
0
210
0
220
0
230
1
0
LINE
5
91
100
AcDbEntity
8
2
62
256
6
ByLayer
370
13
48
1
60
0
100
AcDbLine
10
150.077347
20
89.325
30
0
11
150.208999
21
87.325
31
0
39
0
210
0
220
0
230
1
0
LINE
5
92
100
AcDbEntity
8
2
62
256
6
ByLayer
370
18
48
1
60
0
100
AcDbLine
10
150.000001
20
90.5
30
0
11
152.000001
21
90.5
31
0
39
0
210
0
220
0
230
1
0
LINE
5
93
100
AcDbEntity
8
2
62
256
6
ByLayer
370
18
48
1
60
0
100
AcDbLine
10
150.000001
20
90.5
30
0
11
122.000001
21
90.5
31
0
39
0
210
0
220
0
230
1
0
LINE
5
94
100
AcDbEntity
8
2
62
256
6
ByLayer
370
13
48
1
60
0
100
AcDbLine
10
150.000001
20
90.5
30
0
11
150.000001
21
11.627979
31
0
39
0
210
0
220
0
230
1
0
LINE
5
95
100
AcDbEntity
8
SK1
62
256
6
ByLayer
370
13
48
1
60
0
100
AcDbLine
10
-16
20
11.7485
30
0
11
0.000223
21
11.7485
31
0
39
0
210
0
220
0
230
1
0
LINE
5
97
100
AcDbEntity
8
SK1
62
256
6
ByLayer
370
13
48
1
60
0
100
AcDbLine
10
-16
20
21.6015
30
0
11
0.000223
21
21.6015
31
0
39
0
210
0
220
0
230
1
0
LINE
5
98
100
AcDbEntity
8
SK1
62
256
6
ByLayer
370
13
48
1
60
0
100
AcDbLine
10
-16
20
-21.6015
30
0
11
0.000223
21
-21.6015
31
0
39
0
210
0
220
0
230
1
0
LINE
5
99
100
AcDbEntity
8
SK1
62
256
6
ByLayer
370
13
48
1
60
0
100
AcDbLine
10
-16
20
-11.7485
30
0
11
0.000223
21
-11.7485
31
0
39
0
210
0
220
0
230
1
0
LINE
5
9A
100
AcDbEntity
8
SK1
62
256
6
ByLayer
370
18
48
1
60
0
100
AcDbLine
10
-16
20
11.7485
30
0
11
-14.9265
21
10.675
31
0
39
0
210
0
220
0
230
1
0
LINE
5
9B
100
AcDbEntity
8
SK1
62
256
6
ByLayer
370
18
48
1
60
0
100
AcDbLine
10
-14.9265
20
22.675
30
0
11
-16
21
21.6015
31
0
39
0
210
0
220
0
230
1
0
LINE
5
9C
100
AcDbEntity
8
SK1
62
256
6
ByLayer
370
18
48
1
60
0
100
AcDbLine
10
0.000348
20
22.675
30
0
11
-14.9265
21
22.675
31
0
39
0
210
0
220
0
230
1
0
LINE
5
9D
100
AcDbEntity
8
SK1
62
256
6
ByLayer
370
18
48
1
60
0
100
AcDbLine
10
-14.9265
20
10.675
30
0
11
0.000348
21
10.675
31
0
39
0
210
0
220
0
230
1
0
LINE
5
9E
100
AcDbEntity
8
1
62
256
6
ByLayer
370
18
48
1
60
0
100
AcDbLine
10
75.175963
20
34.50855
30
0
11
77.90625
21
34.50855
31
0
39
0
210
0
220
0
230
1
0
LINE
5
9F
100
AcDbEntity
8
1
62
256
6
ByLayer
370
18
48
1
60
0
100
AcDbLine
10
75.824733
20
84.49605
30
0
11
70.500013
21
84.49605
31
0
39
0
210
0
220
0
230
1
0
LINE
5
A0
100
AcDbEntity
8
1
62
256
6
ByLayer
370
18
48
1
60
0
100
AcDbLine
10
106
20
80.35
30
0
11
105.85
21
80.5
31
0
39
0
210
0
220
0
230
1
0
LINE
5
A1
100
AcDbEntity
8
1
62
256
6
ByLayer
370
18
48
1
60
0
100
AcDbLine
10
106
20
77.016314
30
0
11
106
21
80.35
31
0
39
0
210
0
220
0
230
1
0
LINE
5
A2
100
AcDbEntity
8
1
62
256
6
ByLayer
370
18
48
1
60
0
100
AcDbLine
10
42.05
20
-85.5023
30
0
11
70
21
-85.5023
31
0
39
0
210
0
220
0
230
1
0
LINE
5
A3
100
AcDbEntity
8
1
62
256
6
ByLayer
370
18
48
1
60
0
100
AcDbLine
10
85.765239
20
88.165239
30
0
11
82.25
21
84.65
31
0
39
0
210
0
220
0
230
1
0
LINE
5
A4
100
AcDbEntity
8
1
62
256
6
ByLayer
370
18
48
1
60
0
100
AcDbLine
10
114.209621
20
89.704123
30
0
11
103.454063
21
89.140448
31
0
39
0
210
0
220
0
230
1
0
LINE
5
A5
100
AcDbEntity
8
1
62
256
6
ByLayer
370
18
48
1
60
0
100
AcDbLine
10
82.25
20
84.65214
30
0
11
82.25
21
83.560387
31
0
39
0
210
0
220
0
230
1
0
LINE
5
A6
100
AcDbEntity
8
1
62
256
6
ByLayer
370
18
48
1
60
0
100
AcDbLine
10
70.499931
20
29.934484
30
0
11
74.902927
21
30.165235
31
0
39
0
210
0
220
0
230
1
0
LINE
5
A7
100
AcDbEntity
8
1
62
256
6
ByLayer
370
18
48
1
60
0
100
AcDbLine
10
74.065552
20
46.143308
30
0
11
70.49993
21
45.956441
31
0
39
0
210
0
220
0
230
1
0
LINE
5
A8
100
AcDbEntity
8
SK1
62
256
6
ByLayer
370
18
48
1
60
0
100
AcDbLine
10
-16
20
-21.6015
30
0
11
-14.9265
21
-22.675
31
0
39
0
210
0
220
0
230
1
0
LINE
5
A9
100
AcDbEntity
8
SK1
62
256
6
ByLayer
370
18
48
1
60
0
100
AcDbLine
10
-14.9265
20
-10.675
30
0
11
-16
21
-11.7485
31
0
39
0
210
0
220
0
230
1
0
LINE
5
AA
100
AcDbEntity
8
SK1
62
256
6
ByLayer
370
18
48
1
60
0
100
AcDbLine
10
0.000348
20
-10.675
30
0
11
-14.9265
21
-10.675
31
0
39
0
210
0
220
0
230
1
0
LINE
5
AB
100
AcDbEntity
8
SK1
62
256
6
ByLayer
370
18
48
1
60
0
100
AcDbLine
10
-14.9265
20
-22.675
30
0
11
0.000348
21
-22.675
31
0
39
0
210
0
220
0
230
1
0
LINE
5
AC
100
AcDbEntity
8
1
62
256
6
ByLayer
370
18
48
1
60
0
100
AcDbLine
10
69.999936
20
-45.930238
30
0
11
74.065552
21
-46.143308
31
0
39
0
210
0
220
0
230
1
0
LINE
5
AD
100
AcDbEntity
8
1
62
256
6
ByLayer
370
18
48
1
60
0
100
AcDbLine
10
74.902927
20
-30.165235
30
0
11
70.000085
21
-29.908288
31
0
39
0
210
0
220
0
230
1
0
LINE
5
AE
100
AcDbEntity
8
1
62
256
6
ByLayer
370
18
48
1
60
0
100
AcDbLine
10
82.25
20
84.65214
30
0
11
82.25
21
83.560387
31
0
39
0
210
0
220
0
230
1
0
LINE
5
AF
100
AcDbEntity
8
1
62
256
6
ByLayer
370
18
48
1
60
0
100
AcDbLine
10
85.765239
20
88.165239
30
0
11
82.25
21
84.65
31
0
39
0
210
0
220
0
230
1
0
LINE
5
B0
100
AcDbEntity
8
1
62
256
6
ByLayer
370
18
48
1
60
0
100
AcDbLine
10
114.209621
20
89.704123
30
0
11
103.454063
21
89.140448
31
0
39
0
210
0
220
0
230
1
0
LINE
5
B1
100
AcDbEntity
8
1
62
256
6
ByLayer
370
18
48
1
60
0
100
AcDbLine
10
107.5
20
-35.5023
30
0
11
105.7
21
-33.7023
31
0
39
0
210
0
220
0
230
1
0
LINE
5
B2
100
AcDbEntity
8
1
62
256
6
ByLayer
370
18
48
1
60
0
100
AcDbLine
10
105.7
20
-85.3023
30
0
11
107.5
21
-83.5023
31
0
39
0
210
0
220
0
230
1
0
LINE
5
B3
100
AcDbEntity
8
1
62
256
6
ByLayer
370
18
48
1
60
0
100
AcDbLine
10
70
20
-85.0023
30
0
11
70.3
21
-85.3023
31
0
39
0
210
0
220
0
230
1
0
LINE
5
B4
100
AcDbEntity
8
1
62
256
6
ByLayer
370
18
48
1
60
0
100
AcDbLine
10
70.3
20
-85.3023
30
0
11
105.7
21
-85.3023
31
0
39
0
210
0
220
0
230
1
0
LINE
5
B5
100
AcDbEntity
8
1
62
256
6
ByLayer
370
18
48
1
60
0
100
AcDbLine
10
105.7
20
-33.7023
30
0
11
75.218388
21
-33.7023
31
0
39
0
210
0
220
0
230
1
0
LINE
5
B6
100
AcDbEntity
8
1
62
256
6
ByLayer
370
18
48
1
60
0
100
AcDbLine
10
41
20
65
30
0
11
39.938669
21
65
31
0
39
0
210
0
220
0
230
1
0
LINE
5
B7
100
AcDbEntity
8
1
62
256
6
ByLayer
370
18
48
1
60
0
100
AcDbLine
10
39.938669
20
-65
30
0
11
41
21
-65
31
0
39
0
210
0
220
0
230
1
0
LINE
5
B8
100
AcDbEntity
8
1
62
256
6
ByLayer
370
18
48
1
60
0
100
AcDbLine
10
0.6
20
-50
30
0
11
6.753195
21
-50
31
0
39
0
210
0
220
0
230
1
0
LINE
5
B9
100
AcDbEntity
8
1
62
256
6
ByLayer
370
18
48
1
60
0
100
AcDbLine
10
6.753195
20
50
30
0
11
0.6
21
50
31
0
39
0
210
0
220
0
230
1
0
LINE
5
BA
100
AcDbEntity
8
1
62
256
6
ByLayer
370
18
48
1
60
0
100
AcDbLine
10
0
20
-49.4
30
0
11
0.6
21
-50
31
0
39
0
210
0
220
0
230
1
0
LINE
5
BB
100
AcDbEntity
8
1
62
256
6
ByLayer
370
18
48
1
60
0
100
AcDbLine
10
0.6
20
50
30
0
11
0
21
49.4
31
0
39
0
210
0
220
0
230
1
0
LINE
5
BC
100
AcDbEntity
8
1
62
256
6
ByLayer
370
18
48
1
60
0
100
AcDbLine
10
19.322923
20
59.03007
30
0
11
16.58302
21
55.117083
31
0
39
0
210
0
220
0
230
1
0
LINE
5
BD
100
AcDbEntity
8
1
62
256
6
ByLayer
370
18
48
1
60
0
100
AcDbLine
10
16.58302
20
-55.117083
30
0
11
19.322923
21
-59.03007
31
0
39
0
210
0
220
0
230
1
0
LINE
5
BE
100
AcDbEntity
8
1
62
256
6
ByLayer
370
18
48
1
60
0
100
AcDbLine
10
70.5
20
85.5023
30
0
11
58.34989
21
85.5023
31
0
39
0
210
0
220
0
230
1
0
LINE
5
BF
100
AcDbEntity
8
1
62
256
6
ByLayer
370
18
48
1
60
0
100
AcDbLine
10
53.64107
20
85.5023
30
0
11
42.05
21
85.5023
31
0
39
0
210
0
220
0
230
1
0
LINE
5
C0
100
AcDbEntity
8
1
62
256
6
ByLayer
370
18
48
1
60
0
100
AcDbLine
10
105.91912
20
87.654946
30
0
11
105.916073
21
87.656551
31
0
39
0
210
0
220
0
230
1
0
LINE
5
C1
100
AcDbEntity
8
1
62
256
6
ByLayer
370
18
48
1
60
0
100
AcDbLine
10
106.613808
20
85.642838
30
0
11
106.615208
21
85.645984
31
0
39
0
210
0
220
0
230
1
0
LINE
5
C2
100
AcDbEntity
8
1
62
256
6
ByLayer
370
18
48
1
60
0
100
AcDbLine
10
98.75
20
36.5613
30
0
11
105.793579
21
38.071969
31
0
39
0
210
0
220
0
230
1
0
LINE
5
C3
100
AcDbEntity
8
1
62
256
6
ByLayer
370
18
48
1
60
0
100
AcDbLine
10
82.206421
20
38.071969
30
0
11
89.25
21
36.5613
31
0
39
0
210
0
220
0
230
1
0
LINE
5
C4
100
AcDbEntity
8
1
62
256
6
ByLayer
370
18
48
1
60
0
100
AcDbLine
10
105.793579
20
38.071969
30
0
11
105.823911
21
38.102301
31
0
39
0
210
0
220
0
230
1
0
LINE
5
C5
100
AcDbEntity
8
1
62
256
6
ByLayer
370
18
48
1
60
0
100
AcDbLine
10
82.176089
20
38.102301
30
0
11
82.206421
21
38.071969
31
0
39
0
210
0
220
0
230
1
0
LINE
5
C6
100
AcDbEntity
8
SK1
62
256
6
ByLayer
370
18
48
1
60
0
100
AcDbLine
10
-16
20
21.6015
30
0
11
-16
21
11.7485
31
0
39
0
210
0
220
0
230
1
0
LINE
5
C7
100
AcDbEntity
8
SK1
62
256
6
ByLayer
370
18
48
1
60
0
100
AcDbLine
10
-14.9265
20
22.675
30
0
11
-14.9265
21
10.675
31
0
39
0
210
0
220
0
230
1
0
LINE
5
C8
100
AcDbEntity
8
1
62
256
6
ByLayer
370
18
48
1
60
0
100
AcDbLine
10
113
20
75.087552
30
0
11
113
21
38.1023
31
0
39
0
210
0
220
0
230
1
0
LINE
5
C9
100
AcDbEntity
8
1
62
256
6
ByLayer
370
18
48
1
60
0
100
AcDbLine
10
81.5
20
38.1023
30
0
11
111.2
21
38.1023
31
0
39
0
210
0
220
0
230
1
0
LINE
5
CA
100
AcDbEntity
8
1
62
256
6
ByLayer
370
18
48
1
60
0
100
AcDbLine
10
111.2
20
38.1023
30
0
11
111.2
21
75.583523
31
0
39
0
210
0
220
0
230
1
0
LINE
5
CB
100
AcDbEntity
8
1
62
256
6
ByLayer
370
18
48
1
60
0
100
AcDbLine
10
79.034262
20
84.446456
30
0
11
111.2
21
75.583523
31
0
39
0
210
0
220
0
230
1
0
LINE
5
CC
100
AcDbEntity
8
1
62
256
6
ByLayer
370
18
48
1
60
0
100
AcDbLine
10
77.90625
20
34.50855
30
0
11
81.5
21
38.1023
31
0
39
0
210
0
220
0
230
1
0
LINE
5
CD
100
AcDbEntity
8
1
62
256
6
ByLayer
370
18
48
1
60
0
100
AcDbLine
10
93.356972
20
80.5
30
0
11
96.482716
21
80.5
31
0
39
0
210
0
220
0
230
1
0
LINE
5
CE
100
AcDbEntity
8
1
62
256
6
ByLayer
370
18
48
1
60
0
100
AcDbLine
10
93.902219
20
80.35
30
0
11
106
21
80.35
31
0
39
0
210
0
220
0
230
1
0
LINE
5
CF
100
AcDbEntity
8
1
62
256
6
ByLayer
370
18
48
1
60
0
100
AcDbLine
10
42.05
20
-85.005247
30
0
11
42.05
21
-64.434743
31
0
39
0
210
0
220
0
230
1
0
LINE
5
D0
100
AcDbEntity
8
1
62
256
6
ByLayer
370
18
48
1
60
0
100
AcDbLine
10
50
20
-84.932059
30
0
11
50
21
-85.005247
31
0
39
0
210
0
220
0
230
1
0
LINE
5
D1
100
AcDbEntity
8
1
62
256
6
ByLayer
370
18
48
1
60
0
100
AcDbLine
10
70
20
-85.5023
30
0
11
70
21
-84.932059
31
0
39
0
210
0
220
0
230
1
0
LINE
5
D2
100
AcDbEntity
8
1
62
256
6
ByLayer
370
18
48
1
60
0
100
AcDbLine
10
50
20
-85.005247
30
0
11
42.05
21
-85.005247
31
0
39
0
210
0
220
0
230
1
0
LINE
5
D3
100
AcDbEntity
8
1
62
256
6
ByLayer
370
18
48
1
60
0
100
AcDbLine
10
42.05
20
-85.5023
30
0
11
42.05
21
-85.005247
31
0
39
0
210
0
220
0
230
1
0
LINE
5
D4
100
AcDbEntity
8
1
62
256
6
ByLayer
370
18
48
1
60
0
100
AcDbLine
10
50
20
-84.932059
30
0
11
50
21
-79.279805
31
0
39
0
210
0
220
0
230
1
0
LINE
5
D5
100
AcDbEntity
8
1
62
256
6
ByLayer
370
18
48
1
60
0
100
AcDbLine
10
70
20
-83.613306
30
0
11
70
21
-84.932059
31
0
39
0
210
0
220
0
230
1
0
LINE
5
D6
100
AcDbEntity
8
1
62
256
6
ByLayer
370
13
48
1
60
0
100
AcDbLine
10
70
20
-84.932059
30
0
11
50
21
-84.932059
31
0
39
0
210
0
220
0
230
1
0
LINE
5
D7
100
AcDbEntity
8
1
62
256
6
ByLayer
370
18
48
1
60
0
100
AcDbLine
10
70
20
-57.766569
30
0
11
70
21
-83.613306
31
0
39
0
210
0
220
0
230
1
0
LINE
5
D8
100
AcDbEntity
8
1
62
256
6
ByLayer
370
18
48
1
60
0
100
AcDbLine
10
50
20
-79.279805
30
0
11
50
21
-58.915635
31
0
39
0
210
0
220
0
230
1
0
LINE
5
D9
100
AcDbEntity
8
1
62
256
6
ByLayer
370
13
48
1
60
0
100
AcDbLine
10
50
20
-79.279805
30
0
11
68.5
21
-79.279805
31
0
39
0
210
0
220
0
230
1
0
LINE
5
DA
100
AcDbEntity
8
1
62
256
6
ByLayer
370
13
48
1
60
0
100
AcDbLine
10
68.5
20
-79.279805
30
0
11
68.5
21
-58.915635
31
0
39
0
210
0
220
0
230
1
0
LINE
5
DB
100
AcDbEntity
8
1
62
256
6
ByLayer
370
18
48
1
60
0
100
AcDbLine
10
50
20
-58.915635
30
0
11
50
21
-46.658924
31
0
39
0
210
0
220
0
230
1
0
LINE
5
DC
100
AcDbEntity
8
1
62
256
6
ByLayer
370
13
48
1
60
0
100
AcDbLine
10
68.5
20
-58.915635
30
0
11
50
21
-58.915635
31
0
39
0
210
0
220
0
230
1
0
LINE
5
DD
100
AcDbEntity
8
1
62
256
6
ByLayer
370
18
48
1
60
0
100
AcDbLine
10
70
20
-20.0023
30
0
11
70
21
-46.658924
31
0
39
0
210
0
220
0
230
1
0
LINE
5
DE
100
AcDbEntity
8
1
62
256
6
ByLayer
370
18
48
1
60
0
100
AcDbLine
10
50
20
-13.5023
30
0
11
68.5
21
-13.5023
31
0
39
0
210
0
220
0
230
1
0
LINE
5
DF
100
AcDbEntity
8
1
62
256
6
ByLayer
370
13
48
1
60
0
100
AcDbLine
10
68.5
20
-20.0023
30
0
11
68.5
21
-13.5023
31
0
39
0
210
0
220
0
230
1
0
LINE
5
E0
100
AcDbEntity
8
1
62
256
6
ByLayer
370
13
48
1
60
0
100
AcDbLine
10
68.5
20
-20.0023
30
0
11
70
21
-20.0023
31
0
39
0
210
0
220
0
230
1
0
LINE
5
E1
100
AcDbEntity
8
1
62
256
6
ByLayer
370
18
48
1
60
0
100
AcDbLine
10
70
20
-15.0023
30
0
11
70
21
-20.0023
31
0
39
0
210
0
220
0
230
1
0
LINE
5
E2
100
AcDbEntity
8
1
62
256
6
ByLayer
370
13
48
1
60
0
100
AcDbLine
10
70
20
-46.658924
30
0
11
68.5
21
-46.658924
31
0
39
0
210
0
220
0
230
1
0
LINE
5
E3
100
AcDbEntity
8
1
62
256
6
ByLayer
370
13
48
1
60
0
100
AcDbLine
10
68.5
20
-58.915635
30
0
11
68.5
21
-46.658924
31
0
39
0
210
0
220
0
230
1
0
LINE
5
E4
100
AcDbEntity
8
1
62
256
6
ByLayer
370
18
48
1
60
0
100
AcDbLine
10
70
20
-46.658924
30
0
11
70
21
-57.766569
31
0
39
0
210
0
220
0
230
1
0
LINE
5
E5
100
AcDbEntity
8
1
62
256
6
ByLayer
370
13
48
1
60
0
100
AcDbLine
10
50
20
-46.658924
30
0
11
68.5
21
-46.658924
31
0
39
0
210
0
220
0
230
1
0
LINE
5
E6
100
AcDbEntity
8
1
62
256
6
ByLayer
370
13
48
1
60
0
100
AcDbLine
10
68.5
20
-46.658924
30
0
11
68.5
21
-20.0023
31
0
39
0
210
0
220
0
230
1
0
LINE
5
E7
100
AcDbEntity
8
1
62
256
6
ByLayer
370
13
48
1
60
0
100
AcDbLine
10
68.5
20
-20.0023
30
0
11
50
21
-20.0023
31
0
39
0
210
0
220
0
230
1
0
LINE
5
E8
100
AcDbEntity
8
1
62
256
6
ByLayer
370
18
48
1
60
0
100
AcDbLine
10
50
20
-46.658924
30
0
11
50
21
-20.0023
31
0
39
0
210
0
220
0
230
1
0
LINE
5
E9
100
AcDbEntity
8
1
62
256
6
ByLayer
370
18
48
1
60
0
100
AcDbLine
10
114.207786
20
89.651576
30
0
11
114.194532
21
89.272027
31
0
39
0
210
0
220
0
230
1
0
LINE
5
EA
100
AcDbEntity
8
1
62
256
6
ByLayer
370
18
48
1
60
0
100
AcDbLine
10
115.969706
20
79.647031
30
0
11
115.988717
21
80.191438
31
0
39
0
210
0
220
0
230
1
0
LINE
5
EB
100
AcDbEntity
8
1
62
256
6
ByLayer
370
18
48
1
60
0
100
AcDbLine
10
108.192404
20
87.022173
30
0
11
108.086421
21
86.852563
31
0
39
0
210
0
220
0
230
1
0
LINE
5
EC
100
AcDbEntity
8
1
62
256
6
ByLayer
370
18
48
1
60
0
100
AcDbLine
10
109.914864
20
87.419834
30
0
11
110.280894
21
87.191113
31
0
39
0
210
0
220
0
230
1
0
LINE
5
ED
100
AcDbEntity
8
1
62
256
6
ByLayer
370
18
48
1
60
0
100
AcDbLine
10
113.509283
20
89.601972
30
0
11
113.598812
21
88.95528
31
0
39
0
210
0
220
0
230
1
0
LINE
5
EE
100
AcDbEntity
8
1
62
256
6
ByLayer
370
18
48
1
60
0
100
AcDbLine
10
109.910718
20
87.53999
30
0
11
112.71474
21
89.015257
31
0
39
0
210
0
220
0
230
1
0
LINE
5
EF
100
AcDbEntity
8
1
62
256
6
ByLayer
370
18
48
1
60
0
100
AcDbLine
10
108.536914
20
87.476977
30
0
11
107.32723
21
86.59809
31
0
39
0
210
0
220
0
230
1
0
LINE
5
F0
100
AcDbEntity
8
1
62
256
6
ByLayer
370
18
48
1
60
0
100
AcDbLine
10
113.193757
20
89.26728
30
0
11
112.71474
21
89.015257
31
0
39
0
210
0
220
0
230
1
0
LINE
5
F1
100
AcDbEntity
8
1
62
256
6
ByLayer
370
18
48
1
60
0
100
AcDbLine
10
112.642316
20
89.538391
30
0
11
112.71474
21
89.015257
31
0
39
0
210
0
220
0
230
1
0
LINE
5
F2
100
AcDbEntity
8
1
62
256
6
ByLayer
370
18
48
1
60
0
100
AcDbLine
10
113.193757
20
89.26728
30
0
11
113.204673
21
89.579887
31
0
39
0
210
0
220
0
230
1
0
LINE
5
F3
100
AcDbEntity
8
1
62
256
6
ByLayer
370
18
48
1
60
0
100
AcDbLine
10
107.9
20
80.368777
30
0
11
111.690836
21
78
31
0
39
0
210
0
220
0
230
1
0
LINE
5
F4
100
AcDbEntity
8
1
62
256
6
ByLayer
370
18
48
1
60
0
100
AcDbLine
10
115.969706
20
79.647031
30
0
11
115.912191
21
78
31
0
39
0
210
0
220
0
230
1
0
LINE
5
F5
100
AcDbEntity
8
1
62
256
6
ByLayer
370
18
48
1
60
0
100
AcDbLine
10
111.690836
20
78
30
0
11
115.912191
21
78
31
0
39
0
210
0
220
0
230
1
0
LINE
5
F6
100
AcDbEntity
8
1
62
256
6
ByLayer
370
18
48
1
60
0
100
AcDbLine
10
108.393036
20
84.38146
30
0
11
115.969706
21
79.647031
31
0
39
0
210
0
220
0
230
1
0
LINE
5
F7
100
AcDbEntity
8
1
62
256
6
ByLayer
370
13
48
1
60
0
100
AcDbLine
10
107.430295
20
84.508163
30
0
11
107.9
21
83.15256
31
0
39
0
210
0
220
0
230
1
0
LINE
5
F8
100
AcDbEntity
8
1
62
256
6
ByLayer
370
13
48
1
60
0
100
AcDbLine
10
107.389775
20
83.403343
30
0
11
107.9
21
83.15256
31
0
39
0
210
0
220
0
230
1
0
LINE
5
F9
100
AcDbEntity
8
1
62
256
6
ByLayer
370
13
48
1
60
0
100
AcDbLine
10
105.811407
20
89.180398
30
0
11
106.898341
21
86.043423
31
0
39
0
210
0
220
0
230
1
0
LINE
5
FA
100
AcDbEntity
8
1
62
256
6
ByLayer
370
13
48
1
60
0
100
AcDbLine
10
107.9
20
83.15256
30
0
11
107.9
21
80.368777
31
0
39
0
210
0
220
0
230
1
0
LINE
5
FB
100
AcDbEntity
8
1
62
256
6
ByLayer
370
13
48
1
60
0
100
AcDbLine
10
107.9
20
83.15256
30
0
11
107.5
21
82.748552
31
0
39
0
210
0
220
0
230
1
0
LINE
5
FC
100
AcDbEntity
8
1
62
256
6
ByLayer
370
18
48
1
60
0
100
AcDbLine
10
107.9
20
80.368777
30
0
11
107.884539
21
80.378438
31
0
39
0
210
0
220
0
230
1
0
LINE
5
FD
100
AcDbEntity
8
1
62
256
6
ByLayer
370
13
48
1
60
0
100
AcDbLine
10
107.05234
20
84.377205
30
0
11
107.430295
21
84.508163
31
0
39
0
210
0
220
0
230
1
0
LINE
5
FE
100
AcDbEntity
8
1
62
256
6
ByLayer
370
13
48
1
60
0
100
AcDbLine
10
106.638473
20
85.953381
30
0
11
106.898341
21
86.043423
31
0
39
0
210
0
220
0
230
1
0
LINE
5
FF
100
AcDbEntity
8
1
62
256
6
ByLayer
370
18
48
1
60
0
100
AcDbLine
10
114.207786
20
89.651576
30
0
11
114.209621
21
89.704123
31
0
39
0
210
0
220
0
230
1
0
LINE
5
100
100
AcDbEntity
8
1
62
256
6
ByLayer
370
18
48
1
60
0
100
AcDbLine
10
115.033742
20
89.718247
30
0
11
114.208605
21
89.675004
31
0
39
0
210
0
220
0
230
1
0
LINE
5
101
100
AcDbEntity
8
1
62
256
6
ByLayer
370
18
48
1
60
0
100
AcDbLine
10
105.408175
20
89.122392
30
0
11
105.793424
21
88.010534
31
0
39
0
210
0
220
0
230
1
0
LINE
5
102
100
AcDbEntity
8
1
62
256
6
ByLayer
370
18
48
1
60
0
100
AcDbLine
10
105.811407
20
89.180398
30
0
11
112.642316
21
89.538391
31
0
39
0
210
0
220
0
230
1
0
LINE
5
103
100
AcDbEntity
8
1
62
256
6
ByLayer
370
18
48
1
60
0
100
AcDbLine
10
113.204888
20
89.586019
30
0
11
113.204673
21
89.579887
31
0
39
0
210
0
220
0
230
1
0
LINE
5
104
100
AcDbEntity
8
1
62
256
6
ByLayer
370
18
48
1
60
0
100
AcDbLine
10
113.509283
20
89.601972
30
0
11
113.204888
21
89.586019
31
0
39
0
210
0
220
0
230
1
0
LINE
5
105
100
AcDbEntity
8
1
62
256
6
ByLayer
370
18
48
1
60
0
100
AcDbLine
10
107.460604
20
80.5
30
0
11
96.481654
21
80.5
31
0
39
0
210
0
220
0
230
1
0
LINE
5
106
100
AcDbEntity
8
1
62
256
6
ByLayer
370
18
48
1
60
0
100
AcDbLine
10
107.5
20
82.748552
30
0
11
107.5
21
80.499029
31
0
39
0
210
0
220
0
230
1
0
LINE
5
107
100
AcDbEntity
8
1
62
256
6
ByLayer
370
18
48
1
60
0
100
AcDbLine
10
107.389775
20
83.403343
30
0
11
105.793424
21
88.010534
31
0
39
0
210
0
220
0
230
1
0
LINE
5
108
100
AcDbEntity
8
1
62
256
6
ByLayer
370
13
48
1
60
0
100
AcDbLine
10
94
20
85.56772
30
0
11
94
21
80.5
31
0
39
0
210
0
220
0
230
1
0
LINE
5
109
100
AcDbEntity
8
1
62
256
6
ByLayer
370
18
48
1
60
0
100
AcDbLine
10
75.376074
20
30.690718
30
0
11
74.591035
21
45.670161
31
0
39
0
210
0
220
0
230
1
0
LINE
5
10A
100
AcDbEntity
8
1
62
256
6
ByLayer
370
13
48
1
60
0
100
AcDbLine
10
74.902927
20
30.165235
30
0
11
74.065552
21
46.143308
31
0
39
0
210
0
220
0
230
1
0
LINE
5
10B
100
AcDbEntity
8
1
62
256
6
ByLayer
370
18
48
1
60
0
100
AcDbLine
10
98.75
20
36.5613
30
0
11
89.25
21
36.5613
31
0
39
0
210
0
220
0
230
1
0
LINE
5
10C
100
AcDbEntity
8
SK1
62
256
6
ByLayer
370
18
48
1
60
0
100
AcDbLine
10
-16
20
-21.6015
30
0
11
-16
21
-11.7485
31
0
39
0
210
0
220
0
230
1
0
LINE
5
10D
100
AcDbEntity
8
SK1
62
256
6
ByLayer
370
18
48
1
60
0
100
AcDbLine
10
-14.9265
20
-22.675
30
0
11
-14.9265
21
-10.675
31
0
39
0
210
0
220
0
230
1
0
LINE
5
10E
100
AcDbEntity
8
1
62
256
6
ByLayer
370
18
48
1
60
0
100
AcDbLine
10
75.376074
20
-30.690718
30
0
11
74.591035
21
-45.670161
31
0
39
0
210
0
220
0
230
1
0
LINE
5
10F
100
AcDbEntity
8
1
62
256
6
ByLayer
370
13
48
1
60
0
100
AcDbLine
10
74.902927
20
-30.165235
30
0
11
74.065552
21
-46.143308
31
0
39
0
210
0
220
0
230
1
0
LINE
5
110
100
AcDbEntity
8
1
62
256
6
ByLayer
370
18
48
1
60
0
100
AcDbLine
10
107.895592
20
85.248586
30
0
11
116.056958
21
80.148798
31
0
39
0
210
0
220
0
230
1
0
LINE
5
111
100
AcDbEntity
8
1
62
256
6
ByLayer
370
18
48
1
60
0
100
AcDbLine
10
116.416811
20
90.453632
30
0
11
107.919582
21
85.935575
31
0
39
0
210
0
220
0
230
1
0
LINE
5
112
100
AcDbEntity
8
1
62
256
6
ByLayer
370
18
48
1
60
0
100
AcDbLine
10
116.663903
20
80.471516
30
0
11
116.999766
21
90.089361
31
0
39
0
210
0
220
0
230
1
0
LINE
5
113
100
AcDbEntity
8
1
62
256
6
ByLayer
370
18
48
1
60
0
100
AcDbLine
10
114.207786
20
89.651576
30
0
11
114.194532
21
89.272027
31
0
39
0
210
0
220
0
230
1
0
LINE
5
114
100
AcDbEntity
8
1
62
256
6
ByLayer
370
18
48
1
60
0
100
AcDbLine
10
115.969706
20
79.647031
30
0
11
115.988717
21
80.191438
31
0
39
0
210
0
220
0
230
1
0
LINE
5
115
100
AcDbEntity
8
1
62
256
6
ByLayer
370
18
48
1
60
0
100
AcDbLine
10
108.192404
20
87.022173
30
0
11
108.086421
21
86.852563
31
0
39
0
210
0
220
0
230
1
0
LINE
5
116
100
AcDbEntity
8
1
62
256
6
ByLayer
370
18
48
1
60
0
100
AcDbLine
10
113.509283
20
89.601972
30
0
11
113.598812
21
88.95528
31
0
39
0
210
0
220
0
230
1
0
LINE
5
117
100
AcDbEntity
8
1
62
256
6
ByLayer
370
18
48
1
60
0
100
AcDbLine
10
109.914864
20
87.419834
30
0
11
110.280894
21
87.191113
31
0
39
0
210
0
220
0
230
1
0
LINE
5
118
100
AcDbEntity
8
1
62
256
6
ByLayer
370
18
48
1
60
0
100
AcDbLine
10
107.9
20
80.368777
30
0
11
111.690836
21
78
31
0
39
0
210
0
220
0
230
1
0
LINE
5
119
100
AcDbEntity
8
1
62
256
6
ByLayer
370
18
48
1
60
0
100
AcDbLine
10
111.690836
20
78
30
0
11
115.912191
21
78
31
0
39
0
210
0
220
0
230
1
0
LINE
5
11A
100
AcDbEntity
8
1
62
256
6
ByLayer
370
18
48
1
60
0
100
AcDbLine
10
115.969706
20
79.647031
30
0
11
115.912191
21
78
31
0
39
0
210
0
220
0
230
1
0
LINE
5
11B
100
AcDbEntity
8
1
62
256
6
ByLayer
370
18
48
1
60
0
100
AcDbLine
10
108.393036
20
84.38146
30
0
11
115.969706
21
79.647031
31
0
39
0
210
0
220
0
230
1
0
LINE
5
11C
100
AcDbEntity
8
1
62
256
6
ByLayer
370
18
48
1
60
0
100
AcDbLine
10
113.193757
20
89.26728
30
0
11
112.71474
21
89.015257
31
0
39
0
210
0
220
0
230
1
0
LINE
5
11D
100
AcDbEntity
8
1
62
256
6
ByLayer
370
18
48
1
60
0
100
AcDbLine
10
113.193757
20
89.26728
30
0
11
113.204673
21
89.579887
31
0
39
0
210
0
220
0
230
1
0
LINE
5
11E
100
AcDbEntity
8
1
62
256
6
ByLayer
370
18
48
1
60
0
100
AcDbLine
10
112.642316
20
89.538391
30
0
11
112.71474
21
89.015257
31
0
39
0
210
0
220
0
230
1
0
LINE
5
11F
100
AcDbEntity
8
1
62
256
6
ByLayer
370
18
48
1
60
0
100
AcDbLine
10
108.536914
20
87.476977
30
0
11
107.32723
21
86.59809
31
0
39
0
210
0
220
0
230
1
0
LINE
5
120
100
AcDbEntity
8
1
62
256
6
ByLayer
370
18
48
1
60
0
100
AcDbLine
10
109.910718
20
87.53999
30
0
11
112.71474
21
89.015257
31
0
39
0
210
0
220
0
230
1
0
LINE
5
121
100
AcDbEntity
8
1
62
256
6
ByLayer
370
13
48
1
60
0
100
AcDbLine
10
107.389775
20
83.403343
30
0
11
107.9
21
83.15256
31
0
39
0
210
0
220
0
230
1
0
LINE
5
122
100
AcDbEntity
8
1
62
256
6
ByLayer
370
13
48
1
60
0
100
AcDbLine
10
107.430295
20
84.508163
30
0
11
107.9
21
83.15256
31
0
39
0
210
0
220
0
230
1
0
LINE
5
123
100
AcDbEntity
8
1
62
256
6
ByLayer
370
13
48
1
60
0
100
AcDbLine
10
105.811407
20
89.180398
30
0
11
106.898341
21
86.043423
31
0
39
0
210
0
220
0
230
1
0
LINE
5
124
100
AcDbEntity
8
1
62
256
6
ByLayer
370
13
48
1
60
0
100
AcDbLine
10
107.9
20
83.15256
30
0
11
107.9
21
80.368777
31
0
39
0
210
0
220
0
230
1
0
LINE
5
125
100
AcDbEntity
8
1
62
256
6
ByLayer
370
13
48
1
60
0
100
AcDbLine
10
107.9
20
83.15256
30
0
11
107.5
21
82.748552
31
0
39
0
210
0
220
0
230
1
0
LINE
5
126
100
AcDbEntity
8
1
62
256
6
ByLayer
370
18
48
1
60
0
100
AcDbLine
10
107.9
20
80.368777
30
0
11
107.884539
21
80.378438
31
0
39
0
210
0
220
0
230
1
0
LINE
5
127
100
AcDbEntity
8
1
62
256
6
ByLayer
370
13
48
1
60
0
100
AcDbLine
10
107.05234
20
84.377205
30
0
11
107.430295
21
84.508163
31
0
39
0
210
0
220
0
230
1
0
LINE
5
128
100
AcDbEntity
8
1
62
256
6
ByLayer
370
13
48
1
60
0
100
AcDbLine
10
106.638473
20
85.953381
30
0
11
106.898341
21
86.043423
31
0
39
0
210
0
220
0
230
1
0
LINE
5
129
100
AcDbEntity
8
1
62
256
6
ByLayer
370
18
48
1
60
0
100
AcDbLine
10
114.207786
20
89.651576
30
0
11
114.209621
21
89.704123
31
0
39
0
210
0
220
0
230
1
0
LINE
5
12A
100
AcDbEntity
8
1
62
256
6
ByLayer
370
18
48
1
60
0
100
AcDbLine
10
115.033742
20
89.718247
30
0
11
114.208605
21
89.675004
31
0
39
0
210
0
220
0
230
1
0
LINE
5
12B
100
AcDbEntity
8
1
62
256
6
ByLayer
370
18
48
1
60
0
100
AcDbLine
10
105.408175
20
89.122392
30
0
11
105.793424
21
88.010534
31
0
39
0
210
0
220
0
230
1
0
LINE
5
12C
100
AcDbEntity
8
1
62
256
6
ByLayer
370
18
48
1
60
0
100
AcDbLine
10
105.811407
20
89.180398
30
0
11
112.642316
21
89.538391
31
0
39
0
210
0
220
0
230
1
0
LINE
5
12D
100
AcDbEntity
8
1
62
256
6
ByLayer
370
18
48
1
60
0
100
AcDbLine
10
113.204888
20
89.586019
30
0
11
113.204673
21
89.579887
31
0
39
0
210
0
220
0
230
1
0
LINE
5
12E
100
AcDbEntity
8
1
62
256
6
ByLayer
370
18
48
1
60
0
100
AcDbLine
10
113.509283
20
89.601972
30
0
11
113.204888
21
89.586019
31
0
39
0
210
0
220
0
230
1
0
LINE
5
12F
100
AcDbEntity
8
1
62
256
6
ByLayer
370
18
48
1
60
0
100
AcDbLine
10
107.5
20
82.748552
30
0
11
107.5
21
80.499029
31
0
39
0
210
0
220
0
230
1
0
LINE
5
130
100
AcDbEntity
8
1
62
256
6
ByLayer
370
18
48
1
60
0
100
AcDbLine
10
107.389775
20
83.403343
30
0
11
105.793424
21
88.010534
31
0
39
0
210
0
220
0
230
1
0
LINE
5
131
100
AcDbEntity
8
1
62
256
6
ByLayer
370
13
48
1
60
0
100
AcDbLine
10
94
20
85.56772
30
0
11
94
21
80.5
31
0
39
0
210
0
220
0
230
1
0
LINE
5
132
100
AcDbEntity
8
1
62
256
6
ByLayer
370
18
48
1
60
0
100
AcDbLine
10
107.460604
20
80.5
30
0
11
96.481654
21
80.5
31
0
39
0
210
0
220
0
230
1
0
LINE
5
133
100
AcDbEntity
8
1
62
256
6
ByLayer
370
18
48
1
60
0
100
AcDbLine
10
107.5
20
-35.5023
30
0
11
107.5
21
-83.5023
31
0
39
0
210
0
220
0
230
1
0
LINE
5
134
100
AcDbEntity
8
1
62
256
6
ByLayer
370
18
48
1
60
0
100
AcDbLine
10
70.3
20
-45.946329
30
0
11
70.3
21
-85.3023
31
0
39
0
210
0
220
0
230
1
0
LINE
5
135
100
AcDbEntity
8
1
62
256
6
ByLayer
370
18
48
1
60
0
100
AcDbLine
10
105.7
20
-33.7023
30
0
11
105.7
21
-85.3023
31
0
39
0
210
0
220
0
230
1
0
LINE
5
136
100
AcDbEntity
8
1
62
256
6
ByLayer
370
18
48
1
60
0
100
AcDbLine
10
41.8
20
64.435219
30
0
11
49.4
21
64.435219
31
0
39
0
210
0
220
0
230
1
0
LINE
5
137
100
AcDbEntity
8
1
62
256
6
ByLayer
370
18
48
1
60
0
100
AcDbLine
10
41
20
64.536327
30
0
11
41
21
65
31
0
39
0
210
0
220
0
230
1
0
LINE
5
138
100
AcDbEntity
8
1
62
256
6
ByLayer
370
18
48
1
60
0
100
AcDbLine
10
41
20
-65
30
0
11
41
21
-64.536327
31
0
39
0
210
0
220
0
230
1
0
LINE
5
139
100
AcDbEntity
8
1
62
256
6
ByLayer
370
18
48
1
60
0
100
AcDbLine
10
49.4
20
-64.435219
30
0
11
41.8
21
-64.435219
31
0
39
0
210
0
220
0
230
1
0
LINE
5
13A
100
AcDbEntity
8
1
62
256
6
ByLayer
370
13
48
1
60
0
100
AcDbLine
10
30.791052
20
56.565408
30
0
11
50
21
56.565408
31
0
39
0
210
0
220
0
230
1
0
LINE
5
13B
100
AcDbEntity
8
1
62
256
6
ByLayer
370
13
48
1
60
0
100
AcDbLine
10
50
20
-56.565408
30
0
11
38.473847
21
-56.565408
31
0
39
0
210
0
220
0
230
1
0
LINE
5
13C
100
AcDbEntity
8
1
62
256
6
ByLayer
370
13
48
1
60
0
100
AcDbLine
10
50
20
54.898327
30
0
11
28.422835
21
54.898327
31
0
39
0
210
0
220
0
230
1
0
LINE
5
13D
100
AcDbEntity
8
1
62
256
6
ByLayer
370
13
48
1
60
0
100
AcDbLine
10
37.004203
20
-54.898327
30
0
11
50
21
-54.898327
31
0
39
0
210
0
220
0
230
1
0
LINE
5
13E
100
AcDbEntity
8
1
62
256
6
ByLayer
370
13
48
1
60
0
100
AcDbLine
10
28.422835
20
-54.898327
30
0
11
30.973411
21
-54.898327
31
0
39
0
210
0
220
0
230
1
0
LINE
5
13F
100
AcDbEntity
8
1
62
256
6
ByLayer
370
18
48
1
60
0
100
AcDbLine
10
0
20
-49.4
30
0
11
0
21
49.4
31
0
39
0
210
0
220
0
230
1
0
LINE
5
140
100
AcDbEntity
8
1
62
256
6
ByLayer
370
18
48
1
60
0
100
AcDbLine
10
0.6
20
-50
30
0
11
0.6
21
50
31
0
39
0
210
0
220
0
230
1
0
LINE
5
141
100
AcDbEntity
8
1
62
256
6
ByLayer
370
13
48
1
60
0
100
AcDbLine
10
30.791052
20
64.943516
30
0
11
30.791052
21
56.565408
31
0
39
0
210
0
220
0
230
1
0
LINE
5
142
100
AcDbEntity
8
1
62
256
6
ByLayer
370
13
48
1
60
0
100
AcDbLine
10
30.791052
20
-58.24889
30
0
11
30.791052
21
-64.943516
31
0
39
0
210
0
220
0
230
1
0
LINE
5
143
100
AcDbEntity
8
1
62
256
6
ByLayer
370
13
48
1
60
0
100
AcDbLine
10
27.143828
20
44.945789
30
0
11
50
21
44.945789
31
0
39
0
210
0
220
0
230
1
0
LINE
5
144
100
AcDbEntity
8
1
62
256
6
ByLayer
370
13
48
1
60
0
100
AcDbLine
10
19.322923
20
59.03007
30
0
11
19.322923
21
27.93831
31
0
39
0
210
0
220
0
230
1
0
LINE
5
145
100
AcDbEntity
8
1
62
256
6
ByLayer
370
13
48
1
60
0
100
AcDbLine
10
19.322923
20
-27.93831
30
0
11
19.322923
21
-59.03007
31
0
39
0
210
0
220
0
230
1
0
LINE
5
146
100
AcDbEntity
8
1
62
256
6
ByLayer
370
18
48
1
60
0
100
AcDbLine
10
50
20
32.689077
30
0
11
50
21
-32.689077
31
0
39
0
210
0
220
0
230
1
0
LINE
5
147
100
AcDbEntity
8
1
62
256
6
ByLayer
370
13
48
1
60
0
100
AcDbLine
10
50
20
32.689077
30
0
11
21.442439
21
32.689077
31
0
39
0
210
0
220
0
230
1
0
LINE
5
148
100
AcDbEntity
8
1
62
256
6
ByLayer
370
13
48
1
60
0
100
AcDbLine
10
6.753195
20
50
30
0
11
6.753195
21
-50
31
0
39
0
210
0
220
0
230
1
0
LINE
5
149
100
AcDbEntity
8
1
62
256
6
ByLayer
370
13
48
1
60
0
100
AcDbLine
10
16.58302
20
-18.272734
30
0
11
16.58302
21
-55.117083
31
0
39
0
210
0
220
0
230
1
0
LINE
5
14A
100
AcDbEntity
8
1
62
256
6
ByLayer
370
13
48
1
60
0
100
AcDbLine
10
16.58302
20
55.117083
30
0
11
16.58302
21
18.272734
31
0
39
0
210
0
220
0
230
1
0
LINE
5
14B
100
AcDbEntity
8
1
62
256
6
ByLayer
370
13
48
1
60
0
100
AcDbLine
10
50
20
-44.945789
30
0
11
27.143828
21
-44.945789
31
0
39
0
210
0
220
0
230
1
0
LINE
5
14C
100
AcDbEntity
8
1
62
256
6
ByLayer
370
13
48
1
60
0
100
AcDbLine
10
21.442439
20
-32.689077
30
0
11
50
21
-32.689077
31
0
39
0
210
0
220
0
230
1
0
LINE
5
14D
100
AcDbEntity
8
1
62
256
6
ByLayer
370
18
48
1
60
0
100
AcDbLine
10
42.05
20
85.005247
30
0
11
42.05
21
64.434743
31
0
39
0
210
0
220
0
230
1
0
LINE
5
14E
100
AcDbEntity
8
1
62
256
6
ByLayer
370
18
48
1
60
0
100
AcDbLine
10
50
20
85.005247
30
0
11
50
21
84.221086
31
0
39
0
210
0
220
0
230
1
0
LINE
5
14F
100
AcDbEntity
8
1
62
256
6
ByLayer
370
18
48
1
60
0
100
AcDbLine
10
70.5
20
85.5023
30
0
11
70.5
21
84.221086
31
0
39
0
210
0
220
0
230
1
0
LINE
5
150
100
AcDbEntity
8
1
62
256
6
ByLayer
370
18
48
1
60
0
100
AcDbLine
10
42.05
20
85.5023
30
0
11
42.05
21
85.005247
31
0
39
0
210
0
220
0
230
1
0
LINE
5
151
100
AcDbEntity
8
1
62
256
6
ByLayer
370
18
48
1
60
0
100
AcDbLine
10
42.05
20
85.005247
30
0
11
50
21
85.005247
31
0
39
0
210
0
220
0
230
1
0
LINE
5
152
100
AcDbEntity
8
1
62
256
6
ByLayer
370
18
48
1
60
0
100
AcDbLine
10
50
20
79.895413
30
0
11
50
21
84.221086
31
0
39
0
210
0
220
0
230
1
0
LINE
5
153
100
AcDbEntity
8
1
62
256
6
ByLayer
370
18
48
1
60
0
100
AcDbLine
10
70.5
20
84.221086
30
0
11
70.5
21
83.631109
31
0
39
0
210
0
220
0
230
1
0
LINE
5
154
100
AcDbEntity
8
1
62
256
6
ByLayer
370
13
48
1
60
0
100
AcDbLine
10
50
20
84.221086
30
0
11
70.5
21
84.221086
31
0
39
0
210
0
220
0
230
1
0
LINE
5
155
100
AcDbEntity
8
1
62
256
6
ByLayer
370
18
48
1
60
0
100
AcDbLine
10
70.5
20
15.0023
30
0
11
70.5
21
15.011286
31
0
39
0
210
0
220
0
230
1
0
LINE
5
156
100
AcDbEntity
8
1
62
256
6
ByLayer
370
18
48
1
60
0
100
AcDbLine
10
63.939088
20
13.5023
30
0
11
69
21
13.5023
31
0
39
0
210
0
220
0
230
1
0
LINE
5
157
100
AcDbEntity
8
1
62
256
6
ByLayer
370
18
48
1
60
0
100
AcDbLine
10
50
20
60.090502
30
0
11
50
21
79.895413
31
0
39
0
210
0
220
0
230
1
0
LINE
5
158
100
AcDbEntity
8
1
62
256
6
ByLayer
370
13
48
1
60
0
100
AcDbLine
10
69
20
79.895413
30
0
11
50
21
79.895413
31
0
39
0
210
0
220
0
230
1
0
LINE
5
159
100
AcDbEntity
8
1
62
256
6
ByLayer
370
18
48
1
60
0
100
AcDbLine
10
70.5
20
83.631109
30
0
11
70.5
21
58.941435
31
0
39
0
210
0
220
0
230
1
0
LINE
5
15A
100
AcDbEntity
8
1
62
256
6
ByLayer
370
13
48
1
60
0
100
AcDbLine
10
69
20
60.090502
30
0
11
69
21
79.895413
31
0
39
0
210
0
220
0
230
1
0
LINE
5
15B
100
AcDbEntity
8
1
62
256
6
ByLayer
370
18
48
1
60
0
100
AcDbLine
10
50
20
47.833791
30
0
11
50
21
18.5023
31
0
39
0
210
0
220
0
230
1
0
LINE
5
15C
100
AcDbEntity
8
1
62
256
6
ByLayer
370
18
48
1
60
0
100
AcDbLine
10
70.5
20
18.5023
30
0
11
70.5
21
15.01124
31
0
39
0
210
0
220
0
230
1
0
LINE
5
15D
100
AcDbEntity
8
1
62
256
6
ByLayer
370
13
48
1
60
0
100
AcDbLine
10
69
20
18.5023
30
0
11
69
21
47.833791
31
0
39
0
210
0
220
0
230
1
0
LINE
5
15E
100
AcDbEntity
8
1
62
256
6
ByLayer
370
13
48
1
60
0
100
AcDbLine
10
70.5
20
18.5023
30
0
11
69
21
18.5023
31
0
39
0
210
0
220
0
230
1
0
LINE
5
15F
100
AcDbEntity
8
1
62
256
6
ByLayer
370
18
48
1
60
0
100
AcDbLine
10
70.5
20
47.833791
30
0
11
70.5
21
18.5023
31
0
39
0
210
0
220
0
230
1
0
LINE
5
160
100
AcDbEntity
8
1
62
256
6
ByLayer
370
18
48
1
60
0
100
AcDbLine
10
69
20
13.508554
30
0
11
63.93876
21
13.508554
31
0
39
0
210
0
220
0
230
1
0
LINE
5
161
100
AcDbEntity
8
1
62
256
6
ByLayer
370
13
48
1
60
0
100
AcDbLine
10
69
20
13.508554
30
0
11
69
21
18.5023
31
0
39
0
210
0
220
0
230
1
0
LINE
5
162
100
AcDbEntity
8
1
62
256
6
ByLayer
370
13
48
1
60
0
100
AcDbLine
10
50
20
18.5023
30
0
11
69
21
18.5023
31
0
39
0
210
0
220
0
230
1
0
LINE
5
163
100
AcDbEntity
8
1
62
256
6
ByLayer
370
18
48
1
60
0
100
AcDbLine
10
63.939088
20
13.5023
30
0
11
50
21
13.5023
31
0
39
0
210
0
220
0
230
1
0
LINE
5
164
100
AcDbEntity
8
1
62
256
6
ByLayer
370
18
48
1
60
0
100
AcDbLine
10
63.93876
20
13.508554
30
0
11
63.939088
21
13.5023
31
0
39
0
210
0
220
0
230
1
0
LINE
5
165
100
AcDbEntity
8
1
62
256
6
ByLayer
370
13
48
1
60
0
100
AcDbLine
10
70.5
20
47.833791
30
0
11
69
21
47.833791
31
0
39
0
210
0
220
0
230
1
0
LINE
5
166
100
AcDbEntity
8
1
62
256
6
ByLayer
370
18
48
1
60
0
100
AcDbLine
10
70.5
20
58.941435
30
0
11
70.5
21
47.833791
31
0
39
0
210
0
220
0
230
1
0
LINE
5
167
100
AcDbEntity
8
1
62
256
6
ByLayer
370
18
48
1
60
0
100
AcDbLine
10
50
20
47.833791
30
0
11
50
21
60.090502
31
0
39
0
210
0
220
0
230
1
0
LINE
5
168
100
AcDbEntity
8
1
62
256
6
ByLayer
370
13
48
1
60
0
100
AcDbLine
10
69
20
47.833791
30
0
11
50
21
47.833791
31
0
39
0
210
0
220
0
230
1
0
LINE
5
169
100
AcDbEntity
8
1
62
256
6
ByLayer
370
13
48
1
60
0
100
AcDbLine
10
69
20
47.833791
30
0
11
69
21
60.090502
31
0
39
0
210
0
220
0
230
1
0
LINE
5
16A
100
AcDbEntity
8
1
62
256
6
ByLayer
370
13
48
1
60
0
100
AcDbLine
10
50
20
60.090502
30
0
11
69
21
60.090502
31
0
39
0
210
0
220
0
230
1
0
LINE
5
16B
100
AcDbEntity
8
1
62
256
6
ByLayer
370
18
48
1
60
0
100
AcDbLine
10
84.320588
20
37.63272
30
0
11
84.320984
21
37.634581
31
0
39
0
210
0
220
0
230
1
0
LINE
5
16C
100
AcDbEntity
8
1
62
256
6
ByLayer
370
18
48
1
60
0
100
AcDbLine
10
103.666994
20
37.63272
30
0
11
103.666563
21
37.634745
31
0
39
0
210
0
220
0
230
1
0
LINE
5
16D
100
AcDbEntity
8
1
62
256
6
ByLayer
370
18
48
1
60
0
100
AcDbLine
10
84.538977
20
37.63272
30
0
11
84.539781
21
37.636583
31
0
39
0
210
0
220
0
230
1
0
LINE
5
16E
100
AcDbEntity
8
1
62
256
6
ByLayer
370
18
48
1
60
0
100
AcDbLine
10
103.435989
20
37.63272
30
0
11
103.435152
21
37.636755
31
0
39
0
210
0
220
0
230
1
0
LINE
5
16F
100
AcDbEntity
8
1
62
256
6
ByLayer
370
18
48
1
60
0
100
AcDbLine
10
84.906572
20
37.63272
30
0
11
84.907771
21
37.638716
31
0
39
0
210
0
220
0
230
1
0
LINE
5
170
100
AcDbEntity
8
1
62
256
6
ByLayer
370
18
48
1
60
0
100
AcDbLine
10
103.056172
20
37.63272
30
0
11
103.054942
21
37.638902
31
0
39
0
210
0
220
0
230
1
0
LINE
5
171
100
AcDbEntity
8
1
62
256
6
ByLayer
370
18
48
1
60
0
100
AcDbLine
10
85.417576
20
37.63272
30
0
11
85.41915
21
37.641069
31
0
39
0
210
0
220
0
230
1
0
LINE
5
172
100
AcDbEntity
8
1
62
256
6
ByLayer
370
18
48
1
60
0
100
AcDbLine
10
102.533535
20
37.63272
30
0
11
102.531931
21
37.641279
31
0
39
0
210
0
220
0
230
1
0
LINE
5
173
100
AcDbEntity
8
1
62
256
6
ByLayer
370
18
48
1
60
0
100
AcDbLine
10
86.877943
20
37.429297
30
0
11
86.876019
21
37.418247
31
0
39
0
210
0
220
0
230
1
0
LINE
5
174
100
AcDbEntity
8
1
62
256
6
ByLayer
370
18
48
1
60
0
100
AcDbLine
10
101.068441
20
37.429544
30
0
11
101.070394
21
37.418247
31
0
39
0
210
0
220
0
230
1
0
LINE
5
175
100
AcDbEntity
8
1
62
256
6
ByLayer
370
18
48
1
60
0
100
AcDbLine
10
86.835441
20
37.63272
30
0
11
86.837686
21
37.64701
31
0
39
0
210
0
220
0
230
1
0
LINE
5
176
100
AcDbEntity
8
1
62
256
6
ByLayer
370
18
48
1
60
0
100
AcDbLine
10
101.094888
20
37.63272
30
0
11
101.092617
21
37.647314
31
0
39
0
210
0
220
0
230
1
0
LINE
5
177
100
AcDbEntity
8
1
62
256
6
ByLayer
370
18
48
1
60
0
100
AcDbLine
10
87.719941
20
37.63272
30
0
11
87.722472
21
37.651112
31
0
39
0
210
0
220
0
230
1
0
LINE
5
178
100
AcDbEntity
8
1
62
256
6
ByLayer
370
18
48
1
60
0
100
AcDbLine
10
100.201566
20
37.63272
30
0
11
100.199014
21
37.651508
31
0
39
0
210
0
220
0
230
1
0
LINE
5
179
100
AcDbEntity
8
1
62
256
6
ByLayer
370
18
48
1
60
0
100
AcDbLine
10
88.703481
20
37.63272
30
0
11
88.706257
21
37.656674
31
0
39
0
210
0
220
0
230
1
0
LINE
5
17A
100
AcDbEntity
8
1
62
256
6
ByLayer
370
18
48
1
60
0
100
AcDbLine
10
99.210442
20
37.63272
30
0
11
99.207649
21
37.657234
31
0
39
0
210
0
220
0
230
1
0
LINE
5
17B
100
AcDbEntity
8
1
62
256
6
ByLayer
370
18
48
1
60
0
100
AcDbLine
10
89.770551
20
37.63272
30
0
11
89.773528
21
37.664959
31
0
39
0
210
0
220
0
230
1
0
LINE
5
17C
100
AcDbEntity
8
1
62
256
6
ByLayer
370
18
48
1
60
0
100
AcDbLine
10
88.946998
20
38.094118
30
0
11
88.930584
21
38.102294
31
0
39
0
210
0
220
0
230
1
0
LINE
5
17D
100
AcDbEntity
8
1
62
256
6
ByLayer
370
18
48
1
60
0
100
AcDbLine
10
98.137147
20
37.63272
30
0
11
98.134155
21
37.665849
31
0
39
0
210
0
220
0
230
1
0
LINE
5
17E
100
AcDbEntity
8
1
62
256
6
ByLayer
370
18
48
1
60
0
100
AcDbLine
10
98.940216
20
38.092929
30
0
11
98.958601
21
38.102294
31
0
39
0
210
0
220
0
230
1
0
LINE
5
17F
100
AcDbEntity
8
1
62
256
6
ByLayer
370
18
48
1
60
0
100
AcDbLine
10
91.221452
20
37.464744
30
0
11
91.218321
21
37.418247
31
0
39
0
210
0
220
0
230
1
0
LINE
5
180
100
AcDbEntity
8
1
62
256
6
ByLayer
370
18
48
1
60
0
100
AcDbLine
10
90.291682
20
38.102299
30
0
11
90.331467
21
38.075125
31
0
39
0
210
0
220
0
230
1
0
LINE
5
181
100
AcDbEntity
8
1
62
256
6
ByLayer
370
18
48
1
60
0
100
AcDbLine
10
96.691438
20
37.466433
30
0
11
96.69458
21
37.418247
31
0
39
0
210
0
220
0
230
1
0
LINE
5
182
100
AcDbEntity
8
1
62
256
6
ByLayer
370
18
48
1
60
0
100
AcDbLine
10
97.591786
20
38.102299
30
0
11
97.550091
21
38.072885
31
0
39
0
210
0
220
0
230
1
0
LINE
5
183
100
AcDbEntity
8
1
62
256
6
ByLayer
370
18
48
1
60
0
100
AcDbLine
10
92.086913
20
37.63272
30
0
11
92.088931
21
37.681593
31
0
39
0
210
0
220
0
230
1
0
LINE
5
184
100
AcDbEntity
8
1
62
256
6
ByLayer
370
18
48
1
60
0
100
AcDbLine
10
92.088931
20
37.681593
30
0
11
91.711276
21
38.102294
31
0
39
0
210
0
220
0
230
1
0
LINE
5
185
100
AcDbEntity
8
1
62
256
6
ByLayer
370
18
48
1
60
0
100
AcDbLine
10
92.088931
20
37.681593
30
0
11
92.116638
21
37.681593
31
0
39
0
210
0
220
0
230
1
0
LINE
5
186
100
AcDbEntity
8
1
62
256
6
ByLayer
370
18
48
1
60
0
100
AcDbLine
10
95.812775
20
37.63272
30
0
11
95.810865
21
37.681593
31
0
39
0
210
0
220
0
230
1
0
LINE
5
187
100
AcDbEntity
8
1
62
256
6
ByLayer
370
18
48
1
60
0
100
AcDbLine
10
95.780556
20
37.681593
30
0
11
95.810865
21
37.681593
31
0
39
0
210
0
220
0
230
1
0
LINE
5
188
100
AcDbEntity
8
1
62
256
6
ByLayer
370
18
48
1
60
0
100
AcDbLine
10
95.810865
20
37.681593
30
0
11
96.168314
21
38.102294
31
0
39
0
210
0
220
0
230
1
0
LINE
5
189
100
AcDbEntity
8
1
62
256
6
ByLayer
370
18
48
1
60
0
100
AcDbLine
10
98.75
20
36.5613
30
0
11
91.18791
21
36.5613
31
0
39
0
210
0
220
0
230
1
0
LINE
5
18A
100
AcDbEntity
8
1
62
256
6
ByLayer
370
18
48
1
60
0
100
AcDbLine
10
91.18791
20
36.5613
30
0
11
89.25
21
36.5613
31
0
39
0
210
0
220
0
230
1
0
LINE
5
18B
100
AcDbEntity
8
1
62
256
6
ByLayer
370
18
48
1
60
0
100
AcDbLine
10
93.299674
20
37.63272
30
0
11
93.300387
21
37.681593
31
0
39
0
210
0
220
0
230
1
0
LINE
5
18C
100
AcDbEntity
8
1
62
256
6
ByLayer
370
18
48
1
60
0
100
AcDbLine
10
93.300387
20
37.681593
30
0
11
93.166958
21
38.102294
31
0
39
0
210
0
220
0
230
1
0
LINE
5
18D
100
AcDbEntity
8
1
62
256
6
ByLayer
370
18
48
1
60
0
100
AcDbLine
10
93.300387
20
37.681593
30
0
11
93.359
21
37.681593
31
0
39
0
210
0
220
0
230
1
0
LINE
5
18E
100
AcDbEntity
8
1
62
256
6
ByLayer
370
18
48
1
60
0
100
AcDbLine
10
94.598356
20
37.63272
30
0
11
94.597753
21
37.681593
31
0
39
0
210
0
220
0
230
1
0
LINE
5
18F
100
AcDbEntity
8
1
62
256
6
ByLayer
370
18
48
1
60
0
100
AcDbLine
10
94.536597
20
37.681593
30
0
11
94.597753
21
37.681593
31
0
39
0
210
0
220
0
230
1
0
LINE
5
190
100
AcDbEntity
8
1
62
256
6
ByLayer
370
18
48
1
60
0
100
AcDbLine
10
94.597753
20
37.681593
30
0
11
94.710653
21
38.102294
31
0
39
0
210
0
220
0
230
1
0
LINE
5
191
100
AcDbEntity
8
1
62
256
6
ByLayer
370
18
48
1
60
0
100
AcDbLine
10
104.323045
20
38.071969
30
0
11
104.928435
21
38.071969
31
0
39
0
210
0
220
0
230
1
0
LINE
5
192
100
AcDbEntity
8
1
62
256
6
ByLayer
370
18
48
1
60
0
100
AcDbLine
10
104.95641
20
38.071969
30
0
11
105.397953
21
38.071969
31
0
39
0
210
0
220
0
230
1
0
LINE
5
193
100
AcDbEntity
8
1
62
256
6
ByLayer
370
18
48
1
60
0
100
AcDbLine
10
105.416985
20
38.071969
30
0
11
105.687718
21
38.071969
31
0
39
0
210
0
220
0
230
1
0
LINE
5
194
100
AcDbEntity
8
1
62
256
6
ByLayer
370
18
48
1
60
0
100
AcDbLine
10
105.697508
20
38.071969
30
0
11
105.79316
21
38.071969
31
0
39
0
210
0
220
0
230
1
0
LINE
5
195
100
AcDbEntity
8
1
62
256
6
ByLayer
370
18
48
1
60
0
100
AcDbLine
10
82.206421
20
38.071969
30
0
11
82.287382
21
38.071969
31
0
39
0
210
0
220
0
230
1
0
LINE
5
196
100
AcDbEntity
8
1
62
256
6
ByLayer
370
18
48
1
60
0
100
AcDbLine
10
82.296392
20
38.071969
30
0
11
82.55264
21
38.071969
31
0
39
0
210
0
220
0
230
1
0
LINE
5
197
100
AcDbEntity
8
1
62
256
6
ByLayer
370
18
48
1
60
0
100
AcDbLine
10
82.57091
20
38.071969
30
0
11
82.998429
21
38.071969
31
0
39
0
210
0
220
0
230
1
0
LINE
5
198
100
AcDbEntity
8
1
62
256
6
ByLayer
370
18
48
1
60
0
100
AcDbLine
10
83.025672
20
38.071969
30
0
11
83.617719
21
38.071969
31
0
39
0
210
0
220
0
230
1
0
LINE
5
199
100
AcDbEntity
8
1
62
256
6
ByLayer
370
18
48
1
60
0
100
AcDbLine
10
83.653506
20
38.071969
30
0
11
84.400745
21
38.071969
31
0
39
0
210
0
220
0
230
1
0
LINE
5
19A
100
AcDbEntity
8
1
62
256
6
ByLayer
370
18
48
1
60
0
100
AcDbLine
10
84.44451
20
38.071969
30
0
11
85.335156
21
38.071969
31
0
39
0
210
0
220
0
230
1
0
LINE
5
19B
100
AcDbEntity
8
1
62
256
6
ByLayer
370
18
48
1
60
0
100
AcDbLine
10
85.38621
20
38.071969
30
0
11
86.406217
21
38.071969
31
0
39
0
210
0
220
0
230
1
0
LINE
5
19C
100
AcDbEntity
8
1
62
256
6
ByLayer
370
18
48
1
60
0
100
AcDbLine
10
86.463754
20
38.071969
30
0
11
87.597037
21
38.071969
31
0
39
0
210
0
220
0
230
1
0
LINE
5
19D
100
AcDbEntity
8
1
62
256
6
ByLayer
370
18
48
1
60
0
100
AcDbLine
10
87.66015
20
38.071969
30
0
11
88.888835
21
38.071969
31
0
39
0
210
0
220
0
230
1
0
LINE
5
19E
100
AcDbEntity
8
1
62
256
6
ByLayer
370
18
48
1
60
0
100
AcDbLine
10
88.956529
20
38.071969
30
0
11
90.261239
21
38.071969
31
0
39
0
210
0
220
0
230
1
0
LINE
5
19F
100
AcDbEntity
8
1
62
256
6
ByLayer
370
18
48
1
60
0
100
AcDbLine
10
90.332446
20
38.071969
30
0
11
91.692606
21
38.071969
31
0
39
0
210
0
220
0
230
1
0
LINE
5
1A0
100
AcDbEntity
8
1
62
256
6
ByLayer
370
18
48
1
60
0
100
AcDbLine
10
91.766203
20
38.071969
30
0
11
93.160362
21
38.071969
31
0
39
0
210
0
220
0
230
1
0
LINE
5
1A1
100
AcDbEntity
8
1
62
256
6
ByLayer
370
18
48
1
60
0
100
AcDbLine
10
93.235188
20
38.071969
30
0
11
94.641359
21
38.071969
31
0
39
0
210
0
220
0
230
1
0
LINE
5
1A2
100
AcDbEntity
8
1
62
256
6
ByLayer
370
18
48
1
60
0
100
AcDbLine
10
94.716235
20
38.071969
30
0
11
96.112242
21
38.071969
31
0
39
0
210
0
220
0
230
1
0
LINE
5
1A3
100
AcDbEntity
8
1
62
256
6
ByLayer
370
18
48
1
60
0
100
AcDbLine
10
96.185986
20
38.071969
30
0
11
97.549813
21
38.071969
31
0
39
0
210
0
220
0
230
1
0
LINE
5
1A4
100
AcDbEntity
8
1
62
256
6
ByLayer
370
18
48
1
60
0
100
AcDbLine
10
97.621263
20
38.071969
30
0
11
98.931402
21
38.071969
31
0
39
0
210
0
220
0
230
1
0
LINE
5
1A5
100
AcDbEntity
8
1
62
256
6
ByLayer
370
18
48
1
60
0
100
AcDbLine
10
98.99943
20
38.071969
30
0
11
100.235219
21
38.071969
31
0
39
0
210
0
220
0
230
1
0
LINE
5
1A6
100
AcDbEntity
8
1
62
256
6
ByLayer
370
18
48
1
60
0
100
AcDbLine
10
100.298754
20
38.071969
30
0
11
101.440704
21
38.071969
31
0
39
0
210
0
220
0
230
1
0
LINE
5
1A7
100
AcDbEntity
8
1
62
256
6
ByLayer
370
18
48
1
60
0
100
AcDbLine
10
101.498742
20
38.071969
30
0
11
102.528844
21
38.071969
31
0
39
0
210
0
220
0
230
1
0
LINE
5
1A8
100
AcDbEntity
8
1
62
256
6
ByLayer
370
18
48
1
60
0
100
AcDbLine
10
102.580471
20
38.071969
30
0
11
103.482479
21
38.071969
31
0
39
0
210
0
220
0
230
1
0
LINE
5
1A9
100
AcDbEntity
8
1
62
256
6
ByLayer
370
18
48
1
60
0
100
AcDbLine
10
103.52688
20
38.071969
30
0
11
104.28657
21
38.071969
31
0
39
0
210
0
220
0
230
1
0
LINE
5
1AA
100
AcDbEntity
8
1
62
256
6
ByLayer
370
18
48
1
60
0
100
AcDbLine
10
107.895592
20
85.248586
30
0
11
116.056958
21
80.148798
31
0
39
0
210
0
220
0
230
1
0
LINE
5
1AB
100
AcDbEntity
8
1
62
256
6
ByLayer
370
18
48
1
60
0
100
AcDbLine
10
116.416811
20
90.453632
30
0
11
107.919582
21
85.935575
31
0
39
0
210
0
220
0
230
1
0
LINE
5
1AC
100
AcDbEntity
8
1
62
256
6
ByLayer
370
18
48
1
60
0
100
AcDbLine
10
116.663903
20
80.471516
30
0
11
116.999766
21
90.089361
31
0
39
0
210
0
220
0
230
1
0
LINE
5
1AD
100
AcDbEntity
8
1
62
256
6
ByLayer
370
18
48
1
60
0
100
AcDbLine
10
33.972432
20
-54.139518
30
0
11
34.001701
21
-55.604218
31
0
39
0
210
0
220
0
230
1
0
LINE
5
1AE
100
AcDbEntity
8
1
62
256
6
ByLayer
370
18
48
1
60
0
100
AcDbLine
10
31.934287
20
-54.463524
30
0
11
31.946771
21
-55.08824
31
0
39
0
210
0
220
0
230
1
0
MTEXT
5
2DE
100
AcDbEntity
8
2
62
256
6
ByLayer
370
18
48
1
60
0
100
AcDbMText
10
148.750218
20
23.556117
30
0
210
0
220
0
230
1
1
\W0.8586;Dc finishing = 154.35 - 207.65
40
3
41
0
44
1.084337
50
89.9999999999995
71
7
72
5
7
iso_b_vert
0
MTEXT
5
2E1
100
AcDbEntity
8
SK6
62
256
6
ByLayer
370
18
48
1
60
0
100
AcDbMText
10
122.205919
20
97.390359
30
0
210
0
220
0
230
1
1
\W0.7572;826L-207TC11HP
40
3
41
0
44
1.084337
50
0
71
7
72
5
7
iso_b_vert
0
DIMENSION
5
2E4
100
AcDbEntity
8
2
62
256
6
ByLayer
370
18
48
1
60
0
100
AcDbDimension
2
_U0
10
117.000001
20
112.211732
30
0
11
58.5
21
112.211732
31
0
70
32
71
1
72
1
41
1
210
0
220
0
230
1
3
Standard
100
AcDbAlignedDimension
13
0
23
49.4
33
0
14
117.000001
24
90.5
34
0
50
0
100
AcDbRotatedDimension
1001
ACAD
1000
DSTYLE
1002
{
1070
   371
1070
    13
1070
   372
1070
    13
1070
   170
1070
     0
1070
   144
1040
1.0
1070
   277
1070
     2
1070
   278
1070
    46
1070
   146
1040
1.166667
1070
   345
1005
16
1070
   347
1005
16
1070
   346
1005
16
1070
   344
1005
0
1070
   343
1005
0
1070
   172
1070
     1
1070
    76
1070
     0
1070
    75
1070
     0
1070
   282
1070
     0
1070
   281
1070
     0
1070
    71
1070
     0
1070
   272
1070
     4
1070
    74
1070
     0
1070
   279
1070
     0
1070
   173
1070
     1
1070
   340
1005
2DF
1070
   271
1070
     1
1070
    77
1070
     1
1070
    73
1070
     1
1070
   171
1070
     4
1070
   274
1070
     4
1070
   177
1070
     7
1070
   176
1070
     7
1070
   178
1070
     7
1070
    41
1040
3.175
1070
   147
1040
1.5
1070
    42
1040
2.0
1070
    44
1040
2.0
1070
   140
1040
3.0
1002
}
1001
ACAD_DSTYLE_DIM_LINETYPE
1070
   380
1005
16
1001
ACAD_DSTYLE_DIM_EXT1_LINETYPE
1070
   381
1005
16
1001
ACAD_DSTYLE_DIM_EXT2_LINETYPE
1070
   382
1005
16
0
DIMENSION
5
2FD
100
AcDbEntity
8
SK2
62
256
6
ByLayer
370
18
48
1
60
0
100
AcDbDimension
2
_U1
10
-18.97867
20
-20.00625
30
0
11
-18.97867
21
0
31
0
70
32
71
1
72
1
41
1
210
0
220
0
230
1
3
Standard
100
AcDbAlignedDimension
13
10.269616
23
20.00625
33
0
14
1.039231
24
-20.00625
34
0
50
-90
100
AcDbRotatedDimension
1001
ACAD
1000
DSTYLE
1002
{
1070
   371
1070
    13
1070
   372
1070
    13
1070
     3
1000
\C7;] <>
1070
   170
1070
     0
1070
   144
1040
1.0
1070
   277
1070
     2
1070
   284
1070
     8
1070
   278
1070
    46
1070
   146
1040
1.0
1070
   345
1005
16
1070
   347
1005
16
1070
   346
1005
16
1070
   344
1005
0
1070
   343
1005
0
1070
   172
1070
     1
1070
    76
1070
     0
1070
    75
1070
     0
1070
   282
1070
     0
1070
   281
1070
     0
1070
    71
1070
     0
1070
   272
1070
     4
1070
    74
1070
     0
1070
   279
1070
     0
1070
   173
1070
     1
1070
   340
1005
2DF
1070
   271
1070
     0
1070
    77
1070
     1
1070
    73
1070
     0
1070
   171
1070
     4
1070
   274
1070
     4
1070
   177
1070
     7
1070
   176
1070
     7
1070
   178
1070
     7
1070
    78
1070
     8
1070
    41
1040
3.175
1070
   147
1040
1.75
1070
    42
1040
2.0
1070
    44
1040
2.0
1070
   140
1040
3.5
1002
}
1001
ACAD_DSTYLE_DIM_LINETYPE
1070
   380
1005
16
1001
ACAD_DSTYLE_DIM_EXT1_LINETYPE
1070
   381
1005
16
1001
ACAD_DSTYLE_DIM_EXT2_LINETYPE
1070
   382
1005
16
0
DIMENSION
5
317
100
AcDbEntity
8
SK2
62
256
6
ByLayer
370
18
48
1
60
0
100
AcDbDimension
2
_U2
10
-39.696803
20
-50
30
0
11
-39.696803
21
0
31
0
70
32
71
1
72
1
41
1
210
0
220
0
230
1
3
Standard
100
AcDbAlignedDimension
13
0.6
23
50
33
0
14
0.6
24
-50
34
0
50
-90
100
AcDbRotatedDimension
1001
ACAD
1000
DSTYLE
1002
{
1070
   371
1070
    13
1070
   372
1070
    13
1070
     3
1000
\C7;] <>
1070
   170
1070
     0
1070
   144
1040
1.0
1070
   277
1070
     2
1070
   284
1070
     8
1070
   278
1070
    46
1070
   146
1040
1.0
1070
   345
1005
16
1070
   347
1005
16
1070
   346
1005
16
1070
   344
1005
0
1070
   343
1005
0
1070
   172
1070
     1
1070
    76
1070
     0
1070
    75
1070
     0
1070
   282
1070
     0
1070
   281
1070
     0
1070
    71
1070
     0
1070
   272
1070
     4
1070
   271
1070
     4
1070
    74
1070
     0
1070
   279
1070
     0
1070
   173
1070
     1
1070
   340
1005
2DF
1070
    77
1070
     1
1070
    73
1070
     0
1070
   171
1070
     4
1070
   274
1070
     4
1070
   177
1070
     7
1070
   176
1070
     7
1070
   178
1070
     7
1070
    78
1070
     8
1070
    41
1040
3.175
1070
   147
1040
1.75
1070
    42
1040
2.0
1070
    44
1040
2.0
1070
   140
1040
3.5
1002
}
1001
ACAD_DSTYLE_DIM_LINETYPE
1070
   380
1005
16
1001
ACAD_DSTYLE_DIM_EXT1_LINETYPE
1070
   381
1005
16
1001
ACAD_DSTYLE_DIM_EXT2_LINETYPE
1070
   382
1005
16
0
DIMENSION
5
330
100
AcDbEntity
8
2
62
256
6
ByLayer
370
18
48
1
60
0
100
AcDbDimension
2
_U3
10
119.500001
20
90.5
30
0
11
126.311931
21
80.87182
31
0
70
34
71
1
72
1
41
1
210
0
220
0
230
1
3
Standard
100
AcDb2LineAngularDimension
13
116.663903
23
80.471516
33
0
14
116.999766
24
90.089361
34
0
15
118.500001
25
90.5
35
0
16
123.434943
26
78.755885
36
0
40
0
0
ENDSEC
0
SECTION
2
OBJECTS
0
DICTIONARY
5
3bc
330
0
100
AcDbDictionary
280
0
281
1
3
ACAD_GROUP
350
3bd
3
ACAD_MLINESTYLE
350
3be
0
DICTIONARY
5
3bd
330
0
100
AcDbDictionary
280
0
281
1
0
DICTIONARY
5
3be
330
0
100
AcDbDictionary
280
0
281
1
3
Standard
350
18
0
MLINESTYLE
5
18
330
3be
100
AcDbMlineStyle
2
Standard
70
0
3

62
256
51
90
52
90
71
2
49
-0.5
62
256
6
ByLayer
49
0.5
62
256
6
ByLayer
0
RASTERVARIABLES
5
3a9
330

100
AcDbRasterVariables
90
0
70
1
71
1
72
1
0
ENDSEC
0
EOF
