0
SECTION
2
HEADER
9
$ACADVER
1
AC1015
9
$DWGCODEPAGE
3
ANSI_1252
9
$HANDSEED
5
363
9
$ANGBASE
50
0
9
$ANGDIR
70
0
9
$ATTMODE
70
1
9
$AUNITS
70
0
9
$AUPREC
70
0
9
$CECOLOR
62
256
9
$CELTSCALE
40
1
9
$CELTYPE
6
ByLayer
9
$CELWEIGHT
370
18
9
$CLAYER
8
0
9
$CMLJUST
70
0
9
$CMLSCALE
40
1
9
$CMLSTYLE
2
Standard
9
$DIMSTYLE
2
Standard
9
$TEXTSIZE
40
0.2
9
$TEXTSTYLE
7
Standard
9
$LUNITS
70
2
9
$LUPREC
70
4
9
$EXTNAMES
290
1
9
$INSUNITS
70
4
9
$LTSCALE
40
1
9
$LWDISPLAY
290
1
9
$PDMODE
70
0
9
$PDSIZE
40
0
9
$PLINEGEN
70
0
0
ENDSEC
0
SECTION
2
CLASSES
0
CLASS
1
RASTERVARIABLES
2
AcDbRasterVariables
3
ISM
90
0
280
0
281
0
0
ENDSEC
0
SECTION
2
TABLES
0
TABLE
2
VPORT
5
359
100
AcDbSymbolTable
0
VPORT
5
1
100
AcDbSymbolTableRecord
100
AcDbViewportTableRecord
2
*Active
70
0
10
0
20
0
11
1
21
1
12
-1
22
1
13
0
23
0
14
0.5
24
0.5
15
10
25
10
16
0
26
0
36
1
17
0
27
0
37
0
0
ENDTAB
0
TABLE
2
LTYPE
5
35a
100
AcDbSymbolTable
0
LTYPE
5
14
100
AcDbSymbolTableRecord
100
AcDbLinetypeTableRecord
70
0
2
ByBlock
3

72
65
73
0
40
0
0
LTYPE
5
15
100
AcDbSymbolTableRecord
100
AcDbLinetypeTableRecord
70
0
2
ByLayer
3

72
65
73
0
40
0
0
LTYPE
5
16
100
AcDbSymbolTableRecord
100
AcDbLinetypeTableRecord
70
0
2
Continuous
3
Solid line
72
65
73
0
40
0
0
LTYPE
5
6E
100
AcDbSymbolTableRecord
100
AcDbLinetypeTableRecord
70
0
2
CENTER
3
____ _ ____ _ ____ _ ____
72
65
73
4
40
47.5
49
22
74
0
49
-8.5
74
0
49
8.5
74
0
49
-8.5
74
0
0
LTYPE
5
6F
100
AcDbSymbolTableRecord
100
AcDbLinetypeTableRecord
70
0
2
DASHED
3
__ __ __ __ __ __ __ __ __
72
65
73
2
40
25.72
49
12.86
74
0
49
-12.86
74
0
0
ENDTAB
0
TABLE
2
LAYER
5
35b
100
AcDbSymbolTable
0
LAYER
5
10
100
AcDbSymbolTableRecord
100
AcDbLayerTableRecord
2
0
70
0
62
7
6
Continuous
290
1
370
-3
390
0
0
LAYER
5
71
100
AcDbSymbolTableRecord
100
AcDbLayerTableRecord
2
80
70
0
62
-6
6
Continuous
290
1
370
-3
390
0
0
LAYER
5
73
100
AcDbSymbolTableRecord
100
AcDbLayerTableRecord
2
81
70
0
62
-3
6
Continuous
290
1
370
-3
390
0
0
LAYER
5
75
100
AcDbSymbolTableRecord
100
AcDbLayerTableRecord
2
1
70
0
62
4
6
Continuous
290
1
370
-3
390
0
0
LAYER
5
185
100
AcDbSymbolTableRecord
100
AcDbLayerTableRecord
2
4
70
0
62
-2
6
CENTER
290
1
370
-3
390
0
0
LAYER
5
1A6
100
AcDbSymbolTableRecord
100
AcDbLayerTableRecord
2
2
70
0
62
7
6
Continuous
290
1
370
-3
390
0
0
LAYER
5
29C
100
AcDbSymbolTableRecord
100
AcDbLayerTableRecord
2
Defpoints
70
0
62
7
6
Continuous
290
0
370
-3
390
0
0
LAYER
5
346
100
AcDbSymbolTableRecord
100
AcDbLayerTableRecord
2
SK4
70
0
62
2
6
CENTER
290
1
370
-3
390
0
0
LAYER
5
347
100
AcDbSymbolTableRecord
100
AcDbLayerTableRecord
2
SK2
70
0
62
7
6
Continuous
290
1
370
-3
390
0
0
LAYER
5
348
100
AcDbSymbolTableRecord
100
AcDbLayerTableRecord
2
SK6
70
0
62
5
6
Continuous
290
1
370
-3
390
0
0
ENDTAB
0
TABLE
2
STYLE
5
35c
100
AcDbSymbolTable
0
STYLE
5
11
100
AcDbSymbolTableRecord
100
AcDbTextStyleTableRecord
2
Standard
3
txt
70
0
71
0
40
0
41
1
42
0
50
0
0
STYLE
5
271
100
AcDbSymbolTableRecord
100
AcDbTextStyleTableRecord
2
iso_b_vert
3
simplex.shx
70
0
71
0
40
0
41
1
42
0
50
0
0
STYLE
5
272
100
AcDbSymbolTableRecord
100
AcDbTextStyleTableRecord
2
DWGDirectTextStyle
3
simplex
70
0
71
0
40
0
41
1
42
0
50
0
0
ENDTAB
0
TABLE
2
DIMSTYLE
5
35d
100
AcDbSymbolTable
100
AcDbDimStyleTable
0
DIMSTYLE
105
27
100
AcDbSymbolTableRecord
100
AcDbDimStyleTableRecord
2
Standard
70
0
3
<>
41
0.18
42
0.0625
44
0.18
140
0.18
147
0.09
73
0
74
0
77
1
271
2
275
0
278
52
280
0
340
11
0
ENDTAB
0
TABLE
2
VIEW
5
35e
100
AcDbSymbolTable
0
ENDTAB
0
TABLE
2
UCS
5
35f
100
AcDbSymbolTable
0
ENDTAB
0
TABLE
2
APPID
5
360
100
AcDbSymbolTable
0
APPID
5
12
100
AcDbSymbolTableRecord
100
AcDbRegAppTableRecord
2
ACAD
70
0
0
APPID
5
298
100
AcDbSymbolTableRecord
100
AcDbRegAppTableRecord
2
ACAD_DSTYLE_DIMBREAK
70
0
0
APPID
5
305
100
AcDbSymbolTableRecord
100
AcDbRegAppTableRecord
2
ACAD_DSTYLE_DIM_LINETYPE
70
0
0
APPID
5
306
100
AcDbSymbolTableRecord
100
AcDbRegAppTableRecord
2
ACAD_DSTYLE_DIM_EXT1_LINETYPE
70
0
0
APPID
5
307
100
AcDbSymbolTableRecord
100
AcDbRegAppTableRecord
2
ACAD_DSTYLE_DIM_EXT2_LINETYPE
70
0
0
APPID
5
342
100
AcDbSymbolTableRecord
100
AcDbRegAppTableRecord
2
ACAD_MLEADERVER
70
0
0
ENDTAB
0
TABLE
2
BLOCK_RECORD
5
361
100
AcDbSymbolTable
0
BLOCK_RECORD
5
1F
100
AcDbSymbolTableRecord
100
AcDbBlockTableRecord
2
*Model_Space
340
0
70
0
0
BLOCK_RECORD
5
1B
100
AcDbSymbolTableRecord
100
AcDbBlockTableRecord
2
*Paper_Space
340
0
70
0
0
BLOCK_RECORD
5
23
100
AcDbSymbolTableRecord
100
AcDbBlockTableRecord
2
*Paper_Space0
340
0
70
0
0
BLOCK_RECORD
5
29D
100
AcDbSymbolTableRecord
100
AcDbBlockTableRecord
2
*D1
340
0
70
0
0
BLOCK_RECORD
5
2AB
100
AcDbSymbolTableRecord
100
AcDbBlockTableRecord
2
_U0
340
0
70
0
0
BLOCK_RECORD
5
2B7
100
AcDbSymbolTableRecord
100
AcDbBlockTableRecord
2
*D3
340
0
70
0
0
BLOCK_RECORD
5
2C5
100
AcDbSymbolTableRecord
100
AcDbBlockTableRecord
2
_U1
340
0
70
0
0
BLOCK_RECORD
5
2D1
100
AcDbSymbolTableRecord
100
AcDbBlockTableRecord
2
*D5
340
0
70
0
0
BLOCK_RECORD
5
2DE
100
AcDbSymbolTableRecord
100
AcDbBlockTableRecord
2
_U2
340
0
70
0
0
ENDTAB
0
ENDSEC
0
SECTION
2
BLOCKS
0
BLOCK
5
20
100
AcDbEntity
8
0
100
AcDbBlockBegin
2
*Model_Space
70
0
10
0
20
0
30
0
3
*Model_Space
0
ENDBLK
5
21
100
AcDbEntity
8
0
100
AcDbBlockEnd
0
BLOCK
5
1C
100
AcDbEntity
8
0
100
AcDbBlockBegin
2
*Paper_Space
70
0
10
0
20
0
30
0
3
*Paper_Space
0
ENDBLK
5
1D
100
AcDbEntity
8
0
100
AcDbBlockEnd
0
BLOCK
5
24
100
AcDbEntity
8
0
100
AcDbBlockBegin
2
*Paper_Space0
70
0
10
0
20
0
30
0
3
*Paper_Space0
0
ENDBLK
5
25
100
AcDbEntity
8
0
100
AcDbBlockEnd
0
BLOCK
5
29E
100
AcDbEntity
8
0
100
AcDbBlockBegin
2
*D1
70
1
10
0
20
0
30
0
3
*D1
0
LINE
5
2A0
100
AcDbEntity
8
0
62
256
6
ByLayer
370
-2
48
1
60
0
100
AcDbLine
10
16.75
20
51.5875
30
0
11
16.75
21
55
31
0
39
0
210
0
220
0
230
1
0
LINE
5
2A1
100
AcDbEntity
8
0
62
256
6
ByLayer
370
-2
48
1
60
0
100
AcDbLine
10
6.15
20
51.5875
30
0
11
6.15
21
55
31
0
39
0
210
0
220
0
230
1
0
LINE
5
2A2
100
AcDbEntity
8
0
62
256
6
ByLayer
370
-2
48
1
60
0
100
AcDbLine
10
6.15
20
53
30
0
11
-24.469048
21
53
31
0
39
0
210
0
220
0
230
1
0
LINE
5
2A3
100
AcDbEntity
8
0
62
256
6
ByLayer
370
-2
48
1
60
0
100
AcDbLine
10
20.25
20
53
30
0
11
23.75
21
53
31
0
39
0
210
0
220
0
230
1
0
LINE
5
2A4
100
AcDbEntity
8
0
62
256
6
ByLayer
370
-2
48
1
60
0
100
AcDbLine
10
2.65
20
53
30
0
11
-0.85
21
53
31
0
39
0
210
0
220
0
230
1
0
SOLID
5
2A5
100
AcDbEntity
8
0
62
256
6
ByLayer
370
-1
48
1
60
0
100
AcDbTrace
10
20.25
20
53.583333
30
0
11
20.25
21
52.416667
31
0
12
16.75
22
53
32
0
13
16.75
23
53
33
0
39
0
210
0
220
0
230
1
0
SOLID
5
2A6
100
AcDbEntity
8
0
62
256
6
ByLayer
370
-1
48
1
60
0
100
AcDbTrace
10
2.65
20
52.416667
30
0
11
2.65
21
53.583333
31
0
12
6.15
22
53
32
0
13
6.15
23
53
33
0
39
0
210
0
220
0
230
1
0
MTEXT
5
2A7
100
AcDbEntity
8
0
62
256
6
ByLayer
370
18
48
1
60
0
100
AcDbMText
10
-12.659524
20
61
30
0
210
0
220
0
230
1
1
\A1;10.6
40
4
41
0
44
1
50
0
71
5
72
5
7
iso_b_vert
0
POINT
5
2A8
100
AcDbEntity
8
Defpoints
62
0
6
ByLayer
370
-1
48
1
60
0
100
AcDbPoint
10
16.75
20
50
30
0
39
0
210
0
220
0
230
1
50
360
0
POINT
5
2A9
100
AcDbEntity
8
Defpoints
62
0
6
ByLayer
370
-1
48
1
60
0
100
AcDbPoint
10
6.15
20
50
30
0
39
0
210
0
220
0
230
1
50
360
0
POINT
5
2AA
100
AcDbEntity
8
Defpoints
62
0
6
ByLayer
370
-1
48
1
60
0
100
AcDbPoint
10
6.15
20
53
30
0
39
0
210
0
220
0
230
1
50
360
0
ENDBLK
5
29F
100
AcDbEntity
8
0
100
AcDbBlockEnd
0
BLOCK
5
2B2
100
AcDbEntity
8
0
100
AcDbBlockBegin
2
_U0
70
0
10
0
20
0
30
0
3
_U0
0
MTEXT
5
2AC
100
AcDbEntity
8
SK2
62
256
6
ByLayer
370
13
48
1
60
0
100
AcDbMText
10
-7.026036
20
54.180153
30
0
210
0
220
0
230
1
1
\W0.6563;10.6
40
4
41
0
44
1.084337
50
0
71
7
72
5
7
iso_b_vert
0
LINE
5
2AD
100
AcDbEntity
8
SK2
62
256
6
ByLayer
370
13
48
1
60
0
100
AcDbLine
10
16.75
20
51.5875
30
0
11
16.75
21
55
31
0
39
0
210
0
220
0
230
1
0
LINE
5
2AE
100
AcDbEntity
8
SK2
62
256
6
ByLayer
370
13
48
1
60
0
100
AcDbLine
10
6.15
20
51.5875
30
0
11
6.15
21
55
31
0
39
0
210
0
220
0
230
1
0
LINE
5
2AF
100
AcDbEntity
8
SK2
62
256
6
ByLayer
370
13
48
1
60
0
100
AcDbLine
10
16.75
20
53
30
0
11
-7.238036
21
53
31
0
39
0
210
0
220
0
230
1
0
SOLID
5
2B0
100
AcDbEntity
8
SK2
62
256
6
ByLayer
370
18
48
1
60
0
100
AcDbTrace
10
16.75
20
53
30
0
11
13.250002
21
52.539216
31
0
12
13.249998
22
53.460784
32
0
13
13.249998
23
53.460784
33
0
39
0
210
0
220
0
230
1
0
SOLID
5
2B1
100
AcDbEntity
8
SK2
62
256
6
ByLayer
370
18
48
1
60
0
100
AcDbTrace
10
6.15
20
53
30
0
11
9.649998
21
53.460784
31
0
12
9.650002
22
52.539216
32
0
13
9.650002
23
52.539216
33
0
39
0
210
0
220
0
230
1
0
ENDBLK
5
2B3
100
AcDbEntity
8
0
100
AcDbBlockEnd
0
BLOCK
5
2B8
100
AcDbEntity
8
0
100
AcDbBlockBegin
2
*D3
70
1
10
0
20
0
30
0
3
*D3
0
LINE
5
2BA
100
AcDbEntity
8
0
62
256
6
ByLayer
370
-2
48
1
60
0
100
AcDbLine
10
0
20
-25.0875
30
0
11
0
21
-66
31
0
39
0
210
0
220
0
230
1
0
LINE
5
2BB
100
AcDbEntity
8
0
62
256
6
ByLayer
370
-2
48
1
60
0
100
AcDbLine
10
18.5
20
-25.0875
30
0
11
18.5
21
-66
31
0
39
0
210
0
220
0
230
1
0
LINE
5
2BC
100
AcDbEntity
8
0
62
256
6
ByLayer
370
-2
48
1
60
0
100
AcDbLine
10
0
20
-64
30
0
11
-32.115506
21
-64
31
0
39
0
210
0
220
0
230
1
0
LINE
5
2BD
100
AcDbEntity
8
0
62
256
6
ByLayer
370
-2
48
1
60
0
100
AcDbLine
10
-3.5
20
-64
30
0
11
-7
21
-64
31
0
39
0
210
0
220
0
230
1
0
LINE
5
2BE
100
AcDbEntity
8
0
62
256
6
ByLayer
370
-2
48
1
60
0
100
AcDbLine
10
22
20
-64
30
0
11
25.5
21
-64
31
0
39
0
210
0
220
0
230
1
0
SOLID
5
2BF
100
AcDbEntity
8
0
62
256
6
ByLayer
370
-1
48
1
60
0
100
AcDbTrace
10
-3.5
20
-64.583333
30
0
11
-3.5
21
-63.416667
31
0
12
0
22
-64
32
0
13
0
23
-64
33
0
39
0
210
0
220
0
230
1
0
SOLID
5
2C0
100
AcDbEntity
8
0
62
256
6
ByLayer
370
-1
48
1
60
0
100
AcDbTrace
10
22
20
-63.416667
30
0
11
22
21
-64.583333
31
0
12
18.5
22
-64
32
0
13
18.5
23
-64
33
0
39
0
210
0
220
0
230
1
0
MTEXT
5
2C1
100
AcDbEntity
8
0
62
256
6
ByLayer
370
18
48
1
60
0
100
AcDbMText
10
-20.305982
20
-56
30
0
210
0
220
0
230
1
1
\A1;18.5
40
4
41
0
44
1
50
0
71
5
72
5
7
iso_b_vert
0
POINT
5
2C2
100
AcDbEntity
8
Defpoints
62
0
6
ByLayer
370
-1
48
1
60
0
100
AcDbPoint
10
0
20
-23.5
30
0
39
0
210
0
220
0
230
1
50
360
0
POINT
5
2C3
100
AcDbEntity
8
Defpoints
62
0
6
ByLayer
370
-1
48
1
60
0
100
AcDbPoint
10
18.5
20
-23.5
30
0
39
0
210
0
220
0
230
1
50
360
0
POINT
5
2C4
100
AcDbEntity
8
Defpoints
62
0
6
ByLayer
370
-1
48
1
60
0
100
AcDbPoint
10
18.5
20
-64
30
0
39
0
210
0
220
0
230
1
50
360
0
ENDBLK
5
2B9
100
AcDbEntity
8
0
100
AcDbBlockEnd
0
BLOCK
5
2CC
100
AcDbEntity
8
0
100
AcDbBlockBegin
2
_U1
70
0
10
0
20
0
30
0
3
_U1
0
MTEXT
5
2C6
100
AcDbEntity
8
SK2
62
256
6
ByLayer
370
13
48
1
60
0
100
AcDbMText
10
-24.288
20
-62.819847
30
0
210
0
220
0
230
1
1
\W0.6563;18.5
40
4
41
0
44
1.084337
50
0
71
7
72
5
7
iso_b_vert
0
LINE
5
2C7
100
AcDbEntity
8
SK2
62
256
6
ByLayer
370
13
48
1
60
0
100
AcDbLine
10
0
20
-25.0875
30
0
11
0
21
-66
31
0
39
0
210
0
220
0
230
1
0
LINE
5
2C8
100
AcDbEntity
8
SK2
62
256
6
ByLayer
370
13
48
1
60
0
100
AcDbLine
10
18.5
20
-25.0875
30
0
11
18.5
21
-66
31
0
39
0
210
0
220
0
230
1
0
LINE
5
2C9
100
AcDbEntity
8
SK2
62
256
6
ByLayer
370
13
48
1
60
0
100
AcDbLine
10
18.5
20
-64
30
0
11
-24.5
21
-64
31
0
39
0
210
0
220
0
230
1
0
SOLID
5
2CA
100
AcDbEntity
8
SK2
62
256
6
ByLayer
370
18
48
1
60
0
100
AcDbTrace
10
0
20
-64
30
0
11
3.499998
21
-63.539216
31
0
12
3.500002
22
-64.460784
32
0
13
3.500002
23
-64.460784
33
0
39
0
210
0
220
0
230
1
0
SOLID
5
2CB
100
AcDbEntity
8
SK2
62
256
6
ByLayer
370
18
48
1
60
0
100
AcDbTrace
10
18.5
20
-64
30
0
11
15.000002
21
-64.460784
31
0
12
14.999998
22
-63.539216
32
0
13
14.999998
23
-63.539216
33
0
39
0
210
0
220
0
230
1
0
ENDBLK
5
2CD
100
AcDbEntity
8
0
100
AcDbBlockEnd
0
BLOCK
5
2D2
100
AcDbEntity
8
0
100
AcDbBlockBegin
2
*D5
70
1
10
0
20
0
30
0
3
*D5
0
LINE
5
2D4
100
AcDbEntity
8
0
62
256
6
ByLayer
370
-2
48
1
60
0
100
AcDbLine
10
16.75
20
51.5875
30
0
11
16.75
21
68.35
31
0
39
0
210
0
220
0
230
1
0
LINE
5
2D5
100
AcDbEntity
8
0
62
256
6
ByLayer
370
-2
48
1
60
0
100
AcDbLine
10
2.35
20
51.5875
30
0
11
2.35
21
68.35
31
0
39
0
210
0
220
0
230
1
0
LINE
5
2D6
100
AcDbEntity
8
0
62
256
6
ByLayer
370
-2
48
1
60
0
100
AcDbLine
10
20.25
20
66.35
30
0
11
23.75
21
66.35
31
0
39
0
210
0
220
0
230
1
0
LINE
5
2D7
100
AcDbEntity
8
0
62
256
6
ByLayer
370
-2
48
1
60
0
100
AcDbLine
10
-1.15
20
66.35
30
0
11
-4.65
21
66.35
31
0
39
0
210
0
220
0
230
1
0
SOLID
5
2D8
100
AcDbEntity
8
0
62
256
6
ByLayer
370
-1
48
1
60
0
100
AcDbTrace
10
20.25
20
66.933333
30
0
11
20.25
21
65.766667
31
0
12
16.75
22
66.35
32
0
13
16.75
23
66.35
33
0
39
0
210
0
220
0
230
1
0
SOLID
5
2D9
100
AcDbEntity
8
0
62
256
6
ByLayer
370
-1
48
1
60
0
100
AcDbTrace
10
-1.15
20
65.766667
30
0
11
-1.15
21
66.933333
31
0
12
2.35
22
66.35
32
0
13
2.35
23
66.35
33
0
39
0
210
0
220
0
230
1
0
MTEXT
5
2DA
100
AcDbEntity
8
0
62
256
6
ByLayer
370
18
48
1
60
0
100
AcDbMText
10
9.55
20
74.35
30
0
210
0
220
0
230
1
1
\A1;14.4
40
4
41
0
44
1
50
0
71
5
72
5
7
iso_b_vert
0
POINT
5
2DB
100
AcDbEntity
8
Defpoints
62
0
6
ByLayer
370
-1
48
1
60
0
100
AcDbPoint
10
16.75
20
50
30
0
39
0
210
0
220
0
230
1
50
360
0
POINT
5
2DC
100
AcDbEntity
8
Defpoints
62
0
6
ByLayer
370
-1
48
1
60
0
100
AcDbPoint
10
2.35
20
50
30
0
39
0
210
0
220
0
230
1
50
360
0
POINT
5
2DD
100
AcDbEntity
8
Defpoints
62
0
6
ByLayer
370
-1
48
1
60
0
100
AcDbPoint
10
2.35
20
66.35
30
0
39
0
210
0
220
0
230
1
50
360
0
ENDBLK
5
2D3
100
AcDbEntity
8
0
100
AcDbBlockEnd
0
BLOCK
5
2E5
100
AcDbEntity
8
0
100
AcDbBlockBegin
2
_U2
70
0
10
0
20
0
30
0
3
_U2
0
MTEXT
5
2DF
100
AcDbEntity
8
SK2
62
256
6
ByLayer
370
13
48
1
60
0
100
AcDbMText
10
5.146801
20
67.530153
30
0
210
0
220
0
230
1
1
\W0.7093;14.4
40
4
41
0
44
1.084337
50
0
71
7
72
5
7
iso_b_vert
0
LINE
5
2E0
100
AcDbEntity
8
SK2
62
256
6
ByLayer
370
13
48
1
60
0
100
AcDbLine
10
16.75
20
51.5875
30
0
11
16.75
21
68.35
31
0
39
0
210
0
220
0
230
1
0
LINE
5
2E1
100
AcDbEntity
8
SK2
62
256
6
ByLayer
370
13
48
1
60
0
100
AcDbLine
10
2.35
20
51.5875
30
0
11
2.35
21
68.35
31
0
39
0
210
0
220
0
230
1
0
LINE
5
2E2
100
AcDbEntity
8
SK2
62
256
6
ByLayer
370
13
48
1
60
0
100
AcDbLine
10
16.75
20
66.35
30
0
11
2.35
21
66.35
31
0
39
0
210
0
220
0
230
1
0
SOLID
5
2E3
100
AcDbEntity
8
SK2
62
256
6
ByLayer
370
18
48
1
60
0
100
AcDbTrace
10
16.75
20
66.35
30
0
11
13.250002
21
65.889216
31
0
12
13.249998
22
66.810784
32
0
13
13.249998
23
66.810784
33
0
39
0
210
0
220
0
230
1
0
SOLID
5
2E4
100
AcDbEntity
8
SK2
62
256
6
ByLayer
370
18
48
1
60
0
100
AcDbTrace
10
2.35
20
66.35
30
0
11
5.849998
21
66.810784
31
0
12
5.850002
22
65.889216
32
0
13
5.850002
23
65.889216
33
0
39
0
210
0
220
0
230
1
0
ENDBLK
5
2E6
100
AcDbEntity
8
0
100
AcDbBlockEnd
0
ENDSEC
0
SECTION
2
ENTITIES
0
ARC
5
1C1
100
AcDbEntity
8
1
62
256
6
ByLayer
370
18
48
1
60
0
100
AcDbCircle
39
0
10
16.95
20
-24.3
30
0
40
0.8
210
0
220
0
230
1
100
AcDbArc
50
90
51
180
0
ARC
5
1C2
100
AcDbEntity
8
1
62
256
6
ByLayer
370
18
48
1
60
0
100
AcDbCircle
39
0
10
16.95
20
24.3
30
0
40
0.8
210
0
220
0
230
1
100
AcDbArc
50
180
51
270
0
ARC
5
1C3
100
AcDbEntity
8
1
62
256
6
ByLayer
370
18
48
1
60
0
100
AcDbCircle
39
0
10
1.55
20
24.3
30
0
40
0.8
210
0
220
0
230
1
100
AcDbArc
50
270
51
0
0
ARC
5
1C4
100
AcDbEntity
8
1
62
256
6
ByLayer
370
18
48
1
60
0
100
AcDbCircle
39
0
10
1.55
20
-24.3
30
0
40
0.8
210
0
220
0
230
1
100
AcDbArc
50
0
51
90
0
ELLIPSE
5
1C5
100
AcDbEntity
8
1
62
256
6
ByLayer
370
18
48
1
60
0
100
AcDbEllipse
10
2.63498
20
-45.944695
30
0
11
0.0159229560418854
21
-0.149887274213239
31
0
210
0
220
0
230
1
40
0.365146
41
0.240481572548148
42
1.28767912373858
0
ELLIPSE
5
1C6
100
AcDbEntity
8
1
62
256
6
ByLayer
370
18
48
1
60
0
100
AcDbEllipse
10
2.63498
20
-45.721693
30
0
11
0.0159229560413022
21
-0.149887274212398
31
0
210
0
220
0
230
1
40
0.365146
41
1.28767912374802
42
2.33487667494192
0
ELLIPSE
5
1C7
100
AcDbEntity
8
1
62
256
6
ByLayer
370
18
48
1
60
0
100
AcDbEllipse
10
2.46018
20
-44.994188
30
0
11
0.0180460168468731
21
-0.169872244106949
31
0
210
0
220
0
230
1
40
0.365146
41
-2.90111108104073
42
-0.806715978647639
0
ELLIPSE
5
1C8
100
AcDbEntity
8
1
62
256
6
ByLayer
370
18
48
1
60
0
100
AcDbEllipse
10
2.63498
20
-44.489251
30
0
11
0.0159229560413651
21
-0.149887274212046
31
0
210
0
220
0
230
1
40
0.365146
41
0.240481572549237
42
1.28767912374547
0
ELLIPSE
5
1C9
100
AcDbEntity
8
1
62
256
6
ByLayer
370
18
48
1
60
0
100
AcDbEllipse
10
2.63498
20
-44.266249
30
0
11
0.015922956041325
21
-0.149887274211833
31
0
210
0
220
0
230
1
40
0.365146
41
1.28767912374547
42
2.33487667494349
0
ELLIPSE
5
1CA
100
AcDbEntity
8
1
62
256
6
ByLayer
370
18
48
1
60
0
100
AcDbEllipse
10
2.46018
20
-43.538744
30
0
11
0.018046016846856
21
-0.16987224410692
31
0
210
0
220
0
230
1
40
0.365146
41
-2.9011110810408
42
-0.806715978647322
0
ELLIPSE
5
1CB
100
AcDbEntity
8
1
62
256
6
ByLayer
370
18
48
1
60
0
100
AcDbEllipse
10
16.03982
20
-43.538744
30
0
11
0.0180460168468911
21
0.169872244106995
31
0
210
0
220
0
230
1
40
0.365146
41
-2.33487667494132
42
-0.240481572549466
0
ELLIPSE
5
1CC
100
AcDbEntity
8
1
62
256
6
ByLayer
370
18
48
1
60
0
100
AcDbEllipse
10
15.86502
20
-44.266249
30
0
11
0.0159229560412864
21
0.149887274212208
31
0
210
0
220
0
230
1
40
0.365146
41
0.806715978646757
42
1.85391352984208
0
ELLIPSE
5
1CD
100
AcDbEntity
8
1
62
256
6
ByLayer
370
18
48
1
60
0
100
AcDbEllipse
10
15.86502
20
-44.489251
30
0
11
0.0159229560413055
21
0.149887274211877
31
0
210
0
220
0
230
1
40
0.365146
41
1.85391352984341
42
2.90111108104067
0
ELLIPSE
5
1CE
100
AcDbEntity
8
1
62
256
6
ByLayer
370
18
48
1
60
0
100
AcDbEllipse
10
16.03982
20
-44.994188
30
0
11
0.018046016846863
21
0.169872244106936
31
0
210
0
220
0
230
1
40
0.365146
41
-2.33487667494222
42
-0.240481572549083
0
ELLIPSE
5
1CF
100
AcDbEntity
8
1
62
256
6
ByLayer
370
18
48
1
60
0
100
AcDbEllipse
10
15.86502
20
-45.721693
30
0
11
0.0159229560413597
21
0.149887274211735
31
0
210
0
220
0
230
1
40
0.365146
41
0.806715978646604
42
1.85391352984518
0
ELLIPSE
5
1D0
100
AcDbEntity
8
1
62
256
6
ByLayer
370
18
48
1
60
0
100
AcDbEllipse
10
15.86502
20
-45.944695
30
0
11
0.0159229560414724
21
0.149887274212292
31
0
210
0
220
0
230
1
40
0.365146
41
1.85391352984587
42
2.90111108104124
0
ELLIPSE
5
1D1
100
AcDbEntity
8
1
62
256
6
ByLayer
370
18
48
1
60
0
100
AcDbEllipse
10
2.454093
20
-19.726118
30
0
11
0.235332615580245
21
-0.390468092289379
31
0
210
0
220
0
230
1
40
0.36885
41
0.549198358562328
42
2.11999468535792
0
ELLIPSE
5
1D2
100
AcDbEntity
8
1
62
256
6
ByLayer
370
18
48
1
60
0
100
AcDbEllipse
10
16.045907
20
-19.726118
30
0
11
0.235332615580434
21
0.390468092289576
31
0
210
0
220
0
230
1
40
0.36885
41
1.02159796823256
42
2.59239429502706
0
ELLIPSE
5
1D3
100
AcDbEntity
8
1
62
256
6
ByLayer
370
18
48
1
60
0
100
AcDbEllipse
10
9.25
20
-15.599106
30
0
11
2.65
21
0
31
0
210
0
220
0
230
1
40
0.71934
41
-2.58494188575019
42
-0.55674932280988
0
ELLIPSE
5
1D4
100
AcDbEntity
8
1
62
256
6
ByLayer
370
18
48
1
60
0
100
AcDbEllipse
10
9.25
20
-17.613615
30
0
11
-2.65
21
3.2452068376293E-16
31
0
210
0
220
0
230
1
40
0.71934
41
1.84576602874811
42
-2.29947921201763
0
ELLIPSE
5
1D5
100
AcDbEntity
8
1
62
256
6
ByLayer
370
18
48
1
60
0
100
AcDbEllipse
10
9.25
20
-17.613615
30
0
11
-2.65
21
3.2452068376293E-16
31
0
210
0
220
0
230
1
40
0.71934
41
-0.842113441572163
42
1.29582662484169
0
ELLIPSE
5
1D6
100
AcDbEntity
8
1
62
256
6
ByLayer
370
18
48
1
60
0
100
AcDbEllipse
10
9.25
20
-8.776716
30
0
11
-3
21
3.67381906146713E-16
31
0
210
0
220
0
230
1
40
0.981627
41
0.278991847140944
42
2.39400830392077
0
ELLIPSE
5
1D7
100
AcDbEntity
8
1
62
256
6
ByLayer
370
18
48
1
60
0
100
AcDbEllipse
10
9.25
20
-10.398592
30
0
11
3
21
0
31
0
210
0
220
0
230
1
40
0.981627
41
3.1415925811338
42
0
0
ELLIPSE
5
1D8
100
AcDbEntity
8
1
62
256
6
ByLayer
370
18
48
1
60
0
100
AcDbEllipse
10
9.25
20
-10.398592
30
0
11
3
21
0
31
0
210
0
220
0
230
1
40
0.981627
41
0
42
1.01934862777252
0
ELLIPSE
5
1D9
100
AcDbEntity
8
1
62
256
6
ByLayer
370
18
48
1
60
0
100
AcDbEllipse
10
9.25
20
-10.398592
30
0
11
3
21
0
31
0
210
0
220
0
230
1
40
0.981627
41
2.12214579602944
42
3.1415925811338
0
ELLIPSE
5
1DA
100
AcDbEntity
8
1
62
256
6
ByLayer
370
18
48
1
60
0
100
AcDbEllipse
10
9.25
20
14.040887
30
0
11
-3
21
3.67381906146713E-16
31
0
210
0
220
0
230
1
40
0.656059
41
0
42
6.28318530717959
0
ELLIPSE
5
1DB
100
AcDbEntity
8
1
62
256
6
ByLayer
370
18
48
1
60
0
100
AcDbEllipse
10
9.25
20
13.811266
30
0
11
4
21
0
31
0
210
0
220
0
230
1
40
0.656059
41
0
42
3.14159265358979
0
ELLIPSE
5
1DC
100
AcDbEntity
8
1
62
256
6
ByLayer
370
18
48
1
60
0
100
AcDbEllipse
10
9.25
20
-18.406529
30
0
11
1.81796648901601E-16
21
2.96906264342264
31
0
210
0
220
0
230
1
40
0.892538
41
-0.728682885222732
42
0.728682885222735
0
ELLIPSE
5
1DD
100
AcDbEntity
8
1
62
256
6
ByLayer
370
18
48
1
60
0
100
AcDbEllipse
10
9.25
20
-10.778641
30
0
11
4
21
4.6858214583301E-15
31
0
210
0
220
0
230
1
40
0.971627
41
2.30372006939202
42
3.14159265358979
0
ELLIPSE
5
1DE
100
AcDbEntity
8
1
62
256
6
ByLayer
370
18
48
1
60
0
100
AcDbEllipse
10
9.25
20
-10.778641
30
0
11
4
21
4.6858214583301E-15
31
0
210
0
220
0
230
1
40
0.971627
41
0
42
0.837872584197774
0
ELLIPSE
5
1DF
100
AcDbEntity
8
1
62
256
6
ByLayer
370
18
48
1
60
0
100
AcDbEllipse
10
9.25
20
13.955554
30
0
11
4
21
4.6858214583301E-15
31
0
210
0
220
0
230
1
40
0.695612
41
0
42
3.14159265358979
0
ELLIPSE
5
1E0
100
AcDbEntity
8
1
62
256
6
ByLayer
370
18
48
1
60
0
100
AcDbEllipse
10
12.95
20
30.487309
30
0
11
-1
21
1.22460635382238E-16
31
0
210
0
220
0
230
1
40
0.605753
41
0
42
6.28318530717959
0
ELLIPSE
5
1E1
100
AcDbEntity
8
1
62
256
6
ByLayer
370
13
48
1
60
0
100
AcDbEllipse
10
12.95
20
30.487309
30
0
11
-1.4
21
1.71444889535133E-16
31
0
210
0
220
0
230
1
40
0.605753
41
-3.14159265358979
42
-4.18925309113557E-15
0
ELLIPSE
5
1E2
100
AcDbEntity
8
1
62
256
6
ByLayer
370
13
48
1
60
0
100
AcDbEllipse
10
14.35
20
30.566875
30
0
11
-0.1
21
1.22460635382238E-17
31
0
210
0
220
0
230
1
40
0.795653
41
1.5707963267949
42
3.14159265358979
0
ELLIPSE
5
1E3
100
AcDbEntity
8
1
62
256
6
ByLayer
370
13
48
1
60
0
100
AcDbEllipse
10
11.55
20
30.566875
30
0
11
0.1
21
0
31
0
210
0
220
0
230
1
40
0.795653
41
3.14159265358979
42
-1.5707963267949
0
ELLIPSE
5
1E4
100
AcDbEntity
8
1
62
256
6
ByLayer
370
13
48
1
60
0
100
AcDbEllipse
10
12.95
20
30.566875
30
0
11
1.5
21
0
31
0
210
0
220
0
230
1
40
0.605753
41
0
42
3.14159265358979
0
ELLIPSE
5
1E5
100
AcDbEntity
8
1
62
256
6
ByLayer
370
18
48
1
60
0
100
AcDbEllipse
10
2.63498
20
-34.737222
30
0
11
0.0437192101380848
21
0.149618811886726
31
0
210
0
220
0
230
1
40
0.244445
41
-0.696638052860808
42
0.350559498335519
0
ELLIPSE
5
1E6
100
AcDbEntity
8
1
62
256
6
ByLayer
370
18
48
1
60
0
100
AcDbEllipse
10
2.46018
20
-34.626951
30
0
11
0.0495484381564788
21
0.16956798680488
31
0
210
0
220
0
230
1
40
0.244445
41
1.39775704953242
42
-2.79103315525426
0
ELLIPSE
5
1E7
100
AcDbEntity
8
1
62
256
6
ByLayer
370
18
48
1
60
0
100
AcDbEllipse
10
2.63498
20
-33.854888
30
0
11
0.0437192101383563
21
0.149618811887238
31
0
210
0
220
0
230
1
40
0.244445
41
-1.74383560405364
42
-0.696638052861397
0
ELLIPSE
5
1E8
100
AcDbEntity
8
1
62
256
6
ByLayer
370
18
48
1
60
0
100
AcDbEllipse
10
2.63498
20
-33.695235
30
0
11
0.0437192101385388
21
0.149618811888005
31
0
210
0
220
0
230
1
40
0.244445
41
-0.696638052857645
42
0.35055949833393
0
ELLIPSE
5
1E9
100
AcDbEntity
8
1
62
256
6
ByLayer
370
18
48
1
60
0
100
AcDbEllipse
10
2.46018
20
-33.584964
30
0
11
0.0495484381564461
21
0.169567986804829
31
0
210
0
220
0
230
1
40
0.244445
41
1.39775704953189
42
-2.79103315525414
0
ELLIPSE
5
1EA
100
AcDbEntity
8
1
62
256
6
ByLayer
370
18
48
1
60
0
100
AcDbEllipse
10
2.63498
20
-32.8129
30
0
11
0.0437192101382345
21
0.149618811886999
31
0
210
0
220
0
230
1
40
0.244445
41
-1.74383560405524
42
-0.696638052861358
0
ELLIPSE
5
1EB
100
AcDbEntity
8
1
62
256
6
ByLayer
370
18
48
1
60
0
100
AcDbEllipse
10
2.63498
20
-32.653247
30
0
11
0.0437192101380282
21
0.149618811886547
31
0
210
0
220
0
230
1
40
0.244445
41
-0.696638052861317
42
0.350559498335565
0
ELLIPSE
5
1EC
100
AcDbEntity
8
1
62
256
6
ByLayer
370
18
48
1
60
0
100
AcDbEllipse
10
2.46018
20
-32.542976
30
0
11
0.0495484381564594
21
0.169567986804851
31
0
210
0
220
0
230
1
40
0.244445
41
1.39775704953206
42
-2.79103315525419
0
ELLIPSE
5
1ED
100
AcDbEntity
8
1
62
256
6
ByLayer
370
18
48
1
60
0
100
AcDbEllipse
10
2.63498
20
-31.770912
30
0
11
0.0437192101380723
21
0.149618811886664
31
0
210
0
220
0
230
1
40
0.244445
41
-1.74383560405728
42
-0.696638052861016
0
ELLIPSE
5
1EE
100
AcDbEntity
8
1
62
256
6
ByLayer
370
18
48
1
60
0
100
AcDbEllipse
10
2.63498
20
-31.611259
30
0
11
0.0437192101378335
21
0.149618811885958
31
0
210
0
220
0
230
1
40
0.244445
41
-0.696638052862712
42
0.350559498336223
0
ELLIPSE
5
1EF
100
AcDbEntity
8
1
62
256
6
ByLayer
370
18
48
1
60
0
100
AcDbEllipse
10
2.46018
20
-31.500988
30
0
11
0.0495484381564596
21
0.169567986804843
31
0
210
0
220
0
230
1
40
0.244445
41
1.39775704953207
42
-2.79103315525435
0
ELLIPSE
5
1F0
100
AcDbEntity
8
1
62
256
6
ByLayer
370
18
48
1
60
0
100
AcDbEllipse
10
2.63498
20
-30.728925
30
0
11
0.0437192101383735
21
0.149618811887294
31
0
210
0
220
0
230
1
40
0.244445
41
-1.7438356040537
42
-0.696638052862059
0
ELLIPSE
5
1F1
100
AcDbEntity
8
1
62
256
6
ByLayer
370
18
48
1
60
0
100
AcDbEllipse
10
2.63498
20
-30.569272
30
0
11
0.0437192101382914
21
0.149618811887342
31
0
210
0
220
0
230
1
40
0.244445
41
-0.69663805285938
42
0.350559498334791
0
ELLIPSE
5
1F2
100
AcDbEntity
8
1
62
256
6
ByLayer
370
18
48
1
60
0
100
AcDbEllipse
10
2.46018
20
-30.459001
30
0
11
0.0495484381564662
21
0.169567986804861
31
0
210
0
220
0
230
1
40
0.244445
41
1.39775704953219
42
-2.79103315525422
0
ELLIPSE
5
1F3
100
AcDbEntity
8
1
62
256
6
ByLayer
370
18
48
1
60
0
100
AcDbEllipse
10
2.63498
20
-29.686937
30
0
11
0.0437192101379041
21
0.149618811886334
31
0
210
0
220
0
230
1
40
0.244445
41
-1.74383560405948
42
-0.696638052860897
0
ELLIPSE
5
1F4
100
AcDbEntity
8
1
62
256
6
ByLayer
370
18
48
1
60
0
100
AcDbEllipse
10
2.63498
20
-29.527284
30
0
11
0.0437192101382821
21
0.149618811887318
31
0
210
0
220
0
230
1
40
0.244445
41
-0.696638052859404
42
0.350559498334753
0
ELLIPSE
5
1F5
100
AcDbEntity
8
1
62
256
6
ByLayer
370
18
48
1
60
0
100
AcDbEllipse
10
2.46018
20
-29.417013
30
0
11
0.0495484381564542
21
0.169567986804836
31
0
210
0
220
0
230
1
40
0.244445
41
1.39775704953198
42
-2.79103315525425
0
ELLIPSE
5
1F6
100
AcDbEntity
8
1
62
256
6
ByLayer
370
18
48
1
60
0
100
AcDbEllipse
10
2.63498
20
-28.64495
30
0
11
0.0437192101378178
21
0.149618811886155
31
0
210
0
220
0
230
1
40
0.244445
41
-1.74383560406064
42
-0.696638052860745
0
ELLIPSE
5
1F7
100
AcDbEntity
8
1
62
256
6
ByLayer
370
18
48
1
60
0
100
AcDbEllipse
10
2.63498
20
-28.485297
30
0
11
0.0437192101381989
21
0.149618811887062
31
0
210
0
220
0
230
1
40
0.244445
41
-0.696638052859998
42
0.350559498335085
0
ELLIPSE
5
1F8
100
AcDbEntity
8
1
62
256
6
ByLayer
370
18
48
1
60
0
100
AcDbEllipse
10
2.46018
20
-28.375026
30
0
11
0.0495484381564452
21
0.169567986804817
31
0
210
0
220
0
230
1
40
0.244445
41
1.39775704953186
42
-2.79103315525421
0
ELLIPSE
5
1F9
100
AcDbEntity
8
1
62
256
6
ByLayer
370
18
48
1
60
0
100
AcDbEllipse
10
2.63498
20
-27.602962
30
0
11
0.0437192101379505
21
0.149618811886438
31
0
210
0
220
0
230
1
40
0.244445
41
-1.74383560405903
42
-0.69663805286116
0
ELLIPSE
5
1FA
100
AcDbEntity
8
1
62
256
6
ByLayer
370
18
48
1
60
0
100
AcDbEllipse
10
2.63498
20
-27.443309
30
0
11
0.0437192101378879
21
0.149618811886169
31
0
210
0
220
0
230
1
40
0.244445
41
-0.696638052862269
42
0.350559498336011
0
ELLIPSE
5
1FB
100
AcDbEntity
8
1
62
256
6
ByLayer
370
18
48
1
60
0
100
AcDbEllipse
10
2.46018
20
-27.333038
30
0
11
0.0495484381564466
21
0.169567986804826
31
0
210
0
220
0
230
1
40
0.244445
41
1.39775704953187
42
-2.79103315525414
0
ELLIPSE
5
1FC
100
AcDbEntity
8
1
62
256
6
ByLayer
370
18
48
1
60
0
100
AcDbEllipse
10
2.63498
20
-26.560975
30
0
11
0.0437192101381823
21
0.149618811886902
31
0
210
0
220
0
230
1
40
0.244445
41
-1.74383560405604
42
-0.69663805286146
0
ELLIPSE
5
1FD
100
AcDbEntity
8
1
62
256
6
ByLayer
370
18
48
1
60
0
100
AcDbEllipse
10
2.63498
20
-26.401322
30
0
11
0.0437192101382084
21
0.149618811887087
31
0
210
0
220
0
230
1
40
0.244445
41
-0.696638052859969
42
0.350559498335024
0
ELLIPSE
5
1FE
100
AcDbEntity
8
1
62
256
6
ByLayer
370
18
48
1
60
0
100
AcDbEllipse
10
2.46018
20
-26.291051
30
0
11
0.0495484381564768
21
0.169567986804878
31
0
210
0
220
0
230
1
40
0.244445
41
1.39775704953231
42
-2.79103315525435
0
ELLIPSE
5
1FF
100
AcDbEntity
8
1
62
256
6
ByLayer
370
18
48
1
60
0
100
AcDbEllipse
10
2.63498
20
-25.518987
30
0
11
0.0437192101378212
21
0.149618811886177
31
0
210
0
220
0
230
1
40
0.244445
41
-1.74383560406067
42
-0.696638052860994
0
ELLIPSE
5
200
100
AcDbEntity
8
1
62
256
6
ByLayer
370
18
48
1
60
0
100
AcDbEllipse
10
2.63498
20
-25.359334
30
0
11
0.0437192101381989
21
0.149618811887062
31
0
210
0
220
0
230
1
40
0.244445
41
-0.696638052859998
42
0.350559498335085
0
ELLIPSE
5
201
100
AcDbEntity
8
1
62
256
6
ByLayer
370
18
48
1
60
0
100
AcDbEllipse
10
2.46018
20
-25.249063
30
0
11
0.049548438156465
21
0.169567986804856
31
0
210
0
220
0
230
1
40
0.244445
41
1.39775704953215
42
-2.79103315525429
0
ELLIPSE
5
202
100
AcDbEntity
8
1
62
256
6
ByLayer
370
18
48
1
60
0
100
AcDbEllipse
10
2.63498
20
-24.477
30
0
11
0.0437192101381358
21
0.149618811886795
31
0
210
0
220
0
230
1
40
0.244445
41
-1.74383560405653
42
-0.696638052861213
0
ELLIPSE
5
203
100
AcDbEntity
8
1
62
256
6
ByLayer
370
18
48
1
60
0
100
AcDbEllipse
10
2.63498
20
-24.317347
30
0
11
0.0437192101378783
21
0.149618811886145
31
0
210
0
220
0
230
1
40
0.244445
41
-0.696638052862397
42
0.350559498336071
0
ELLIPSE
5
204
100
AcDbEntity
8
1
62
256
6
ByLayer
370
18
48
1
60
0
100
AcDbEllipse
10
2.46018
20
-24.207076
30
0
11
0.0495484381564549
21
0.169567986804846
31
0
210
0
220
0
230
1
40
0.244445
41
1.39775704953202
42
-2.79103315525427
0
ELLIPSE
5
205
100
AcDbEntity
8
1
62
256
6
ByLayer
370
18
48
1
60
0
100
AcDbEllipse
10
2.63498
20
-23.435012
30
0
11
0.0437192101381539
21
0.149618811886838
31
0
210
0
220
0
230
1
40
0.244445
41
-1.74383560405635
42
-0.696638052861327
0
ELLIPSE
5
206
100
AcDbEntity
8
1
62
256
6
ByLayer
370
18
48
1
60
0
100
AcDbEllipse
10
2.63498
20
-23.275359
30
0
11
0.0437192101381778
21
0.149618811886954
31
0
210
0
220
0
230
1
40
0.244445
41
-0.696638052860218
42
0.350559498335144
0
ELLIPSE
5
207
100
AcDbEntity
8
1
62
256
6
ByLayer
370
18
48
1
60
0
100
AcDbEllipse
10
2.46018
20
-23.165088
30
0
11
0.0495484381564724
21
0.169567986804868
31
0
210
0
220
0
230
1
40
0.244445
41
1.39775704953223
42
-2.79103315525433
0
ELLIPSE
5
208
100
AcDbEntity
8
1
62
256
6
ByLayer
370
18
48
1
60
0
100
AcDbEllipse
10
2.63498
20
-22.393024
30
0
11
0.0437192101381532
21
0.149618811886837
31
0
210
0
220
0
230
1
40
0.244445
41
-1.74383560405635
42
-0.696638052861338
0
ELLIPSE
5
209
100
AcDbEntity
8
1
62
256
6
ByLayer
370
18
48
1
60
0
100
AcDbEllipse
10
2.63498
20
-22.233371
30
0
11
0.0437192101378091
21
0.149618811885986
31
0
210
0
220
0
230
1
40
0.244445
41
-0.696638052862836
42
0.350559498336276
0
ELLIPSE
5
20A
100
AcDbEntity
8
1
62
256
6
ByLayer
370
18
48
1
60
0
100
AcDbEllipse
10
2.46018
20
-22.1231
30
0
11
0.0495484381564606
21
0.169567986804851
31
0
210
0
220
0
230
1
40
0.244445
41
1.39775704953209
42
-2.7910331552542
0
ELLIPSE
5
20B
100
AcDbEntity
8
1
62
256
6
ByLayer
370
18
48
1
60
0
100
AcDbEllipse
10
2.63498
20
-21.351037
30
0
11
0.043719210138102
21
0.149618811886729
31
0
210
0
220
0
230
1
40
0.244445
41
-1.74383560405701
42
-0.696638052861134
0
ELLIPSE
5
20C
100
AcDbEntity
8
1
62
256
6
ByLayer
370
18
48
1
60
0
100
AcDbEllipse
10
2.63498
20
-21.191384
30
0
11
0.0437192101378547
21
0.149618811886067
31
0
210
0
220
0
230
1
40
0.244445
41
-0.696638052862482
42
0.350559498336163
0
ELLIPSE
5
20D
100
AcDbEntity
8
1
62
256
6
ByLayer
370
18
48
1
60
0
100
AcDbEllipse
10
2.46018
20
-21.081113
30
0
11
0.0495484381564469
21
0.169567986804823
31
0
210
0
220
0
230
1
40
0.244445
41
1.39775704953192
42
-2.79103315525422
0
ELLIPSE
5
20E
100
AcDbEntity
8
1
62
256
6
ByLayer
370
18
48
1
60
0
100
AcDbEllipse
10
16.03982
20
-21.081113
30
0
11
0.0495484381564987
21
-0.169567986804911
31
0
210
0
220
0
230
1
40
0.244445
41
-0.350559498335279
42
1.74383560405715
0
ELLIPSE
5
20F
100
AcDbEntity
8
1
62
256
6
ByLayer
370
18
48
1
60
0
100
AcDbEllipse
10
15.86502
20
-21.191384
30
0
11
0.043719210138229
21
-0.149618811887113
31
0
210
0
220
0
230
1
40
0.244445
41
2.79103315525475
42
-2.4449546007301
0
ELLIPSE
5
210
100
AcDbEntity
8
1
62
256
6
ByLayer
370
18
48
1
60
0
100
AcDbEllipse
10
15.86502
20
-21.351037
30
0
11
0.0437192101380043
21
-0.149618811886546
31
0
210
0
220
0
230
1
40
0.244445
41
-2.44495460072856
42
-1.39775704953134
0
ELLIPSE
5
211
100
AcDbEntity
8
1
62
256
6
ByLayer
370
18
48
1
60
0
100
AcDbEllipse
10
16.03982
20
-22.1231
30
0
11
0.0495484381565394
21
-0.169567986804991
31
0
210
0
220
0
230
1
40
0.244445
41
-0.350559498335275
42
1.74383560405659
0
ELLIPSE
5
212
100
AcDbEntity
8
1
62
256
6
ByLayer
370
18
48
1
60
0
100
AcDbEllipse
10
15.86502
20
-22.233371
30
0
11
0.0437192101377124
21
-0.149618811885696
31
0
210
0
220
0
230
1
40
0.244445
41
2.7910331552533
42
-2.44495460072641
0
ELLIPSE
5
213
100
AcDbEntity
8
1
62
256
6
ByLayer
370
18
48
1
60
0
100
AcDbEllipse
10
15.86502
20
-22.393024
30
0
11
0.0437192101375805
21
-0.149618811885682
31
0
210
0
220
0
230
1
40
0.244445
41
-2.44495460072917
42
-1.39775704952591
0
ELLIPSE
5
214
100
AcDbEntity
8
1
62
256
6
ByLayer
370
18
48
1
60
0
100
AcDbEllipse
10
16.03982
20
-23.165088
30
0
11
0.0495484381564683
21
-0.16956798680487
31
0
210
0
220
0
230
1
40
0.244445
41
-0.350559498335383
42
1.74383560405759
0
ELLIPSE
5
215
100
AcDbEntity
8
1
62
256
6
ByLayer
370
18
48
1
60
0
100
AcDbEllipse
10
15.86502
20
-23.275359
30
0
11
0.0437192101383458
21
-0.149618811887418
31
0
210
0
220
0
230
1
40
0.244445
41
2.79103315525511
42
-2.44495460073087
0
ELLIPSE
5
216
100
AcDbEntity
8
1
62
256
6
ByLayer
370
18
48
1
60
0
100
AcDbEllipse
10
15.86502
20
-23.435012
30
0
11
0.0437192101384559
21
-0.14961881188747
31
0
210
0
220
0
230
1
40
0.244445
41
-2.44495460072766
42
-1.39775704953709
0
ELLIPSE
5
217
100
AcDbEntity
8
1
62
256
6
ByLayer
370
18
48
1
60
0
100
AcDbEllipse
10
16.03982
20
-24.207076
30
0
11
0.0495484381564741
21
-0.169567986804871
31
0
210
0
220
0
230
1
40
0.244445
41
-0.350559498335376
42
1.74383560405749
0
ELLIPSE
5
218
100
AcDbEntity
8
1
62
256
6
ByLayer
370
18
48
1
60
0
100
AcDbEllipse
10
15.86502
20
-24.317347
30
0
11
0.0437192101378471
21
-0.149618811885968
31
0
210
0
220
0
230
1
40
0.244445
41
2.7910331552536
42
-2.44495460072716
0
ELLIPSE
5
219
100
AcDbEntity
8
1
62
256
6
ByLayer
370
18
48
1
60
0
100
AcDbEllipse
10
15.86502
20
-24.477
30
0
11
0.0437192101381485
21
-0.149618811886797
31
0
210
0
220
0
230
1
40
0.244445
41
-2.44495460072909
42
-1.39775704953356
0
ELLIPSE
5
21A
100
AcDbEntity
8
1
62
256
6
ByLayer
370
18
48
1
60
0
100
AcDbEllipse
10
16.03982
20
-25.249063
30
0
11
0.0495484381564521
21
-0.169567986804837
31
0
210
0
220
0
230
1
40
0.244445
41
-0.350559498335458
42
1.74383560405781
0
ELLIPSE
5
21B
100
AcDbEntity
8
1
62
256
6
ByLayer
370
18
48
1
60
0
100
AcDbEllipse
10
15.86502
20
-25.359334
30
0
11
0.0437192101387565
21
-0.149618811888713
31
0
210
0
220
0
230
1
40
0.244445
41
2.79103315525661
42
-2.44495460073403
0
ELLIPSE
5
21C
100
AcDbEntity
8
1
62
256
6
ByLayer
370
18
48
1
60
0
100
AcDbEllipse
10
15.86502
20
-25.518987
30
0
11
0.0437192101386783
21
-0.149618811887894
31
0
210
0
220
0
230
1
40
0.244445
41
-2.44495460072776
42
-1.39775704954013
0
ELLIPSE
5
21D
100
AcDbEntity
8
1
62
256
6
ByLayer
370
18
48
1
60
0
100
AcDbEllipse
10
16.03982
20
-26.291051
30
0
11
0.0495484381565214
21
-0.16956798680495
31
0
210
0
220
0
230
1
40
0.244445
41
-0.35055949833528
42
1.74383560405686
0
ELLIPSE
5
21E
100
AcDbEntity
8
1
62
256
6
ByLayer
370
18
48
1
60
0
100
AcDbEllipse
10
15.86502
20
-26.401322
30
0
11
0.0437192101383339
21
-0.149618811887404
31
0
210
0
220
0
230
1
40
0.244445
41
2.79103315525517
42
-2.4449546007308
0
ELLIPSE
5
21F
100
AcDbEntity
8
1
62
256
6
ByLayer
370
18
48
1
60
0
100
AcDbEllipse
10
15.86502
20
-26.560975
30
0
11
0.0437192101377429
21
-0.149618811886032
31
0
210
0
220
0
230
1
40
0.244445
41
-2.44495460072855
42
-1.39775704952786
0
ELLIPSE
5
220
100
AcDbEntity
8
1
62
256
6
ByLayer
370
18
48
1
60
0
100
AcDbEllipse
10
16.03982
20
-27.333038
30
0
11
0.0495484381565255
21
-0.169567986804968
31
0
210
0
220
0
230
1
40
0.244445
41
-0.35055949833533
42
1.74383560405681
0
ELLIPSE
5
221
100
AcDbEntity
8
1
62
256
6
ByLayer
370
18
48
1
60
0
100
AcDbEllipse
10
15.86502
20
-27.443309
30
0
11
0.043719210137952
21
-0.149618811886348
31
0
210
0
220
0
230
1
40
0.244445
41
2.79103315525393
42
-2.44495460072806
0
ELLIPSE
5
222
100
AcDbEntity
8
1
62
256
6
ByLayer
370
18
48
1
60
0
100
AcDbEllipse
10
15.86502
20
-27.602962
30
0
11
0.0437192101376615
21
-0.149618811885856
31
0
210
0
220
0
230
1
40
0.244445
41
-2.44495460072886
42
-1.39775704952688
0
ELLIPSE
5
223
100
AcDbEntity
8
1
62
256
6
ByLayer
370
18
48
1
60
0
100
AcDbEllipse
10
16.03982
20
-28.375026
30
0
11
0.0495484381564521
21
-0.169567986804837
31
0
210
0
220
0
230
1
40
0.244445
41
-0.350559498335458
42
1.74383560405781
0
ELLIPSE
5
224
100
AcDbEntity
8
1
62
256
6
ByLayer
370
18
48
1
60
0
100
AcDbEllipse
10
15.86502
20
-28.485297
30
0
11
0.0437192101383459
21
-0.149618811887366
31
0
210
0
220
0
230
1
40
0.244445
41
2.79103315525519
42
-2.44495460073073
0
ELLIPSE
5
225
100
AcDbEntity
8
1
62
256
6
ByLayer
370
18
48
1
60
0
100
AcDbEllipse
10
15.86502
20
-28.64495
30
0
11
0.0437192101382657
21
-0.149618811887059
31
0
210
0
220
0
230
1
40
0.244445
41
-2.44495460072844
42
-1.39775704953481
0
ELLIPSE
5
226
100
AcDbEntity
8
1
62
256
6
ByLayer
370
18
48
1
60
0
100
AcDbEllipse
10
16.03982
20
-29.417013
30
0
11
0.049548438156443
21
-0.169567986804811
31
0
210
0
220
0
230
1
40
0.244445
41
-0.350559498335423
42
1.74383560405798
0
ELLIPSE
5
227
100
AcDbEntity
8
1
62
256
6
ByLayer
370
18
48
1
60
0
100
AcDbEllipse
10
15.86502
20
-29.527284
30
0
11
0.0437192101387268
21
-0.149618811888562
31
0
210
0
220
0
230
1
40
0.244445
41
2.79103315525635
42
-2.4449546007337
0
ELLIPSE
5
228
100
AcDbEntity
8
1
62
256
6
ByLayer
370
18
48
1
60
0
100
AcDbEllipse
10
15.86502
20
-29.686937
30
0
11
0.0437192101380554
21
-0.149618811886614
31
0
210
0
220
0
230
1
40
0.244445
41
-2.44495460072899
42
-1.39775704953226
0
ELLIPSE
5
229
100
AcDbEntity
8
1
62
256
6
ByLayer
370
18
48
1
60
0
100
AcDbEllipse
10
16.03982
20
-30.459001
30
0
11
0.0495484381564723
21
-0.169567986804852
31
0
210
0
220
0
230
1
40
0.244445
41
-0.350559498335326
42
1.7438356040576
0
ELLIPSE
5
22A
100
AcDbEntity
8
1
62
256
6
ByLayer
370
18
48
1
60
0
100
AcDbEllipse
10
15.86502
20
-30.569272
30
0
11
0.0437192101385617
21
-0.149618811888095
31
0
210
0
220
0
230
1
40
0.244445
41
2.79103315525588
42
-2.4449546007325
0
ELLIPSE
5
22B
100
AcDbEntity
8
1
62
256
6
ByLayer
370
18
48
1
60
0
100
AcDbEllipse
10
15.86502
20
-30.728925
30
0
11
0.0437192101387401
21
-0.14961881188799
31
0
210
0
220
0
230
1
40
0.244445
41
-2.44495460072836
42
-1.39775704954118
0
ELLIPSE
5
22C
100
AcDbEntity
8
1
62
256
6
ByLayer
370
18
48
1
60
0
100
AcDbEllipse
10
16.03982
20
-31.500988
30
0
11
0.0495484381565198
21
-0.169567986804954
31
0
210
0
220
0
230
1
40
0.244445
41
-0.350559498335273
42
1.74383560405688
0
ELLIPSE
5
22D
100
AcDbEntity
8
1
62
256
6
ByLayer
370
18
48
1
60
0
100
AcDbEllipse
10
15.86502
20
-31.611259
30
0
11
0.0437192101371465
21
-0.149618811884123
31
0
210
0
220
0
230
1
40
0.244445
41
2.79103315525137
42
-2.44495460072233
0
ELLIPSE
5
22E
100
AcDbEntity
8
1
62
256
6
ByLayer
370
18
48
1
60
0
100
AcDbEllipse
10
15.86502
20
-31.770912
30
0
11
0.0437192101377055
21
-0.149618811885927
31
0
210
0
220
0
230
1
40
0.244445
41
-2.44495460072929
42
-1.39775704952771
0
ELLIPSE
5
22F
100
AcDbEntity
8
1
62
256
6
ByLayer
370
18
48
1
60
0
100
AcDbEllipse
10
16.03982
20
-32.542976
30
0
11
0.0495484381564723
21
-0.169567986804852
31
0
210
0
220
0
230
1
40
0.244445
41
-0.35055949833541
42
1.74383560405759
0
ELLIPSE
5
230
100
AcDbEntity
8
1
62
256
6
ByLayer
370
18
48
1
60
0
100
AcDbEllipse
10
15.86502
20
-32.653247
30
0
11
0.0437192101375445
21
-0.149618811885199
31
0
210
0
220
0
230
1
40
0.244445
41
2.79103315525266
42
-2.44495460072516
0
ELLIPSE
5
231
100
AcDbEntity
8
1
62
256
6
ByLayer
370
18
48
1
60
0
100
AcDbEllipse
10
15.86502
20
-32.8129
30
0
11
0.0437192101383364
21
-0.149618811887206
31
0
210
0
220
0
230
1
40
0.244445
41
-2.44495460072819
42
-1.39775704953567
0
ELLIPSE
5
232
100
AcDbEntity
8
1
62
256
6
ByLayer
370
18
48
1
60
0
100
AcDbEllipse
10
16.03982
20
-33.584964
30
0
11
0.0495484381564341
21
-0.169567986804796
31
0
210
0
220
0
230
1
40
0.244445
41
-0.350559498335548
42
1.74383560405807
0
ELLIPSE
5
233
100
AcDbEntity
8
1
62
256
6
ByLayer
370
18
48
1
60
0
100
AcDbEllipse
10
15.86502
20
-33.695235
30
0
11
0.0437192101387571
21
-0.149618811888607
31
0
210
0
220
0
230
1
40
0.244445
41
2.79103315525657
42
-2.44495460073387
0
ELLIPSE
5
234
100
AcDbEntity
8
1
62
256
6
ByLayer
370
18
48
1
60
0
100
AcDbEllipse
10
15.86502
20
-33.854888
30
0
11
0.0437192101378499
21
-0.149618811886251
31
0
210
0
220
0
230
1
40
0.244445
41
-2.44495460072815
42
-1.39775704952922
0
ELLIPSE
5
235
100
AcDbEntity
8
1
62
256
6
ByLayer
370
18
48
1
60
0
100
AcDbEllipse
10
16.03982
20
-34.626951
30
0
11
0.0495484381564836
21
-0.169567986804885
31
0
210
0
220
0
230
1
40
0.244445
41
-0.350559498335341
42
1.74383560405736
0
ELLIPSE
5
236
100
AcDbEntity
8
1
62
256
6
ByLayer
370
18
48
1
60
0
100
AcDbEllipse
10
15.86502
20
-34.737222
30
0
11
0.0437192101381964
21
-0.149618811886987
31
0
210
0
220
0
230
1
40
0.244445
41
2.79103315525473
42
-2.44495460072977
0
ELLIPSE
5
237
100
AcDbEntity
8
1
62
256
6
ByLayer
370
18
48
1
60
0
100
AcDbEllipse
10
15.86502
20
-34.896875
30
0
11
0.0437192101376467
21
-0.149618811885782
31
0
210
0
220
0
230
1
40
0.244445
41
-2.4449546007298
42
-1.39775704952713
0
ELLIPSE
5
238
100
AcDbEntity
8
1
62
256
6
ByLayer
370
18
48
1
60
0
100
AcDbEllipse
10
2.63498
20
-34.896875
30
0
11
0.0437192101374878
21
0.149618811885488
31
0
210
0
220
0
230
1
40
0.244445
41
-1.74383560406487
42
-0.696638052860289
0
ELLIPSE
5
239
100
AcDbEntity
8
1
62
256
6
ByLayer
370
18
48
1
60
0
100
AcDbEllipse
10
12.95
20
-4.857539
30
0
11
1
21
0
31
0
210
0
220
0
230
1
40
0.991932
41
-3.14159237981964
42
0
0
ELLIPSE
5
23A
100
AcDbEntity
8
1
62
256
6
ByLayer
370
18
48
1
60
0
100
AcDbEllipse
10
12.95
20
-4.857539
30
0
11
1
21
0
31
0
210
0
220
0
230
1
40
0.991932
41
0
42
0.417733277556018
0
ELLIPSE
5
23B
100
AcDbEntity
8
1
62
256
6
ByLayer
370
18
48
1
60
0
100
AcDbEllipse
10
12.95
20
-4.857539
30
0
11
1
21
0
31
0
210
0
220
0
230
1
40
0.991932
41
2.69528970226836
42
3.1415919192263
0
ELLIPSE
5
23C
100
AcDbEntity
8
1
62
256
6
ByLayer
370
18
48
1
60
0
100
AcDbEllipse
10
2.63498
20
11.04782
30
0
11
0.0552947944625158
21
0.149913137968478
31
0
210
0
220
0
230
1
40
0.092306
41
0.0340488321768912
42
0.801978269095492
0
ELLIPSE
5
23D
100
AcDbEntity
8
1
62
256
6
ByLayer
370
18
48
1
60
0
100
AcDbEllipse
10
15.86502
20
11.04782
30
0
11
0.0552947944629866
21
-0.149913137969853
31
0
210
0
220
0
230
1
40
0.092306
41
2.33961438449816
42
3.10754382141297
0
POINT
5
70
100
AcDbEntity
8
80
62
256
6
ByLayer
370
18
48
1
60
0
100
AcDbPoint
10
0
20
0
30
0
39
0
210
0
220
0
230
1
50
360
0
POINT
5
72
100
AcDbEntity
8
81
62
256
6
ByLayer
370
18
48
1
60
0
100
AcDbPoint
10
16.75
20
50
30
0
39
0
210
0
220
0
230
1
50
360
0
POINT
5
74
100
AcDbEntity
8
1
62
256
6
ByLayer
370
18
48
1
60
1
100
AcDbPoint
10
16.75
20
50
30
0
39
0
210
0
220
0
230
1
50
360
0
POINT
5
76
100
AcDbEntity
8
1
62
256
6
ByLayer
370
18
48
1
60
1
100
AcDbPoint
10
6.15
20
50
30
0
39
0
210
0
220
0
230
1
50
360
0
POINT
5
77
100
AcDbEntity
8
1
62
256
6
ByLayer
370
18
48
1
60
1
100
AcDbPoint
10
0
20
-23.5
30
0
39
0
210
0
220
0
230
1
50
360
0
POINT
5
78
100
AcDbEntity
8
1
62
256
6
ByLayer
370
18
48
1
60
1
100
AcDbPoint
10
18.5
20
-23.5
30
0
39
0
210
0
220
0
230
1
50
360
0
POINT
5
79
100
AcDbEntity
8
1
62
256
6
ByLayer
370
18
48
1
60
1
100
AcDbPoint
10
2.35
20
50
30
0
39
0
210
0
220
0
230
1
50
360
0
SPLINE
5
23E
100
AcDbEntity
8
1
62
256
6
ByLayer
370
18
48
1
60
0
100
AcDbSpline
70
4
71
3
72
22
73
18
40
0
40
0
40
0
40
0
40
0.249999999999991
40
0.249999999999991
40
0.499999999999981
40
0.499999999999981
40
0.624999999999985
40
0.624999999999985
40
0.74999999999999
40
0.74999999999999
40
0.812499999999992
40
0.812499999999992
40
0.874999999999995
40
0.874999999999995
40
0.937499999999997
40
0.937499999999997
40
1
40
1
40
1
40
1
41
1
10
15.934483475319
20
-46.1709364266455
30
0
41
1
10
15.959090821656
20
-46.1218629548059
30
0
41
1
10
15.9832556174006
20
-46.0699216804339
30
0
41
1
10
16.029892111415
20
-45.9585212035195
30
0
41
1
10
16.0521001563114
20
-45.8998184026536
30
0
41
1
10
16.082745431812
20
-45.8045518128486
30
0
41
1
10
16.0925346310066
20
-45.7714845321011
30
0
41
1
10
16.11073646659
20
-45.7023078927039
30
0
41
1
10
16.1190256583403
20
-45.6666970324069
30
0
41
1
10
16.1297723103393
20
-45.6111554378746
30
0
41
1
10
16.1330879425924
20
-45.5921613204087
30
0
41
1
10
16.138917367315
20
-45.5540128716742
30
0
41
1
10
16.1414341574853
20
-45.5348748761629
30
0
41
1
10
16.1455726273238
20
-45.4964554344306
30
0
41
1
10
16.147194727742
20
-45.4771740556391
30
0
41
1
10
16.1494120568973
20
-45.4384467312554
30
0
41
1
10
16.15
20
-45.4188045538782
30
0
41
1
10
16.15
20
-45.3998489321602
30
0
0
SPLINE
5
23F
100
AcDbEntity
8
1
62
256
6
ByLayer
370
18
48
1
60
0
100
AcDbSpline
70
4
71
3
72
8
73
4
40
0
40
0
40
0
40
0
40
1
40
1
40
1
40
1
41
1
10
11.45
20
-10.2239852219421
30
0
41
1
10
11.45
20
-10.4139608230556
30
0
41
1
10
11.45
20
-10.5981520642881
30
0
41
1
10
11.45
20
-10.7788500987744
30
0
0
SPLINE
5
240
100
AcDbEntity
8
1
62
256
6
ByLayer
370
18
48
1
60
0
100
AcDbSpline
70
4
71
3
72
45
73
41
40
0
40
0
40
0
40
0
40
0.0830116577903848
40
0.0830116577903848
40
0.16602331558077
40
0.16602331558077
40
0.186776230028366
40
0.186776230028366
40
0.207529144475962
40
0.207529144475962
40
0.249034973371153
40
0.249034973371153
40
0.332046631161536
40
0.332046631161536
40
0.373552460056728
40
0.373552460056728
40
0.41505828895192
40
0.456564117847112
40
0.456564117847112
40
0.498069946742304
40
0.498069946742304
40
0.581081604532689
40
0.581081604532689
40
0.622587433427881
40
0.622587433427881
40
0.664093262323074
40
0.664093262323074
40
0.74710492011346
40
0.74710492011346
40
0.788610749008653
40
0.788610749008653
40
0.830116577903846
40
0.830116577903846
40
0.913128235694232
40
0.913128235694232
40
0.954634064589425
40
0.954634064589425
40
0.996139893484618
40
0.996139893484618
40
1
40
1
40
1
40
1
41
1
10
11.45
20
-10.2239852219418
30
0
41
1
10
11.3391818894447
20
-10.332401687417
30
0
41
1
10
11.2188673696042
20
-10.4311276711157
30
0
41
1
10
10.959141484189
20
-10.6101692580151
30
0
41
1
10
10.8197439324504
20
-10.6904921184069
30
0
41
1
10
10.6322202461615
20
-10.7788009285421
30
0
41
1
10
10.5940457752468
20
-10.7958526971543
30
0
41
1
10
10.5162970432993
20
-10.8286981015483
30
0
41
1
10
10.4767829613965
20
-10.8444594357244
30
0
41
1
10
10.3575889881198
20
-10.8892543000606
30
0
41
1
10
10.2767949381156
20
-10.9160045292759
30
0
41
1
10
10.0303937283355
20
-10.9870333281839
30
0
41
1
10
9.86080177073836
20
-11.0221780655306
30
0
41
1
10
9.59775070975223
20
-11.0555440744666
30
0
41
1
10
9.50803453731436
20
-11.0634226556423
30
0
41
1
10
9.32977767721343
20
-11.0721049901626
30
0
41
1
10
9.15215272343073
20
-11.0738756383911
30
0
41
1
10
8.97576168335598
20
-11.0621590583283
30
0
41
1
10
8.79998614850285
20
-11.0436853278096
30
0
41
1
10
8.71224438376578
20
-11.0310402376603
30
0
41
1
10
8.450976332945
20
-10.9828681378842
30
0
41
1
10
8.28412186146767
20
-10.9381322478096
30
0
41
1
10
8.04377823958066
20
-10.8533220955052
30
0
41
1
10
7.96533185485316
20
-10.8220783952809
30
0
41
1
10
7.81172926073964
20
-10.7535968456729
30
0
41
1
10
7.73718870201753
20
-10.716612163047
30
0
41
1
10
7.52192613363133
20
-10.5987088489694
30
0
41
1
10
7.38860906029248
20
-10.5105088029045
30
0
41
1
10
7.20294627337569
20
-10.363917146996
30
0
41
1
10
7.14326718681662
20
-10.3124503899509
30
0
41
1
10
7.03036380592715
20
-10.2061768472692
30
0
41
1
10
6.97696844054769
20
-10.1512668109621
30
0
41
1
10
6.82558444766858
20
-9.98125482530031
30
0
41
1
10
6.73632705936643
20
-9.86090927815269
30
0
41
1
10
6.61985865017226
20
-9.66932524978199
30
0
41
1
10
6.58390620922438
20
-9.60344204514695
30
0
41
1
10
6.51903837796698
20
-9.47002726993878
30
0
41
1
10
6.48995900807063
20
-9.40225806516776
30
0
41
1
10
6.46178541841329
20
-9.32701236811727
30
0
41
1
10
6.45941657777894
20
-9.32060059596881
30
0
41
1
10
6.45707619032174
20
-9.31417954319983
30
0
0
SPLINE
5
241
100
AcDbEntity
8
1
62
256
6
ByLayer
370
18
48
1
60
0
100
AcDbSpline
70
4
71
3
72
38
73
34
40
0
40
0
40
0
40
0
40
0.0483620542211873
40
0.0483620542211873
40
0.0823491237132882
40
0.0823491237132882
40
0.116336193205389
40
0.116336193205389
40
0.184310332189591
40
0.184310332189591
40
0.252284471173793
40
0.252284471173793
40
0.320258610157994
40
0.320258610157994
40
0.456206888126399
40
0.456206888126399
40
0.490193957618499
40
0.490193957618499
40
0.5241810271106
40
0.5241810271106
40
0.592155166094801
40
0.592155166094801
40
0.626142235586901
40
0.626142235586901
40
0.660129305079
40
0.660129305079
40
0.7281034440632
40
0.7281034440632
40
0.7960775830474
40
0.7960775830474
40
0.8640517220316
40
0.8640517220316
40
1
40
1
40
1
40
1
41
1
10
6.7433142057555
20
-8.79751443452892
30
0
41
1
10
6.79029654405184
20
-8.85947504075864
30
0
41
1
10
6.84046055877985
20
-8.91942994102982
30
0
41
1
10
6.93131064460738
20
-9.01817786635678
30
0
41
1
10
6.97040123374671
20
-9.05795278426996
30
0
41
1
10
7.05186011306813
20
-9.1355263242753
30
0
41
1
10
7.09434146407187
20
-9.1734052128196
30
0
41
1
10
7.22503033422595
20
-9.28255360581295
30
0
41
1
10
7.31692752355764
20
-9.34983488357886
30
0
41
1
10
7.51007913813464
20
-9.47395878669363
30
0
41
1
10
7.61133308480692
20
-9.5308011581883
30
0
41
1
10
7.82342013659951
20
-9.6341002916684
30
0
41
1
10
7.93486453743958
20
-9.68069291683753
30
0
41
1
10
8.27469266705742
20
-9.80120239372775
30
0
41
1
10
8.51087974465401
20
-9.85763064110381
30
0
41
1
10
8.81838002829477
20
-9.89865085552026
30
0
41
1
10
8.88050810219244
20
-9.90534001274898
30
0
41
1
10
9.00423040440927
20
-9.91553414488072
30
0
41
1
10
9.06604792618788
20
-9.91907264482722
30
0
41
1
10
9.2513719445576
20
-9.92510518292949
30
0
41
1
10
9.37475039274386
20
-9.92303660837229
30
0
41
1
10
9.55956177884599
20
-9.91078981209222
30
0
41
1
10
9.62112273513941
20
-9.9051784695427
30
0
41
1
10
9.74415743163598
20
-9.89083298934668
30
0
41
1
10
9.80585112431942
20
-9.88205849161602
30
0
41
1
10
9.98888447540429
20
-9.85122803094112
30
0
41
1
10
10.1081007684033
20
-9.82475878885344
30
0
41
1
10
10.3411028451484
20
-9.76020156910687
30
0
41
1
10
10.4548880588804
20
-9.72211284617578
30
0
41
1
10
10.6769519386721
20
-9.63391740430217
30
0
41
1
10
10.7857720174973
20
-9.58344680570553
30
0
41
1
10
11.0956396577874
20
-9.41710432539634
30
0
41
1
10
11.2826609627785
20
-9.28590712051817
30
0
41
1
10
11.45
20
-9.13299769812534
30
0
0
SPLINE
5
242
100
AcDbEntity
8
1
62
256
6
ByLayer
370
18
48
1
60
0
100
AcDbSpline
70
4
71
3
72
10
73
6
40
0
40
0
40
0
40
0
40
0.673542342239795
40
0.673542342239795
40
1
40
1
40
1
40
1
41
1
10
11.95
20
-10.9011776390305
30
0
41
1
10
12.0478989551166
20
-10.7170013369106
30
0
41
1
10
12.1215990075629
20
-10.5256463307729
30
0
41
1
10
12.1963521267001
20
-10.2307325514756
30
0
41
1
10
12.2152157427699
20
-10.1327324577314
30
0
41
1
10
12.2283124091385
20
-10.0329196447836
30
0
0
SPLINE
5
243
100
AcDbEntity
8
1
62
256
6
ByLayer
370
18
48
1
60
0
100
AcDbSpline
70
4
71
3
72
24
73
20
40
0
40
0
40
0
40
0
40
0.0625000000000027
40
0.0625000000000027
40
0.125000000000005
40
0.125000000000005
40
0.187500000000008
40
0.187500000000008
40
0.250000000000011
40
0.250000000000011
40
0.37500000000001
40
0.37500000000001
40
0.500000000000009
40
0.500000000000009
40
0.750000000000006
40
0.750000000000006
40
0.875000000000003
40
0.875000000000003
40
1
40
1
40
1
40
1
41
1
10
11.4499999999996
20
-11.4616745976191
30
0
41
1
10
11.4500000000002
20
-11.4668172181587
30
0
41
1
10
11.4518293594534
20
-11.4699952790372
30
0
41
1
10
11.4585453740451
20
-11.4730159808979
30
0
41
1
10
11.4634235893125
20
-11.4728172583537
30
0
41
1
10
11.4753810189361
20
-11.4695854274167
30
0
41
1
10
11.4824898423225
20
-11.4665587355453
30
0
41
1
10
11.4985603196512
20
-11.4580187004445
30
0
41
1
10
11.5075824195297
20
-11.4524594700937
30
0
41
1
10
11.5364699948274
20
-11.4326775413169
30
0
41
1
10
11.5581400806772
20
-11.4154214162582
30
0
41
1
10
11.6044405807933
20
-11.3741587729548
30
0
41
1
10
11.629280065715
20
-11.3499133106215
30
0
41
1
10
11.7047549677795
20
-11.2697056364138
30
0
41
1
10
11.756403423906
20
-11.2063881439408
30
0
41
1
10
11.8317551950405
20
-11.0995337588299
30
0
41
1
10
11.8565802263794
20
-11.0618327028536
30
0
41
1
10
11.904527065495
20
-10.983656464528
30
0
41
1
10
11.9277257006934
20
-10.9430820503067
30
0
41
1
10
11.9500000000003
20
-10.9011776390309
30
0
0
SPLINE
5
244
100
AcDbEntity
8
1
62
256
6
ByLayer
370
18
48
1
60
0
100
AcDbSpline
70
4
71
3
72
16
73
12
40
0
40
0
40
0
40
0
40
0.249999999999997
40
0.249999999999997
40
0.499999999999995
40
0.499999999999995
40
0.624999999999995
40
0.624999999999995
40
0.749999999999996
40
0.749999999999996
40
1
40
1
40
1
40
1
41
1
10
9.96952210965367
20
-19.448254563212
30
0
41
1
10
9.85184776572027
20
-19.472135064996
30
0
41
1
10
9.73319680530363
20
-19.4926018479252
30
0
41
1
10
9.49387926986418
20
-19.5208079611133
30
0
41
1
10
9.37321236787091
20
-19.5285471515217
30
0
41
1
10
9.19062676419776
20
-19.5286392404958
30
0
41
1
10
9.12937176436907
20
-19.5267589912571
30
0
41
1
10
9.00785970006649
20
-19.5193724144434
30
0
41
1
10
8.94743350589636
20
-19.5138755652519
30
0
41
1
10
8.76711624475178
20
-19.4926693785002
30
0
41
1
10
8.64818482703606
20
-19.4721416792787
30
0
41
1
10
8.53047789034633
20
-19.448254563212
30
0
0
SPLINE
5
245
100
AcDbEntity
8
1
62
256
6
ByLayer
370
18
48
1
60
0
100
AcDbSpline
70
4
71
3
72
8
73
4
40
0
40
0
40
0
40
0
40
1
40
1
40
1
40
1
41
1
10
16.15
20
16.9885866813187
30
0
41
1
10
16.15
20
16.9846301943898
30
0
41
1
10
16.1500138377555
20
16.9806729289215
30
0
41
1
10
16.1500415161215
20
16.9767148847533
30
0
0
SPLINE
5
246
100
AcDbEntity
8
1
62
256
6
ByLayer
370
18
48
1
60
0
100
AcDbSpline
70
4
71
3
72
8
73
4
40
0
40
0
40
0
40
0
40
1
40
1
40
1
40
1
41
1
10
2.34995848387848
20
16.9767148847533
30
0
41
1
10
2.34998616224448
20
16.9806729289215
30
0
41
1
10
2.35000000000002
20
16.9846301943898
30
0
41
1
10
2.35000000000002
20
16.9885866813187
30
0
0
SPLINE
5
247
100
AcDbEntity
8
1
62
256
6
ByLayer
370
18
48
1
60
0
100
AcDbSpline
70
4
71
3
72
8
73
4
40
0
40
0
40
0
40
0
40
1
40
1
40
1
40
1
41
1
10
16.15
20
16.8100566905977
30
0
41
1
10
16.15
20
16.8656093112618
30
0
41
1
10
16.1500178567221
20
16.9211620747944
30
0
41
1
10
16.1500415161218
20
16.9767148847533
30
0
0
SPLINE
5
248
100
AcDbEntity
8
1
62
256
6
ByLayer
370
18
48
1
60
0
100
AcDbSpline
70
4
71
3
72
8
73
4
40
0
40
0
40
0
40
0
40
1
40
1
40
1
40
1
41
1
10
2.34995848387825
20
16.9767148847533
30
0
41
1
10
2.34998214325373
20
16.9211621315155
30
0
41
1
10
2.35000000000002
20
16.8656093911896
30
0
41
1
10
2.35000000000002
20
16.8100566905977
30
0
0
SPLINE
5
249
100
AcDbEntity
8
1
62
256
6
ByLayer
370
18
48
1
60
0
100
AcDbSpline
70
4
71
3
72
26
73
22
40
0
40
0
40
0
40
0
40
0.062499999999999
40
0.062499999999999
40
0.124999999999998
40
0.124999999999998
40
0.187499999999997
40
0.187499999999997
40
0.249999999999996
40
0.249999999999996
40
0.374999999999994
40
0.374999999999994
40
0.437499999999993
40
0.437499999999993
40
0.499999999999992
40
0.499999999999992
40
0.749999999999993
40
0.749999999999993
40
0.874999999999997
40
0.874999999999997
40
1
40
1
40
1
40
1
41
1
10
11.4499999999999
20
-8.98853808073255
30
0
41
1
10
11.4500000000001
20
-9.00891283729356
30
0
41
1
10
11.4518345671708
20
-9.03041702635994
30
0
41
1
10
11.4585364381848
20
-9.07532447354566
30
0
41
1
10
11.4634310610901
20
-9.09871357019193
30
0
41
1
10
11.4754094354938
20
-9.14566973441066
30
0
41
1
10
11.4825232038823
20
-9.16944018744863
30
0
41
1
10
11.498580153315
20
-9.2175256817078
30
0
41
1
10
11.507572977568
20
-9.24195700413435
30
0
41
1
10
11.5365457807404
20
-9.31522790372765
30
0
41
1
10
11.5582459194902
20
-9.3635409917643
30
0
41
1
10
11.5929569183343
20
-9.43569107064656
30
0
41
1
10
11.6048967439812
20
-9.45968522564505
30
0
41
1
10
11.6293546455249
20
-9.50762110385489
30
0
41
1
10
11.6419121639464
20
-9.53163414554604
30
0
41
1
10
11.7049751842067
20
-9.65015215165022
30
0
41
1
10
11.7566326742301
20
-9.74111391420308
30
0
41
1
10
11.8318614052317
20
-9.87532350026629
30
0
41
1
10
11.8566623016404
20
-9.91980129776482
30
0
41
1
10
11.9046150534092
20
-10.0075106357414
30
0
41
1
10
11.9277814947259
20
-10.0507610730131
30
0
41
1
10
11.9500000000001
20
-10.0936462714028
30
0
0
SPLINE
5
24A
100
AcDbEntity
8
1
62
256
6
ByLayer
370
18
48
1
60
0
100
AcDbSpline
70
4
71
3
72
22
73
18
40
0
40
0
40
0
40
0
40
0.25
40
0.25
40
0.499999999999999
40
0.499999999999999
40
0.624999999999999
40
0.624999999999999
40
0.749999999999999
40
0.749999999999999
40
0.812499999999999
40
0.812499999999999
40
0.874999999999999
40
0.874999999999999
40
0.9375
40
0.9375
40
1
40
1
40
1
40
1
41
1
10
15.934483475319
20
46.1709364266455
30
0
41
1
10
15.9590908216559
20
46.1218629548059
30
0
41
1
10
15.9832556174005
20
46.0699216804339
30
0
41
1
10
16.0298921114149
20
45.9585212035195
30
0
41
1
10
16.0521001563114
20
45.8998184026536
30
0
41
1
10
16.082745431812
20
45.8045518128486
30
0
41
1
10
16.0925346310066
20
45.771484532101
30
0
41
1
10
16.11073646659
20
45.7023078927039
30
0
41
1
10
16.1190256583403
20
45.6666970324069
30
0
41
1
10
16.1297723103393
20
45.6111554378746
30
0
41
1
10
16.1330879425924
20
45.5921613204087
30
0
41
1
10
16.138917367315
20
45.5540128716742
30
0
41
1
10
16.1414341574853
20
45.5348748761629
30
0
41
1
10
16.1455726273238
20
45.4964554344306
30
0
41
1
10
16.147194727742
20
45.4771740556391
30
0
41
1
10
16.1494120568973
20
45.4384467312554
30
0
41
1
10
16.15
20
45.4188045538782
30
0
41
1
10
16.15
20
45.3998489321602
30
0
0
SPLINE
5
24B
100
AcDbEntity
8
1
62
256
6
ByLayer
370
18
48
1
60
0
100
AcDbSpline
70
4
71
3
72
10
73
6
40
0
40
0
40
0
40
0
40
0.5
40
0.5
40
1
40
1
40
1
40
1
41
1
10
15.6791959808987
20
46.2862169921483
30
0
41
1
10
15.7340301101129
20
46.2690470247848
30
0
41
1
10
15.7812443798482
20
46.2506097117296
30
0
41
1
10
15.8652562931816
20
46.2120025777832
30
0
41
1
10
15.9019671793891
20
46.1918183272813
30
0
41
1
10
15.9344834753125
20
46.1709364266535
30
0
0
SPLINE
5
24C
100
AcDbEntity
8
1
62
256
6
ByLayer
370
18
48
1
60
0
100
AcDbSpline
70
4
71
3
72
16
73
12
40
0
40
0
40
0
40
0
40
0.249999999999999
40
0.249999999999999
40
0.499999999999997
40
0.499999999999997
40
0.749999999999996
40
0.749999999999996
40
0.874999999999998
40
0.874999999999998
40
1
40
1
40
1
40
1
41
1
10
15.15
20
46.408084959619
30
0
41
1
10
15.1979464263276
20
46.408084959619
30
0
41
1
10
15.2453156375082
20
46.4047238140842
30
0
41
1
10
15.3389246990647
20
46.3919104966724
30
0
41
1
10
15.3851646357052
20
46.382450163608
30
0
41
1
10
15.4764298644626
20
46.3584299840429
30
0
41
1
10
15.5215997494831
20
46.3437015071418
30
0
41
1
10
15.5853858985515
20
46.3206400414075
30
0
41
1
10
15.6062466898563
20
46.3127123741093
30
0
41
1
10
15.6450271675347
20
46.2980729487624
30
0
41
1
10
15.6631156491691
20
46.29125215501
30
0
41
1
10
15.6791959809004
20
46.2862169921477
30
0
0
SPLINE
5
24D
100
AcDbEntity
8
1
62
256
6
ByLayer
370
18
48
1
60
0
100
AcDbSpline
70
4
71
3
72
14
73
10
40
0
40
0
40
0
40
0
40
0.25
40
0.25
40
0.5
40
0.5
40
0.75
40
0.75
40
1
40
1
40
1
40
1
41
1
10
11.45
20
28.9305746366983
30
0
41
1
10
11.45
20
28.9147684834219
30
0
41
1
10
11.4518856073138
20
28.8992818987843
30
0
41
1
10
11.4595990343218
20
28.8689759596749
30
0
41
1
10
11.465505514888
20
28.8541084977273
30
0
41
1
10
11.481781494054
20
28.8272584545613
30
0
41
1
10
11.4922686304105
20
28.8150314405059
30
0
41
1
10
11.5184289639933
20
28.7967885833057
30
0
41
1
10
11.5339293972893
20
28.7912006504221
30
0
41
1
10
11.5499999999989
20
28.7912006504219
30
0
0
SPLINE
5
24E
100
AcDbEntity
8
1
62
256
6
ByLayer
370
18
48
1
60
0
100
AcDbSpline
70
4
71
3
72
71
73
67
40
0
40
0
40
0
40
0
40
0.0624999999999933
40
0.0624999999999933
40
0.124999999999987
40
0.124999999999987
40
0.18749999999998
40
0.18749999999998
40
0.249999999999973
40
0.249999999999973
40
0.281249999999971
40
0.281249999999971
40
0.312499999999969
40
0.312499999999969
40
0.343749999999967
40
0.343749999999967
40
0.374999999999964
40
0.374999999999964
40
0.406249999999962
40
0.406249999999962
40
0.421874999999962
40
0.421874999999962
40
0.437499999999962
40
0.437499999999962
40
0.453124999999963
40
0.453124999999963
40
0.460937499999963
40
0.460937499999963
40
0.468749999999964
40
0.468749999999964
40
0.484374999999965
40
0.484374999999965
40
0.492187499999966
40
0.492187499999966
40
0.499999999999966
40
0.507812499999967
40
0.507812499999967
40
0.515624999999967
40
0.515624999999967
40
0.523437499999968
40
0.523437499999968
40
0.531249999999968
40
0.531249999999968
40
0.546874999999969
40
0.546874999999969
40
0.56249999999997
40
0.56249999999997
40
0.593749999999971
40
0.593749999999971
40
0.624999999999972
40
0.624999999999972
40
0.656249999999972
40
0.656249999999972
40
0.687499999999973
40
0.687499999999973
40
0.749999999999977
40
0.749999999999977
40
0.812499999999981
40
0.812499999999981
40
0.843749999999984
40
0.843749999999984
40
0.874999999999987
40
0.874999999999987
40
0.937499999999994
40
0.937499999999994
40
1
40
1
40
1
40
1
41
1
10
11.45
20
33.388350521497
30
0
41
1
10
11.4500000000001
20
33.5615683253824
30
0
41
1
10
11.4576370128448
20
33.7330956158385
30
0
41
1
10
11.4859665308479
20
34.0731648990932
30
0
41
1
10
11.5066717175569
20
34.2417046659754
30
0
41
1
10
11.5602151055715
20
34.5759786580433
30
0
41
1
10
11.593049060729
20
34.7417133905037
30
0
41
1
10
11.6710413412101
20
35.0703760292505
30
0
41
1
10
11.7161702569165
20
35.2333083682408
30
0
41
1
10
11.7944223879131
20
35.4754157309255
30
0
41
1
10
11.8222816881832
20
35.5557077628492
30
0
41
1
10
11.8815778073046
20
35.7143104406789
30
0
41
1
10
11.9130526979152
20
35.7927587544465
30
0
41
1
10
11.9802612686672
20
35.9477312674671
30
0
41
1
10
12.0159858392999
20
36.0242588972146
30
0
41
1
10
12.0927240613242
20
36.1750111990847
30
0
41
1
10
12.1334891674962
20
36.2487720748315
30
0
41
1
10
12.2212279502194
20
36.3921029554314
30
0
41
1
10
12.2681675446011
20
36.4617124755767
30
0
41
1
10
12.3453433448029
20
36.5617331601212
30
0
41
1
10
12.3722092576837
20
36.5943332083166
30
0
41
1
10
12.4288854750714
20
36.6576486552373
30
0
41
1
10
12.4588316148083
20
36.6884839191607
30
0
41
1
10
12.5215092105706
20
36.7465401708645
30
0
41
1
10
12.5543051342701
20
36.7738697723122
30
0
41
1
10
12.6064216009366
20
36.8114840803696
30
0
41
1
10
12.624284279582
20
36.8234549326482
30
0
41
1
10
12.661175240726
20
36.8460530221697
30
0
41
1
10
12.6802767854908
20
36.8567096908345
30
0
41
1
10
12.7386000579714
20
36.8857373134013
30
0
41
1
10
12.779066367575
20
36.9013729433512
30
0
41
1
10
12.8428538366189
20
36.9176052801377
30
0
41
1
10
12.8646413128815
20
36.9217753966724
30
0
41
1
10
12.9079748551493
20
36.9272402473741
30
0
41
1
10
12.9513914340897
20
36.9299258928646
30
0
41
1
10
12.9949759109823
20
36.9269934021708
30
0
41
1
10
13.0386453752224
20
36.9212163581578
30
0
41
1
10
13.0603594662261
20
36.9169079842558
30
0
41
1
10
13.1026439913897
20
36.9058877897538
30
0
41
1
10
13.1233615672469
20
36.8991587313115
30
0
41
1
10
13.1640381457271
20
36.8835204431433
30
0
41
1
10
13.1840944662581
20
36.8745583138642
30
0
41
1
10
13.2423966260536
20
36.8451611076297
30
0
41
1
10
13.2787918125001
20
36.8223245891774
30
0
41
1
10
13.3480450362
20
36.771992615382
30
0
41
1
10
13.3809593326247
20
36.7444134888628
30
0
41
1
10
13.4751573261765
20
36.6566612288262
30
0
41
1
10
13.5307497107712
20
36.5929210732473
30
0
41
1
10
13.6335927197843
20
36.4592196711954
30
0
41
1
10
13.6807151135245
20
36.3891677335511
30
0
41
1
10
13.7689827563024
20
36.2444826767443
30
0
41
1
10
13.8096176708947
20
36.1706209665347
30
0
41
1
10
13.8855793704381
20
36.0209628528496
30
0
41
1
10
13.9209266375377
20
35.9450867567265
30
0
41
1
10
14.0206516662884
20
35.714848932373
30
0
41
1
10
14.078805978613
20
35.5579099553769
30
0
41
1
10
14.182294653172
20
35.2383862985186
30
0
41
1
10
14.2275568896768
20
35.0757771455673
30
0
41
1
10
14.2865746833039
20
34.8278227260392
30
0
41
1
10
14.3047446725469
20
34.7445005892222
30
0
41
1
10
14.3379037836124
20
34.5775847130093
30
0
41
1
10
14.3529262036386
20
34.4938559109607
30
0
41
1
10
14.3933299815489
20
34.2418544234364
30
0
41
1
10
14.4140816101514
20
34.0727705331846
30
0
41
1
10
14.4424116265376
20
33.732327596403
30
0
41
1
10
14.4500000000001
20
33.5609697772294
30
0
41
1
10
14.45
20
33.388350521497
30
0
0
SPLINE
5
24F
100
AcDbEntity
8
1
62
256
6
ByLayer
370
18
48
1
60
0
100
AcDbSpline
70
4
71
3
72
14
73
10
40
0
40
0
40
0
40
0
40
0.25
40
0.25
40
0.5
40
0.5
40
0.75
40
0.75
40
1
40
1
40
1
40
1
41
1
10
14.35
20
28.791200650426
30
0
41
1
10
14.3660659924433
20
28.791200650426
30
0
41
1
10
14.3815021555856
20
28.7967725342348
30
0
41
1
10
14.4075490936905
20
28.8148726532467
30
0
41
1
10
14.4180717503517
20
28.8270503251268
30
0
41
1
10
14.4344814557587
20
28.8540533636566
30
0
41
1
10
14.4402749128232
20
28.8685724053968
30
0
41
1
10
14.4481149976581
20
28.8991940297352
30
0
41
1
10
14.45
20
28.9147734217362
30
0
41
1
10
14.45
20
28.9305746366983
30
0
0
SPLINE
5
250
100
AcDbEntity
8
1
62
256
6
ByLayer
370
18
48
1
60
0
100
AcDbSpline
70
4
71
3
72
29
73
25
40
0
40
0
40
0
40
0
40
0.124999999999998
40
0.124999999999998
40
0.187499999999995
40
0.187499999999995
40
0.249999999999993
40
0.249999999999993
40
0.374999999999984
40
0.374999999999984
40
0.437499999999983
40
0.437499999999983
40
0.499999999999982
40
0.499999999999982
40
0.624999999999977
40
0.624999999999977
40
0.687499999999978
40
0.687499999999978
40
0.74999999999998
40
0.812499999999982
40
0.812499999999982
40
0.874999999999984
40
0.874999999999984
40
1
40
1
40
1
40
1
41
1
10
15.15
20
40.0289709438704
30
0
41
1
10
15.2163389294891
20
40.0289709438704
30
0
41
1
10
15.2815613398104
20
40.0232619746342
30
0
41
1
10
15.3777885922962
20
40.0064697749209
30
0
41
1
10
15.4095946002207
20
39.9994903088117
30
0
41
1
10
15.4726545081571
20
39.9826963015864
30
0
41
1
10
15.5039723943318
20
39.9728402448503
30
0
41
1
10
15.5950286337732
20
39.9396250025673
30
0
41
1
10
15.6525876882948
20
39.9125028491373
30
0
41
1
10
15.7342466322826
20
39.8643476302999
30
0
41
1
10
15.760793575483
20
39.8469577295222
30
0
41
1
10
15.8117174183808
20
39.8099521147593
30
0
41
1
10
15.8359431019982
20
39.7904649692389
30
0
41
1
10
15.9050262406352
20
39.7291231782659
30
0
41
1
10
15.9463234999256
20
39.6844153548532
30
0
41
1
10
16.0009624268646
20
39.611422463877
30
0
41
1
10
16.0178623169135
20
39.5861801878924
30
0
41
1
10
16.0484980594603
20
39.5347857558581
30
0
41
1
10
16.076160183546
20
39.4822353465529
30
0
41
1
10
16.0979669957939
20
39.4273900499483
30
0
41
1
10
16.1168087369615
20
39.3713748127389
30
0
41
1
10
16.1247764914205
20
39.342620659589
30
0
41
1
10
16.1437595218043
20
39.2559925705132
30
0
41
1
10
16.15
20
39.1977452859306
30
0
41
1
10
16.15
20
39.1390065832468
30
0
0
SPLINE
5
251
100
AcDbEntity
8
1
62
256
6
ByLayer
370
18
48
1
60
0
100
AcDbSpline
70
4
71
3
72
26
73
22
40
0
40
0
40
0
40
0
40
0.125000000000014
40
0.125000000000014
40
0.250000000000028
40
0.250000000000028
40
0.312500000000028
40
0.312500000000028
40
0.375000000000028
40
0.375000000000028
40
0.500000000000028
40
0.500000000000028
40
0.625000000000028
40
0.625000000000028
40
0.687500000000024
40
0.687500000000024
40
0.750000000000021
40
0.750000000000021
40
0.875000000000011
40
0.875000000000011
40
1
40
1
40
1
40
1
41
1
10
2.34999999999997
20
39.1390065832474
30
0
41
1
10
2.35000000000002
20
39.1977029015905
30
0
41
1
10
2.35643903197467
20
39.2571526894686
30
0
41
1
10
2.38167862106138
20
39.3718208972124
30
0
41
1
10
2.40036399621061
20
39.4274824554004
30
0
41
1
10
2.43764168389794
20
39.5084650026362
30
0
41
1
10
2.45170942545082
20
39.5351693264129
30
0
41
1
10
2.48246329323604
20
39.586690315066
30
0
41
1
10
2.49916854835334
20
39.6115901994135
30
0
41
1
10
2.55318792692532
20
39.6837770899581
30
0
41
1
10
2.59436745507776
20
39.7285751981557
30
0
41
1
10
2.68752920324823
20
39.8113166055911
30
0
41
1
10
2.73807485753554
20
39.8479633143194
30
0
41
1
10
2.81932275795663
20
39.8959684815635
30
0
41
1
10
2.84733258559709
20
39.9108144989914
30
0
41
1
10
2.90524866144745
20
39.9381542043092
30
0
41
1
10
2.93528026186249
20
39.9506795447804
30
0
41
1
10
3.02633786480271
20
39.9838996392012
30
0
41
1
10
3.08883142076172
20
40.0005729577076
30
0
41
1
10
3.21735842708586
20
40.0231439685535
30
0
41
1
10
3.28370776452681
20
40.0289709438705
30
0
41
1
10
3.34999999999997
20
40.0289709438705
30
0
0
SPLINE
5
252
100
AcDbEntity
8
1
62
256
6
ByLayer
370
18
48
1
60
0
100
AcDbSpline
70
4
71
3
72
16
73
12
40
0
40
0
40
0
40
0
40
0.124999999999996
40
0.124999999999996
40
0.249999999999991
40
0.249999999999991
40
0.499999999999994
40
0.499999999999994
40
0.749999999999997
40
0.749999999999997
40
1
40
1
40
1
40
1
41
1
10
2.82080401910451
20
46.2862169921493
30
0
41
1
10
2.83682837704902
20
46.2912346281885
30
0
41
1
10
2.85495423280185
20
46.2980656145268
30
0
41
1
10
2.89399116610389
20
46.3128024782051
30
0
41
1
10
2.91474055145397
20
46.3206858939075
30
0
41
1
10
2.97818396723011
20
46.3436230405661
30
0
41
1
10
3.02322510407714
20
46.3583238639716
30
0
41
1
10
3.1144020227382
20
46.3823512928077
30
0
41
1
10
3.16066182961345
20
46.391839227914
30
0
41
1
10
3.25443906897544
20
46.4047048076327
30
0
41
1
10
3.30214255772904
20
46.408084959619
30
0
41
1
10
3.35000000000002
20
46.408084959619
30
0
0
SPLINE
5
253
100
AcDbEntity
8
1
62
256
6
ByLayer
370
18
48
1
60
0
100
AcDbSpline
70
4
71
3
72
12
73
8
40
0
40
0
40
0
40
0
40
0.50000000000001
40
0.50000000000001
40
0.750000000000005
40
0.750000000000005
40
1
40
1
40
1
40
1
41
1
10
2.56551652468374
20
46.1709364266511
30
0
41
1
10
2.5976294903794
20
46.1915593094083
30
0
41
1
10
2.63407215259292
20
46.211669195321
30
0
41
1
10
2.69739903477074
20
46.240807616304
30
0
41
1
10
2.71999754001251
20
46.2503530939809
30
0
41
1
10
2.76803489439845
20
46.2687723288765
30
0
41
1
10
2.79353203510578
20
46.2776774369148
30
0
41
1
10
2.82080401910343
20
46.2862169921495
30
0
0
SPLINE
5
254
100
AcDbEntity
8
1
62
256
6
ByLayer
370
18
48
1
60
0
100
AcDbSpline
70
4
71
3
72
22
73
18
40
0
40
0
40
0
40
0
40
0.0625000000000009
40
0.0625000000000009
40
0.125000000000002
40
0.125000000000002
40
0.250000000000004
40
0.250000000000004
40
0.375000000000006
40
0.375000000000006
40
0.500000000000008
40
0.500000000000008
40
0.62500000000001
40
0.62500000000001
40
0.750000000000012
40
0.750000000000012
40
1
40
1
40
1
40
1
41
1
10
2.34999999999997
20
45.3998489321601
30
0
41
1
10
2.34999999999997
20
45.4188088950061
30
0
41
1
10
2.35056971135322
20
45.4380165128661
30
0
41
1
10
2.35278321901615
20
45.4768986561237
30
0
41
1
10
2.35444664767442
20
45.4967059340917
30
0
41
1
10
2.36075418445921
20
45.5550444825711
30
0
41
1
10
2.36669479219859
20
45.5929619930688
30
0
41
1
10
2.3811173217548
20
45.6673695900686
30
0
41
1
10
2.3894666593049
20
45.7031171899233
30
0
41
1
10
2.40750998546963
20
45.7716162712703
30
0
41
1
10
2.41725274253753
20
45.8045579394456
30
0
41
1
10
2.43782159356414
20
45.8684763911152
30
0
41
1
10
2.44863423874352
20
45.8993747681824
30
0
41
1
10
2.47073423821575
20
45.9586199504345
30
0
41
1
10
2.48207403212837
20
45.9871226365706
30
0
41
1
10
2.51678112186033
20
46.0699730583643
30
0
41
1
10
2.54082688968458
20
46.1216988497405
30
0
41
1
10
2.56551652468357
20
46.1709364266518
30
0
0
SPLINE
5
255
100
AcDbEntity
8
1
62
256
6
ByLayer
370
18
48
1
60
0
100
AcDbSpline
70
4
71
3
72
26
73
22
40
0
40
0
40
0
40
0
40
0.124999999999992
40
0.124999999999992
40
0.249999999999984
40
0.249999999999984
40
0.312499999999985
40
0.312499999999985
40
0.374999999999986
40
0.374999999999986
40
0.499999999999987
40
0.499999999999987
40
0.624999999999987
40
0.624999999999987
40
0.687499999999987
40
0.687499999999987
40
0.749999999999988
40
0.749999999999988
40
0.874999999999994
40
0.874999999999994
40
1
40
1
40
1
40
1
41
1
10
2.34999999999997
20
-43.077371802599
30
0
41
1
10
2.35000000000002
20
-43.1318408271027
30
0
41
1
10
2.35643903197467
20
-43.1873654258665
30
0
41
1
10
2.38167862106138
20
-43.2951298887553
30
0
41
1
10
2.40036399621061
20
-43.3477748104922
30
0
41
1
10
2.43764168389794
20
-43.4248069779084
30
0
41
1
10
2.45170942545082
20
-43.4502852262168
30
0
41
1
10
2.48246329323604
20
-43.4995764806654
30
0
41
1
10
2.49916854835334
20
-43.5234678453403
30
0
41
1
10
2.55318792692532
20
-43.5929070199473
30
0
41
1
10
2.59436745507776
20
-43.6362426039003
30
0
41
1
10
2.68752920324823
20
-43.7166181766586
30
0
41
1
10
2.73807485753554
20
-43.7523969894345
30
0
41
1
10
2.81932275795663
20
-43.7994067344077
30
0
41
1
10
2.84733258559709
20
-43.8139723821046
30
0
41
1
10
2.90524866144745
20
-43.8408328080215
30
0
41
1
10
2.93528026186249
20
-43.8531589158439
30
0
41
1
10
3.02633786480271
20
-43.8858861716398
30
0
41
1
10
3.08883142076172
20
-43.9023621663695
30
0
41
1
10
3.21735842708586
20
-43.9246804874419
30
0
41
1
10
3.28370776452681
20
-43.9304529006839
30
0
41
1
10
3.34999999999997
20
-43.9304529006839
30
0
0
SPLINE
5
256
100
AcDbEntity
8
1
62
256
6
ByLayer
370
18
48
1
60
0
100
AcDbSpline
70
4
71
3
72
16
73
12
40
0
40
0
40
0
40
0
40
0.125000000000007
40
0.125000000000007
40
0.250000000000014
40
0.250000000000014
40
0.500000000000009
40
0.500000000000009
40
0.750000000000005
40
0.750000000000005
40
1
40
1
40
1
40
1
41
1
10
2.82080401910451
20
-35.6278119597824
30
0
41
1
10
2.83682841218553
20
-35.6454750282216
30
0
41
1
10
2.85495428084351
20
-35.6609127060374
30
0
41
1
10
2.89399119195764
20
-35.6887201540858
30
0
41
1
10
2.91474060511621
20
-35.7008717894819
30
0
41
1
10
2.97818403274596
20
-35.7325703253483
30
0
41
1
10
3.0232251391505
20
-35.7480267601757
30
0
41
1
10
3.11440211457637
20
-35.7710129322266
30
0
41
1
10
3.1606619249813
20
-35.7786217682049
30
0
41
1
10
3.25443912464345
20
-35.788585687289
30
0
41
1
10
3.30214255276212
20
-35.7909254123492
30
0
41
1
10
3.35000000000002
20
-35.7909254123492
30
0
0
SPLINE
5
257
100
AcDbEntity
8
1
62
256
6
ByLayer
370
18
48
1
60
0
100
AcDbSpline
70
4
71
3
72
18
73
14
40
0
40
0
40
0
40
0
40
0.125000000000005
40
0.125000000000005
40
0.250000000000011
40
0.250000000000011
40
0.375000000000016
40
0.375000000000016
40
0.500000000000022
40
0.500000000000022
40
0.750000000000011
40
0.750000000000011
40
1
40
1
40
1
40
1
41
1
10
2.35000000000002
20
-35.1761637582166
30
0
41
1
10
2.35000000000002
20
-35.2031285565029
30
0
41
1
10
2.35234608506016
20
-35.2260525282782
30
0
41
1
10
2.36071758075474
20
-35.2618902366939
30
0
41
1
10
2.36678104264769
20
-35.2753310339613
30
0
41
1
10
2.3810698430442
20
-35.2945272210889
30
0
41
1
10
2.38932615578545
20
-35.3005079903727
30
0
41
1
10
2.40744592331589
20
-35.3072411015891
30
0
41
1
10
2.41728602248594
20
-35.3079342435567
30
0
41
1
10
2.44793552200252
20
-35.3041459901369
30
0
41
1
10
2.47008954779238
20
-35.2940205927671
30
0
41
1
10
2.51652022636233
20
-35.2643964699142
30
0
41
1
10
2.54079173613019
20
-35.2447751171965
30
0
41
1
10
2.56551652468374
20
-35.2220025233436
30
0
0
SPLINE
5
258
100
AcDbEntity
8
1
62
256
6
ByLayer
370
18
48
1
60
0
100
AcDbSpline
70
4
71
3
72
29
73
25
40
0
40
0
40
0
40
0
40
0.125000000000011
40
0.125000000000011
40
0.187500000000014
40
0.187500000000014
40
0.250000000000016
40
0.250000000000016
40
0.37500000000002
40
0.37500000000002
40
0.43750000000002
40
0.43750000000002
40
0.50000000000002
40
0.50000000000002
40
0.625000000000017
40
0.625000000000017
40
0.687500000000014
40
0.687500000000014
40
0.750000000000011
40
0.812500000000009
40
0.812500000000009
40
0.875000000000006
40
0.875000000000006
40
1
40
1
40
1
40
1
41
1
10
15.15
20
-43.9304529006837
30
0
41
1
10
15.2163389294891
20
-43.9304529006837
30
0
41
1
10
15.2815613398104
20
-43.9247973442021
30
0
41
1
10
15.3777885922962
20
-43.9081928832873
30
0
41
1
10
15.4095946002207
20
-43.9012946441295
30
0
41
1
10
15.4726545081571
20
-43.8847140269374
30
0
41
1
10
15.5039723943318
20
-43.8749908620846
30
0
41
1
10
15.5950286337732
20
-43.842268348928
30
0
41
1
10
15.6525876882948
20
-43.8155992541036
30
0
41
1
10
15.7342466322826
20
-43.7684410725497
30
0
41
1
10
15.760793575483
20
-43.7514391062442
30
0
41
1
10
15.8117174183808
20
-43.7153373831692
30
0
41
1
10
15.8359431019981
20
-43.6963628580061
30
0
41
1
10
15.9050262406352
20
-43.636774707223
30
0
41
1
10
15.9463234999256
20
-43.5935213343558
30
0
41
1
10
16.0009624268646
20
-43.5233063228227
30
0
41
1
10
16.0178623169135
20
-43.4990876395227
30
0
41
1
10
16.0484980594603
20
-43.4499190611164
30
0
41
1
10
16.076160183546
20
-43.3997822857764
30
0
41
1
10
16.0979669957939
20
-43.3477607436378
30
0
41
1
10
16.1168087369615
20
-43.2947938779836
30
0
41
1
10
16.1247764914205
20
-43.267686252556
30
0
41
1
10
16.1437595218043
20
-43.1862780812437
30
0
41
1
10
16.15
20
-43.1318801589335
30
0
41
1
10
16.15
20
-43.0773718025985
30
0
0
SPLINE
5
259
100
AcDbEntity
8
1
62
256
6
ByLayer
370
18
48
1
60
0
100
AcDbSpline
70
4
71
2
72
6
73
3
40
0
40
0
40
0
40
1
40
1
40
1
41
0.499999949199958
10
2.72999999999999
20
-20.1490957945558
30
0
41
0.500000050800042
10
2.72999022463648
20
-20.1491815973364
30
0
41
0.499999949199958
10
2.72998045849997
20
-20.1492673871167
30
0
0
SPLINE
5
25A
100
AcDbEntity
8
1
62
256
6
ByLayer
370
18
48
1
60
0
100
AcDbSpline
70
4
71
3
72
12
73
8
40
0
40
0
40
0
40
0
40
0.499999999999995
40
0.499999999999995
40
0.749999999999997
40
0.749999999999997
40
1
40
1
40
1
40
1
41
1
10
2.56551652468374
20
-35.2220025233436
30
0
41
1
10
2.59762948911583
20
-35.2945989758679
30
0
41
1
10
2.6340721478154
20
-35.3653895775708
30
0
41
1
10
2.69739901580499
20
-35.4679623222694
30
0
41
1
10
2.71999752278157
20
-35.5015642175447
30
0
41
1
10
2.76803488478777
20
-35.5664034274442
30
0
41
1
10
2.79353202989489
20
-35.5977511013512
30
0
41
1
10
2.82080401910349
20
-35.6278119597832
30
0
0
SPLINE
5
25B
100
AcDbEntity
8
1
62
256
6
ByLayer
370
18
48
1
60
0
100
AcDbSpline
70
4
71
2
72
6
73
3
40
0
40
0
40
0
40
1
40
1
40
1
41
0.499999984229866
10
15.7700195415
20
-20.1492673871167
30
0
41
0.500000015770134
10
15.7700097753626
20
-20.1491815973282
30
0
41
0.499999984229866
10
15.77
20
-20.1490957945558
30
0
0
SPLINE
5
25C
100
AcDbEntity
8
1
62
256
6
ByLayer
370
18
48
1
60
0
100
AcDbSpline
70
4
71
3
72
24
73
20
40
0
40
0
40
0
40
0
40
0.250000000000034
40
0.250000000000034
40
0.375000000000037
40
0.375000000000037
40
0.500000000000039
40
0.500000000000039
40
0.625000000000042
40
0.625000000000042
40
0.750000000000044
40
0.750000000000044
40
0.812500000000033
40
0.812500000000033
40
0.875000000000022
40
0.875000000000022
40
0.937500000000011
40
0.937500000000011
40
1
40
1
40
1
40
1
41
1
10
15.9344834753186
20
-35.2220025233458
30
0
41
1
10
15.9591116149461
20
-35.24468609938
30
0
41
1
10
15.98313489591
20
-35.2641283377025
30
0
41
1
10
16.0178775570059
20
-35.2863666853313
30
0
41
1
10
16.0292408130246
20
-35.2926132192062
30
0
41
1
10
16.0514129328956
20
-35.3021353908706
30
0
41
1
10
16.0622228039604
20
-35.3054013371962
30
0
41
1
10
16.082768742039
20
-35.3079412262161
30
0
41
1
10
16.0925516362283
20
-35.3072490497652
30
0
41
1
10
16.1107406270585
20
-35.300476108307
30
0
41
1
10
16.1189978220083
20
-35.2944578099929
30
0
41
1
10
16.129679790951
20
-35.280074854164
30
0
41
1
10
16.1329541338288
20
-35.2743805866934
30
0
41
1
10
16.1388083981104
20
-35.2608093256382
30
0
41
1
10
16.1413823314017
20
-35.2529058473675
30
0
41
1
10
16.1455645579227
20
-35.2349917188366
30
0
41
1
10
16.1471946765497
20
-35.2249409808947
30
0
41
1
10
16.1494155496377
20
-35.2023736948997
30
0
41
1
10
16.15
20
-35.1897258206041
30
0
41
1
10
16.15
20
-35.1761637582166
30
0
0
SPLINE
5
25D
100
AcDbEntity
8
1
62
256
6
ByLayer
370
18
48
1
60
0
100
AcDbSpline
70
4
71
3
72
10
73
6
40
0
40
0
40
0
40
0
40
0.5
40
0.5
40
1
40
1
40
1
40
1
41
1
10
15.6791959808987
20
-35.6278119597789
30
0
41
1
10
15.7340301257633
20
-35.5673704036673
30
0
41
1
10
15.7812443977545
20
-35.5024675590961
30
0
41
1
10
15.8652563073028
20
-35.3665631315938
30
0
41
1
10
15.9019671869667
20
-35.2955107535912
30
0
41
1
10
15.9344834753126
20
-35.2220025233519
30
0
0
SPLINE
5
25E
100
AcDbEntity
8
1
62
256
6
ByLayer
370
18
48
1
60
0
100
AcDbSpline
70
4
71
3
72
16
73
12
40
0
40
0
40
0
40
0
40
0.250000000000003
40
0.250000000000003
40
0.500000000000006
40
0.500000000000006
40
0.750000000000009
40
0.750000000000009
40
0.875000000000005
40
0.875000000000005
40
1
40
1
40
1
40
1
41
1
10
15.15
20
-35.7909254123492
30
0
41
1
10
15.1979464172204
20
-35.7909254123492
30
0
41
1
10
15.2453156195112
20
-35.788598698667
30
0
41
1
10
15.3389246637196
20
-35.7786786493584
30
0
41
1
10
15.3851645919013
20
-35.7710984125168
30
0
41
1
10
15.4764298042538
20
-35.7481373040664
30
0
41
1
10
15.5215996828812
20
-35.7326797669729
30
0
41
1
10
15.5853858124016
20
-35.7008079373893
30
0
41
1
10
15.6062466032052
20
-35.6885605427623
30
0
41
1
10
15.645027116457
20
-35.6609161229748
30
0
41
1
10
15.663115621595
20
-35.6455367176207
30
0
41
1
10
15.6791959809003
20
-35.627811959777
30
0
0
SPLINE
5
25F
100
AcDbEntity
8
1
62
256
6
ByLayer
370
18
48
1
60
0
100
AcDbSpline
70
4
71
3
72
8
73
4
40
0
40
0
40
0
40
0
40
1
40
1
40
1
40
1
41
1
10
11.95
20
-10.0936462714028
30
0
41
1
10
12.0189569890833
20
-10.2267440707689
30
0
41
1
10
12.0759080389491
20
-10.3618293373189
30
0
41
1
10
12.1211495781629
20
-10.4987276109605
30
0
0
SPLINE
5
260
100
AcDbEntity
8
1
62
256
6
ByLayer
370
18
48
1
60
0
100
AcDbSpline
70
4
71
3
72
22
73
18
40
0
40
0
40
0
40
0
40
0.0624999999999999
40
0.0624999999999999
40
0.125
40
0.125
40
0.25
40
0.25
40
0.375
40
0.375
40
0.5
40
0.5
40
0.625
40
0.625
40
0.75
40
0.75
40
1
40
1
40
1
40
1
41
1
10
2.34999999999997
20
-45.3998489321602
30
0
41
1
10
2.34999999999997
20
-45.4188088950061
30
0
41
1
10
2.35056971135322
20
-45.4380165128661
30
0
41
1
10
2.35278321901615
20
-45.4768986561237
30
0
41
1
10
2.35444664767442
20
-45.4967059340917
30
0
41
1
10
2.36075418445921
20
-45.5550444825711
30
0
41
1
10
2.36669479219859
20
-45.5929619930689
30
0
41
1
10
2.3811173217548
20
-45.6673695900686
30
0
41
1
10
2.3894666593049
20
-45.7031171899233
30
0
41
1
10
2.40750998546963
20
-45.7716162712703
30
0
41
1
10
2.41725274253753
20
-45.8045579394456
30
0
41
1
10
2.43782159356414
20
-45.8684763911152
30
0
41
1
10
2.44863423874352
20
-45.8993747681825
30
0
41
1
10
2.47073423821575
20
-45.9586199504345
30
0
41
1
10
2.48207403212837
20
-45.9871226365706
30
0
41
1
10
2.51678112186033
20
-46.0699730583644
30
0
41
1
10
2.54082688968458
20
-46.1216988497406
30
0
41
1
10
2.56551652468357
20
-46.1709364266518
30
0
0
SPLINE
5
261
100
AcDbEntity
8
1
62
256
6
ByLayer
370
18
48
1
60
0
100
AcDbSpline
70
4
71
3
72
14
73
10
40
0
40
0
40
0
40
0
40
0.25
40
0.25
40
0.5
40
0.5
40
0.75
40
0.75
40
1
40
1
40
1
40
1
41
1
10
11.45
20
-7.54968759125535
30
0
41
1
10
11.45
20
-7.55930256453166
30
0
41
1
10
11.4518856073138
20
-7.56874160055531
30
0
41
1
10
11.4595990343218
20
-7.58724622764055
30
0
41
1
10
11.465505514888
20
-7.59634198341826
30
0
41
1
10
11.481781494054
20
-7.61279399021493
30
0
41
1
10
11.4922686304105
20
-7.62030011320769
30
0
41
1
10
11.5184289639933
20
-7.63150949337398
30
0
41
1
10
11.5339293972893
20
-7.63494835854033
30
0
41
1
10
11.5499999999989
20
-7.6349483585405
30
0
0
SPLINE
5
262
100
AcDbEntity
8
1
62
256
6
ByLayer
370
18
48
1
60
0
100
AcDbSpline
70
4
71
3
72
71
73
67
40
0
40
0
40
0
40
0
40
0.0625000000000048
40
0.0625000000000048
40
0.12500000000001
40
0.12500000000001
40
0.187500000000014
40
0.187500000000014
40
0.250000000000019
40
0.250000000000019
40
0.28125000000002
40
0.28125000000002
40
0.312500000000022
40
0.312500000000022
40
0.343750000000023
40
0.343750000000023
40
0.375000000000024
40
0.375000000000024
40
0.406250000000025
40
0.406250000000025
40
0.421875000000027
40
0.421875000000027
40
0.437500000000029
40
0.437500000000029
40
0.45312500000003
40
0.45312500000003
40
0.46093750000003
40
0.46093750000003
40
0.468750000000031
40
0.468750000000031
40
0.48437500000003
40
0.48437500000003
40
0.49218750000003
40
0.49218750000003
40
0.500000000000029
40
0.507812500000029
40
0.507812500000029
40
0.515625000000029
40
0.515625000000029
40
0.523437500000028
40
0.523437500000028
40
0.531250000000028
40
0.531250000000028
40
0.546875000000027
40
0.546875000000027
40
0.562500000000026
40
0.562500000000026
40
0.593750000000024
40
0.593750000000024
40
0.625000000000022
40
0.625000000000022
40
0.65625000000002
40
0.65625000000002
40
0.687500000000018
40
0.687500000000018
40
0.750000000000015
40
0.750000000000015
40
0.812500000000012
40
0.812500000000012
40
0.843750000000009
40
0.843750000000009
40
0.875000000000006
40
0.875000000000006
40
0.937500000000003
40
0.937500000000003
40
1
40
1
40
1
40
1
41
1
10
11.45
20
-5.3197613079497
30
0
41
1
10
11.45
20
-5.25183093194954
30
0
41
1
10
11.4576370128448
20
-5.18677732070205
30
0
41
1
10
11.4859665308479
20
-5.06208278502521
30
0
41
1
10
11.5066717175569
20
-5.00244362134782
30
0
41
1
10
11.5602151055715
20
-4.8883573297951
30
0
41
1
10
11.593049060729
20
-4.83391084754459
30
0
41
1
10
11.6710413412101
20
-4.73006885910036
30
0
41
1
10
11.7161702569165
20
-4.68067305454986
30
0
41
1
10
11.7944223879131
20
-4.61031737345712
30
0
41
1
10
11.8222816881832
20
-4.58749901856629
30
0
41
1
10
11.8815778073046
20
-4.54341652450864
30
0
41
1
10
11.9130526979152
20
-4.52211212439187
30
0
41
1
10
11.9802612686672
20
-4.48097858976735
30
0
41
1
10
12.0159858392999
20
-4.46114887592586
30
0
41
1
10
12.0927240613242
20
-4.42299584023272
30
0
41
1
10
12.1334891674962
20
-4.40479091369974
30
0
41
1
10
12.2212279502194
20
-4.37023770503077
30
0
41
1
10
12.2681675446011
20
-4.3538811795575
30
0
41
1
10
12.3453433448028
20
-4.33091303837131
30
0
41
1
10
12.3722092576836
20
-4.32351951292327
30
0
41
1
10
12.4288854750714
20
-4.30932287382666
30
0
41
1
10
12.4588316148083
20
-4.30249414995711
30
0
41
1
10
12.5215092105706
20
-4.28977298571709
30
0
41
1
10
12.5543051342701
20
-4.28385580189126
30
0
41
1
10
12.6064216009366
20
-4.27578546029355
30
0
41
1
10
12.624284279582
20
-4.27323033710593
30
0
41
1
10
12.661175240726
20
-4.26842729489113
30
0
41
1
10
12.6802767854908
20
-4.26617323731284
30
0
41
1
10
12.7386000579714
20
-4.26005537208175
30
0
41
1
10
12.779066367575
20
-4.25679122865944
30
0
41
1
10
12.8428538366189
20
-4.25341208173001
30
0
41
1
10
12.8646413128815
20
-4.25254635690487
30
0
41
1
10
12.9079748551493
20
-4.25141252397231
30
0
41
1
10
12.9513914343233
20
-4.25085625993546
30
0
41
1
10
12.9949759109823
20
-4.25146367751324
30
0
41
1
10
13.0386453752224
20
-4.25266241519677
30
0
41
1
10
13.0603594662261
20
-4.25355701023568
30
0
41
1
10
13.1026439913897
20
-4.25585162210297
30
0
41
1
10
13.1233615672469
20
-4.25725524550472
30
0
41
1
10
13.1640381457271
20
-4.26052915399191
30
0
41
1
10
13.1840944662581
20
-4.26241063543068
30
0
41
1
10
13.2423966260536
20
-4.26860908966898
30
0
41
1
10
13.2787918125001
20
-4.27345713745973
30
0
41
1
10
13.3480450362
20
-4.28426117128896
30
0
41
1
10
13.3809593326247
20
-4.29023529290845
30
0
41
1
10
13.4751573261765
20
-4.30947490779084
30
0
41
1
10
13.5307497107712
20
-4.32374279708836
30
0
41
1
10
13.6335927197843
20
-4.3544623491041
30
0
41
1
10
13.6807151135245
20
-4.37093137015415
30
0
41
1
10
13.7689827563024
20
-4.40583962335171
30
0
41
1
10
13.8096176708947
20
-4.42409178290109
30
0
41
1
10
13.8855793704381
20
-4.4619990079533
30
0
41
1
10
13.9209266375377
20
-4.48167278667717
30
0
41
1
10
14.0206516662884
20
-4.54280705064781
30
0
41
1
10
14.078805978613
20
-4.58637385888079
30
0
41
1
10
14.182294653172
20
-4.67916897902302
30
0
41
1
10
14.2275568896768
20
-4.72840050858724
30
0
41
1
10
14.2865746833039
20
-4.80668601571006
30
0
41
1
10
14.3047446725469
20
-4.83352204590568
30
0
41
1
10
14.3379037836124
20
-4.88835289753291
30
0
41
1
10
14.3529262036386
20
-4.91638980525295
30
0
41
1
10
14.3933299815489
20
-5.00238392527183
30
0
41
1
10
14.4140816101514
20
-5.06222246710894
30
0
41
1
10
14.4424116265376
20
-5.1870638718367
30
0
41
1
10
14.45
20
-5.25206566302325
30
0
41
1
10
14.45
20
-5.3197613079497
30
0
0
SPLINE
5
263
100
AcDbEntity
8
1
62
256
6
ByLayer
370
18
48
1
60
0
100
AcDbSpline
70
4
71
3
72
14
73
10
40
0
40
0
40
0
40
0
40
0.25
40
0.25
40
0.5
40
0.5
40
0.75
40
0.75
40
1
40
1
40
1
40
1
41
1
10
14.35
20
-7.63494835853817
30
0
41
1
10
14.3660659924433
20
-7.63494835853817
30
0
41
1
10
14.3815021555856
20
-7.6315193940294
30
0
41
1
10
14.4075490936905
20
-7.62039764165473
30
0
41
1
10
14.4180717503518
20
-7.61292160687469
30
0
41
1
10
14.4344814557587
20
-7.59637567882436
30
0
41
1
10
14.4402749128232
20
-7.58749282243042
30
0
41
1
10
14.4481149976581
20
-7.56879506891715
30
0
41
1
10
14.45
20
-7.55929956052688
30
0
41
1
10
14.45
20
-7.54968759125535
30
0
0
SPLINE
5
264
100
AcDbEntity
8
1
62
256
6
ByLayer
370
18
48
1
60
0
100
AcDbSpline
70
4
71
3
72
26
73
22
40
0
40
0
40
0
40
0
40
0.124999999999997
40
0.124999999999997
40
0.249999999999994
40
0.249999999999994
40
0.312499999999993
40
0.312499999999993
40
0.374999999999991
40
0.374999999999991
40
0.499999999999989
40
0.499999999999989
40
0.624999999999986
40
0.624999999999986
40
0.687499999999988
40
0.687499999999988
40
0.74999999999999
40
0.74999999999999
40
0.874999999999995
40
0.874999999999995
40
1
40
1
40
1
40
1
41
1
10
2.34999999999997
20
-3.93836521935162
30
0
41
1
10
2.35000000000002
20
-3.93413792551223
30
0
41
1
10
2.35643903197467
20
-3.93021273639789
30
0
41
1
10
2.38167862106138
20
-3.92330899154291
30
0
41
1
10
2.40036399621061
20
-3.92029235509182
30
0
41
1
10
2.43764168389794
20
-3.91634197527213
30
0
41
1
10
2.45170942545082
20
-3.91511589980394
30
0
41
1
10
2.48246329323604
20
-3.91288616559939
30
0
41
1
10
2.49916854835334
20
-3.91187764592689
30
0
41
1
10
2.55318792692532
20
-3.90912992998926
30
0
41
1
10
2.59436745507776
20
-3.90766740574458
30
0
41
1
10
2.68752920324823
20
-3.90530157106747
30
0
41
1
10
2.73807485753554
20
-3.90443367511512
30
0
41
1
10
2.81932275795663
20
-3.90343825284424
30
0
41
1
10
2.84733258559709
20
-3.90315788311312
30
0
41
1
10
2.90524866144745
20
-3.90267860371228
30
0
41
1
10
2.93528026186249
20
-3.90247937106358
30
0
41
1
10
3.02633786480271
20
-3.90198653243857
30
0
41
1
10
3.08883142076172
20
-3.90178920866191
30
0
41
1
10
3.21735842708586
20
-3.90153651888841
30
0
41
1
10
3.28370776452681
20
-3.90148195681337
30
0
41
1
10
3.34999999999997
20
-3.90148195681337
30
0
0
SPLINE
5
265
100
AcDbEntity
8
1
62
256
6
ByLayer
370
18
48
1
60
0
100
AcDbSpline
70
4
71
3
72
16
73
12
40
0
40
0
40
0
40
0
40
0.124999999999999
40
0.124999999999999
40
0.249999999999998
40
0.249999999999998
40
0.499999999999998
40
0.499999999999998
40
0.749999999999999
40
0.749999999999999
40
1
40
1
40
1
40
1
41
1
10
2.82080401910451
20
10.6584050323669
30
0
41
1
10
2.83682705790028
20
10.6457606796839
30
0
41
1
10
2.85495242980829
20
10.6371536783344
30
0
41
1
10
2.89399019923172
20
10.6240825343469
30
0
41
1
10
2.91473853723357
20
10.6198145103232
30
0
41
1
10
2.97818150978804
20
10.6110528854806
30
0
41
1
10
3.02322378537957
20
10.6102971529311
30
0
41
1
10
3.11439857449926
20
10.6113382890038
30
0
41
1
10
3.16065825034212
20
10.613217348428
30
0
41
1
10
3.25443698434754
20
10.6161190724197
30
0
41
1
10
3.30214274437679
20
10.6171595472698
30
0
41
1
10
3.35000000000002
20
10.6171595472698
30
0
0
SPLINE
5
266
100
AcDbEntity
8
1
62
256
6
ByLayer
370
18
48
1
60
0
100
AcDbSpline
70
4
71
3
72
12
73
8
40
0
40
0
40
0
40
0
40
0.499999999999987
40
0.499999999999987
40
0.749999999999993
40
0.749999999999993
40
1
40
1
40
1
40
1
41
1
10
2.56551652468374
20
10.9489339033075
30
0
41
1
10
2.59762953610306
20
10.896960256682
30
0
41
1
10
2.63407232534479
20
10.8462793374146
30
0
41
1
10
2.69739972021927
20
10.7728445046006
30
0
41
1
10
2.7199981624255
20
10.7487882208151
30
0
41
1
10
2.7680352415565
20
10.702368583898
30
0
41
1
10
2.79353222333589
20
10.6799261812795
30
0
41
1
10
2.82080401910258
20
10.6584050323659
30
0
0
SPLINE
5
267
100
AcDbEntity
8
1
62
256
6
ByLayer
370
18
48
1
60
0
100
AcDbSpline
70
4
71
3
72
22
73
18
40
0
40
0
40
0
40
0
40
0.0624999999999937
40
0.0624999999999937
40
0.124999999999987
40
0.124999999999987
40
0.187499999999981
40
0.187499999999981
40
0.249999999999975
40
0.249999999999975
40
0.374999999999978
40
0.374999999999978
40
0.49999999999998
40
0.49999999999998
40
0.74999999999999
40
0.74999999999999
40
1
40
1
40
1
40
1
41
1
10
2.35000000000002
20
10.2236851739436
30
0
41
1
10
2.35000000000002
20
10.2290574442306
30
0
41
1
10
2.35058234018374
20
10.2359883154184
30
0
41
1
10
2.35280889510733
20
10.2522683585909
30
0
41
1
10
2.35444401572107
20
10.2616279632397
30
0
41
1
10
2.35863870943769
20
10.2825076810993
30
0
41
1
10
2.36121918811324
20
10.2941101811637
30
0
41
1
10
2.36707750620684
20
10.3187085214439
30
0
41
1
10
2.37035556687727
20
10.331721425416
30
0
41
1
10
2.3810560733375
20
10.3725323419507
30
0
41
1
10
2.38936578690021
20
10.4021867468239
30
0
41
1
10
2.40755436653922
20
10.4645282429655
30
0
41
1
10
2.41729254538421
20
10.4967415610829
30
0
41
1
10
2.4478867641925
20
10.5956154646954
30
0
41
1
10
2.47014469226264
20
10.6646103671041
30
0
41
1
10
2.51675885270163
20
10.8057254729177
30
0
41
1
10
2.54086302465453
20
10.8770614549029
30
0
41
1
10
2.5655165246838
20
10.9489339033075
30
0
0
SPLINE
5
268
100
AcDbEntity
8
1
62
256
6
ByLayer
370
18
48
1
60
0
100
AcDbSpline
70
4
71
3
72
29
73
25
40
0
40
0
40
0
40
0
40
0.124999999999997
40
0.124999999999997
40
0.187499999999995
40
0.187499999999995
40
0.249999999999994
40
0.249999999999994
40
0.374999999999991
40
0.374999999999991
40
0.437499999999989
40
0.437499999999989
40
0.499999999999988
40
0.499999999999988
40
0.624999999999999
40
0.624999999999999
40
0.687499999999999
40
0.687499999999999
40
0.749999999999999
40
0.8125
40
0.8125
40
0.875
40
0.875
40
1
40
1
40
1
40
1
41
1
10
15.15
20
-3.90148195681337
30
0
41
1
10
15.2163389294891
20
-3.90148195681337
30
0
41
1
10
15.2815613398104
20
-3.90153536956797
30
0
41
1
10
15.3777885922962
20
-3.90172310836647
30
0
41
1
10
15.4095946002207
20
-3.90180433531788
30
0
41
1
10
15.4726545081571
20
-3.90201772535096
30
0
41
1
10
15.5039723943318
20
-3.90215061723433
30
0
41
1
10
15.5950286337732
20
-3.90264334636072
30
0
41
1
10
15.6525876882948
20
-3.90309640496633
30
0
41
1
10
15.7342466322826
20
-3.9040934422498
30
0
41
1
10
15.760793575483
20
-3.90448137672206
30
0
41
1
10
15.8117174183808
20
-3.90538526840993
30
0
41
1
10
15.8359431019982
20
-3.90589788876713
30
0
41
1
10
15.9050262406352
20
-3.9076515289571
30
0
41
1
10
15.9463234999256
20
-3.90910597950256
30
0
41
1
10
16.0009624268646
20
-3.91188385894566
30
0
41
1
10
16.0178623169135
20
-3.9129074516303
30
0
41
1
10
16.0484980594603
20
-3.91513330525828
30
0
41
1
10
16.076160183546
20
-3.91754693922349
30
0
41
1
10
16.0979669957939
20
-3.92037069368951
30
0
41
1
10
16.1168087369615
20
-3.92341906524473
30
0
41
1
10
16.1247764914205
20
-3.92506559296692
30
0
41
1
10
16.1437595218043
20
-3.93028551073047
30
0
41
1
10
16.15
20
-3.9341348730029
30
0
41
1
10
16.15
20
-3.93836521935168
30
0
0
SPLINE
5
269
100
AcDbEntity
8
1
62
256
6
ByLayer
370
18
48
1
60
0
100
AcDbSpline
70
4
71
3
72
20
73
16
40
0
40
0
40
0
40
0
40
0.250000000000006
40
0.250000000000006
40
0.500000000000011
40
0.500000000000011
40
0.625000000000007
40
0.625000000000007
40
0.750000000000004
40
0.750000000000004
40
0.875
40
0.875
40
0.9375
40
0.9375
40
1
40
1
40
1
40
1
41
1
10
15.9344834753187
20
10.9489339033003
30
0
41
1
10
15.9590974076709
20
10.8771768067045
30
0
41
1
10
15.9831445381036
20
10.8060096550953
30
0
41
1
10
16.029605244135
20
10.6653756063243
30
0
41
1
10
16.0520937444811
20
10.5956886372386
30
0
41
1
10
16.0828710248487
20
10.4962078087989
30
0
41
1
10
16.0927102658971
20
10.4636377853259
30
0
41
1
10
16.110757621299
20
10.4017468323734
30
0
41
1
10
16.1189873155092
20
10.3723739010148
30
0
41
1
10
16.1332413884849
20
10.3179958344496
30
0
41
1
10
16.1393010075512
20
10.2927757712767
30
0
41
1
10
16.1455620969931
20
10.2615911376229
30
0
41
1
10
16.1471965741685
20
10.2522380259474
30
0
41
1
10
16.1494245724797
20
10.2359280604786
30
0
41
1
10
16.15
20
10.229041365694
30
0
41
1
10
16.15
20
10.2236851739436
30
0
0
SPLINE
5
26A
100
AcDbEntity
8
1
62
256
6
ByLayer
370
18
48
1
60
0
100
AcDbSpline
70
4
71
3
72
10
73
6
40
0
40
0
40
0
40
0
40
0.5
40
0.5
40
1
40
1
40
1
40
1
41
1
10
15.6791959808957
20
10.6584050323671
30
0
41
1
10
15.7340295447507
20
10.7016761577188
30
0
41
1
10
15.7812437329895
20
10.7481414552242
30
0
41
1
10
15.8652557830563
20
10.8454387518439
30
0
41
1
10
15.9019669056501
20
10.896307113524
30
0
41
1
10
15.9344834753126
20
10.9489339033017
30
0
0
SPLINE
5
26B
100
AcDbEntity
8
1
62
256
6
ByLayer
370
18
48
1
60
0
100
AcDbSpline
70
4
71
3
72
16
73
12
40
0
40
0
40
0
40
0
40
0.250000000000008
40
0.250000000000008
40
0.500000000000016
40
0.500000000000016
40
0.750000000000024
40
0.750000000000024
40
0.875000000000016
40
0.875000000000016
40
1
40
1
40
1
40
1
41
1
10
15.15
20
10.6171595472699
30
0
41
1
10
15.1979467686554
20
10.6171595472699
30
0
41
1
10
15.2453163139875
20
10.6161251002254
30
0
41
1
10
15.3389260276339
20
10.6132318061865
30
0
41
1
10
15.3851662822324
20
10.6113516977944
30
0
41
1
10
15.4764321276253
20
10.6102927140744
30
0
41
1
10
15.5216022529806
20
10.6110218382721
30
0
41
1
10
15.5853891364264
20
10.6198327347906
30
0
41
1
10
15.6062499456863
20
10.6241527397117
30
0
41
1
10
15.6450290866893
20
10.6371577510579
30
0
41
1
10
15.6631166851907
20
10.6457162853459
30
0
41
1
10
15.6791959808958
20
10.6584050323671
30
0
0
SPLINE
5
26C
100
AcDbEntity
8
1
62
256
6
ByLayer
370
18
48
1
60
0
100
AcDbSpline
70
4
71
3
72
16
73
12
40
0
40
0
40
0
40
0
40
0.250000000000003
40
0.250000000000003
40
0.500000000000006
40
0.500000000000006
40
0.750000000000008
40
0.750000000000008
40
0.875000000000004
40
0.875000000000004
40
1
40
1
40
1
40
1
41
1
10
15.15
20
-46.4080849596191
30
0
41
1
10
15.1979464263276
20
-46.4080849596191
30
0
41
1
10
15.2453156375082
20
-46.4047238140842
30
0
41
1
10
15.3389246990647
20
-46.3919104966724
30
0
41
1
10
15.3851646357052
20
-46.382450163608
30
0
41
1
10
15.4764298644626
20
-46.3584299840429
30
0
41
1
10
15.5215997494831
20
-46.3437015071419
30
0
41
1
10
15.5853858985515
20
-46.3206400414075
30
0
41
1
10
15.6062466898563
20
-46.3127123741093
30
0
41
1
10
15.6450271675347
20
-46.2980729487624
30
0
41
1
10
15.6631156491691
20
-46.2912521550101
30
0
41
1
10
15.6791959809004
20
-46.2862169921478
30
0
0
SPLINE
5
26D
100
AcDbEntity
8
1
62
256
6
ByLayer
370
18
48
1
60
0
100
AcDbSpline
70
4
71
3
72
16
73
12
40
0
40
0
40
0
40
0
40
0.124999999999994
40
0.124999999999994
40
0.249999999999988
40
0.249999999999988
40
0.499999999999992
40
0.499999999999992
40
0.749999999999996
40
0.749999999999996
40
1
40
1
40
1
40
1
41
1
10
2.82080401910451
20
-46.2862169921493
30
0
41
1
10
2.83682837704902
20
-46.2912346281885
30
0
41
1
10
2.85495423280185
20
-46.2980656145268
30
0
41
1
10
2.89399116610389
20
-46.3128024782052
30
0
41
1
10
2.91474055145397
20
-46.3206858939076
30
0
41
1
10
2.97818396723005
20
-46.3436230405662
30
0
41
1
10
3.02322510407714
20
-46.3583238639716
30
0
41
1
10
3.1144020227382
20
-46.3823512928078
30
0
41
1
10
3.16066182961345
20
-46.391839227914
30
0
41
1
10
3.25443906897544
20
-46.4047048076327
30
0
41
1
10
3.30214255772904
20
-46.4080849596191
30
0
41
1
10
3.35000000000002
20
-46.4080849596191
30
0
0
SPLINE
5
26E
100
AcDbEntity
8
1
62
256
6
ByLayer
370
18
48
1
60
0
100
AcDbSpline
70
4
71
3
72
10
73
6
40
0
40
0
40
0
40
0
40
0.5
40
0.5
40
1
40
1
40
1
40
1
41
1
10
15.6791959808987
20
-46.2862169921483
30
0
41
1
10
15.7340301101129
20
-46.2690470247849
30
0
41
1
10
15.7812443798482
20
-46.2506097117297
30
0
41
1
10
15.8652562931816
20
-46.2120025777832
30
0
41
1
10
15.901967179389
20
-46.1918183272813
30
0
41
1
10
15.9344834753125
20
-46.1709364266535
30
0
0
SPLINE
5
26F
100
AcDbEntity
8
1
62
256
6
ByLayer
370
18
48
1
60
0
100
AcDbSpline
70
4
71
3
72
12
73
8
40
0
40
0
40
0
40
0
40
0.49999999999999
40
0.49999999999999
40
0.749999999999995
40
0.749999999999995
40
1
40
1
40
1
40
1
41
1
10
2.56551652468374
20
-46.1709364266511
30
0
41
1
10
2.5976294903794
20
-46.1915593094084
30
0
41
1
10
2.63407215259292
20
-46.211669195321
30
0
41
1
10
2.69739903477074
20
-46.240807616304
30
0
41
1
10
2.71999754001251
20
-46.2503530939809
30
0
41
1
10
2.76803489439845
20
-46.2687723288766
30
0
41
1
10
2.79353203510573
20
-46.2776774369148
30
0
41
1
10
2.82080401910343
20
-46.2862169921495
30
0
0
LINE
5
7A
100
AcDbEntity
8
1
62
256
6
ByLayer
370
18
48
1
60
0
100
AcDbLine
10
3.35
20
-46.408085
30
0
11
15.15
21
-46.408085
31
0
39
0
210
0
220
0
230
1
0
LINE
5
7B
100
AcDbEntity
8
1
62
256
6
ByLayer
370
13
48
1
60
0
100
AcDbLine
10
2.820804
20
-46.286217
30
0
11
15.679196
21
-46.286217
31
0
39
0
210
0
220
0
230
1
0
LINE
5
7C
100
AcDbEntity
8
1
62
256
6
ByLayer
370
13
48
1
60
0
100
AcDbLine
10
15.83652
20
-46.088884
30
0
11
2.66348
21
-46.088884
31
0
39
0
210
0
220
0
230
1
0
LINE
5
7D
100
AcDbEntity
8
1
62
256
6
ByLayer
370
13
48
1
60
0
100
AcDbLine
10
16.07212
20
-45.116476
30
0
11
2.42788
21
-45.116476
31
0
39
0
210
0
220
0
230
1
0
LINE
5
7E
100
AcDbEntity
8
1
62
256
6
ByLayer
370
13
48
1
60
0
100
AcDbLine
10
2.69198
20
-45.980983
30
0
11
15.80802
21
-45.980983
31
0
39
0
210
0
220
0
230
1
0
LINE
5
7F
100
AcDbEntity
8
1
62
256
6
ByLayer
370
13
48
1
60
0
100
AcDbLine
10
2.66348
20
-45.613792
30
0
11
15.83652
21
-45.613792
31
0
39
0
210
0
220
0
230
1
0
LINE
5
80
100
AcDbEntity
8
1
62
256
6
ByLayer
370
13
48
1
60
0
100
AcDbLine
10
15.80802
20
-45.757981
30
0
11
2.69198
21
-45.757981
31
0
39
0
210
0
220
0
230
1
0
LINE
5
81
100
AcDbEntity
8
1
62
256
6
ByLayer
370
13
48
1
60
0
100
AcDbLine
10
2.42788
20
-44.830773
30
0
11
16.07212
21
-44.830773
31
0
39
0
210
0
220
0
230
1
0
LINE
5
82
100
AcDbEntity
8
1
62
256
6
ByLayer
370
13
48
1
60
0
100
AcDbLine
10
15.83652
20
-44.633441
30
0
11
2.66348
21
-44.633441
31
0
39
0
210
0
220
0
230
1
0
LINE
5
83
100
AcDbEntity
8
1
62
256
6
ByLayer
370
13
48
1
60
0
100
AcDbLine
10
16.07212
20
-43.661032
30
0
11
15.858076
21
-43.661032
31
0
39
0
210
0
220
0
230
1
0
LINE
5
84
100
AcDbEntity
8
1
62
256
6
ByLayer
370
13
48
1
60
0
100
AcDbLine
10
2.629133
20
-43.661032
30
0
11
2.42788
21
-43.661032
31
0
39
0
210
0
220
0
230
1
0
LINE
5
85
100
AcDbEntity
8
1
62
256
6
ByLayer
370
13
48
1
60
0
100
AcDbLine
10
2.69198
20
-44.52554
30
0
11
15.80802
21
-44.52554
31
0
39
0
210
0
220
0
230
1
0
LINE
5
86
100
AcDbEntity
8
1
62
256
6
ByLayer
370
13
48
1
60
0
100
AcDbLine
10
2.66348
20
-44.158348
30
0
11
15.83652
21
-44.158348
31
0
39
0
210
0
220
0
230
1
0
LINE
5
87
100
AcDbEntity
8
1
62
256
6
ByLayer
370
13
48
1
60
0
100
AcDbLine
10
15.80802
20
-44.302537
30
0
11
2.69198
21
-44.302537
31
0
39
0
210
0
220
0
230
1
0
LINE
5
88
100
AcDbEntity
8
1
62
256
6
ByLayer
370
18
48
1
60
0
100
AcDbLine
10
2.66348
20
-46.088884
30
0
11
2.565517
21
-46.170936
31
0
39
0
210
0
220
0
230
1
0
LINE
5
89
100
AcDbEntity
8
1
62
256
6
ByLayer
370
18
48
1
60
0
100
AcDbLine
10
2.69198
20
-45.757981
30
0
11
2.69198
21
-45.980983
31
0
39
0
210
0
220
0
230
1
0
LINE
5
8A
100
AcDbEntity
8
1
62
256
6
ByLayer
370
18
48
1
60
0
100
AcDbLine
10
2.42788
20
-45.116476
30
0
11
2.66348
21
-45.613792
31
0
39
0
210
0
220
0
230
1
0
LINE
5
8B
100
AcDbEntity
8
1
62
256
6
ByLayer
370
18
48
1
60
0
100
AcDbLine
10
2.66348
20
-44.633441
30
0
11
2.42788
21
-44.830773
31
0
39
0
210
0
220
0
230
1
0
LINE
5
8C
100
AcDbEntity
8
1
62
256
6
ByLayer
370
18
48
1
60
0
100
AcDbLine
10
2.69198
20
-44.302537
30
0
11
2.69198
21
-44.52554
31
0
39
0
210
0
220
0
230
1
0
LINE
5
8D
100
AcDbEntity
8
1
62
256
6
ByLayer
370
18
48
1
60
0
100
AcDbLine
10
2.42788
20
-43.661032
30
0
11
2.66348
21
-44.158348
31
0
39
0
210
0
220
0
230
1
0
LINE
5
8E
100
AcDbEntity
8
1
62
256
6
ByLayer
370
18
48
1
60
0
100
AcDbLine
10
16.15
20
-43.077331
30
0
11
16.15
21
-45.399849
31
0
39
0
210
0
220
0
230
1
0
LINE
5
8F
100
AcDbEntity
8
1
62
256
6
ByLayer
370
18
48
1
60
0
100
AcDbLine
10
15.83652
20
-44.158348
30
0
11
16.07212
21
-43.661032
31
0
39
0
210
0
220
0
230
1
0
LINE
5
90
100
AcDbEntity
8
1
62
256
6
ByLayer
370
18
48
1
60
0
100
AcDbLine
10
15.80802
20
-44.52554
30
0
11
15.80802
21
-44.302537
31
0
39
0
210
0
220
0
230
1
0
LINE
5
91
100
AcDbEntity
8
1
62
256
6
ByLayer
370
18
48
1
60
0
100
AcDbLine
10
16.07212
20
-44.830773
30
0
11
15.83652
21
-44.633441
31
0
39
0
210
0
220
0
230
1
0
LINE
5
92
100
AcDbEntity
8
1
62
256
6
ByLayer
370
18
48
1
60
0
100
AcDbLine
10
15.83652
20
-45.613792
30
0
11
16.07212
21
-45.116476
31
0
39
0
210
0
220
0
230
1
0
LINE
5
93
100
AcDbEntity
8
1
62
256
6
ByLayer
370
18
48
1
60
0
100
AcDbLine
10
15.80802
20
-45.980983
30
0
11
15.80802
21
-45.757981
31
0
39
0
210
0
220
0
230
1
0
LINE
5
94
100
AcDbEntity
8
1
62
256
6
ByLayer
370
18
48
1
60
0
100
AcDbLine
10
15.934483
20
-46.170936
30
0
11
15.83652
21
-46.088884
31
0
39
0
210
0
220
0
230
1
0
LINE
5
95
100
AcDbEntity
8
1
62
256
6
ByLayer
370
18
48
1
60
0
100
AcDbLine
10
11.45
20
-9.132998
30
0
11
11.45
21
-10.193989
31
0
39
0
210
0
220
0
230
1
0
LINE
5
96
100
AcDbEntity
8
1
62
256
6
ByLayer
370
18
48
1
60
0
100
AcDbLine
10
16.15
20
16.988587
30
0
11
16.15
21
17.188815
31
0
39
0
210
0
220
0
230
1
0
LINE
5
97
100
AcDbEntity
8
1
62
256
6
ByLayer
370
18
48
1
60
0
100
AcDbLine
10
2.35
20
17.188815
30
0
11
2.35
21
16.988587
31
0
39
0
210
0
220
0
230
1
0
LINE
5
98
100
AcDbEntity
8
1
62
256
6
ByLayer
370
18
48
1
60
0
100
AcDbLine
10
2.35
20
-19.645303
30
0
11
2.35
21
-20.733194
31
0
39
0
210
0
220
0
230
1
0
LINE
5
99
100
AcDbEntity
8
1
62
256
6
ByLayer
370
18
48
1
60
0
100
AcDbLine
10
16.15
20
-20.733194
30
0
11
16.15
21
-19.645303
31
0
39
0
210
0
220
0
230
1
0
LINE
5
9A
100
AcDbEntity
8
1
62
256
6
ByLayer
370
18
48
1
60
0
100
AcDbLine
10
15.77
20
-20.149096
30
0
11
2.73
21
-20.149096
31
0
39
0
210
0
220
0
230
1
0
LINE
5
9B
100
AcDbEntity
8
1
62
256
6
ByLayer
370
18
48
1
60
0
100
AcDbLine
10
2.72998
20
-20.149267
30
0
11
15.77002
21
-20.149267
31
0
39
0
210
0
220
0
230
1
0
LINE
5
9C
100
AcDbEntity
8
1
62
256
6
ByLayer
370
18
48
1
60
0
100
AcDbLine
10
16.15
20
18.522758
30
0
11
16.15
21
17.188815
31
0
39
0
210
0
220
0
230
1
0
LINE
5
9D
100
AcDbEntity
8
1
62
256
6
ByLayer
370
18
48
1
60
0
100
AcDbLine
10
2.35
20
17.188815
30
0
11
2.35
21
18.522758
31
0
39
0
210
0
220
0
230
1
0
LINE
5
9E
100
AcDbEntity
8
1
62
256
6
ByLayer
370
18
48
1
60
0
100
AcDbLine
10
2.35
20
17.188815
30
0
11
16.15
21
17.188815
31
0
39
0
210
0
220
0
230
1
0
LINE
5
9F
100
AcDbEntity
8
1
62
256
6
ByLayer
370
13
48
1
60
0
100
AcDbLine
10
15.77
20
-20.013854
30
0
11
2.73
21
-20.013854
31
0
39
0
210
0
220
0
230
1
0
LINE
5
A0
100
AcDbEntity
8
1
62
256
6
ByLayer
370
13
48
1
60
0
100
AcDbLine
10
2.42788
20
-21.039986
30
0
11
16.07212
21
-21.039986
31
0
39
0
210
0
220
0
230
1
0
LINE
5
A1
100
AcDbEntity
8
1
62
256
6
ByLayer
370
18
48
1
60
0
100
AcDbLine
10
2.35
20
-16.191453
30
0
11
2.35
21
-19.645303
31
0
39
0
210
0
220
0
230
1
0
LINE
5
A2
100
AcDbEntity
8
1
62
256
6
ByLayer
370
18
48
1
60
0
100
AcDbLine
10
16.15
20
-19.645303
30
0
11
16.15
21
-16.191453
31
0
39
0
210
0
220
0
230
1
0
LINE
5
A3
100
AcDbEntity
8
1
62
256
6
ByLayer
370
13
48
1
60
0
100
AcDbLine
10
15.80802
20
-21.083483
30
0
11
2.69198
21
-21.083483
31
0
39
0
210
0
220
0
230
1
0
LINE
5
A4
100
AcDbEntity
8
1
62
256
6
ByLayer
370
13
48
1
60
0
100
AcDbLine
10
2.69198
20
-21.243136
30
0
11
15.80802
21
-21.243136
31
0
39
0
210
0
220
0
230
1
0
LINE
5
A5
100
AcDbEntity
8
1
62
256
6
ByLayer
370
13
48
1
60
0
100
AcDbLine
10
15.83652
20
-21.387325
30
0
11
2.66348
21
-21.387325
31
0
39
0
210
0
220
0
230
1
0
LINE
5
A6
100
AcDbEntity
8
1
62
256
6
ByLayer
370
13
48
1
60
0
100
AcDbLine
10
2.42788
20
-22.081974
30
0
11
16.07212
21
-22.081974
31
0
39
0
210
0
220
0
230
1
0
LINE
5
A7
100
AcDbEntity
8
1
62
256
6
ByLayer
370
13
48
1
60
0
100
AcDbLine
10
15.80802
20
-22.12547
30
0
11
2.69198
21
-22.12547
31
0
39
0
210
0
220
0
230
1
0
LINE
5
A8
100
AcDbEntity
8
1
62
256
6
ByLayer
370
13
48
1
60
0
100
AcDbLine
10
2.69198
20
-22.285123
30
0
11
15.80802
21
-22.285123
31
0
39
0
210
0
220
0
230
1
0
LINE
5
A9
100
AcDbEntity
8
1
62
256
6
ByLayer
370
13
48
1
60
0
100
AcDbLine
10
15.83652
20
-22.429313
30
0
11
2.66348
21
-22.429313
31
0
39
0
210
0
220
0
230
1
0
LINE
5
AA
100
AcDbEntity
8
1
62
256
6
ByLayer
370
13
48
1
60
0
100
AcDbLine
10
2.42788
20
-23.123961
30
0
11
16.07212
21
-23.123961
31
0
39
0
210
0
220
0
230
1
0
LINE
5
AB
100
AcDbEntity
8
1
62
256
6
ByLayer
370
13
48
1
60
0
100
AcDbLine
10
8.530478
20
-19.448255
30
0
11
2.454093
21
-19.448255
31
0
39
0
210
0
220
0
230
1
0
LINE
5
AC
100
AcDbEntity
8
1
62
256
6
ByLayer
370
13
48
1
60
0
100
AcDbLine
10
2.454093
20
-19.448255
30
0
11
2.35
21
-19.645303
31
0
39
0
210
0
220
0
230
1
0
LINE
5
AD
100
AcDbEntity
8
1
62
256
6
ByLayer
370
13
48
1
60
0
100
AcDbLine
10
16.045907
20
-19.448255
30
0
11
9.969522
21
-19.448255
31
0
39
0
210
0
220
0
230
1
0
LINE
5
AE
100
AcDbEntity
8
1
62
256
6
ByLayer
370
13
48
1
60
0
100
AcDbLine
10
16.15
20
-19.645303
30
0
11
16.045907
21
-19.448255
31
0
39
0
210
0
220
0
230
1
0
LINE
5
AF
100
AcDbEntity
8
1
62
256
6
ByLayer
370
13
48
1
60
0
100
AcDbLine
10
15.80802
20
-23.167458
30
0
11
2.69198
21
-23.167458
31
0
39
0
210
0
220
0
230
1
0
LINE
5
B0
100
AcDbEntity
8
1
62
256
6
ByLayer
370
18
48
1
60
0
100
AcDbLine
10
11.45
20
-10.77885
30
0
11
11.45
21
-11.461675
31
0
39
0
210
0
220
0
230
1
0
LINE
5
B1
100
AcDbEntity
8
1
62
256
6
ByLayer
370
13
48
1
60
0
100
AcDbLine
10
2.69198
20
-23.327111
30
0
11
15.80802
21
-23.327111
31
0
39
0
210
0
220
0
230
1
0
LINE
5
B2
100
AcDbEntity
8
1
62
256
6
ByLayer
370
13
48
1
60
0
100
AcDbLine
10
15.83652
20
-23.4713
30
0
11
2.66348
21
-23.4713
31
0
39
0
210
0
220
0
230
1
0
LINE
5
B3
100
AcDbEntity
8
1
62
256
6
ByLayer
370
13
48
1
60
0
100
AcDbLine
10
2.42788
20
-24.165949
30
0
11
16.07212
21
-24.165949
31
0
39
0
210
0
220
0
230
1
0
LINE
5
B4
100
AcDbEntity
8
1
62
256
6
ByLayer
370
13
48
1
60
0
100
AcDbLine
10
15.80802
20
-24.209446
30
0
11
2.69198
21
-24.209446
31
0
39
0
210
0
220
0
230
1
0
LINE
5
B5
100
AcDbEntity
8
1
62
256
6
ByLayer
370
13
48
1
60
0
100
AcDbLine
10
2.69198
20
-24.369099
30
0
11
15.80802
21
-24.369099
31
0
39
0
210
0
220
0
230
1
0
LINE
5
B6
100
AcDbEntity
8
1
62
256
6
ByLayer
370
13
48
1
60
0
100
AcDbLine
10
15.83652
20
-24.513288
30
0
11
2.66348
21
-24.513288
31
0
39
0
210
0
220
0
230
1
0
LINE
5
B7
100
AcDbEntity
8
1
62
256
6
ByLayer
370
13
48
1
60
0
100
AcDbLine
10
2.42788
20
-25.207936
30
0
11
16.07212
21
-25.207936
31
0
39
0
210
0
220
0
230
1
0
LINE
5
B8
100
AcDbEntity
8
1
62
256
6
ByLayer
370
18
48
1
60
0
100
AcDbLine
10
2.35
20
-16.191453
30
0
11
2.35
21
-7.889518
31
0
39
0
210
0
220
0
230
1
0
LINE
5
B9
100
AcDbEntity
8
1
62
256
6
ByLayer
370
18
48
1
60
0
100
AcDbLine
10
16.15
20
-7.889518
30
0
11
16.15
21
-16.191453
31
0
39
0
210
0
220
0
230
1
0
LINE
5
BA
100
AcDbEntity
8
1
62
256
6
ByLayer
370
18
48
1
60
0
100
AcDbLine
10
11.014602
20
-16.191453
30
0
11
16.15
21
-16.191453
31
0
39
0
210
0
220
0
230
1
0
LINE
5
BB
100
AcDbEntity
8
1
62
256
6
ByLayer
370
18
48
1
60
0
100
AcDbLine
10
2.35
20
-16.191453
30
0
11
7.485398
21
-16.191453
31
0
39
0
210
0
220
0
230
1
0
LINE
5
BC
100
AcDbEntity
8
1
62
256
6
ByLayer
370
13
48
1
60
0
100
AcDbLine
10
15.80802
20
-25.251433
30
0
11
2.69198
21
-25.251433
31
0
39
0
210
0
220
0
230
1
0
LINE
5
BD
100
AcDbEntity
8
1
62
256
6
ByLayer
370
13
48
1
60
0
100
AcDbLine
10
2.69198
20
-25.411086
30
0
11
15.80802
21
-25.411086
31
0
39
0
210
0
220
0
230
1
0
LINE
5
BE
100
AcDbEntity
8
1
62
256
6
ByLayer
370
13
48
1
60
0
100
AcDbLine
10
15.83652
20
-25.555275
30
0
11
2.66348
21
-25.555275
31
0
39
0
210
0
220
0
230
1
0
LINE
5
BF
100
AcDbEntity
8
1
62
256
6
ByLayer
370
13
48
1
60
0
100
AcDbLine
10
2.42788
20
-26.249924
30
0
11
16.07212
21
-26.249924
31
0
39
0
210
0
220
0
230
1
0
LINE
5
C0
100
AcDbEntity
8
1
62
256
6
ByLayer
370
18
48
1
60
0
100
AcDbLine
10
13.25
20
-10.778641
30
0
11
13.25
21
-14.323125
31
0
39
0
210
0
220
0
230
1
0
LINE
5
C1
100
AcDbEntity
8
1
62
256
6
ByLayer
370
18
48
1
60
0
100
AcDbLine
10
13.25
20
-14.323125
30
0
11
5.25
21
-14.323125
31
0
39
0
210
0
220
0
230
1
0
LINE
5
C2
100
AcDbEntity
8
1
62
256
6
ByLayer
370
18
48
1
60
0
100
AcDbLine
10
5.25
20
-14.323125
30
0
11
5.25
21
-10.778641
31
0
39
0
210
0
220
0
230
1
0
LINE
5
C3
100
AcDbEntity
8
1
62
256
6
ByLayer
370
18
48
1
60
0
100
AcDbLine
10
0
20
23.1
30
0
11
0
21
-23.1
31
0
39
0
210
0
220
0
230
1
0
LINE
5
C4
100
AcDbEntity
8
1
62
256
6
ByLayer
370
18
48
1
60
0
100
AcDbLine
10
0.4
20
23.5
30
0
11
0.4
21
-23.5
31
0
39
0
210
0
220
0
230
1
0
LINE
5
C5
100
AcDbEntity
8
1
62
256
6
ByLayer
370
18
48
1
60
0
100
AcDbLine
10
18.5
20
23.1
30
0
11
18.5
21
-23.1
31
0
39
0
210
0
220
0
230
1
0
LINE
5
C6
100
AcDbEntity
8
1
62
256
6
ByLayer
370
18
48
1
60
0
100
AcDbLine
10
18.1
20
23.5
30
0
11
18.1
21
-23.5
31
0
39
0
210
0
220
0
230
1
0
LINE
5
C7
100
AcDbEntity
8
1
62
256
6
ByLayer
370
13
48
1
60
0
100
AcDbLine
10
16.95
20
23.5
30
0
11
16.95
21
-23.5
31
0
39
0
210
0
220
0
230
1
0
LINE
5
C8
100
AcDbEntity
8
1
62
256
6
ByLayer
370
18
48
1
60
0
100
AcDbLine
10
16.15
20
16.810057
30
0
11
16.15
21
10.223711
31
0
39
0
210
0
220
0
230
1
0
LINE
5
C9
100
AcDbEntity
8
1
62
256
6
ByLayer
370
18
48
1
60
0
100
AcDbLine
10
2.35
20
10.223711
30
0
11
2.35
21
16.810057
31
0
39
0
210
0
220
0
230
1
0
LINE
5
CA
100
AcDbEntity
8
1
62
256
6
ByLayer
370
13
48
1
60
0
100
AcDbLine
10
1.55
20
-23.5
30
0
11
1.55
21
23.5
31
0
39
0
210
0
220
0
230
1
0
LINE
5
CB
100
AcDbEntity
8
1
62
256
6
ByLayer
370
18
48
1
60
0
100
AcDbLine
10
16.150042
20
16.976715
30
0
11
2.349958
21
16.976715
31
0
39
0
210
0
220
0
230
1
0
LINE
5
CC
100
AcDbEntity
8
1
62
256
6
ByLayer
370
13
48
1
60
0
100
AcDbLine
10
15.80802
20
-26.293421
30
0
11
2.69198
21
-26.293421
31
0
39
0
210
0
220
0
230
1
0
LINE
5
CD
100
AcDbEntity
8
1
62
256
6
ByLayer
370
13
48
1
60
0
100
AcDbLine
10
2.69198
20
-26.453074
30
0
11
15.80802
21
-26.453074
31
0
39
0
210
0
220
0
230
1
0
LINE
5
CE
100
AcDbEntity
8
1
62
256
6
ByLayer
370
13
48
1
60
0
100
AcDbLine
10
15.83652
20
-26.597263
30
0
11
2.66348
21
-26.597263
31
0
39
0
210
0
220
0
230
1
0
LINE
5
CF
100
AcDbEntity
8
1
62
256
6
ByLayer
370
13
48
1
60
0
100
AcDbLine
10
2.42788
20
-27.291912
30
0
11
16.07212
21
-27.291912
31
0
39
0
210
0
220
0
230
1
0
LINE
5
D0
100
AcDbEntity
8
1
62
256
6
ByLayer
370
18
48
1
60
0
100
AcDbLine
10
11.45
20
-8.396433
30
0
11
11.45
21
-8.988538
31
0
39
0
210
0
220
0
230
1
0
LINE
5
D1
100
AcDbEntity
8
1
62
256
6
ByLayer
370
18
48
1
60
0
100
AcDbLine
10
13.25
20
13.955554
30
0
11
13.25
21
11.417971
31
0
39
0
210
0
220
0
230
1
0
LINE
5
D2
100
AcDbEntity
8
1
62
256
6
ByLayer
370
18
48
1
60
0
100
AcDbLine
10
13.25
20
11.417971
30
0
11
5.25
21
11.417971
31
0
39
0
210
0
220
0
230
1
0
LINE
5
D3
100
AcDbEntity
8
1
62
256
6
ByLayer
370
18
48
1
60
0
100
AcDbLine
10
5.25
20
11.417971
30
0
11
5.25
21
13.955554
31
0
39
0
210
0
220
0
230
1
0
LINE
5
D4
100
AcDbEntity
8
1
62
256
6
ByLayer
370
18
48
1
60
0
100
AcDbLine
10
16.15
20
27.841148
30
0
11
16.15
21
18.522758
31
0
39
0
210
0
220
0
230
1
0
LINE
5
D5
100
AcDbEntity
8
1
62
256
6
ByLayer
370
18
48
1
60
0
100
AcDbLine
10
2.35
20
18.522758
30
0
11
2.35
21
27.841148
31
0
39
0
210
0
220
0
230
1
0
LINE
5
D6
100
AcDbEntity
8
1
62
256
6
ByLayer
370
18
48
1
60
0
100
AcDbLine
10
16.15
20
18.522758
30
0
11
2.35
21
18.522758
31
0
39
0
210
0
220
0
230
1
0
LINE
5
D7
100
AcDbEntity
8
1
62
256
6
ByLayer
370
18
48
1
60
0
100
AcDbLine
10
16.15
20
28.791201
30
0
11
16.15
21
27.841148
31
0
39
0
210
0
220
0
230
1
0
LINE
5
D8
100
AcDbEntity
8
1
62
256
6
ByLayer
370
18
48
1
60
0
100
AcDbLine
10
2.35
20
27.841148
30
0
11
2.35
21
28.791201
31
0
39
0
210
0
220
0
230
1
0
LINE
5
D9
100
AcDbEntity
8
1
62
256
6
ByLayer
370
18
48
1
60
0
100
AcDbLine
10
16.15
20
27.841148
30
0
11
2.35
21
27.841148
31
0
39
0
210
0
220
0
230
1
0
LINE
5
DA
100
AcDbEntity
8
1
62
256
6
ByLayer
370
18
48
1
60
0
100
AcDbLine
10
14.35
20
28.791201
30
0
11
11.55
21
28.791201
31
0
39
0
210
0
220
0
230
1
0
LINE
5
DB
100
AcDbEntity
8
1
62
256
6
ByLayer
370
18
48
1
60
0
100
AcDbLine
10
3.35
20
46.408085
30
0
11
15.15
21
46.408085
31
0
39
0
210
0
220
0
230
1
0
LINE
5
DC
100
AcDbEntity
8
1
62
256
6
ByLayer
370
18
48
1
60
0
100
AcDbLine
10
16.15
20
45.399849
30
0
11
16.15
21
39.139007
31
0
39
0
210
0
220
0
230
1
0
LINE
5
DD
100
AcDbEntity
8
1
62
256
6
ByLayer
370
13
48
1
60
0
100
AcDbLine
10
14.35
20
28.791201
30
0
11
14.35
21
30.487309
31
0
39
0
210
0
220
0
230
1
0
LINE
5
DE
100
AcDbEntity
8
1
62
256
6
ByLayer
370
13
48
1
60
0
100
AcDbLine
10
11.55
20
30.487309
30
0
11
11.55
21
28.791201
31
0
39
0
210
0
220
0
230
1
0
LINE
5
DF
100
AcDbEntity
8
1
62
256
6
ByLayer
370
13
48
1
60
0
100
AcDbLine
10
15.80802
20
-27.335408
30
0
11
2.69198
21
-27.335408
31
0
39
0
210
0
220
0
230
1
0
LINE
5
E0
100
AcDbEntity
8
1
62
256
6
ByLayer
370
13
48
1
60
0
100
AcDbLine
10
2.69198
20
-27.495061
30
0
11
15.80802
21
-27.495061
31
0
39
0
210
0
220
0
230
1
0
LINE
5
E1
100
AcDbEntity
8
1
62
256
6
ByLayer
370
13
48
1
60
0
100
AcDbLine
10
15.83652
20
-27.63925
30
0
11
2.66348
21
-27.63925
31
0
39
0
210
0
220
0
230
1
0
LINE
5
E2
100
AcDbEntity
8
1
62
256
6
ByLayer
370
13
48
1
60
0
100
AcDbLine
10
2.42788
20
-28.333899
30
0
11
16.07212
21
-28.333899
31
0
39
0
210
0
220
0
230
1
0
LINE
5
E3
100
AcDbEntity
8
1
62
256
6
ByLayer
370
13
48
1
60
0
100
AcDbLine
10
15.80802
20
-28.377396
30
0
11
2.69198
21
-28.377396
31
0
39
0
210
0
220
0
230
1
0
LINE
5
E4
100
AcDbEntity
8
1
62
256
6
ByLayer
370
13
48
1
60
0
100
AcDbLine
10
2.69198
20
-28.537049
30
0
11
15.80802
21
-28.537049
31
0
39
0
210
0
220
0
230
1
0
LINE
5
E5
100
AcDbEntity
8
1
62
256
6
ByLayer
370
13
48
1
60
0
100
AcDbLine
10
15.83652
20
-28.681238
30
0
11
2.66348
21
-28.681238
31
0
39
0
210
0
220
0
230
1
0
LINE
5
E6
100
AcDbEntity
8
1
62
256
6
ByLayer
370
13
48
1
60
0
100
AcDbLine
10
2.42788
20
-29.375887
30
0
11
16.07212
21
-29.375887
31
0
39
0
210
0
220
0
230
1
0
LINE
5
E7
100
AcDbEntity
8
1
62
256
6
ByLayer
370
13
48
1
60
0
100
AcDbLine
10
15.80802
20
-29.419383
30
0
11
2.69198
21
-29.419383
31
0
39
0
210
0
220
0
230
1
0
LINE
5
E8
100
AcDbEntity
8
1
62
256
6
ByLayer
370
13
48
1
60
0
100
AcDbLine
10
2.69198
20
-29.579036
30
0
11
15.80802
21
-29.579036
31
0
39
0
210
0
220
0
230
1
0
LINE
5
E9
100
AcDbEntity
8
1
62
256
6
ByLayer
370
13
48
1
60
0
100
AcDbLine
10
15.83652
20
-29.723226
30
0
11
2.66348
21
-29.723226
31
0
39
0
210
0
220
0
230
1
0
LINE
5
EA
100
AcDbEntity
8
1
62
256
6
ByLayer
370
13
48
1
60
0
100
AcDbLine
10
15.15
20
40.028971
30
0
11
15.15
21
46.408085
31
0
39
0
210
0
220
0
230
1
0
LINE
5
EB
100
AcDbEntity
8
1
62
256
6
ByLayer
370
18
48
1
60
0
100
AcDbLine
10
11.45
20
28.930575
30
0
11
11.45
21
33.388351
31
0
39
0
210
0
220
0
230
1
0
LINE
5
EC
100
AcDbEntity
8
1
62
256
6
ByLayer
370
18
48
1
60
0
100
AcDbLine
10
14.45
20
33.388351
30
0
11
14.45
21
28.930575
31
0
39
0
210
0
220
0
230
1
0
LINE
5
ED
100
AcDbEntity
8
1
62
256
6
ByLayer
370
18
48
1
60
0
100
AcDbLine
10
16.15
20
28.791201
30
0
11
14.35
21
28.791201
31
0
39
0
210
0
220
0
230
1
0
LINE
5
EE
100
AcDbEntity
8
1
62
256
6
ByLayer
370
18
48
1
60
0
100
AcDbLine
10
16.15
20
39.139007
30
0
11
16.15
21
28.791201
31
0
39
0
210
0
220
0
230
1
0
LINE
5
EF
100
AcDbEntity
8
1
62
256
6
ByLayer
370
18
48
1
60
0
100
AcDbLine
10
3.35
20
40.028971
30
0
11
15.15
21
40.028971
31
0
39
0
210
0
220
0
230
1
0
LINE
5
F0
100
AcDbEntity
8
1
62
256
6
ByLayer
370
18
48
1
60
0
100
AcDbLine
10
2.35
20
28.791201
30
0
11
2.35
21
39.139007
31
0
39
0
210
0
220
0
230
1
0
LINE
5
F1
100
AcDbEntity
8
1
62
256
6
ByLayer
370
18
48
1
60
0
100
AcDbLine
10
11.55
20
28.791201
30
0
11
2.35
21
28.791201
31
0
39
0
210
0
220
0
230
1
0
LINE
5
F2
100
AcDbEntity
8
1
62
256
6
ByLayer
370
18
48
1
60
0
100
AcDbLine
10
2.35
20
39.139007
30
0
11
2.35
21
45.399849
31
0
39
0
210
0
220
0
230
1
0
LINE
5
F3
100
AcDbEntity
8
1
62
256
6
ByLayer
370
13
48
1
60
0
100
AcDbLine
10
3.35
20
46.408085
30
0
11
3.35
21
40.028971
31
0
39
0
210
0
220
0
230
1
0
LINE
5
F4
100
AcDbEntity
8
1
62
256
6
ByLayer
370
13
48
1
60
0
100
AcDbLine
10
2.42788
20
-30.417874
30
0
11
16.07212
21
-30.417874
31
0
39
0
210
0
220
0
230
1
0
LINE
5
F5
100
AcDbEntity
8
1
62
256
6
ByLayer
370
18
48
1
60
0
100
AcDbLine
10
3.35
20
-43.930453
30
0
11
15.15
21
-43.930453
31
0
39
0
210
0
220
0
230
1
0
LINE
5
F6
100
AcDbEntity
8
1
62
256
6
ByLayer
370
13
48
1
60
0
100
AcDbLine
10
15.80802
20
-30.461371
30
0
11
2.69198
21
-30.461371
31
0
39
0
210
0
220
0
230
1
0
LINE
5
F7
100
AcDbEntity
8
1
62
256
6
ByLayer
370
13
48
1
60
0
100
AcDbLine
10
2.69198
20
-30.621024
30
0
11
15.80802
21
-30.621024
31
0
39
0
210
0
220
0
230
1
0
LINE
5
F8
100
AcDbEntity
8
1
62
256
6
ByLayer
370
13
48
1
60
0
100
AcDbLine
10
15.83652
20
-30.765213
30
0
11
2.66348
21
-30.765213
31
0
39
0
210
0
220
0
230
1
0
LINE
5
F9
100
AcDbEntity
8
1
62
256
6
ByLayer
370
13
48
1
60
0
100
AcDbLine
10
2.42788
20
-31.459862
30
0
11
16.07212
21
-31.459862
31
0
39
0
210
0
220
0
230
1
0
LINE
5
FA
100
AcDbEntity
8
1
62
256
6
ByLayer
370
18
48
1
60
0
100
AcDbLine
10
3.35
20
-35.790925
30
0
11
15.15
21
-35.790925
31
0
39
0
210
0
220
0
230
1
0
LINE
5
FB
100
AcDbEntity
8
1
62
256
6
ByLayer
370
13
48
1
60
0
100
AcDbLine
10
15.80802
20
-31.503358
30
0
11
2.69198
21
-31.503358
31
0
39
0
210
0
220
0
230
1
0
LINE
5
FC
100
AcDbEntity
8
1
62
256
6
ByLayer
370
13
48
1
60
0
100
AcDbLine
10
2.69198
20
-31.663011
30
0
11
15.80802
21
-31.663011
31
0
39
0
210
0
220
0
230
1
0
LINE
5
FD
100
AcDbEntity
8
1
62
256
6
ByLayer
370
13
48
1
60
0
100
AcDbLine
10
15.83652
20
-31.807201
30
0
11
2.66348
21
-31.807201
31
0
39
0
210
0
220
0
230
1
0
LINE
5
FE
100
AcDbEntity
8
1
62
256
6
ByLayer
370
13
48
1
60
0
100
AcDbLine
10
2.42788
20
-32.501849
30
0
11
16.07212
21
-32.501849
31
0
39
0
210
0
220
0
230
1
0
LINE
5
FF
100
AcDbEntity
8
1
62
256
6
ByLayer
370
18
48
1
60
0
100
AcDbLine
10
2.35
20
-43.077372
30
0
11
2.35
21
-35.176164
31
0
39
0
210
0
220
0
230
1
0
LINE
5
100
100
AcDbEntity
8
1
62
256
6
ByLayer
370
13
48
1
60
0
100
AcDbLine
10
15.80802
20
-32.545346
30
0
11
2.69198
21
-32.545346
31
0
39
0
210
0
220
0
230
1
0
LINE
5
101
100
AcDbEntity
8
1
62
256
6
ByLayer
370
13
48
1
60
0
100
AcDbLine
10
2.69198
20
-32.704999
30
0
11
15.80802
21
-32.704999
31
0
39
0
210
0
220
0
230
1
0
LINE
5
102
100
AcDbEntity
8
1
62
256
6
ByLayer
370
13
48
1
60
0
100
AcDbLine
10
15.83652
20
-32.849188
30
0
11
2.66348
21
-32.849188
31
0
39
0
210
0
220
0
230
1
0
LINE
5
103
100
AcDbEntity
8
1
62
256
6
ByLayer
370
13
48
1
60
0
100
AcDbLine
10
2.42788
20
-33.543837
30
0
11
16.07212
21
-33.543837
31
0
39
0
210
0
220
0
230
1
0
LINE
5
104
100
AcDbEntity
8
1
62
256
6
ByLayer
370
13
48
1
60
0
100
AcDbLine
10
15.80802
20
-33.587334
30
0
11
2.69198
21
-33.587334
31
0
39
0
210
0
220
0
230
1
0
LINE
5
105
100
AcDbEntity
8
1
62
256
6
ByLayer
370
13
48
1
60
0
100
AcDbLine
10
2.69198
20
-33.746987
30
0
11
15.80802
21
-33.746987
31
0
39
0
210
0
220
0
230
1
0
LINE
5
106
100
AcDbEntity
8
1
62
256
6
ByLayer
370
13
48
1
60
0
100
AcDbLine
10
15.83652
20
-33.891176
30
0
11
2.66348
21
-33.891176
31
0
39
0
210
0
220
0
230
1
0
LINE
5
107
100
AcDbEntity
8
1
62
256
6
ByLayer
370
13
48
1
60
0
100
AcDbLine
10
2.42788
20
-34.585824
30
0
11
16.07212
21
-34.585824
31
0
39
0
210
0
220
0
230
1
0
LINE
5
108
100
AcDbEntity
8
1
62
256
6
ByLayer
370
18
48
1
60
0
100
AcDbLine
10
2.73
20
-20.149096
30
0
11
2.73
21
-20.013854
31
0
39
0
210
0
220
0
230
1
0
LINE
5
109
100
AcDbEntity
8
1
62
256
6
ByLayer
370
18
48
1
60
0
100
AcDbLine
10
2.35
20
-20.733194
30
0
11
2.35
21
-35.176164
31
0
39
0
210
0
220
0
230
1
0
LINE
5
10A
100
AcDbEntity
8
1
62
256
6
ByLayer
370
18
48
1
60
0
100
AcDbLine
10
16.15
20
-35.176164
30
0
11
16.15
21
-43.077372
31
0
39
0
210
0
220
0
230
1
0
LINE
5
10B
100
AcDbEntity
8
1
62
256
6
ByLayer
370
13
48
1
60
0
100
AcDbLine
10
3.35
20
-35.790925
30
0
11
3.35
21
-43.930453
31
0
39
0
210
0
220
0
230
1
0
LINE
5
10C
100
AcDbEntity
8
1
62
256
6
ByLayer
370
18
48
1
60
0
100
AcDbLine
10
2.69198
20
-34.629321
30
0
11
2.69198
21
-34.788974
31
0
39
0
210
0
220
0
230
1
0
LINE
5
10D
100
AcDbEntity
8
1
62
256
6
ByLayer
370
13
48
1
60
0
100
AcDbLine
10
15.80802
20
-34.629321
30
0
11
2.69198
21
-34.629321
31
0
39
0
210
0
220
0
230
1
0
LINE
5
10E
100
AcDbEntity
8
1
62
256
6
ByLayer
370
13
48
1
60
0
100
AcDbLine
10
2.820804
20
-35.627812
30
0
11
15.679196
21
-35.627812
31
0
39
0
210
0
220
0
230
1
0
LINE
5
10F
100
AcDbEntity
8
1
62
256
6
ByLayer
370
13
48
1
60
0
100
AcDbLine
10
2.69198
20
-34.788974
30
0
11
15.80802
21
-34.788974
31
0
39
0
210
0
220
0
230
1
0
LINE
5
110
100
AcDbEntity
8
1
62
256
6
ByLayer
370
13
48
1
60
0
100
AcDbLine
10
15.83652
20
-34.933163
30
0
11
2.66348
21
-34.933163
31
0
39
0
210
0
220
0
230
1
0
LINE
5
111
100
AcDbEntity
8
1
62
256
6
ByLayer
370
13
48
1
60
0
100
AcDbLine
10
2.73
20
-20.013854
30
0
11
2.35
21
-20.733194
31
0
39
0
210
0
220
0
230
1
0
LINE
5
112
100
AcDbEntity
8
1
62
256
6
ByLayer
370
18
48
1
60
0
100
AcDbLine
10
2.66348
20
-34.933163
30
0
11
2.565517
21
-35.222003
31
0
39
0
210
0
220
0
230
1
0
LINE
5
113
100
AcDbEntity
8
1
62
256
6
ByLayer
370
18
48
1
60
0
100
AcDbLine
10
2.42788
20
-34.790366
30
0
11
2.66348
21
-34.593033
31
0
39
0
210
0
220
0
230
1
0
LINE
5
114
100
AcDbEntity
8
1
62
256
6
ByLayer
370
18
48
1
60
0
100
AcDbLine
10
2.66348
20
-33.891176
30
0
11
2.42788
21
-34.585824
31
0
39
0
210
0
220
0
230
1
0
LINE
5
115
100
AcDbEntity
8
1
62
256
6
ByLayer
370
18
48
1
60
0
100
AcDbLine
10
2.69198
20
-33.587334
30
0
11
2.69198
21
-33.746987
31
0
39
0
210
0
220
0
230
1
0
LINE
5
116
100
AcDbEntity
8
1
62
256
6
ByLayer
370
18
48
1
60
0
100
AcDbLine
10
2.42788
20
-33.748378
30
0
11
2.66348
21
-33.551045
31
0
39
0
210
0
220
0
230
1
0
LINE
5
117
100
AcDbEntity
8
1
62
256
6
ByLayer
370
18
48
1
60
0
100
AcDbLine
10
2.66348
20
-32.849188
30
0
11
2.42788
21
-33.543837
31
0
39
0
210
0
220
0
230
1
0
LINE
5
118
100
AcDbEntity
8
1
62
256
6
ByLayer
370
18
48
1
60
0
100
AcDbLine
10
2.69198
20
-32.545346
30
0
11
2.69198
21
-32.704999
31
0
39
0
210
0
220
0
230
1
0
LINE
5
119
100
AcDbEntity
8
1
62
256
6
ByLayer
370
18
48
1
60
0
100
AcDbLine
10
2.42788
20
-32.706391
30
0
11
2.66348
21
-32.509058
31
0
39
0
210
0
220
0
230
1
0
LINE
5
11A
100
AcDbEntity
8
1
62
256
6
ByLayer
370
18
48
1
60
0
100
AcDbLine
10
2.66348
20
-31.807201
30
0
11
2.42788
21
-32.501849
31
0
39
0
210
0
220
0
230
1
0
LINE
5
11B
100
AcDbEntity
8
1
62
256
6
ByLayer
370
18
48
1
60
0
100
AcDbLine
10
2.69198
20
-31.503358
30
0
11
2.69198
21
-31.663011
31
0
39
0
210
0
220
0
230
1
0
LINE
5
11C
100
AcDbEntity
8
1
62
256
6
ByLayer
370
18
48
1
60
0
100
AcDbLine
10
2.42788
20
-31.664403
30
0
11
2.66348
21
-31.46707
31
0
39
0
210
0
220
0
230
1
0
LINE
5
11D
100
AcDbEntity
8
1
62
256
6
ByLayer
370
18
48
1
60
0
100
AcDbLine
10
2.66348
20
-30.765213
30
0
11
2.42788
21
-31.459862
31
0
39
0
210
0
220
0
230
1
0
LINE
5
11E
100
AcDbEntity
8
1
62
256
6
ByLayer
370
18
48
1
60
0
100
AcDbLine
10
2.69198
20
-30.461371
30
0
11
2.69198
21
-30.621024
31
0
39
0
210
0
220
0
230
1
0
LINE
5
11F
100
AcDbEntity
8
1
62
256
6
ByLayer
370
18
48
1
60
0
100
AcDbLine
10
2.42788
20
-30.622415
30
0
11
2.66348
21
-30.425083
31
0
39
0
210
0
220
0
230
1
0
LINE
5
120
100
AcDbEntity
8
1
62
256
6
ByLayer
370
18
48
1
60
0
100
AcDbLine
10
2.66348
20
-29.723226
30
0
11
2.42788
21
-30.417874
31
0
39
0
210
0
220
0
230
1
0
LINE
5
121
100
AcDbEntity
8
1
62
256
6
ByLayer
370
18
48
1
60
0
100
AcDbLine
10
2.69198
20
-29.419383
30
0
11
2.69198
21
-29.579036
31
0
39
0
210
0
220
0
230
1
0
LINE
5
122
100
AcDbEntity
8
1
62
256
6
ByLayer
370
18
48
1
60
0
100
AcDbLine
10
2.42788
20
-29.580428
30
0
11
2.66348
21
-29.383095
31
0
39
0
210
0
220
0
230
1
0
LINE
5
123
100
AcDbEntity
8
1
62
256
6
ByLayer
370
18
48
1
60
0
100
AcDbLine
10
2.66348
20
-28.681238
30
0
11
2.42788
21
-29.375887
31
0
39
0
210
0
220
0
230
1
0
LINE
5
124
100
AcDbEntity
8
1
62
256
6
ByLayer
370
18
48
1
60
0
100
AcDbLine
10
2.69198
20
-28.377396
30
0
11
2.69198
21
-28.537049
31
0
39
0
210
0
220
0
230
1
0
LINE
5
125
100
AcDbEntity
8
1
62
256
6
ByLayer
370
18
48
1
60
0
100
AcDbLine
10
2.42788
20
-28.53844
30
0
11
2.66348
21
-28.341108
31
0
39
0
210
0
220
0
230
1
0
LINE
5
126
100
AcDbEntity
8
1
62
256
6
ByLayer
370
18
48
1
60
0
100
AcDbLine
10
2.66348
20
-27.63925
30
0
11
2.42788
21
-28.333899
31
0
39
0
210
0
220
0
230
1
0
LINE
5
127
100
AcDbEntity
8
1
62
256
6
ByLayer
370
18
48
1
60
0
100
AcDbLine
10
2.69198
20
-27.335408
30
0
11
2.69198
21
-27.495061
31
0
39
0
210
0
220
0
230
1
0
LINE
5
128
100
AcDbEntity
8
1
62
256
6
ByLayer
370
18
48
1
60
0
100
AcDbLine
10
2.42788
20
-27.496453
30
0
11
2.66348
21
-27.29912
31
0
39
0
210
0
220
0
230
1
0
LINE
5
129
100
AcDbEntity
8
1
62
256
6
ByLayer
370
18
48
1
60
0
100
AcDbLine
10
2.66348
20
-26.597263
30
0
11
2.42788
21
-27.291912
31
0
39
0
210
0
220
0
230
1
0
LINE
5
12A
100
AcDbEntity
8
1
62
256
6
ByLayer
370
18
48
1
60
0
100
AcDbLine
10
2.69198
20
-26.293421
30
0
11
2.69198
21
-26.453074
31
0
39
0
210
0
220
0
230
1
0
LINE
5
12B
100
AcDbEntity
8
1
62
256
6
ByLayer
370
18
48
1
60
0
100
AcDbLine
10
2.42788
20
-26.454465
30
0
11
2.66348
21
-26.257132
31
0
39
0
210
0
220
0
230
1
0
LINE
5
12C
100
AcDbEntity
8
1
62
256
6
ByLayer
370
18
48
1
60
0
100
AcDbLine
10
2.66348
20
-25.555275
30
0
11
2.42788
21
-26.249924
31
0
39
0
210
0
220
0
230
1
0
LINE
5
12D
100
AcDbEntity
8
1
62
256
6
ByLayer
370
18
48
1
60
0
100
AcDbLine
10
2.69198
20
-25.251433
30
0
11
2.69198
21
-25.411086
31
0
39
0
210
0
220
0
230
1
0
LINE
5
12E
100
AcDbEntity
8
1
62
256
6
ByLayer
370
18
48
1
60
0
100
AcDbLine
10
2.42788
20
-25.412478
30
0
11
2.66348
21
-25.215145
31
0
39
0
210
0
220
0
230
1
0
LINE
5
12F
100
AcDbEntity
8
1
62
256
6
ByLayer
370
18
48
1
60
0
100
AcDbLine
10
2.66348
20
-24.513288
30
0
11
2.42788
21
-25.207936
31
0
39
0
210
0
220
0
230
1
0
LINE
5
130
100
AcDbEntity
8
1
62
256
6
ByLayer
370
18
48
1
60
0
100
AcDbLine
10
2.69198
20
-24.209446
30
0
11
2.69198
21
-24.369099
31
0
39
0
210
0
220
0
230
1
0
LINE
5
131
100
AcDbEntity
8
1
62
256
6
ByLayer
370
18
48
1
60
0
100
AcDbLine
10
2.42788
20
-24.37049
30
0
11
2.66348
21
-24.173157
31
0
39
0
210
0
220
0
230
1
0
LINE
5
132
100
AcDbEntity
8
1
62
256
6
ByLayer
370
18
48
1
60
0
100
AcDbLine
10
2.66348
20
-23.4713
30
0
11
2.42788
21
-24.165949
31
0
39
0
210
0
220
0
230
1
0
LINE
5
133
100
AcDbEntity
8
1
62
256
6
ByLayer
370
18
48
1
60
0
100
AcDbLine
10
2.69198
20
-23.167458
30
0
11
2.69198
21
-23.327111
31
0
39
0
210
0
220
0
230
1
0
LINE
5
134
100
AcDbEntity
8
1
62
256
6
ByLayer
370
18
48
1
60
0
100
AcDbLine
10
2.42788
20
-23.328503
30
0
11
2.66348
21
-23.13117
31
0
39
0
210
0
220
0
230
1
0
LINE
5
135
100
AcDbEntity
8
1
62
256
6
ByLayer
370
18
48
1
60
0
100
AcDbLine
10
2.66348
20
-22.429313
30
0
11
2.42788
21
-23.123961
31
0
39
0
210
0
220
0
230
1
0
LINE
5
136
100
AcDbEntity
8
1
62
256
6
ByLayer
370
18
48
1
60
0
100
AcDbLine
10
2.69198
20
-22.12547
30
0
11
2.69198
21
-22.285123
31
0
39
0
210
0
220
0
230
1
0
LINE
5
137
100
AcDbEntity
8
1
62
256
6
ByLayer
370
18
48
1
60
0
100
AcDbLine
10
2.42788
20
-22.286515
30
0
11
2.66348
21
-22.089182
31
0
39
0
210
0
220
0
230
1
0
LINE
5
138
100
AcDbEntity
8
1
62
256
6
ByLayer
370
18
48
1
60
0
100
AcDbLine
10
2.66348
20
-21.387325
30
0
11
2.42788
21
-22.081974
31
0
39
0
210
0
220
0
230
1
0
LINE
5
139
100
AcDbEntity
8
1
62
256
6
ByLayer
370
18
48
1
60
0
100
AcDbLine
10
2.69198
20
-21.083483
30
0
11
2.69198
21
-21.243136
31
0
39
0
210
0
220
0
230
1
0
LINE
5
13A
100
AcDbEntity
8
1
62
256
6
ByLayer
370
18
48
1
60
0
100
AcDbLine
10
2.42788
20
-21.244527
30
0
11
2.66348
21
-21.047195
31
0
39
0
210
0
220
0
230
1
0
LINE
5
13B
100
AcDbEntity
8
1
62
256
6
ByLayer
370
18
48
1
60
0
100
AcDbLine
10
2.72998
20
-20.149267
30
0
11
2.42788
21
-21.039986
31
0
39
0
210
0
220
0
230
1
0
LINE
5
13C
100
AcDbEntity
8
1
62
256
6
ByLayer
370
18
48
1
60
0
100
AcDbLine
10
16.07212
20
-21.039986
30
0
11
15.77002
21
-20.149267
31
0
39
0
210
0
220
0
230
1
0
LINE
5
13D
100
AcDbEntity
8
1
62
256
6
ByLayer
370
18
48
1
60
0
100
AcDbLine
10
15.83652
20
-21.047195
30
0
11
16.07212
21
-21.244527
31
0
39
0
210
0
220
0
230
1
0
LINE
5
13E
100
AcDbEntity
8
1
62
256
6
ByLayer
370
18
48
1
60
0
100
AcDbLine
10
15.80802
20
-21.243136
30
0
11
15.80802
21
-21.083483
31
0
39
0
210
0
220
0
230
1
0
LINE
5
13F
100
AcDbEntity
8
1
62
256
6
ByLayer
370
18
48
1
60
0
100
AcDbLine
10
16.07212
20
-22.081974
30
0
11
15.83652
21
-21.387325
31
0
39
0
210
0
220
0
230
1
0
LINE
5
140
100
AcDbEntity
8
1
62
256
6
ByLayer
370
18
48
1
60
0
100
AcDbLine
10
15.83652
20
-22.089182
30
0
11
16.07212
21
-22.286515
31
0
39
0
210
0
220
0
230
1
0
LINE
5
141
100
AcDbEntity
8
1
62
256
6
ByLayer
370
18
48
1
60
0
100
AcDbLine
10
15.80802
20
-22.285123
30
0
11
15.80802
21
-22.12547
31
0
39
0
210
0
220
0
230
1
0
LINE
5
142
100
AcDbEntity
8
1
62
256
6
ByLayer
370
18
48
1
60
0
100
AcDbLine
10
16.07212
20
-23.123961
30
0
11
15.83652
21
-22.429313
31
0
39
0
210
0
220
0
230
1
0
LINE
5
143
100
AcDbEntity
8
1
62
256
6
ByLayer
370
18
48
1
60
0
100
AcDbLine
10
15.83652
20
-23.13117
30
0
11
16.07212
21
-23.328503
31
0
39
0
210
0
220
0
230
1
0
LINE
5
144
100
AcDbEntity
8
1
62
256
6
ByLayer
370
18
48
1
60
0
100
AcDbLine
10
15.80802
20
-23.327111
30
0
11
15.80802
21
-23.167458
31
0
39
0
210
0
220
0
230
1
0
LINE
5
145
100
AcDbEntity
8
1
62
256
6
ByLayer
370
18
48
1
60
0
100
AcDbLine
10
16.07212
20
-24.165949
30
0
11
15.83652
21
-23.4713
31
0
39
0
210
0
220
0
230
1
0
LINE
5
146
100
AcDbEntity
8
1
62
256
6
ByLayer
370
18
48
1
60
0
100
AcDbLine
10
15.83652
20
-24.173157
30
0
11
16.07212
21
-24.37049
31
0
39
0
210
0
220
0
230
1
0
LINE
5
147
100
AcDbEntity
8
1
62
256
6
ByLayer
370
18
48
1
60
0
100
AcDbLine
10
15.80802
20
-24.369099
30
0
11
15.80802
21
-24.209446
31
0
39
0
210
0
220
0
230
1
0
LINE
5
148
100
AcDbEntity
8
1
62
256
6
ByLayer
370
18
48
1
60
0
100
AcDbLine
10
16.07212
20
-25.207936
30
0
11
15.83652
21
-24.513288
31
0
39
0
210
0
220
0
230
1
0
LINE
5
149
100
AcDbEntity
8
1
62
256
6
ByLayer
370
18
48
1
60
0
100
AcDbLine
10
15.83652
20
-25.215145
30
0
11
16.07212
21
-25.412478
31
0
39
0
210
0
220
0
230
1
0
LINE
5
14A
100
AcDbEntity
8
1
62
256
6
ByLayer
370
18
48
1
60
0
100
AcDbLine
10
15.80802
20
-25.411086
30
0
11
15.80802
21
-25.251433
31
0
39
0
210
0
220
0
230
1
0
LINE
5
14B
100
AcDbEntity
8
1
62
256
6
ByLayer
370
18
48
1
60
0
100
AcDbLine
10
16.07212
20
-26.249924
30
0
11
15.83652
21
-25.555275
31
0
39
0
210
0
220
0
230
1
0
LINE
5
14C
100
AcDbEntity
8
1
62
256
6
ByLayer
370
18
48
1
60
0
100
AcDbLine
10
15.83652
20
-26.257132
30
0
11
16.07212
21
-26.454465
31
0
39
0
210
0
220
0
230
1
0
LINE
5
14D
100
AcDbEntity
8
1
62
256
6
ByLayer
370
18
48
1
60
0
100
AcDbLine
10
15.80802
20
-26.453074
30
0
11
15.80802
21
-26.293421
31
0
39
0
210
0
220
0
230
1
0
LINE
5
14E
100
AcDbEntity
8
1
62
256
6
ByLayer
370
18
48
1
60
0
100
AcDbLine
10
16.07212
20
-27.291912
30
0
11
15.83652
21
-26.597263
31
0
39
0
210
0
220
0
230
1
0
LINE
5
14F
100
AcDbEntity
8
1
62
256
6
ByLayer
370
18
48
1
60
0
100
AcDbLine
10
15.83652
20
-27.29912
30
0
11
16.07212
21
-27.496453
31
0
39
0
210
0
220
0
230
1
0
LINE
5
150
100
AcDbEntity
8
1
62
256
6
ByLayer
370
18
48
1
60
0
100
AcDbLine
10
15.80802
20
-27.495061
30
0
11
15.80802
21
-27.335408
31
0
39
0
210
0
220
0
230
1
0
LINE
5
151
100
AcDbEntity
8
1
62
256
6
ByLayer
370
18
48
1
60
0
100
AcDbLine
10
16.07212
20
-28.333899
30
0
11
15.83652
21
-27.63925
31
0
39
0
210
0
220
0
230
1
0
LINE
5
152
100
AcDbEntity
8
1
62
256
6
ByLayer
370
18
48
1
60
0
100
AcDbLine
10
15.83652
20
-28.341108
30
0
11
16.07212
21
-28.53844
31
0
39
0
210
0
220
0
230
1
0
LINE
5
153
100
AcDbEntity
8
1
62
256
6
ByLayer
370
18
48
1
60
0
100
AcDbLine
10
15.80802
20
-28.537049
30
0
11
15.80802
21
-28.377396
31
0
39
0
210
0
220
0
230
1
0
LINE
5
154
100
AcDbEntity
8
1
62
256
6
ByLayer
370
18
48
1
60
0
100
AcDbLine
10
16.07212
20
-29.375887
30
0
11
15.83652
21
-28.681238
31
0
39
0
210
0
220
0
230
1
0
LINE
5
155
100
AcDbEntity
8
1
62
256
6
ByLayer
370
18
48
1
60
0
100
AcDbLine
10
15.83652
20
-29.383095
30
0
11
16.07212
21
-29.580428
31
0
39
0
210
0
220
0
230
1
0
LINE
5
156
100
AcDbEntity
8
1
62
256
6
ByLayer
370
18
48
1
60
0
100
AcDbLine
10
15.80802
20
-29.579036
30
0
11
15.80802
21
-29.419383
31
0
39
0
210
0
220
0
230
1
0
LINE
5
157
100
AcDbEntity
8
1
62
256
6
ByLayer
370
18
48
1
60
0
100
AcDbLine
10
16.07212
20
-30.417874
30
0
11
15.83652
21
-29.723226
31
0
39
0
210
0
220
0
230
1
0
LINE
5
158
100
AcDbEntity
8
1
62
256
6
ByLayer
370
18
48
1
60
0
100
AcDbLine
10
15.83652
20
-30.425083
30
0
11
16.07212
21
-30.622415
31
0
39
0
210
0
220
0
230
1
0
LINE
5
159
100
AcDbEntity
8
1
62
256
6
ByLayer
370
18
48
1
60
0
100
AcDbLine
10
15.80802
20
-30.621024
30
0
11
15.80802
21
-30.461371
31
0
39
0
210
0
220
0
230
1
0
LINE
5
15A
100
AcDbEntity
8
1
62
256
6
ByLayer
370
18
48
1
60
0
100
AcDbLine
10
16.07212
20
-31.459862
30
0
11
15.83652
21
-30.765213
31
0
39
0
210
0
220
0
230
1
0
LINE
5
15B
100
AcDbEntity
8
1
62
256
6
ByLayer
370
18
48
1
60
0
100
AcDbLine
10
15.83652
20
-31.46707
30
0
11
16.07212
21
-31.664403
31
0
39
0
210
0
220
0
230
1
0
LINE
5
15C
100
AcDbEntity
8
1
62
256
6
ByLayer
370
18
48
1
60
0
100
AcDbLine
10
15.80802
20
-31.663011
30
0
11
15.80802
21
-31.503358
31
0
39
0
210
0
220
0
230
1
0
LINE
5
15D
100
AcDbEntity
8
1
62
256
6
ByLayer
370
18
48
1
60
0
100
AcDbLine
10
16.07212
20
-32.501849
30
0
11
15.83652
21
-31.807201
31
0
39
0
210
0
220
0
230
1
0
LINE
5
15E
100
AcDbEntity
8
1
62
256
6
ByLayer
370
18
48
1
60
0
100
AcDbLine
10
15.83652
20
-32.509058
30
0
11
16.07212
21
-32.706391
31
0
39
0
210
0
220
0
230
1
0
LINE
5
15F
100
AcDbEntity
8
1
62
256
6
ByLayer
370
18
48
1
60
0
100
AcDbLine
10
15.80802
20
-32.704999
30
0
11
15.80802
21
-32.545346
31
0
39
0
210
0
220
0
230
1
0
LINE
5
160
100
AcDbEntity
8
1
62
256
6
ByLayer
370
18
48
1
60
0
100
AcDbLine
10
16.07212
20
-33.543837
30
0
11
15.83652
21
-32.849188
31
0
39
0
210
0
220
0
230
1
0
LINE
5
161
100
AcDbEntity
8
1
62
256
6
ByLayer
370
18
48
1
60
0
100
AcDbLine
10
15.83652
20
-33.551045
30
0
11
16.07212
21
-33.748378
31
0
39
0
210
0
220
0
230
1
0
LINE
5
162
100
AcDbEntity
8
1
62
256
6
ByLayer
370
18
48
1
60
0
100
AcDbLine
10
15.80802
20
-33.746987
30
0
11
15.80802
21
-33.587334
31
0
39
0
210
0
220
0
230
1
0
LINE
5
163
100
AcDbEntity
8
1
62
256
6
ByLayer
370
18
48
1
60
0
100
AcDbLine
10
16.07212
20
-34.585824
30
0
11
15.83652
21
-33.891176
31
0
39
0
210
0
220
0
230
1
0
LINE
5
164
100
AcDbEntity
8
1
62
256
6
ByLayer
370
18
48
1
60
0
100
AcDbLine
10
15.83652
20
-34.593033
30
0
11
16.07212
21
-34.790366
31
0
39
0
210
0
220
0
230
1
0
LINE
5
165
100
AcDbEntity
8
1
62
256
6
ByLayer
370
18
48
1
60
0
100
AcDbLine
10
15.80802
20
-34.788974
30
0
11
15.80802
21
-34.629321
31
0
39
0
210
0
220
0
230
1
0
LINE
5
166
100
AcDbEntity
8
1
62
256
6
ByLayer
370
18
48
1
60
0
100
AcDbLine
10
16.15
20
-20.733194
30
0
11
16.15
21
-35.176164
31
0
39
0
210
0
220
0
230
1
0
LINE
5
167
100
AcDbEntity
8
1
62
256
6
ByLayer
370
18
48
1
60
0
100
AcDbLine
10
15.77
20
-20.149096
30
0
11
15.77
21
-20.013854
31
0
39
0
210
0
220
0
230
1
0
LINE
5
168
100
AcDbEntity
8
1
62
256
6
ByLayer
370
18
48
1
60
0
100
AcDbLine
10
15.934483
20
-35.222003
30
0
11
15.83652
21
-34.933163
31
0
39
0
210
0
220
0
230
1
0
LINE
5
169
100
AcDbEntity
8
1
62
256
6
ByLayer
370
13
48
1
60
0
100
AcDbLine
10
16.15
20
-20.733194
30
0
11
15.77
21
-20.013854
31
0
39
0
210
0
220
0
230
1
0
LINE
5
16A
100
AcDbEntity
8
1
62
256
6
ByLayer
370
13
48
1
60
0
100
AcDbLine
10
15.15
20
-43.930453
30
0
11
15.15
21
-35.790925
31
0
39
0
210
0
220
0
230
1
0
LINE
5
16B
100
AcDbEntity
8
1
62
256
6
ByLayer
370
18
48
1
60
0
100
AcDbLine
10
16.15
20
-7.634948
30
0
11
16.15
21
-7.889514
31
0
39
0
210
0
220
0
230
1
0
LINE
5
16C
100
AcDbEntity
8
1
62
256
6
ByLayer
370
18
48
1
60
0
100
AcDbLine
10
2.35
20
-7.889514
30
0
11
2.35
21
-7.634948
31
0
39
0
210
0
220
0
230
1
0
LINE
5
16D
100
AcDbEntity
8
1
62
256
6
ByLayer
370
18
48
1
60
0
100
AcDbLine
10
16.15
20
-7.889514
30
0
11
2.35
21
-7.889514
31
0
39
0
210
0
220
0
230
1
0
LINE
5
16E
100
AcDbEntity
8
1
62
256
6
ByLayer
370
18
48
1
60
0
100
AcDbLine
10
14.35
20
-7.634948
30
0
11
11.55
21
-7.634948
31
0
39
0
210
0
220
0
230
1
0
LINE
5
16F
100
AcDbEntity
8
1
62
256
6
ByLayer
370
13
48
1
60
0
100
AcDbLine
10
14.35
20
-7.634948
30
0
11
14.35
21
-4.934004
31
0
39
0
210
0
220
0
230
1
0
LINE
5
170
100
AcDbEntity
8
1
62
256
6
ByLayer
370
13
48
1
60
0
100
AcDbLine
10
11.55
20
-4.930533
30
0
11
11.55
21
-7.634948
31
0
39
0
210
0
220
0
230
1
0
LINE
5
171
100
AcDbEntity
8
1
62
256
6
ByLayer
370
18
48
1
60
0
100
AcDbLine
10
15.934483
20
10.948934
30
0
11
15.83652
21
11.155721
31
0
39
0
210
0
220
0
230
1
0
LINE
5
172
100
AcDbEntity
8
1
62
256
6
ByLayer
370
18
48
1
60
0
100
AcDbLine
10
2.35
20
-43.077331
30
0
11
2.35
21
-45.399849
31
0
39
0
210
0
220
0
230
1
0
LINE
5
173
100
AcDbEntity
8
1
62
256
6
ByLayer
370
18
48
1
60
0
100
AcDbLine
10
2.66348
20
11.155721
30
0
11
2.565517
21
10.948934
31
0
39
0
210
0
220
0
230
1
0
LINE
5
174
100
AcDbEntity
8
1
62
256
6
ByLayer
370
18
48
1
60
0
100
AcDbLine
10
11.45
20
-7.549688
30
0
11
11.45
21
-5.319761
31
0
39
0
210
0
220
0
230
1
0
LINE
5
175
100
AcDbEntity
8
1
62
256
6
ByLayer
370
18
48
1
60
0
100
AcDbLine
10
14.45
20
-5.319761
30
0
11
14.45
21
-7.549688
31
0
39
0
210
0
220
0
230
1
0
LINE
5
176
100
AcDbEntity
8
1
62
256
6
ByLayer
370
13
48
1
60
0
100
AcDbLine
10
15.83652
20
11.155721
30
0
11
2.66348
21
11.155721
31
0
39
0
210
0
220
0
230
1
0
LINE
5
177
100
AcDbEntity
8
1
62
256
6
ByLayer
370
13
48
1
60
0
100
AcDbLine
10
2.820804
20
10.658405
30
0
11
15.679196
21
10.658405
31
0
39
0
210
0
220
0
230
1
0
LINE
5
178
100
AcDbEntity
8
1
62
256
6
ByLayer
370
18
48
1
60
0
100
AcDbLine
10
16.15
20
-7.634948
30
0
11
14.35
21
-7.634948
31
0
39
0
210
0
220
0
230
1
0
LINE
5
179
100
AcDbEntity
8
1
62
256
6
ByLayer
370
18
48
1
60
0
100
AcDbLine
10
16.15
20
-3.938365
30
0
11
16.15
21
-7.634948
31
0
39
0
210
0
220
0
230
1
0
LINE
5
17A
100
AcDbEntity
8
1
62
256
6
ByLayer
370
18
48
1
60
0
100
AcDbLine
10
2.35
20
-7.634948
30
0
11
2.35
21
-3.938365
31
0
39
0
210
0
220
0
230
1
0
LINE
5
17B
100
AcDbEntity
8
1
62
256
6
ByLayer
370
18
48
1
60
0
100
AcDbLine
10
11.55
20
-7.634948
30
0
11
2.35
21
-7.634948
31
0
39
0
210
0
220
0
230
1
0
LINE
5
17C
100
AcDbEntity
8
1
62
256
6
ByLayer
370
18
48
1
60
0
100
AcDbLine
10
2.35
20
-3.938365
30
0
11
2.35
21
10.223685
31
0
39
0
210
0
220
0
230
1
0
LINE
5
17D
100
AcDbEntity
8
1
62
256
6
ByLayer
370
18
48
1
60
0
100
AcDbLine
10
3.35
20
-3.901482
30
0
11
15.15
21
-3.901482
31
0
39
0
210
0
220
0
230
1
0
LINE
5
17E
100
AcDbEntity
8
1
62
256
6
ByLayer
370
18
48
1
60
0
100
AcDbLine
10
3.35
20
10.61716
30
0
11
15.15
21
10.61716
31
0
39
0
210
0
220
0
230
1
0
LINE
5
17F
100
AcDbEntity
8
1
62
256
6
ByLayer
370
18
48
1
60
0
100
AcDbLine
10
16.15
20
10.223685
30
0
11
16.15
21
-3.938365
31
0
39
0
210
0
220
0
230
1
0
LINE
5
180
100
AcDbEntity
8
1
62
256
6
ByLayer
370
13
48
1
60
0
100
AcDbLine
10
3.35
20
10.61716
30
0
11
3.35
21
-3.901482
31
0
39
0
210
0
220
0
230
1
0
LINE
5
181
100
AcDbEntity
8
1
62
256
6
ByLayer
370
13
48
1
60
0
100
AcDbLine
10
15.15
20
-3.901482
30
0
11
15.15
21
10.61716
31
0
39
0
210
0
220
0
230
1
0
LINE
5
182
100
AcDbEntity
8
1
62
256
6
ByLayer
370
13
48
1
60
0
100
AcDbLine
10
11.95
20
-9.114871
30
0
11
11.95
21
-10.093646
31
0
39
0
210
0
220
0
230
1
0
LINE
5
183
100
AcDbEntity
8
80
62
256
6
ByLayer
370
18
48
1
60
0
100
AcDbLine
10
0
20
0
30
0
11
-5
21
0
31
0
39
0
210
0
220
0
230
1
0
LINE
5
184
100
AcDbEntity
8
4
62
256
6
ByLayer
370
18
48
0.05
60
0
100
AcDbLine
10
0
20
0
30
0
11
19.75
21
0
31
0
39
0
210
0
220
0
230
1
0
LINE
5
186
100
AcDbEntity
8
SK4
62
256
6
ByLayer
370
18
48
0.05
60
0
100
AcDbLine
10
-3
20
0
30
0
11
19.75
21
0
31
0
39
0
210
0
220
0
230
1
0
LINE
5
188
100
AcDbEntity
8
1
62
256
6
ByLayer
370
18
48
1
60
0
100
AcDbLine
10
15.824017
20
-21.041384
30
0
11
2.675983
21
-21.041384
31
0
39
0
210
0
220
0
230
1
0
LINE
5
189
100
AcDbEntity
8
1
62
256
6
ByLayer
370
18
48
1
60
0
100
AcDbLine
10
15.824017
20
-22.083371
30
0
11
2.675983
21
-22.083371
31
0
39
0
210
0
220
0
230
1
0
LINE
5
18A
100
AcDbEntity
8
1
62
256
6
ByLayer
370
18
48
1
60
0
100
AcDbLine
10
15.824017
20
-23.125359
30
0
11
2.675983
21
-23.125359
31
0
39
0
210
0
220
0
230
1
0
LINE
5
18B
100
AcDbEntity
8
1
62
256
6
ByLayer
370
18
48
1
60
0
100
AcDbLine
10
15.824017
20
-24.167347
30
0
11
2.675983
21
-24.167347
31
0
39
0
210
0
220
0
230
1
0
LINE
5
18C
100
AcDbEntity
8
1
62
256
6
ByLayer
370
18
48
1
60
0
100
AcDbLine
10
15.824017
20
-25.209334
30
0
11
2.675983
21
-25.209334
31
0
39
0
210
0
220
0
230
1
0
LINE
5
18D
100
AcDbEntity
8
1
62
256
6
ByLayer
370
18
48
1
60
0
100
AcDbLine
10
0.4
20
-23.5
30
0
11
1.55
21
-23.5
31
0
39
0
210
0
220
0
230
1
0
LINE
5
18E
100
AcDbEntity
8
1
62
256
6
ByLayer
370
18
48
1
60
0
100
AcDbLine
10
1.55
20
23.5
30
0
11
0.4
21
23.5
31
0
39
0
210
0
220
0
230
1
0
LINE
5
18F
100
AcDbEntity
8
1
62
256
6
ByLayer
370
18
48
1
60
0
100
AcDbLine
10
0
20
-23.1
30
0
11
0.4
21
-23.5
31
0
39
0
210
0
220
0
230
1
0
LINE
5
190
100
AcDbEntity
8
1
62
256
6
ByLayer
370
18
48
1
60
0
100
AcDbLine
10
0.4
20
23.5
30
0
11
0
21
23.1
31
0
39
0
210
0
220
0
230
1
0
LINE
5
191
100
AcDbEntity
8
1
62
256
6
ByLayer
370
18
48
1
60
0
100
AcDbLine
10
18.5
20
23.1
30
0
11
18.1
21
23.5
31
0
39
0
210
0
220
0
230
1
0
LINE
5
192
100
AcDbEntity
8
1
62
256
6
ByLayer
370
18
48
1
60
0
100
AcDbLine
10
18.1
20
-23.5
30
0
11
18.5
21
-23.1
31
0
39
0
210
0
220
0
230
1
0
LINE
5
193
100
AcDbEntity
8
1
62
256
6
ByLayer
370
18
48
1
60
0
100
AcDbLine
10
16.95
20
-23.5
30
0
11
18.1
21
-23.5
31
0
39
0
210
0
220
0
230
1
0
LINE
5
194
100
AcDbEntity
8
1
62
256
6
ByLayer
370
18
48
1
60
0
100
AcDbLine
10
18.1
20
23.5
30
0
11
16.95
21
23.5
31
0
39
0
210
0
220
0
230
1
0
LINE
5
195
100
AcDbEntity
8
1
62
256
6
ByLayer
370
18
48
1
60
0
100
AcDbLine
10
15.824017
20
-26.251322
30
0
11
2.675983
21
-26.251322
31
0
39
0
210
0
220
0
230
1
0
LINE
5
196
100
AcDbEntity
8
1
62
256
6
ByLayer
370
18
48
1
60
0
100
AcDbLine
10
15.824017
20
-27.293309
30
0
11
2.675983
21
-27.293309
31
0
39
0
210
0
220
0
230
1
0
LINE
5
197
100
AcDbEntity
8
1
62
256
6
ByLayer
370
18
48
1
60
0
100
AcDbLine
10
15.824017
20
-28.335297
30
0
11
2.675983
21
-28.335297
31
0
39
0
210
0
220
0
230
1
0
LINE
5
198
100
AcDbEntity
8
1
62
256
6
ByLayer
370
18
48
1
60
0
100
AcDbLine
10
15.824017
20
-29.377284
30
0
11
2.675983
21
-29.377284
31
0
39
0
210
0
220
0
230
1
0
LINE
5
199
100
AcDbEntity
8
1
62
256
6
ByLayer
370
18
48
1
60
0
100
AcDbLine
10
15.824017
20
-30.419272
30
0
11
2.675983
21
-30.419272
31
0
39
0
210
0
220
0
230
1
0
LINE
5
19A
100
AcDbEntity
8
1
62
256
6
ByLayer
370
18
48
1
60
0
100
AcDbLine
10
15.824017
20
-31.461259
30
0
11
2.675983
21
-31.461259
31
0
39
0
210
0
220
0
230
1
0
LINE
5
19B
100
AcDbEntity
8
1
62
256
6
ByLayer
370
18
48
1
60
0
100
AcDbLine
10
15.824017
20
-32.503247
30
0
11
2.675983
21
-32.503247
31
0
39
0
210
0
220
0
230
1
0
LINE
5
19C
100
AcDbEntity
8
1
62
256
6
ByLayer
370
18
48
1
60
0
100
AcDbLine
10
15.824017
20
-33.545235
30
0
11
2.675983
21
-33.545235
31
0
39
0
210
0
220
0
230
1
0
LINE
5
19D
100
AcDbEntity
8
1
62
256
6
ByLayer
370
18
48
1
60
0
100
AcDbLine
10
15.824017
20
-34.587222
30
0
11
2.675983
21
-34.587222
31
0
39
0
210
0
220
0
230
1
0
LINE
5
19E
100
AcDbEntity
8
1
62
256
6
ByLayer
370
18
48
1
60
0
100
AcDbLine
10
15.810228
20
11.19782
30
0
11
2.689772
21
11.19782
31
0
39
0
210
0
220
0
230
1
0
LINE
5
19F
100
AcDbEntity
8
81
62
256
6
ByLayer
370
18
48
1
60
0
100
AcDbLine
10
16.75
20
50
30
0
11
21.75
21
50
31
0
39
0
210
0
220
0
230
1
0
LINE
5
1A0
100
AcDbEntity
8
SK2
62
256
6
ByLayer
370
13
48
1
60
0
100
AcDbLine
10
17.315685
20
-50.565685
30
0
11
23.326093
21
-56.576093
31
0
39
0
210
0
220
0
230
1
0
LINE
5
1A2
100
AcDbEntity
8
1
62
256
6
ByLayer
370
18
48
1
60
1
100
AcDbLine
10
17.315685
20
-50.565685
30
0
11
20.116381
21
-52.714735
31
0
39
0
210
0
220
0
230
1
0
LINE
5
1A3
100
AcDbEntity
8
1
62
256
6
ByLayer
370
18
48
1
60
1
100
AcDbLine
10
20.116381
20
-52.714735
30
0
11
19.464737
21
-53.366384
31
0
39
0
210
0
220
0
230
1
0
LINE
5
1A4
100
AcDbEntity
8
1
62
256
6
ByLayer
370
18
48
1
60
1
100
AcDbLine
10
19.464737
20
-53.366384
30
0
11
17.315685
21
-50.565685
31
0
39
0
210
0
220
0
230
1
0
LINE
5
1A5
100
AcDbEntity
8
2
62
256
6
ByLayer
370
13
48
1
60
0
100
AcDbLine
10
50.1
20
50
30
0
11
50.1
21
-50
31
0
39
0
210
0
220
0
230
1
0
LINE
5
1A7
100
AcDbEntity
8
2
62
256
6
ByLayer
370
13
48
1
60
0
100
AcDbLine
10
18.3375
20
-50
30
0
11
52.1
21
-50
31
0
39
0
210
0
220
0
230
1
0
LINE
5
1A8
100
AcDbEntity
8
2
62
256
6
ByLayer
370
13
48
1
60
0
100
AcDbLine
10
18.3375
20
50
30
0
11
52.1
21
50
31
0
39
0
210
0
220
0
230
1
0
LINE
5
1A9
100
AcDbEntity
8
1
62
256
6
ByLayer
370
18
48
1
60
1
100
AcDbLine
10
50.1
20
-50
30
0
11
49.639216
21
-46.500002
31
0
39
0
210
0
220
0
230
1
0
LINE
5
1AA
100
AcDbEntity
8
1
62
256
6
ByLayer
370
18
48
1
60
1
100
AcDbLine
10
49.639216
20
-46.500002
30
0
11
50.560784
21
-46.499998
31
0
39
0
210
0
220
0
230
1
0
LINE
5
1AB
100
AcDbEntity
8
1
62
256
6
ByLayer
370
18
48
1
60
1
100
AcDbLine
10
50.560784
20
-46.499998
30
0
11
50.1
21
-50
31
0
39
0
210
0
220
0
230
1
0
LINE
5
1AC
100
AcDbEntity
8
1
62
256
6
ByLayer
370
18
48
1
60
1
100
AcDbLine
10
50.1
20
50
30
0
11
50.560784
21
46.500002
31
0
39
0
210
0
220
0
230
1
0
LINE
5
1AD
100
AcDbEntity
8
1
62
256
6
ByLayer
370
18
48
1
60
1
100
AcDbLine
10
50.560784
20
46.500002
30
0
11
49.639216
21
46.499998
31
0
39
0
210
0
220
0
230
1
0
LINE
5
1AE
100
AcDbEntity
8
1
62
256
6
ByLayer
370
18
48
1
60
1
100
AcDbLine
10
49.639216
20
46.499998
30
0
11
50.1
21
50
31
0
39
0
210
0
220
0
230
1
0
LINE
5
1AF
100
AcDbEntity
8
SK2
62
256
6
ByLayer
370
13
48
1
60
0
100
AcDbLine
10
-14.35
20
16
30
0
11
-14.35
21
-16
31
0
39
0
210
0
220
0
230
1
0
LINE
5
1B0
100
AcDbEntity
8
SK2
62
256
6
ByLayer
370
13
48
1
60
0
100
AcDbLine
10
-1.5875
20
-16
30
0
11
-16.35
21
-16
31
0
39
0
210
0
220
0
230
1
0
LINE
5
1B1
100
AcDbEntity
8
SK2
62
256
6
ByLayer
370
13
48
1
60
0
100
AcDbLine
10
-1.5875
20
16
30
0
11
-16.35
21
16
31
0
39
0
210
0
220
0
230
1
0
LINE
5
1B2
100
AcDbEntity
8
1
62
256
6
ByLayer
370
18
48
1
60
1
100
AcDbLine
10
-14.35
20
-16
30
0
11
-14.810784
21
-12.500002
31
0
39
0
210
0
220
0
230
1
0
LINE
5
1B3
100
AcDbEntity
8
1
62
256
6
ByLayer
370
18
48
1
60
1
100
AcDbLine
10
-14.810784
20
-12.500002
30
0
11
-13.889216
21
-12.499998
31
0
39
0
210
0
220
0
230
1
0
LINE
5
1B4
100
AcDbEntity
8
1
62
256
6
ByLayer
370
18
48
1
60
1
100
AcDbLine
10
-13.889216
20
-12.499998
30
0
11
-14.35
21
-16
31
0
39
0
210
0
220
0
230
1
0
LINE
5
1B5
100
AcDbEntity
8
1
62
256
6
ByLayer
370
18
48
1
60
1
100
AcDbLine
10
-14.35
20
16
30
0
11
-13.889216
21
12.500002
31
0
39
0
210
0
220
0
230
1
0
LINE
5
1B6
100
AcDbEntity
8
1
62
256
6
ByLayer
370
18
48
1
60
1
100
AcDbLine
10
-13.889216
20
12.500002
30
0
11
-14.810784
21
12.499998
31
0
39
0
210
0
220
0
230
1
0
LINE
5
1B7
100
AcDbEntity
8
1
62
256
6
ByLayer
370
18
48
1
60
1
100
AcDbLine
10
-14.810784
20
12.499998
30
0
11
-14.35
21
16
31
0
39
0
210
0
220
0
230
1
0
LINE
5
1B8
100
AcDbEntity
8
SK2
62
256
6
ByLayer
370
13
48
1
60
0
100
AcDbLine
10
-29.35
20
23.5
30
0
11
-29.35
21
-23.5
31
0
39
0
210
0
220
0
230
1
0
LINE
5
1B9
100
AcDbEntity
8
SK2
62
256
6
ByLayer
370
13
48
1
60
0
100
AcDbLine
10
-1.5875
20
-23.5
30
0
11
-31.35
21
-23.5
31
0
39
0
210
0
220
0
230
1
0
LINE
5
1BA
100
AcDbEntity
8
SK2
62
256
6
ByLayer
370
13
48
1
60
0
100
AcDbLine
10
-1.5875
20
23.5
30
0
11
-31.35
21
23.5
31
0
39
0
210
0
220
0
230
1
0
LINE
5
1BB
100
AcDbEntity
8
1
62
256
6
ByLayer
370
18
48
1
60
1
100
AcDbLine
10
-29.35
20
-23.5
30
0
11
-29.810784
21
-20.000002
31
0
39
0
210
0
220
0
230
1
0
LINE
5
1BC
100
AcDbEntity
8
1
62
256
6
ByLayer
370
18
48
1
60
1
100
AcDbLine
10
-29.810784
20
-20.000002
30
0
11
-28.889216
21
-19.999998
31
0
39
0
210
0
220
0
230
1
0
LINE
5
1BD
100
AcDbEntity
8
1
62
256
6
ByLayer
370
18
48
1
60
1
100
AcDbLine
10
-28.889216
20
-19.999998
30
0
11
-29.35
21
-23.5
31
0
39
0
210
0
220
0
230
1
0
LINE
5
1BE
100
AcDbEntity
8
1
62
256
6
ByLayer
370
18
48
1
60
1
100
AcDbLine
10
-29.35
20
23.5
30
0
11
-28.889216
21
20.000002
31
0
39
0
210
0
220
0
230
1
0
LINE
5
1BF
100
AcDbEntity
8
1
62
256
6
ByLayer
370
18
48
1
60
1
100
AcDbLine
10
-28.889216
20
20.000002
30
0
11
-29.810784
21
19.999998
31
0
39
0
210
0
220
0
230
1
0
LINE
5
1C0
100
AcDbEntity
8
1
62
256
6
ByLayer
370
18
48
1
60
1
100
AcDbLine
10
-29.810784
20
19.999998
30
0
11
-29.35
21
23.5
31
0
39
0
210
0
220
0
230
1
0
LINE
5
274
100
AcDbEntity
8
1
62
256
6
ByLayer
370
18
48
1
60
1
100
AcDbLine
10
17.315685
20
-50.565685
30
0
11
20.116381
21
-52.714735
31
0
39
0
210
0
220
0
230
1
0
LINE
5
275
100
AcDbEntity
8
1
62
256
6
ByLayer
370
18
48
1
60
1
100
AcDbLine
10
20.116381
20
-52.714735
30
0
11
19.464737
21
-53.366384
31
0
39
0
210
0
220
0
230
1
0
LINE
5
276
100
AcDbEntity
8
1
62
256
6
ByLayer
370
18
48
1
60
1
100
AcDbLine
10
19.464737
20
-53.366384
30
0
11
17.315685
21
-50.565685
31
0
39
0
210
0
220
0
230
1
0
LINE
5
27A
100
AcDbEntity
8
1
62
256
6
ByLayer
370
18
48
1
60
1
100
AcDbLine
10
50.1
20
-50
30
0
11
49.639216
21
-46.500002
31
0
39
0
210
0
220
0
230
1
0
LINE
5
27B
100
AcDbEntity
8
1
62
256
6
ByLayer
370
18
48
1
60
1
100
AcDbLine
10
49.639216
20
-46.500002
30
0
11
50.560784
21
-46.499998
31
0
39
0
210
0
220
0
230
1
0
LINE
5
27C
100
AcDbEntity
8
1
62
256
6
ByLayer
370
18
48
1
60
1
100
AcDbLine
10
50.560784
20
-46.499998
30
0
11
50.1
21
-50
31
0
39
0
210
0
220
0
230
1
0
LINE
5
27E
100
AcDbEntity
8
1
62
256
6
ByLayer
370
18
48
1
60
1
100
AcDbLine
10
50.1
20
50
30
0
11
50.560784
21
46.500002
31
0
39
0
210
0
220
0
230
1
0
LINE
5
27F
100
AcDbEntity
8
1
62
256
6
ByLayer
370
18
48
1
60
1
100
AcDbLine
10
50.560784
20
46.500002
30
0
11
49.639216
21
46.499998
31
0
39
0
210
0
220
0
230
1
0
LINE
5
280
100
AcDbEntity
8
1
62
256
6
ByLayer
370
18
48
1
60
1
100
AcDbLine
10
49.639216
20
46.499998
30
0
11
50.1
21
50
31
0
39
0
210
0
220
0
230
1
0
LINE
5
284
100
AcDbEntity
8
1
62
256
6
ByLayer
370
18
48
1
60
1
100
AcDbLine
10
-14.35
20
-16
30
0
11
-14.810784
21
-12.500002
31
0
39
0
210
0
220
0
230
1
0
LINE
5
285
100
AcDbEntity
8
1
62
256
6
ByLayer
370
18
48
1
60
1
100
AcDbLine
10
-14.810784
20
-12.500002
30
0
11
-13.889216
21
-12.499998
31
0
39
0
210
0
220
0
230
1
0
LINE
5
286
100
AcDbEntity
8
1
62
256
6
ByLayer
370
18
48
1
60
1
100
AcDbLine
10
-13.889216
20
-12.499998
30
0
11
-14.35
21
-16
31
0
39
0
210
0
220
0
230
1
0
LINE
5
288
100
AcDbEntity
8
1
62
256
6
ByLayer
370
18
48
1
60
1
100
AcDbLine
10
-14.35
20
16
30
0
11
-13.889216
21
12.500002
31
0
39
0
210
0
220
0
230
1
0
LINE
5
289
100
AcDbEntity
8
1
62
256
6
ByLayer
370
18
48
1
60
1
100
AcDbLine
10
-13.889216
20
12.500002
30
0
11
-14.810784
21
12.499998
31
0
39
0
210
0
220
0
230
1
0
LINE
5
28A
100
AcDbEntity
8
1
62
256
6
ByLayer
370
18
48
1
60
1
100
AcDbLine
10
-14.810784
20
12.499998
30
0
11
-14.35
21
16
31
0
39
0
210
0
220
0
230
1
0
LINE
5
28E
100
AcDbEntity
8
1
62
256
6
ByLayer
370
18
48
1
60
1
100
AcDbLine
10
-29.35
20
-23.5
30
0
11
-29.810784
21
-20.000002
31
0
39
0
210
0
220
0
230
1
0
LINE
5
28F
100
AcDbEntity
8
1
62
256
6
ByLayer
370
18
48
1
60
1
100
AcDbLine
10
-29.810784
20
-20.000002
30
0
11
-28.889216
21
-19.999998
31
0
39
0
210
0
220
0
230
1
0
LINE
5
290
100
AcDbEntity
8
1
62
256
6
ByLayer
370
18
48
1
60
1
100
AcDbLine
10
-28.889216
20
-19.999998
30
0
11
-29.35
21
-23.5
31
0
39
0
210
0
220
0
230
1
0
LINE
5
292
100
AcDbEntity
8
1
62
256
6
ByLayer
370
18
48
1
60
1
100
AcDbLine
10
-29.35
20
23.5
30
0
11
-28.889216
21
20.000002
31
0
39
0
210
0
220
0
230
1
0
LINE
5
293
100
AcDbEntity
8
1
62
256
6
ByLayer
370
18
48
1
60
1
100
AcDbLine
10
-28.889216
20
20.000002
30
0
11
-29.810784
21
19.999998
31
0
39
0
210
0
220
0
230
1
0
LINE
5
294
100
AcDbEntity
8
1
62
256
6
ByLayer
370
18
48
1
60
1
100
AcDbLine
10
-29.810784
20
19.999998
30
0
11
-29.35
21
23.5
31
0
39
0
210
0
220
0
230
1
0
MTEXT
5
270
100
AcDbEntity
8
SK2
62
256
6
ByLayer
370
13
48
1
60
0
100
AcDbMText
10
22.716192
20
-59.335314
30
0
210
0
220
0
230
1
1
\W0.6380;R
40
3.5
41
0
44
1.084337
50
315
71
7
72
5
7
iso_b_vert
0
MTEXT
5
273
100
AcDbEntity
8
SK2
62
256
6
ByLayer
370
13
48
1
60
0
100
AcDbMText
10
25.321174
20
-61.940295
30
0
210
0
220
0
230
1
1
\W0.7121;0.8
40
3.5
41
0
44
1.084337
50
315
71
7
72
5
7
iso_b_vert
0
MTEXT
5
278
100
AcDbEntity
8
2
62
256
6
ByLayer
370
18
48
1
60
0
100
AcDbMText
10
48.311847
20
-6.172483
30
0
210
0
220
0
230
1
1
%%c
40
4
41
0
44
1.084337
50
90
71
7
72
5
7
iso_b_vert
0
MTEXT
5
279
100
AcDbEntity
8
2
62
256
6
ByLayer
370
18
48
1
60
0
100
AcDbMText
10
48.311847
20
1.796267
30
0
210
0
220
0
230
1
1
\W0.6217;100
40
4
41
0
44
1.084337
50
90
71
7
72
5
7
iso_b_vert
0
MTEXT
5
282
100
AcDbEntity
8
SK2
62
256
6
ByLayer
370
18
48
1
60
0
100
AcDbMText
10
-16.138153
20
-7.482692
30
0
210
0
220
0
230
1
1
%%c
40
4
41
0
44
1.084337
50
90
71
7
72
5
7
iso_b_vert
0
MTEXT
5
283
100
AcDbEntity
8
SK2
62
256
6
ByLayer
370
18
48
1
60
0
100
AcDbMText
10
-16.138153
20
0.486058
30
0
210
0
220
0
230
1
1
\W0.7346;32.0
40
4
41
0
44
1.084337
50
90
71
7
72
5
7
iso_b_vert
0
MTEXT
5
28C
100
AcDbEntity
8
SK2
62
256
6
ByLayer
370
18
48
1
60
0
100
AcDbMText
10
-31.138153
20
-5.388445
30
0
210
0
220
0
230
1
1
%%c
40
4
41
0
44
1.084337
50
90
71
7
72
5
7
iso_b_vert
0
MTEXT
5
28D
100
AcDbEntity
8
SK2
62
256
6
ByLayer
370
18
48
1
60
0
100
AcDbMText
10
-31.138153
20
2.580305
30
0
210
0
220
0
230
1
1
\W0.7361;47
40
4
41
0
44
1.084337
50
90
71
7
72
5
7
iso_b_vert
0
MTEXT
5
296
100
AcDbEntity
8
SK6
62
256
6
ByLayer
370
13
48
1
60
0
100
AcDbMText
10
8.5605
20
-87.452091
30
0
210
0
220
0
230
1
1
\W0.7513;L331.52C-100S32KM
40
3.5
41
0
44
1.084337
50
0
71
7
72
5
7
iso_b_vert
0
HATCH
5
277
100
AcDbEntity
8
SK2
62
256
6
ByLayer
370
13
48
1
60
0
100
AcDbHatch
10
0
20
0
30
0
210
0
220
0
230
1
2
ANSI31
70
0
71
0
91
1
92
5
93
3
72
1
10
17.3156854249493
20
-50.5656854249493
11
20.1163812705988
21
-52.7147346539739
72
1
10
20.1163812705988
20
-52.7147346539739
11
19.4647370476056
21
-53.3663836642305
72
1
10
19.4647370476056
20
-53.3663836642305
11
17.3156854249493
21
-50.5656854249493
97
0
75
0
76
1
52
0
41
0.0062
77
0
78
1
53
44.9999999999999
43
0
44
0
45
-0.0139193969876572
46
0.0139193969876572
79
0
47
0
98
1
10
0
20
0
0
HATCH
5
27D
100
AcDbEntity
8
2
62
256
6
ByLayer
370
13
48
1
60
0
100
AcDbHatch
10
0
20
0
30
0
210
0
220
0
230
1
2
ANSI31
70
0
71
0
91
1
92
5
93
3
72
1
10
50.1
20
-50
11
49.6392162584473
21
-46.5000016925532
72
1
10
49.6392162584473
20
-46.5000016925532
11
50.5607837415528
21
-46.4999983074468
72
1
10
50.5607837415528
20
-46.4999983074468
11
50.1
21
-50
97
0
75
0
76
1
52
0
41
0.0062
77
0
78
1
53
44.9999999999999
43
0
44
0
45
-0.0139193969876572
46
0.0139193969876572
79
0
47
0
98
1
10
0
20
0
0
HATCH
5
281
100
AcDbEntity
8
2
62
256
6
ByLayer
370
13
48
1
60
0
100
AcDbHatch
10
0
20
0
30
0
210
0
220
0
230
1
2
ANSI31
70
0
71
0
91
1
92
5
93
3
72
1
10
50.1
20
50
11
50.5607837415528
21
46.5000016925532
72
1
10
50.5607837415528
20
46.5000016925532
11
49.6392162584473
21
46.4999983074468
72
1
10
49.6392162584473
20
46.4999983074468
11
50.1
21
50
97
0
75
0
76
1
52
0
41
0.0062
77
0
78
1
53
44.9999999999999
43
0
44
0
45
-0.0139193969876572
46
0.0139193969876572
79
0
47
0
98
1
10
0
20
0
0
HATCH
5
287
100
AcDbEntity
8
SK2
62
256
6
ByLayer
370
13
48
1
60
0
100
AcDbHatch
10
0
20
0
30
0
210
0
220
0
230
1
2
ANSI31
70
0
71
0
91
1
92
5
93
3
72
1
10
-14.35
20
-16
11
-14.8107837415528
21
-12.5000016925532
72
1
10
-14.8107837415528
20
-12.5000016925532
11
-13.8892162584473
21
-12.4999983074468
72
1
10
-13.8892162584473
20
-12.4999983074468
11
-14.35
21
-16
97
0
75
0
76
1
52
0
41
0.0062
77
0
78
1
53
44.9999999999999
43
0
44
0
45
-0.0139193969876572
46
0.0139193969876572
79
0
47
0
98
1
10
0
20
0
0
HATCH
5
28B
100
AcDbEntity
8
SK2
62
256
6
ByLayer
370
13
48
1
60
0
100
AcDbHatch
10
0
20
0
30
0
210
0
220
0
230
1
2
ANSI31
70
0
71
0
91
1
92
5
93
3
72
1
10
-14.35
20
16
11
-13.8892162584473
21
12.5000016925532
72
1
10
-13.8892162584473
20
12.5000016925532
11
-14.8107837415528
21
12.4999983074468
72
1
10
-14.8107837415528
20
12.4999983074468
11
-14.35
21
16
97
0
75
0
76
1
52
0
41
0.0062
77
0
78
1
53
44.9999999999999
43
0
44
0
45
-0.0139193969876572
46
0.0139193969876572
79
0
47
0
98
1
10
0
20
0
0
HATCH
5
291
100
AcDbEntity
8
SK2
62
256
6
ByLayer
370
13
48
1
60
0
100
AcDbHatch
10
0
20
0
30
0
210
0
220
0
230
1
2
ANSI31
70
0
71
0
91
1
92
5
93
3
72
1
10
-29.35
20
-23.5
11
-29.8107837415528
21
-20.0000016925532
72
1
10
-29.8107837415528
20
-20.0000016925532
11
-28.8892162584473
21
-19.9999983074468
72
1
10
-28.8892162584473
20
-19.9999983074468
11
-29.35
21
-23.5
97
0
75
0
76
1
52
0
41
0.0062
77
0
78
1
53
44.9999999999999
43
0
44
0
45
-0.0139193969876572
46
0.0139193969876572
79
0
47
0
98
1
10
0
20
0
0
HATCH
5
295
100
AcDbEntity
8
SK2
62
256
6
ByLayer
370
13
48
1
60
0
100
AcDbHatch
10
0
20
0
30
0
210
0
220
0
230
1
2
ANSI31
70
0
71
0
91
1
92
5
93
3
72
1
10
-29.35
20
23.5
11
-28.8892162584473
21
20.0000016925532
72
1
10
-28.8892162584473
20
20.0000016925532
11
-29.8107837415528
21
19.9999983074468
72
1
10
-29.8107837415528
20
19.9999983074468
11
-29.35
21
23.5
97
0
75
0
76
1
52
0
41
0.0062
77
0
78
1
53
44.9999999999999
43
0
44
0
45
-0.0139193969876572
46
0.0139193969876572
79
0
47
0
98
1
10
0
20
0
0
DIMENSION
5
299
100
AcDbEntity
8
SK2
62
256
6
ByLayer
370
13
48
1
60
0
100
AcDbDimension
2
_U0
10
6.15
20
53
30
0
11
-12.659524
21
53
31
0
70
32
71
1
72
1
41
1
210
0
220
0
230
1
3
Standard
100
AcDbAlignedDimension
13
16.75
23
50
33
0
14
6.15
24
50
34
0
50
0
100
AcDbRotatedDimension
1001
ACAD
1000
DSTYLE
1002
{
1070
   371
1070
    13
1070
   372
1070
    13
1070
     3
1000

1070
   170
1070
     0
1070
   144
1040
1.0
1070
   277
1070
     2
1070
   284
1070
     8
1070
   278
1070
    46
1070
   146
1040
0.875
1070
   345
1005
16
1070
   347
1005
16
1070
   346
1005
16
1070
   344
1005
0
1070
   343
1005
0
1070
   172
1070
     1
1070
    76
1070
     0
1070
    75
1070
     0
1070
   282
1070
     0
1070
   281
1070
     0
1070
    71
1070
     0
1070
    74
1070
     0
1070
   279
1070
     0
1070
   173
1070
     1
1070
   340
1005
271
1070
   271
1070
     2
1070
   272
1070
     2
1070
    77
1070
     1
1070
    73
1070
     1
1070
   171
1070
     3
1070
   274
1070
     4
1070
   177
1070
     2
1070
   176
1070
     2
1070
   178
1070
     2
1070
    78
1070
     8
1070
    48
1040
-0.1
1070
    41
1040
3.5
1070
   147
1040
2.0
1070
    42
1040
1.5875
1070
    44
1040
2.0
1070
   140
1040
4.0
1002
}
1001
ACAD_DSTYLE_DIM_LINETYPE
1070
   380
1005
16
1001
ACAD_DSTYLE_DIM_EXT1_LINETYPE
1070
   381
1005
16
1001
ACAD_DSTYLE_DIM_EXT2_LINETYPE
1070
   382
1005
16
0
DIMENSION
5
2B4
100
AcDbEntity
8
SK2
62
256
6
ByLayer
370
13
48
1
60
0
100
AcDbDimension
2
_U1
10
18.5
20
-64
30
0
11
-20.305982
21
-64
31
0
70
32
71
1
72
1
41
1
210
0
220
0
230
1
3
Standard
100
AcDbAlignedDimension
13
0
23
-23.5
33
0
14
18.5
24
-23.5
34
0
50
0
100
AcDbRotatedDimension
1001
ACAD
1000
DSTYLE
1002
{
1070
   371
1070
    13
1070
   372
1070
    13
1070
   170
1070
     0
1070
   144
1040
1.0
1070
   277
1070
     2
1070
   284
1070
     8
1070
   278
1070
    46
1070
   146
1040
0.875
1070
   345
1005
16
1070
   347
1005
16
1070
   346
1005
16
1070
   344
1005
0
1070
   343
1005
0
1070
   172
1070
     1
1070
    76
1070
     0
1070
    75
1070
     0
1070
   282
1070
     0
1070
   281
1070
     0
1070
    71
1070
     0
1070
    74
1070
     0
1070
   279
1070
     0
1070
   173
1070
     1
1070
   340
1005
271
1070
   271
1070
     2
1070
   272
1070
     2
1070
    77
1070
     1
1070
    73
1070
     1
1070
   171
1070
     3
1070
   274
1070
     4
1070
   177
1070
     2
1070
   176
1070
     2
1070
   178
1070
     2
1070
    78
1070
     8
1070
    48
1040
-0.1
1070
    41
1040
3.5
1070
   147
1040
2.0
1070
    42
1040
1.5875
1070
    44
1040
2.0
1070
   140
1040
4.0
1002
}
1001
ACAD_DSTYLE_DIM_LINETYPE
1070
   380
1005
16
1001
ACAD_DSTYLE_DIM_EXT1_LINETYPE
1070
   381
1005
16
1001
ACAD_DSTYLE_DIM_EXT2_LINETYPE
1070
   382
1005
16
0
DIMENSION
5
2CE
100
AcDbEntity
8
SK2
62
256
6
ByLayer
370
13
48
1
60
0
100
AcDbDimension
2
_U2
10
2.35
20
66.35
30
0
11
9.55
21
66.35
31
0
70
32
71
1
72
1
41
1
210
0
220
0
230
1
3
Standard
100
AcDbAlignedDimension
13
16.75
23
50
33
0
14
2.35
24
50
34
0
50
0
100
AcDbRotatedDimension
1001
ACAD
1000
DSTYLE
1002
{
1070
   371
1070
    13
1070
   372
1070
    13
1070
   170
1070
     0
1070
   144
1040
1.0
1070
   277
1070
     2
1070
   284
1070
     8
1070
   278
1070
    46
1070
   146
1040
0.875
1070
   345
1005
16
1070
   347
1005
16
1070
   346
1005
16
1070
   344
1005
0
1070
   343
1005
0
1070
   172
1070
     1
1070
    76
1070
     0
1070
    75
1070
     0
1070
   282
1070
     0
1070
   281
1070
     0
1070
    71
1070
     0
1070
    74
1070
     0
1070
   279
1070
     0
1070
   173
1070
     1
1070
   340
1005
271
1070
   271
1070
     2
1070
   272
1070
     2
1070
    77
1070
     1
1070
    73
1070
     1
1070
   171
1070
     3
1070
   274
1070
     4
1070
   177
1070
     2
1070
   176
1070
     2
1070
   178
1070
     2
1070
    78
1070
     8
1070
    48
1040
-0.1
1070
    41
1040
3.5
1070
   147
1040
2.0
1070
    42
1040
1.5875
1070
    44
1040
2.0
1070
   140
1040
4.0
1002
}
1001
ACAD_DSTYLE_DIM_LINETYPE
1070
   380
1005
16
1001
ACAD_DSTYLE_DIM_EXT1_LINETYPE
1070
   381
1005
16
1001
ACAD_DSTYLE_DIM_EXT2_LINETYPE
1070
   382
1005
16
0
ENDSEC
0
SECTION
2
OBJECTS
0
DICTIONARY
5
356
330
0
100
AcDbDictionary
280
0
281
1
3
ACAD_GROUP
350
357
3
ACAD_MLINESTYLE
350
358
0
DICTIONARY
5
357
330
0
100
AcDbDictionary
280
0
281
1
0
DICTIONARY
5
358
330
0
100
AcDbDictionary
280
0
281
1
3
Standard
350
18
0
MLINESTYLE
5
18
330
358
100
AcDbMlineStyle
2
Standard
70
0
3

62
256
51
90
52
90
71
2
49
-0.5
62
256
6
ByLayer
49
0.5
62
256
6
ByLayer
0
RASTERVARIABLES
5
345
330

100
AcDbRasterVariables
90
0
70
1
71
1
72
1
0
ENDSEC
0
EOF
