0
SECTION
2
HEADER
9
$ACADVER
1
AC1015
9
$DWGCODEPAGE
3
ANSI_1252
9
$HANDSEED
5
444
9
$ANGBASE
50
0
9
$ANGDIR
70
0
9
$ATTMODE
70
1
9
$AUNITS
70
0
9
$AUPREC
70
0
9
$CECOLOR
62
256
9
$CELTSCALE
40
1
9
$CELTYPE
6
ByLayer
9
$CELWEIGHT
370
18
9
$CLAYER
8
0
9
$CMLJUST
70
0
9
$CMLSCALE
40
1
9
$CMLSTYLE
2
Standard
9
$DIMSTYLE
2
Standard
9
$TEXTSIZE
40
0.2
9
$TEXTSTYLE
7
Standard
9
$LUNITS
70
2
9
$LUPREC
70
4
9
$EXTNAMES
290
1
9
$INSUNITS
70
4
9
$LTSCALE
40
1
9
$LWDISPLAY
290
1
9
$PDMODE
70
0
9
$PDSIZE
40
0
9
$PLINEGEN
70
0
0
ENDSEC
0
SECTION
2
CLASSES
0
CLASS
1
RASTERVARIABLES
2
AcDbRasterVariables
3
ISM
90
0
280
0
281
0
0
ENDSEC
0
SECTION
2
TABLES
0
TABLE
2
VPORT
5
43a
100
AcDbSymbolTable
0
VPORT
5
1
100
AcDbSymbolTableRecord
100
AcDbViewportTableRecord
2
*Active
70
0
10
0
20
0
11
1
21
1
12
-1
22
1
13
0
23
0
14
0.5
24
0.5
15
10
25
10
16
0
26
0
36
1
17
0
27
0
37
0
0
ENDTAB
0
TABLE
2
LTYPE
5
43b
100
AcDbSymbolTable
0
LTYPE
5
14
100
AcDbSymbolTableRecord
100
AcDbLinetypeTableRecord
70
0
2
ByBlock
3

72
65
73
0
40
0
0
LTYPE
5
15
100
AcDbSymbolTableRecord
100
AcDbLinetypeTableRecord
70
0
2
ByLayer
3

72
65
73
0
40
0
0
LTYPE
5
16
100
AcDbSymbolTableRecord
100
AcDbLinetypeTableRecord
70
0
2
Continuous
3
Solid line
72
65
73
0
40
0
0
LTYPE
5
6E
100
AcDbSymbolTableRecord
100
AcDbLinetypeTableRecord
70
0
2
CENTER
3
____ _ ____ _ ____ _ ____
72
65
73
4
40
47.5
49
22
74
0
49
-8.5
74
0
49
8.5
74
0
49
-8.5
74
0
0
LTYPE
5
6F
100
AcDbSymbolTableRecord
100
AcDbLinetypeTableRecord
70
0
2
DASHED
3
__ __ __ __ __ __ __ __ __
72
65
73
2
40
25.72
49
12.86
74
0
49
-12.86
74
0
0
ENDTAB
0
TABLE
2
LAYER
5
43c
100
AcDbSymbolTable
0
LAYER
5
10
100
AcDbSymbolTableRecord
100
AcDbLayerTableRecord
2
0
70
0
62
7
6
Continuous
290
1
370
-3
390
0
0
LAYER
5
71
100
AcDbSymbolTableRecord
100
AcDbLayerTableRecord
2
80
70
0
62
-6
6
Continuous
290
1
370
-3
390
0
0
LAYER
5
73
100
AcDbSymbolTableRecord
100
AcDbLayerTableRecord
2
81
70
0
62
-3
6
Continuous
290
1
370
-3
390
0
0
LAYER
5
75
100
AcDbSymbolTableRecord
100
AcDbLayerTableRecord
2
1
70
0
62
4
6
Continuous
290
1
370
-3
390
0
0
LAYER
5
226
100
AcDbSymbolTableRecord
100
AcDbLayerTableRecord
2
4
70
0
62
-2
6
CENTER
290
1
370
-3
390
0
0
LAYER
5
244
100
AcDbSymbolTableRecord
100
AcDbLayerTableRecord
2
2
70
0
62
7
6
Continuous
290
1
370
-3
390
0
0
LAYER
5
37D
100
AcDbSymbolTableRecord
100
AcDbLayerTableRecord
2
Defpoints
70
0
62
7
6
Continuous
290
0
370
-3
390
0
0
LAYER
5
427
100
AcDbSymbolTableRecord
100
AcDbLayerTableRecord
2
SK4
70
0
62
2
6
CENTER
290
1
370
-3
390
0
0
LAYER
5
428
100
AcDbSymbolTableRecord
100
AcDbLayerTableRecord
2
SK2
70
0
62
7
6
Continuous
290
1
370
-3
390
0
0
LAYER
5
429
100
AcDbSymbolTableRecord
100
AcDbLayerTableRecord
2
SK6
70
0
62
5
6
Continuous
290
1
370
-3
390
0
0
ENDTAB
0
TABLE
2
STYLE
5
43d
100
AcDbSymbolTable
0
STYLE
5
11
100
AcDbSymbolTableRecord
100
AcDbTextStyleTableRecord
2
Standard
3
txt
70
0
71
0
40
0
41
1
42
0
50
0
0
STYLE
5
352
100
AcDbSymbolTableRecord
100
AcDbTextStyleTableRecord
2
iso_b_vert
3
simplex.shx
70
0
71
0
40
0
41
1
42
0
50
0
0
STYLE
5
353
100
AcDbSymbolTableRecord
100
AcDbTextStyleTableRecord
2
DWGDirectTextStyle
3
simplex
70
0
71
0
40
0
41
1
42
0
50
0
0
ENDTAB
0
TABLE
2
DIMSTYLE
5
43e
100
AcDbSymbolTable
100
AcDbDimStyleTable
0
DIMSTYLE
105
27
100
AcDbSymbolTableRecord
100
AcDbDimStyleTableRecord
2
Standard
70
0
3
<>
41
0.18
42
0.0625
44
0.18
140
0.18
147
0.09
73
0
74
0
77
1
271
2
275
0
278
52
280
0
340
11
0
ENDTAB
0
TABLE
2
VIEW
5
43f
100
AcDbSymbolTable
0
ENDTAB
0
TABLE
2
UCS
5
440
100
AcDbSymbolTable
0
ENDTAB
0
TABLE
2
APPID
5
441
100
AcDbSymbolTable
0
APPID
5
12
100
AcDbSymbolTableRecord
100
AcDbRegAppTableRecord
2
ACAD
70
0
0
APPID
5
379
100
AcDbSymbolTableRecord
100
AcDbRegAppTableRecord
2
ACAD_DSTYLE_DIMBREAK
70
0
0
APPID
5
3E6
100
AcDbSymbolTableRecord
100
AcDbRegAppTableRecord
2
ACAD_DSTYLE_DIM_LINETYPE
70
0
0
APPID
5
3E7
100
AcDbSymbolTableRecord
100
AcDbRegAppTableRecord
2
ACAD_DSTYLE_DIM_EXT1_LINETYPE
70
0
0
APPID
5
3E8
100
AcDbSymbolTableRecord
100
AcDbRegAppTableRecord
2
ACAD_DSTYLE_DIM_EXT2_LINETYPE
70
0
0
APPID
5
423
100
AcDbSymbolTableRecord
100
AcDbRegAppTableRecord
2
ACAD_MLEADERVER
70
0
0
ENDTAB
0
TABLE
2
BLOCK_RECORD
5
442
100
AcDbSymbolTable
0
BLOCK_RECORD
5
1F
100
AcDbSymbolTableRecord
100
AcDbBlockTableRecord
2
*Model_Space
340
0
70
0
0
BLOCK_RECORD
5
1B
100
AcDbSymbolTableRecord
100
AcDbBlockTableRecord
2
*Paper_Space
340
0
70
0
0
BLOCK_RECORD
5
23
100
AcDbSymbolTableRecord
100
AcDbBlockTableRecord
2
*Paper_Space0
340
0
70
0
0
BLOCK_RECORD
5
37E
100
AcDbSymbolTableRecord
100
AcDbBlockTableRecord
2
*D1
340
0
70
0
0
BLOCK_RECORD
5
38C
100
AcDbSymbolTableRecord
100
AcDbBlockTableRecord
2
_U0
340
0
70
0
0
BLOCK_RECORD
5
398
100
AcDbSymbolTableRecord
100
AcDbBlockTableRecord
2
*D3
340
0
70
0
0
BLOCK_RECORD
5
3A6
100
AcDbSymbolTableRecord
100
AcDbBlockTableRecord
2
_U1
340
0
70
0
0
BLOCK_RECORD
5
3B2
100
AcDbSymbolTableRecord
100
AcDbBlockTableRecord
2
*D5
340
0
70
0
0
BLOCK_RECORD
5
3BF
100
AcDbSymbolTableRecord
100
AcDbBlockTableRecord
2
_U2
340
0
70
0
0
ENDTAB
0
ENDSEC
0
SECTION
2
BLOCKS
0
BLOCK
5
20
100
AcDbEntity
8
0
100
AcDbBlockBegin
2
*Model_Space
70
0
10
0
20
0
30
0
3
*Model_Space
0
ENDBLK
5
21
100
AcDbEntity
8
0
100
AcDbBlockEnd
0
BLOCK
5
1C
100
AcDbEntity
8
0
100
AcDbBlockBegin
2
*Paper_Space
70
0
10
0
20
0
30
0
3
*Paper_Space
0
ENDBLK
5
1D
100
AcDbEntity
8
0
100
AcDbBlockEnd
0
BLOCK
5
24
100
AcDbEntity
8
0
100
AcDbBlockBegin
2
*Paper_Space0
70
0
10
0
20
0
30
0
3
*Paper_Space0
0
ENDBLK
5
25
100
AcDbEntity
8
0
100
AcDbBlockEnd
0
BLOCK
5
37F
100
AcDbEntity
8
0
100
AcDbBlockBegin
2
*D1
70
1
10
0
20
0
30
0
3
*D1
0
LINE
5
381
100
AcDbEntity
8
0
62
256
6
ByLayer
370
-2
48
1
60
0
100
AcDbLine
10
14
20
51.5875
30
0
11
14
21
55
31
0
39
0
210
0
220
0
230
1
0
LINE
5
382
100
AcDbEntity
8
0
62
256
6
ByLayer
370
-2
48
1
60
0
100
AcDbLine
10
6.4
20
51.5875
30
0
11
6.4
21
55
31
0
39
0
210
0
220
0
230
1
0
LINE
5
383
100
AcDbEntity
8
0
62
256
6
ByLayer
370
-2
48
1
60
0
100
AcDbLine
10
6.4
20
53
30
0
11
-20.980952
21
53
31
0
39
0
210
0
220
0
230
1
0
LINE
5
384
100
AcDbEntity
8
0
62
256
6
ByLayer
370
-2
48
1
60
0
100
AcDbLine
10
17.5
20
53
30
0
11
21
21
53
31
0
39
0
210
0
220
0
230
1
0
LINE
5
385
100
AcDbEntity
8
0
62
256
6
ByLayer
370
-2
48
1
60
0
100
AcDbLine
10
2.9
20
53
30
0
11
-0.6
21
53
31
0
39
0
210
0
220
0
230
1
0
SOLID
5
386
100
AcDbEntity
8
0
62
256
6
ByLayer
370
-1
48
1
60
0
100
AcDbTrace
10
17.5
20
53.583333
30
0
11
17.5
21
52.416667
31
0
12
14
22
53
32
0
13
14
23
53
33
0
39
0
210
0
220
0
230
1
0
SOLID
5
387
100
AcDbEntity
8
0
62
256
6
ByLayer
370
-1
48
1
60
0
100
AcDbTrace
10
2.9
20
52.416667
30
0
11
2.9
21
53.583333
31
0
12
6.4
22
53
32
0
13
6.4
23
53
33
0
39
0
210
0
220
0
230
1
0
MTEXT
5
388
100
AcDbEntity
8
0
62
256
6
ByLayer
370
18
48
1
60
0
100
AcDbMText
10
-10.790476
20
61
30
0
210
0
220
0
230
1
1
\A1;7.6
40
4
41
0
44
1
50
0
71
5
72
5
7
iso_b_vert
0
POINT
5
389
100
AcDbEntity
8
Defpoints
62
0
6
ByLayer
370
-1
48
1
60
0
100
AcDbPoint
10
14
20
50
30
0
39
0
210
0
220
0
230
1
50
360
0
POINT
5
38A
100
AcDbEntity
8
Defpoints
62
0
6
ByLayer
370
-1
48
1
60
0
100
AcDbPoint
10
6.4
20
50
30
0
39
0
210
0
220
0
230
1
50
360
0
POINT
5
38B
100
AcDbEntity
8
Defpoints
62
0
6
ByLayer
370
-1
48
1
60
0
100
AcDbPoint
10
6.4
20
53
30
0
39
0
210
0
220
0
230
1
50
360
0
ENDBLK
5
380
100
AcDbEntity
8
0
100
AcDbBlockEnd
0
BLOCK
5
393
100
AcDbEntity
8
0
100
AcDbBlockBegin
2
_U0
70
0
10
0
20
0
30
0
3
_U0
0
MTEXT
5
38D
100
AcDbEntity
8
SK2
62
256
6
ByLayer
370
13
48
1
60
0
100
AcDbMText
10
-4.786779
20
54.180153
30
0
210
0
220
0
230
1
1
\W0.7121;7.6
40
4
41
0
44
1.084337
50
0
71
7
72
5
7
iso_b_vert
0
LINE
5
38E
100
AcDbEntity
8
SK2
62
256
6
ByLayer
370
13
48
1
60
0
100
AcDbLine
10
14
20
51.5875
30
0
11
14
21
55
31
0
39
0
210
0
220
0
230
1
0
LINE
5
38F
100
AcDbEntity
8
SK2
62
256
6
ByLayer
370
13
48
1
60
0
100
AcDbLine
10
6.4
20
51.5875
30
0
11
6.4
21
55
31
0
39
0
210
0
220
0
230
1
0
LINE
5
390
100
AcDbEntity
8
SK2
62
256
6
ByLayer
370
13
48
1
60
0
100
AcDbLine
10
14
20
53
30
0
11
-4.998779
21
53
31
0
39
0
210
0
220
0
230
1
0
SOLID
5
391
100
AcDbEntity
8
SK2
62
256
6
ByLayer
370
18
48
1
60
0
100
AcDbTrace
10
14
20
53
30
0
11
10.500002
21
52.539216
31
0
12
10.499998
22
53.460784
32
0
13
10.499998
23
53.460784
33
0
39
0
210
0
220
0
230
1
0
SOLID
5
392
100
AcDbEntity
8
SK2
62
256
6
ByLayer
370
18
48
1
60
0
100
AcDbTrace
10
6.4
20
53
30
0
11
9.899998
21
53.460784
31
0
12
9.900002
22
52.539216
32
0
13
9.900002
23
52.539216
33
0
39
0
210
0
220
0
230
1
0
ENDBLK
5
394
100
AcDbEntity
8
0
100
AcDbBlockEnd
0
BLOCK
5
399
100
AcDbEntity
8
0
100
AcDbBlockBegin
2
*D3
70
1
10
0
20
0
30
0
3
*D3
0
LINE
5
39B
100
AcDbEntity
8
0
62
256
6
ByLayer
370
-2
48
1
60
0
100
AcDbLine
10
0
20
-25.0875
30
0
11
0
21
-66
31
0
39
0
210
0
220
0
230
1
0
LINE
5
39C
100
AcDbEntity
8
0
62
256
6
ByLayer
370
-2
48
1
60
0
100
AcDbLine
10
16
20
-25.0875
30
0
11
16
21
-66
31
0
39
0
210
0
220
0
230
1
0
LINE
5
39D
100
AcDbEntity
8
0
62
256
6
ByLayer
370
-2
48
1
60
0
100
AcDbLine
10
0
20
-64
30
0
11
-29.0632
21
-64
31
0
39
0
210
0
220
0
230
1
0
LINE
5
39E
100
AcDbEntity
8
0
62
256
6
ByLayer
370
-2
48
1
60
0
100
AcDbLine
10
-3.5
20
-64
30
0
11
-7
21
-64
31
0
39
0
210
0
220
0
230
1
0
LINE
5
39F
100
AcDbEntity
8
0
62
256
6
ByLayer
370
-2
48
1
60
0
100
AcDbLine
10
19.5
20
-64
30
0
11
23
21
-64
31
0
39
0
210
0
220
0
230
1
0
SOLID
5
3A0
100
AcDbEntity
8
0
62
256
6
ByLayer
370
-1
48
1
60
0
100
AcDbTrace
10
-3.5
20
-64.583333
30
0
11
-3.5
21
-63.416667
31
0
12
0
22
-64
32
0
13
0
23
-64
33
0
39
0
210
0
220
0
230
1
0
SOLID
5
3A1
100
AcDbEntity
8
0
62
256
6
ByLayer
370
-1
48
1
60
0
100
AcDbTrace
10
19.5
20
-63.416667
30
0
11
19.5
21
-64.583333
31
0
12
16
22
-64
32
0
13
16
23
-64
33
0
39
0
210
0
220
0
230
1
0
MTEXT
5
3A2
100
AcDbEntity
8
0
62
256
6
ByLayer
370
18
48
1
60
0
100
AcDbMText
10
-20.110819
20
-56
30
0
210
0
220
0
230
1
1
\A1;16
40
4
41
0
44
1
50
0
71
5
72
5
7
iso_b_vert
0
POINT
5
3A3
100
AcDbEntity
8
Defpoints
62
0
6
ByLayer
370
-1
48
1
60
0
100
AcDbPoint
10
0
20
-23.5
30
0
39
0
210
0
220
0
230
1
50
360
0
POINT
5
3A4
100
AcDbEntity
8
Defpoints
62
0
6
ByLayer
370
-1
48
1
60
0
100
AcDbPoint
10
16
20
-23.5
30
0
39
0
210
0
220
0
230
1
50
360
0
POINT
5
3A5
100
AcDbEntity
8
Defpoints
62
0
6
ByLayer
370
-1
48
1
60
0
100
AcDbPoint
10
16
20
-64
30
0
39
0
210
0
220
0
230
1
50
360
0
ENDBLK
5
39A
100
AcDbEntity
8
0
100
AcDbBlockEnd
0
BLOCK
5
3AD
100
AcDbEntity
8
0
100
AcDbBlockBegin
2
_U1
70
0
10
0
20
0
30
0
3
_U1
0
MTEXT
5
3A7
100
AcDbEntity
8
SK2
62
256
6
ByLayer
370
13
48
1
60
0
100
AcDbMText
10
-21.788
20
-62.819847
30
0
210
0
220
0
230
1
1
\W0.5321;16
40
4
41
0
44
1.084337
50
0
71
7
72
5
7
iso_b_vert
0
LINE
5
3A8
100
AcDbEntity
8
SK2
62
256
6
ByLayer
370
13
48
1
60
0
100
AcDbLine
10
0
20
-25.0875
30
0
11
0
21
-66
31
0
39
0
210
0
220
0
230
1
0
LINE
5
3A9
100
AcDbEntity
8
SK2
62
256
6
ByLayer
370
13
48
1
60
0
100
AcDbLine
10
16
20
-25.0875
30
0
11
16
21
-66
31
0
39
0
210
0
220
0
230
1
0
LINE
5
3AA
100
AcDbEntity
8
SK2
62
256
6
ByLayer
370
13
48
1
60
0
100
AcDbLine
10
16
20
-64
30
0
11
-22
21
-64
31
0
39
0
210
0
220
0
230
1
0
SOLID
5
3AB
100
AcDbEntity
8
SK2
62
256
6
ByLayer
370
18
48
1
60
0
100
AcDbTrace
10
0
20
-64
30
0
11
3.499998
21
-63.539216
31
0
12
3.500002
22
-64.460784
32
0
13
3.500002
23
-64.460784
33
0
39
0
210
0
220
0
230
1
0
SOLID
5
3AC
100
AcDbEntity
8
SK2
62
256
6
ByLayer
370
18
48
1
60
0
100
AcDbTrace
10
16
20
-64
30
0
11
12.500002
21
-64.460784
31
0
12
12.499998
22
-63.539216
32
0
13
12.499998
23
-63.539216
33
0
39
0
210
0
220
0
230
1
0
ENDBLK
5
3AE
100
AcDbEntity
8
0
100
AcDbBlockEnd
0
BLOCK
5
3B3
100
AcDbEntity
8
0
100
AcDbBlockBegin
2
*D5
70
1
10
0
20
0
30
0
3
*D5
0
LINE
5
3B5
100
AcDbEntity
8
0
62
256
6
ByLayer
370
-2
48
1
60
0
100
AcDbLine
10
14
20
51.5875
30
0
11
14
21
68.35
31
0
39
0
210
0
220
0
230
1
0
LINE
5
3B6
100
AcDbEntity
8
0
62
256
6
ByLayer
370
-2
48
1
60
0
100
AcDbLine
10
2.5
20
51.5875
30
0
11
2.5
21
68.35
31
0
39
0
210
0
220
0
230
1
0
LINE
5
3B7
100
AcDbEntity
8
0
62
256
6
ByLayer
370
-2
48
1
60
0
100
AcDbLine
10
17.5
20
66.35
30
0
11
21
21
66.35
31
0
39
0
210
0
220
0
230
1
0
LINE
5
3B8
100
AcDbEntity
8
0
62
256
6
ByLayer
370
-2
48
1
60
0
100
AcDbLine
10
-1
20
66.35
30
0
11
-4.5
21
66.35
31
0
39
0
210
0
220
0
230
1
0
SOLID
5
3B9
100
AcDbEntity
8
0
62
256
6
ByLayer
370
-1
48
1
60
0
100
AcDbTrace
10
17.5
20
66.933333
30
0
11
17.5
21
65.766667
31
0
12
14
22
66.35
32
0
13
14
23
66.35
33
0
39
0
210
0
220
0
230
1
0
SOLID
5
3BA
100
AcDbEntity
8
0
62
256
6
ByLayer
370
-1
48
1
60
0
100
AcDbTrace
10
-1
20
65.766667
30
0
11
-1
21
66.933333
31
0
12
2.5
22
66.35
32
0
13
2.5
23
66.35
33
0
39
0
210
0
220
0
230
1
0
MTEXT
5
3BB
100
AcDbEntity
8
0
62
256
6
ByLayer
370
18
48
1
60
0
100
AcDbMText
10
8.25
20
74.35
30
0
210
0
220
0
230
1
1
\A1;11.5
40
4
41
0
44
1
50
0
71
5
72
5
7
iso_b_vert
0
POINT
5
3BC
100
AcDbEntity
8
Defpoints
62
0
6
ByLayer
370
-1
48
1
60
0
100
AcDbPoint
10
14
20
50
30
0
39
0
210
0
220
0
230
1
50
360
0
POINT
5
3BD
100
AcDbEntity
8
Defpoints
62
0
6
ByLayer
370
-1
48
1
60
0
100
AcDbPoint
10
2.5
20
50
30
0
39
0
210
0
220
0
230
1
50
360
0
POINT
5
3BE
100
AcDbEntity
8
Defpoints
62
0
6
ByLayer
370
-1
48
1
60
0
100
AcDbPoint
10
2.5
20
66.35
30
0
39
0
210
0
220
0
230
1
50
360
0
ENDBLK
5
3B4
100
AcDbEntity
8
0
100
AcDbBlockEnd
0
BLOCK
5
3C6
100
AcDbEntity
8
0
100
AcDbBlockBegin
2
_U2
70
0
10
0
20
0
30
0
3
_U2
0
MTEXT
5
3C0
100
AcDbEntity
8
SK2
62
256
6
ByLayer
370
13
48
1
60
0
100
AcDbMText
10
4.767906
20
67.530153
30
0
210
0
220
0
230
1
1
\W0.5779;11.5
40
4
41
0
44
1.084337
50
0
71
7
72
5
7
iso_b_vert
0
LINE
5
3C1
100
AcDbEntity
8
SK2
62
256
6
ByLayer
370
13
48
1
60
0
100
AcDbLine
10
14
20
51.5875
30
0
11
14
21
68.35
31
0
39
0
210
0
220
0
230
1
0
LINE
5
3C2
100
AcDbEntity
8
SK2
62
256
6
ByLayer
370
13
48
1
60
0
100
AcDbLine
10
2.5
20
51.5875
30
0
11
2.5
21
68.35
31
0
39
0
210
0
220
0
230
1
0
LINE
5
3C3
100
AcDbEntity
8
SK2
62
256
6
ByLayer
370
13
48
1
60
0
100
AcDbLine
10
14
20
66.35
30
0
11
2.5
21
66.35
31
0
39
0
210
0
220
0
230
1
0
SOLID
5
3C4
100
AcDbEntity
8
SK2
62
256
6
ByLayer
370
18
48
1
60
0
100
AcDbTrace
10
14
20
66.35
30
0
11
10.500002
21
65.889216
31
0
12
10.499998
22
66.810784
32
0
13
10.499998
23
66.810784
33
0
39
0
210
0
220
0
230
1
0
SOLID
5
3C5
100
AcDbEntity
8
SK2
62
256
6
ByLayer
370
18
48
1
60
0
100
AcDbTrace
10
2.5
20
66.35
30
0
11
5.999998
21
66.810784
31
0
12
6.000002
22
65.889216
32
0
13
6.000002
23
65.889216
33
0
39
0
210
0
220
0
230
1
0
ENDBLK
5
3C7
100
AcDbEntity
8
0
100
AcDbBlockEnd
0
ENDSEC
0
SECTION
2
ENTITIES
0
ARC
5
25F
100
AcDbEntity
8
1
62
256
6
ByLayer
370
18
48
1
60
0
100
AcDbCircle
39
0
10
14.3
20
-24.3
30
0
40
0.8
210
0
220
0
230
1
100
AcDbArc
50
90
51
180
0
ARC
5
260
100
AcDbEntity
8
1
62
256
6
ByLayer
370
18
48
1
60
0
100
AcDbCircle
39
0
10
14.3
20
24.3
30
0
40
0.8
210
0
220
0
230
1
100
AcDbArc
50
180
51
270
0
ARC
5
261
100
AcDbEntity
8
1
62
256
6
ByLayer
370
18
48
1
60
0
100
AcDbCircle
39
0
10
1.7
20
24.3
30
0
40
0.8
210
0
220
0
230
1
100
AcDbArc
50
270
51
0
0
ARC
5
262
100
AcDbEntity
8
1
62
256
6
ByLayer
370
18
48
1
60
0
100
AcDbCircle
39
0
10
1.7
20
-24.3
30
0
40
0.8
210
0
220
0
230
1
100
AcDbArc
50
0
51
90
0
ELLIPSE
5
263
100
AcDbEntity
8
1
62
256
6
ByLayer
370
18
48
1
60
0
100
AcDbEllipse
10
8
20
-1.099841
30
0
11
-3
21
3.67381906146713E-16
31
0
210
0
220
0
230
1
40
0.953717
41
-2.32909833605171
42
-1.84067891008472
0
ELLIPSE
5
264
100
AcDbEntity
8
1
62
256
6
ByLayer
370
18
48
1
60
0
100
AcDbEllipse
10
13.21502
20
-44.880888
30
0
11
0.017543690881842
21
0.149865587762546
31
0
210
0
220
0
230
1
40
0.361878
41
0.836461919668159
42
1.88365947086452
0
ELLIPSE
5
265
100
AcDbEntity
8
1
62
256
6
ByLayer
370
18
48
1
60
0
100
AcDbEllipse
10
13.21502
20
-45.102359
30
0
11
0.0175436908818387
21
0.149865587762569
31
0
210
0
220
0
230
1
40
0.361878
41
1.88365947086467
42
2.93085702206131
0
ELLIPSE
5
266
100
AcDbEntity
8
1
62
256
6
ByLayer
370
18
48
1
60
0
100
AcDbEllipse
10
13.38982
20
-45.591416
30
0
11
0.0198828496660662
21
0.169847666130883
31
0
210
0
220
0
230
1
40
0.361878
41
-2.30513073392192
42
-0.210735631528704
0
ELLIPSE
5
267
100
AcDbEntity
8
1
62
256
6
ByLayer
370
18
48
1
60
0
100
AcDbEllipse
10
13.21502
20
-46.326334
30
0
11
0.0175436908818216
21
0.14986558776226
31
0
210
0
220
0
230
1
40
0.361878
41
0.836461919666772
42
1.88365947086543
0
ELLIPSE
5
268
100
AcDbEntity
8
1
62
256
6
ByLayer
370
18
48
1
60
0
100
AcDbEllipse
10
13.21502
20
-46.547804
30
0
11
0.0175436908821549
21
0.149865587763283
31
0
210
0
220
0
230
1
40
0.361878
41
1.88365947086867
42
2.93085702206157
0
ELLIPSE
5
269
100
AcDbEntity
8
1
62
256
6
ByLayer
370
18
48
1
60
0
100
AcDbEllipse
10
2.78498
20
-46.547804
30
0
11
0.0175436908818589
21
-0.149865587762619
31
0
210
0
220
0
230
1
40
0.361878
41
0.210735631528811
42
1.25793318272503
0
ELLIPSE
5
26A
100
AcDbEntity
8
1
62
256
6
ByLayer
370
18
48
1
60
0
100
AcDbEllipse
10
2.78498
20
-46.326334
30
0
11
0.0175436908818252
21
-0.149865587763205
31
0
210
0
220
0
230
1
40
0.361878
41
1.25793318272817
42
2.30513073391984
0
ELLIPSE
5
26B
100
AcDbEntity
8
1
62
256
6
ByLayer
370
18
48
1
60
0
100
AcDbEllipse
10
2.61018
20
-45.591416
30
0
11
0.0198828496660619
21
-0.16984766613087
31
0
210
0
220
0
230
1
40
0.361878
41
-2.93085702206119
42
-0.83646191966761
0
ELLIPSE
5
26C
100
AcDbEntity
8
1
62
256
6
ByLayer
370
18
48
1
60
0
100
AcDbEllipse
10
2.78498
20
-45.102359
30
0
11
0.0175436908816811
21
-0.149865587762196
31
0
210
0
220
0
230
1
40
0.361878
41
0.21073563152957
42
1.25793318272735
0
ELLIPSE
5
26D
100
AcDbEntity
8
1
62
256
6
ByLayer
370
18
48
1
60
0
100
AcDbEllipse
10
2.78498
20
-44.880888
30
0
11
0.0175436908818232
21
-0.149865587762314
31
0
210
0
220
0
230
1
40
0.361878
41
1.25793318272443
42
2.30513073392282
0
ELLIPSE
5
26E
100
AcDbEntity
8
1
62
256
6
ByLayer
370
18
48
1
60
0
100
AcDbEllipse
10
2.61018
20
-44.145971
30
0
11
0.0198828496660781
21
-0.169847666130893
31
0
210
0
220
0
230
1
40
0.361878
41
-1.71748119570695
42
-0.836461919667957
0
ELLIPSE
5
26F
100
AcDbEntity
8
1
62
256
6
ByLayer
370
18
48
1
60
0
100
AcDbEllipse
10
2.604093
20
-25.77355
30
0
11
0.190579865541824
21
-0.387797366754856
31
0
210
0
220
0
230
1
40
0.514466
41
0.808283465563923
42
2.37907979235874
0
ELLIPSE
5
270
100
AcDbEntity
8
1
62
256
6
ByLayer
370
18
48
1
60
0
100
AcDbEllipse
10
13.395907
20
-25.77355
30
0
11
0.190579865541751
21
0.387797366754704
31
0
210
0
220
0
230
1
40
0.514466
41
0.762512861230654
42
2.33330918802629
0
ELLIPSE
5
271
100
AcDbEntity
8
1
62
256
6
ByLayer
370
13
48
1
60
0
100
AcDbEllipse
10
10.3
20
37.34128
30
0
11
-1.4
21
1.71444889535133E-16
31
0
210
0
220
0
230
1
40
0.413382
41
3.14159265358979
42
-2.33444881767355
0
ELLIPSE
5
272
100
AcDbEntity
8
1
62
256
6
ByLayer
370
18
48
1
60
0
100
AcDbEllipse
10
10.3
20
37.34128
30
0
11
-1.4
21
1.71444889535133E-16
31
0
210
0
220
0
230
1
40
0.413382
41
-2.33444913995386
42
-0.754669700358332
0
ELLIPSE
5
273
100
AcDbEntity
8
1
62
256
6
ByLayer
370
13
48
1
60
0
100
AcDbEllipse
10
10.3
20
37.34128
30
0
11
-1.4
21
1.71444889535133E-16
31
0
210
0
220
0
230
1
40
0.413382
41
-0.754669700358333
42
0
0
ELLIPSE
5
274
100
AcDbEntity
8
1
62
256
6
ByLayer
370
18
48
1
60
0
100
AcDbEllipse
10
10.3
20
37.34128
30
0
11
-1
21
1.22460635382238E-16
31
0
210
0
220
0
230
1
40
0.413382
41
0
42
6.28318530717959
0
ELLIPSE
5
275
100
AcDbEntity
8
1
62
256
6
ByLayer
370
13
48
1
60
0
100
AcDbEllipse
10
10.3
20
37.432336
30
0
11
1.5
21
0
31
0
210
0
220
0
230
1
40
0.413382
41
0
42
-3.14159265358978
0
ELLIPSE
5
276
100
AcDbEntity
8
1
62
256
6
ByLayer
370
13
48
1
60
0
100
AcDbEllipse
10
8.9
20
37.432336
30
0
11
0.1
21
0
31
0
210
0
220
0
230
1
40
0.910558
41
3.14159265358979
42
-1.5707963267949
0
ELLIPSE
5
277
100
AcDbEntity
8
1
62
256
6
ByLayer
370
18
48
1
60
0
100
AcDbEllipse
10
8
20
-22.576522
30
0
11
2.4
21
0
31
0
210
0
220
0
230
1
40
0.492424
41
-2.52053879559562
42
-0.62115176538
0
ELLIPSE
5
278
100
AcDbEntity
8
1
62
256
6
ByLayer
370
13
48
1
60
0
100
AcDbEllipse
10
11.7
20
37.432336
30
0
11
-0.1
21
1.22460635382238E-17
31
0
210
0
220
0
230
1
40
0.910558
41
1.5707963267949
42
3.14159265358979
0
ELLIPSE
5
279
100
AcDbEntity
8
1
62
256
6
ByLayer
370
18
48
1
60
0
100
AcDbEllipse
10
8
20
-24.317233
30
0
11
-2.4
21
2.93905524917371E-16
31
0
210
0
220
0
230
1
40
0.492424
41
1.925680029637
42
-2.85875899186691
0
ELLIPSE
5
27A
100
AcDbEntity
8
1
62
256
6
ByLayer
370
18
48
1
60
0
100
AcDbEllipse
10
8
20
-24.317233
30
0
11
-2.4
21
2.93905524917371E-16
31
0
210
0
220
0
230
1
40
0.492424
41
-0.28283366172288
42
1.2159126239528
0
ELLIPSE
5
27B
100
AcDbEntity
8
1
62
256
6
ByLayer
370
18
48
1
60
0
100
AcDbEllipse
10
8
20
-0.102982
30
0
11
-2.5
21
3.06151588455594E-16
31
0
210
0
220
0
230
1
40
0.953717
41
-1.89652581408953
42
-0.518936821264363
0
ELLIPSE
5
27C
100
AcDbEntity
8
1
62
256
6
ByLayer
370
18
48
1
60
0
100
AcDbEllipse
10
8
20
0.197724
30
0
11
2.5
21
0
31
0
210
0
220
0
230
1
40
0.953717
41
1.24506683950027
42
2.71317701737363
0
ELLIPSE
5
27D
100
AcDbEntity
8
1
62
256
6
ByLayer
370
18
48
1
60
0
100
AcDbEllipse
10
8
20
-18.519507
30
0
11
2.99999999999999
21
0
31
0
210
0
220
0
230
1
40
0.887011
41
-2.76342345546047
42
-0.37826727054083
0
ELLIPSE
5
27E
100
AcDbEntity
8
1
62
256
6
ByLayer
370
18
48
1
60
0
100
AcDbEllipse
10
8
20
-24.653801
30
0
11
2.4
21
2.81149287499806E-15
31
0
210
0
220
0
230
1
40
0.994924
41
0.28283366172288
42
2.85875899186691
0
ELLIPSE
5
27F
100
AcDbEntity
8
1
62
256
6
ByLayer
370
18
48
1
60
0
100
AcDbEllipse
10
2.78498
20
-40.444932
30
0
11
0.0313011204098035
21
0.149668795584198
31
0
210
0
220
0
230
1
40
0.31828
41
-0.989458529743852
42
0.0577390214472363
0
ELLIPSE
5
280
100
AcDbEntity
8
1
62
256
6
ByLayer
370
18
48
1
60
0
100
AcDbEllipse
10
2.61018
20
-40.118697
30
0
11
0.0354746031305029
21
0.169624634993935
31
0
210
0
220
0
230
1
40
0.31828
41
1.10493657264388
42
-3.08385363214254
0
ELLIPSE
5
281
100
AcDbEntity
8
1
62
256
6
ByLayer
370
18
48
1
60
0
100
AcDbEllipse
10
2.78498
20
-39.339432
30
0
11
0.0313011204094835
21
0.149668795583642
31
0
210
0
220
0
230
1
40
0.31828
41
-2.03665608094201
42
-0.98945852975152
0
ELLIPSE
5
282
100
AcDbEntity
8
1
62
256
6
ByLayer
370
18
48
1
60
0
100
AcDbEllipse
10
2.78498
20
-39.139399
30
0
11
0.0313011204094667
21
0.149668795583352
31
0
210
0
220
0
230
1
40
0.31828
41
-0.98945852974728
42
0.0577390214474292
0
ELLIPSE
5
283
100
AcDbEntity
8
1
62
256
6
ByLayer
370
18
48
1
60
0
100
AcDbEllipse
10
2.61018
20
-38.813164
30
0
11
0.0354746031305097
21
0.169624634993945
31
0
210
0
220
0
230
1
40
0.31828
41
1.10493657264406
42
-3.08385363214241
0
ELLIPSE
5
284
100
AcDbEntity
8
1
62
256
6
ByLayer
370
18
48
1
60
0
100
AcDbEllipse
10
2.78498
20
-38.033899
30
0
11
0.0313011204092
21
0.149668795582652
31
0
210
0
220
0
230
1
40
0.31828
41
-2.0366560809469
42
-0.98945852974873
0
ELLIPSE
5
285
100
AcDbEntity
8
1
62
256
6
ByLayer
370
18
48
1
60
0
100
AcDbEllipse
10
2.78498
20
-37.833865
30
0
11
0.0313011204095869
21
0.149668795583609
31
0
210
0
220
0
230
1
40
0.31828
41
-0.989458529746138
42
0.0577390214471786
0
ELLIPSE
5
286
100
AcDbEntity
8
1
62
256
6
ByLayer
370
18
48
1
60
0
100
AcDbEllipse
10
2.61018
20
-37.50763
30
0
11
0.0354746031305183
21
0.169624634993953
31
0
210
0
220
0
230
1
40
0.31828
41
1.1049365726442
42
-3.08385363214254
0
ELLIPSE
5
287
100
AcDbEntity
8
1
62
256
6
ByLayer
370
18
48
1
60
0
100
AcDbEllipse
10
2.78498
20
-36.728365
30
0
11
0.0313011204094159
21
0.149668795583577
31
0
210
0
220
0
230
1
40
0.31828
41
-2.0366560809433
42
-0.989458529752292
0
ELLIPSE
5
288
100
AcDbEntity
8
1
62
256
6
ByLayer
370
18
48
1
60
0
100
AcDbEllipse
10
2.78498
20
-36.528332
30
0
11
0.0313011204097494
21
0.149668795584096
31
0
210
0
220
0
230
1
40
0.31828
41
-0.989458529744216
42
0.0577390214474244
0
ELLIPSE
5
289
100
AcDbEntity
8
1
62
256
6
ByLayer
370
18
48
1
60
0
100
AcDbEllipse
10
2.61018
20
-36.202097
30
0
11
0.0354746031305329
21
0.169624634993978
31
0
210
0
220
0
230
1
40
0.31828
41
1.10493657264433
42
-3.08385363214255
0
ELLIPSE
5
28A
100
AcDbEntity
8
1
62
256
6
ByLayer
370
18
48
1
60
0
100
AcDbEllipse
10
2.78498
20
-35.422832
30
0
11
0.0313011204094178
21
0.149668795583379
31
0
210
0
220
0
230
1
40
0.31828
41
-2.03665608094305
42
-0.989458529750534
0
ELLIPSE
5
28B
100
AcDbEntity
8
1
62
256
6
ByLayer
370
18
48
1
60
0
100
AcDbEllipse
10
2.78498
20
-35.222798
30
0
11
0.0313011204090967
21
0.149668795582451
31
0
210
0
220
0
230
1
40
0.31828
41
-0.989458529751138
42
0.0577390214473525
0
ELLIPSE
5
28C
100
AcDbEntity
8
1
62
256
6
ByLayer
370
18
48
1
60
0
100
AcDbEllipse
10
2.61018
20
-34.896563
30
0
11
0.0354746031305103
21
0.169624634993945
31
0
210
0
220
0
230
1
40
0.31828
41
1.10493657264404
42
-3.08385363214241
0
ELLIPSE
5
28D
100
AcDbEntity
8
1
62
256
6
ByLayer
370
18
48
1
60
0
100
AcDbEllipse
10
2.78498
20
-34.117298
30
0
11
0.0313011204091787
21
0.149668795582568
31
0
210
0
220
0
230
1
40
0.31828
41
-2.0366560809472
42
-0.98945852974849
0
ELLIPSE
5
28E
100
AcDbEntity
8
1
62
256
6
ByLayer
370
18
48
1
60
0
100
AcDbEllipse
10
2.78498
20
-33.917265
30
0
11
0.0313011204090813
21
0.149668795582479
31
0
210
0
220
0
230
1
40
0.31828
41
-0.989458529750971
42
0.0577390214474895
0
ELLIPSE
5
28F
100
AcDbEntity
8
1
62
256
6
ByLayer
370
18
48
1
60
0
100
AcDbEllipse
10
2.61018
20
-33.59103
30
0
11
0.0354746031304948
21
0.169624634993923
31
0
210
0
220
0
230
1
40
0.31828
41
1.10493657264377
42
-3.08385363214227
0
ELLIPSE
5
290
100
AcDbEntity
8
1
62
256
6
ByLayer
370
18
48
1
60
0
100
AcDbEllipse
10
2.78498
20
-32.811765
30
0
11
0.03130112040921
21
0.149668795582618
31
0
210
0
220
0
230
1
40
0.31828
41
-2.03665608094659
42
-0.989458529748223
0
ELLIPSE
5
291
100
AcDbEntity
8
1
62
256
6
ByLayer
370
18
48
1
60
0
100
AcDbEllipse
10
2.78498
20
-32.611731
30
0
11
0.0313011204097161
21
0.149668795584016
31
0
210
0
220
0
230
1
40
0.31828
41
-0.989458529744541
42
0.0577390214474566
0
ELLIPSE
5
292
100
AcDbEntity
8
1
62
256
6
ByLayer
370
18
48
1
60
0
100
AcDbEllipse
10
2.61018
20
-32.285496
30
0
11
0.0354746031305013
21
0.169624634993927
31
0
210
0
220
0
230
1
40
0.31828
41
1.10493657264381
42
-3.08385363214241
0
ELLIPSE
5
293
100
AcDbEntity
8
1
62
256
6
ByLayer
370
18
48
1
60
0
100
AcDbEllipse
10
2.78498
20
-31.506231
30
0
11
0.0313011204091338
21
0.149668795582442
31
0
210
0
220
0
230
1
40
0.31828
41
-2.03665608094804
42
-0.98945852974829
0
ELLIPSE
5
294
100
AcDbEntity
8
1
62
256
6
ByLayer
370
18
48
1
60
0
100
AcDbEllipse
10
2.78498
20
-31.306198
30
0
11
0.0313011204098954
21
0.149668795584413
31
0
210
0
220
0
230
1
40
0.31828
41
-0.989458529742925
42
0.0577390214472959
0
ELLIPSE
5
295
100
AcDbEntity
8
1
62
256
6
ByLayer
370
18
48
1
60
0
100
AcDbEllipse
10
2.61018
20
-30.979962
30
0
11
0.0354746031305099
21
0.16962463499394
31
0
210
0
220
0
230
1
40
0.31828
41
1.104936572644
42
-3.08385363214241
0
ELLIPSE
5
296
100
AcDbEntity
8
1
62
256
6
ByLayer
370
18
48
1
60
0
100
AcDbEllipse
10
2.78498
20
-30.200697
30
0
11
0.0313011204091607
21
0.149668795582575
31
0
210
0
220
0
230
1
40
0.31828
41
-2.03665608094764
42
-0.989458529748815
0
ELLIPSE
5
297
100
AcDbEntity
8
1
62
256
6
ByLayer
370
18
48
1
60
0
100
AcDbEllipse
10
2.78498
20
-30.000664
30
0
11
0.0313011204094412
21
0.149668795583291
31
0
210
0
220
0
230
1
40
0.31828
41
-0.989458529747505
42
0.0577390214473805
0
ELLIPSE
5
298
100
AcDbEntity
8
1
62
256
6
ByLayer
370
18
48
1
60
0
100
AcDbEllipse
10
2.61018
20
-29.674429
30
0
11
0.0354746031305118
21
0.169624634993945
31
0
210
0
220
0
230
1
40
0.31828
41
1.10493657264405
42
-3.08385363214254
0
ELLIPSE
5
299
100
AcDbEntity
8
1
62
256
6
ByLayer
370
18
48
1
60
0
100
AcDbEllipse
10
2.78498
20
-28.895164
30
0
11
0.0313011204093569
21
0.149668795583198
31
0
210
0
220
0
230
1
40
0.31828
41
-2.03665608094419
42
-0.989458529750168
0
ELLIPSE
5
29A
100
AcDbEntity
8
1
62
256
6
ByLayer
370
18
48
1
60
0
100
AcDbEllipse
10
2.78498
20
-28.695131
30
0
11
0.0313011204093125
21
0.149668795582956
31
0
210
0
220
0
230
1
40
0.31828
41
-0.989458529748917
42
0.0577390214472951
0
ELLIPSE
5
29B
100
AcDbEntity
8
1
62
256
6
ByLayer
370
18
48
1
60
0
100
AcDbEllipse
10
2.61018
20
-28.368895
30
0
11
0.0354746031304965
21
0.169624634993923
31
0
210
0
220
0
230
1
40
0.31828
41
1.10493657264378
42
-3.08385363214247
0
ELLIPSE
5
29C
100
AcDbEntity
8
1
62
256
6
ByLayer
370
18
48
1
60
0
100
AcDbEllipse
10
2.78498
20
-27.58963
30
0
11
0.0313011204092908
21
0.149668795582934
31
0
210
0
220
0
230
1
40
0.31828
41
-2.03665608094523
42
-0.98945852974928
0
ELLIPSE
5
29D
100
AcDbEntity
8
1
62
256
6
ByLayer
370
18
48
1
60
0
100
AcDbEllipse
10
2.78498
20
-27.389597
30
0
11
0.0313011204097782
21
0.149668795584126
31
0
210
0
220
0
230
1
40
0.31828
41
-0.989458529744107
42
0.0577390214471917
0
ELLIPSE
5
29E
100
AcDbEntity
8
1
62
256
6
ByLayer
370
18
48
1
60
0
100
AcDbEllipse
10
2.61018
20
-27.063362
30
0
11
0.0354746031305101
21
0.16962463499394
31
0
210
0
220
0
230
1
40
0.31828
41
1.10493657264401
42
-3.08385363214254
0
ELLIPSE
5
29F
100
AcDbEntity
8
1
62
256
6
ByLayer
370
18
48
1
60
0
100
AcDbEllipse
10
13.38982
20
-27.063362
30
0
11
0.0354746031304984
21
-0.169624634993925
31
0
210
0
220
0
230
1
40
0.31828
41
-0.0577390214470665
42
2.03665608094599
0
ELLIPSE
5
2A0
100
AcDbEntity
8
1
62
256
6
ByLayer
370
18
48
1
60
0
100
AcDbEllipse
10
13.21502
20
-27.389597
30
0
11
0.0313011204091112
21
-0.149668795582401
31
0
210
0
220
0
230
1
40
0.31828
41
3.08385363214264
42
-2.15213412383852
0
ELLIPSE
5
2A1
100
AcDbEntity
8
1
62
256
6
ByLayer
370
18
48
1
60
0
100
AcDbEllipse
10
13.21502
20
-27.58963
30
0
11
0.0313011204091786
21
-0.149668795582711
31
0
210
0
220
0
230
1
40
0.31828
41
-2.15213412384011
42
-1.10493657264227
0
ELLIPSE
5
2A2
100
AcDbEntity
8
1
62
256
6
ByLayer
370
18
48
1
60
0
100
AcDbEllipse
10
13.38982
20
-28.368895
30
0
11
0.0354746031304937
21
-0.16962463499392
31
0
210
0
220
0
230
1
40
0.31828
41
-0.0577390214470683
42
2.03665608094607
0
ELLIPSE
5
2A3
100
AcDbEntity
8
1
62
256
6
ByLayer
370
18
48
1
60
0
100
AcDbEllipse
10
13.21502
20
-28.695131
30
0
11
0.0313011204094078
21
-0.149668795583213
31
0
210
0
220
0
230
1
40
0.31828
41
3.08385363214253
42
-2.15213412384189
0
ELLIPSE
5
2A4
100
AcDbEntity
8
1
62
256
6
ByLayer
370
18
48
1
60
0
100
AcDbEllipse
10
13.21502
20
-28.895164
30
0
11
0.0313011204093807
21
-0.149668795583185
31
0
210
0
220
0
230
1
40
0.31828
41
-2.15213412384019
42
-1.10493657264596
0
ELLIPSE
5
2A5
100
AcDbEntity
8
1
62
256
6
ByLayer
370
18
48
1
60
0
100
AcDbEllipse
10
13.38982
20
-29.674429
30
0
11
0.0354746031305171
21
-0.169624634993949
31
0
210
0
220
0
230
1
40
0.31828
41
-0.0577390214469927
42
2.03665608094566
0
ELLIPSE
5
2A6
100
AcDbEntity
8
1
62
256
6
ByLayer
370
18
48
1
60
0
100
AcDbEllipse
10
13.21502
20
-30.000664
30
0
11
0.0313011204097434
21
-0.149668795584032
31
0
210
0
220
0
230
1
40
0.31828
41
3.08385363214264
42
-2.15213412384536
0
ELLIPSE
5
2A7
100
AcDbEntity
8
1
62
256
6
ByLayer
370
18
48
1
60
0
100
AcDbEllipse
10
13.21502
20
-30.200697
30
0
11
0.0313011204094631
21
-0.149668795583516
31
0
210
0
220
0
230
1
40
0.31828
41
-2.15213412383898
42
-1.10493657264735
0
ELLIPSE
5
2A8
100
AcDbEntity
8
1
62
256
6
ByLayer
370
18
48
1
60
0
100
AcDbEllipse
10
13.38982
20
-30.979962
30
0
11
0.0354746031304986
21
-0.16962463499392
31
0
210
0
220
0
230
1
40
0.31828
41
-0.0577390214470034
42
2.03665608094599
0
ELLIPSE
5
2A9
100
AcDbEntity
8
1
62
256
6
ByLayer
370
18
48
1
60
0
100
AcDbEllipse
10
13.21502
20
-31.306198
30
0
11
0.0313011204088483
21
-0.149668795581789
31
0
210
0
220
0
230
1
40
0.31828
41
3.08385363214254
42
-2.15213412383605
0
ELLIPSE
5
2AA
100
AcDbEntity
8
1
62
256
6
ByLayer
370
18
48
1
60
0
100
AcDbEllipse
10
13.21502
20
-31.506231
30
0
11
0.0313011204092883
21
-0.149668795582931
31
0
210
0
220
0
230
1
40
0.31828
41
-2.15213412384048
42
-1.10493657264426
0
ELLIPSE
5
2AB
100
AcDbEntity
8
1
62
256
6
ByLayer
370
18
48
1
60
0
100
AcDbEllipse
10
13.38982
20
-32.285496
30
0
11
0.0354746031304807
21
-0.169624634993894
31
0
210
0
220
0
230
1
40
0.31828
41
-0.0577390214470134
42
2.03665608094627
0
ELLIPSE
5
2AC
100
AcDbEntity
8
1
62
256
6
ByLayer
370
18
48
1
60
0
100
AcDbEllipse
10
13.21502
20
-32.611731
30
0
11
0.0313011204090391
21
-0.149668795582304
31
0
210
0
220
0
230
1
40
0.31828
41
3.08385363214253
42
-2.15213412383812
0
ELLIPSE
5
2AD
100
AcDbEntity
8
1
62
256
6
ByLayer
370
18
48
1
60
0
100
AcDbEllipse
10
13.21502
20
-32.811765
30
0
11
0.0313011204092283
21
-0.149668795582826
31
0
210
0
220
0
230
1
40
0.31828
41
-2.15213412384011
42
-1.10493657264315
0
ELLIPSE
5
2AE
100
AcDbEntity
8
1
62
256
6
ByLayer
370
18
48
1
60
0
100
AcDbEllipse
10
13.38982
20
-33.59103
30
0
11
0.0354746031304904
21
-0.169624634993904
31
0
210
0
220
0
230
1
40
0.31828
41
-0.0577390214470093
42
2.03665608094611
0
ELLIPSE
5
2AF
100
AcDbEntity
8
1
62
256
6
ByLayer
370
18
48
1
60
0
100
AcDbEllipse
10
13.21502
20
-33.917265
30
0
11
0.0313011204097142
21
-0.149668795584122
31
0
210
0
220
0
230
1
40
0.31828
41
3.08385363214223
42
-2.15213412384551
0
ELLIPSE
5
2B0
100
AcDbEntity
8
1
62
256
6
ByLayer
370
18
48
1
60
0
100
AcDbEllipse
10
13.21502
20
-34.117298
30
0
11
0.0313011204096744
21
-0.149668795584495
31
0
210
0
220
0
230
1
40
0.31828
41
-2.15213412383476
42
-1.10493657265086
0
ELLIPSE
5
2B1
100
AcDbEntity
8
1
62
256
6
ByLayer
370
18
48
1
60
0
100
AcDbEllipse
10
13.38982
20
-34.896563
30
0
11
0.0354746031304689
21
-0.169624634993877
31
0
210
0
220
0
230
1
40
0.31828
41
-0.0577390214471485
42
2.03665608094652
0
ELLIPSE
5
2B2
100
AcDbEntity
8
1
62
256
6
ByLayer
370
18
48
1
60
0
100
AcDbEllipse
10
13.21502
20
-35.222798
30
0
11
0.0313011204092718
21
-0.149668795582872
31
0
210
0
220
0
230
1
40
0.31828
41
3.08385363214246
42
-2.15213412384063
0
ELLIPSE
5
2B3
100
AcDbEntity
8
1
62
256
6
ByLayer
370
18
48
1
60
0
100
AcDbEllipse
10
13.21502
20
-35.422832
30
0
11
0.0313011204092682
21
-0.149668795582787
31
0
210
0
220
0
230
1
40
0.31828
41
-2.15213412384139
42
-1.10493657264396
0
ELLIPSE
5
2B4
100
AcDbEntity
8
1
62
256
6
ByLayer
370
18
48
1
60
0
100
AcDbEllipse
10
13.38982
20
-36.202097
30
0
11
0.0354746031305096
21
-0.169624634993946
31
0
210
0
220
0
230
1
40
0.31828
41
-0.0577390214469945
42
2.03665608094576
0
ELLIPSE
5
2B5
100
AcDbEntity
8
1
62
256
6
ByLayer
370
18
48
1
60
0
100
AcDbEllipse
10
13.21502
20
-36.528332
30
0
11
0.0313011204097778
21
-0.149668795584125
31
0
210
0
220
0
230
1
40
0.31828
41
3.08385363214253
42
-2.15213412384566
0
ELLIPSE
5
2B6
100
AcDbEntity
8
1
62
256
6
ByLayer
370
18
48
1
60
0
100
AcDbEllipse
10
13.21502
20
-36.728365
30
0
11
0.0313011204090955
21
-0.14966879558217
31
0
210
0
220
0
230
1
40
0.31828
41
-2.15213412384303
42
-1.10493657264105
0
ELLIPSE
5
2B7
100
AcDbEntity
8
1
62
256
6
ByLayer
370
18
48
1
60
0
100
AcDbEllipse
10
13.38982
20
-37.50763
30
0
11
0.0354746031305135
21
-0.169624634993946
31
0
210
0
220
0
230
1
40
0.31828
41
-0.0577390214468653
42
2.03665608094572
0
ELLIPSE
5
2B8
100
AcDbEntity
8
1
62
256
6
ByLayer
370
18
48
1
60
0
100
AcDbEllipse
10
13.21502
20
-37.833865
30
0
11
0.0313011204097779
21
-0.149668795584125
31
0
210
0
220
0
230
1
40
0.31828
41
3.08385363214253
42
-2.15213412384569
0
ELLIPSE
5
2B9
100
AcDbEntity
8
1
62
256
6
ByLayer
370
18
48
1
60
0
100
AcDbEllipse
10
13.21502
20
-38.033899
30
0
11
0.0313011204095354
21
-0.149668795584021
31
0
210
0
220
0
230
1
40
0.31828
41
-2.15213412383616
42
-1.10493657264834
0
ELLIPSE
5
2BA
100
AcDbEntity
8
1
62
256
6
ByLayer
370
18
48
1
60
0
100
AcDbEllipse
10
13.38982
20
-38.813164
30
0
11
0.0354746031304885
21
-0.169624634993917
31
0
210
0
220
0
230
1
40
0.31828
41
-0.0577390214471343
42
2.03665608094612
0
ELLIPSE
5
2BB
100
AcDbEntity
8
1
62
256
6
ByLayer
370
18
48
1
60
0
100
AcDbEllipse
10
13.21502
20
-39.139399
30
0
11
0.031301120409183
21
-0.149668795582722
31
0
210
0
220
0
230
1
40
0.31828
41
3.08385363214226
42
-2.15213412383982
0
ELLIPSE
5
2BC
100
AcDbEntity
8
1
62
256
6
ByLayer
370
18
48
1
60
0
100
AcDbEllipse
10
13.21502
20
-39.339432
30
0
11
0.0313011204097465
21
-0.149668795584511
31
0
210
0
220
0
230
1
40
0.31828
41
-2.15213412383629
42
-1.10493657265221
0
ELLIPSE
5
2BD
100
AcDbEntity
8
1
62
256
6
ByLayer
370
18
48
1
60
0
100
AcDbEllipse
10
13.38982
20
-40.118697
30
0
11
0.0354746031305274
21
-0.169624634993975
31
0
210
0
220
0
230
1
40
0.31828
41
-0.0577390214468546
42
2.03665608094551
0
ELLIPSE
5
2BE
100
AcDbEntity
8
1
62
256
6
ByLayer
370
18
48
1
60
0
100
AcDbEllipse
10
13.21502
20
-40.444932
30
0
11
0.0313011204095974
21
-0.149668795583709
31
0
210
0
220
0
230
1
40
0.31828
41
3.08385363214251
42
-2.15213412384393
0
ELLIPSE
5
2BF
100
AcDbEntity
8
1
62
256
6
ByLayer
370
18
48
1
60
0
100
AcDbEllipse
10
13.21502
20
-40.644966
30
0
11
0.0313011204093293
21
-0.14966879558294
31
0
210
0
220
0
230
1
40
0.31828
41
-2.15213412384123
42
-1.10493657264509
0
ELLIPSE
5
2C0
100
AcDbEntity
8
1
62
256
6
ByLayer
370
18
48
1
60
0
100
AcDbEllipse
10
2.78498
20
-40.644966
30
0
11
0.0313011204092222
21
0.149668795582687
31
0
210
0
220
0
230
1
40
0.31828
41
-2.03665608094672
42
-0.989458529748594
0
ELLIPSE
5
2C1
100
AcDbEntity
8
1
62
256
6
ByLayer
370
18
48
1
60
0
100
AcDbEllipse
10
8
20
1.099841
30
0
11
3
21
0
31
0
210
0
220
0
230
1
40
0.953717
41
0.348520491294066
42
2.79297414637483
0
ELLIPSE
5
2C2
100
AcDbEntity
8
1
62
256
6
ByLayer
370
18
48
1
60
0
100
AcDbEllipse
10
8
20
3.054429
30
0
11
-2.99999999999999
21
3.67381906146712E-16
31
0
210
0
220
0
230
1
40
0.953717
41
0
42
6.28318530717959
0
ELLIPSE
5
2C3
100
AcDbEntity
8
1
62
256
6
ByLayer
370
18
48
1
60
0
100
AcDbEllipse
10
8
20
2.720628
30
0
11
4
21
0
31
0
210
0
220
0
230
1
40
0.953717
41
0
42
3.14159265358979
0
ELLIPSE
5
2C4
100
AcDbEntity
8
1
62
256
6
ByLayer
370
18
48
1
60
0
100
AcDbEllipse
10
2.604093
20
-5.838539
30
0
11
0.271230962258222
21
-0.398515998332925
31
0
210
0
220
0
230
1
40
0.126917
41
0.184359910067565
42
1.75515623686236
0
ELLIPSE
5
2C5
100
AcDbEntity
8
1
62
256
6
ByLayer
370
18
48
1
60
0
100
AcDbEllipse
10
13.395907
20
-5.838539
30
0
11
0.271230962258366
21
0.398515998333089
31
0
210
0
220
0
230
1
40
0.126917
41
1.38643641672795
42
2.95723274352211
0
ELLIPSE
5
2C6
100
AcDbEntity
8
1
62
256
6
ByLayer
370
18
48
1
60
0
100
AcDbEllipse
10
8
20
-3.028567
30
0
11
2.4
21
0
31
0
210
0
220
0
230
1
40
0.96363
41
-3.02574631802815
42
-0.115748105544482
0
ELLIPSE
5
2C7
100
AcDbEntity
8
1
62
256
6
ByLayer
370
18
48
1
60
0
100
AcDbEllipse
10
8
20
-3.666385
30
0
11
1.64281520610951E-16
21
2.68300944378049
31
0
210
0
220
0
230
1
40
0.894518
41
-1.28796266507201
42
1.28796266507201
0
ELLIPSE
5
2C8
100
AcDbEntity
8
1
62
256
6
ByLayer
370
18
48
1
60
0
100
AcDbEllipse
10
8
20
2.77816
30
0
11
4
21
4.6858214583301E-15
31
0
210
0
220
0
230
1
40
0.969476
41
0
42
3.14159265358979
0
ELLIPSE
5
2C9
100
AcDbEntity
8
1
62
256
6
ByLayer
370
18
48
1
60
0
100
AcDbEllipse
10
8
20
-3.563043
30
0
11
-2.4
21
2.93905524917371E-16
31
0
210
0
220
0
230
1
40
0.96363
41
-0.282833661722884
42
1.2159126239528
0
ELLIPSE
5
2CA
100
AcDbEntity
8
1
62
256
6
ByLayer
370
18
48
1
60
0
100
AcDbEllipse
10
8
20
-3.563043
30
0
11
-2.4
21
2.93905524917371E-16
31
0
210
0
220
0
230
1
40
0.96363
41
1.925680029637
42
-2.85875899186691
0
ELLIPSE
5
2CB
100
AcDbEntity
8
1
62
256
6
ByLayer
370
18
48
1
60
0
100
AcDbEllipse
10
10.3
20
14.417055
30
0
11
-1
21
1.22460635382238E-16
31
0
210
0
220
0
230
1
40
0.936167
41
0
42
6.28318530717959
0
ELLIPSE
5
2CC
100
AcDbEntity
8
1
62
256
6
ByLayer
370
18
48
1
60
0
100
AcDbEllipse
10
2.78498
20
25.18357
30
0
11
0.0511375529008391
21
0.149753385867053
31
0
210
0
220
0
230
1
40
0.168132
41
0.0573490117366805
42
0.589676008916548
0
ELLIPSE
5
2CD
100
AcDbEntity
8
1
62
256
6
ByLayer
370
18
48
1
60
0
100
AcDbEllipse
10
13.21502
20
25.18357
30
0
11
0.0511375529007825
21
-0.149753385866881
31
0
210
0
220
0
230
1
40
0.168132
41
2.55191664467296
42
3.08424364185305
0
ELLIPSE
5
2CE
100
AcDbEntity
8
1
62
256
6
ByLayer
370
13
48
1
60
0
100
AcDbEllipse
10
10.3
20
14.417055
30
0
11
-1.4
21
1.71444889535133E-16
31
0
210
0
220
0
230
1
40
0.936167
41
3.14159265358979
42
1.35534185017985E-15
0
ELLIPSE
5
2CF
100
AcDbEntity
8
1
62
256
6
ByLayer
370
13
48
1
60
0
100
AcDbEllipse
10
8.9
20
14.452211
30
0
11
0.1
21
0
31
0
210
0
220
0
230
1
40
0.351556
41
3.14159265358979
42
-1.5707963267949
0
ELLIPSE
5
2D0
100
AcDbEntity
8
1
62
256
6
ByLayer
370
13
48
1
60
0
100
AcDbEllipse
10
11.7
20
14.452211
30
0
11
-0.1
21
1.22460635382238E-17
31
0
210
0
220
0
230
1
40
0.351556
41
1.5707963267949
42
3.14159265358979
0
ELLIPSE
5
2D1
100
AcDbEntity
8
1
62
256
6
ByLayer
370
18
48
1
60
0
100
AcDbEllipse
10
10.3
20
14.452211
30
0
11
1.5
21
0
31
0
210
0
220
0
230
1
40
0.936167
41
0
42
-3.14159265358979
0
ELLIPSE
5
2D2
100
AcDbEntity
8
1
62
256
6
ByLayer
370
18
48
1
60
0
100
AcDbEllipse
10
13.38982
20
-44.145971
30
0
11
0.019882849666075
21
0.169847666130898
31
0
210
0
220
0
230
1
40
0.361878
41
-2.30513073392171
42
-1.18695055818573
0
ELLIPSE
5
2D3
100
AcDbEntity
8
1
62
256
6
ByLayer
370
18
48
1
60
0
100
AcDbEllipse
10
13.38982
20
-7.136414
30
0
11
0.0627868663794148
21
-0.16990720852077
31
0
210
0
220
0
230
1
40
0.089447
41
-0.809713366158807
42
1.28468173623436
0
ELLIPSE
5
2D4
100
AcDbEntity
8
1
62
256
6
ByLayer
370
18
48
1
60
0
100
AcDbEllipse
10
13.21502
20
-6.862863
30
0
11
0.055400176217304
21
-0.149918125165884
31
0
210
0
220
0
230
1
40
0.089447
41
2.33187928743226
42
-2.90410846855259
0
ELLIPSE
5
2D5
100
AcDbEntity
8
1
62
256
6
ByLayer
370
18
48
1
60
0
100
AcDbEllipse
10
13.21502
20
-6.924282
30
0
11
0.0554001762163565
21
-0.149918125163646
31
0
210
0
220
0
230
1
40
0.089447
41
-2.90410846855191
42
-1.85691091734683
0
ELLIPSE
5
2D6
100
AcDbEntity
8
1
62
256
6
ByLayer
370
18
48
1
60
0
100
AcDbEllipse
10
13.38982
20
-7.537271
30
0
11
0.0627868663793922
21
-0.16990720852071
31
0
210
0
220
0
230
1
40
0.089447
41
-0.809713366158935
42
1.28468173623462
0
ELLIPSE
5
2D7
100
AcDbEntity
8
1
62
256
6
ByLayer
370
18
48
1
60
0
100
AcDbEllipse
10
13.21502
20
-7.26372
30
0
11
0.0554001762168676
21
-0.149918125164593
31
0
210
0
220
0
230
1
40
0.089447
41
2.33187928742863
42
-2.90410846855161
0
ELLIPSE
5
2D8
100
AcDbEntity
8
1
62
256
6
ByLayer
370
18
48
1
60
0
100
AcDbEllipse
10
13.21502
20
-7.32514
30
0
11
0.0554001762180901
21
-0.149918125167533
31
0
210
0
220
0
230
1
40
0.089447
41
-2.90410846855189
42
-1.85691091736603
0
ELLIPSE
5
2D9
100
AcDbEntity
8
1
62
256
6
ByLayer
370
18
48
1
60
0
100
AcDbEllipse
10
13.38982
20
-7.938129
30
0
11
0.0627868663793812
21
-0.169907208520685
31
0
210
0
220
0
230
1
40
0.089447
41
-0.809713366159004
42
1.28468173623475
0
ELLIPSE
5
2DA
100
AcDbEntity
8
1
62
256
6
ByLayer
370
18
48
1
60
0
100
AcDbEllipse
10
13.21502
20
-7.664578
30
0
11
0.055400176217309
21
-0.149918125165891
31
0
210
0
220
0
230
1
40
0.089447
41
2.33187928743231
42
-2.90410846855266
0
ELLIPSE
5
2DB
100
AcDbEntity
8
1
62
256
6
ByLayer
370
18
48
1
60
0
100
AcDbEllipse
10
13.21502
20
-7.725997
30
0
11
0.0554001762171986
21
-0.149918125165568
31
0
210
0
220
0
230
1
40
0.089447
41
-2.90410846855266
42
-1.85691091735645
0
ELLIPSE
5
2DC
100
AcDbEntity
8
1
62
256
6
ByLayer
370
18
48
1
60
0
100
AcDbEllipse
10
13.38982
20
-8.338986
30
0
11
0.0627868663793969
21
-0.16990720852072
31
0
210
0
220
0
230
1
40
0.089447
41
-0.809713366158879
42
1.28468173623458
0
ELLIPSE
5
2DD
100
AcDbEntity
8
1
62
256
6
ByLayer
370
18
48
1
60
0
100
AcDbEllipse
10
13.21502
20
-8.065436
30
0
11
0.0554001762165354
21
-0.149918125163649
31
0
210
0
220
0
230
1
40
0.089447
41
2.33187928742592
42
-2.90410846855099
0
ELLIPSE
5
2DE
100
AcDbEntity
8
1
62
256
6
ByLayer
370
18
48
1
60
0
100
AcDbEllipse
10
13.21502
20
-8.126855
30
0
11
0.0554001762171202
21
-0.149918125165364
31
0
210
0
220
0
230
1
40
0.089447
41
-2.90410846855233
42
-1.85691091735535
0
ELLIPSE
5
2DF
100
AcDbEntity
8
1
62
256
6
ByLayer
370
18
48
1
60
0
100
AcDbEllipse
10
13.38982
20
-8.739844
30
0
11
0.0627868663793861
21
-0.169907208520695
31
0
210
0
220
0
230
1
40
0.089447
41
-0.809713366159013
42
1.2846817362347
0
ELLIPSE
5
2E0
100
AcDbEntity
8
1
62
256
6
ByLayer
370
18
48
1
60
0
100
AcDbEllipse
10
13.21502
20
-8.466293
30
0
11
0.0554001762170166
21
-0.149918125165042
31
0
210
0
220
0
230
1
40
0.089447
41
2.33187928742986
42
-2.90410846855207
0
ELLIPSE
5
2E1
100
AcDbEntity
8
1
62
256
6
ByLayer
370
18
48
1
60
0
100
AcDbEllipse
10
13.21502
20
-8.527712
30
0
11
0.0554001762167605
21
-0.149918125164545
31
0
210
0
220
0
230
1
40
0.089447
41
-2.90410846855199
42
-1.85691091735123
0
ELLIPSE
5
2E2
100
AcDbEntity
8
1
62
256
6
ByLayer
370
18
48
1
60
0
100
AcDbEllipse
10
13.38982
20
-9.140701
30
0
11
0.0627868663794245
21
-0.16990720852079
31
0
210
0
220
0
230
1
40
0.089447
41
-0.80971336615876
42
1.28468173623429
0
ELLIPSE
5
2E3
100
AcDbEntity
8
1
62
256
6
ByLayer
370
18
48
1
60
0
100
AcDbEllipse
10
13.21502
20
-8.867151
30
0
11
0.0554001762171563
21
-0.149918125165438
31
0
210
0
220
0
230
1
40
0.089447
41
2.33187928743099
42
-2.90410846855232
0
ELLIPSE
5
2E4
100
AcDbEntity
8
1
62
256
6
ByLayer
370
18
48
1
60
0
100
AcDbEllipse
10
13.21502
20
-8.92857
30
0
11
0.0554001762174813
21
-0.149918125166179
31
0
210
0
220
0
230
1
40
0.089447
41
-2.90410846855239
42
-1.85691091735945
0
ELLIPSE
5
2E5
100
AcDbEntity
8
1
62
256
6
ByLayer
370
18
48
1
60
0
100
AcDbEllipse
10
13.38982
20
-9.541559
30
0
11
0.0627868663794551
21
-0.169907208520861
31
0
210
0
220
0
230
1
40
0.089447
41
-0.809713366158606
42
1.28468173623396
0
ELLIPSE
5
2E6
100
AcDbEntity
8
1
62
256
6
ByLayer
370
18
48
1
60
0
100
AcDbEllipse
10
13.21502
20
-9.268008
30
0
11
0.0554001762171693
21
-0.149918125165495
31
0
210
0
220
0
230
1
40
0.089447
41
2.33187928743118
42
-2.90410846855241
0
ELLIPSE
5
2E7
100
AcDbEntity
8
1
62
256
6
ByLayer
370
18
48
1
60
0
100
AcDbEllipse
10
13.21502
20
-9.329427
30
0
11
0.0554001762160771
21
-0.149918125163005
31
0
210
0
220
0
230
1
40
0.089447
41
-2.90410846855201
42
-1.85691091734367
0
ELLIPSE
5
2E8
100
AcDbEntity
8
1
62
256
6
ByLayer
370
18
48
1
60
0
100
AcDbEllipse
10
13.38982
20
-9.942417
30
0
11
0.0627868663793757
21
-0.169907208520665
31
0
210
0
220
0
230
1
40
0.089447
41
-0.809713366159044
42
1.28468173623482
0
ELLIPSE
5
2E9
100
AcDbEntity
8
1
62
256
6
ByLayer
370
18
48
1
60
0
100
AcDbEllipse
10
13.21502
20
-9.668866
30
0
11
0.055400176217593
21
-0.14991812516673
31
0
210
0
220
0
230
1
40
0.089447
41
2.3318792874347
42
-2.90410846855324
0
ELLIPSE
5
2EA
100
AcDbEntity
8
1
62
256
6
ByLayer
370
18
48
1
60
0
100
AcDbEllipse
10
13.21502
20
-9.730285
30
0
11
0.0554001762184176
21
-0.149918125168279
31
0
210
0
220
0
230
1
40
0.089447
41
-2.90410846855255
42
-1.85691091736992
0
ELLIPSE
5
2EB
100
AcDbEntity
8
1
62
256
6
ByLayer
370
18
48
1
60
0
100
AcDbEllipse
10
13.38982
20
-10.343274
30
0
11
0.0627868663794399
21
-0.169907208520822
31
0
210
0
220
0
230
1
40
0.089447
41
-0.809713366158568
42
1.28468173623411
0
ELLIPSE
5
2EC
100
AcDbEntity
8
1
62
256
6
ByLayer
370
18
48
1
60
0
100
AcDbEllipse
10
13.21502
20
-10.069723
30
0
11
0.0554001762168249
21
-0.14991812516447
31
0
210
0
220
0
230
1
40
0.089447
41
2.33187928742823
42
-2.90410846855154
0
ELLIPSE
5
2ED
100
AcDbEntity
8
1
62
256
6
ByLayer
370
18
48
1
60
0
100
AcDbEllipse
10
13.21502
20
-10.131143
30
0
11
0.0554001762175432
21
-0.149918125166291
31
0
210
0
220
0
230
1
40
0.089447
41
-2.90410846855208
42
-1.85691091735999
0
ELLIPSE
5
2EE
100
AcDbEntity
8
1
62
256
6
ByLayer
370
18
48
1
60
0
100
AcDbEllipse
10
13.38982
20
-10.744132
30
0
11
0.0627868663794245
21
-0.16990720852079
31
0
210
0
220
0
230
1
40
0.089447
41
-0.80971336615876
42
1.28468173623429
0
ELLIPSE
5
2EF
100
AcDbEntity
8
1
62
256
6
ByLayer
370
18
48
1
60
0
100
AcDbEllipse
10
13.21502
20
-10.470581
30
0
11
0.0554001762168228
21
-0.149918125164518
31
0
210
0
220
0
230
1
40
0.089447
41
2.33187928742834
42
-2.90410846855148
0
ELLIPSE
5
2F0
100
AcDbEntity
8
1
62
256
6
ByLayer
370
18
48
1
60
0
100
AcDbEllipse
10
13.21502
20
-10.532
30
0
11
0.0554001762178372
21
-0.149918125166958
31
0
210
0
220
0
230
1
40
0.089447
41
-2.90410846855215
42
-1.85691091736326
0
ELLIPSE
5
2F1
100
AcDbEntity
8
1
62
256
6
ByLayer
370
18
48
1
60
0
100
AcDbEllipse
10
13.38982
20
-11.144989
30
0
11
0.0627868663794205
21
-0.169907208520775
31
0
210
0
220
0
230
1
40
0.089447
41
-0.809713366158706
42
1.28468173623433
0
ELLIPSE
5
2F2
100
AcDbEntity
8
1
62
256
6
ByLayer
370
18
48
1
60
0
100
AcDbEllipse
10
13.21502
20
-10.871438
30
0
11
0.0554001762167191
21
-0.149918125164146
31
0
210
0
220
0
230
1
40
0.089447
41
2.33187928742727
42
-2.90410846855128
0
ELLIPSE
5
2F3
100
AcDbEntity
8
1
62
256
6
ByLayer
370
18
48
1
60
0
100
AcDbEllipse
10
13.21502
20
-10.932858
30
0
11
0.0554001762174841
21
-0.14991812516621
31
0
210
0
220
0
230
1
40
0.089447
41
-2.90410846855282
42
-1.85691091735968
0
ELLIPSE
5
2F4
100
AcDbEntity
8
1
62
256
6
ByLayer
370
18
48
1
60
0
100
AcDbEllipse
10
2.78498
20
-10.932858
30
0
11
0.0554001762170618
21
0.149918125165237
31
0
210
0
220
0
230
1
40
0.089447
41
-1.28468173623504
42
-0.237484185037551
0
ELLIPSE
5
2F5
100
AcDbEntity
8
1
62
256
6
ByLayer
370
18
48
1
60
0
100
AcDbEllipse
10
2.78498
20
-10.871438
30
0
11
0.0554001762179016
21
0.14991812516763
31
0
210
0
220
0
230
1
40
0.089447
41
-0.237484185035884
42
0.809713366152598
0
ELLIPSE
5
2F6
100
AcDbEntity
8
1
62
256
6
ByLayer
370
18
48
1
60
0
100
AcDbEllipse
10
2.61018
20
-11.144989
30
0
11
0.0627868663794364
21
0.169907208520819
31
0
210
0
220
0
230
1
40
0.089447
41
1.85691091735566
42
-2.33187928743092
0
ELLIPSE
5
2F7
100
AcDbEntity
8
1
62
256
6
ByLayer
370
18
48
1
60
0
100
AcDbEllipse
10
2.78498
20
-10.532
30
0
11
0.0554001762176446
21
0.149918125166544
31
0
210
0
220
0
230
1
40
0.089447
41
-1.28468173622818
42
-0.237484185037433
0
ELLIPSE
5
2F8
100
AcDbEntity
8
1
62
256
6
ByLayer
370
18
48
1
60
0
100
AcDbEllipse
10
2.78498
20
-10.470581
30
0
11
0.0554001762174171
21
0.14991812516622
31
0
210
0
220
0
230
1
40
0.089447
41
-0.237484185037118
42
0.809713366156622
0
ELLIPSE
5
2F9
100
AcDbEntity
8
1
62
256
6
ByLayer
370
18
48
1
60
0
100
AcDbEllipse
10
2.61018
20
-10.744132
30
0
11
0.0627868663793925
21
0.169907208520707
31
0
210
0
220
0
230
1
40
0.089447
41
1.85691091735519
42
-2.33187928743069
0
ELLIPSE
5
2FA
100
AcDbEntity
8
1
62
256
6
ByLayer
370
18
48
1
60
0
100
AcDbEllipse
10
2.78498
20
-10.131143
30
0
11
0.0554001762163897
21
0.149918125163697
31
0
210
0
220
0
230
1
40
0.089447
41
-1.28468173624242
42
-0.237484185038302
0
ELLIPSE
5
2FB
100
AcDbEntity
8
1
62
256
6
ByLayer
370
18
48
1
60
0
100
AcDbEllipse
10
2.78498
20
-10.069723
30
0
11
0.0554001762170604
21
0.149918125165156
31
0
210
0
220
0
230
1
40
0.089447
41
-0.237484185037922
42
0.809713366159533
0
ELLIPSE
5
2FC
100
AcDbEntity
8
1
62
256
6
ByLayer
370
18
48
1
60
0
100
AcDbEllipse
10
2.61018
20
-10.343274
30
0
11
0.0627868663794416
21
0.169907208520836
31
0
210
0
220
0
230
1
40
0.089447
41
1.8569109173557
42
-2.33187928743101
0
ELLIPSE
5
2FD
100
AcDbEntity
8
1
62
256
6
ByLayer
370
18
48
1
60
0
100
AcDbEllipse
10
2.78498
20
-9.730285
30
0
11
0.0554001762169126
21
0.149918125164883
31
0
210
0
220
0
230
1
40
0.089447
41
-1.28468173623651
42
-0.237484185038005
0
ELLIPSE
5
2FE
100
AcDbEntity
8
1
62
256
6
ByLayer
370
18
48
1
60
0
100
AcDbEllipse
10
2.78498
20
-9.668866
30
0
11
0.0554001762179016
21
0.14991812516763
31
0
210
0
220
0
230
1
40
0.089447
41
-0.237484185035884
42
0.809713366152598
0
ELLIPSE
5
2FF
100
AcDbEntity
8
1
62
256
6
ByLayer
370
18
48
1
60
0
100
AcDbEllipse
10
2.61018
20
-9.942417
30
0
11
0.0627868663794119
21
0.169907208520757
31
0
210
0
220
0
230
1
40
0.089447
41
1.85691091735542
42
-2.33187928743083
0
ELLIPSE
5
300
100
AcDbEntity
8
1
62
256
6
ByLayer
370
18
48
1
60
0
100
AcDbEllipse
10
2.78498
20
-9.329427
30
0
11
0.0554001762173659
21
0.149918125165928
31
0
210
0
220
0
230
1
40
0.089447
41
-1.28468173623117
42
-0.237484185037304
0
ELLIPSE
5
301
100
AcDbEntity
8
1
62
256
6
ByLayer
370
18
48
1
60
0
100
AcDbEllipse
10
2.78498
20
-9.268008
30
0
11
0.0554001762168314
21
0.149918125164507
31
0
210
0
220
0
230
1
40
0.089447
41
-0.237484185038453
42
0.809713366161494
0
ELLIPSE
5
302
100
AcDbEntity
8
1
62
256
6
ByLayer
370
18
48
1
60
0
100
AcDbEllipse
10
2.61018
20
-9.541559
30
0
11
0.062786866379447
21
0.169907208520844
31
0
210
0
220
0
230
1
40
0.089447
41
1.85691091735578
42
-2.33187928743106
0
ELLIPSE
5
303
100
AcDbEntity
8
1
62
256
6
ByLayer
370
18
48
1
60
0
100
AcDbEllipse
10
2.78498
20
-8.92857
30
0
11
0.0554001762163727
21
0.149918125163672
31
0
210
0
220
0
230
1
40
0.089447
41
-1.28468173624254
42
-0.237484185038218
0
ELLIPSE
5
304
100
AcDbEntity
8
1
62
256
6
ByLayer
370
18
48
1
60
0
100
AcDbEllipse
10
2.78498
20
-8.867151
30
0
11
0.0554001762173248
21
0.149918125165942
31
0
210
0
220
0
230
1
40
0.089447
41
-0.237484185037306
42
0.809713366157328
0
ELLIPSE
5
305
100
AcDbEntity
8
1
62
256
6
ByLayer
370
18
48
1
60
0
100
AcDbEllipse
10
2.61018
20
-9.140701
30
0
11
0.0627868663794354
21
0.16990720852082
31
0
210
0
220
0
230
1
40
0.089447
41
1.85691091735566
42
-2.33187928743092
0
ELLIPSE
5
306
100
AcDbEntity
8
1
62
256
6
ByLayer
370
18
48
1
60
0
100
AcDbEllipse
10
2.78498
20
-8.527712
30
0
11
0.055400176216803
21
0.149918125164651
31
0
210
0
220
0
230
1
40
0.089447
41
-1.28468173623762
42
-0.237484185037752
0
ELLIPSE
5
307
100
AcDbEntity
8
1
62
256
6
ByLayer
370
18
48
1
60
0
100
AcDbEllipse
10
2.78498
20
-8.466293
30
0
11
0.0554001762172264
21
0.149918125165676
31
0
210
0
220
0
230
1
40
0.089447
41
-0.237484185037351
42
0.809713366158097
0
ELLIPSE
5
308
100
AcDbEntity
8
1
62
256
6
ByLayer
370
18
48
1
60
0
100
AcDbEllipse
10
2.61018
20
-8.739844
30
0
11
0.0627868663794212
21
0.169907208520787
31
0
210
0
220
0
230
1
40
0.089447
41
1.85691091735554
42
-2.33187928743087
0
ELLIPSE
5
309
100
AcDbEntity
8
1
62
256
6
ByLayer
370
18
48
1
60
0
100
AcDbEllipse
10
2.78498
20
-8.126855
30
0
11
0.0554001762169594
21
0.149918125165002
31
0
210
0
220
0
230
1
40
0.089447
41
-1.28468173623591
42
-0.23748418503781
0
ELLIPSE
5
30A
100
AcDbEntity
8
1
62
256
6
ByLayer
370
18
48
1
60
0
100
AcDbEllipse
10
2.78498
20
-8.065436
30
0
11
0.0554001762174416
21
0.149918125166268
31
0
210
0
220
0
230
1
40
0.089447
41
-0.237484185037037
42
0.80971336615646
0
ELLIPSE
5
30B
100
AcDbEntity
8
1
62
256
6
ByLayer
370
18
48
1
60
0
100
AcDbEllipse
10
2.61018
20
-8.338986
30
0
11
0.0627868663794072
21
0.169907208520742
31
0
210
0
220
0
230
1
40
0.089447
41
1.85691091735532
42
-2.33187928743076
0
ELLIPSE
5
30C
100
AcDbEntity
8
1
62
256
6
ByLayer
370
18
48
1
60
0
100
AcDbEllipse
10
2.78498
20
-7.725997
30
0
11
0.0554001762171691
21
0.149918125165477
31
0
210
0
220
0
230
1
40
0.089447
41
-1.28468173623349
42
-0.237484185037664
0
ELLIPSE
5
30D
100
AcDbEntity
8
1
62
256
6
ByLayer
370
18
48
1
60
0
100
AcDbEllipse
10
2.78498
20
-7.664578
30
0
11
0.0554001762163944
21
0.149918125163215
31
0
210
0
220
0
230
1
40
0.089447
41
-0.237484185039431
42
0.809713366165145
0
ELLIPSE
5
30E
100
AcDbEntity
8
1
62
256
6
ByLayer
370
18
48
1
60
0
100
AcDbEllipse
10
2.61018
20
-7.938129
30
0
11
0.0627868663794108
21
0.169907208520756
31
0
210
0
220
0
230
1
40
0.089447
41
1.85691091735537
42
-2.33187928743083
0
ELLIPSE
5
30F
100
AcDbEntity
8
1
62
256
6
ByLayer
370
18
48
1
60
0
100
AcDbEllipse
10
2.78498
20
-7.32514
30
0
11
0.0554001762164638
21
0.149918125163875
31
0
210
0
220
0
230
1
40
0.089447
41
-1.28468173624148
42
-0.237484185038074
0
ELLIPSE
5
310
100
AcDbEntity
8
1
62
256
6
ByLayer
370
18
48
1
60
0
100
AcDbEllipse
10
2.78498
20
-7.26372
30
0
11
0.0554001762169768
21
0.149918125164918
31
0
210
0
220
0
230
1
40
0.089447
41
-0.237484185038048
42
0.809713366160266
0
ELLIPSE
5
311
100
AcDbEntity
8
1
62
256
6
ByLayer
370
18
48
1
60
0
100
AcDbEllipse
10
2.61018
20
-7.537271
30
0
11
0.0627868663794133
21
0.169907208520761
31
0
210
0
220
0
230
1
40
0.089447
41
1.85691091735542
42
-2.33187928743079
0
ELLIPSE
5
312
100
AcDbEntity
8
1
62
256
6
ByLayer
370
18
48
1
60
0
100
AcDbEllipse
10
2.78498
20
-6.924282
30
0
11
0.0554001762174356
21
0.149918125166061
31
0
210
0
220
0
230
1
40
0.089447
41
-1.28468173623055
42
-0.237484185037591
0
ELLIPSE
5
313
100
AcDbEntity
8
1
62
256
6
ByLayer
370
18
48
1
60
0
100
AcDbEllipse
10
2.78498
20
-6.862863
30
0
11
0.0554001762171245
21
0.149918125165355
31
0
210
0
220
0
230
1
40
0.089447
41
-0.237484185037734
42
0.809713366159034
0
ELLIPSE
5
314
100
AcDbEntity
8
1
62
256
6
ByLayer
370
18
48
1
60
0
100
AcDbEllipse
10
2.61018
20
-7.136414
30
0
11
0.0627868663794127
21
0.16990720852076
31
0
210
0
220
0
230
1
40
0.089447
41
1.8569109173554
42
-2.33187928743084
0
ELLIPSE
5
315
100
AcDbEntity
8
1
62
256
6
ByLayer
370
18
48
1
60
0
100
AcDbEllipse
10
8
20
-0.197724
30
0
11
-2.5
21
3.06151588455594E-16
31
0
210
0
220
0
230
1
40
0.953717
41
-2.02072024769741
42
-1.89647025450899
0
POINT
5
70
100
AcDbEntity
8
80
62
256
6
ByLayer
370
18
48
1
60
0
100
AcDbPoint
10
0
20
0
30
0
39
0
210
0
220
0
230
1
50
360
0
POINT
5
72
100
AcDbEntity
8
81
62
256
6
ByLayer
370
18
48
1
60
0
100
AcDbPoint
10
14
20
50
30
0
39
0
210
0
220
0
230
1
50
360
0
POINT
5
74
100
AcDbEntity
8
1
62
256
6
ByLayer
370
18
48
1
60
1
100
AcDbPoint
10
14
20
50
30
0
39
0
210
0
220
0
230
1
50
360
0
POINT
5
76
100
AcDbEntity
8
1
62
256
6
ByLayer
370
18
48
1
60
1
100
AcDbPoint
10
6.4
20
50
30
0
39
0
210
0
220
0
230
1
50
360
0
POINT
5
77
100
AcDbEntity
8
1
62
256
6
ByLayer
370
18
48
1
60
1
100
AcDbPoint
10
0
20
-23.5
30
0
39
0
210
0
220
0
230
1
50
360
0
POINT
5
78
100
AcDbEntity
8
1
62
256
6
ByLayer
370
18
48
1
60
1
100
AcDbPoint
10
16
20
-23.5
30
0
39
0
210
0
220
0
230
1
50
360
0
POINT
5
79
100
AcDbEntity
8
1
62
256
6
ByLayer
370
18
48
1
60
1
100
AcDbPoint
10
2.5
20
50
30
0
39
0
210
0
220
0
230
1
50
360
0
SPLINE
5
316
100
AcDbEntity
8
1
62
256
6
ByLayer
370
18
48
1
60
0
100
AcDbSpline
70
4
71
3
72
16
73
12
40
0
40
0
40
0
40
0
40
0.250000000000004
40
0.250000000000004
40
0.500000000000008
40
0.500000000000008
40
0.750000000000011
40
0.750000000000011
40
0.875000000000006
40
0.875000000000006
40
1
40
1
40
1
40
1
41
1
10
12.5
20
-46.9739747467407
30
0
41
1
10
12.5440059916166
20
-46.9739747467407
30
0
41
1
10
12.5875164025
20
-46.971244984685
30
0
41
1
10
12.6735428274961
20
-46.9607695115117
30
0
41
1
10
12.7160597378901
20
-46.9530140895298
30
0
41
1
10
12.7999533290636
20
-46.9331899498051
30
0
41
1
10
12.8417513244151
20
-46.9208977890004
30
0
41
1
10
12.9006050487685
20
-46.9015104747394
30
0
41
1
10
12.9198267556723
20
-46.8948241450714
30
0
41
1
10
12.9556945626756
20
-46.8823486319359
30
0
41
1
10
12.9723178786404
20
-46.8765323348521
30
0
41
1
10
12.9868161417706
20
-46.8722769964327
30
0
0
SPLINE
5
317
100
AcDbEntity
8
1
62
256
6
ByLayer
370
18
48
1
60
0
100
AcDbSpline
70
4
71
3
72
18
73
14
40
0
40
0
40
0
40
0
40
0.125000000000001
40
0.125000000000001
40
0.250000000000003
40
0.250000000000003
40
0.375000000000004
40
0.375000000000004
40
0.500000000000005
40
0.500000000000005
40
0.750000000000003
40
0.750000000000003
40
1
40
1
40
1
40
1
41
1
10
3.01318385823078
20
-46.8722769964331
30
0
41
1
10
3.02767574715222
20
-46.8765304639791
30
0
41
1
10
3.04427523048793
20
-46.8823381995596
30
0
41
1
10
3.08006464136906
20
-46.8947862970163
30
0
41
1
10
3.09928047998
20
-46.9014705571561
30
0
41
1
10
3.13834936102489
20
-46.9143448380699
30
0
41
1
10
3.1584154671848
20
-46.9206231996887
30
0
41
1
10
3.19942430727269
20
-46.9324419354648
30
0
41
1
10
3.22044006013869
20
-46.9380001450374
30
0
41
1
10
3.28366303816137
20
-46.9529658512503
30
0
41
1
10
3.32631455231842
20
-46.960749580287
30
0
41
1
10
3.41249738269789
20
-46.9712492237897
30
0
41
1
10
3.45602957404969
20
-46.9739747467504
30
0
41
1
10
3.49999999999841
20
-46.9739747467505
30
0
0
SPLINE
5
318
100
AcDbEntity
8
1
62
256
6
ByLayer
370
18
48
1
60
0
100
AcDbSpline
70
4
71
3
72
10
73
6
40
0
40
0
40
0
40
0
40
0.5
40
0.5
40
1
40
1
40
1
40
1
41
1
10
12.9868161417702
20
-46.8722769964328
30
0
41
1
10
13.0478835283876
20
-46.8543533048763
30
0
41
1
10
13.099163117753
20
-46.8349823790907
30
0
41
1
10
13.189731955486
20
-46.7944676228031
30
0
41
1
10
13.2289466309259
20
-46.7732337760183
30
0
41
1
10
13.263340414623
20
-46.7514736894441
30
0
0
SPLINE
5
319
100
AcDbEntity
8
1
62
256
6
ByLayer
370
18
48
1
60
0
100
AcDbSpline
70
4
71
3
72
10
73
6
40
0
40
0
40
0
40
0
40
0.5
40
0.5
40
1
40
1
40
1
40
1
41
1
10
2.73665958537714
20
-46.7514736894442
30
0
41
1
10
2.77074109493719
20
-46.7730362079835
30
0
41
1
10
2.8094919403672
20
-46.7940790319863
30
0
41
1
10
2.90012231839466
20
-46.8347034642686
30
0
41
1
10
2.9522568822216
20
-46.8543945163412
30
0
41
1
10
3.01318385823043
20
-46.8722769964331
30
0
0
SPLINE
5
31A
100
AcDbEntity
8
1
62
256
6
ByLayer
370
18
48
1
60
0
100
AcDbSpline
70
4
71
3
72
22
73
18
40
0
40
0
40
0
40
0
40
0.124999999999993
40
0.124999999999993
40
0.249999999999987
40
0.249999999999987
40
0.499999999999993
40
0.499999999999993
40
0.624999999999995
40
0.624999999999995
40
0.749999999999997
40
0.749999999999997
40
0.874999999999998
40
0.874999999999998
40
0.937499999999999
40
0.937499999999999
40
1
40
1
40
1
40
1
41
1
10
13.2633404146231
20
-46.751473689444
30
0
41
1
10
13.2766383672138
20
-46.7282172019376
30
0
41
1
10
13.2898262652074
20
-46.7041744369628
30
0
41
1
10
13.3159389482977
20
-46.6542091150915
30
0
41
1
10
13.3288943089076
20
-46.6282226725261
30
0
41
1
10
13.3669817139789
20
-46.5473848600595
30
0
41
1
10
13.3914196365242
20
-46.4897540053262
30
0
41
1
10
13.4255108805419
20
-46.3941638612909
30
0
41
1
10
13.4362900600653
20
-46.3611529106118
30
0
41
1
10
13.4562839405888
20
-46.2920597735795
30
0
41
1
10
13.4655380985544
20
-46.2558643755154
30
0
41
1
10
13.4816202959459
20
-46.1795071162743
30
0
41
1
10
13.4882276285639
20
-46.1404109854205
30
0
41
1
10
13.4952045661498
20
-46.0798892130548
30
0
41
1
10
13.4970031290958
20
-46.0595873714329
30
0
41
1
10
13.4993915997644
20
-46.0197640042362
30
0
41
1
10
13.5
20
-46.0000917643615
30
0
41
1
10
13.5
20
-45.9806681910795
30
0
0
SPLINE
5
31B
100
AcDbEntity
8
1
62
256
6
ByLayer
370
18
48
1
60
0
100
AcDbSpline
70
4
71
3
72
24
73
20
40
0
40
0
40
0
40
0
40
0.0624999999999993
40
0.0624999999999993
40
0.124999999999999
40
0.124999999999999
40
0.249999999999997
40
0.249999999999997
40
0.312499999999996
40
0.312499999999996
40
0.374999999999996
40
0.374999999999996
40
0.499999999999994
40
0.499999999999994
40
0.624999999999993
40
0.624999999999993
40
0.749999999999992
40
0.749999999999992
40
1
40
1
40
1
40
1
41
1
10
2.5
20
-45.9806681910795
30
0
41
1
10
2.5
20
-46.0002860175016
30
0
41
1
10
2.50062049634289
20
-46.0201040943062
30
0
41
1
10
2.50303728295654
20
-46.0601197073377
30
0
41
1
10
2.50484704922644
20
-46.0804287203026
30
0
41
1
10
2.51187974501857
20
-46.1411546729122
30
0
41
1
10
2.51851564087303
20
-46.1802376227485
30
0
41
1
10
2.53057157804267
20
-46.2373497626665
30
0
41
1
10
2.53495655473927
20
-46.2561533688136
30
0
41
1
10
2.54414747773183
20
-46.2925603483267
30
0
41
1
10
2.54897553859604
20
-46.3102744534323
30
0
41
1
10
2.56403723920442
20
-46.3622016818165
30
0
41
1
10
2.57484225881109
20
-46.39521263272
30
0
41
1
10
2.59758260917778
20
-46.4588563813353
30
0
41
1
10
2.60946906722757
20
-46.4893169269197
30
0
41
1
10
2.63368599765397
20
-46.5473720510724
30
0
41
1
10
2.64607349032212
20
-46.5751146302443
30
0
41
1
10
2.68389247973181
20
-46.655318988097
30
0
41
1
10
2.70997138601018
20
-46.704799303225
30
0
41
1
10
2.73665958537674
20
-46.7514736894438
30
0
0
SPLINE
5
31C
100
AcDbEntity
8
1
62
256
6
ByLayer
370
18
48
1
60
0
100
AcDbSpline
70
4
71
3
72
18
73
14
40
0
40
0
40
0
40
0
40
0.125000000000003
40
0.125000000000003
40
0.250000000000006
40
0.250000000000006
40
0.375000000000008
40
0.375000000000008
40
0.500000000000011
40
0.500000000000011
40
0.750000000000006
40
0.750000000000006
40
1
40
1
40
1
40
1
41
1
10
3.01318385823078
20
46.8722769964331
30
0
41
1
10
3.02767574715222
20
46.8765304639791
30
0
41
1
10
3.04427523048793
20
46.8823381995596
30
0
41
1
10
3.08006464136906
20
46.8947862970163
30
0
41
1
10
3.09928047998
20
46.9014705571561
30
0
41
1
10
3.13834936102489
20
46.9143448380699
30
0
41
1
10
3.1584154671848
20
46.9206231996887
30
0
41
1
10
3.19942430727269
20
46.9324419354648
30
0
41
1
10
3.22044006013869
20
46.9380001450374
30
0
41
1
10
3.28366303816137
20
46.9529658512503
30
0
41
1
10
3.32631455231842
20
46.960749580287
30
0
41
1
10
3.41249738269789
20
46.9712492237896
30
0
41
1
10
3.45602957404969
20
46.9739747467503
30
0
41
1
10
3.49999999999841
20
46.9739747467505
30
0
0
SPLINE
5
31D
100
AcDbEntity
8
1
62
256
6
ByLayer
370
18
48
1
60
0
100
AcDbSpline
70
4
71
3
72
10
73
6
40
0
40
0
40
0
40
0
40
0.5
40
0.5
40
1
40
1
40
1
40
1
41
1
10
2.73665958537708
20
46.7514736894441
30
0
41
1
10
2.77074109493719
20
46.7730362079834
30
0
41
1
10
2.8094919403672
20
46.7940790319863
30
0
41
1
10
2.90012231839466
20
46.8347034642686
30
0
41
1
10
2.9522568822216
20
46.8543945163412
30
0
41
1
10
3.01318385823038
20
46.8722769964331
30
0
0
SPLINE
5
31E
100
AcDbEntity
8
1
62
256
6
ByLayer
370
18
48
1
60
0
100
AcDbSpline
70
4
71
3
72
24
73
20
40
0
40
0
40
0
40
0
40
0.0624999999999988
40
0.0624999999999988
40
0.124999999999998
40
0.124999999999998
40
0.249999999999995
40
0.249999999999995
40
0.312499999999995
40
0.312499999999995
40
0.374999999999994
40
0.374999999999994
40
0.499999999999993
40
0.499999999999993
40
0.624999999999992
40
0.624999999999992
40
0.749999999999991
40
0.749999999999991
40
1
40
1
40
1
40
1
41
1
10
2.5
20
45.9806681910795
30
0
41
1
10
2.5
20
46.0002860175015
30
0
41
1
10
2.50062049634289
20
46.0201040943061
30
0
41
1
10
2.50303728295654
20
46.0601197073377
30
0
41
1
10
2.50484704922644
20
46.0804287203026
30
0
41
1
10
2.51187974501857
20
46.1411546729122
30
0
41
1
10
2.51851564087303
20
46.1802376227484
30
0
41
1
10
2.53057157804267
20
46.2373497626665
30
0
41
1
10
2.53495655473927
20
46.2561533688136
30
0
41
1
10
2.54414747773183
20
46.2925603483267
30
0
41
1
10
2.54897553859604
20
46.3102744534323
30
0
41
1
10
2.56403723920442
20
46.3622016818164
30
0
41
1
10
2.57484225881109
20
46.3952126327199
30
0
41
1
10
2.59758260917778
20
46.4588563813352
30
0
41
1
10
2.60946906722757
20
46.4893169269196
30
0
41
1
10
2.63368599765397
20
46.5473720510724
30
0
41
1
10
2.64607349032212
20
46.5751146302442
30
0
41
1
10
2.68389247973181
20
46.655318988097
30
0
41
1
10
2.70997138601018
20
46.7047993032249
30
0
41
1
10
2.73665958537674
20
46.7514736894437
30
0
0
SPLINE
5
31F
100
AcDbEntity
8
1
62
256
6
ByLayer
370
18
48
1
60
0
100
AcDbSpline
70
4
71
3
72
22
73
18
40
0
40
0
40
0
40
0
40
0.125000000000003
40
0.125000000000003
40
0.250000000000006
40
0.250000000000006
40
0.500000000000007
40
0.500000000000007
40
0.625000000000005
40
0.625000000000005
40
0.750000000000004
40
0.750000000000004
40
0.875000000000002
40
0.875000000000002
40
0.937500000000001
40
0.937500000000001
40
1
40
1
40
1
40
1
41
1
10
13.2633404146231
20
46.7514736894439
30
0
41
1
10
13.2766383672138
20
46.7282172019376
30
0
41
1
10
13.2898262652074
20
46.7041744369628
30
0
41
1
10
13.3159389482977
20
46.6542091150914
30
0
41
1
10
13.3288943089077
20
46.628222672526
30
0
41
1
10
13.3669817139789
20
46.5473848600594
30
0
41
1
10
13.3914196365242
20
46.4897540053262
30
0
41
1
10
13.4255108805419
20
46.3941638612908
30
0
41
1
10
13.4362900600653
20
46.3611529106117
30
0
41
1
10
13.4562839405889
20
46.2920597735795
30
0
41
1
10
13.4655380985544
20
46.2558643755154
30
0
41
1
10
13.4816202959459
20
46.1795071162743
30
0
41
1
10
13.4882276285639
20
46.1404109854205
30
0
41
1
10
13.4952045661498
20
46.0798892130548
30
0
41
1
10
13.4970031290958
20
46.0595873714329
30
0
41
1
10
13.4993915997644
20
46.0197640042361
30
0
41
1
10
13.5
20
46.0000917643614
30
0
41
1
10
13.5
20
45.9806681910795
30
0
0
SPLINE
5
320
100
AcDbEntity
8
1
62
256
6
ByLayer
370
18
48
1
60
0
100
AcDbSpline
70
4
71
3
72
10
73
6
40
0
40
0
40
0
40
0
40
0.5
40
0.5
40
1
40
1
40
1
40
1
41
1
10
12.9868161417702
20
46.8722769964328
30
0
41
1
10
13.0478835283876
20
46.8543533048762
30
0
41
1
10
13.099163117753
20
46.8349823790907
30
0
41
1
10
13.189731955486
20
46.7944676228031
30
0
41
1
10
13.2289466309259
20
46.7732337760183
30
0
41
1
10
13.263340414623
20
46.7514736894441
30
0
0
SPLINE
5
321
100
AcDbEntity
8
1
62
256
6
ByLayer
370
18
48
1
60
0
100
AcDbSpline
70
4
71
3
72
16
73
12
40
0
40
0
40
0
40
0
40
0.250000000000004
40
0.250000000000004
40
0.500000000000008
40
0.500000000000008
40
0.750000000000011
40
0.750000000000011
40
0.875000000000006
40
0.875000000000006
40
1
40
1
40
1
40
1
41
1
10
12.5
20
46.9739747467407
30
0
41
1
10
12.5440059916166
20
46.9739747467407
30
0
41
1
10
12.5875164024999
20
46.9712449846849
30
0
41
1
10
12.6735428274961
20
46.9607695115117
30
0
41
1
10
12.7160597378901
20
46.9530140895297
30
0
41
1
10
12.7999533290636
20
46.9331899498051
30
0
41
1
10
12.8417513244151
20
46.9208977890004
30
0
41
1
10
12.9006050487685
20
46.9015104747393
30
0
41
1
10
12.9198267556723
20
46.8948241450714
30
0
41
1
10
12.9556945626756
20
46.8823486319359
30
0
41
1
10
12.9723178786404
20
46.8765323348521
30
0
41
1
10
12.9868161417706
20
46.8722769964326
30
0
0
SPLINE
5
322
100
AcDbEntity
8
1
62
256
6
ByLayer
370
18
48
1
60
0
100
AcDbSpline
70
4
71
3
72
14
73
10
40
0
40
0
40
0
40
0
40
0.25
40
0.25
40
0.5
40
0.5
40
0.75
40
0.75
40
1
40
1
40
1
40
1
41
1
10
8.89999999999998
20
36.1838101656073
30
0
41
1
10
8.88337655602743
20
36.1838101656073
30
0
41
1
10
8.86756145752321
20
36.1896388397994
30
0
41
1
10
8.84129376523401
20
36.2080066438432
30
0
41
1
10
8.83098238471291
20
36.2200867862281
30
0
41
1
10
8.81501493552264
20
36.246362359786
30
0
41
1
10
8.80937575281791
20
36.2604843977103
30
0
41
1
10
8.80181712614126
20
36.289921942629
30
0
41
1
10
8.80000000000001
20
36.3048721706488
30
0
41
1
10
8.80000000000001
20
36.3200383485072
30
0
0
SPLINE
5
323
100
AcDbEntity
8
1
62
256
6
ByLayer
370
18
48
1
60
0
100
AcDbSpline
70
4
71
3
72
28
73
24
40
0
40
0
40
0
40
0
40
0.0625000000000016
40
0.0625000000000016
40
0.125000000000003
40
0.125000000000003
40
0.250000000000006
40
0.250000000000006
40
0.312500000000007
40
0.312500000000007
40
0.375000000000008
40
0.375000000000008
40
0.500000000000011
40
0.500000000000011
40
0.625000000000014
40
0.625000000000014
40
0.687500000000012
40
0.687500000000012
40
0.750000000000009
40
0.750000000000009
40
0.875000000000005
40
0.875000000000005
40
1
40
1
40
1
40
1
41
1
10
13.5
20
43.714572913579
30
0
41
1
10
13.5
20
43.7476599266196
30
0
41
1
10
13.4984643132568
20
43.7810402206189
30
0
41
1
10
13.4922918046558
20
43.8472932775114
30
0
41
1
10
13.4876846200512
20
43.8800304631407
30
0
41
1
10
13.4693923112526
20
43.9770994345104
30
0
41
1
10
13.4512774737101
20
44.0402987496093
30
0
41
1
10
13.4148573082091
20
44.1327474276798
30
0
41
1
10
13.401093813331
20
44.1632772703509
30
0
41
1
10
13.3709812142196
20
44.2222309372845
30
0
41
1
10
13.3545863858891
20
44.2508037206348
30
0
41
1
10
13.3014314075623
20
44.3338466032939
30
0
41
1
10
13.2607403413956
20
44.3856675879977
30
0
41
1
10
13.1681901427322
20
44.4818221627976
30
0
41
1
10
13.1176861725649
20
44.5246984658314
30
0
41
1
10
13.0363139330684
20
44.5809580527078
30
0
41
1
10
13.0082179742295
20
44.5983894051881
30
0
41
1
10
12.9500297773076
20
44.6305418983669
30
0
41
1
10
12.9197726524738
20
44.6453204031436
30
0
41
1
10
12.8278570964596
20
44.6845768361587
30
0
41
1
10
12.7646790921141
20
44.7043192194225
30
0
41
1
10
12.6345517022447
20
44.7310764096694
30
0
41
1
10
12.5672508124508
20
44.7380062048624
30
0
41
1
10
12.5
20
44.7380062048624
30
0
0
SPLINE
5
324
100
AcDbEntity
8
1
62
256
6
ByLayer
370
18
48
1
60
0
100
AcDbSpline
70
4
71
3
72
28
73
24
40
0
40
0
40
0
40
0
40
0.125000000000009
40
0.125000000000009
40
0.187500000000013
40
0.187500000000013
40
0.250000000000018
40
0.250000000000018
40
0.375000000000021
40
0.375000000000021
40
0.437500000000022
40
0.437500000000022
40
0.500000000000024
40
0.500000000000024
40
0.625000000000028
40
0.625000000000028
40
0.750000000000031
40
0.750000000000031
40
0.812500000000027
40
0.812500000000027
40
0.875000000000023
40
0.875000000000023
40
1
40
1
40
1
40
1
41
1
10
3.5
20
44.7380062048622
30
0
41
1
10
3.43274450874435
20
44.7380062048622
30
0
41
1
10
3.36666324300677
20
44.7312331054832
30
0
41
1
10
3.26922820028625
20
44.711336495346
30
0
41
1
10
3.23703319502158
20
44.7030686388981
30
0
41
1
10
3.17322360852654
20
44.6831794282206
30
0
41
1
10
3.14164431886644
20
44.6715428381298
30
0
41
1
10
3.04993307534323
20
44.6323984364325
30
0
41
1
10
2.99205318368394
20
44.6004864653756
30
0
41
1
10
2.9100840072096
20
44.5439394964822
30
0
41
1
10
2.88343932217197
20
44.5235073097774
30
0
41
1
10
2.83276340732101
20
44.4804285016085
30
0
41
1
10
2.80867672291265
20
44.4577696129115
30
0
41
1
10
2.74005485678526
20
44.3865304189524
30
0
41
1
10
2.69907446920229
20
44.3346391078887
30
0
41
1
10
2.62717012024308
20
44.222300116661
30
0
41
1
10
2.59728489954386
20
44.1635116288016
30
0
41
1
10
2.56104290820611
20
44.0716012448605
30
0
41
1
10
2.55040374668403
20
44.0403387020435
30
0
41
1
10
2.53204341847658
20
43.9765441129568
30
0
41
1
10
2.52433479286225
20
43.9439739358526
30
0
41
1
10
2.50603046880201
20
43.8463482438673
30
0
41
1
10
2.5
20
43.7807254786229
30
0
41
1
10
2.5
20
43.7145729135789
30
0
0
SPLINE
5
325
100
AcDbEntity
8
1
62
256
6
ByLayer
370
18
48
1
60
0
100
AcDbSpline
70
4
71
3
72
14
73
10
40
0
40
0
40
0
40
0
40
0.25
40
0.25
40
0.5
40
0.5
40
0.75
40
0.75
40
1
40
1
40
1
40
1
41
1
10
11.8
20
36.3200383485073
30
0
41
1
10
11.8
20
36.3048663290326
30
0
41
1
10
11.7981798910338
20
36.2899908495975
30
0
41
1
10
11.790739930855
20
36.2608556189026
30
0
41
1
10
11.7850216508442
20
36.2464519595471
30
0
41
1
10
11.7691213388491
20
36.2202283345116
30
0
41
1
10
11.7587880945122
20
36.2080947695501
30
0
41
1
10
11.7325991923171
20
36.1897205746084
30
0
41
1
10
11.7166270095906
20
36.1838101656
30
0
41
1
10
11.7000000000024
20
36.1838101655995
30
0
0
SPLINE
5
326
100
AcDbEntity
8
1
62
256
6
ByLayer
370
18
48
1
60
0
100
AcDbSpline
70
4
71
3
72
66
73
62
40
0
40
0
40
0
40
0
40
0.0624999999999982
40
0.0624999999999982
40
0.124999999999997
40
0.124999999999997
40
0.187499999999995
40
0.187499999999995
40
0.249999999999993
40
0.249999999999993
40
0.312499999999991
40
0.312499999999991
40
0.37499999999999
40
0.37499999999999
40
0.40624999999999
40
0.40624999999999
40
0.42187499999999
40
0.42187499999999
40
0.43749999999999
40
0.43749999999999
40
0.45312499999999
40
0.45312499999999
40
0.46093749999999
40
0.46093749999999
40
0.46874999999999
40
0.46874999999999
40
0.484374999999991
40
0.484374999999991
40
0.492187499999992
40
0.492187499999992
40
0.499999999999994
40
0.499999999999994
40
0.507812499999995
40
0.507812499999995
40
0.515624999999996
40
0.515624999999996
40
0.523437499999997
40
0.523437499999997
40
0.531249999999998
40
0.531249999999998
40
0.546874999999999
40
0.546874999999999
40
0.5625
40
0.5625
40
0.593749999999999
40
0.593749999999999
40
0.624999999999999
40
0.624999999999999
40
0.687499999999998
40
0.687499999999998
40
0.749999999999996
40
0.749999999999996
40
0.781249999999997
40
0.781249999999997
40
0.812499999999997
40
0.812499999999997
40
0.874999999999998
40
0.874999999999998
40
0.937499999999999
40
0.937499999999999
40
1
40
1
40
1
40
1
41
1
10
11.8
20
40.4498972903876
30
0
41
1
10
11.8
20
40.626601267227
30
0
41
1
10
11.7917412918598
20
40.8021432394529
30
0
41
1
10
11.7615407993198
20
41.1513377175526
30
0
41
1
10
11.7395803517141
20
41.3249873432126
30
0
41
1
10
11.683320167579
20
41.6705996635459
30
0
41
1
10
11.6490212422535
20
41.8425625392823
30
0
41
1
10
11.5682704536156
20
42.1848225984356
30
0
41
1
10
11.5218129418526
20
42.355222382115
30
0
41
1
10
11.4155519952393
20
42.6937351096606
30
0
41
1
10
11.3562486844568
20
42.8604975192094
30
0
41
1
10
11.2220155261302
20
43.1878110082578
30
0
41
1
10
11.1470152149666
20
43.3489406246392
30
0
41
1
10
11.0178549123496
20
43.5790129217999
30
0
41
1
10
10.9719425008069
20
43.6538690986308
30
0
41
1
10
10.8966879487262
20
43.76211282194
30
0
41
1
10
10.8705259976927
20
43.7975127563806
30
0
41
1
10
10.8153921934782
20
43.8665462655642
30
0
41
1
10
10.7863073468506
20
43.9003132422194
30
0
41
1
10
10.7248263506262
20
43.9648038782922
30
0
41
1
10
10.6926167231662
20
43.9953654611573
30
0
41
1
10
10.6412592562343
20
44.037735002838
30
0
41
1
10
10.6236287893297
20
44.0512746910516
30
0
41
1
10
10.5871275899129
20
44.076941137607
30
0
41
1
10
10.5681954487413
20
44.0890949405195
30
0
41
1
10
10.5101686276976
20
44.1223587646227
30
0
41
1
10
10.4696197119321
20
44.1405285549556
30
0
41
1
10
10.4048896008865
20
44.1594032544689
30
0
41
1
10
10.3829016592401
20
44.1641884191458
30
0
41
1
10
10.3388047572508
20
44.1703774742153
30
0
41
1
10
10.3165858330297
20
44.1718148685944
30
0
41
1
10
10.271790429949
20
44.1712143530838
30
0
41
1
10
10.2491903760807
20
44.1691349862943
30
0
41
1
10
10.205162555569
20
44.1617404041134
30
0
41
1
10
10.1835342341759
20
44.1564341746971
30
0
41
1
10
10.1409732081775
20
44.142917804169
30
0
41
1
10
10.1199222531855
20
44.1346423495281
30
0
41
1
10
10.079364193955
20
44.115916115767
30
0
41
1
10
10.0597711746409
20
44.1054574380804
30
0
41
1
10
10.0026883249814
20
44.071369569006
30
0
41
1
10
9.9667945069009
20
44.0449878298756
30
0
41
1
10
9.89859233530444
20
43.9873211551888
30
0
41
1
10
9.86680280977157
20
43.9564983129602
30
0
41
1
10
9.77624486269582
20
43.8598702783755
30
0
41
1
10
9.72219212380486
20
43.789986480843
30
0
41
1
10
9.62154604686424
20
43.6436893799071
30
0
41
1
10
9.57569549171365
20
43.5681478677315
30
0
41
1
10
9.44751603571342
20
43.3378077876288
30
0
41
1
10
9.37401134725235
20
43.178809412942
30
0
41
1
10
9.24141665788011
20
42.8540848244974
30
0
41
1
10
9.18258856422455
20
42.6882434263962
30
0
41
1
10
9.10336451167018
20
42.4352039886708
30
0
41
1
10
9.07855215288805
20
42.350321713633
30
0
41
1
10
9.03215969393983
20
42.1803885608056
30
0
41
1
10
9.01054010650574
20
42.0952087636602
30
0
41
1
10
8.95024781199322
20
41.8390566656127
30
0
41
1
10
8.91610556914441
20
41.6674772244332
30
0
41
1
10
8.86011030911692
20
41.3226752792057
30
0
41
1
10
8.83825812169914
20
41.1494525934613
30
0
41
1
10
8.80821211825031
20
40.8011610457646
30
0
41
1
10
8.80000000000001
20
40.6260949621025
30
0
41
1
10
8.80000000000001
20
40.4498972903876
30
0
0
SPLINE
5
327
100
AcDbEntity
8
1
62
256
6
ByLayer
370
18
48
1
60
0
100
AcDbSpline
70
4
71
3
72
16
73
12
40
0
40
0
40
0
40
0
40
0.331950140097264
40
0.331950140097264
40
0.663900280194528
40
0.663900280194528
40
0.82987535024316
40
0.82987535024316
40
0.995850420291792
40
0.995850420291792
40
1
40
1
40
1
40
1
41
1
10
8.80000000000001
20
2.15593836646451
30
0
41
1
10
8.80000000000001
20
1.94998453548476
30
0
41
1
10
8.80000000000001
20
1.74401585865451
30
0
41
1
10
8.80000000000001
20
1.33225888584212
30
0
41
1
10
8.80000000000001
20
1.12644485712366
30
0
41
1
10
8.80000000000001
20
0.817990048846013
30
0
41
1
10
8.80000000000001
20
0.715217541528204
30
0
41
1
10
8.80000000000001
20
0.509834552858877
30
0
41
1
10
8.80000000000001
20
0.407222812114526
30
0
41
1
10
8.80000000000007
20
0.302196564121402
30
0
41
1
10
8.80000000000007
20
0.299634918313473
30
0
41
1
10
8.80000000000007
20
0.29707336647914
30
0
0
SPLINE
5
328
100
AcDbEntity
8
1
62
256
6
ByLayer
370
18
48
1
60
0
100
AcDbSpline
70
4
71
3
72
22
73
18
40
0
40
0
40
0
40
0
40
0.125000000000001
40
0.125000000000001
40
0.250000000000003
40
0.250000000000003
40
0.375000000000005
40
0.375000000000005
40
0.500000000000006
40
0.500000000000006
40
0.625000000000004
40
0.625000000000004
40
0.750000000000003
40
0.750000000000003
40
0.875000000000001
40
0.875000000000001
40
1
40
1
40
1
40
1
41
1
10
8.83395516143287
20
-25.4254073105137
30
0
41
1
10
8.76676551735477
20
-25.4376679965594
30
0
41
1
10
8.69902806810336
20
-25.4503278176008
30
0
41
1
10
8.56239659688731
20
-25.4740036525154
30
0
41
1
10
8.49350292593005
20
-25.4850324088806
30
0
41
1
10
8.35449166689136
20
-25.5036405731797
30
0
41
1
10
8.28437395287079
20
-25.5112178902794
30
0
41
1
10
8.14283651641495
20
-25.5215594585692
30
0
41
1
10
8.07105264278044
20
-25.5243023214164
30
0
41
1
10
7.92860528577944
20
-25.5242937609102
30
0
41
1
10
7.85782207051392
20
-25.5215831313774
30
0
41
1
10
7.71709749597005
20
-25.5113494833621
30
0
41
1
10
7.64715587365657
20
-25.5038331535448
30
0
41
1
10
7.50806698834549
20
-25.4852698806491
30
0
41
1
10
7.43891960527066
20
-25.4742241713321
30
0
41
1
10
7.3013704588015
20
-25.4504043376846
30
0
41
1
10
7.23313765921523
20
-25.4376503283355
30
0
41
1
10
7.16604483856713
20
-25.4254073105137
30
0
0
SPLINE
5
329
100
AcDbEntity
8
1
62
256
6
ByLayer
370
18
48
1
60
0
100
AcDbSpline
70
4
71
3
72
26
73
22
40
0
40
0
40
0
40
0
40
0.125000000000008
40
0.125000000000008
40
0.18750000000001
40
0.18750000000001
40
0.250000000000013
40
0.250000000000013
40
0.375000000000013
40
0.375000000000013
40
0.500000000000013
40
0.500000000000013
40
0.625000000000013
40
0.625000000000013
40
0.687500000000012
40
0.687500000000012
40
0.75000000000001
40
0.75000000000001
40
0.875000000000005
40
0.875000000000005
40
1
40
1
40
1
40
1
41
1
10
9.30000000000064
20
2.91197431329374
30
0
41
1
10
9.27053011592983
20
2.92850007578289
30
0
41
1
10
9.24050135777566
20
2.94329394308926
30
0
41
1
10
9.1945465964053
20
2.96257164589008
30
0
41
1
10
9.17903863739014
20
2.96851452595502
30
0
41
1
10
9.14848642284852
20
2.97908904716354
30
0
41
1
10
9.13334999714169
20
2.9837627310315
30
0
41
1
10
9.08839450806869
20
2.99593976072919
30
0
41
1
10
9.05885472845711
20
3.00163348997353
30
0
41
1
10
9.00201128997315
20
3.00769223197142
30
0
41
1
10
8.97565231344583
20
3.00798865424491
30
0
41
1
10
8.9271253265731
20
3.00358255188956
30
0
41
1
10
8.90489072783129
20
2.99877110692387
30
0
41
1
10
8.8765008078916
20
2.98843740964247
30
0
41
1
10
8.86778178699052
20
2.98446888892516
30
0
41
1
10
8.85181745014887
20
2.97554023850205
30
0
41
1
10
8.8445378355691
20
2.97054678899178
30
0
41
1
10
8.82528262382289
20
2.95440383522049
30
0
41
1
10
8.8158025084735
20
2.94212831206409
30
0
41
1
10
8.80311145033215
20
2.91492405061086
30
0
41
1
10
8.80000000000041
20
2.90000257720828
30
0
41
1
10
8.80000000000001
20
2.88440806677022
30
0
0
SPLINE
5
32A
100
AcDbEntity
8
1
62
256
6
ByLayer
370
18
48
1
60
0
100
AcDbSpline
70
4
71
3
72
22
73
18
40
0
40
0
40
0
40
0
40
0.0685378633882788
40
0.0685378633882788
40
0.254830290710626
40
0.254830290710626
40
0.441122718032973
40
0.441122718032973
40
0.534268931694145
40
0.534268931694145
40
0.627415145355316
40
0.627415145355316
40
0.813707572677658
40
0.813707572677658
40
0.906853786338829
40
0.906853786338829
40
1
40
1
40
1
40
1
41
1
10
10.4966387846137
20
1.47542314451795
30
0
41
1
10
10.4823096717347
20
1.51703728802625
30
0
41
1
10
10.4669947891593
20
1.55818484875965
30
0
41
1
10
10.4065728381325
20
1.70908502792344
30
0
41
1
10
10.3553999570731
20
1.8155959871392
30
0
41
1
10
10.2391479665768
20
2.02109189520576
30
0
41
1
10
10.1740711026449
20
2.12007795645218
30
0
41
1
10
10.0655582653437
20
2.26268513633056
30
0
41
1
10
10.0276432601587
20
2.30910669253257
30
0
41
1
10
9.94933779502003
20
2.39856379563224
30
0
41
1
10
9.90881661879183
20
2.44177546329701
30
0
41
1
10
9.78321081516856
20
2.56693903929784
30
0
41
1
10
9.69410145100511
20
2.64443890521829
30
0
41
1
10
9.55231096826878
20
2.75173652071732
30
0
41
1
10
9.50368873834481
20
2.78600556919218
30
0
41
1
10
9.40365990153498
20
2.85148233536711
30
0
41
1
10
9.35230714863172
20
2.88264214786386
30
0
41
1
10
9.30000000000058
20
2.91197431329368
30
0
0
SPLINE
5
32B
100
AcDbEntity
8
1
62
256
6
ByLayer
370
18
48
1
60
0
100
AcDbSpline
70
4
71
3
72
8
73
4
40
0
40
0
40
0
40
0
40
1
40
1
40
1
40
1
41
1
10
8.80000000000001
20
2.88440806677016
30
0
41
1
10
8.80000000000001
20
2.74196310701569
30
0
41
1
10
8.80000000000001
20
2.59938473101227
30
0
41
1
10
8.80000000000001
20
2.4566441659689
30
0
0
SPLINE
5
32C
100
AcDbEntity
8
1
62
256
6
ByLayer
370
18
48
1
60
0
100
AcDbSpline
70
4
71
3
72
28
73
24
40
0
40
0
40
0
40
0
40
0.125000000000007
40
0.125000000000007
40
0.187500000000009
40
0.187500000000009
40
0.250000000000011
40
0.250000000000011
40
0.375000000000014
40
0.375000000000014
40
0.437500000000012
40
0.437500000000012
40
0.500000000000011
40
0.500000000000011
40
0.625000000000007
40
0.625000000000007
40
0.750000000000004
40
0.750000000000004
40
0.812500000000001
40
0.812500000000001
40
0.874999999999997
40
0.874999999999997
40
1
40
1
40
1
40
1
41
1
10
3.5
20
-44.7120806231805
30
0
41
1
10
3.43274450874435
20
-44.7120806231805
30
0
41
1
10
3.36666324300677
20
-44.7064464707991
30
0
41
1
10
3.26922820028625
20
-44.6899247072457
30
0
41
1
10
3.23703319502158
20
-44.6830622738522
30
0
41
1
10
3.17322360852654
20
-44.6665710080063
30
0
41
1
10
3.14164431886644
20
-44.6569297350917
30
0
41
1
10
3.04993307534323
20
-44.624539642313
30
0
41
1
10
2.99205318368394
20
-44.5981818996854
30
0
41
1
10
2.9100840072096
20
-44.5516578771532
30
0
41
1
10
2.88343932217197
20
-44.5348737587706
30
0
41
1
10
2.83276340732101
20
-44.4995590380658
30
0
41
1
10
2.80867672291265
20
-44.4810179696145
30
0
41
1
10
2.74005485678526
20
-44.4228548672521
30
0
41
1
10
2.69907446920229
20
-44.3806525385103
30
0
41
1
10
2.62717012024308
20
-44.2897850494869
30
0
41
1
10
2.59728489954386
20
-44.2424628870189
30
0
41
1
10
2.56104290820611
20
-44.1689049028565
30
0
41
1
10
2.55040374668403
20
-44.1439528422497
30
0
41
1
10
2.53204341847658
20
-44.0931856775916
30
0
41
1
10
2.52433479286225
20
-44.0673413496343
30
0
41
1
10
2.50603046880201
20
-43.9901081690796
30
0
41
1
10
2.5
20
-43.9384988867116
30
0
41
1
10
2.5
20
-43.8867901017879
30
0
0
SPLINE
5
32D
100
AcDbEntity
8
1
62
256
6
ByLayer
370
18
48
1
60
0
100
AcDbSpline
70
4
71
3
72
18
73
14
40
0
40
0
40
0
40
0
40
0.124999999999999
40
0.124999999999999
40
0.249999999999999
40
0.249999999999999
40
0.374999999999998
40
0.374999999999998
40
0.499999999999998
40
0.499999999999998
40
0.749999999999999
40
0.749999999999999
40
1
40
1
40
1
40
1
41
1
10
3.01318385823078
20
-41.3379492535542
30
0
41
1
10
3.02767530946619
20
-41.3525862090743
30
0
41
1
10
3.04427466146228
20
-41.3658793675285
30
0
41
1
10
3.08006446749249
20
-41.3903883153918
30
0
41
1
10
3.09928022437867
20
-41.4015242275246
30
0
41
1
10
3.13834916123227
20
-41.421225389452
30
0
41
1
10
3.15841543142358
20
-41.4299261721545
30
0
41
1
10
3.19942482571128
20
-41.4454125540901
30
0
41
1
10
3.22044073333444
20
-41.452207905647
30
0
41
1
10
3.28366323455458
20
-41.4697991206908
30
0
41
1
10
3.32631455824873
20
-41.4779755929569
30
0
41
1
10
3.41249722312244
20
-41.4888046091839
30
0
41
1
10
3.4560294395173
20
-41.4914434581224
30
0
41
1
10
3.49999999999841
20
-41.4914434581225
30
0
0
SPLINE
5
32E
100
AcDbEntity
8
1
62
256
6
ByLayer
370
18
48
1
60
0
100
AcDbSpline
70
4
71
3
72
28
73
24
40
0
40
0
40
0
40
0
40
0.0625000000000058
40
0.0625000000000058
40
0.125000000000012
40
0.125000000000012
40
0.250000000000013
40
0.250000000000013
40
0.312500000000013
40
0.312500000000013
40
0.375000000000013
40
0.375000000000013
40
0.500000000000011
40
0.500000000000011
40
0.625000000000009
40
0.625000000000009
40
0.687500000000009
40
0.687500000000009
40
0.750000000000009
40
0.750000000000009
40
0.875000000000004
40
0.875000000000004
40
1
40
1
40
1
40
1
41
1
10
13.5
20
-43.886790101788
30
0
41
1
10
13.5
20
-43.9126528818623
30
0
41
1
10
13.4984643132568
20
-43.9388244816697
30
0
41
1
10
13.4922918046558
20
-43.990928410729
30
0
41
1
10
13.4876846200512
20
-44.0167532234722
30
0
41
1
10
13.4693923112526
20
-44.0935504355029
30
0
41
1
10
13.4512774737101
20
-44.1438537164646
30
0
41
1
10
13.4148573082091
20
-44.2178411375153
30
0
41
1
10
13.401093813331
20
-44.2423444284659
30
0
41
1
10
13.3709812142196
20
-44.289784852762
30
0
41
1
10
13.3545863858891
20
-44.3128407010959
30
0
41
1
10
13.3014314075623
20
-44.3800115469437
30
0
41
1
10
13.2607403413956
20
-44.4221510660589
30
0
41
1
10
13.1681901427322
20
-44.5006549758394
30
0
41
1
10
13.1176861725649
20
-44.5358283997804
30
0
41
1
10
13.0363139330684
20
-44.5821143683971
30
0
41
1
10
13.0082179742295
20
-44.5964812880758
30
0
41
1
10
12.9500297773076
20
-44.6230163139726
30
0
41
1
10
12.9197726524738
20
-44.6352320000636
30
0
41
1
10
12.8278570964596
20
-44.6677146217544
30
0
41
1
10
12.7646790921141
20
-44.6840978763651
30
0
41
1
10
12.6345517022447
20
-44.7063161767229
30
0
41
1
10
12.5672508124508
20
-44.7120806231807
30
0
41
1
10
12.5
20
-44.7120806231807
30
0
0
SPLINE
5
32F
100
AcDbEntity
8
1
62
256
6
ByLayer
370
18
48
1
60
0
100
AcDbSpline
70
4
71
3
72
16
73
12
40
0
40
0
40
0
40
0
40
0.250000000000002
40
0.250000000000002
40
0.500000000000004
40
0.500000000000004
40
0.750000000000006
40
0.750000000000006
40
0.875000000000003
40
0.875000000000003
40
1
40
1
40
1
40
1
41
1
10
12.5
20
-41.4914434581128
30
0
41
1
10
12.5440060952343
20
-41.4914434581128
30
0
41
1
10
12.5875166074285
20
-41.4888000137394
30
0
41
1
10
12.6735432302482
20
-41.4779963154513
30
0
41
1
10
12.7160602371752
20
-41.4698475938053
30
0
41
1
10
12.7999540150076
20
-41.4465613570524
30
0
41
1
10
12.8417520703412
20
-41.4312402767893
30
0
41
1
10
12.9006060173443
20
-41.4015912180333
30
0
41
1
10
12.9198279012009
20
-41.3904568420816
30
0
41
1
10
12.9556952445556
20
-41.3659051356005
30
0
41
1
10
12.9723182438818
20
-41.3525927204556
30
0
41
1
10
12.986816141771
20
-41.3379492535523
30
0
0
SPLINE
5
330
100
AcDbEntity
8
1
62
256
6
ByLayer
370
18
48
1
60
0
100
AcDbSpline
70
4
71
3
72
10
73
6
40
0
40
0
40
0
40
0
40
0.5
40
0.5
40
1
40
1
40
1
40
1
41
1
10
12.9868161417704
20
-41.3379492535529
30
0
41
1
10
13.0478833138107
20
-41.2762689244829
30
0
41
1
10
13.0991628938999
20
-41.2096081247205
30
0
41
1
10
13.1897318075465
20
-41.0701852214486
30
0
41
1
10
13.2289466286014
20
-40.9971132274962
30
0
41
1
10
13.263340414623
20
-40.9222305448155
30
0
0
SPLINE
5
331
100
AcDbEntity
8
1
62
256
6
ByLayer
370
18
48
1
60
0
100
AcDbSpline
70
4
71
3
72
10
73
6
40
0
40
0
40
0
40
0
40
0.5
40
0.5
40
1
40
1
40
1
40
1
41
1
10
2.73665958537708
20
-40.9222305448159
30
0
41
1
10
2.77074108373813
20
-40.9964333099737
30
0
41
1
10
2.80949193963579
20
-41.0688477208391
30
0
41
1
10
2.90012248254533
20
-41.2086482273699
30
0
41
1
10
2.95225705368102
20
-41.2764107013633
30
0
41
1
10
3.01318385823032
20
-41.3379492535545
30
0
0
SPLINE
5
332
100
AcDbEntity
8
1
62
256
6
ByLayer
370
18
48
1
60
0
100
AcDbSpline
70
4
71
3
72
20
73
16
40
0
40
0
40
0
40
0
40
0.0624999999999965
40
0.0624999999999965
40
0.124999999999993
40
0.124999999999993
40
0.249999999999994
40
0.249999999999994
40
0.374999999999995
40
0.374999999999995
40
0.499999999999996
40
0.499999999999996
40
0.749999999999998
40
0.749999999999998
40
1
40
1
40
1
40
1
41
1
10
2.5
20
-40.6830340077655
30
0
41
1
10
2.5
20
-40.7005081691999
30
0
41
1
10
2.50060371398047
20
-40.7171693289478
30
0
41
1
10
2.50302647575865
20
-40.748854998515
30
0
41
1
10
2.50484818475593
20
-40.7637563038731
30
0
41
1
10
2.51180482930857
20
-40.8046633296489
30
0
41
1
10
2.51856623844469
20
-40.8276538061979
30
0
41
1
10
2.53455114714205
20
-40.8651745668776
30
0
41
1
10
2.54376790112895
20
-40.8799654818854
30
0
41
1
10
2.56394238233077
20
-40.9039026701346
30
0
41
1
10
2.57485008871197
20
-40.9129218658864
30
0
41
1
10
2.60869287086496
20
-40.9331545191907
30
0
41
1
10
2.63300344151276
20
-40.9380269395148
30
0
41
1
10
2.68374502876401
20
-40.9373242312914
30
0
41
1
10
2.70998570281364
20
-40.9316049167259
30
0
41
1
10
2.73665958537668
20
-40.9222305448155
30
0
0
SPLINE
5
333
100
AcDbEntity
8
1
62
256
6
ByLayer
370
18
48
1
60
0
100
AcDbSpline
70
4
71
2
72
6
73
3
40
0
40
0
40
0
40
1
40
1
40
1
41
0.500000095653875
10
2.87999999999999
20
-26.1858600727103
30
0
41
0.499999904346125
10
2.87999022076111
20
-26.1859880258092
30
0
41
0.500000095653875
10
2.87998045849996
20
-26.186115964467
30
0
0
SPLINE
5
334
100
AcDbEntity
8
1
62
256
6
ByLayer
370
18
48
1
60
0
100
AcDbSpline
70
4
71
3
72
22
73
18
40
0
40
0
40
0
40
0
40
0.249999999999994
40
0.249999999999994
40
0.374999999999996
40
0.374999999999996
40
0.499999999999998
40
0.499999999999998
40
0.625
40
0.625
40
0.750000000000002
40
0.750000000000002
40
0.875000000000005
40
0.875000000000005
40
0.937500000000002
40
0.937500000000002
40
1
40
1
40
1
40
1
41
1
10
13.2633404146231
20
-40.9222305448154
30
0
41
1
10
13.289924970647
20
-40.9315735234632
30
0
41
1
10
13.3159528399639
20
-40.9372559786749
30
0
41
1
10
13.3537925565652
20
-40.9378752711971
30
0
41
1
10
13.3662032748467
20
-40.9367500170152
30
0
41
1
10
13.3905034993096
20
-40.9310722504051
30
0
41
1
10
13.4024193054653
20
-40.926497618316
30
0
41
1
10
13.4251372806928
20
-40.9129428787149
30
0
41
1
10
13.4359991805256
20
-40.9039670067125
30
0
41
1
10
13.4562522585991
20
-40.8799465523359
30
0
41
1
10
13.4654725018096
20
-40.8651200556837
30
0
41
1
10
13.4814135622889
20
-40.8277002198621
30
0
41
1
10
13.4881882388553
20
-40.8046726954537
30
0
41
1
10
13.4951353506184
20
-40.7638687506837
30
0
41
1
10
13.4969372942705
20
-40.7492051555298
30
0
41
1
10
13.4993817432103
20
-40.7174806438886
30
0
41
1
10
13.5
20
-40.7005532818847
30
0
41
1
10
13.5
20
-40.6830340077655
30
0
0
SPLINE
5
335
100
AcDbEntity
8
1
62
256
6
ByLayer
370
18
48
1
60
0
100
AcDbSpline
70
4
71
2
72
6
73
3
40
0
40
0
40
0
40
1
40
1
40
1
41
0.49999993378572
10
13.1200195415
20
-26.186115964467
30
0
41
0.50000006621428
10
13.1200097792396
20
-26.1859880258195
30
0
41
0.49999993378572
10
13.12
20
-26.1858600727103
30
0
0
SPLINE
5
336
100
AcDbEntity
8
1
62
256
6
ByLayer
370
18
48
1
60
0
100
AcDbSpline
70
4
71
3
72
22
73
18
40
0
40
0
40
0
40
0
40
0.125
40
0.125
40
0.25
40
0.25
40
0.375
40
0.375
40
0.5
40
0.5
40
0.625
40
0.625
40
0.75
40
0.75
40
0.875
40
0.875
40
1
40
1
40
1
40
1
41
1
10
8.83395516143281
20
-5.73164411513142
30
0
41
1
10
8.76676551735477
20
-5.75563722067733
30
0
41
1
10
8.69902806810336
20
-5.77714481221983
30
0
41
1
10
8.56239659688731
20
-5.81464857521269
30
0
41
1
10
8.4935029259301
20
-5.83064771824547
30
0
41
1
10
8.35449166689136
20
-5.85663227215923
30
0
41
1
10
8.28437395287079
20
-5.86661688007484
30
0
41
1
10
8.14283651641495
20
-5.88006733308782
30
0
41
1
10
8.07105264278044
20
-5.88351415432561
30
0
41
1
10
7.92860528577944
20
-5.88350327844319
30
0
41
1
10
7.85782207051392
20
-5.88009654837555
30
0
41
1
10
7.71709749597005
20
-5.86678958304293
30
0
41
1
10
7.64715587365657
20
-5.85689148278146
30
0
41
1
10
7.50806698834549
20
-5.83098881259156
30
0
41
1
10
7.43891960527066
20
-5.81498518006038
30
0
41
1
10
7.3013704588015
20
-5.77727857500031
30
0
41
1
10
7.23313765921523
20
-5.75560264548636
30
0
41
1
10
7.16604483856719
20
-5.73164411513142
30
0
0
SPLINE
5
337
100
AcDbEntity
8
1
62
256
6
ByLayer
370
18
48
1
60
0
100
AcDbSpline
70
4
71
3
72
18
73
14
40
0
40
0
40
0
40
0
40
0.125000000000001
40
0.125000000000001
40
0.250000000000001
40
0.250000000000001
40
0.375000000000002
40
0.375000000000002
40
0.500000000000002
40
0.500000000000002
40
0.750000000000001
40
0.750000000000001
40
1
40
1
40
1
40
1
41
1
10
3.01318385823078
20
24.9494605741099
30
0
41
1
10
3.02767530946619
20
24.9408387484051
30
0
41
1
10
3.04427466146228
20
24.9357588707229
30
0
41
1
10
3.08006446749249
20
24.9288543843423
30
0
41
1
10
3.09928022437867
20
24.9271714069596
30
0
41
1
10
3.13834916123227
20
24.9256772608588
30
0
41
1
10
3.15841543142358
20
24.925855502681
30
0
41
1
10
3.19942482571128
20
24.9270835522215
30
0
41
1
10
3.22044073333444
20
24.928148728676
30
0
41
1
10
3.28366323455458
20
24.931722019173
30
0
41
1
10
3.32631455824873
20
24.9345533593918
30
0
41
1
10
3.41249722312244
20
24.9385730615339
30
0
41
1
10
3.4560294395173
20
24.9397887073032
30
0
41
1
10
3.49999999999841
20
24.9397887073033
30
0
0
SPLINE
5
338
100
AcDbEntity
8
1
62
256
6
ByLayer
370
18
48
1
60
0
100
AcDbSpline
70
4
71
3
72
10
73
6
40
0
40
0
40
0
40
0
40
0.5
40
0.5
40
1
40
1
40
1
40
1
41
1
10
2.73665958537708
20
25.194337607725
30
0
41
1
10
2.77074108373813
20
25.1506288387041
30
0
41
1
10
2.80949193963579
20
25.1079734908668
30
0
41
1
10
2.90012248254533
20
25.0256246992017
30
0
41
1
10
2.95225705368102
20
24.9857095515957
30
0
41
1
10
3.01318385823032
20
24.9494605741097
30
0
0
SPLINE
5
339
100
AcDbEntity
8
1
62
256
6
ByLayer
370
18
48
1
60
0
100
AcDbSpline
70
4
71
3
72
20
73
16
40
0
40
0
40
0
40
0
40
0.0625000000000029
40
0.0625000000000029
40
0.125000000000006
40
0.125000000000006
40
0.250000000000005
40
0.250000000000005
40
0.375000000000004
40
0.375000000000004
40
0.500000000000003
40
0.500000000000003
40
0.750000000000002
40
0.750000000000002
40
1
40
1
40
1
40
1
41
1
10
2.5
20
24.3434505550363
30
0
41
1
10
2.5
20
24.3533369598976
30
0
41
1
10
2.50060371398047
20
24.3645887603344
30
0
41
1
10
2.50302647575865
20
24.3898410327157
30
0
41
1
10
2.50484818475593
20
24.4037798452456
30
0
41
1
10
2.51180482930857
20
24.44795780926
30
0
41
1
10
2.51856623844469
20
24.4814087700381
30
0
41
1
10
2.53455114714205
20
24.5509684409147
30
0
41
1
10
2.54376790112895
20
24.5872042131713
30
0
41
1
10
2.56394238233077
20
24.6617461226044
30
0
41
1
10
2.57485008871197
20
24.6998291214437
30
0
41
1
10
2.60869287086496
20
24.8136021324856
30
0
41
1
10
2.63300344151276
20
24.8898634596503
30
0
41
1
10
2.68374502876401
20
25.0428864861011
30
0
41
1
10
2.70998570281364
20
25.1189910953578
30
0
41
1
10
2.73665958537668
20
25.1943376077247
30
0
0
SPLINE
5
33A
100
AcDbEntity
8
1
62
256
6
ByLayer
370
18
48
1
60
0
100
AcDbSpline
70
4
71
3
72
14
73
10
40
0
40
0
40
0
40
0
40
0.25
40
0.25
40
0.5
40
0.5
40
0.75
40
0.75
40
1
40
1
40
1
40
1
41
1
10
8.89999999999998
20
11.7957880254008
30
0
41
1
10
8.88337655602743
20
11.7957880254008
30
0
41
1
10
8.86756145752321
20
11.8016948536037
30
0
41
1
10
8.84129376523401
20
11.8202873057566
30
0
41
1
10
8.83098238471291
20
11.8325066763521
30
0
41
1
10
8.81501493552264
20
11.8590486519965
30
0
41
1
10
8.80937575281791
20
11.873297886996
30
0
41
1
10
8.80181712614126
20
11.9029590212874
30
0
41
1
10
8.80000000000001
20
11.9180031409182
30
0
41
1
10
8.80000000000001
20
11.9332434780401
30
0
0
SPLINE
5
33B
100
AcDbEntity
8
1
62
256
6
ByLayer
370
18
48
1
60
0
100
AcDbSpline
70
4
71
3
72
66
73
62
40
0
40
0
40
0
40
0
40
0.0624999999999986
40
0.0624999999999986
40
0.124999999999997
40
0.124999999999997
40
0.187499999999996
40
0.187499999999996
40
0.249999999999995
40
0.249999999999995
40
0.312499999999993
40
0.312499999999993
40
0.374999999999992
40
0.374999999999992
40
0.406249999999991
40
0.406249999999991
40
0.42187499999999
40
0.42187499999999
40
0.43749999999999
40
0.43749999999999
40
0.453124999999989
40
0.453124999999989
40
0.460937499999989
40
0.460937499999989
40
0.468749999999989
40
0.468749999999989
40
0.484374999999988
40
0.484374999999988
40
0.492187499999988
40
0.492187499999988
40
0.499999999999989
40
0.499999999999989
40
0.507812499999989
40
0.507812499999989
40
0.515624999999989
40
0.515624999999989
40
0.523437499999989
40
0.523437499999989
40
0.531249999999989
40
0.531249999999989
40
0.54687499999999
40
0.54687499999999
40
0.562499999999991
40
0.562499999999991
40
0.593749999999991
40
0.593749999999991
40
0.624999999999991
40
0.624999999999991
40
0.687499999999992
40
0.687499999999992
40
0.749999999999993
40
0.749999999999993
40
0.781249999999994
40
0.781249999999994
40
0.812499999999995
40
0.812499999999995
40
0.874999999999997
40
0.874999999999997
40
0.937499999999998
40
0.937499999999998
40
1
40
1
40
1
40
1
41
1
10
11.8
20
15.6172577194022
30
0
41
1
10
11.8
20
15.7563900957787
30
0
41
1
10
11.7917412918598
20
15.8923596139005
30
0
41
1
10
11.7615407993198
20
16.1585135574182
30
0
41
1
10
11.7395803517141
20
16.2886947108889
30
0
41
1
10
11.683320167579
20
16.5435813615183
30
0
41
1
10
11.6490212422535
20
16.6682861493426
30
0
41
1
10
11.5682704536156
20
16.9123673499661
30
0
41
1
10
11.5218129418526
20
17.0318134833175
30
0
41
1
10
11.4155519952393
20
17.2650692850351
30
0
41
1
10
11.3562486844568
20
17.377947153845
30
0
41
1
10
11.2220155261302
20
17.595754460512
30
0
41
1
10
11.1470152149666
20
17.7010345889368
30
0
41
1
10
11.0178549123496
20
17.8489032248951
30
0
41
1
10
10.9719425008069
20
17.8965898344418
30
0
41
1
10
10.8966879487262
20
17.9650003802407
30
0
41
1
10
10.8705259976927
20
17.9872793840586
30
0
41
1
10
10.8153921934782
20
18.0305576830682
30
0
41
1
10
10.7863073468506
20
18.0516397323155
30
0
41
1
10
10.7248263506262
20
18.0917581259159
30
0
41
1
10
10.6926167231662
20
18.1106941070929
30
0
41
1
10
10.6412592562343
20
18.1368653605724
30
0
41
1
10
10.6236287893297
20
18.1452141977393
30
0
41
1
10
10.5871275899129
20
18.1610179085591
30
0
41
1
10
10.5681954487413
20
18.1684893052397
30
0
41
1
10
10.5101686276976
20
18.1889129634752
30
0
41
1
10
10.4696197119321
20
18.2000334856797
30
0
41
1
10
10.4048896008865
20
18.2115740054123
30
0
41
1
10
10.3829016592401
20
18.2144970490826
30
0
41
1
10
10.3388047572508
20
18.2182769612083
30
0
41
1
10
10.3165858330297
20
18.2191543419786
30
0
41
1
10
10.2717904299491
20
18.2187877054503
30
0
41
1
10
10.2491903760807
20
18.2175183705072
30
0
41
1
10
10.205162555569
20
18.2130015318613
30
0
41
1
10
10.1835342341759
20
18.2097594657246
30
0
41
1
10
10.1409732081775
20
18.2014929289492
30
0
41
1
10
10.1199222531855
20
18.1964283561944
30
0
41
1
10
10.079364193955
20
18.1849533748233
30
0
41
1
10
10.0597711746409
20
18.1785381660657
30
0
41
1
10
10.0026883249814
20
18.157598514599
30
0
41
1
10
9.9667945069009
20
18.1413543982079
30
0
41
1
10
9.89859233530444
20
18.1057134961006
30
0
41
1
10
9.86680280977157
20
18.0866025736856
30
0
41
1
10
9.77624486269582
20
18.0264536331664
30
0
41
1
10
9.72219212380486
20
17.9826468756171
30
0
41
1
10
9.62154604686424
20
17.8901219412534
30
0
41
1
10
9.57569549171365
20
17.8419574748245
30
0
41
1
10
9.44751603571342
20
17.6937963167362
30
0
41
1
10
9.37401134725235
20
17.5898223306017
30
0
41
1
10
9.24141665788011
20
17.3736191924872
30
0
41
1
10
9.18258856422449
20
17.2613238379054
30
0
41
1
10
9.10336451167018
20
17.0869054740988
30
0
41
1
10
9.07855215288805
20
17.0278914016608
30
0
41
1
10
9.03215969393989
20
16.9087204193432
30
0
41
1
10
9.01054010650574
20
16.848474869608
30
0
41
1
10
8.95024781199322
20
16.6657544589372
30
0
41
1
10
8.91610556914441
20
16.541300554887
30
0
41
1
10
8.86011030911692
20
16.2869672607412
30
0
41
1
10
8.83825812169914
20
16.1570885550108
30
0
41
1
10
8.80821211825031
20
15.8915990660632
30
0
41
1
10
8.80000000000001
20
15.7559914435445
30
0
41
1
10
8.80000000000001
20
15.6172577194022
30
0
0
SPLINE
5
33C
100
AcDbEntity
8
1
62
256
6
ByLayer
370
18
48
1
60
0
100
AcDbSpline
70
4
71
3
72
14
73
10
40
0
40
0
40
0
40
0
40
0.25
40
0.25
40
0.5
40
0.5
40
0.75
40
0.75
40
1
40
1
40
1
40
1
41
1
10
11.8
20
11.9332434780401
30
0
41
1
10
11.8
20
11.9179972707378
30
0
41
1
10
11.7981798910338
20
11.9030282563128
30
0
41
1
10
11.790739930855
20
11.873672120144
30
0
41
1
10
11.7850216508442
20
11.8591390677912
30
0
41
1
10
11.7691213388491
20
11.8326497513488
30
0
41
1
10
11.7587880945122
20
11.8203764615493
30
0
41
1
10
11.7325991923171
20
11.801777635373
30
0
41
1
10
11.7166270095906
20
11.7957880253939
30
0
41
1
10
11.7000000000024
20
11.7957880253933
30
0
0
SPLINE
5
33D
100
AcDbEntity
8
1
62
256
6
ByLayer
370
18
48
1
60
0
100
AcDbSpline
70
4
71
3
72
28
73
24
40
0
40
0
40
0
40
0
40
0.125000000000004
40
0.125000000000004
40
0.187500000000008
40
0.187500000000008
40
0.250000000000012
40
0.250000000000012
40
0.375000000000019
40
0.375000000000019
40
0.437500000000019
40
0.437500000000019
40
0.500000000000019
40
0.500000000000019
40
0.625000000000015
40
0.625000000000015
40
0.750000000000011
40
0.750000000000011
40
0.812500000000011
40
0.812500000000011
40
0.87500000000001
40
0.87500000000001
40
1
40
1
40
1
40
1
41
1
10
3.5
20
18.5570145052673
30
0
41
1
10
3.43274450874435
20
18.5570145052673
30
0
41
1
10
3.36666324300677
20
18.5530700486476
30
0
41
1
10
3.26922820028625
20
18.5414537562997
30
0
41
1
10
3.23703319502158
20
18.5366236749728
30
0
41
1
10
3.17322360852654
20
18.5249873493339
30
0
41
1
10
3.14164431886644
20
18.5181719987222
30
0
41
1
10
3.04993307534323
20
18.4952035477295
30
0
41
1
10
2.99205318368394
20
18.4764309480864
30
0
41
1
10
2.9100840072096
20
18.4429854802984
30
0
41
1
10
2.88343932217197
20
18.4308741231342
30
0
41
1
10
2.83276340732101
20
18.4052662090756
30
0
41
1
10
2.80867672291265
20
18.3917627698234
30
0
41
1
10
2.74005485678526
20
18.3491784379164
30
0
41
1
10
2.69907446920229
20
18.3179953707826
30
0
41
1
10
2.62717012024308
20
18.2499915348284
30
0
41
1
10
2.59728489954386
20
18.2141742204542
30
0
41
1
10
2.56104290820611
20
18.1577512931241
30
0
41
1
10
2.55040374668403
20
18.1384914416849
30
0
41
1
10
2.53204341847658
20
18.0990394332506
30
0
41
1
10
2.52433479286225
20
18.0788225750182
30
0
41
1
10
2.50603046880201
20
18.0179921779312
30
0
41
1
10
2.5
20
17.9767968556902
30
0
41
1
10
2.5
20
17.9349517859429
30
0
0
SPLINE
5
33E
100
AcDbEntity
8
1
62
256
6
ByLayer
370
18
48
1
60
0
100
AcDbSpline
70
4
71
3
72
28
73
24
40
0
40
0
40
0
40
0
40
0.0625000000000031
40
0.0625000000000031
40
0.125000000000006
40
0.125000000000006
40
0.250000000000003
40
0.250000000000003
40
0.312500000000001
40
0.312500000000001
40
0.375
40
0.375
40
0.5
40
0.5
40
0.625
40
0.625
40
0.687500000000001
40
0.687500000000001
40
0.750000000000002
40
0.750000000000002
40
0.875000000000001
40
0.875000000000001
40
1
40
1
40
1
40
1
41
1
10
13.5
20
17.934951785943
30
0
41
1
10
13.5
20
17.9558811084491
30
0
41
1
10
13.4984643132568
20
17.9769163731315
30
0
41
1
10
13.4922918046558
20
18.0185084156781
30
0
41
1
10
13.4876846200512
20
18.0389809748459
30
0
41
1
10
13.4693923112526
20
18.0994600186119
30
0
41
1
10
13.4512774737101
20
18.1385340661957
30
0
41
1
10
13.4148573082091
20
18.1952888194957
30
0
41
1
10
13.401093813331
20
18.2139612461078
30
0
41
1
10
13.3709812142196
20
18.2498938971407
30
0
41
1
10
13.3545863858891
20
18.2672460665357
30
0
41
1
10
13.3014314075623
20
18.3175155916029
30
0
41
1
10
13.2607403413956
20
18.3486620118714
30
0
41
1
10
13.1681901427322
20
18.4061412058571
30
0
41
1
10
13.1176861725649
20
18.4316040311708
30
0
41
1
10
13.0363139330684
20
18.4648811333285
30
0
41
1
10
13.0082179742295
20
18.4751658687378
30
0
41
1
10
12.9500297773076
20
18.4941013347585
30
0
41
1
10
12.9197726524738
20
18.5027856105544
30
0
41
1
10
12.8278570964596
20
18.525819968844
30
0
41
1
10
12.7646790921141
20
18.5373566603984
30
0
41
1
10
12.6345517022447
20
18.5529787413788
30
0
41
1
10
12.5672508124508
20
18.5570145052674
30
0
41
1
10
12.5
20
18.5570145052674
30
0
0
SPLINE
5
33F
100
AcDbEntity
8
1
62
256
6
ByLayer
370
18
48
1
60
0
100
AcDbSpline
70
4
71
3
72
22
73
18
40
0
40
0
40
0
40
0
40
0.250000000000009
40
0.250000000000009
40
0.375000000000009
40
0.375000000000009
40
0.500000000000008
40
0.500000000000008
40
0.625000000000008
40
0.625000000000008
40
0.750000000000008
40
0.750000000000008
40
0.875000000000007
40
0.875000000000007
40
0.937500000000004
40
0.937500000000004
40
1
40
1
40
1
40
1
41
1
10
13.2633404146231
20
25.1943376077251
30
0
41
1
10
13.289924970647
20
25.1192434187003
30
0
41
1
10
13.3159528399639
20
25.0437613848375
30
0
41
1
10
13.3537925565652
20
24.929700837159
30
0
41
1
10
13.3662032748467
20
24.8915395580677
30
0
41
1
10
13.3905034993096
20
24.8148538702828
30
0
41
1
10
13.4024193054653
20
24.7762374271475
30
0
41
1
10
13.4251372806928
20
24.6998791993836
30
0
41
1
10
13.4359991805256
20
24.6619592111206
30
0
41
1
10
13.4562522585991
20
24.5871325490548
30
0
41
1
10
13.4654725018096
20
24.5508660957702
30
0
41
1
10
13.4814135622889
20
24.4814961034654
30
0
41
1
10
13.4881882388553
20
24.4479840670496
30
0
41
1
10
13.4951353506184
20
24.4038932464923
30
0
41
1
10
13.4969372942705
20
24.3901486857747
30
0
41
1
10
13.4993817432103
20
24.3648088650144
30
0
41
1
10
13.5
20
24.3533624834265
30
0
41
1
10
13.5
20
24.3434505550363
30
0
0
SPLINE
5
340
100
AcDbEntity
8
1
62
256
6
ByLayer
370
18
48
1
60
0
100
AcDbSpline
70
4
71
3
72
10
73
6
40
0
40
0
40
0
40
0
40
0.5
40
0.5
40
1
40
1
40
1
40
1
41
1
10
12.9868161417704
20
24.9494605741106
30
0
41
1
10
13.0478833138107
20
24.9857930645605
30
0
41
1
10
13.0991628938999
20
25.0250592764511
30
0
41
1
10
13.1897318075465
20
25.1071856427984
30
0
41
1
10
13.2289466286014
20
25.1502283366759
30
0
41
1
10
13.263340414623
20
25.1943376077252
30
0
0
SPLINE
5
341
100
AcDbEntity
8
1
62
256
6
ByLayer
370
18
48
1
60
0
100
AcDbSpline
70
4
71
3
72
16
73
12
40
0
40
0
40
0
40
0
40
0.249999999999998
40
0.249999999999998
40
0.499999999999995
40
0.499999999999995
40
0.749999999999993
40
0.749999999999993
40
0.874999999999996
40
0.874999999999996
40
1
40
1
40
1
40
1
41
1
10
12.5
20
24.9397887072991
30
0
41
1
10
12.5440060952343
20
24.9397887072991
30
0
41
1
10
12.5875166074285
20
24.9385716669221
30
0
41
1
10
12.6735432302482
20
24.9345607407862
30
0
41
1
10
12.7160602371752
20
24.9317415892976
30
0
41
1
10
12.7999540150076
20
24.9269921359192
30
0
41
1
10
12.8417520703412
20
24.9249294158723
30
0
41
1
10
12.9006060173443
20
24.9271605257846
30
0
41
1
10
12.9198279012009
20
24.9288389041409
30
0
41
1
10
12.9556952445556
20
24.9357478015406
30
0
41
1
10
12.9723182438818
20
24.9408349129083
30
0
41
1
10
12.986816141771
20
24.949460574111
30
0
0
SPLINE
5
342
100
AcDbEntity
8
1
62
256
6
ByLayer
370
18
48
1
60
0
100
AcDbSpline
70
4
71
3
72
14
73
10
40
0
40
0
40
0
40
0
40
0.25
40
0.25
40
0.5
40
0.5
40
0.75
40
0.75
40
1
40
1
40
1
40
1
41
1
10
8.89999999999998
20
-19.5020467612072
30
0
41
1
10
8.88337655602743
20
-19.5020467612072
30
0
41
1
10
8.86756145752321
20
-19.4995219188443
30
0
41
1
10
8.84129376523401
20
-19.4915960248956
30
0
41
1
10
8.83098238471291
20
-19.4863953676608
30
0
41
1
10
8.81501493552264
20
-19.4751349192902
30
0
41
1
10
8.80937575281791
20
-19.4691054958249
30
0
41
1
10
8.80181712614126
20
-19.4565958623531
30
0
41
1
10
8.80000000000001
20
-19.450270492357
30
0
41
1
10
8.80000000000001
20
-19.4438835787627
30
0
0
SPLINE
5
343
100
AcDbEntity
8
1
62
256
6
ByLayer
370
18
48
1
60
0
100
AcDbSpline
70
4
71
3
72
14
73
10
40
0
40
0
40
0
40
0
40
0.25
40
0.25
40
0.5
40
0.5
40
0.75
40
0.75
40
1
40
1
40
1
40
1
41
1
10
11.8
20
-19.4438835787627
30
0
41
1
10
11.8
20
-19.4502729524297
30
0
41
1
10
11.7981798910338
20
-19.4565668562098
30
0
41
1
10
11.790739930855
20
-19.4689474714236
30
0
41
1
10
11.7850216508442
20
-19.4750966518081
30
0
41
1
10
11.7691213388491
20
-19.4863345773435
30
0
41
1
10
11.7587880945122
20
-19.4915580652714
30
0
41
1
10
11.7325991923171
20
-19.4994865825524
30
0
41
1
10
11.7166270095906
20
-19.5020467612098
30
0
41
1
10
11.7000000000024
20
-19.5020467612101
30
0
0
SPLINE
5
344
100
AcDbEntity
8
1
62
256
6
ByLayer
370
18
48
1
60
0
100
AcDbSpline
70
4
71
2
72
6
73
3
40
0
40
0
40
0
40
1
40
1
40
1
41
0.50000005338351
10
13.1200195415
20
-6.29023139509046
30
0
41
0.49999994661649
10
13.1200097792396
20
-6.29017124060177
30
0
41
0.50000005338351
10
13.1199999999999
20
-6.29011104537112
30
0
0
SPLINE
5
345
100
AcDbEntity
8
1
62
256
6
ByLayer
370
18
48
1
60
0
100
AcDbSpline
70
4
71
2
72
6
73
3
40
0
40
0
40
0
40
1
40
1
40
1
41
0.499999975508562
10
2.87999999999998
20
-6.29011104537116
30
0
41
0.500000024491438
10
2.87999022076046
20
-6.29017124060145
30
0
41
0.499999975508562
10
2.87998045849996
20
-6.29023139509049
30
0
0
SPLINE
5
346
100
AcDbEntity
8
1
62
256
6
ByLayer
370
18
48
1
60
0
100
AcDbSpline
70
4
71
3
72
28
73
24
40
0
40
0
40
0
40
0
40
0.124999999999999
40
0.124999999999999
40
0.187499999999998
40
0.187499999999998
40
0.249999999999998
40
0.249999999999998
40
0.375000000000003
40
0.375000000000003
40
0.437500000000005
40
0.437500000000005
40
0.500000000000008
40
0.500000000000008
40
0.625000000000002
40
0.625000000000002
40
0.749999999999997
40
0.749999999999997
40
0.812499999999994
40
0.812499999999994
40
0.874999999999992
40
0.874999999999992
40
1
40
1
40
1
40
1
41
1
10
3.5
20
-18.494424614359
30
0
41
1
10
3.43274450874435
20
-18.494424614359
30
0
41
1
10
3.36666324300677
20
-18.4932298190277
30
0
41
1
10
3.26922820028625
20
-18.4897611270733
30
0
41
1
10
3.23703319502158
20
-18.4883240371453
30
0
41
1
10
3.17322360852654
20
-18.4848910760027
30
0
41
1
10
3.14164431886644
20
-18.4828928471792
30
0
41
1
10
3.04993307534323
20
-18.4762307403824
30
0
41
1
10
2.99205318368394
20
-18.4708672343418
30
0
41
1
10
2.9100840072096
20
-18.461619299594
30
0
41
1
10
2.88343932217197
20
-18.4583151584496
30
0
41
1
10
2.83276340732101
20
-18.4514514096465
30
0
41
1
10
2.80867672291265
20
-18.4478892678786
30
0
41
1
10
2.74005485678521
20
-18.4368734136471
30
0
41
1
10
2.69907446920229
20
-18.4290816190405
30
0
41
1
10
2.62717012024308
20
-18.4129145749125
30
0
41
1
10
2.59728489954386
20
-18.4047794188089
30
0
41
1
10
2.56104290820611
20
-18.3926631039267
30
0
41
1
10
2.55040374668403
20
-18.3886381042243
30
0
41
1
10
2.53204341847658
20
-18.3806370805283
30
0
41
1
10
2.52433479286225
20
-18.3766578585249
30
0
41
1
10
2.50603046880201
20
-18.3650593391046
30
0
41
1
10
2.5
20
-18.3576955572798
30
0
41
1
10
2.5
20
-18.3507208573909
30
0
0
SPLINE
5
347
100
AcDbEntity
8
1
62
256
6
ByLayer
370
18
48
1
60
0
100
AcDbSpline
70
4
71
3
72
10
73
6
40
0
40
0
40
0
40
0
40
0.5
40
0.5
40
1
40
1
40
1
40
1
41
1
10
2.73665958537714
20
-11.121299749593
30
0
41
1
10
2.77074109493719
20
-11.2046758223879
30
0
41
1
10
2.8094919403672
20
-11.2860423855134
30
0
41
1
10
2.90012231839466
20
-11.4431254097922
30
0
41
1
10
2.9522568822216
20
-11.5192650586935
30
0
41
1
10
3.01318385823043
20
-11.5884114786343
30
0
0
SPLINE
5
348
100
AcDbEntity
8
1
62
256
6
ByLayer
370
18
48
1
60
0
100
AcDbSpline
70
4
71
3
72
24
73
20
40
0
40
0
40
0
40
0
40
0.0625000000000001
40
0.0625000000000001
40
0.125
40
0.125
40
0.25
40
0.25
40
0.3125
40
0.3125
40
0.375
40
0.375
40
0.5
40
0.5
40
0.625
40
0.625
40
0.75
40
0.75
40
1
40
1
40
1
40
1
41
1
10
2.5
20
-11.5538302611882
30
0
41
1
10
2.5
20
-11.5592707659562
30
0
41
1
10
2.50062049634289
20
-11.5630722912579
30
0
41
1
10
2.50303728295654
20
-11.5675695989728
30
0
41
1
10
2.50484704922644
20
-11.5682594950079
30
0
41
1
10
2.51187974501857
20
-11.5658946992286
30
0
41
1
10
2.51851564087303
20
-11.5586113887463
30
0
41
1
10
2.53057157804267
20
-11.5415264213031
30
0
41
1
10
2.53495655473927
20
-11.5347661874742
30
0
41
1
10
2.54414747773183
20
-11.5197632396917
30
0
41
1
10
2.54897553859604
20
-11.5114908416804
30
0
41
1
10
2.56403723920442
20
-11.4847595299424
30
0
41
1
10
2.57484225881109
20
-11.4644068427215
30
0
41
1
10
2.59758260917778
20
-11.4199551806652
30
0
41
1
10
2.60946906722757
20
-11.3959419025988
30
0
41
1
10
2.63368599765397
20
-11.3459079844947
30
0
41
1
10
2.64607349032212
20
-11.3197726719108
30
0
41
1
10
2.68389247973181
20
-11.2387354094059
30
0
41
1
10
2.70997138601018
20
-11.1812386153958
30
0
41
1
10
2.73665958537674
20
-11.1212997495928
30
0
0
SPLINE
5
349
100
AcDbEntity
8
1
62
256
6
ByLayer
370
18
48
1
60
0
100
AcDbSpline
70
4
71
3
72
18
73
14
40
0
40
0
40
0
40
0
40
0.124999999999997
40
0.124999999999997
40
0.249999999999994
40
0.249999999999994
40
0.374999999999992
40
0.374999999999992
40
0.499999999999989
40
0.499999999999989
40
0.749999999999994
40
0.749999999999994
40
1
40
1
40
1
40
1
41
1
10
3.01318385823078
20
-11.588411478634
30
0
41
1
10
3.02767574715222
20
-11.604858417293
30
0
41
1
10
3.04427523048793
20
-11.6178500119317
30
0
41
1
10
3.08006464136906
20
-11.6400623395246
30
0
41
1
10
3.09928047998
20
-11.6491267063427
30
0
41
1
10
3.13834936102489
20
-11.6641140045507
30
0
41
1
10
3.1584154671848
20
-11.6701402876026
30
0
41
1
10
3.19942430727269
20
-11.6802223323895
30
0
41
1
10
3.22044006013869
20
-11.6842741788815
30
0
41
1
10
3.28366303816137
20
-11.6941864601521
30
0
41
1
10
3.32631455231842
20
-11.697966046841
30
0
41
1
10
3.41249738269789
20
-11.7027809646799
30
0
41
1
10
3.45602957404969
20
-11.7037873141628
30
0
41
1
10
3.49999999999841
20
-11.7037873141628
30
0
0
SPLINE
5
34A
100
AcDbEntity
8
1
62
256
6
ByLayer
370
18
48
1
60
0
100
AcDbSpline
70
4
71
3
72
28
73
24
40
0
40
0
40
0
40
0
40
0.0624999999999986
40
0.0624999999999986
40
0.124999999999997
40
0.124999999999997
40
0.249999999999994
40
0.249999999999994
40
0.312499999999992
40
0.312499999999992
40
0.37499999999999
40
0.37499999999999
40
0.499999999999985
40
0.499999999999985
40
0.624999999999981
40
0.624999999999981
40
0.687499999999982
40
0.687499999999982
40
0.749999999999984
40
0.749999999999984
40
0.874999999999992
40
0.874999999999992
40
1
40
1
40
1
40
1
41
1
10
13.5
20
-18.3507208573909
30
0
41
1
10
13.5
20
-18.354209338692
30
0
41
1
10
13.4984643132568
20
-18.3578412760893
30
0
41
1
10
13.4922918046558
20
-18.3652743023255
30
0
41
1
10
13.4876846200512
20
-18.3690589171234
30
0
41
1
10
13.4693923112526
20
-18.3805976045598
30
0
41
1
10
13.4512774737101
20
-18.3885378716289
30
0
41
1
10
13.4148573082091
20
-18.4007232078534
30
0
41
1
10
13.401093813331
20
-18.4048462515673
30
0
41
1
10
13.3709812142196
20
-18.4129834760781
30
0
41
1
10
13.3545863858891
20
-18.4170165861335
30
0
41
1
10
13.3014314075623
20
-18.4289676246684
30
0
41
1
10
13.2607403413956
20
-18.4367409194092
30
0
41
1
10
13.1681901427322
20
-18.4516076385202
30
0
41
1
10
13.1176861725649
20
-18.458474068659
30
0
41
1
10
13.0363139330684
20
-18.4676727263477
30
0
41
1
10
13.0082179742295
20
-18.4705592665266
30
0
41
1
10
12.9500297773076
20
-18.475932966849
30
0
41
1
10
12.9197726524738
20
-18.4784300510158
30
0
41
1
10
12.8278570964596
20
-18.4851109821373
30
0
41
1
10
12.7646790921141
20
-18.4885380197398
30
0
41
1
10
12.6345517022447
20
-18.4932022511918
30
0
41
1
10
12.5672508124508
20
-18.4944246143591
30
0
41
1
10
12.5
20
-18.494424614359
30
0
0
SPLINE
5
34B
100
AcDbEntity
8
1
62
256
6
ByLayer
370
18
48
1
60
0
100
AcDbSpline
70
4
71
3
72
22
73
18
40
0
40
0
40
0
40
0
40
0.124999999999996
40
0.124999999999996
40
0.249999999999992
40
0.249999999999992
40
0.499999999999997
40
0.499999999999997
40
0.624999999999998
40
0.624999999999998
40
0.749999999999998
40
0.749999999999998
40
0.874999999999999
40
0.874999999999999
40
0.9375
40
0.9375
40
1
40
1
40
1
40
1
41
1
10
13.2633404146231
20
-11.1212997495925
30
0
41
1
10
13.2766383672138
20
-11.1511655410174
30
0
41
1
10
13.2898262652074
20
-11.1805127302407
30
0
41
1
10
13.3159389482977
20
-11.2379672610915
30
0
41
1
10
13.3288943089076
20
-11.2661403843414
30
0
41
1
10
13.366981713979
20
-11.3477349908156
30
0
41
1
10
13.3914196365242
20
-11.3984900767448
30
0
41
1
10
13.4255108805419
20
-11.4650803811211
30
0
41
1
10
13.4362900600653
20
-11.4853625017063
30
0
41
1
10
13.4562839405888
20
-11.5208025785631
30
0
41
1
10
13.4655380985544
20
-11.5360368914979
30
0
41
1
10
13.4816202959459
20
-11.5587800313066
30
0
41
1
10
13.4882276285639
20
-11.565981683011
30
0
41
1
10
13.4952045661498
20
-11.5682508328665
30
0
41
1
10
13.4970031290958
20
-11.5675323304574
30
0
41
1
10
13.4993915997644
20
-11.5630110092005
30
0
41
1
10
13.5
20
-11.5592168947927
30
0
41
1
10
13.5
20
-11.5538302611883
30
0
0
SPLINE
5
34C
100
AcDbEntity
8
1
62
256
6
ByLayer
370
18
48
1
60
0
100
AcDbSpline
70
4
71
3
72
10
73
6
40
0
40
0
40
0
40
0
40
0.5
40
0.5
40
1
40
1
40
1
40
1
41
1
10
12.9868161417702
20
-11.5884114786329
30
0
41
1
10
13.0478835283876
20
-11.5191057057823
30
0
41
1
10
13.099163117753
20
-11.4442038933868
30
0
41
1
10
13.189731955486
20
-11.2875449547132
30
0
41
1
10
13.2289466309259
20
-11.2054397612953
30
0
41
1
10
13.263340414623
20
-11.1212997495926
30
0
0
SPLINE
5
34D
100
AcDbEntity
8
1
62
256
6
ByLayer
370
18
48
1
60
0
100
AcDbSpline
70
4
71
3
72
16
73
12
40
0
40
0
40
0
40
0
40
0.250000000000004
40
0.250000000000004
40
0.500000000000008
40
0.500000000000008
40
0.750000000000011
40
0.750000000000011
40
0.875000000000006
40
0.875000000000006
40
1
40
1
40
1
40
1
41
1
10
12.5
20
-11.7037873141589
30
0
41
1
10
12.5440059916166
20
-11.7037873141589
30
0
41
1
10
12.5875164024999
20
-11.7027786986129
30
0
41
1
10
12.6735428274961
20
-11.6979755085051
30
0
41
1
10
12.7160597378901
20
-11.6942069535686
30
0
41
1
10
12.7999533290636
20
-11.6810995539233
30
0
41
1
10
12.8417513244151
20
-11.6717245238271
30
0
41
1
10
12.9006050487685
20
-11.6491820816716
30
0
41
1
10
12.9198267556723
20
-11.6401222857812
30
0
41
1
10
12.9556945626756
20
-11.6178761877232
30
0
41
1
10
12.9723178786404
20
-11.6048656514227
30
0
41
1
10
12.9868161417706
20
-11.5884114786323
30
0
0
SPLINE
5
34E
100
AcDbEntity
8
1
62
256
6
ByLayer
370
18
48
1
60
0
100
AcDbSpline
70
4
71
3
72
16
73
12
40
0
40
0
40
0
40
0
40
0.313430622175677
40
0.313430622175677
40
0.626861244351353
40
0.626861244351353
40
0.783576555439191
40
0.783576555439191
40
0.940291866527029
40
0.940291866527029
40
1
40
1
40
1
40
1
41
1
10
9.30000000000001
20
1.82825543776369
30
0
41
1
10
9.40286881375266
20
1.76629096557707
30
0
41
1
10
9.50028696469434
20
1.69805232052192
30
0
41
1
10
9.68497184219763
20
1.54986162001927
30
0
41
1
10
9.77223499454215
20
1.46990552881653
30
0
41
1
10
9.89562580036835
20
1.34129062885648
30
0
41
1
10
9.93550113216372
20
1.2969672559372
30
0
41
1
10
10.0127087522134
20
1.20537486953594
30
0
41
1
10
10.049870343349
20
1.15829024889871
30
0
41
1
10
10.0987814753289
20
1.09212095425141
30
0
41
1
10
10.1120386463849
20
1.07372750010938
30
0
41
1
10
10.1250604440865
20
1.05519648669838
30
0
0
SPLINE
5
34F
100
AcDbEntity
8
1
62
256
6
ByLayer
370
18
48
1
60
0
100
AcDbSpline
70
4
71
3
72
20
73
16
40
0
40
0
40
0
40
0
40
0.124999999999997
40
0.124999999999997
40
0.249999999999994
40
0.249999999999994
40
0.374999999999991
40
0.374999999999991
40
0.499999999999987
40
0.499999999999987
40
0.749999999999993
40
0.749999999999993
40
0.874999999999997
40
0.874999999999997
40
1
40
1
40
1
40
1
41
1
10
8.80000000000001
20
2.22450266299035
30
0
41
1
10
8.80000000000001
20
2.21629628134957
30
0
41
1
10
8.8018887075599
20
2.20745978213415
30
0
41
1
10
8.80909354618706
20
2.18897329475556
30
0
41
1
10
8.81440845921674
20
2.17926972306117
30
0
41
1
10
8.82832805567932
20
2.15890719123473
30
0
41
1
10
8.8369907129013
20
2.14820093290496
30
0
41
1
10
8.85706334306724
20
2.12629035263984
30
0
41
1
10
8.86850391935673
20
2.11502811406035
30
0
41
1
10
8.90681273138534
20
2.08017413146143
30
0
41
1
10
8.93801042038285
20
2.05529191827395
30
0
41
1
10
8.98997756493759
20
2.01683590847273
30
0
41
1
10
9.00822689170673
20
2.00376659995436
30
0
41
1
10
9.04648897867708
20
1.97699217712335
30
0
41
1
10
9.06663554550005
20
1.96319802231471
30
0
41
1
10
9.08724256912404
20
1.9492843147255
30
0
0
SPLINE
5
350
100
AcDbEntity
8
1
62
256
6
ByLayer
370
18
48
1
60
0
100
AcDbSpline
70
4
71
3
72
12
73
8
40
0
40
0
40
0
40
0
40
0.25
40
0.25
40
0.500000000000001
40
0.500000000000001
40
1
40
1
40
1
40
1
41
1
10
9.08724256912404
20
1.9492843147255
30
0
41
1
10
9.10409480250456
20
1.94013659771411
30
0
41
1
10
9.12148035147095
20
1.93063062229055
30
0
41
1
10
9.15650950708886
20
1.91126243894632
30
0
41
1
10
9.17416878345517
20
1.90139279305868
30
0
41
1
10
9.2275149029042
20
1.87116932759381
30
0
41
1
10
9.26362513889632
20
1.8501663453257
30
0
41
1
10
9.30000000000001
20
1.82825543776369
30
0
0
LINE
5
7A
100
AcDbEntity
8
1
62
256
6
ByLayer
370
13
48
1
60
0
100
AcDbLine
10
9.3
20
2.91301
30
0
11
9.3
21
1.828255
31
0
39
0
210
0
220
0
230
1
0
LINE
5
7B
100
AcDbEntity
8
1
62
256
6
ByLayer
370
18
48
1
60
0
100
AcDbLine
10
13.15802
20
-45.142444
30
0
11
13.15802
21
-44.920974
31
0
39
0
210
0
220
0
230
1
0
LINE
5
7C
100
AcDbEntity
8
1
62
256
6
ByLayer
370
13
48
1
60
0
100
AcDbLine
10
3.013184
20
-46.872277
30
0
11
12.986816
21
-46.872277
31
0
39
0
210
0
220
0
230
1
0
LINE
5
7D
100
AcDbEntity
8
1
62
256
6
ByLayer
370
13
48
1
60
0
100
AcDbLine
10
13.18652
20
-46.693026
30
0
11
2.81348
21
-46.693026
31
0
39
0
210
0
220
0
230
1
0
LINE
5
7E
100
AcDbEntity
8
1
62
256
6
ByLayer
370
13
48
1
60
0
100
AcDbLine
10
13.42212
20
-45.710571
30
0
11
2.57788
21
-45.710571
31
0
39
0
210
0
220
0
230
1
0
LINE
5
7F
100
AcDbEntity
8
1
62
256
6
ByLayer
370
13
48
1
60
0
100
AcDbLine
10
2.84198
20
-46.58789
30
0
11
13.15802
21
-46.58789
31
0
39
0
210
0
220
0
230
1
0
LINE
5
80
100
AcDbEntity
8
1
62
256
6
ByLayer
370
13
48
1
60
0
100
AcDbLine
10
2.81348
20
-46.221197
30
0
11
13.18652
21
-46.221197
31
0
39
0
210
0
220
0
230
1
0
LINE
5
81
100
AcDbEntity
8
1
62
256
6
ByLayer
370
13
48
1
60
0
100
AcDbLine
10
13.15802
20
-46.366419
30
0
11
2.84198
21
-46.366419
31
0
39
0
210
0
220
0
230
1
0
LINE
5
82
100
AcDbEntity
8
1
62
256
6
ByLayer
370
13
48
1
60
0
100
AcDbLine
10
2.57788
20
-45.426831
30
0
11
13.42212
21
-45.426831
31
0
39
0
210
0
220
0
230
1
0
LINE
5
83
100
AcDbEntity
8
1
62
256
6
ByLayer
370
13
48
1
60
0
100
AcDbLine
10
13.18652
20
-45.247581
30
0
11
2.81348
21
-45.247581
31
0
39
0
210
0
220
0
230
1
0
LINE
5
84
100
AcDbEntity
8
1
62
256
6
ByLayer
370
13
48
1
60
0
100
AcDbLine
10
13.42212
20
-44.265125
30
0
11
13.377556
21
-44.265125
31
0
39
0
210
0
220
0
230
1
0
LINE
5
85
100
AcDbEntity
8
1
62
256
6
ByLayer
370
13
48
1
60
0
100
AcDbLine
10
2.626171
20
-44.265125
30
0
11
2.57788
21
-44.265125
31
0
39
0
210
0
220
0
230
1
0
LINE
5
86
100
AcDbEntity
8
1
62
256
6
ByLayer
370
13
48
1
60
0
100
AcDbLine
10
2.84198
20
-45.142444
30
0
11
13.15802
21
-45.142444
31
0
39
0
210
0
220
0
230
1
0
LINE
5
87
100
AcDbEntity
8
1
62
256
6
ByLayer
370
13
48
1
60
0
100
AcDbLine
10
2.81348
20
-44.775752
30
0
11
13.18652
21
-44.775752
31
0
39
0
210
0
220
0
230
1
0
LINE
5
88
100
AcDbEntity
8
1
62
256
6
ByLayer
370
13
48
1
60
0
100
AcDbLine
10
13.15802
20
-44.920974
30
0
11
2.84198
21
-44.920974
31
0
39
0
210
0
220
0
230
1
0
LINE
5
89
100
AcDbEntity
8
1
62
256
6
ByLayer
370
18
48
1
60
0
100
AcDbLine
10
13.42212
20
-45.426831
30
0
11
13.18652
21
-45.247581
31
0
39
0
210
0
220
0
230
1
0
LINE
5
8A
100
AcDbEntity
8
1
62
256
6
ByLayer
370
18
48
1
60
0
100
AcDbLine
10
13.18652
20
-46.221197
30
0
11
13.42212
21
-45.710571
31
0
39
0
210
0
220
0
230
1
0
LINE
5
8B
100
AcDbEntity
8
1
62
256
6
ByLayer
370
18
48
1
60
0
100
AcDbLine
10
13.15802
20
-46.58789
30
0
11
13.15802
21
-46.366419
31
0
39
0
210
0
220
0
230
1
0
LINE
5
8C
100
AcDbEntity
8
1
62
256
6
ByLayer
370
18
48
1
60
0
100
AcDbLine
10
13.26334
20
-46.751474
30
0
11
13.18652
21
-46.693026
31
0
39
0
210
0
220
0
230
1
0
LINE
5
8D
100
AcDbEntity
8
1
62
256
6
ByLayer
370
18
48
1
60
0
100
AcDbLine
10
2.5
20
-43.886711
30
0
11
2.5
21
-45.980668
31
0
39
0
210
0
220
0
230
1
0
LINE
5
8E
100
AcDbEntity
8
1
62
256
6
ByLayer
370
18
48
1
60
0
100
AcDbLine
10
2.81348
20
-46.693026
30
0
11
2.73666
21
-46.751474
31
0
39
0
210
0
220
0
230
1
0
LINE
5
8F
100
AcDbEntity
8
1
62
256
6
ByLayer
370
18
48
1
60
0
100
AcDbLine
10
2.84198
20
-46.366419
30
0
11
2.84198
21
-46.58789
31
0
39
0
210
0
220
0
230
1
0
LINE
5
90
100
AcDbEntity
8
1
62
256
6
ByLayer
370
18
48
1
60
0
100
AcDbLine
10
2.57788
20
-45.710571
30
0
11
2.81348
21
-46.221197
31
0
39
0
210
0
220
0
230
1
0
LINE
5
91
100
AcDbEntity
8
1
62
256
6
ByLayer
370
18
48
1
60
0
100
AcDbLine
10
2.81348
20
-45.247581
30
0
11
2.57788
21
-45.426831
31
0
39
0
210
0
220
0
230
1
0
LINE
5
92
100
AcDbEntity
8
1
62
256
6
ByLayer
370
18
48
1
60
0
100
AcDbLine
10
2.84198
20
-44.920974
30
0
11
2.84198
21
-45.142444
31
0
39
0
210
0
220
0
230
1
0
LINE
5
93
100
AcDbEntity
8
1
62
256
6
ByLayer
370
18
48
1
60
0
100
AcDbLine
10
2.57788
20
-44.265125
30
0
11
2.81348
21
-44.775752
31
0
39
0
210
0
220
0
230
1
0
LINE
5
94
100
AcDbEntity
8
1
62
256
6
ByLayer
370
18
48
1
60
0
100
AcDbLine
10
2.5
20
25.136895
30
0
11
2.5
21
24.93152
31
0
39
0
210
0
220
0
230
1
0
LINE
5
95
100
AcDbEntity
8
1
62
256
6
ByLayer
370
18
48
1
60
0
100
AcDbLine
10
13.5
20
24.93152
30
0
11
13.5
21
25.136895
31
0
39
0
210
0
220
0
230
1
0
LINE
5
96
100
AcDbEntity
8
1
62
256
6
ByLayer
370
18
48
1
60
0
100
AcDbLine
10
2.5
20
26.219446
30
0
11
2.5
21
25.136895
31
0
39
0
210
0
220
0
230
1
0
LINE
5
97
100
AcDbEntity
8
1
62
256
6
ByLayer
370
18
48
1
60
0
100
AcDbLine
10
13.5
20
25.136895
30
0
11
13.5
21
26.219446
31
0
39
0
210
0
220
0
230
1
0
LINE
5
98
100
AcDbEntity
8
1
62
256
6
ByLayer
370
13
48
1
60
0
100
AcDbLine
10
2.57788
20
-26.97708
30
0
11
13.42212
21
-26.97708
31
0
39
0
210
0
220
0
230
1
0
LINE
5
99
100
AcDbEntity
8
1
62
256
6
ByLayer
370
18
48
1
60
0
100
AcDbLine
10
2.5
20
43.714573
30
0
11
2.5
21
45.980668
31
0
39
0
210
0
220
0
230
1
0
LINE
5
9A
100
AcDbEntity
8
1
62
256
6
ByLayer
370
13
48
1
60
0
100
AcDbLine
10
13.12
20
-25.970519
30
0
11
2.88
21
-25.970519
31
0
39
0
210
0
220
0
230
1
0
LINE
5
9B
100
AcDbEntity
8
1
62
256
6
ByLayer
370
18
48
1
60
0
100
AcDbLine
10
3.5
20
46.973975
30
0
11
12.5
21
46.973975
31
0
39
0
210
0
220
0
230
1
0
LINE
5
9C
100
AcDbEntity
8
1
62
256
6
ByLayer
370
13
48
1
60
0
100
AcDbLine
10
13.42212
20
-27.233355
30
0
11
2.57788
21
-27.233355
31
0
39
0
210
0
220
0
230
1
0
LINE
5
9D
100
AcDbEntity
8
1
62
256
6
ByLayer
370
13
48
1
60
0
100
AcDbLine
10
2.81348
20
-27.239603
30
0
11
13.18652
21
-27.239603
31
0
39
0
210
0
220
0
230
1
0
LINE
5
9E
100
AcDbEntity
8
1
62
256
6
ByLayer
370
13
48
1
60
0
100
AcDbLine
10
2.57788
20
-28.282614
30
0
11
13.42212
21
-28.282614
31
0
39
0
210
0
220
0
230
1
0
LINE
5
9F
100
AcDbEntity
8
1
62
256
6
ByLayer
370
13
48
1
60
0
100
AcDbLine
10
13.15802
20
-27.315734
30
0
11
2.84198
21
-27.315734
31
0
39
0
210
0
220
0
230
1
0
LINE
5
A0
100
AcDbEntity
8
1
62
256
6
ByLayer
370
13
48
1
60
0
100
AcDbLine
10
2.84198
20
-27.515767
30
0
11
13.15802
21
-27.515767
31
0
39
0
210
0
220
0
230
1
0
LINE
5
A1
100
AcDbEntity
8
1
62
256
6
ByLayer
370
13
48
1
60
0
100
AcDbLine
10
13.18652
20
-27.665761
30
0
11
2.81348
21
-27.665761
31
0
39
0
210
0
220
0
230
1
0
LINE
5
A2
100
AcDbEntity
8
1
62
256
6
ByLayer
370
13
48
1
60
0
100
AcDbLine
10
13.42212
20
-28.538889
30
0
11
2.57788
21
-28.538889
31
0
39
0
210
0
220
0
230
1
0
LINE
5
A3
100
AcDbEntity
8
1
62
256
6
ByLayer
370
18
48
1
60
0
100
AcDbLine
10
13.5
20
45.980668
30
0
11
13.5
21
43.714573
31
0
39
0
210
0
220
0
230
1
0
LINE
5
A4
100
AcDbEntity
8
1
62
256
6
ByLayer
370
13
48
1
60
0
100
AcDbLine
10
3.5
20
46.973975
30
0
11
3.5
21
44.738006
31
0
39
0
210
0
220
0
230
1
0
LINE
5
A5
100
AcDbEntity
8
1
62
256
6
ByLayer
370
18
48
1
60
0
100
AcDbLine
10
2.5
20
36.18381
30
0
11
2.5
21
35.200243
31
0
39
0
210
0
220
0
230
1
0
LINE
5
A6
100
AcDbEntity
8
1
62
256
6
ByLayer
370
13
48
1
60
0
100
AcDbLine
10
2.81348
20
-28.545136
30
0
11
13.18652
21
-28.545136
31
0
39
0
210
0
220
0
230
1
0
LINE
5
A7
100
AcDbEntity
8
1
62
256
6
ByLayer
370
18
48
1
60
0
100
AcDbLine
10
13.5
20
35.200243
30
0
11
13.5
21
36.18381
31
0
39
0
210
0
220
0
230
1
0
LINE
5
A8
100
AcDbEntity
8
1
62
256
6
ByLayer
370
18
48
1
60
0
100
AcDbLine
10
13.5
20
26.219446
30
0
11
13.5
21
35.200243
31
0
39
0
210
0
220
0
230
1
0
LINE
5
A9
100
AcDbEntity
8
1
62
256
6
ByLayer
370
13
48
1
60
0
100
AcDbLine
10
12.5
20
44.738006
30
0
11
12.5
21
46.973975
31
0
39
0
210
0
220
0
230
1
0
LINE
5
AA
100
AcDbEntity
8
1
62
256
6
ByLayer
370
13
48
1
60
0
100
AcDbLine
10
2.57788
20
-29.588147
30
0
11
13.42212
21
-29.588147
31
0
39
0
210
0
220
0
230
1
0
LINE
5
AB
100
AcDbEntity
8
1
62
256
6
ByLayer
370
13
48
1
60
0
100
AcDbLine
10
13.15802
20
-28.621267
30
0
11
2.84198
21
-28.621267
31
0
39
0
210
0
220
0
230
1
0
LINE
5
AC
100
AcDbEntity
8
1
62
256
6
ByLayer
370
13
48
1
60
0
100
AcDbLine
10
2.84198
20
-28.8213
30
0
11
13.15802
21
-28.8213
31
0
39
0
210
0
220
0
230
1
0
LINE
5
AD
100
AcDbEntity
8
1
62
256
6
ByLayer
370
13
48
1
60
0
100
AcDbLine
10
13.18652
20
-28.971295
30
0
11
2.81348
21
-28.971295
31
0
39
0
210
0
220
0
230
1
0
LINE
5
AE
100
AcDbEntity
8
1
62
256
6
ByLayer
370
13
48
1
60
0
100
AcDbLine
10
13.42212
20
-29.844422
30
0
11
2.57788
21
-29.844422
31
0
39
0
210
0
220
0
230
1
0
LINE
5
AF
100
AcDbEntity
8
1
62
256
6
ByLayer
370
13
48
1
60
0
100
AcDbLine
10
2.81348
20
-29.85067
30
0
11
13.18652
21
-29.85067
31
0
39
0
210
0
220
0
230
1
0
LINE
5
B0
100
AcDbEntity
8
1
62
256
6
ByLayer
370
13
48
1
60
0
100
AcDbLine
10
2.57788
20
-30.893681
30
0
11
13.42212
21
-30.893681
31
0
39
0
210
0
220
0
230
1
0
LINE
5
B1
100
AcDbEntity
8
1
62
256
6
ByLayer
370
13
48
1
60
0
100
AcDbLine
10
13.15802
20
-29.926801
30
0
11
2.84198
21
-29.926801
31
0
39
0
210
0
220
0
230
1
0
LINE
5
B2
100
AcDbEntity
8
1
62
256
6
ByLayer
370
13
48
1
60
0
100
AcDbLine
10
2.84198
20
-30.126834
30
0
11
13.15802
21
-30.126834
31
0
39
0
210
0
220
0
230
1
0
LINE
5
B3
100
AcDbEntity
8
1
62
256
6
ByLayer
370
13
48
1
60
0
100
AcDbLine
10
13.18652
20
-30.276828
30
0
11
2.81348
21
-30.276828
31
0
39
0
210
0
220
0
230
1
0
LINE
5
B4
100
AcDbEntity
8
1
62
256
6
ByLayer
370
18
48
1
60
0
100
AcDbLine
10
11.7
20
36.18381
30
0
11
8.9
21
36.18381
31
0
39
0
210
0
220
0
230
1
0
LINE
5
B5
100
AcDbEntity
8
1
62
256
6
ByLayer
370
18
48
1
60
0
100
AcDbLine
10
2.5
20
35.200243
30
0
11
2.5
21
26.219446
31
0
39
0
210
0
220
0
230
1
0
LINE
5
B6
100
AcDbEntity
8
1
62
256
6
ByLayer
370
18
48
1
60
0
100
AcDbLine
10
13.5
20
26.219446
30
0
11
2.5
21
26.219446
31
0
39
0
210
0
220
0
230
1
0
LINE
5
B7
100
AcDbEntity
8
1
62
256
6
ByLayer
370
18
48
1
60
0
100
AcDbLine
10
13.5
20
35.200243
30
0
11
2.5
21
35.200243
31
0
39
0
210
0
220
0
230
1
0
LINE
5
B8
100
AcDbEntity
8
1
62
256
6
ByLayer
370
18
48
1
60
0
100
AcDbLine
10
2.5
20
43.714573
30
0
11
2.5
21
36.18381
31
0
39
0
210
0
220
0
230
1
0
LINE
5
B9
100
AcDbEntity
8
1
62
256
6
ByLayer
370
18
48
1
60
0
100
AcDbLine
10
13.5
20
36.18381
30
0
11
13.5
21
43.714573
31
0
39
0
210
0
220
0
230
1
0
LINE
5
BA
100
AcDbEntity
8
1
62
256
6
ByLayer
370
18
48
1
60
0
100
AcDbLine
10
8.9
20
36.18381
30
0
11
2.5
21
36.18381
31
0
39
0
210
0
220
0
230
1
0
LINE
5
BB
100
AcDbEntity
8
1
62
256
6
ByLayer
370
18
48
1
60
0
100
AcDbLine
10
8.8
20
40.449897
30
0
11
8.8
21
36.320038
31
0
39
0
210
0
220
0
230
1
0
LINE
5
BC
100
AcDbEntity
8
1
62
256
6
ByLayer
370
18
48
1
60
0
100
AcDbLine
10
11.8
20
36.320038
30
0
11
11.8
21
40.449897
31
0
39
0
210
0
220
0
230
1
0
LINE
5
BD
100
AcDbEntity
8
1
62
256
6
ByLayer
370
18
48
1
60
0
100
AcDbLine
10
13.5
20
36.18381
30
0
11
11.7
21
36.18381
31
0
39
0
210
0
220
0
230
1
0
LINE
5
BE
100
AcDbEntity
8
1
62
256
6
ByLayer
370
18
48
1
60
0
100
AcDbLine
10
12.5
20
44.738006
30
0
11
3.5
21
44.738006
31
0
39
0
210
0
220
0
230
1
0
LINE
5
BF
100
AcDbEntity
8
1
62
256
6
ByLayer
370
18
48
1
60
0
100
AcDbLine
10
2.5
20
-23.987415
30
0
11
2.5
21
-25.560297
31
0
39
0
210
0
220
0
230
1
0
LINE
5
C0
100
AcDbEntity
8
1
62
256
6
ByLayer
370
18
48
1
60
0
100
AcDbLine
10
13.5
20
-25.560297
30
0
11
13.5
21
-23.987415
31
0
39
0
210
0
220
0
230
1
0
LINE
5
C1
100
AcDbEntity
8
1
62
256
6
ByLayer
370
13
48
1
60
0
100
AcDbLine
10
8.9
20
37.34128
30
0
11
8.9
21
36.18381
31
0
39
0
210
0
220
0
230
1
0
LINE
5
C2
100
AcDbEntity
8
1
62
256
6
ByLayer
370
13
48
1
60
0
100
AcDbLine
10
11.7
20
36.18381
30
0
11
11.7
21
37.34128
31
0
39
0
210
0
220
0
230
1
0
LINE
5
C3
100
AcDbEntity
8
1
62
256
6
ByLayer
370
13
48
1
60
0
100
AcDbLine
10
7.166045
20
-25.425407
30
0
11
2.604093
21
-25.425407
31
0
39
0
210
0
220
0
230
1
0
LINE
5
C4
100
AcDbEntity
8
1
62
256
6
ByLayer
370
13
48
1
60
0
100
AcDbLine
10
2.604093
20
-25.425407
30
0
11
2.5
21
-25.560297
31
0
39
0
210
0
220
0
230
1
0
LINE
5
C5
100
AcDbEntity
8
1
62
256
6
ByLayer
370
13
48
1
60
0
100
AcDbLine
10
13.395907
20
-25.425407
30
0
11
8.833955
21
-25.425407
31
0
39
0
210
0
220
0
230
1
0
LINE
5
C6
100
AcDbEntity
8
1
62
256
6
ByLayer
370
13
48
1
60
0
100
AcDbLine
10
13.5
20
-25.560297
30
0
11
13.395907
21
-25.425407
31
0
39
0
210
0
220
0
230
1
0
LINE
5
C7
100
AcDbEntity
8
1
62
256
6
ByLayer
370
13
48
1
60
0
100
AcDbLine
10
13.42212
20
-31.149956
30
0
11
2.57788
21
-31.149956
31
0
39
0
210
0
220
0
230
1
0
LINE
5
C8
100
AcDbEntity
8
1
62
256
6
ByLayer
370
13
48
1
60
0
100
AcDbLine
10
2.81348
20
-31.156203
30
0
11
13.18652
21
-31.156203
31
0
39
0
210
0
220
0
230
1
0
LINE
5
C9
100
AcDbEntity
8
1
62
256
6
ByLayer
370
13
48
1
60
0
100
AcDbLine
10
2.57788
20
-32.199214
30
0
11
13.42212
21
-32.199214
31
0
39
0
210
0
220
0
230
1
0
LINE
5
CA
100
AcDbEntity
8
1
62
256
6
ByLayer
370
13
48
1
60
0
100
AcDbLine
10
13.15802
20
-31.232334
30
0
11
2.84198
21
-31.232334
31
0
39
0
210
0
220
0
230
1
0
LINE
5
CB
100
AcDbEntity
8
1
62
256
6
ByLayer
370
13
48
1
60
0
100
AcDbLine
10
2.84198
20
-31.432367
30
0
11
13.15802
21
-31.432367
31
0
39
0
210
0
220
0
230
1
0
LINE
5
CC
100
AcDbEntity
8
1
62
256
6
ByLayer
370
13
48
1
60
0
100
AcDbLine
10
13.18652
20
-31.582362
30
0
11
2.81348
21
-31.582362
31
0
39
0
210
0
220
0
230
1
0
LINE
5
CD
100
AcDbEntity
8
1
62
256
6
ByLayer
370
13
48
1
60
0
100
AcDbLine
10
13.42212
20
-32.455489
30
0
11
2.57788
21
-32.455489
31
0
39
0
210
0
220
0
230
1
0
LINE
5
CE
100
AcDbEntity
8
1
62
256
6
ByLayer
370
13
48
1
60
0
100
AcDbLine
10
2.81348
20
-32.461737
30
0
11
13.18652
21
-32.461737
31
0
39
0
210
0
220
0
230
1
0
LINE
5
CF
100
AcDbEntity
8
1
62
256
6
ByLayer
370
18
48
1
60
0
100
AcDbLine
10
2.5
20
25.136895
30
0
11
2.716906
21
25.136895
31
0
39
0
210
0
220
0
230
1
0
LINE
5
D0
100
AcDbEntity
8
1
62
256
6
ByLayer
370
18
48
1
60
0
100
AcDbLine
10
13.282406
20
25.136895
30
0
11
13.5
21
25.136895
31
0
39
0
210
0
220
0
230
1
0
LINE
5
D1
100
AcDbEntity
8
1
62
256
6
ByLayer
370
18
48
1
60
0
100
AcDbLine
10
8.8
20
2.456644
30
0
11
8.8
21
2.155938
31
0
39
0
210
0
220
0
230
1
0
LINE
5
D2
100
AcDbEntity
8
1
62
256
6
ByLayer
370
18
48
1
60
0
100
AcDbLine
10
16
20
23.1
30
0
11
16
21
-23.1
31
0
39
0
210
0
220
0
230
1
0
LINE
5
D3
100
AcDbEntity
8
1
62
256
6
ByLayer
370
13
48
1
60
0
100
AcDbLine
10
2.57788
20
-33.504748
30
0
11
13.42212
21
-33.504748
31
0
39
0
210
0
220
0
230
1
0
LINE
5
D4
100
AcDbEntity
8
1
62
256
6
ByLayer
370
13
48
1
60
0
100
AcDbLine
10
13.15802
20
-32.537868
30
0
11
2.84198
21
-32.537868
31
0
39
0
210
0
220
0
230
1
0
LINE
5
D5
100
AcDbEntity
8
1
62
256
6
ByLayer
370
13
48
1
60
0
100
AcDbLine
10
2.84198
20
-32.737901
30
0
11
13.15802
21
-32.737901
31
0
39
0
210
0
220
0
230
1
0
LINE
5
D6
100
AcDbEntity
8
1
62
256
6
ByLayer
370
13
48
1
60
0
100
AcDbLine
10
13.18652
20
-32.887895
30
0
11
2.81348
21
-32.887895
31
0
39
0
210
0
220
0
230
1
0
LINE
5
D7
100
AcDbEntity
8
1
62
256
6
ByLayer
370
13
48
1
60
0
100
AcDbLine
10
13.42212
20
-33.761023
30
0
11
2.57788
21
-33.761023
31
0
39
0
210
0
220
0
230
1
0
LINE
5
D8
100
AcDbEntity
8
1
62
256
6
ByLayer
370
13
48
1
60
0
100
AcDbLine
10
2.81348
20
-33.76727
30
0
11
13.18652
21
-33.76727
31
0
39
0
210
0
220
0
230
1
0
LINE
5
D9
100
AcDbEntity
8
1
62
256
6
ByLayer
370
13
48
1
60
0
100
AcDbLine
10
2.57788
20
-34.810282
30
0
11
13.42212
21
-34.810282
31
0
39
0
210
0
220
0
230
1
0
LINE
5
DA
100
AcDbEntity
8
1
62
256
6
ByLayer
370
13
48
1
60
0
100
AcDbLine
10
13.15802
20
-33.843401
30
0
11
2.84198
21
-33.843401
31
0
39
0
210
0
220
0
230
1
0
LINE
5
DB
100
AcDbEntity
8
1
62
256
6
ByLayer
370
13
48
1
60
0
100
AcDbLine
10
2.84198
20
-34.043435
30
0
11
13.15802
21
-34.043435
31
0
39
0
210
0
220
0
230
1
0
LINE
5
DC
100
AcDbEntity
8
1
62
256
6
ByLayer
370
13
48
1
60
0
100
AcDbLine
10
13.18652
20
-34.193429
30
0
11
2.81348
21
-34.193429
31
0
39
0
210
0
220
0
230
1
0
LINE
5
DD
100
AcDbEntity
8
1
62
256
6
ByLayer
370
13
48
1
60
0
100
AcDbLine
10
13.42212
20
-35.066557
30
0
11
2.57788
21
-35.066557
31
0
39
0
210
0
220
0
230
1
0
LINE
5
DE
100
AcDbEntity
8
1
62
256
6
ByLayer
370
13
48
1
60
0
100
AcDbLine
10
2.81348
20
-35.072804
30
0
11
13.18652
21
-35.072804
31
0
39
0
210
0
220
0
230
1
0
LINE
5
DF
100
AcDbEntity
8
1
62
256
6
ByLayer
370
13
48
1
60
0
100
AcDbLine
10
2.57788
20
-36.115815
30
0
11
13.42212
21
-36.115815
31
0
39
0
210
0
220
0
230
1
0
LINE
5
E0
100
AcDbEntity
8
1
62
256
6
ByLayer
370
13
48
1
60
0
100
AcDbLine
10
13.15802
20
-35.148935
30
0
11
2.84198
21
-35.148935
31
0
39
0
210
0
220
0
230
1
0
LINE
5
E1
100
AcDbEntity
8
1
62
256
6
ByLayer
370
13
48
1
60
0
100
AcDbLine
10
2.84198
20
-35.348968
30
0
11
13.15802
21
-35.348968
31
0
39
0
210
0
220
0
230
1
0
LINE
5
E2
100
AcDbEntity
8
1
62
256
6
ByLayer
370
13
48
1
60
0
100
AcDbLine
10
13.18652
20
-35.498962
30
0
11
2.81348
21
-35.498962
31
0
39
0
210
0
220
0
230
1
0
LINE
5
E3
100
AcDbEntity
8
1
62
256
6
ByLayer
370
13
48
1
60
0
100
AcDbLine
10
13.42212
20
-36.37209
30
0
11
2.57788
21
-36.37209
31
0
39
0
210
0
220
0
230
1
0
LINE
5
E4
100
AcDbEntity
8
1
62
256
6
ByLayer
370
13
48
1
60
0
100
AcDbLine
10
2.81348
20
-36.378338
30
0
11
13.18652
21
-36.378338
31
0
39
0
210
0
220
0
230
1
0
LINE
5
E5
100
AcDbEntity
8
1
62
256
6
ByLayer
370
13
48
1
60
0
100
AcDbLine
10
2.57788
20
-37.421349
30
0
11
13.42212
21
-37.421349
31
0
39
0
210
0
220
0
230
1
0
LINE
5
E6
100
AcDbEntity
8
1
62
256
6
ByLayer
370
13
48
1
60
0
100
AcDbLine
10
13.15802
20
-36.454468
30
0
11
2.84198
21
-36.454468
31
0
39
0
210
0
220
0
230
1
0
LINE
5
E7
100
AcDbEntity
8
1
62
256
6
ByLayer
370
13
48
1
60
0
100
AcDbLine
10
2.84198
20
-36.654502
30
0
11
13.15802
21
-36.654502
31
0
39
0
210
0
220
0
230
1
0
LINE
5
E8
100
AcDbEntity
8
1
62
256
6
ByLayer
370
13
48
1
60
0
100
AcDbLine
10
13.18652
20
-36.804496
30
0
11
2.81348
21
-36.804496
31
0
39
0
210
0
220
0
230
1
0
LINE
5
E9
100
AcDbEntity
8
1
62
256
6
ByLayer
370
18
48
1
60
0
100
AcDbLine
10
0
20
23.1
30
0
11
0
21
-23.1
31
0
39
0
210
0
220
0
230
1
0
LINE
5
EA
100
AcDbEntity
8
1
62
256
6
ByLayer
370
18
48
1
60
0
100
AcDbLine
10
0.4
20
23.5
30
0
11
0.4
21
-23.5
31
0
39
0
210
0
220
0
230
1
0
LINE
5
EB
100
AcDbEntity
8
1
62
256
6
ByLayer
370
18
48
1
60
0
100
AcDbLine
10
15.6
20
23.5
30
0
11
15.6
21
-23.5
31
0
39
0
210
0
220
0
230
1
0
LINE
5
EC
100
AcDbEntity
8
1
62
256
6
ByLayer
370
18
48
1
60
0
100
AcDbLine
10
2.5
20
24.93152
30
0
11
2.5
21
24.343372
31
0
39
0
210
0
220
0
230
1
0
LINE
5
ED
100
AcDbEntity
8
1
62
256
6
ByLayer
370
13
48
1
60
0
100
AcDbLine
10
13.42212
20
-37.677624
30
0
11
2.57788
21
-37.677624
31
0
39
0
210
0
220
0
230
1
0
LINE
5
EE
100
AcDbEntity
8
1
62
256
6
ByLayer
370
13
48
1
60
0
100
AcDbLine
10
2.81348
20
-37.683871
30
0
11
13.18652
21
-37.683871
31
0
39
0
210
0
220
0
230
1
0
LINE
5
EF
100
AcDbEntity
8
1
62
256
6
ByLayer
370
13
48
1
60
0
100
AcDbLine
10
2.57788
20
-38.726882
30
0
11
13.42212
21
-38.726882
31
0
39
0
210
0
220
0
230
1
0
LINE
5
F0
100
AcDbEntity
8
1
62
256
6
ByLayer
370
13
48
1
60
0
100
AcDbLine
10
13.15802
20
-37.760002
30
0
11
2.84198
21
-37.760002
31
0
39
0
210
0
220
0
230
1
0
LINE
5
F1
100
AcDbEntity
8
1
62
256
6
ByLayer
370
13
48
1
60
0
100
AcDbLine
10
2.84198
20
-37.960035
30
0
11
13.15802
21
-37.960035
31
0
39
0
210
0
220
0
230
1
0
LINE
5
F2
100
AcDbEntity
8
1
62
256
6
ByLayer
370
13
48
1
60
0
100
AcDbLine
10
13.18652
20
-38.110029
30
0
11
2.81348
21
-38.110029
31
0
39
0
210
0
220
0
230
1
0
LINE
5
F3
100
AcDbEntity
8
1
62
256
6
ByLayer
370
18
48
1
60
0
100
AcDbLine
10
13.5
20
24.343372
30
0
11
13.5
21
24.93152
31
0
39
0
210
0
220
0
230
1
0
LINE
5
F4
100
AcDbEntity
8
1
62
256
6
ByLayer
370
18
48
1
60
0
100
AcDbLine
10
13.5
20
24.93152
30
0
11
13.351156
21
24.93152
31
0
39
0
210
0
220
0
230
1
0
LINE
5
F5
100
AcDbEntity
8
1
62
256
6
ByLayer
370
18
48
1
60
0
100
AcDbLine
10
2.648156
20
24.93152
30
0
11
2.5
21
24.93152
31
0
39
0
210
0
220
0
230
1
0
LINE
5
F6
100
AcDbEntity
8
1
62
256
6
ByLayer
370
18
48
1
60
0
100
AcDbLine
10
2.87998
20
-26.186116
30
0
11
13.12002
21
-26.186116
31
0
39
0
210
0
220
0
230
1
0
LINE
5
F7
100
AcDbEntity
8
1
62
256
6
ByLayer
370
13
48
1
60
0
100
AcDbLine
10
14.3
20
23.5
30
0
11
14.3
21
-23.5
31
0
39
0
210
0
220
0
230
1
0
LINE
5
F8
100
AcDbEntity
8
1
62
256
6
ByLayer
370
18
48
1
60
0
100
AcDbLine
10
2.5
20
-19.502071
30
0
11
2.5
21
-23.987415
31
0
39
0
210
0
220
0
230
1
0
LINE
5
F9
100
AcDbEntity
8
1
62
256
6
ByLayer
370
18
48
1
60
0
100
AcDbLine
10
13.5
20
-23.987415
30
0
11
13.5
21
-19.502071
31
0
39
0
210
0
220
0
230
1
0
LINE
5
FA
100
AcDbEntity
8
1
62
256
6
ByLayer
370
13
48
1
60
0
100
AcDbLine
10
1.7
20
-23.5
30
0
11
1.7
21
23.5
31
0
39
0
210
0
220
0
230
1
0
LINE
5
FB
100
AcDbEntity
8
1
62
256
6
ByLayer
370
18
48
1
60
0
100
AcDbLine
10
5.695356
20
-23.987415
30
0
11
2.5
21
-23.987415
31
0
39
0
210
0
220
0
230
1
0
LINE
5
FC
100
AcDbEntity
8
1
62
256
6
ByLayer
370
13
48
1
60
0
100
AcDbLine
10
13.42212
20
-38.983157
30
0
11
2.57788
21
-38.983157
31
0
39
0
210
0
220
0
230
1
0
LINE
5
FD
100
AcDbEntity
8
1
62
256
6
ByLayer
370
13
48
1
60
0
100
AcDbLine
10
2.81348
20
-38.989405
30
0
11
13.18652
21
-38.989405
31
0
39
0
210
0
220
0
230
1
0
LINE
5
FE
100
AcDbEntity
8
1
62
256
6
ByLayer
370
18
48
1
60
0
100
AcDbLine
10
13.12
20
-26.18586
30
0
11
2.88
21
-26.18586
31
0
39
0
210
0
220
0
230
1
0
LINE
5
FF
100
AcDbEntity
8
1
62
256
6
ByLayer
370
18
48
1
60
0
100
AcDbLine
10
13.5
20
-23.987415
30
0
11
10.304644
21
-23.987415
31
0
39
0
210
0
220
0
230
1
0
LINE
5
100
100
AcDbEntity
8
1
62
256
6
ByLayer
370
13
48
1
60
0
100
AcDbLine
10
2.57788
20
-40.032416
30
0
11
13.42212
21
-40.032416
31
0
39
0
210
0
220
0
230
1
0
LINE
5
101
100
AcDbEntity
8
1
62
256
6
ByLayer
370
13
48
1
60
0
100
AcDbLine
10
13.15802
20
-39.065535
30
0
11
2.84198
21
-39.065535
31
0
39
0
210
0
220
0
230
1
0
LINE
5
102
100
AcDbEntity
8
1
62
256
6
ByLayer
370
13
48
1
60
0
100
AcDbLine
10
2.84198
20
-39.265569
30
0
11
13.15802
21
-39.265569
31
0
39
0
210
0
220
0
230
1
0
LINE
5
103
100
AcDbEntity
8
1
62
256
6
ByLayer
370
13
48
1
60
0
100
AcDbLine
10
13.18652
20
-39.415563
30
0
11
2.81348
21
-39.415563
31
0
39
0
210
0
220
0
230
1
0
LINE
5
104
100
AcDbEntity
8
1
62
256
6
ByLayer
370
18
48
1
60
0
100
AcDbLine
10
12
20
-22.068162
30
0
11
12
21
-19.502061
31
0
39
0
210
0
220
0
230
1
0
LINE
5
105
100
AcDbEntity
8
1
62
256
6
ByLayer
370
18
48
1
60
0
100
AcDbLine
10
4
20
-22.068162
30
0
11
12
21
-22.068162
31
0
39
0
210
0
220
0
230
1
0
LINE
5
106
100
AcDbEntity
8
1
62
256
6
ByLayer
370
18
48
1
60
0
100
AcDbLine
10
4
20
-19.502061
30
0
11
4
21
-22.068162
31
0
39
0
210
0
220
0
230
1
0
LINE
5
107
100
AcDbEntity
8
1
62
256
6
ByLayer
370
18
48
1
60
0
100
AcDbLine
10
12.5
20
-44.712081
30
0
11
3.5
21
-44.712081
31
0
39
0
210
0
220
0
230
1
0
LINE
5
108
100
AcDbEntity
8
1
62
256
6
ByLayer
370
18
48
1
60
0
100
AcDbLine
10
3.5
20
-41.491443
30
0
11
12.5
21
-41.491443
31
0
39
0
210
0
220
0
230
1
0
LINE
5
109
100
AcDbEntity
8
1
62
256
6
ByLayer
370
18
48
1
60
0
100
AcDbLine
10
2.5
20
-43.88679
30
0
11
2.5
21
-40.683034
31
0
39
0
210
0
220
0
230
1
0
LINE
5
10A
100
AcDbEntity
8
1
62
256
6
ByLayer
370
18
48
1
60
0
100
AcDbLine
10
13.5
20
-40.683034
30
0
11
13.5
21
-43.88679
31
0
39
0
210
0
220
0
230
1
0
LINE
5
10B
100
AcDbEntity
8
1
62
256
6
ByLayer
370
13
48
1
60
0
100
AcDbLine
10
13.42212
20
-40.288691
30
0
11
2.57788
21
-40.288691
31
0
39
0
210
0
220
0
230
1
0
LINE
5
10C
100
AcDbEntity
8
1
62
256
6
ByLayer
370
13
48
1
60
0
100
AcDbLine
10
3.5
20
-41.491443
30
0
11
3.5
21
-44.712081
31
0
39
0
210
0
220
0
230
1
0
LINE
5
10D
100
AcDbEntity
8
1
62
256
6
ByLayer
370
18
48
1
60
0
100
AcDbLine
10
2.5
20
-26.462943
30
0
11
2.5
21
-40.683034
31
0
39
0
210
0
220
0
230
1
0
LINE
5
10E
100
AcDbEntity
8
1
62
256
6
ByLayer
370
18
48
1
60
0
100
AcDbLine
10
2.88
20
-26.18586
30
0
11
2.88
21
-25.970519
31
0
39
0
210
0
220
0
230
1
0
LINE
5
10F
100
AcDbEntity
8
1
62
256
6
ByLayer
370
13
48
1
60
0
100
AcDbLine
10
12.5
20
-44.712081
30
0
11
12.5
21
-41.491443
31
0
39
0
210
0
220
0
230
1
0
LINE
5
110
100
AcDbEntity
8
1
62
256
6
ByLayer
370
13
48
1
60
0
100
AcDbLine
10
2.81348
20
-40.294938
30
0
11
13.18652
21
-40.294938
31
0
39
0
210
0
220
0
230
1
0
LINE
5
111
100
AcDbEntity
8
1
62
256
6
ByLayer
370
18
48
1
60
0
100
AcDbLine
10
2.81348
20
-40.721097
30
0
11
2.73666
21
-40.922231
31
0
39
0
210
0
220
0
230
1
0
LINE
5
112
100
AcDbEntity
8
1
62
256
6
ByLayer
370
18
48
1
60
0
100
AcDbLine
10
2.84198
20
-40.371069
30
0
11
2.84198
21
-40.571102
31
0
39
0
210
0
220
0
230
1
0
LINE
5
113
100
AcDbEntity
8
1
62
256
6
ByLayer
370
13
48
1
60
0
100
AcDbLine
10
3.013184
20
-41.337949
30
0
11
12.986816
21
-41.337949
31
0
39
0
210
0
220
0
230
1
0
LINE
5
114
100
AcDbEntity
8
1
62
256
6
ByLayer
370
13
48
1
60
0
100
AcDbLine
10
13.15802
20
-40.371069
30
0
11
2.84198
21
-40.371069
31
0
39
0
210
0
220
0
230
1
0
LINE
5
115
100
AcDbEntity
8
1
62
256
6
ByLayer
370
13
48
1
60
0
100
AcDbLine
10
2.84198
20
-40.571102
30
0
11
13.15802
21
-40.571102
31
0
39
0
210
0
220
0
230
1
0
LINE
5
116
100
AcDbEntity
8
1
62
256
6
ByLayer
370
13
48
1
60
0
100
AcDbLine
10
13.18652
20
-40.721097
30
0
11
2.81348
21
-40.721097
31
0
39
0
210
0
220
0
230
1
0
LINE
5
117
100
AcDbEntity
8
1
62
256
6
ByLayer
370
18
48
1
60
0
100
AcDbLine
10
13.5
20
6.754044
30
0
11
13.5
21
6.936823
31
0
39
0
210
0
220
0
230
1
0
LINE
5
118
100
AcDbEntity
8
1
62
256
6
ByLayer
370
13
48
1
60
0
100
AcDbLine
10
2.88
20
-25.970519
30
0
11
2.5
21
-26.462943
31
0
39
0
210
0
220
0
230
1
0
LINE
5
119
100
AcDbEntity
8
1
62
256
6
ByLayer
370
18
48
1
60
0
100
AcDbLine
10
2.57788
20
-40.288691
30
0
11
2.81348
21
-40.294938
31
0
39
0
210
0
220
0
230
1
0
LINE
5
11A
100
AcDbEntity
8
1
62
256
6
ByLayer
370
18
48
1
60
0
100
AcDbLine
10
2.81348
20
-39.415563
30
0
11
2.57788
21
-40.032416
31
0
39
0
210
0
220
0
230
1
0
LINE
5
11B
100
AcDbEntity
8
1
62
256
6
ByLayer
370
18
48
1
60
0
100
AcDbLine
10
2.84198
20
-39.065535
30
0
11
2.84198
21
-39.265569
31
0
39
0
210
0
220
0
230
1
0
LINE
5
11C
100
AcDbEntity
8
1
62
256
6
ByLayer
370
18
48
1
60
0
100
AcDbLine
10
2.57788
20
-38.983157
30
0
11
2.81348
21
-38.989405
31
0
39
0
210
0
220
0
230
1
0
LINE
5
11D
100
AcDbEntity
8
1
62
256
6
ByLayer
370
18
48
1
60
0
100
AcDbLine
10
2.81348
20
-38.110029
30
0
11
2.57788
21
-38.726882
31
0
39
0
210
0
220
0
230
1
0
LINE
5
11E
100
AcDbEntity
8
1
62
256
6
ByLayer
370
18
48
1
60
0
100
AcDbLine
10
2.84198
20
-37.760002
30
0
11
2.84198
21
-37.960035
31
0
39
0
210
0
220
0
230
1
0
LINE
5
11F
100
AcDbEntity
8
1
62
256
6
ByLayer
370
18
48
1
60
0
100
AcDbLine
10
2.57788
20
-37.677624
30
0
11
2.81348
21
-37.683871
31
0
39
0
210
0
220
0
230
1
0
LINE
5
120
100
AcDbEntity
8
1
62
256
6
ByLayer
370
18
48
1
60
0
100
AcDbLine
10
2.81348
20
-36.804496
30
0
11
2.57788
21
-37.421349
31
0
39
0
210
0
220
0
230
1
0
LINE
5
121
100
AcDbEntity
8
1
62
256
6
ByLayer
370
18
48
1
60
0
100
AcDbLine
10
2.84198
20
-36.454468
30
0
11
2.84198
21
-36.654502
31
0
39
0
210
0
220
0
230
1
0
LINE
5
122
100
AcDbEntity
8
1
62
256
6
ByLayer
370
18
48
1
60
0
100
AcDbLine
10
2.57788
20
-36.37209
30
0
11
2.81348
21
-36.378338
31
0
39
0
210
0
220
0
230
1
0
LINE
5
123
100
AcDbEntity
8
1
62
256
6
ByLayer
370
18
48
1
60
0
100
AcDbLine
10
2.81348
20
-35.498962
30
0
11
2.57788
21
-36.115815
31
0
39
0
210
0
220
0
230
1
0
LINE
5
124
100
AcDbEntity
8
1
62
256
6
ByLayer
370
18
48
1
60
0
100
AcDbLine
10
2.84198
20
-35.148935
30
0
11
2.84198
21
-35.348968
31
0
39
0
210
0
220
0
230
1
0
LINE
5
125
100
AcDbEntity
8
1
62
256
6
ByLayer
370
18
48
1
60
0
100
AcDbLine
10
2.57788
20
-35.066557
30
0
11
2.81348
21
-35.072804
31
0
39
0
210
0
220
0
230
1
0
LINE
5
126
100
AcDbEntity
8
1
62
256
6
ByLayer
370
18
48
1
60
0
100
AcDbLine
10
2.81348
20
-34.193429
30
0
11
2.57788
21
-34.810282
31
0
39
0
210
0
220
0
230
1
0
LINE
5
127
100
AcDbEntity
8
1
62
256
6
ByLayer
370
18
48
1
60
0
100
AcDbLine
10
2.84198
20
-33.843401
30
0
11
2.84198
21
-34.043435
31
0
39
0
210
0
220
0
230
1
0
LINE
5
128
100
AcDbEntity
8
1
62
256
6
ByLayer
370
18
48
1
60
0
100
AcDbLine
10
2.57788
20
-33.761023
30
0
11
2.81348
21
-33.76727
31
0
39
0
210
0
220
0
230
1
0
LINE
5
129
100
AcDbEntity
8
1
62
256
6
ByLayer
370
18
48
1
60
0
100
AcDbLine
10
2.81348
20
-32.887895
30
0
11
2.57788
21
-33.504748
31
0
39
0
210
0
220
0
230
1
0
LINE
5
12A
100
AcDbEntity
8
1
62
256
6
ByLayer
370
18
48
1
60
0
100
AcDbLine
10
2.84198
20
-32.537868
30
0
11
2.84198
21
-32.737901
31
0
39
0
210
0
220
0
230
1
0
LINE
5
12B
100
AcDbEntity
8
1
62
256
6
ByLayer
370
18
48
1
60
0
100
AcDbLine
10
2.57788
20
-32.455489
30
0
11
2.81348
21
-32.461737
31
0
39
0
210
0
220
0
230
1
0
LINE
5
12C
100
AcDbEntity
8
1
62
256
6
ByLayer
370
18
48
1
60
0
100
AcDbLine
10
2.81348
20
-31.582362
30
0
11
2.57788
21
-32.199214
31
0
39
0
210
0
220
0
230
1
0
LINE
5
12D
100
AcDbEntity
8
1
62
256
6
ByLayer
370
18
48
1
60
0
100
AcDbLine
10
2.84198
20
-31.232334
30
0
11
2.84198
21
-31.432367
31
0
39
0
210
0
220
0
230
1
0
LINE
5
12E
100
AcDbEntity
8
1
62
256
6
ByLayer
370
18
48
1
60
0
100
AcDbLine
10
2.57788
20
-31.149956
30
0
11
2.81348
21
-31.156203
31
0
39
0
210
0
220
0
230
1
0
LINE
5
12F
100
AcDbEntity
8
1
62
256
6
ByLayer
370
18
48
1
60
0
100
AcDbLine
10
2.81348
20
-30.276828
30
0
11
2.57788
21
-30.893681
31
0
39
0
210
0
220
0
230
1
0
LINE
5
130
100
AcDbEntity
8
1
62
256
6
ByLayer
370
18
48
1
60
0
100
AcDbLine
10
2.84198
20
-29.926801
30
0
11
2.84198
21
-30.126834
31
0
39
0
210
0
220
0
230
1
0
LINE
5
131
100
AcDbEntity
8
1
62
256
6
ByLayer
370
18
48
1
60
0
100
AcDbLine
10
2.57788
20
-29.844422
30
0
11
2.81348
21
-29.85067
31
0
39
0
210
0
220
0
230
1
0
LINE
5
132
100
AcDbEntity
8
1
62
256
6
ByLayer
370
18
48
1
60
0
100
AcDbLine
10
2.81348
20
-28.971295
30
0
11
2.57788
21
-29.588147
31
0
39
0
210
0
220
0
230
1
0
LINE
5
133
100
AcDbEntity
8
1
62
256
6
ByLayer
370
18
48
1
60
0
100
AcDbLine
10
2.84198
20
-28.621267
30
0
11
2.84198
21
-28.8213
31
0
39
0
210
0
220
0
230
1
0
LINE
5
134
100
AcDbEntity
8
1
62
256
6
ByLayer
370
18
48
1
60
0
100
AcDbLine
10
2.57788
20
-28.538889
30
0
11
2.81348
21
-28.545136
31
0
39
0
210
0
220
0
230
1
0
LINE
5
135
100
AcDbEntity
8
1
62
256
6
ByLayer
370
18
48
1
60
0
100
AcDbLine
10
2.81348
20
-27.665761
30
0
11
2.57788
21
-28.282614
31
0
39
0
210
0
220
0
230
1
0
LINE
5
136
100
AcDbEntity
8
1
62
256
6
ByLayer
370
18
48
1
60
0
100
AcDbLine
10
2.84198
20
-27.315734
30
0
11
2.84198
21
-27.515767
31
0
39
0
210
0
220
0
230
1
0
LINE
5
137
100
AcDbEntity
8
1
62
256
6
ByLayer
370
18
48
1
60
0
100
AcDbLine
10
2.57788
20
-27.233355
30
0
11
2.81348
21
-27.239603
31
0
39
0
210
0
220
0
230
1
0
LINE
5
138
100
AcDbEntity
8
1
62
256
6
ByLayer
370
18
48
1
60
0
100
AcDbLine
10
2.87998
20
-26.186116
30
0
11
2.57788
21
-26.97708
31
0
39
0
210
0
220
0
230
1
0
LINE
5
139
100
AcDbEntity
8
1
62
256
6
ByLayer
370
18
48
1
60
0
100
AcDbLine
10
13.5
20
-26.462943
30
0
11
13.5
21
-40.683034
31
0
39
0
210
0
220
0
230
1
0
LINE
5
13A
100
AcDbEntity
8
1
62
256
6
ByLayer
370
18
48
1
60
0
100
AcDbLine
10
13.42212
20
-26.97708
30
0
11
13.12002
21
-26.186116
31
0
39
0
210
0
220
0
230
1
0
LINE
5
13B
100
AcDbEntity
8
1
62
256
6
ByLayer
370
18
48
1
60
0
100
AcDbLine
10
13.18652
20
-27.239603
30
0
11
13.42212
21
-27.233355
31
0
39
0
210
0
220
0
230
1
0
LINE
5
13C
100
AcDbEntity
8
1
62
256
6
ByLayer
370
18
48
1
60
0
100
AcDbLine
10
13.15802
20
-27.515767
30
0
11
13.15802
21
-27.315734
31
0
39
0
210
0
220
0
230
1
0
LINE
5
13D
100
AcDbEntity
8
1
62
256
6
ByLayer
370
18
48
1
60
0
100
AcDbLine
10
13.42212
20
-28.282614
30
0
11
13.18652
21
-27.665761
31
0
39
0
210
0
220
0
230
1
0
LINE
5
13E
100
AcDbEntity
8
1
62
256
6
ByLayer
370
18
48
1
60
0
100
AcDbLine
10
13.18652
20
-28.545136
30
0
11
13.42212
21
-28.538889
31
0
39
0
210
0
220
0
230
1
0
LINE
5
13F
100
AcDbEntity
8
1
62
256
6
ByLayer
370
18
48
1
60
0
100
AcDbLine
10
13.15802
20
-28.8213
30
0
11
13.15802
21
-28.621267
31
0
39
0
210
0
220
0
230
1
0
LINE
5
140
100
AcDbEntity
8
1
62
256
6
ByLayer
370
18
48
1
60
0
100
AcDbLine
10
13.42212
20
-29.588147
30
0
11
13.18652
21
-28.971295
31
0
39
0
210
0
220
0
230
1
0
LINE
5
141
100
AcDbEntity
8
1
62
256
6
ByLayer
370
18
48
1
60
0
100
AcDbLine
10
13.18652
20
-29.85067
30
0
11
13.42212
21
-29.844422
31
0
39
0
210
0
220
0
230
1
0
LINE
5
142
100
AcDbEntity
8
1
62
256
6
ByLayer
370
18
48
1
60
0
100
AcDbLine
10
13.15802
20
-30.126834
30
0
11
13.15802
21
-29.926801
31
0
39
0
210
0
220
0
230
1
0
LINE
5
143
100
AcDbEntity
8
1
62
256
6
ByLayer
370
18
48
1
60
0
100
AcDbLine
10
13.42212
20
-30.893681
30
0
11
13.18652
21
-30.276828
31
0
39
0
210
0
220
0
230
1
0
LINE
5
144
100
AcDbEntity
8
1
62
256
6
ByLayer
370
18
48
1
60
0
100
AcDbLine
10
13.18652
20
-31.156203
30
0
11
13.42212
21
-31.149956
31
0
39
0
210
0
220
0
230
1
0
LINE
5
145
100
AcDbEntity
8
1
62
256
6
ByLayer
370
18
48
1
60
0
100
AcDbLine
10
13.15802
20
-31.432367
30
0
11
13.15802
21
-31.232334
31
0
39
0
210
0
220
0
230
1
0
LINE
5
146
100
AcDbEntity
8
1
62
256
6
ByLayer
370
18
48
1
60
0
100
AcDbLine
10
13.42212
20
-32.199214
30
0
11
13.18652
21
-31.582362
31
0
39
0
210
0
220
0
230
1
0
LINE
5
147
100
AcDbEntity
8
1
62
256
6
ByLayer
370
18
48
1
60
0
100
AcDbLine
10
13.18652
20
-32.461737
30
0
11
13.42212
21
-32.455489
31
0
39
0
210
0
220
0
230
1
0
LINE
5
148
100
AcDbEntity
8
1
62
256
6
ByLayer
370
18
48
1
60
0
100
AcDbLine
10
13.15802
20
-32.737901
30
0
11
13.15802
21
-32.537868
31
0
39
0
210
0
220
0
230
1
0
LINE
5
149
100
AcDbEntity
8
1
62
256
6
ByLayer
370
18
48
1
60
0
100
AcDbLine
10
13.42212
20
-33.504748
30
0
11
13.18652
21
-32.887895
31
0
39
0
210
0
220
0
230
1
0
LINE
5
14A
100
AcDbEntity
8
1
62
256
6
ByLayer
370
18
48
1
60
0
100
AcDbLine
10
13.18652
20
-33.76727
30
0
11
13.42212
21
-33.761023
31
0
39
0
210
0
220
0
230
1
0
LINE
5
14B
100
AcDbEntity
8
1
62
256
6
ByLayer
370
18
48
1
60
0
100
AcDbLine
10
13.15802
20
-34.043435
30
0
11
13.15802
21
-33.843401
31
0
39
0
210
0
220
0
230
1
0
LINE
5
14C
100
AcDbEntity
8
1
62
256
6
ByLayer
370
18
48
1
60
0
100
AcDbLine
10
13.42212
20
-34.810282
30
0
11
13.18652
21
-34.193429
31
0
39
0
210
0
220
0
230
1
0
LINE
5
14D
100
AcDbEntity
8
1
62
256
6
ByLayer
370
18
48
1
60
0
100
AcDbLine
10
13.18652
20
-35.072804
30
0
11
13.42212
21
-35.066557
31
0
39
0
210
0
220
0
230
1
0
LINE
5
14E
100
AcDbEntity
8
1
62
256
6
ByLayer
370
18
48
1
60
0
100
AcDbLine
10
13.15802
20
-35.348968
30
0
11
13.15802
21
-35.148935
31
0
39
0
210
0
220
0
230
1
0
LINE
5
14F
100
AcDbEntity
8
1
62
256
6
ByLayer
370
18
48
1
60
0
100
AcDbLine
10
13.42212
20
-36.115815
30
0
11
13.18652
21
-35.498962
31
0
39
0
210
0
220
0
230
1
0
LINE
5
150
100
AcDbEntity
8
1
62
256
6
ByLayer
370
18
48
1
60
0
100
AcDbLine
10
13.18652
20
-36.378338
30
0
11
13.42212
21
-36.37209
31
0
39
0
210
0
220
0
230
1
0
LINE
5
151
100
AcDbEntity
8
1
62
256
6
ByLayer
370
18
48
1
60
0
100
AcDbLine
10
13.15802
20
-36.654502
30
0
11
13.15802
21
-36.454468
31
0
39
0
210
0
220
0
230
1
0
LINE
5
152
100
AcDbEntity
8
1
62
256
6
ByLayer
370
18
48
1
60
0
100
AcDbLine
10
13.42212
20
-37.421349
30
0
11
13.18652
21
-36.804496
31
0
39
0
210
0
220
0
230
1
0
LINE
5
153
100
AcDbEntity
8
1
62
256
6
ByLayer
370
18
48
1
60
0
100
AcDbLine
10
13.18652
20
-37.683871
30
0
11
13.42212
21
-37.677624
31
0
39
0
210
0
220
0
230
1
0
LINE
5
154
100
AcDbEntity
8
1
62
256
6
ByLayer
370
18
48
1
60
0
100
AcDbLine
10
13.15802
20
-37.960035
30
0
11
13.15802
21
-37.760002
31
0
39
0
210
0
220
0
230
1
0
LINE
5
155
100
AcDbEntity
8
1
62
256
6
ByLayer
370
18
48
1
60
0
100
AcDbLine
10
13.42212
20
-38.726882
30
0
11
13.18652
21
-38.110029
31
0
39
0
210
0
220
0
230
1
0
LINE
5
156
100
AcDbEntity
8
1
62
256
6
ByLayer
370
18
48
1
60
0
100
AcDbLine
10
13.18652
20
-38.989405
30
0
11
13.42212
21
-38.983157
31
0
39
0
210
0
220
0
230
1
0
LINE
5
157
100
AcDbEntity
8
1
62
256
6
ByLayer
370
18
48
1
60
0
100
AcDbLine
10
13.15802
20
-39.265569
30
0
11
13.15802
21
-39.065535
31
0
39
0
210
0
220
0
230
1
0
LINE
5
158
100
AcDbEntity
8
1
62
256
6
ByLayer
370
18
48
1
60
0
100
AcDbLine
10
13.42212
20
-40.032416
30
0
11
13.18652
21
-39.415563
31
0
39
0
210
0
220
0
230
1
0
LINE
5
159
100
AcDbEntity
8
1
62
256
6
ByLayer
370
18
48
1
60
0
100
AcDbLine
10
13.18652
20
-40.294938
30
0
11
13.42212
21
-40.288691
31
0
39
0
210
0
220
0
230
1
0
LINE
5
15A
100
AcDbEntity
8
1
62
256
6
ByLayer
370
18
48
1
60
0
100
AcDbLine
10
13.15802
20
-40.571102
30
0
11
13.15802
21
-40.371069
31
0
39
0
210
0
220
0
230
1
0
LINE
5
15B
100
AcDbEntity
8
1
62
256
6
ByLayer
370
18
48
1
60
0
100
AcDbLine
10
13.26334
20
-40.922231
30
0
11
13.18652
21
-40.721097
31
0
39
0
210
0
220
0
230
1
0
LINE
5
15C
100
AcDbEntity
8
1
62
256
6
ByLayer
370
18
48
1
60
0
100
AcDbLine
10
2.5
20
6.936823
30
0
11
2.5
21
6.754044
31
0
39
0
210
0
220
0
230
1
0
LINE
5
15D
100
AcDbEntity
8
1
62
256
6
ByLayer
370
18
48
1
60
0
100
AcDbLine
10
13.12
20
-26.18586
30
0
11
13.12
21
-25.970519
31
0
39
0
210
0
220
0
230
1
0
LINE
5
15E
100
AcDbEntity
8
1
62
256
6
ByLayer
370
18
48
1
60
0
100
AcDbLine
10
2.5
20
7.251401
30
0
11
2.5
21
6.936823
31
0
39
0
210
0
220
0
230
1
0
LINE
5
15F
100
AcDbEntity
8
1
62
256
6
ByLayer
370
13
48
1
60
0
100
AcDbLine
10
13.5
20
-26.462943
30
0
11
13.12
21
-25.970519
31
0
39
0
210
0
220
0
230
1
0
LINE
5
160
100
AcDbEntity
8
1
62
256
6
ByLayer
370
18
48
1
60
0
100
AcDbLine
10
13.5
20
6.936823
30
0
11
13.5
21
7.251401
31
0
39
0
210
0
220
0
230
1
0
LINE
5
161
100
AcDbEntity
8
1
62
256
6
ByLayer
370
18
48
1
60
0
100
AcDbLine
10
2.5
20
6.936823
30
0
11
13.5
21
6.936823
31
0
39
0
210
0
220
0
230
1
0
LINE
5
162
100
AcDbEntity
8
1
62
256
6
ByLayer
370
18
48
1
60
0
100
AcDbLine
10
2.5
20
-5.995612
30
0
11
2.5
21
-7.187622
31
0
39
0
210
0
220
0
230
1
0
LINE
5
163
100
AcDbEntity
8
1
62
256
6
ByLayer
370
18
48
1
60
0
100
AcDbLine
10
13.5
20
-26.462943
30
0
11
13.5
21
-25.560297
31
0
39
0
210
0
220
0
230
1
0
LINE
5
164
100
AcDbEntity
8
1
62
256
6
ByLayer
370
18
48
1
60
0
100
AcDbLine
10
13.5
20
-7.187622
30
0
11
13.5
21
-5.995612
31
0
39
0
210
0
220
0
230
1
0
LINE
5
165
100
AcDbEntity
8
1
62
256
6
ByLayer
370
18
48
1
60
0
100
AcDbLine
10
13.12
20
-6.290111
30
0
11
2.88
21
-6.290111
31
0
39
0
210
0
220
0
230
1
0
LINE
5
166
100
AcDbEntity
8
1
62
256
6
ByLayer
370
18
48
1
60
0
100
AcDbLine
10
2.87998
20
-6.290231
30
0
11
13.12002
21
-6.290231
31
0
39
0
210
0
220
0
230
1
0
LINE
5
167
100
AcDbEntity
8
1
62
256
6
ByLayer
370
18
48
1
60
0
100
AcDbLine
10
13.5
20
-5.995612
30
0
11
13.5
21
-2.917616
31
0
39
0
210
0
220
0
230
1
0
LINE
5
168
100
AcDbEntity
8
1
62
256
6
ByLayer
370
13
48
1
60
0
100
AcDbLine
10
13.12
20
-6.223992
30
0
11
2.88
21
-6.223992
31
0
39
0
210
0
220
0
230
1
0
LINE
5
169
100
AcDbEntity
8
1
62
256
6
ByLayer
370
18
48
1
60
0
100
AcDbLine
10
13.5
20
-2.917616
30
0
11
13.5
21
6.754044
31
0
39
0
210
0
220
0
230
1
0
LINE
5
16A
100
AcDbEntity
8
1
62
256
6
ByLayer
370
18
48
1
60
0
100
AcDbLine
10
2.5
20
-25.560297
30
0
11
2.5
21
-26.462943
31
0
39
0
210
0
220
0
230
1
0
LINE
5
16B
100
AcDbEntity
8
1
62
256
6
ByLayer
370
18
48
1
60
0
100
AcDbLine
10
13.5
20
-2.917616
30
0
11
10.304644
21
-2.917616
31
0
39
0
210
0
220
0
230
1
0
LINE
5
16C
100
AcDbEntity
8
1
62
256
6
ByLayer
370
18
48
1
60
0
100
AcDbLine
10
13.5
20
6.754044
30
0
11
2.5
21
6.754044
31
0
39
0
210
0
220
0
230
1
0
LINE
5
16D
100
AcDbEntity
8
1
62
256
6
ByLayer
370
18
48
1
60
0
100
AcDbLine
10
4
20
-0.761097
30
0
11
12
21
-0.761097
31
0
39
0
210
0
220
0
230
1
0
LINE
5
16E
100
AcDbEntity
8
1
62
256
6
ByLayer
370
18
48
1
60
0
100
AcDbLine
10
4
20
2.77816
30
0
11
4
21
-0.761097
31
0
39
0
210
0
220
0
230
1
0
LINE
5
16F
100
AcDbEntity
8
1
62
256
6
ByLayer
370
18
48
1
60
0
100
AcDbLine
10
2.5
20
-2.917616
30
0
11
2.5
21
-5.995612
31
0
39
0
210
0
220
0
230
1
0
LINE
5
170
100
AcDbEntity
8
1
62
256
6
ByLayer
370
18
48
1
60
0
100
AcDbLine
10
12
20
-0.761097
30
0
11
12
21
2.77816
31
0
39
0
210
0
220
0
230
1
0
LINE
5
171
100
AcDbEntity
8
1
62
256
6
ByLayer
370
18
48
1
60
0
100
AcDbLine
10
2.5
20
6.754044
30
0
11
2.5
21
-2.917616
31
0
39
0
210
0
220
0
230
1
0
LINE
5
172
100
AcDbEntity
8
1
62
256
6
ByLayer
370
18
48
1
60
0
100
AcDbLine
10
5.695356
20
-2.917616
30
0
11
2.5
21
-2.917616
31
0
39
0
210
0
220
0
230
1
0
LINE
5
173
100
AcDbEntity
8
1
62
256
6
ByLayer
370
13
48
1
60
0
100
AcDbLine
10
13.395907
20
-5.731644
30
0
11
8.833955
21
-5.731644
31
0
39
0
210
0
220
0
230
1
0
LINE
5
174
100
AcDbEntity
8
1
62
256
6
ByLayer
370
13
48
1
60
0
100
AcDbLine
10
13.5
20
-5.995612
30
0
11
13.395907
21
-5.731644
31
0
39
0
210
0
220
0
230
1
0
LINE
5
175
100
AcDbEntity
8
1
62
256
6
ByLayer
370
13
48
1
60
0
100
AcDbLine
10
7.166045
20
-5.731644
30
0
11
2.604093
21
-5.731644
31
0
39
0
210
0
220
0
230
1
0
LINE
5
176
100
AcDbEntity
8
1
62
256
6
ByLayer
370
13
48
1
60
0
100
AcDbLine
10
2.604093
20
-5.731644
30
0
11
2.5
21
-5.995612
31
0
39
0
210
0
220
0
230
1
0
LINE
5
177
100
AcDbEntity
8
1
62
256
6
ByLayer
370
13
48
1
60
0
100
AcDbLine
10
2.57788
20
-7.178978
30
0
11
2.614988
21
-7.178978
31
0
39
0
210
0
220
0
230
1
0
LINE
5
178
100
AcDbEntity
8
1
62
256
6
ByLayer
370
13
48
1
60
0
100
AcDbLine
10
13.385012
20
-7.178978
30
0
11
13.42212
21
-7.178978
31
0
39
0
210
0
220
0
230
1
0
LINE
5
179
100
AcDbEntity
8
1
62
256
6
ByLayer
370
18
48
1
60
0
100
AcDbLine
10
11.7
20
-19.502047
30
0
11
8.9
21
-19.502047
31
0
39
0
210
0
220
0
230
1
0
LINE
5
17A
100
AcDbEntity
8
1
62
256
6
ByLayer
370
13
48
1
60
0
100
AcDbLine
10
13.15802
20
-6.718318
30
0
11
2.84198
21
-6.718318
31
0
39
0
210
0
220
0
230
1
0
LINE
5
17B
100
AcDbEntity
8
1
62
256
6
ByLayer
370
13
48
1
60
0
100
AcDbLine
10
2.84198
20
-6.779737
30
0
11
13.15802
21
-6.779737
31
0
39
0
210
0
220
0
230
1
0
LINE
5
17C
100
AcDbEntity
8
1
62
256
6
ByLayer
370
13
48
1
60
0
100
AcDbLine
10
13.18652
20
-6.886725
30
0
11
2.81348
21
-6.886725
31
0
39
0
210
0
220
0
230
1
0
LINE
5
17D
100
AcDbEntity
8
1
62
256
6
ByLayer
370
13
48
1
60
0
100
AcDbLine
10
2.57788
20
-7.579836
30
0
11
2.614988
21
-7.579836
31
0
39
0
210
0
220
0
230
1
0
LINE
5
17E
100
AcDbEntity
8
1
62
256
6
ByLayer
370
13
48
1
60
0
100
AcDbLine
10
13.385012
20
-7.579836
30
0
11
13.42212
21
-7.579836
31
0
39
0
210
0
220
0
230
1
0
LINE
5
17F
100
AcDbEntity
8
1
62
256
6
ByLayer
370
18
48
1
60
0
100
AcDbLine
10
2.5
20
11.100301
30
0
11
2.5
21
7.251401
31
0
39
0
210
0
220
0
230
1
0
LINE
5
180
100
AcDbEntity
8
1
62
256
6
ByLayer
370
13
48
1
60
0
100
AcDbLine
10
13.15802
20
-7.119176
30
0
11
2.84198
21
-7.119176
31
0
39
0
210
0
220
0
230
1
0
LINE
5
181
100
AcDbEntity
8
1
62
256
6
ByLayer
370
13
48
1
60
0
100
AcDbLine
10
2.84198
20
-7.180595
30
0
11
13.15802
21
-7.180595
31
0
39
0
210
0
220
0
230
1
0
LINE
5
182
100
AcDbEntity
8
1
62
256
6
ByLayer
370
13
48
1
60
0
100
AcDbLine
10
13.18652
20
-7.287583
30
0
11
2.81348
21
-7.287583
31
0
39
0
210
0
220
0
230
1
0
LINE
5
183
100
AcDbEntity
8
1
62
256
6
ByLayer
370
13
48
1
60
0
100
AcDbLine
10
2.57788
20
-7.980693
30
0
11
2.614988
21
-7.980693
31
0
39
0
210
0
220
0
230
1
0
LINE
5
184
100
AcDbEntity
8
1
62
256
6
ByLayer
370
13
48
1
60
0
100
AcDbLine
10
13.385012
20
-7.980693
30
0
11
13.42212
21
-7.980693
31
0
39
0
210
0
220
0
230
1
0
LINE
5
185
100
AcDbEntity
8
1
62
256
6
ByLayer
370
18
48
1
60
0
100
AcDbLine
10
13.5
20
7.251401
30
0
11
13.5
21
11.100301
31
0
39
0
210
0
220
0
230
1
0
LINE
5
186
100
AcDbEntity
8
1
62
256
6
ByLayer
370
13
48
1
60
0
100
AcDbLine
10
13.15802
20
-7.520033
30
0
11
2.84198
21
-7.520033
31
0
39
0
210
0
220
0
230
1
0
LINE
5
187
100
AcDbEntity
8
1
62
256
6
ByLayer
370
13
48
1
60
0
100
AcDbLine
10
2.84198
20
-7.581453
30
0
11
13.15802
21
-7.581453
31
0
39
0
210
0
220
0
230
1
0
LINE
5
188
100
AcDbEntity
8
1
62
256
6
ByLayer
370
13
48
1
60
0
100
AcDbLine
10
13.18652
20
-7.68844
30
0
11
2.81348
21
-7.68844
31
0
39
0
210
0
220
0
230
1
0
LINE
5
189
100
AcDbEntity
8
1
62
256
6
ByLayer
370
13
48
1
60
0
100
AcDbLine
10
2.57788
20
-8.381551
30
0
11
2.614988
21
-8.381551
31
0
39
0
210
0
220
0
230
1
0
LINE
5
18A
100
AcDbEntity
8
1
62
256
6
ByLayer
370
13
48
1
60
0
100
AcDbLine
10
13.385012
20
-8.381551
30
0
11
13.42212
21
-8.381551
31
0
39
0
210
0
220
0
230
1
0
LINE
5
18B
100
AcDbEntity
8
1
62
256
6
ByLayer
370
18
48
1
60
0
100
AcDbLine
10
13.5
20
7.251401
30
0
11
2.5
21
7.251401
31
0
39
0
210
0
220
0
230
1
0
LINE
5
18C
100
AcDbEntity
8
1
62
256
6
ByLayer
370
13
48
1
60
0
100
AcDbLine
10
13.15802
20
-7.920891
30
0
11
2.84198
21
-7.920891
31
0
39
0
210
0
220
0
230
1
0
LINE
5
18D
100
AcDbEntity
8
1
62
256
6
ByLayer
370
13
48
1
60
0
100
AcDbLine
10
2.84198
20
-7.98231
30
0
11
13.15802
21
-7.98231
31
0
39
0
210
0
220
0
230
1
0
LINE
5
18E
100
AcDbEntity
8
1
62
256
6
ByLayer
370
13
48
1
60
0
100
AcDbLine
10
13.18652
20
-8.089298
30
0
11
2.81348
21
-8.089298
31
0
39
0
210
0
220
0
230
1
0
LINE
5
18F
100
AcDbEntity
8
1
62
256
6
ByLayer
370
13
48
1
60
0
100
AcDbLine
10
2.57788
20
-8.782409
30
0
11
2.614988
21
-8.782409
31
0
39
0
210
0
220
0
230
1
0
LINE
5
190
100
AcDbEntity
8
1
62
256
6
ByLayer
370
13
48
1
60
0
100
AcDbLine
10
13.385012
20
-8.782409
30
0
11
13.42212
21
-8.782409
31
0
39
0
210
0
220
0
230
1
0
LINE
5
191
100
AcDbEntity
8
1
62
256
6
ByLayer
370
13
48
1
60
0
100
AcDbLine
10
13.15802
20
-8.321749
30
0
11
2.84198
21
-8.321749
31
0
39
0
210
0
220
0
230
1
0
LINE
5
192
100
AcDbEntity
8
1
62
256
6
ByLayer
370
18
48
1
60
0
100
AcDbLine
10
2.5
20
11.795788
30
0
11
2.5
21
11.100301
31
0
39
0
210
0
220
0
230
1
0
LINE
5
193
100
AcDbEntity
8
1
62
256
6
ByLayer
370
13
48
1
60
0
100
AcDbLine
10
11.7
20
-19.502047
30
0
11
11.7
21
-18.494412
31
0
39
0
210
0
220
0
230
1
0
LINE
5
194
100
AcDbEntity
8
1
62
256
6
ByLayer
370
13
48
1
60
0
100
AcDbLine
10
8.9
20
-18.494412
30
0
11
8.9
21
-19.502047
31
0
39
0
210
0
220
0
230
1
0
LINE
5
195
100
AcDbEntity
8
1
62
256
6
ByLayer
370
13
48
1
60
0
100
AcDbLine
10
2.84198
20
-8.383168
30
0
11
13.15802
21
-8.383168
31
0
39
0
210
0
220
0
230
1
0
LINE
5
196
100
AcDbEntity
8
1
62
256
6
ByLayer
370
13
48
1
60
0
100
AcDbLine
10
13.18652
20
-8.490155
30
0
11
2.81348
21
-8.490155
31
0
39
0
210
0
220
0
230
1
0
LINE
5
197
100
AcDbEntity
8
1
62
256
6
ByLayer
370
13
48
1
60
0
100
AcDbLine
10
2.57788
20
-9.183266
30
0
11
2.614988
21
-9.183266
31
0
39
0
210
0
220
0
230
1
0
LINE
5
198
100
AcDbEntity
8
1
62
256
6
ByLayer
370
13
48
1
60
0
100
AcDbLine
10
13.385012
20
-9.183266
30
0
11
13.42212
21
-9.183266
31
0
39
0
210
0
220
0
230
1
0
LINE
5
199
100
AcDbEntity
8
1
62
256
6
ByLayer
370
18
48
1
60
0
100
AcDbLine
10
13.5
20
11.100301
30
0
11
13.5
21
11.795788
31
0
39
0
210
0
220
0
230
1
0
LINE
5
19A
100
AcDbEntity
8
1
62
256
6
ByLayer
370
18
48
1
60
0
100
AcDbLine
10
13.5
20
11.100301
30
0
11
2.5
21
11.100301
31
0
39
0
210
0
220
0
230
1
0
LINE
5
19B
100
AcDbEntity
8
1
62
256
6
ByLayer
370
18
48
1
60
0
100
AcDbLine
10
11.7
20
11.795788
30
0
11
8.9
21
11.795788
31
0
39
0
210
0
220
0
230
1
0
LINE
5
19C
100
AcDbEntity
8
1
62
256
6
ByLayer
370
13
48
1
60
0
100
AcDbLine
10
13.15802
20
-8.722606
30
0
11
2.84198
21
-8.722606
31
0
39
0
210
0
220
0
230
1
0
LINE
5
19D
100
AcDbEntity
8
1
62
256
6
ByLayer
370
18
48
1
60
0
100
AcDbLine
10
13.26334
20
25.194338
30
0
11
13.18652
21
25.312815
31
0
39
0
210
0
220
0
230
1
0
LINE
5
19E
100
AcDbEntity
8
1
62
256
6
ByLayer
370
13
48
1
60
0
100
AcDbLine
10
8.9
20
14.417055
30
0
11
8.9
21
11.795788
31
0
39
0
210
0
220
0
230
1
0
LINE
5
19F
100
AcDbEntity
8
1
62
256
6
ByLayer
370
13
48
1
60
0
100
AcDbLine
10
11.7
20
11.795788
30
0
11
11.7
21
14.417055
31
0
39
0
210
0
220
0
230
1
0
LINE
5
1A0
100
AcDbEntity
8
1
62
256
6
ByLayer
370
13
48
1
60
0
100
AcDbLine
10
2.84198
20
-8.784025
30
0
11
13.15802
21
-8.784025
31
0
39
0
210
0
220
0
230
1
0
LINE
5
1A1
100
AcDbEntity
8
1
62
256
6
ByLayer
370
13
48
1
60
0
100
AcDbLine
10
13.18652
20
-8.891013
30
0
11
2.81348
21
-8.891013
31
0
39
0
210
0
220
0
230
1
0
LINE
5
1A2
100
AcDbEntity
8
1
62
256
6
ByLayer
370
13
48
1
60
0
100
AcDbLine
10
2.57788
20
-9.584124
30
0
11
2.614988
21
-9.584124
31
0
39
0
210
0
220
0
230
1
0
LINE
5
1A3
100
AcDbEntity
8
1
62
256
6
ByLayer
370
13
48
1
60
0
100
AcDbLine
10
13.385012
20
-9.584124
30
0
11
13.42212
21
-9.584124
31
0
39
0
210
0
220
0
230
1
0
LINE
5
1A4
100
AcDbEntity
8
1
62
256
6
ByLayer
370
18
48
1
60
0
100
AcDbLine
10
2.81348
20
25.312815
30
0
11
2.73666
21
25.194338
31
0
39
0
210
0
220
0
230
1
0
LINE
5
1A5
100
AcDbEntity
8
1
62
256
6
ByLayer
370
13
48
1
60
0
100
AcDbLine
10
13.15802
20
-9.123464
30
0
11
2.84198
21
-9.123464
31
0
39
0
210
0
220
0
230
1
0
LINE
5
1A6
100
AcDbEntity
8
1
62
256
6
ByLayer
370
13
48
1
60
0
100
AcDbLine
10
2.84198
20
-9.184883
30
0
11
13.15802
21
-9.184883
31
0
39
0
210
0
220
0
230
1
0
LINE
5
1A7
100
AcDbEntity
8
1
62
256
6
ByLayer
370
13
48
1
60
0
100
AcDbLine
10
13.18652
20
-9.29187
30
0
11
2.81348
21
-9.29187
31
0
39
0
210
0
220
0
230
1
0
LINE
5
1A8
100
AcDbEntity
8
1
62
256
6
ByLayer
370
18
48
1
60
0
100
AcDbLine
10
3.5
20
24.939789
30
0
11
12.5
21
24.939789
31
0
39
0
210
0
220
0
230
1
0
LINE
5
1A9
100
AcDbEntity
8
1
62
256
6
ByLayer
370
13
48
1
60
0
100
AcDbLine
10
13.18652
20
25.312815
30
0
11
2.81348
21
25.312815
31
0
39
0
210
0
220
0
230
1
0
LINE
5
1AA
100
AcDbEntity
8
1
62
256
6
ByLayer
370
18
48
1
60
0
100
AcDbLine
10
2.5
20
17.934952
30
0
11
2.5
21
24.343451
31
0
39
0
210
0
220
0
230
1
0
LINE
5
1AB
100
AcDbEntity
8
1
62
256
6
ByLayer
370
13
48
1
60
0
100
AcDbLine
10
2.57788
20
-9.984981
30
0
11
2.614988
21
-9.984981
31
0
39
0
210
0
220
0
230
1
0
LINE
5
1AC
100
AcDbEntity
8
1
62
256
6
ByLayer
370
13
48
1
60
0
100
AcDbLine
10
13.385012
20
-9.984981
30
0
11
13.42212
21
-9.984981
31
0
39
0
210
0
220
0
230
1
0
LINE
5
1AD
100
AcDbEntity
8
1
62
256
6
ByLayer
370
13
48
1
60
0
100
AcDbLine
10
3.013184
20
24.949461
30
0
11
12.986816
21
24.949461
31
0
39
0
210
0
220
0
230
1
0
LINE
5
1AE
100
AcDbEntity
8
1
62
256
6
ByLayer
370
13
48
1
60
0
100
AcDbLine
10
13.15802
20
-9.524321
30
0
11
2.84198
21
-9.524321
31
0
39
0
210
0
220
0
230
1
0
LINE
5
1AF
100
AcDbEntity
8
1
62
256
6
ByLayer
370
13
48
1
60
0
100
AcDbLine
10
2.84198
20
-9.58574
30
0
11
13.15802
21
-9.58574
31
0
39
0
210
0
220
0
230
1
0
LINE
5
1B0
100
AcDbEntity
8
1
62
256
6
ByLayer
370
13
48
1
60
0
100
AcDbLine
10
13.18652
20
-9.692728
30
0
11
2.81348
21
-9.692728
31
0
39
0
210
0
220
0
230
1
0
LINE
5
1B1
100
AcDbEntity
8
1
62
256
6
ByLayer
370
13
48
1
60
0
100
AcDbLine
10
2.57788
20
-10.385839
30
0
11
2.614988
21
-10.385839
31
0
39
0
210
0
220
0
230
1
0
LINE
5
1B2
100
AcDbEntity
8
1
62
256
6
ByLayer
370
13
48
1
60
0
100
AcDbLine
10
13.385012
20
-10.385839
30
0
11
13.42212
21
-10.385839
31
0
39
0
210
0
220
0
230
1
0
LINE
5
1B3
100
AcDbEntity
8
1
62
256
6
ByLayer
370
13
48
1
60
0
100
AcDbLine
10
13.15802
20
-9.925179
30
0
11
2.84198
21
-9.925179
31
0
39
0
210
0
220
0
230
1
0
LINE
5
1B4
100
AcDbEntity
8
1
62
256
6
ByLayer
370
13
48
1
60
0
100
AcDbLine
10
2.84198
20
-9.986598
30
0
11
13.15802
21
-9.986598
31
0
39
0
210
0
220
0
230
1
0
LINE
5
1B5
100
AcDbEntity
8
1
62
256
6
ByLayer
370
13
48
1
60
0
100
AcDbLine
10
13.18652
20
-10.093586
30
0
11
2.81348
21
-10.093586
31
0
39
0
210
0
220
0
230
1
0
LINE
5
1B6
100
AcDbEntity
8
1
62
256
6
ByLayer
370
13
48
1
60
0
100
AcDbLine
10
2.57788
20
-10.786696
30
0
11
2.614988
21
-10.786696
31
0
39
0
210
0
220
0
230
1
0
LINE
5
1B7
100
AcDbEntity
8
1
62
256
6
ByLayer
370
13
48
1
60
0
100
AcDbLine
10
13.385012
20
-10.786696
30
0
11
13.42212
21
-10.786696
31
0
39
0
210
0
220
0
230
1
0
LINE
5
1B8
100
AcDbEntity
8
1
62
256
6
ByLayer
370
18
48
1
60
0
100
AcDbLine
10
2.5
20
17.934952
30
0
11
2.5
21
11.795788
31
0
39
0
210
0
220
0
230
1
0
LINE
5
1B9
100
AcDbEntity
8
1
62
256
6
ByLayer
370
18
48
1
60
0
100
AcDbLine
10
13.5
20
11.795788
30
0
11
13.5
21
17.934952
31
0
39
0
210
0
220
0
230
1
0
LINE
5
1BA
100
AcDbEntity
8
1
62
256
6
ByLayer
370
13
48
1
60
0
100
AcDbLine
10
3.5
20
24.939789
30
0
11
3.5
21
18.557015
31
0
39
0
210
0
220
0
230
1
0
LINE
5
1BB
100
AcDbEntity
8
1
62
256
6
ByLayer
370
18
48
1
60
0
100
AcDbLine
10
8.9
20
11.795788
30
0
11
2.5
21
11.795788
31
0
39
0
210
0
220
0
230
1
0
LINE
5
1BC
100
AcDbEntity
8
1
62
256
6
ByLayer
370
18
48
1
60
0
100
AcDbLine
10
8.8
20
15.617258
30
0
11
8.8
21
11.933243
31
0
39
0
210
0
220
0
230
1
0
LINE
5
1BD
100
AcDbEntity
8
1
62
256
6
ByLayer
370
18
48
1
60
0
100
AcDbLine
10
11.8
20
11.933243
30
0
11
11.8
21
15.617258
31
0
39
0
210
0
220
0
230
1
0
LINE
5
1BE
100
AcDbEntity
8
1
62
256
6
ByLayer
370
18
48
1
60
0
100
AcDbLine
10
13.5
20
11.795788
30
0
11
11.7
21
11.795788
31
0
39
0
210
0
220
0
230
1
0
LINE
5
1BF
100
AcDbEntity
8
1
62
256
6
ByLayer
370
18
48
1
60
0
100
AcDbLine
10
12.5
20
18.557015
30
0
11
3.5
21
18.557015
31
0
39
0
210
0
220
0
230
1
0
LINE
5
1C0
100
AcDbEntity
8
1
62
256
6
ByLayer
370
18
48
1
60
0
100
AcDbLine
10
13.5
20
24.343451
30
0
11
13.5
21
17.934952
31
0
39
0
210
0
220
0
230
1
0
LINE
5
1C1
100
AcDbEntity
8
1
62
256
6
ByLayer
370
18
48
1
60
0
100
AcDbLine
10
2.5
20
-18.35073
30
0
11
2.5
21
-19.502047
31
0
39
0
210
0
220
0
230
1
0
LINE
5
1C2
100
AcDbEntity
8
1
62
256
6
ByLayer
370
18
48
1
60
0
100
AcDbLine
10
13.5
20
-18.35073
30
0
11
13.5
21
-19.502047
31
0
39
0
210
0
220
0
230
1
0
LINE
5
1C3
100
AcDbEntity
8
1
62
256
6
ByLayer
370
18
48
1
60
0
100
AcDbLine
10
8.9
20
-19.502047
30
0
11
2.5
21
-19.502047
31
0
39
0
210
0
220
0
230
1
0
LINE
5
1C4
100
AcDbEntity
8
1
62
256
6
ByLayer
370
18
48
1
60
0
100
AcDbLine
10
8.8
20
-18.494429
30
0
11
8.8
21
-19.443884
31
0
39
0
210
0
220
0
230
1
0
LINE
5
1C5
100
AcDbEntity
8
1
62
256
6
ByLayer
370
13
48
1
60
0
100
AcDbLine
10
12.5
20
18.557015
30
0
11
12.5
21
24.939789
31
0
39
0
210
0
220
0
230
1
0
LINE
5
1C6
100
AcDbEntity
8
1
62
256
6
ByLayer
370
18
48
1
60
0
100
AcDbLine
10
11.8
20
-19.443884
30
0
11
11.8
21
-18.494429
31
0
39
0
210
0
220
0
230
1
0
LINE
5
1C7
100
AcDbEntity
8
1
62
256
6
ByLayer
370
18
48
1
60
0
100
AcDbLine
10
13.5
20
-43.886711
30
0
11
13.5
21
-45.980668
31
0
39
0
210
0
220
0
230
1
0
LINE
5
1C8
100
AcDbEntity
8
1
62
256
6
ByLayer
370
18
48
1
60
0
100
AcDbLine
10
13.5
20
-19.502047
30
0
11
11.7
21
-19.502047
31
0
39
0
210
0
220
0
230
1
0
LINE
5
1C9
100
AcDbEntity
8
1
62
256
6
ByLayer
370
18
48
1
60
0
100
AcDbLine
10
13.18652
20
-44.775752
30
0
11
13.42212
21
-44.265125
31
0
39
0
210
0
220
0
230
1
0
LINE
5
1CA
100
AcDbEntity
8
1
62
256
6
ByLayer
370
18
48
1
60
0
100
AcDbLine
10
13.42212
20
-7.178978
30
0
11
13.12002
21
-6.290231
31
0
39
0
210
0
220
0
230
1
0
LINE
5
1CB
100
AcDbEntity
8
1
62
256
6
ByLayer
370
18
48
1
60
0
100
AcDbLine
10
13.18652
20
-6.755875
30
0
11
13.42212
21
-7.257666
31
0
39
0
210
0
220
0
230
1
0
LINE
5
1CC
100
AcDbEntity
8
1
62
256
6
ByLayer
370
13
48
1
60
0
100
AcDbLine
10
13.15802
20
-10.326036
30
0
11
2.84198
21
-10.326036
31
0
39
0
210
0
220
0
230
1
0
LINE
5
1CD
100
AcDbEntity
8
1
62
256
6
ByLayer
370
13
48
1
60
0
100
AcDbLine
10
2.84198
20
-10.387456
30
0
11
13.15802
21
-10.387456
31
0
39
0
210
0
220
0
230
1
0
LINE
5
1CE
100
AcDbEntity
8
1
62
256
6
ByLayer
370
13
48
1
60
0
100
AcDbLine
10
13.18652
20
-10.494443
30
0
11
2.81348
21
-10.494443
31
0
39
0
210
0
220
0
230
1
0
LINE
5
1CF
100
AcDbEntity
8
1
62
256
6
ByLayer
370
13
48
1
60
0
100
AcDbLine
10
2.57788
20
-11.187554
30
0
11
2.614988
21
-11.187554
31
0
39
0
210
0
220
0
230
1
0
LINE
5
1D0
100
AcDbEntity
8
1
62
256
6
ByLayer
370
13
48
1
60
0
100
AcDbLine
10
13.385012
20
-11.187554
30
0
11
13.42212
21
-11.187554
31
0
39
0
210
0
220
0
230
1
0
LINE
5
1D1
100
AcDbEntity
8
1
62
256
6
ByLayer
370
18
48
1
60
0
100
AcDbLine
10
13.15802
20
-6.779737
30
0
11
13.15802
21
-6.718318
31
0
39
0
210
0
220
0
230
1
0
LINE
5
1D2
100
AcDbEntity
8
1
62
256
6
ByLayer
370
13
48
1
60
0
100
AcDbLine
10
13.15802
20
-10.726894
30
0
11
2.84198
21
-10.726894
31
0
39
0
210
0
220
0
230
1
0
LINE
5
1D3
100
AcDbEntity
8
1
62
256
6
ByLayer
370
13
48
1
60
0
100
AcDbLine
10
2.84198
20
-10.788313
30
0
11
13.15802
21
-10.788313
31
0
39
0
210
0
220
0
230
1
0
LINE
5
1D4
100
AcDbEntity
8
1
62
256
6
ByLayer
370
18
48
1
60
0
100
AcDbLine
10
13.42212
20
-7.579836
30
0
11
13.18652
21
-6.886725
31
0
39
0
210
0
220
0
230
1
0
LINE
5
1D5
100
AcDbEntity
8
1
62
256
6
ByLayer
370
18
48
1
60
0
100
AcDbLine
10
13.18652
20
-7.156733
30
0
11
13.42212
21
-7.658524
31
0
39
0
210
0
220
0
230
1
0
LINE
5
1D6
100
AcDbEntity
8
1
62
256
6
ByLayer
370
18
48
1
60
0
100
AcDbLine
10
13.15802
20
-7.180595
30
0
11
13.15802
21
-7.119176
31
0
39
0
210
0
220
0
230
1
0
LINE
5
1D7
100
AcDbEntity
8
1
62
256
6
ByLayer
370
18
48
1
60
0
100
AcDbLine
10
13.42212
20
-7.980693
30
0
11
13.18652
21
-7.287583
31
0
39
0
210
0
220
0
230
1
0
LINE
5
1D8
100
AcDbEntity
8
1
62
256
6
ByLayer
370
18
48
1
60
0
100
AcDbLine
10
13.18652
20
-7.55759
30
0
11
13.42212
21
-8.059381
31
0
39
0
210
0
220
0
230
1
0
LINE
5
1D9
100
AcDbEntity
8
1
62
256
6
ByLayer
370
18
48
1
60
0
100
AcDbLine
10
13.15802
20
-7.581453
30
0
11
13.15802
21
-7.520033
31
0
39
0
210
0
220
0
230
1
0
LINE
5
1DA
100
AcDbEntity
8
1
62
256
6
ByLayer
370
18
48
1
60
0
100
AcDbLine
10
13.42212
20
-8.381551
30
0
11
13.18652
21
-7.68844
31
0
39
0
210
0
220
0
230
1
0
LINE
5
1DB
100
AcDbEntity
8
1
62
256
6
ByLayer
370
18
48
1
60
0
100
AcDbLine
10
13.18652
20
-7.958448
30
0
11
13.42212
21
-8.460239
31
0
39
0
210
0
220
0
230
1
0
LINE
5
1DC
100
AcDbEntity
8
1
62
256
6
ByLayer
370
18
48
1
60
0
100
AcDbLine
10
13.15802
20
-7.98231
30
0
11
13.15802
21
-7.920891
31
0
39
0
210
0
220
0
230
1
0
LINE
5
1DD
100
AcDbEntity
8
1
62
256
6
ByLayer
370
18
48
1
60
0
100
AcDbLine
10
13.42212
20
-8.782409
30
0
11
13.18652
21
-8.089298
31
0
39
0
210
0
220
0
230
1
0
LINE
5
1DE
100
AcDbEntity
8
1
62
256
6
ByLayer
370
18
48
1
60
0
100
AcDbLine
10
13.18652
20
-8.359306
30
0
11
13.42212
21
-8.861097
31
0
39
0
210
0
220
0
230
1
0
LINE
5
1DF
100
AcDbEntity
8
1
62
256
6
ByLayer
370
18
48
1
60
0
100
AcDbLine
10
13.15802
20
-8.383168
30
0
11
13.15802
21
-8.321749
31
0
39
0
210
0
220
0
230
1
0
LINE
5
1E0
100
AcDbEntity
8
1
62
256
6
ByLayer
370
18
48
1
60
0
100
AcDbLine
10
13.42212
20
-9.183266
30
0
11
13.18652
21
-8.490155
31
0
39
0
210
0
220
0
230
1
0
LINE
5
1E1
100
AcDbEntity
8
1
62
256
6
ByLayer
370
18
48
1
60
0
100
AcDbLine
10
13.18652
20
-8.760163
30
0
11
13.42212
21
-9.261954
31
0
39
0
210
0
220
0
230
1
0
LINE
5
1E2
100
AcDbEntity
8
1
62
256
6
ByLayer
370
18
48
1
60
0
100
AcDbLine
10
13.15802
20
-8.784025
30
0
11
13.15802
21
-8.722606
31
0
39
0
210
0
220
0
230
1
0
LINE
5
1E3
100
AcDbEntity
8
1
62
256
6
ByLayer
370
18
48
1
60
0
100
AcDbLine
10
13.42212
20
-9.584124
30
0
11
13.18652
21
-8.891013
31
0
39
0
210
0
220
0
230
1
0
LINE
5
1E4
100
AcDbEntity
8
1
62
256
6
ByLayer
370
18
48
1
60
0
100
AcDbLine
10
13.18652
20
-9.161021
30
0
11
13.42212
21
-9.662812
31
0
39
0
210
0
220
0
230
1
0
LINE
5
1E5
100
AcDbEntity
8
1
62
256
6
ByLayer
370
18
48
1
60
0
100
AcDbLine
10
13.15802
20
-9.184883
30
0
11
13.15802
21
-9.123464
31
0
39
0
210
0
220
0
230
1
0
LINE
5
1E6
100
AcDbEntity
8
1
62
256
6
ByLayer
370
18
48
1
60
0
100
AcDbLine
10
13.42212
20
-9.984981
30
0
11
13.18652
21
-9.29187
31
0
39
0
210
0
220
0
230
1
0
LINE
5
1E7
100
AcDbEntity
8
1
62
256
6
ByLayer
370
18
48
1
60
0
100
AcDbLine
10
13.18652
20
-9.561878
30
0
11
13.42212
21
-10.063669
31
0
39
0
210
0
220
0
230
1
0
LINE
5
1E8
100
AcDbEntity
8
1
62
256
6
ByLayer
370
18
48
1
60
0
100
AcDbLine
10
13.15802
20
-9.58574
30
0
11
13.15802
21
-9.524321
31
0
39
0
210
0
220
0
230
1
0
LINE
5
1E9
100
AcDbEntity
8
1
62
256
6
ByLayer
370
18
48
1
60
0
100
AcDbLine
10
13.42212
20
-10.385839
30
0
11
13.18652
21
-9.692728
31
0
39
0
210
0
220
0
230
1
0
LINE
5
1EA
100
AcDbEntity
8
1
62
256
6
ByLayer
370
18
48
1
60
0
100
AcDbLine
10
13.18652
20
-9.962736
30
0
11
13.42212
21
-10.464527
31
0
39
0
210
0
220
0
230
1
0
LINE
5
1EB
100
AcDbEntity
8
1
62
256
6
ByLayer
370
18
48
1
60
0
100
AcDbLine
10
13.15802
20
-9.986598
30
0
11
13.15802
21
-9.925179
31
0
39
0
210
0
220
0
230
1
0
LINE
5
1EC
100
AcDbEntity
8
1
62
256
6
ByLayer
370
18
48
1
60
0
100
AcDbLine
10
13.42212
20
-10.786696
30
0
11
13.18652
21
-10.093586
31
0
39
0
210
0
220
0
230
1
0
LINE
5
1ED
100
AcDbEntity
8
1
62
256
6
ByLayer
370
18
48
1
60
0
100
AcDbLine
10
13.18652
20
-10.363593
30
0
11
13.42212
21
-10.865384
31
0
39
0
210
0
220
0
230
1
0
LINE
5
1EE
100
AcDbEntity
8
1
62
256
6
ByLayer
370
18
48
1
60
0
100
AcDbLine
10
13.15802
20
-10.387456
30
0
11
13.15802
21
-10.326036
31
0
39
0
210
0
220
0
230
1
0
LINE
5
1EF
100
AcDbEntity
8
1
62
256
6
ByLayer
370
18
48
1
60
0
100
AcDbLine
10
13.42212
20
-11.187554
30
0
11
13.18652
21
-10.494443
31
0
39
0
210
0
220
0
230
1
0
LINE
5
1F0
100
AcDbEntity
8
1
62
256
6
ByLayer
370
18
48
1
60
0
100
AcDbLine
10
13.18652
20
-10.764451
30
0
11
13.42212
21
-11.266242
31
0
39
0
210
0
220
0
230
1
0
LINE
5
1F1
100
AcDbEntity
8
1
62
256
6
ByLayer
370
18
48
1
60
0
100
AcDbLine
10
13.15802
20
-10.788313
30
0
11
13.15802
21
-10.726894
31
0
39
0
210
0
220
0
230
1
0
LINE
5
1F2
100
AcDbEntity
8
1
62
256
6
ByLayer
370
18
48
1
60
0
100
AcDbLine
10
13.5
20
-7.187622
30
0
11
13.5
21
-11.55383
31
0
39
0
210
0
220
0
230
1
0
LINE
5
1F3
100
AcDbEntity
8
1
62
256
6
ByLayer
370
18
48
1
60
0
100
AcDbLine
10
13.12
20
-6.290111
30
0
11
13.12
21
-6.223992
31
0
39
0
210
0
220
0
230
1
0
LINE
5
1F4
100
AcDbEntity
8
1
62
256
6
ByLayer
370
18
48
1
60
0
100
AcDbLine
10
2.88
20
-6.290111
30
0
11
2.88
21
-6.223992
31
0
39
0
210
0
220
0
230
1
0
LINE
5
1F5
100
AcDbEntity
8
1
62
256
6
ByLayer
370
18
48
1
60
0
100
AcDbLine
10
2.5
20
-7.187622
30
0
11
2.5
21
-11.55383
31
0
39
0
210
0
220
0
230
1
0
LINE
5
1F6
100
AcDbEntity
8
1
62
256
6
ByLayer
370
13
48
1
60
0
100
AcDbLine
10
13.5
20
-7.187622
30
0
11
13.12
21
-6.223992
31
0
39
0
210
0
220
0
230
1
0
LINE
5
1F7
100
AcDbEntity
8
1
62
256
6
ByLayer
370
18
48
1
60
0
100
AcDbLine
10
2.84198
20
-10.726894
30
0
11
2.84198
21
-10.788313
31
0
39
0
210
0
220
0
230
1
0
LINE
5
1F8
100
AcDbEntity
8
1
62
256
6
ByLayer
370
18
48
1
60
0
100
AcDbLine
10
2.57788
20
-11.266242
30
0
11
2.81348
21
-10.764451
31
0
39
0
210
0
220
0
230
1
0
LINE
5
1F9
100
AcDbEntity
8
1
62
256
6
ByLayer
370
13
48
1
60
0
100
AcDbLine
10
2.88
20
-6.223992
30
0
11
2.5
21
-7.187622
31
0
39
0
210
0
220
0
230
1
0
LINE
5
1FA
100
AcDbEntity
8
1
62
256
6
ByLayer
370
18
48
1
60
0
100
AcDbLine
10
2.81348
20
-10.494443
30
0
11
2.57788
21
-11.187554
31
0
39
0
210
0
220
0
230
1
0
LINE
5
1FB
100
AcDbEntity
8
1
62
256
6
ByLayer
370
18
48
1
60
0
100
AcDbLine
10
2.84198
20
-10.326036
30
0
11
2.84198
21
-10.387456
31
0
39
0
210
0
220
0
230
1
0
LINE
5
1FC
100
AcDbEntity
8
1
62
256
6
ByLayer
370
18
48
1
60
0
100
AcDbLine
10
2.57788
20
-10.865384
30
0
11
2.81348
21
-10.363593
31
0
39
0
210
0
220
0
230
1
0
LINE
5
1FD
100
AcDbEntity
8
1
62
256
6
ByLayer
370
18
48
1
60
0
100
AcDbLine
10
2.81348
20
-10.093586
30
0
11
2.57788
21
-10.786696
31
0
39
0
210
0
220
0
230
1
0
LINE
5
1FE
100
AcDbEntity
8
1
62
256
6
ByLayer
370
18
48
1
60
0
100
AcDbLine
10
2.84198
20
-9.925179
30
0
11
2.84198
21
-9.986598
31
0
39
0
210
0
220
0
230
1
0
LINE
5
1FF
100
AcDbEntity
8
1
62
256
6
ByLayer
370
18
48
1
60
0
100
AcDbLine
10
2.57788
20
-10.464527
30
0
11
2.81348
21
-9.962736
31
0
39
0
210
0
220
0
230
1
0
LINE
5
200
100
AcDbEntity
8
1
62
256
6
ByLayer
370
18
48
1
60
0
100
AcDbLine
10
2.81348
20
-9.692728
30
0
11
2.57788
21
-10.385839
31
0
39
0
210
0
220
0
230
1
0
LINE
5
201
100
AcDbEntity
8
1
62
256
6
ByLayer
370
18
48
1
60
0
100
AcDbLine
10
2.84198
20
-9.524321
30
0
11
2.84198
21
-9.58574
31
0
39
0
210
0
220
0
230
1
0
LINE
5
202
100
AcDbEntity
8
1
62
256
6
ByLayer
370
18
48
1
60
0
100
AcDbLine
10
2.57788
20
-10.063669
30
0
11
2.81348
21
-9.561878
31
0
39
0
210
0
220
0
230
1
0
LINE
5
203
100
AcDbEntity
8
1
62
256
6
ByLayer
370
18
48
1
60
0
100
AcDbLine
10
2.81348
20
-9.29187
30
0
11
2.57788
21
-9.984981
31
0
39
0
210
0
220
0
230
1
0
LINE
5
204
100
AcDbEntity
8
1
62
256
6
ByLayer
370
18
48
1
60
0
100
AcDbLine
10
2.84198
20
-9.123464
30
0
11
2.84198
21
-9.184883
31
0
39
0
210
0
220
0
230
1
0
LINE
5
205
100
AcDbEntity
8
1
62
256
6
ByLayer
370
18
48
1
60
0
100
AcDbLine
10
2.57788
20
-9.662812
30
0
11
2.81348
21
-9.161021
31
0
39
0
210
0
220
0
230
1
0
LINE
5
206
100
AcDbEntity
8
1
62
256
6
ByLayer
370
18
48
1
60
0
100
AcDbLine
10
2.81348
20
-8.891013
30
0
11
2.57788
21
-9.584124
31
0
39
0
210
0
220
0
230
1
0
LINE
5
207
100
AcDbEntity
8
1
62
256
6
ByLayer
370
18
48
1
60
0
100
AcDbLine
10
2.84198
20
-8.722606
30
0
11
2.84198
21
-8.784025
31
0
39
0
210
0
220
0
230
1
0
LINE
5
208
100
AcDbEntity
8
1
62
256
6
ByLayer
370
18
48
1
60
0
100
AcDbLine
10
2.57788
20
-9.261954
30
0
11
2.81348
21
-8.760163
31
0
39
0
210
0
220
0
230
1
0
LINE
5
209
100
AcDbEntity
8
1
62
256
6
ByLayer
370
18
48
1
60
0
100
AcDbLine
10
2.81348
20
-8.490155
30
0
11
2.57788
21
-9.183266
31
0
39
0
210
0
220
0
230
1
0
LINE
5
20A
100
AcDbEntity
8
1
62
256
6
ByLayer
370
18
48
1
60
0
100
AcDbLine
10
2.84198
20
-8.321749
30
0
11
2.84198
21
-8.383168
31
0
39
0
210
0
220
0
230
1
0
LINE
5
20B
100
AcDbEntity
8
1
62
256
6
ByLayer
370
18
48
1
60
0
100
AcDbLine
10
2.57788
20
-8.861097
30
0
11
2.81348
21
-8.359306
31
0
39
0
210
0
220
0
230
1
0
LINE
5
20C
100
AcDbEntity
8
1
62
256
6
ByLayer
370
18
48
1
60
0
100
AcDbLine
10
2.81348
20
-8.089298
30
0
11
2.57788
21
-8.782409
31
0
39
0
210
0
220
0
230
1
0
LINE
5
20D
100
AcDbEntity
8
1
62
256
6
ByLayer
370
18
48
1
60
0
100
AcDbLine
10
2.84198
20
-7.920891
30
0
11
2.84198
21
-7.98231
31
0
39
0
210
0
220
0
230
1
0
LINE
5
20E
100
AcDbEntity
8
1
62
256
6
ByLayer
370
18
48
1
60
0
100
AcDbLine
10
2.57788
20
-8.460239
30
0
11
2.81348
21
-7.958448
31
0
39
0
210
0
220
0
230
1
0
LINE
5
20F
100
AcDbEntity
8
1
62
256
6
ByLayer
370
18
48
1
60
0
100
AcDbLine
10
2.81348
20
-7.68844
30
0
11
2.57788
21
-8.381551
31
0
39
0
210
0
220
0
230
1
0
LINE
5
210
100
AcDbEntity
8
1
62
256
6
ByLayer
370
18
48
1
60
0
100
AcDbLine
10
2.84198
20
-7.520033
30
0
11
2.84198
21
-7.581453
31
0
39
0
210
0
220
0
230
1
0
LINE
5
211
100
AcDbEntity
8
1
62
256
6
ByLayer
370
18
48
1
60
0
100
AcDbLine
10
2.57788
20
-8.059381
30
0
11
2.81348
21
-7.55759
31
0
39
0
210
0
220
0
230
1
0
LINE
5
212
100
AcDbEntity
8
1
62
256
6
ByLayer
370
18
48
1
60
0
100
AcDbLine
10
2.81348
20
-7.287583
30
0
11
2.57788
21
-7.980693
31
0
39
0
210
0
220
0
230
1
0
LINE
5
213
100
AcDbEntity
8
1
62
256
6
ByLayer
370
18
48
1
60
0
100
AcDbLine
10
2.84198
20
-7.119176
30
0
11
2.84198
21
-7.180595
31
0
39
0
210
0
220
0
230
1
0
LINE
5
214
100
AcDbEntity
8
1
62
256
6
ByLayer
370
18
48
1
60
0
100
AcDbLine
10
2.57788
20
-7.658524
30
0
11
2.81348
21
-7.156733
31
0
39
0
210
0
220
0
230
1
0
LINE
5
215
100
AcDbEntity
8
1
62
256
6
ByLayer
370
18
48
1
60
0
100
AcDbLine
10
2.81348
20
-6.886725
30
0
11
2.57788
21
-7.579836
31
0
39
0
210
0
220
0
230
1
0
LINE
5
216
100
AcDbEntity
8
1
62
256
6
ByLayer
370
18
48
1
60
0
100
AcDbLine
10
2.84198
20
-6.718318
30
0
11
2.84198
21
-6.779737
31
0
39
0
210
0
220
0
230
1
0
LINE
5
217
100
AcDbEntity
8
1
62
256
6
ByLayer
370
18
48
1
60
0
100
AcDbLine
10
2.57788
20
-7.257666
30
0
11
2.81348
21
-6.755875
31
0
39
0
210
0
220
0
230
1
0
LINE
5
218
100
AcDbEntity
8
1
62
256
6
ByLayer
370
18
48
1
60
0
100
AcDbLine
10
2.87998
20
-6.290231
30
0
11
2.57788
21
-7.178978
31
0
39
0
210
0
220
0
230
1
0
LINE
5
219
100
AcDbEntity
8
1
62
256
6
ByLayer
370
18
48
1
60
0
100
AcDbLine
10
13.26334
20
-11.1213
30
0
11
13.18652
21
-10.895301
31
0
39
0
210
0
220
0
230
1
0
LINE
5
21A
100
AcDbEntity
8
1
62
256
6
ByLayer
370
18
48
1
60
0
100
AcDbLine
10
2.81348
20
-10.895301
30
0
11
2.73666
21
-11.1213
31
0
39
0
210
0
220
0
230
1
0
LINE
5
21B
100
AcDbEntity
8
1
62
256
6
ByLayer
370
18
48
1
60
0
100
AcDbLine
10
12.5
20
-18.494425
30
0
11
3.5
21
-18.494425
31
0
39
0
210
0
220
0
230
1
0
LINE
5
21C
100
AcDbEntity
8
1
62
256
6
ByLayer
370
13
48
1
60
0
100
AcDbLine
10
13.18652
20
-10.895301
30
0
11
2.81348
21
-10.895301
31
0
39
0
210
0
220
0
230
1
0
LINE
5
21D
100
AcDbEntity
8
1
62
256
6
ByLayer
370
18
48
1
60
0
100
AcDbLine
10
2.5
20
-18.350721
30
0
11
2.5
21
-11.55383
31
0
39
0
210
0
220
0
230
1
0
LINE
5
21E
100
AcDbEntity
8
1
62
256
6
ByLayer
370
18
48
1
60
0
100
AcDbLine
10
3.5
20
-11.703787
30
0
11
12.5
21
-11.703787
31
0
39
0
210
0
220
0
230
1
0
LINE
5
21F
100
AcDbEntity
8
1
62
256
6
ByLayer
370
13
48
1
60
0
100
AcDbLine
10
3.5
20
-11.703787
30
0
11
3.5
21
-18.494425
31
0
39
0
210
0
220
0
230
1
0
LINE
5
220
100
AcDbEntity
8
1
62
256
6
ByLayer
370
18
48
1
60
0
100
AcDbLine
10
13.5
20
-11.55383
30
0
11
13.5
21
-18.350721
31
0
39
0
210
0
220
0
230
1
0
LINE
5
221
100
AcDbEntity
8
1
62
256
6
ByLayer
370
13
48
1
60
0
100
AcDbLine
10
3.013184
20
-11.588411
30
0
11
12.986816
21
-11.588411
31
0
39
0
210
0
220
0
230
1
0
LINE
5
222
100
AcDbEntity
8
1
62
256
6
ByLayer
370
18
48
1
60
0
100
AcDbLine
10
3.5
20
-46.973975
30
0
11
12.5
21
-46.973975
31
0
39
0
210
0
220
0
230
1
0
LINE
5
223
100
AcDbEntity
8
1
62
256
6
ByLayer
370
13
48
1
60
0
100
AcDbLine
10
12.5
20
-18.494425
30
0
11
12.5
21
-11.703787
31
0
39
0
210
0
220
0
230
1
0
LINE
5
224
100
AcDbEntity
8
80
62
256
6
ByLayer
370
18
48
1
60
0
100
AcDbLine
10
0
20
0
30
0
11
-5
21
0
31
0
39
0
210
0
220
0
230
1
0
LINE
5
225
100
AcDbEntity
8
4
62
256
6
ByLayer
370
18
48
0.05
60
0
100
AcDbLine
10
0
20
0
30
0
11
17
21
0
31
0
39
0
210
0
220
0
230
1
0
LINE
5
227
100
AcDbEntity
8
SK4
62
256
6
ByLayer
370
18
48
0.05
60
0
100
AcDbLine
10
-3
20
0
30
0
11
17
21
0
31
0
39
0
210
0
220
0
230
1
0
LINE
5
229
100
AcDbEntity
8
1
62
256
6
ByLayer
370
18
48
1
60
0
100
AcDbLine
10
16
20
23.1
30
0
11
15.6
21
23.5
31
0
39
0
210
0
220
0
230
1
0
LINE
5
22A
100
AcDbEntity
8
1
62
256
6
ByLayer
370
18
48
1
60
0
100
AcDbLine
10
15.6
20
-23.5
30
0
11
16
21
-23.1
31
0
39
0
210
0
220
0
230
1
0
LINE
5
22B
100
AcDbEntity
8
1
62
256
6
ByLayer
370
18
48
1
60
0
100
AcDbLine
10
0.4
20
-23.5
30
0
11
1.7
21
-23.5
31
0
39
0
210
0
220
0
230
1
0
LINE
5
22C
100
AcDbEntity
8
1
62
256
6
ByLayer
370
18
48
1
60
0
100
AcDbLine
10
1.7
20
23.5
30
0
11
0.4
21
23.5
31
0
39
0
210
0
220
0
230
1
0
LINE
5
22D
100
AcDbEntity
8
1
62
256
6
ByLayer
370
18
48
1
60
0
100
AcDbLine
10
0
20
-23.1
30
0
11
0.4
21
-23.5
31
0
39
0
210
0
220
0
230
1
0
LINE
5
22E
100
AcDbEntity
8
1
62
256
6
ByLayer
370
18
48
1
60
0
100
AcDbLine
10
0.4
20
23.5
30
0
11
0
21
23.1
31
0
39
0
210
0
220
0
230
1
0
LINE
5
22F
100
AcDbEntity
8
1
62
256
6
ByLayer
370
18
48
1
60
0
100
AcDbLine
10
14.3
20
-23.5
30
0
11
15.6
21
-23.5
31
0
39
0
210
0
220
0
230
1
0
LINE
5
230
100
AcDbEntity
8
1
62
256
6
ByLayer
370
18
48
1
60
0
100
AcDbLine
10
15.6
20
23.5
30
0
11
14.3
21
23.5
31
0
39
0
210
0
220
0
230
1
0
LINE
5
231
100
AcDbEntity
8
1
62
256
6
ByLayer
370
18
48
1
60
0
100
AcDbLine
10
13.160093
20
-6.712863
30
0
11
2.839907
21
-6.712863
31
0
39
0
210
0
220
0
230
1
0
LINE
5
232
100
AcDbEntity
8
1
62
256
6
ByLayer
370
18
48
1
60
0
100
AcDbLine
10
13.160093
20
-7.11372
30
0
11
2.839907
21
-7.11372
31
0
39
0
210
0
220
0
230
1
0
LINE
5
233
100
AcDbEntity
8
1
62
256
6
ByLayer
370
18
48
1
60
0
100
AcDbLine
10
13.160093
20
-7.514578
30
0
11
2.839907
21
-7.514578
31
0
39
0
210
0
220
0
230
1
0
LINE
5
234
100
AcDbEntity
8
1
62
256
6
ByLayer
370
18
48
1
60
0
100
AcDbLine
10
13.160093
20
-7.915436
30
0
11
2.839907
21
-7.915436
31
0
39
0
210
0
220
0
230
1
0
LINE
5
235
100
AcDbEntity
8
1
62
256
6
ByLayer
370
18
48
1
60
0
100
AcDbLine
10
13.160093
20
-8.316293
30
0
11
2.839907
21
-8.316293
31
0
39
0
210
0
220
0
230
1
0
LINE
5
236
100
AcDbEntity
8
1
62
256
6
ByLayer
370
18
48
1
60
0
100
AcDbLine
10
13.160093
20
-8.717151
30
0
11
2.839907
21
-8.717151
31
0
39
0
210
0
220
0
230
1
0
LINE
5
237
100
AcDbEntity
8
1
62
256
6
ByLayer
370
18
48
1
60
0
100
AcDbLine
10
13.160093
20
-9.118008
30
0
11
2.839907
21
-9.118008
31
0
39
0
210
0
220
0
230
1
0
LINE
5
238
100
AcDbEntity
8
1
62
256
6
ByLayer
370
18
48
1
60
0
100
AcDbLine
10
13.165409
20
25.33357
30
0
11
2.834591
21
25.33357
31
0
39
0
210
0
220
0
230
1
0
LINE
5
239
100
AcDbEntity
8
1
62
256
6
ByLayer
370
18
48
1
60
0
100
AcDbLine
10
13.160093
20
-9.518866
30
0
11
2.839907
21
-9.518866
31
0
39
0
210
0
220
0
230
1
0
LINE
5
23A
100
AcDbEntity
8
1
62
256
6
ByLayer
370
18
48
1
60
0
100
AcDbLine
10
13.160093
20
-9.919723
30
0
11
2.839907
21
-9.919723
31
0
39
0
210
0
220
0
230
1
0
LINE
5
23B
100
AcDbEntity
8
1
62
256
6
ByLayer
370
18
48
1
60
0
100
AcDbLine
10
13.160093
20
-10.320581
30
0
11
2.839907
21
-10.320581
31
0
39
0
210
0
220
0
230
1
0
LINE
5
23C
100
AcDbEntity
8
1
62
256
6
ByLayer
370
18
48
1
60
0
100
AcDbLine
10
13.160093
20
-10.721438
30
0
11
2.839907
21
-10.721438
31
0
39
0
210
0
220
0
230
1
0
LINE
5
23D
100
AcDbEntity
8
81
62
256
6
ByLayer
370
18
48
1
60
0
100
AcDbLine
10
14
20
50
30
0
11
19
21
50
31
0
39
0
210
0
220
0
230
1
0
LINE
5
23E
100
AcDbEntity
8
SK2
62
256
6
ByLayer
370
13
48
1
60
0
100
AcDbLine
10
14.565685
20
-50.565685
30
0
11
20.576093
21
-56.576093
31
0
39
0
210
0
220
0
230
1
0
LINE
5
240
100
AcDbEntity
8
1
62
256
6
ByLayer
370
18
48
1
60
1
100
AcDbLine
10
14.565685
20
-50.565685
30
0
11
17.366381
21
-52.714735
31
0
39
0
210
0
220
0
230
1
0
LINE
5
241
100
AcDbEntity
8
1
62
256
6
ByLayer
370
18
48
1
60
1
100
AcDbLine
10
17.366381
20
-52.714735
30
0
11
16.714737
21
-53.366384
31
0
39
0
210
0
220
0
230
1
0
LINE
5
242
100
AcDbEntity
8
1
62
256
6
ByLayer
370
18
48
1
60
1
100
AcDbLine
10
16.714737
20
-53.366384
30
0
11
14.565685
21
-50.565685
31
0
39
0
210
0
220
0
230
1
0
LINE
5
243
100
AcDbEntity
8
2
62
256
6
ByLayer
370
13
48
1
60
0
100
AcDbLine
10
47.35
20
50
30
0
11
47.35
21
-50
31
0
39
0
210
0
220
0
230
1
0
LINE
5
245
100
AcDbEntity
8
2
62
256
6
ByLayer
370
13
48
1
60
0
100
AcDbLine
10
15.5875
20
-50
30
0
11
49.35
21
-50
31
0
39
0
210
0
220
0
230
1
0
LINE
5
246
100
AcDbEntity
8
2
62
256
6
ByLayer
370
13
48
1
60
0
100
AcDbLine
10
15.5875
20
50
30
0
11
49.35
21
50
31
0
39
0
210
0
220
0
230
1
0
LINE
5
247
100
AcDbEntity
8
1
62
256
6
ByLayer
370
18
48
1
60
1
100
AcDbLine
10
47.35
20
-50
30
0
11
46.889216
21
-46.500002
31
0
39
0
210
0
220
0
230
1
0
LINE
5
248
100
AcDbEntity
8
1
62
256
6
ByLayer
370
18
48
1
60
1
100
AcDbLine
10
46.889216
20
-46.500002
30
0
11
47.810784
21
-46.499998
31
0
39
0
210
0
220
0
230
1
0
LINE
5
249
100
AcDbEntity
8
1
62
256
6
ByLayer
370
18
48
1
60
1
100
AcDbLine
10
47.810784
20
-46.499998
30
0
11
47.35
21
-50
31
0
39
0
210
0
220
0
230
1
0
LINE
5
24A
100
AcDbEntity
8
1
62
256
6
ByLayer
370
18
48
1
60
1
100
AcDbLine
10
47.35
20
50
30
0
11
47.810784
21
46.500002
31
0
39
0
210
0
220
0
230
1
0
LINE
5
24B
100
AcDbEntity
8
1
62
256
6
ByLayer
370
18
48
1
60
1
100
AcDbLine
10
47.810784
20
46.500002
30
0
11
46.889216
21
46.499998
31
0
39
0
210
0
220
0
230
1
0
LINE
5
24C
100
AcDbEntity
8
1
62
256
6
ByLayer
370
18
48
1
60
1
100
AcDbLine
10
46.889216
20
46.499998
30
0
11
47.35
21
50
31
0
39
0
210
0
220
0
230
1
0
LINE
5
24D
100
AcDbEntity
8
SK2
62
256
6
ByLayer
370
13
48
1
60
0
100
AcDbLine
10
-14.35
20
16
30
0
11
-14.35
21
-16
31
0
39
0
210
0
220
0
230
1
0
LINE
5
24E
100
AcDbEntity
8
SK2
62
256
6
ByLayer
370
13
48
1
60
0
100
AcDbLine
10
-1.5875
20
-16
30
0
11
-16.35
21
-16
31
0
39
0
210
0
220
0
230
1
0
LINE
5
24F
100
AcDbEntity
8
SK2
62
256
6
ByLayer
370
13
48
1
60
0
100
AcDbLine
10
-1.5875
20
16
30
0
11
-16.35
21
16
31
0
39
0
210
0
220
0
230
1
0
LINE
5
250
100
AcDbEntity
8
1
62
256
6
ByLayer
370
18
48
1
60
1
100
AcDbLine
10
-14.35
20
-16
30
0
11
-14.810784
21
-12.500002
31
0
39
0
210
0
220
0
230
1
0
LINE
5
251
100
AcDbEntity
8
1
62
256
6
ByLayer
370
18
48
1
60
1
100
AcDbLine
10
-14.810784
20
-12.500002
30
0
11
-13.889216
21
-12.499998
31
0
39
0
210
0
220
0
230
1
0
LINE
5
252
100
AcDbEntity
8
1
62
256
6
ByLayer
370
18
48
1
60
1
100
AcDbLine
10
-13.889216
20
-12.499998
30
0
11
-14.35
21
-16
31
0
39
0
210
0
220
0
230
1
0
LINE
5
253
100
AcDbEntity
8
1
62
256
6
ByLayer
370
18
48
1
60
1
100
AcDbLine
10
-14.35
20
16
30
0
11
-13.889216
21
12.500002
31
0
39
0
210
0
220
0
230
1
0
LINE
5
254
100
AcDbEntity
8
1
62
256
6
ByLayer
370
18
48
1
60
1
100
AcDbLine
10
-13.889216
20
12.500002
30
0
11
-14.810784
21
12.499998
31
0
39
0
210
0
220
0
230
1
0
LINE
5
255
100
AcDbEntity
8
1
62
256
6
ByLayer
370
18
48
1
60
1
100
AcDbLine
10
-14.810784
20
12.499998
30
0
11
-14.35
21
16
31
0
39
0
210
0
220
0
230
1
0
LINE
5
256
100
AcDbEntity
8
SK2
62
256
6
ByLayer
370
13
48
1
60
0
100
AcDbLine
10
-29.35
20
23.5
30
0
11
-29.35
21
-23.5
31
0
39
0
210
0
220
0
230
1
0
LINE
5
257
100
AcDbEntity
8
SK2
62
256
6
ByLayer
370
13
48
1
60
0
100
AcDbLine
10
-1.5875
20
-23.5
30
0
11
-31.35
21
-23.5
31
0
39
0
210
0
220
0
230
1
0
LINE
5
258
100
AcDbEntity
8
SK2
62
256
6
ByLayer
370
13
48
1
60
0
100
AcDbLine
10
-1.5875
20
23.5
30
0
11
-31.35
21
23.5
31
0
39
0
210
0
220
0
230
1
0
LINE
5
259
100
AcDbEntity
8
1
62
256
6
ByLayer
370
18
48
1
60
1
100
AcDbLine
10
-29.35
20
-23.5
30
0
11
-29.810784
21
-20.000002
31
0
39
0
210
0
220
0
230
1
0
LINE
5
25A
100
AcDbEntity
8
1
62
256
6
ByLayer
370
18
48
1
60
1
100
AcDbLine
10
-29.810784
20
-20.000002
30
0
11
-28.889216
21
-19.999998
31
0
39
0
210
0
220
0
230
1
0
LINE
5
25B
100
AcDbEntity
8
1
62
256
6
ByLayer
370
18
48
1
60
1
100
AcDbLine
10
-28.889216
20
-19.999998
30
0
11
-29.35
21
-23.5
31
0
39
0
210
0
220
0
230
1
0
LINE
5
25C
100
AcDbEntity
8
1
62
256
6
ByLayer
370
18
48
1
60
1
100
AcDbLine
10
-29.35
20
23.5
30
0
11
-28.889216
21
20.000002
31
0
39
0
210
0
220
0
230
1
0
LINE
5
25D
100
AcDbEntity
8
1
62
256
6
ByLayer
370
18
48
1
60
1
100
AcDbLine
10
-28.889216
20
20.000002
30
0
11
-29.810784
21
19.999998
31
0
39
0
210
0
220
0
230
1
0
LINE
5
25E
100
AcDbEntity
8
1
62
256
6
ByLayer
370
18
48
1
60
1
100
AcDbLine
10
-29.810784
20
19.999998
30
0
11
-29.35
21
23.5
31
0
39
0
210
0
220
0
230
1
0
LINE
5
355
100
AcDbEntity
8
1
62
256
6
ByLayer
370
18
48
1
60
1
100
AcDbLine
10
14.565685
20
-50.565685
30
0
11
17.366381
21
-52.714735
31
0
39
0
210
0
220
0
230
1
0
LINE
5
356
100
AcDbEntity
8
1
62
256
6
ByLayer
370
18
48
1
60
1
100
AcDbLine
10
17.366381
20
-52.714735
30
0
11
16.714737
21
-53.366384
31
0
39
0
210
0
220
0
230
1
0
LINE
5
357
100
AcDbEntity
8
1
62
256
6
ByLayer
370
18
48
1
60
1
100
AcDbLine
10
16.714737
20
-53.366384
30
0
11
14.565685
21
-50.565685
31
0
39
0
210
0
220
0
230
1
0
LINE
5
35B
100
AcDbEntity
8
1
62
256
6
ByLayer
370
18
48
1
60
1
100
AcDbLine
10
47.35
20
-50
30
0
11
46.889216
21
-46.500002
31
0
39
0
210
0
220
0
230
1
0
LINE
5
35C
100
AcDbEntity
8
1
62
256
6
ByLayer
370
18
48
1
60
1
100
AcDbLine
10
46.889216
20
-46.500002
30
0
11
47.810784
21
-46.499998
31
0
39
0
210
0
220
0
230
1
0
LINE
5
35D
100
AcDbEntity
8
1
62
256
6
ByLayer
370
18
48
1
60
1
100
AcDbLine
10
47.810784
20
-46.499998
30
0
11
47.35
21
-50
31
0
39
0
210
0
220
0
230
1
0
LINE
5
35F
100
AcDbEntity
8
1
62
256
6
ByLayer
370
18
48
1
60
1
100
AcDbLine
10
47.35
20
50
30
0
11
47.810784
21
46.500002
31
0
39
0
210
0
220
0
230
1
0
LINE
5
360
100
AcDbEntity
8
1
62
256
6
ByLayer
370
18
48
1
60
1
100
AcDbLine
10
47.810784
20
46.500002
30
0
11
46.889216
21
46.499998
31
0
39
0
210
0
220
0
230
1
0
LINE
5
361
100
AcDbEntity
8
1
62
256
6
ByLayer
370
18
48
1
60
1
100
AcDbLine
10
46.889216
20
46.499998
30
0
11
47.35
21
50
31
0
39
0
210
0
220
0
230
1
0
LINE
5
365
100
AcDbEntity
8
1
62
256
6
ByLayer
370
18
48
1
60
1
100
AcDbLine
10
-14.35
20
-16
30
0
11
-14.810784
21
-12.500002
31
0
39
0
210
0
220
0
230
1
0
LINE
5
366
100
AcDbEntity
8
1
62
256
6
ByLayer
370
18
48
1
60
1
100
AcDbLine
10
-14.810784
20
-12.500002
30
0
11
-13.889216
21
-12.499998
31
0
39
0
210
0
220
0
230
1
0
LINE
5
367
100
AcDbEntity
8
1
62
256
6
ByLayer
370
18
48
1
60
1
100
AcDbLine
10
-13.889216
20
-12.499998
30
0
11
-14.35
21
-16
31
0
39
0
210
0
220
0
230
1
0
LINE
5
369
100
AcDbEntity
8
1
62
256
6
ByLayer
370
18
48
1
60
1
100
AcDbLine
10
-14.35
20
16
30
0
11
-13.889216
21
12.500002
31
0
39
0
210
0
220
0
230
1
0
LINE
5
36A
100
AcDbEntity
8
1
62
256
6
ByLayer
370
18
48
1
60
1
100
AcDbLine
10
-13.889216
20
12.500002
30
0
11
-14.810784
21
12.499998
31
0
39
0
210
0
220
0
230
1
0
LINE
5
36B
100
AcDbEntity
8
1
62
256
6
ByLayer
370
18
48
1
60
1
100
AcDbLine
10
-14.810784
20
12.499998
30
0
11
-14.35
21
16
31
0
39
0
210
0
220
0
230
1
0
LINE
5
36F
100
AcDbEntity
8
1
62
256
6
ByLayer
370
18
48
1
60
1
100
AcDbLine
10
-29.35
20
-23.5
30
0
11
-29.810784
21
-20.000002
31
0
39
0
210
0
220
0
230
1
0
LINE
5
370
100
AcDbEntity
8
1
62
256
6
ByLayer
370
18
48
1
60
1
100
AcDbLine
10
-29.810784
20
-20.000002
30
0
11
-28.889216
21
-19.999998
31
0
39
0
210
0
220
0
230
1
0
LINE
5
371
100
AcDbEntity
8
1
62
256
6
ByLayer
370
18
48
1
60
1
100
AcDbLine
10
-28.889216
20
-19.999998
30
0
11
-29.35
21
-23.5
31
0
39
0
210
0
220
0
230
1
0
LINE
5
373
100
AcDbEntity
8
1
62
256
6
ByLayer
370
18
48
1
60
1
100
AcDbLine
10
-29.35
20
23.5
30
0
11
-28.889216
21
20.000002
31
0
39
0
210
0
220
0
230
1
0
LINE
5
374
100
AcDbEntity
8
1
62
256
6
ByLayer
370
18
48
1
60
1
100
AcDbLine
10
-28.889216
20
20.000002
30
0
11
-29.810784
21
19.999998
31
0
39
0
210
0
220
0
230
1
0
LINE
5
375
100
AcDbEntity
8
1
62
256
6
ByLayer
370
18
48
1
60
1
100
AcDbLine
10
-29.810784
20
19.999998
30
0
11
-29.35
21
23.5
31
0
39
0
210
0
220
0
230
1
0
MTEXT
5
351
100
AcDbEntity
8
SK2
62
256
6
ByLayer
370
13
48
1
60
0
100
AcDbMText
10
19.966192
20
-59.335314
30
0
210
0
220
0
230
1
1
\W0.6380;R
40
3.5
41
0
44
1.084337
50
315
71
7
72
5
7
iso_b_vert
0
MTEXT
5
354
100
AcDbEntity
8
SK2
62
256
6
ByLayer
370
13
48
1
60
0
100
AcDbMText
10
22.571174
20
-61.940295
30
0
210
0
220
0
230
1
1
\W0.7121;0.8
40
3.5
41
0
44
1.084337
50
315
71
7
72
5
7
iso_b_vert
0
MTEXT
5
359
100
AcDbEntity
8
2
62
256
6
ByLayer
370
18
48
1
60
0
100
AcDbMText
10
45.561847
20
-6.172483
30
0
210
0
220
0
230
1
1
%%c
40
4
41
0
44
1.084337
50
90
71
7
72
5
7
iso_b_vert
0
MTEXT
5
35A
100
AcDbEntity
8
2
62
256
6
ByLayer
370
18
48
1
60
0
100
AcDbMText
10
45.561847
20
1.796267
30
0
210
0
220
0
230
1
1
\W0.6217;100
40
4
41
0
44
1.084337
50
90
71
7
72
5
7
iso_b_vert
0
MTEXT
5
363
100
AcDbEntity
8
SK2
62
256
6
ByLayer
370
18
48
1
60
0
100
AcDbMText
10
-16.138153
20
-7.482692
30
0
210
0
220
0
230
1
1
%%c
40
4
41
0
44
1.084337
50
90
71
7
72
5
7
iso_b_vert
0
MTEXT
5
364
100
AcDbEntity
8
SK2
62
256
6
ByLayer
370
18
48
1
60
0
100
AcDbMText
10
-16.138153
20
0.486058
30
0
210
0
220
0
230
1
1
\W0.7346;32.0
40
4
41
0
44
1.084337
50
90
71
7
72
5
7
iso_b_vert
0
MTEXT
5
36D
100
AcDbEntity
8
SK2
62
256
6
ByLayer
370
18
48
1
60
0
100
AcDbMText
10
-31.138153
20
-5.388445
30
0
210
0
220
0
230
1
1
%%c
40
4
41
0
44
1.084337
50
90
71
7
72
5
7
iso_b_vert
0
MTEXT
5
36E
100
AcDbEntity
8
SK2
62
256
6
ByLayer
370
18
48
1
60
0
100
AcDbMText
10
-31.138153
20
2.580305
30
0
210
0
220
0
230
1
1
\W0.7361;47
40
4
41
0
44
1.084337
50
90
71
7
72
5
7
iso_b_vert
0
MTEXT
5
377
100
AcDbEntity
8
SK6
62
256
6
ByLayer
370
13
48
1
60
0
100
AcDbMText
10
7.1855
20
-87.736405
30
0
210
0
220
0
230
1
1
\W0.7521;L331.52C-100S32FM
40
3.5
41
0
44
1.084337
50
0
71
7
72
5
7
iso_b_vert
0
HATCH
5
358
100
AcDbEntity
8
SK2
62
256
6
ByLayer
370
13
48
1
60
0
100
AcDbHatch
10
0
20
0
30
0
210
0
220
0
230
1
2
ANSI31
70
0
71
0
91
1
92
5
93
3
72
1
10
14.5656854249493
20
-50.5656854249493
11
17.3663812705988
21
-52.7147346539739
72
1
10
17.3663812705988
20
-52.7147346539739
11
16.7147370476056
21
-53.3663836642305
72
1
10
16.7147370476056
20
-53.3663836642305
11
14.5656854249493
21
-50.5656854249493
97
0
75
0
76
1
52
0
41
0.0062
77
0
78
1
53
44.9999999999999
43
0
44
0
45
-0.0139193969876572
46
0.0139193969876572
79
0
47
0
98
1
10
0
20
0
0
HATCH
5
35E
100
AcDbEntity
8
2
62
256
6
ByLayer
370
13
48
1
60
0
100
AcDbHatch
10
0
20
0
30
0
210
0
220
0
230
1
2
ANSI31
70
0
71
0
91
1
92
5
93
3
72
1
10
47.35
20
-50
11
46.8892162584473
21
-46.5000016925532
72
1
10
46.8892162584473
20
-46.5000016925532
11
47.8107837415528
21
-46.4999983074468
72
1
10
47.8107837415528
20
-46.4999983074468
11
47.35
21
-50
97
0
75
0
76
1
52
0
41
0.0062
77
0
78
1
53
44.9999999999999
43
0
44
0
45
-0.0139193969876572
46
0.0139193969876572
79
0
47
0
98
1
10
0
20
0
0
HATCH
5
362
100
AcDbEntity
8
2
62
256
6
ByLayer
370
13
48
1
60
0
100
AcDbHatch
10
0
20
0
30
0
210
0
220
0
230
1
2
ANSI31
70
0
71
0
91
1
92
5
93
3
72
1
10
47.35
20
50
11
47.8107837415528
21
46.5000016925532
72
1
10
47.8107837415528
20
46.5000016925532
11
46.8892162584473
21
46.4999983074468
72
1
10
46.8892162584473
20
46.4999983074468
11
47.35
21
50
97
0
75
0
76
1
52
0
41
0.0062
77
0
78
1
53
44.9999999999999
43
0
44
0
45
-0.0139193969876572
46
0.0139193969876572
79
0
47
0
98
1
10
0
20
0
0
HATCH
5
368
100
AcDbEntity
8
SK2
62
256
6
ByLayer
370
13
48
1
60
0
100
AcDbHatch
10
0
20
0
30
0
210
0
220
0
230
1
2
ANSI31
70
0
71
0
91
1
92
5
93
3
72
1
10
-14.35
20
-16
11
-14.8107837415528
21
-12.5000016925532
72
1
10
-14.8107837415528
20
-12.5000016925532
11
-13.8892162584473
21
-12.4999983074468
72
1
10
-13.8892162584473
20
-12.4999983074468
11
-14.35
21
-16
97
0
75
0
76
1
52
0
41
0.0062
77
0
78
1
53
44.9999999999999
43
0
44
0
45
-0.0139193969876572
46
0.0139193969876572
79
0
47
0
98
1
10
0
20
0
0
HATCH
5
36C
100
AcDbEntity
8
SK2
62
256
6
ByLayer
370
13
48
1
60
0
100
AcDbHatch
10
0
20
0
30
0
210
0
220
0
230
1
2
ANSI31
70
0
71
0
91
1
92
5
93
3
72
1
10
-14.35
20
16
11
-13.8892162584473
21
12.5000016925532
72
1
10
-13.8892162584473
20
12.5000016925532
11
-14.8107837415528
21
12.4999983074468
72
1
10
-14.8107837415528
20
12.4999983074468
11
-14.35
21
16
97
0
75
0
76
1
52
0
41
0.0062
77
0
78
1
53
44.9999999999999
43
0
44
0
45
-0.0139193969876572
46
0.0139193969876572
79
0
47
0
98
1
10
0
20
0
0
HATCH
5
372
100
AcDbEntity
8
SK2
62
256
6
ByLayer
370
13
48
1
60
0
100
AcDbHatch
10
0
20
0
30
0
210
0
220
0
230
1
2
ANSI31
70
0
71
0
91
1
92
5
93
3
72
1
10
-29.35
20
-23.5
11
-29.8107837415528
21
-20.0000016925532
72
1
10
-29.8107837415528
20
-20.0000016925532
11
-28.8892162584473
21
-19.9999983074468
72
1
10
-28.8892162584473
20
-19.9999983074468
11
-29.35
21
-23.5
97
0
75
0
76
1
52
0
41
0.0062
77
0
78
1
53
44.9999999999999
43
0
44
0
45
-0.0139193969876572
46
0.0139193969876572
79
0
47
0
98
1
10
0
20
0
0
HATCH
5
376
100
AcDbEntity
8
SK2
62
256
6
ByLayer
370
13
48
1
60
0
100
AcDbHatch
10
0
20
0
30
0
210
0
220
0
230
1
2
ANSI31
70
0
71
0
91
1
92
5
93
3
72
1
10
-29.35
20
23.5
11
-28.8892162584473
21
20.0000016925532
72
1
10
-28.8892162584473
20
20.0000016925532
11
-29.8107837415528
21
19.9999983074468
72
1
10
-29.8107837415528
20
19.9999983074468
11
-29.35
21
23.5
97
0
75
0
76
1
52
0
41
0.0062
77
0
78
1
53
44.9999999999999
43
0
44
0
45
-0.0139193969876572
46
0.0139193969876572
79
0
47
0
98
1
10
0
20
0
0
DIMENSION
5
37A
100
AcDbEntity
8
SK2
62
256
6
ByLayer
370
13
48
1
60
0
100
AcDbDimension
2
_U0
10
6.4
20
53
30
0
11
-10.790476
21
53
31
0
70
32
71
1
72
1
41
1
210
0
220
0
230
1
3
Standard
100
AcDbAlignedDimension
13
14
23
50
33
0
14
6.4
24
50
34
0
50
0
100
AcDbRotatedDimension
1001
ACAD
1000
DSTYLE
1002
{
1070
   371
1070
    13
1070
   372
1070
    13
1070
     3
1000

1070
   170
1070
     0
1070
   144
1040
1.0
1070
   277
1070
     2
1070
   284
1070
     8
1070
   278
1070
    46
1070
   146
1040
0.875
1070
   345
1005
16
1070
   347
1005
16
1070
   346
1005
16
1070
   344
1005
0
1070
   343
1005
0
1070
   172
1070
     1
1070
    76
1070
     0
1070
    75
1070
     0
1070
   282
1070
     0
1070
   281
1070
     0
1070
    71
1070
     0
1070
    74
1070
     0
1070
   279
1070
     0
1070
   173
1070
     1
1070
   340
1005
352
1070
   271
1070
     2
1070
   272
1070
     2
1070
    77
1070
     1
1070
    73
1070
     1
1070
   171
1070
     3
1070
   274
1070
     4
1070
   177
1070
     2
1070
   176
1070
     2
1070
   178
1070
     2
1070
    78
1070
     8
1070
    48
1040
-0.1
1070
    41
1040
3.5
1070
   147
1040
2.0
1070
    42
1040
1.5875
1070
    44
1040
2.0
1070
   140
1040
4.0
1002
}
1001
ACAD_DSTYLE_DIM_LINETYPE
1070
   380
1005
16
1001
ACAD_DSTYLE_DIM_EXT1_LINETYPE
1070
   381
1005
16
1001
ACAD_DSTYLE_DIM_EXT2_LINETYPE
1070
   382
1005
16
0
DIMENSION
5
395
100
AcDbEntity
8
SK2
62
256
6
ByLayer
370
13
48
1
60
0
100
AcDbDimension
2
_U1
10
16
20
-64
30
0
11
-20.110819
21
-64
31
0
70
32
71
1
72
1
41
1
210
0
220
0
230
1
3
Standard
100
AcDbAlignedDimension
13
0
23
-23.5
33
0
14
16
24
-23.5
34
0
50
0
100
AcDbRotatedDimension
1001
ACAD
1000
DSTYLE
1002
{
1070
   371
1070
    13
1070
   372
1070
    13
1070
   170
1070
     0
1070
   144
1040
1.0
1070
   277
1070
     2
1070
   284
1070
     8
1070
   278
1070
    46
1070
   146
1040
0.875
1070
   345
1005
16
1070
   347
1005
16
1070
   346
1005
16
1070
   344
1005
0
1070
   343
1005
0
1070
   172
1070
     1
1070
    76
1070
     0
1070
    75
1070
     0
1070
   282
1070
     0
1070
   281
1070
     0
1070
    71
1070
     0
1070
    74
1070
     0
1070
   279
1070
     0
1070
   173
1070
     1
1070
   340
1005
352
1070
   271
1070
     2
1070
   272
1070
     2
1070
    77
1070
     1
1070
    73
1070
     1
1070
   171
1070
     3
1070
   274
1070
     4
1070
   177
1070
     2
1070
   176
1070
     2
1070
   178
1070
     2
1070
    78
1070
     8
1070
    48
1040
-0.1
1070
    41
1040
3.5
1070
   147
1040
2.0
1070
    42
1040
1.5875
1070
    44
1040
2.0
1070
   140
1040
4.0
1002
}
1001
ACAD_DSTYLE_DIM_LINETYPE
1070
   380
1005
16
1001
ACAD_DSTYLE_DIM_EXT1_LINETYPE
1070
   381
1005
16
1001
ACAD_DSTYLE_DIM_EXT2_LINETYPE
1070
   382
1005
16
0
DIMENSION
5
3AF
100
AcDbEntity
8
SK2
62
256
6
ByLayer
370
13
48
1
60
0
100
AcDbDimension
2
_U2
10
2.5
20
66.35
30
0
11
8.25
21
66.35
31
0
70
32
71
1
72
1
41
1
210
0
220
0
230
1
3
Standard
100
AcDbAlignedDimension
13
14
23
50
33
0
14
2.5
24
50
34
0
50
0
100
AcDbRotatedDimension
1001
ACAD
1000
DSTYLE
1002
{
1070
   371
1070
    13
1070
   372
1070
    13
1070
   170
1070
     0
1070
   144
1040
1.0
1070
   277
1070
     2
1070
   284
1070
     8
1070
   278
1070
    46
1070
   146
1040
0.875
1070
   345
1005
16
1070
   347
1005
16
1070
   346
1005
16
1070
   344
1005
0
1070
   343
1005
0
1070
   172
1070
     1
1070
    76
1070
     0
1070
    75
1070
     0
1070
   282
1070
     0
1070
   281
1070
     0
1070
    71
1070
     0
1070
    74
1070
     0
1070
   279
1070
     0
1070
   173
1070
     1
1070
   340
1005
352
1070
   271
1070
     2
1070
   272
1070
     2
1070
    77
1070
     1
1070
    73
1070
     1
1070
   171
1070
     3
1070
   274
1070
     4
1070
   177
1070
     2
1070
   176
1070
     2
1070
   178
1070
     2
1070
    78
1070
     8
1070
    48
1040
-0.1
1070
    41
1040
3.5
1070
   147
1040
2.0
1070
    42
1040
1.5875
1070
    44
1040
2.0
1070
   140
1040
4.0
1002
}
1001
ACAD_DSTYLE_DIM_LINETYPE
1070
   380
1005
16
1001
ACAD_DSTYLE_DIM_EXT1_LINETYPE
1070
   381
1005
16
1001
ACAD_DSTYLE_DIM_EXT2_LINETYPE
1070
   382
1005
16
0
ENDSEC
0
SECTION
2
OBJECTS
0
DICTIONARY
5
437
330
0
100
AcDbDictionary
280
0
281
1
3
ACAD_GROUP
350
438
3
ACAD_MLINESTYLE
350
439
0
DICTIONARY
5
438
330
0
100
AcDbDictionary
280
0
281
1
0
DICTIONARY
5
439
330
0
100
AcDbDictionary
280
0
281
1
3
Standard
350
18
0
MLINESTYLE
5
18
330
439
100
AcDbMlineStyle
2
Standard
70
0
3

62
256
51
90
52
90
71
2
49
-0.5
62
256
6
ByLayer
49
0.5
62
256
6
ByLayer
0
RASTERVARIABLES
5
426
330

100
AcDbRasterVariables
90
0
70
1
71
1
72
1
0
ENDSEC
0
EOF
