0
SECTION
2
HEADER
9
$ACADVER
1
AC1015
9
$DWGCODEPAGE
3
ANSI_1252
9
$HANDSEED
5
53e
9
$ANGBASE
50
0
9
$ANGDIR
70
0
9
$ATTMODE
70
1
9
$AUNITS
70
0
9
$AUPREC
70
0
9
$CECOLOR
62
256
9
$CELTSCALE
40
1
9
$CELTYPE
6
ByLayer
9
$CELWEIGHT
370
18
9
$CLAYER
8
0
9
$CMLJUST
70
0
9
$CMLSCALE
40
1
9
$CMLSTYLE
2
Standard
9
$DIMSTYLE
2
Standard
9
$TEXTSIZE
40
0.2
9
$TEXTSTYLE
7
Standard
9
$LUNITS
70
2
9
$LUPREC
70
4
9
$EXTNAMES
290
1
9
$INSUNITS
70
4
9
$LTSCALE
40
1
9
$LWDISPLAY
290
1
9
$PDMODE
70
0
9
$PDSIZE
40
0
9
$PLINEGEN
70
0
0
ENDSEC
0
SECTION
2
CLASSES
0
CLASS
1
RASTERVARIABLES
2
AcDbRasterVariables
3
ISM
90
0
280
0
281
0
0
ENDSEC
0
SECTION
2
TABLES
0
TABLE
2
VPORT
5
534
100
AcDbSymbolTable
0
VPORT
5
1
100
AcDbSymbolTableRecord
100
AcDbViewportTableRecord
2
*Active
70
0
10
0
20
0
11
1
21
1
12
-1
22
1
13
0
23
0
14
0.5
24
0.5
15
10
25
10
16
0
26
0
36
1
17
0
27
0
37
0
0
ENDTAB
0
TABLE
2
LTYPE
5
535
100
AcDbSymbolTable
0
LTYPE
5
14
100
AcDbSymbolTableRecord
100
AcDbLinetypeTableRecord
70
0
2
ByBlock
3

72
65
73
0
40
0
0
LTYPE
5
15
100
AcDbSymbolTableRecord
100
AcDbLinetypeTableRecord
70
0
2
ByLayer
3

72
65
73
0
40
0
0
LTYPE
5
16
100
AcDbSymbolTableRecord
100
AcDbLinetypeTableRecord
70
0
2
Continuous
3
Solid line
72
65
73
0
40
0
0
LTYPE
5
6E
100
AcDbSymbolTableRecord
100
AcDbLinetypeTableRecord
70
0
2
CENTER
3
____ _ ____ _ ____ _ ____
72
65
73
4
40
47.5
49
22
74
0
49
-8.5
74
0
49
8.5
74
0
49
-8.5
74
0
0
LTYPE
5
6F
100
AcDbSymbolTableRecord
100
AcDbLinetypeTableRecord
70
0
2
DASHED
3
__ __ __ __ __ __ __ __ __
72
65
73
2
40
25.72
49
12.86
74
0
49
-12.86
74
0
0
ENDTAB
0
TABLE
2
LAYER
5
536
100
AcDbSymbolTable
0
LAYER
5
10
100
AcDbSymbolTableRecord
100
AcDbLayerTableRecord
2
0
70
0
62
7
6
Continuous
290
1
370
-3
390
0
0
LAYER
5
71
100
AcDbSymbolTableRecord
100
AcDbLayerTableRecord
2
80
70
0
62
-6
6
Continuous
290
1
370
-3
390
0
0
LAYER
5
73
100
AcDbSymbolTableRecord
100
AcDbLayerTableRecord
2
81
70
0
62
-3
6
Continuous
290
1
370
-3
390
0
0
LAYER
5
75
100
AcDbSymbolTableRecord
100
AcDbLayerTableRecord
2
1
70
0
62
4
6
Continuous
290
1
370
-3
390
0
0
LAYER
5
2B5
100
AcDbSymbolTableRecord
100
AcDbLayerTableRecord
2
4
70
0
62
-2
6
CENTER
290
1
370
-3
390
0
0
LAYER
5
2DF
100
AcDbSymbolTableRecord
100
AcDbLayerTableRecord
2
2
70
0
62
7
6
Continuous
290
1
370
-3
390
0
0
LAYER
5
477
100
AcDbSymbolTableRecord
100
AcDbLayerTableRecord
2
Defpoints
70
0
62
7
6
Continuous
290
0
370
-3
390
0
0
LAYER
5
521
100
AcDbSymbolTableRecord
100
AcDbLayerTableRecord
2
SK4
70
0
62
2
6
CENTER
290
1
370
-3
390
0
0
LAYER
5
522
100
AcDbSymbolTableRecord
100
AcDbLayerTableRecord
2
SK2
70
0
62
7
6
Continuous
290
1
370
-3
390
0
0
LAYER
5
523
100
AcDbSymbolTableRecord
100
AcDbLayerTableRecord
2
SK6
70
0
62
5
6
Continuous
290
1
370
-3
390
0
0
ENDTAB
0
TABLE
2
STYLE
5
537
100
AcDbSymbolTable
0
STYLE
5
11
100
AcDbSymbolTableRecord
100
AcDbTextStyleTableRecord
2
Standard
3
txt
70
0
71
0
40
0
41
1
42
0
50
0
0
STYLE
5
44C
100
AcDbSymbolTableRecord
100
AcDbTextStyleTableRecord
2
iso_b_vert
3
simplex.shx
70
0
71
0
40
0
41
1
42
0
50
0
0
STYLE
5
44D
100
AcDbSymbolTableRecord
100
AcDbTextStyleTableRecord
2
DWGDirectTextStyle
3
simplex
70
0
71
0
40
0
41
1
42
0
50
0
0
ENDTAB
0
TABLE
2
DIMSTYLE
5
538
100
AcDbSymbolTable
100
AcDbDimStyleTable
0
DIMSTYLE
105
27
100
AcDbSymbolTableRecord
100
AcDbDimStyleTableRecord
2
Standard
70
0
3
<>
41
0.18
42
0.0625
44
0.18
140
0.18
147
0.09
73
0
74
0
77
1
271
2
275
0
278
52
280
0
340
11
0
ENDTAB
0
TABLE
2
VIEW
5
539
100
AcDbSymbolTable
0
ENDTAB
0
TABLE
2
UCS
5
53a
100
AcDbSymbolTable
0
ENDTAB
0
TABLE
2
APPID
5
53b
100
AcDbSymbolTable
0
APPID
5
12
100
AcDbSymbolTableRecord
100
AcDbRegAppTableRecord
2
ACAD
70
0
0
APPID
5
473
100
AcDbSymbolTableRecord
100
AcDbRegAppTableRecord
2
ACAD_DSTYLE_DIMBREAK
70
0
0
APPID
5
4E0
100
AcDbSymbolTableRecord
100
AcDbRegAppTableRecord
2
ACAD_DSTYLE_DIM_LINETYPE
70
0
0
APPID
5
4E1
100
AcDbSymbolTableRecord
100
AcDbRegAppTableRecord
2
ACAD_DSTYLE_DIM_EXT1_LINETYPE
70
0
0
APPID
5
4E2
100
AcDbSymbolTableRecord
100
AcDbRegAppTableRecord
2
ACAD_DSTYLE_DIM_EXT2_LINETYPE
70
0
0
APPID
5
51D
100
AcDbSymbolTableRecord
100
AcDbRegAppTableRecord
2
ACAD_MLEADERVER
70
0
0
ENDTAB
0
TABLE
2
BLOCK_RECORD
5
53c
100
AcDbSymbolTable
0
BLOCK_RECORD
5
1F
100
AcDbSymbolTableRecord
100
AcDbBlockTableRecord
2
*Model_Space
340
0
70
0
0
BLOCK_RECORD
5
1B
100
AcDbSymbolTableRecord
100
AcDbBlockTableRecord
2
*Paper_Space
340
0
70
0
0
BLOCK_RECORD
5
23
100
AcDbSymbolTableRecord
100
AcDbBlockTableRecord
2
*Paper_Space0
340
0
70
0
0
BLOCK_RECORD
5
478
100
AcDbSymbolTableRecord
100
AcDbBlockTableRecord
2
*D1
340
0
70
0
0
BLOCK_RECORD
5
486
100
AcDbSymbolTableRecord
100
AcDbBlockTableRecord
2
_U0
340
0
70
0
0
BLOCK_RECORD
5
492
100
AcDbSymbolTableRecord
100
AcDbBlockTableRecord
2
*D3
340
0
70
0
0
BLOCK_RECORD
5
4A0
100
AcDbSymbolTableRecord
100
AcDbBlockTableRecord
2
_U1
340
0
70
0
0
BLOCK_RECORD
5
4AC
100
AcDbSymbolTableRecord
100
AcDbBlockTableRecord
2
*D5
340
0
70
0
0
BLOCK_RECORD
5
4B9
100
AcDbSymbolTableRecord
100
AcDbBlockTableRecord
2
_U2
340
0
70
0
0
ENDTAB
0
ENDSEC
0
SECTION
2
BLOCKS
0
BLOCK
5
20
100
AcDbEntity
8
0
100
AcDbBlockBegin
2
*Model_Space
70
0
10
0
20
0
30
0
3
*Model_Space
0
ENDBLK
5
21
100
AcDbEntity
8
0
100
AcDbBlockEnd
0
BLOCK
5
1C
100
AcDbEntity
8
0
100
AcDbBlockBegin
2
*Paper_Space
70
0
10
0
20
0
30
0
3
*Paper_Space
0
ENDBLK
5
1D
100
AcDbEntity
8
0
100
AcDbBlockEnd
0
BLOCK
5
24
100
AcDbEntity
8
0
100
AcDbBlockBegin
2
*Paper_Space0
70
0
10
0
20
0
30
0
3
*Paper_Space0
0
ENDBLK
5
25
100
AcDbEntity
8
0
100
AcDbBlockEnd
0
BLOCK
5
479
100
AcDbEntity
8
0
100
AcDbBlockBegin
2
*D1
70
1
10
0
20
0
30
0
3
*D1
0
LINE
5
47B
100
AcDbEntity
8
0
62
256
6
ByLayer
370
-2
48
1
60
0
100
AcDbLine
10
14
20
81.5875
30
0
11
14
21
85
31
0
39
0
210
0
220
0
230
1
0
LINE
5
47C
100
AcDbEntity
8
0
62
256
6
ByLayer
370
-2
48
1
60
0
100
AcDbLine
10
6.4
20
81.5875
30
0
11
6.4
21
85
31
0
39
0
210
0
220
0
230
1
0
LINE
5
47D
100
AcDbEntity
8
0
62
256
6
ByLayer
370
-2
48
1
60
0
100
AcDbLine
10
6.4
20
83
30
0
11
-20.980952
21
83
31
0
39
0
210
0
220
0
230
1
0
LINE
5
47E
100
AcDbEntity
8
0
62
256
6
ByLayer
370
-2
48
1
60
0
100
AcDbLine
10
17.5
20
83
30
0
11
21
21
83
31
0
39
0
210
0
220
0
230
1
0
LINE
5
47F
100
AcDbEntity
8
0
62
256
6
ByLayer
370
-2
48
1
60
0
100
AcDbLine
10
2.9
20
83
30
0
11
-0.6
21
83
31
0
39
0
210
0
220
0
230
1
0
SOLID
5
480
100
AcDbEntity
8
0
62
256
6
ByLayer
370
-1
48
1
60
0
100
AcDbTrace
10
17.5
20
83.583333
30
0
11
17.5
21
82.416667
31
0
12
14
22
83
32
0
13
14
23
83
33
0
39
0
210
0
220
0
230
1
0
SOLID
5
481
100
AcDbEntity
8
0
62
256
6
ByLayer
370
-1
48
1
60
0
100
AcDbTrace
10
2.9
20
82.416667
30
0
11
2.9
21
83.583333
31
0
12
6.4
22
83
32
0
13
6.4
23
83
33
0
39
0
210
0
220
0
230
1
0
MTEXT
5
482
100
AcDbEntity
8
0
62
256
6
ByLayer
370
18
48
1
60
0
100
AcDbMText
10
-10.790476
20
91
30
0
210
0
220
0
230
1
1
\A1;7.6
40
4
41
0
44
1
50
0
71
5
72
5
7
iso_b_vert
0
POINT
5
483
100
AcDbEntity
8
Defpoints
62
0
6
ByLayer
370
-1
48
1
60
0
100
AcDbPoint
10
14
20
80
30
0
39
0
210
0
220
0
230
1
50
360
0
POINT
5
484
100
AcDbEntity
8
Defpoints
62
0
6
ByLayer
370
-1
48
1
60
0
100
AcDbPoint
10
6.4
20
80
30
0
39
0
210
0
220
0
230
1
50
360
0
POINT
5
485
100
AcDbEntity
8
Defpoints
62
0
6
ByLayer
370
-1
48
1
60
0
100
AcDbPoint
10
6.4
20
83
30
0
39
0
210
0
220
0
230
1
50
360
0
ENDBLK
5
47A
100
AcDbEntity
8
0
100
AcDbBlockEnd
0
BLOCK
5
48D
100
AcDbEntity
8
0
100
AcDbBlockBegin
2
_U0
70
0
10
0
20
0
30
0
3
_U0
0
MTEXT
5
487
100
AcDbEntity
8
SK2
62
256
6
ByLayer
370
13
48
1
60
0
100
AcDbMText
10
-4.786779
20
84.180153
30
0
210
0
220
0
230
1
1
\W0.7121;7.6
40
4
41
0
44
1.084337
50
0
71
7
72
5
7
iso_b_vert
0
LINE
5
488
100
AcDbEntity
8
SK2
62
256
6
ByLayer
370
13
48
1
60
0
100
AcDbLine
10
14
20
81.5875
30
0
11
14
21
85
31
0
39
0
210
0
220
0
230
1
0
LINE
5
489
100
AcDbEntity
8
SK2
62
256
6
ByLayer
370
13
48
1
60
0
100
AcDbLine
10
6.4
20
81.5875
30
0
11
6.4
21
85
31
0
39
0
210
0
220
0
230
1
0
LINE
5
48A
100
AcDbEntity
8
SK2
62
256
6
ByLayer
370
13
48
1
60
0
100
AcDbLine
10
14
20
83
30
0
11
-4.998779
21
83
31
0
39
0
210
0
220
0
230
1
0
SOLID
5
48B
100
AcDbEntity
8
SK2
62
256
6
ByLayer
370
18
48
1
60
0
100
AcDbTrace
10
14
20
83
30
0
11
10.500002
21
82.539216
31
0
12
10.499998
22
83.460784
32
0
13
10.499998
23
83.460784
33
0
39
0
210
0
220
0
230
1
0
SOLID
5
48C
100
AcDbEntity
8
SK2
62
256
6
ByLayer
370
18
48
1
60
0
100
AcDbTrace
10
6.4
20
83
30
0
11
9.899998
21
83.460784
31
0
12
9.900002
22
82.539216
32
0
13
9.900002
23
82.539216
33
0
39
0
210
0
220
0
230
1
0
ENDBLK
5
48E
100
AcDbEntity
8
0
100
AcDbBlockEnd
0
BLOCK
5
493
100
AcDbEntity
8
0
100
AcDbBlockBegin
2
*D3
70
1
10
0
20
0
30
0
3
*D3
0
LINE
5
495
100
AcDbEntity
8
0
62
256
6
ByLayer
370
-2
48
1
60
0
100
AcDbLine
10
0
20
-29.0875
30
0
11
0
21
-96
31
0
39
0
210
0
220
0
230
1
0
LINE
5
496
100
AcDbEntity
8
0
62
256
6
ByLayer
370
-2
48
1
60
0
100
AcDbLine
10
16
20
-29.0875
30
0
11
16
21
-96
31
0
39
0
210
0
220
0
230
1
0
LINE
5
497
100
AcDbEntity
8
0
62
256
6
ByLayer
370
-2
48
1
60
0
100
AcDbLine
10
0
20
-94
30
0
11
-29.0632
21
-94
31
0
39
0
210
0
220
0
230
1
0
LINE
5
498
100
AcDbEntity
8
0
62
256
6
ByLayer
370
-2
48
1
60
0
100
AcDbLine
10
-3.5
20
-94
30
0
11
-7
21
-94
31
0
39
0
210
0
220
0
230
1
0
LINE
5
499
100
AcDbEntity
8
0
62
256
6
ByLayer
370
-2
48
1
60
0
100
AcDbLine
10
19.5
20
-94
30
0
11
23
21
-94
31
0
39
0
210
0
220
0
230
1
0
SOLID
5
49A
100
AcDbEntity
8
0
62
256
6
ByLayer
370
-1
48
1
60
0
100
AcDbTrace
10
-3.5
20
-94.583333
30
0
11
-3.5
21
-93.416667
31
0
12
0
22
-94
32
0
13
0
23
-94
33
0
39
0
210
0
220
0
230
1
0
SOLID
5
49B
100
AcDbEntity
8
0
62
256
6
ByLayer
370
-1
48
1
60
0
100
AcDbTrace
10
19.5
20
-93.416667
30
0
11
19.5
21
-94.583333
31
0
12
16
22
-94
32
0
13
16
23
-94
33
0
39
0
210
0
220
0
230
1
0
MTEXT
5
49C
100
AcDbEntity
8
0
62
256
6
ByLayer
370
18
48
1
60
0
100
AcDbMText
10
-20.110819
20
-86
30
0
210
0
220
0
230
1
1
\A1;16
40
4
41
0
44
1
50
0
71
5
72
5
7
iso_b_vert
0
POINT
5
49D
100
AcDbEntity
8
Defpoints
62
0
6
ByLayer
370
-1
48
1
60
0
100
AcDbPoint
10
0
20
-27.5
30
0
39
0
210
0
220
0
230
1
50
360
0
POINT
5
49E
100
AcDbEntity
8
Defpoints
62
0
6
ByLayer
370
-1
48
1
60
0
100
AcDbPoint
10
16
20
-27.5
30
0
39
0
210
0
220
0
230
1
50
360
0
POINT
5
49F
100
AcDbEntity
8
Defpoints
62
0
6
ByLayer
370
-1
48
1
60
0
100
AcDbPoint
10
16
20
-94
30
0
39
0
210
0
220
0
230
1
50
360
0
ENDBLK
5
494
100
AcDbEntity
8
0
100
AcDbBlockEnd
0
BLOCK
5
4A7
100
AcDbEntity
8
0
100
AcDbBlockBegin
2
_U1
70
0
10
0
20
0
30
0
3
_U1
0
MTEXT
5
4A1
100
AcDbEntity
8
SK2
62
256
6
ByLayer
370
13
48
1
60
0
100
AcDbMText
10
-21.788
20
-92.819847
30
0
210
0
220
0
230
1
1
\W0.5321;16
40
4
41
0
44
1.084337
50
0
71
7
72
5
7
iso_b_vert
0
LINE
5
4A2
100
AcDbEntity
8
SK2
62
256
6
ByLayer
370
13
48
1
60
0
100
AcDbLine
10
0
20
-29.0875
30
0
11
0
21
-96
31
0
39
0
210
0
220
0
230
1
0
LINE
5
4A3
100
AcDbEntity
8
SK2
62
256
6
ByLayer
370
13
48
1
60
0
100
AcDbLine
10
16
20
-29.0875
30
0
11
16
21
-96
31
0
39
0
210
0
220
0
230
1
0
LINE
5
4A4
100
AcDbEntity
8
SK2
62
256
6
ByLayer
370
13
48
1
60
0
100
AcDbLine
10
16
20
-94
30
0
11
-22
21
-94
31
0
39
0
210
0
220
0
230
1
0
SOLID
5
4A5
100
AcDbEntity
8
SK2
62
256
6
ByLayer
370
18
48
1
60
0
100
AcDbTrace
10
0
20
-94
30
0
11
3.499998
21
-93.539216
31
0
12
3.500002
22
-94.460784
32
0
13
3.500002
23
-94.460784
33
0
39
0
210
0
220
0
230
1
0
SOLID
5
4A6
100
AcDbEntity
8
SK2
62
256
6
ByLayer
370
18
48
1
60
0
100
AcDbTrace
10
16
20
-94
30
0
11
12.500002
21
-94.460784
31
0
12
12.499998
22
-93.539216
32
0
13
12.499998
23
-93.539216
33
0
39
0
210
0
220
0
230
1
0
ENDBLK
5
4A8
100
AcDbEntity
8
0
100
AcDbBlockEnd
0
BLOCK
5
4AD
100
AcDbEntity
8
0
100
AcDbBlockBegin
2
*D5
70
1
10
0
20
0
30
0
3
*D5
0
LINE
5
4AF
100
AcDbEntity
8
0
62
256
6
ByLayer
370
-2
48
1
60
0
100
AcDbLine
10
14
20
81.5875
30
0
11
14
21
98.35
31
0
39
0
210
0
220
0
230
1
0
LINE
5
4B0
100
AcDbEntity
8
0
62
256
6
ByLayer
370
-2
48
1
60
0
100
AcDbLine
10
2.5
20
81.5875
30
0
11
2.5
21
98.35
31
0
39
0
210
0
220
0
230
1
0
LINE
5
4B1
100
AcDbEntity
8
0
62
256
6
ByLayer
370
-2
48
1
60
0
100
AcDbLine
10
17.5
20
96.35
30
0
11
21
21
96.35
31
0
39
0
210
0
220
0
230
1
0
LINE
5
4B2
100
AcDbEntity
8
0
62
256
6
ByLayer
370
-2
48
1
60
0
100
AcDbLine
10
-1
20
96.35
30
0
11
-4.5
21
96.35
31
0
39
0
210
0
220
0
230
1
0
SOLID
5
4B3
100
AcDbEntity
8
0
62
256
6
ByLayer
370
-1
48
1
60
0
100
AcDbTrace
10
17.5
20
96.933333
30
0
11
17.5
21
95.766667
31
0
12
14
22
96.35
32
0
13
14
23
96.35
33
0
39
0
210
0
220
0
230
1
0
SOLID
5
4B4
100
AcDbEntity
8
0
62
256
6
ByLayer
370
-1
48
1
60
0
100
AcDbTrace
10
-1
20
95.766667
30
0
11
-1
21
96.933333
31
0
12
2.5
22
96.35
32
0
13
2.5
23
96.35
33
0
39
0
210
0
220
0
230
1
0
MTEXT
5
4B5
100
AcDbEntity
8
0
62
256
6
ByLayer
370
18
48
1
60
0
100
AcDbMText
10
8.25
20
104.35
30
0
210
0
220
0
230
1
1
\A1;11.5
40
4
41
0
44
1
50
0
71
5
72
5
7
iso_b_vert
0
POINT
5
4B6
100
AcDbEntity
8
Defpoints
62
0
6
ByLayer
370
-1
48
1
60
0
100
AcDbPoint
10
14
20
80
30
0
39
0
210
0
220
0
230
1
50
360
0
POINT
5
4B7
100
AcDbEntity
8
Defpoints
62
0
6
ByLayer
370
-1
48
1
60
0
100
AcDbPoint
10
2.5
20
80
30
0
39
0
210
0
220
0
230
1
50
360
0
POINT
5
4B8
100
AcDbEntity
8
Defpoints
62
0
6
ByLayer
370
-1
48
1
60
0
100
AcDbPoint
10
2.5
20
96.35
30
0
39
0
210
0
220
0
230
1
50
360
0
ENDBLK
5
4AE
100
AcDbEntity
8
0
100
AcDbBlockEnd
0
BLOCK
5
4C0
100
AcDbEntity
8
0
100
AcDbBlockBegin
2
_U2
70
0
10
0
20
0
30
0
3
_U2
0
MTEXT
5
4BA
100
AcDbEntity
8
SK2
62
256
6
ByLayer
370
13
48
1
60
0
100
AcDbMText
10
4.767906
20
97.530153
30
0
210
0
220
0
230
1
1
\W0.5779;11.5
40
4
41
0
44
1.084337
50
0
71
7
72
5
7
iso_b_vert
0
LINE
5
4BB
100
AcDbEntity
8
SK2
62
256
6
ByLayer
370
13
48
1
60
0
100
AcDbLine
10
14
20
81.5875
30
0
11
14
21
98.35
31
0
39
0
210
0
220
0
230
1
0
LINE
5
4BC
100
AcDbEntity
8
SK2
62
256
6
ByLayer
370
13
48
1
60
0
100
AcDbLine
10
2.5
20
81.5875
30
0
11
2.5
21
98.35
31
0
39
0
210
0
220
0
230
1
0
LINE
5
4BD
100
AcDbEntity
8
SK2
62
256
6
ByLayer
370
13
48
1
60
0
100
AcDbLine
10
14
20
96.35
30
0
11
2.5
21
96.35
31
0
39
0
210
0
220
0
230
1
0
SOLID
5
4BE
100
AcDbEntity
8
SK2
62
256
6
ByLayer
370
18
48
1
60
0
100
AcDbTrace
10
14
20
96.35
30
0
11
10.500002
21
95.889216
31
0
12
10.499998
22
96.810784
32
0
13
10.499998
23
96.810784
33
0
39
0
210
0
220
0
230
1
0
SOLID
5
4BF
100
AcDbEntity
8
SK2
62
256
6
ByLayer
370
18
48
1
60
0
100
AcDbTrace
10
2.5
20
96.35
30
0
11
5.999998
21
96.810784
31
0
12
6.000002
22
95.889216
32
0
13
6.000002
23
95.889216
33
0
39
0
210
0
220
0
230
1
0
ENDBLK
5
4C1
100
AcDbEntity
8
0
100
AcDbBlockEnd
0
ENDSEC
0
SECTION
2
ENTITIES
0
ARC
5
2FA
100
AcDbEntity
8
1
62
256
6
ByLayer
370
18
48
1
60
0
100
AcDbCircle
39
0
10
1.7
20
28.3
30
0
40
0.8
210
0
220
0
230
1
100
AcDbArc
50
270
51
0
0
ARC
5
2FB
100
AcDbEntity
8
1
62
256
6
ByLayer
370
18
48
1
60
0
100
AcDbCircle
39
0
10
1.7
20
-28.3
30
0
40
0.8
210
0
220
0
230
1
100
AcDbArc
50
0
51
90
0
ARC
5
2FC
100
AcDbEntity
8
1
62
256
6
ByLayer
370
18
48
1
60
0
100
AcDbCircle
39
0
10
14.3
20
-28.3
30
0
40
0.8
210
0
220
0
230
1
100
AcDbArc
50
90
51
180
0
ARC
5
2FD
100
AcDbEntity
8
1
62
256
6
ByLayer
370
18
48
1
60
0
100
AcDbCircle
39
0
10
14.3
20
28.3
30
0
40
0.8
210
0
220
0
230
1
100
AcDbArc
50
180
51
270
0
ELLIPSE
5
2FE
100
AcDbEntity
8
1
62
256
6
ByLayer
370
18
48
1
60
0
100
AcDbEllipse
10
2.78498
20
76.557059
30
0
11
0.0175436908818543
21
0.149865587762621
31
0
210
0
220
0
230
1
40
0.361878
41
-1.25793318272484
42
-0.21073563152841
0
ELLIPSE
5
2FF
100
AcDbEntity
8
1
62
256
6
ByLayer
370
18
48
1
60
0
100
AcDbEllipse
10
13.21502
20
76.557059
30
0
11
0.0175436908807421
21
-0.149865587760111
31
0
210
0
220
0
230
1
40
0.361878
41
-2.93085702206006
42
-1.883659470851
0
ELLIPSE
5
300
100
AcDbEntity
8
1
62
256
6
ByLayer
370
18
48
1
60
0
100
AcDbEllipse
10
13.21502
20
76.335589
30
0
11
0.0175436908817649
21
-0.149865587764638
31
0
210
0
220
0
230
1
40
0.361878
41
-1.88365947085442
42
-0.836461919673173
0
ELLIPSE
5
301
100
AcDbEntity
8
1
62
256
6
ByLayer
370
18
48
1
60
0
100
AcDbEllipse
10
13.38982
20
75.600671
30
0
11
0.0198828496660461
21
-0.169847666130856
31
0
210
0
220
0
230
1
40
0.361878
41
0.210735631528858
42
2.30513073392244
0
ELLIPSE
5
302
100
AcDbEntity
8
1
62
256
6
ByLayer
370
18
48
1
60
0
100
AcDbEllipse
10
10.3
20
-67.064884
30
0
11
1
21
0
31
0
210
0
220
0
230
1
40
0.299369
41
0
42
6.28318530717959
0
ELLIPSE
5
303
100
AcDbEntity
8
1
62
256
6
ByLayer
370
13
48
1
60
0
100
AcDbEllipse
10
10.3
20
-67.064884
30
0
11
1.4
21
0
31
0
210
0
220
0
230
1
40
0.299369
41
-3.14159265358976
42
-2.65390930634314
0
ELLIPSE
5
304
100
AcDbEntity
8
1
62
256
6
ByLayer
370
18
48
1
60
0
100
AcDbEllipse
10
10.3
20
-67.064884
30
0
11
1.4
21
0
31
0
210
0
220
0
230
1
40
0.299369
41
-2.65390967976154
42
-0.475706102120315
0
ELLIPSE
5
305
100
AcDbEntity
8
1
62
256
6
ByLayer
370
13
48
1
60
0
100
AcDbEllipse
10
10.3
20
-67.064884
30
0
11
1.4
21
0
31
0
210
0
220
0
230
1
40
0.299369
41
-0.475706102120315
42
0
0
ELLIPSE
5
306
100
AcDbEntity
8
1
62
256
6
ByLayer
370
13
48
1
60
0
100
AcDbEllipse
10
10.3
20
-67.160298
30
0
11
-1.5
21
1.83690953073357E-16
31
0
210
0
220
0
230
1
40
0.299369
41
0
42
3.14159265358979
0
ELLIPSE
5
307
100
AcDbEntity
8
1
62
256
6
ByLayer
370
13
48
1
60
0
100
AcDbEllipse
10
11.7
20
-67.160298
30
0
11
-0.1
21
1.22460635382238E-17
31
0
210
0
220
0
230
1
40
0.954137
41
3.14159265358979
42
-1.5707963267949
0
ELLIPSE
5
308
100
AcDbEntity
8
1
62
256
6
ByLayer
370
13
48
1
60
0
100
AcDbEllipse
10
8.9
20
-67.160298
30
0
11
0.1
21
0
31
0
210
0
220
0
230
1
40
0.954137
41
1.5707963267949
42
-3.14159265358964
0
ELLIPSE
5
309
100
AcDbEntity
8
1
62
256
6
ByLayer
370
18
48
1
60
0
100
AcDbEllipse
10
13.21502
20
71.544278
30
0
11
0.0164658105437176
21
0.14988015027687
31
0
210
0
220
0
230
1
40
0.36409
41
1.86384667653331
42
2.91104422772854
0
ELLIPSE
5
30A
100
AcDbEntity
8
1
62
256
6
ByLayer
370
18
48
1
60
0
100
AcDbEllipse
10
13.38982
20
71.044597
30
0
11
0.0186612519494133
21
0.169864170313414
31
0
210
0
220
0
230
1
40
0.36409
41
-2.32494352825487
42
-0.230548425861333
0
ELLIPSE
5
30B
100
AcDbEntity
8
1
62
256
6
ByLayer
370
18
48
1
60
0
100
AcDbEllipse
10
13.21502
20
70.314566
30
0
11
0.0164658105435976
21
0.149880150276777
31
0
210
0
220
0
230
1
40
0.36409
41
0.816649125336156
42
1.8638466765306
0
ELLIPSE
5
30C
100
AcDbEntity
8
1
62
256
6
ByLayer
370
18
48
1
60
0
100
AcDbEllipse
10
13.21502
20
70.092057
30
0
11
0.0164658105441674
21
0.149880150277893
31
0
210
0
220
0
230
1
40
0.36409
41
1.86384667653892
42
2.9110442277286
0
ELLIPSE
5
30D
100
AcDbEntity
8
1
62
256
6
ByLayer
370
18
48
1
60
0
100
AcDbEllipse
10
13.38982
20
69.592375
30
0
11
0.0186612519494261
21
0.169864170313452
31
0
210
0
220
0
230
1
40
0.36409
41
-2.3249435282547
42
-0.230548425861515
0
ELLIPSE
5
30E
100
AcDbEntity
8
1
62
256
6
ByLayer
370
18
48
1
60
0
100
AcDbEllipse
10
13.21502
20
68.862344
30
0
11
0.0164658105436218
21
0.149880150276225
31
0
210
0
220
0
230
1
40
0.36409
41
0.816649125334723
42
1.86384667653333
0
ELLIPSE
5
30F
100
AcDbEntity
8
1
62
256
6
ByLayer
370
18
48
1
60
0
100
AcDbEllipse
10
13.21502
20
68.639835
30
0
11
0.0164658105441953
21
0.149880150277957
31
0
210
0
220
0
230
1
40
0.36409
41
1.86384667653928
42
2.91104422772844
0
ELLIPSE
5
310
100
AcDbEntity
8
1
62
256
6
ByLayer
370
18
48
1
60
0
100
AcDbEllipse
10
13.38982
20
68.140154
30
0
11
0.0186612519494234
21
0.169864170313442
31
0
210
0
220
0
230
1
40
0.36409
41
-2.3249435282547
42
-0.230548425861526
0
ELLIPSE
5
311
100
AcDbEntity
8
1
62
256
6
ByLayer
370
18
48
1
60
0
100
AcDbEllipse
10
13.21502
20
67.410123
30
0
11
0.0164658105435892
21
0.149880150276537
31
0
210
0
220
0
230
1
40
0.36409
41
0.816649125335199
42
1.8638466765315
0
ELLIPSE
5
312
100
AcDbEntity
8
1
62
256
6
ByLayer
370
18
48
1
60
0
100
AcDbEllipse
10
13.21502
20
67.187614
30
0
11
0.0164658105445505
21
0.149880150278831
31
0
210
0
220
0
230
1
40
0.36409
41
1.86384667654423
42
2.91104422772932
0
ELLIPSE
5
313
100
AcDbEntity
8
1
62
256
6
ByLayer
370
18
48
1
60
0
100
AcDbEllipse
10
13.38982
20
66.687932
30
0
11
0.0186612519494171
21
0.169864170313423
31
0
210
0
220
0
230
1
40
0.36409
41
-2.32494352825489
42
-0.230548425861318
0
ELLIPSE
5
314
100
AcDbEntity
8
1
62
256
6
ByLayer
370
18
48
1
60
0
100
AcDbEllipse
10
13.21502
20
65.957901
30
0
11
0.0164658105436229
21
0.149880150275588
31
0
210
0
220
0
230
1
40
0.36409
41
0.816649125332425
42
1.8638466765359
0
ELLIPSE
5
315
100
AcDbEntity
8
1
62
256
6
ByLayer
370
18
48
1
60
0
100
AcDbEllipse
10
13.21502
20
65.735392
30
0
11
0.0164658105445505
21
0.149880150278831
31
0
210
0
220
0
230
1
40
0.36409
41
1.86384667654423
42
2.91104422772932
0
ELLIPSE
5
316
100
AcDbEntity
8
1
62
256
6
ByLayer
370
18
48
1
60
0
100
AcDbEllipse
10
13.38982
20
65.235711
30
0
11
0.0186612519494368
21
0.16986417031347
31
0
210
0
220
0
230
1
40
0.36409
41
-2.32494352825424
42
-0.230548425861488
0
ELLIPSE
5
317
100
AcDbEntity
8
1
62
256
6
ByLayer
370
18
48
1
60
0
100
AcDbEllipse
10
13.21502
20
64.50568
30
0
11
0.0164658105435523
21
0.149880150277142
31
0
210
0
220
0
230
1
40
0.36409
41
0.816649125336621
42
1.86384667652845
0
ELLIPSE
5
318
100
AcDbEntity
8
1
62
256
6
ByLayer
370
18
48
1
60
0
100
AcDbEllipse
10
13.21502
20
64.283171
30
0
11
0.0164658105441953
21
0.149880150277957
31
0
210
0
220
0
230
1
40
0.36409
41
1.86384667653928
42
2.91104422772844
0
ELLIPSE
5
319
100
AcDbEntity
8
1
62
256
6
ByLayer
370
18
48
1
60
0
100
AcDbEllipse
10
13.38982
20
63.783489
30
0
11
0.0186612519494167
21
0.169864170313416
31
0
210
0
220
0
230
1
40
0.36409
41
-2.32494352825486
42
-0.23054842586133
0
ELLIPSE
5
31A
100
AcDbEntity
8
1
62
256
6
ByLayer
370
18
48
1
60
0
100
AcDbEllipse
10
13.21502
20
63.053458
30
0
11
0.0164658105437582
21
0.149880150274427
31
0
210
0
220
0
230
1
40
0.36409
41
0.816649125331366
42
1.86384667654292
0
ELLIPSE
5
31B
100
AcDbEntity
8
1
62
256
6
ByLayer
370
18
48
1
60
0
100
AcDbEllipse
10
13.21502
20
62.830949
30
0
11
0.016465810543745
21
0.149880150276933
31
0
210
0
220
0
230
1
40
0.36409
41
1.8638466765336
42
2.91104422772837
0
ELLIPSE
5
31C
100
AcDbEntity
8
1
62
256
6
ByLayer
370
18
48
1
60
0
100
AcDbEllipse
10
13.38982
20
62.331268
30
0
11
0.0186612519494438
21
0.169864170313491
31
0
210
0
220
0
230
1
40
0.36409
41
-2.32494352825416
42
-0.230548425861926
0
ELLIPSE
5
31D
100
AcDbEntity
8
1
62
256
6
ByLayer
370
18
48
1
60
0
100
AcDbEllipse
10
13.21502
20
61.601237
30
0
11
0.0164658105434484
21
0.14988015027812
31
0
210
0
220
0
230
1
40
0.36409
41
0.816649125337793
42
1.86384667652268
0
ELLIPSE
5
31E
100
AcDbEntity
8
1
62
256
6
ByLayer
370
18
48
1
60
0
100
AcDbEllipse
10
13.21502
20
61.378728
30
0
11
0.0164658105434446
21
0.149880150276246
31
0
210
0
220
0
230
1
40
0.36409
41
1.86384667652985
42
2.91104422772845
0
ELLIPSE
5
31F
100
AcDbEntity
8
1
62
256
6
ByLayer
370
18
48
1
60
0
100
AcDbEllipse
10
13.38982
20
60.879046
30
0
11
0.0186612519493935
21
0.169864170313392
31
0
210
0
220
0
230
1
40
0.36409
41
-2.32494352825537
42
-0.230548425861366
0
ELLIPSE
5
320
100
AcDbEntity
8
1
62
256
6
ByLayer
370
18
48
1
60
0
100
AcDbEllipse
10
13.21502
20
60.149015
30
0
11
0.0164658105435646
21
0.149880150277073
31
0
210
0
220
0
230
1
40
0.36409
41
0.816649125336544
42
1.86384667652882
0
ELLIPSE
5
321
100
AcDbEntity
8
1
62
256
6
ByLayer
370
18
48
1
60
0
100
AcDbEllipse
10
13.21502
20
59.926507
30
0
11
0.016465810543849
21
0.149880150277158
31
0
210
0
220
0
230
1
40
0.36409
41
1.86384667653496
42
2.91104422772887
0
ELLIPSE
5
322
100
AcDbEntity
8
1
62
256
6
ByLayer
370
18
48
1
60
0
100
AcDbEllipse
10
13.38982
20
59.426825
30
0
11
0.0186612519493992
21
0.169864170313407
31
0
210
0
220
0
230
1
40
0.36409
41
-2.32494352825528
42
-0.23054842586146
0
ELLIPSE
5
323
100
AcDbEntity
8
1
62
256
6
ByLayer
370
18
48
1
60
0
100
AcDbEllipse
10
13.21502
20
58.696794
30
0
11
0.0164658105436169
21
0.149880150275724
31
0
210
0
220
0
230
1
40
0.36409
41
0.816649125332928
42
1.8638466765352
0
ELLIPSE
5
324
100
AcDbEntity
8
1
62
256
6
ByLayer
370
18
48
1
60
0
100
AcDbEllipse
10
13.21502
20
58.474285
30
0
11
0.016465810543597
21
0.149880150276561
31
0
210
0
220
0
230
1
40
0.36409
41
1.86384667653156
42
2.9110442277283
0
ELLIPSE
5
325
100
AcDbEntity
8
1
62
256
6
ByLayer
370
18
48
1
60
0
100
AcDbEllipse
10
13.38982
20
57.974604
30
0
11
0.018661251949414
21
0.169864170313444
31
0
210
0
220
0
230
1
40
0.36409
41
-2.32494352825484
42
-0.230548425861761
0
ELLIPSE
5
326
100
AcDbEntity
8
1
62
256
6
ByLayer
370
18
48
1
60
0
100
AcDbEllipse
10
13.21502
20
57.244572
30
0
11
0.0164658105435944
21
0.149880150276971
31
0
210
0
220
0
230
1
40
0.36409
41
0.816649125336699
42
1.86384667652976
0
ELLIPSE
5
327
100
AcDbEntity
8
1
62
256
6
ByLayer
370
18
48
1
60
0
100
AcDbEllipse
10
13.21502
20
57.022064
30
0
11
0.0164658105437374
21
0.149880150276855
31
0
210
0
220
0
230
1
40
0.36409
41
1.86384667653297
42
2.91104422772785
0
ELLIPSE
5
328
100
AcDbEntity
8
1
62
256
6
ByLayer
370
18
48
1
60
0
100
AcDbEllipse
10
13.38982
20
56.522382
30
0
11
0.0186612519494027
21
0.169864170313419
31
0
210
0
220
0
230
1
40
0.36409
41
-2.32494352825505
42
-0.230548425861562
0
ELLIPSE
5
329
100
AcDbEntity
8
1
62
256
6
ByLayer
370
18
48
1
60
0
100
AcDbEllipse
10
13.21502
20
71.766787
30
0
11
0.0164658105435616
21
0.149880150276635
31
0
210
0
220
0
230
1
40
0.36409
41
0.816649125334206
42
1.86384667653056
0
ELLIPSE
5
32A
100
AcDbEntity
8
1
62
256
6
ByLayer
370
18
48
1
60
0
100
AcDbEllipse
10
2.61018
20
56.522382
30
0
11
0.0186612519494157
21
-0.169864170313441
31
0
210
0
220
0
230
1
40
0.36409
41
-2.91104422772779
42
-0.816649125334959
0
ELLIPSE
5
32B
100
AcDbEntity
8
1
62
256
6
ByLayer
370
18
48
1
60
0
100
AcDbEllipse
10
2.78498
20
57.022064
30
0
11
0.0164658105432648
21
-0.149880150275797
31
0
210
0
220
0
230
1
40
0.36409
41
0.230548425862463
42
1.27774597706275
0
ELLIPSE
5
32C
100
AcDbEntity
8
1
62
256
6
ByLayer
370
18
48
1
60
0
100
AcDbEllipse
10
2.78498
20
57.244572
30
0
11
0.0164658105435829
21
-0.149880150276518
31
0
210
0
220
0
230
1
40
0.36409
41
1.27774597705837
42
2.3249435282554
0
ELLIPSE
5
32D
100
AcDbEntity
8
1
62
256
6
ByLayer
370
18
48
1
60
0
100
AcDbEllipse
10
2.61018
20
57.974604
30
0
11
0.0186612519494234
21
-0.169864170313462
31
0
210
0
220
0
230
1
40
0.36409
41
-2.91104422772759
42
-0.816649125335155
0
ELLIPSE
5
32E
100
AcDbEntity
8
1
62
256
6
ByLayer
370
18
48
1
60
0
100
AcDbEllipse
10
2.78498
20
58.474285
30
0
11
0.0164658105433174
21
-0.149880150275918
31
0
210
0
220
0
230
1
40
0.36409
41
0.230548425862002
42
1.27774597706192
0
ELLIPSE
5
32F
100
AcDbEntity
8
1
62
256
6
ByLayer
370
18
48
1
60
0
100
AcDbEllipse
10
2.78498
20
58.696794
30
0
11
0.0164658105436217
21
-0.149880150276346
31
0
210
0
220
0
230
1
40
0.36409
41
1.27774597705689
42
2.32494352825516
0
ELLIPSE
5
330
100
AcDbEntity
8
1
62
256
6
ByLayer
370
18
48
1
60
0
100
AcDbEllipse
10
2.61018
20
59.426825
30
0
11
0.0186612519494279
21
-0.169864170313464
31
0
210
0
220
0
230
1
40
0.36409
41
-2.91104422772759
42
-0.816649125335157
0
ELLIPSE
5
331
100
AcDbEntity
8
1
62
256
6
ByLayer
370
18
48
1
60
0
100
AcDbEllipse
10
2.78498
20
59.926507
30
0
11
0.0164658105435294
21
-0.149880150276388
31
0
210
0
220
0
230
1
40
0.36409
41
0.230548425862036
42
1.27774597705924
0
ELLIPSE
5
332
100
AcDbEntity
8
1
62
256
6
ByLayer
370
18
48
1
60
0
100
AcDbEllipse
10
2.78498
20
60.149015
30
0
11
0.0164658105436013
21
-0.149880150276563
31
0
210
0
220
0
230
1
40
0.36409
41
1.27774597705826
42
2.3249435282548
0
ELLIPSE
5
333
100
AcDbEntity
8
1
62
256
6
ByLayer
370
18
48
1
60
0
100
AcDbEllipse
10
2.61018
20
60.879046
30
0
11
0.0186612519493848
21
-0.169864170313391
31
0
210
0
220
0
230
1
40
0.36409
41
-2.91104422772784
42
-0.81664912533428
0
ELLIPSE
5
334
100
AcDbEntity
8
1
62
256
6
ByLayer
370
18
48
1
60
0
100
AcDbEllipse
10
2.78498
20
61.378728
30
0
11
0.0164658105441309
21
-0.149880150277771
31
0
210
0
220
0
230
1
40
0.36409
41
0.230548425860724
42
1.27774597705134
0
ELLIPSE
5
335
100
AcDbEntity
8
1
62
256
6
ByLayer
370
18
48
1
60
0
100
AcDbEllipse
10
2.78498
20
61.601237
30
0
11
0.0164658105436925
21
-0.149880150275211
31
0
210
0
220
0
230
1
40
0.36409
41
1.2777459770513
42
2.32494352825747
0
ELLIPSE
5
336
100
AcDbEntity
8
1
62
256
6
ByLayer
370
18
48
1
60
0
100
AcDbEllipse
10
2.61018
20
62.331268
30
0
11
0.0186612519494199
21
-0.16986417031344
31
0
210
0
220
0
230
1
40
0.36409
41
-2.91104422772791
42
-0.816649125334976
0
ELLIPSE
5
337
100
AcDbEntity
8
1
62
256
6
ByLayer
370
18
48
1
60
0
100
AcDbEllipse
10
2.78498
20
62.830949
30
0
11
0.0164658105430901
21
-0.1498801502754
31
0
210
0
220
0
230
1
40
0.36409
41
0.23054842586231
42
1.27774597706494
0
ELLIPSE
5
338
100
AcDbEntity
8
1
62
256
6
ByLayer
370
18
48
1
60
0
100
AcDbEllipse
10
2.78498
20
63.053458
30
0
11
0.0164658105436874
21
-0.149880150275218
31
0
210
0
220
0
230
1
40
0.36409
41
1.27774597705145
42
2.32494352825772
0
ELLIPSE
5
339
100
AcDbEntity
8
1
62
256
6
ByLayer
370
18
48
1
60
0
100
AcDbEllipse
10
2.61018
20
63.783489
30
0
11
0.0186612519494157
21
-0.169864170313435
31
0
210
0
220
0
230
1
40
0.36409
41
-2.9110442277279
42
-0.816649125334982
0
ELLIPSE
5
33A
100
AcDbEntity
8
1
62
256
6
ByLayer
370
18
48
1
60
0
100
AcDbEllipse
10
2.78498
20
64.283171
30
0
11
0.0164658105438335
21
-0.149880150277136
31
0
210
0
220
0
230
1
40
0.36409
41
0.230548425861359
42
1.27774597705489
0
ELLIPSE
5
33B
100
AcDbEntity
8
1
62
256
6
ByLayer
370
18
48
1
60
0
100
AcDbEllipse
10
2.78498
20
64.50568
30
0
11
0.0164658105436449
21
-0.149880150276553
31
0
210
0
220
0
230
1
40
0.36409
41
1.27774597705741
42
2.32494352825398
0
ELLIPSE
5
33C
100
AcDbEntity
8
1
62
256
6
ByLayer
370
18
48
1
60
0
100
AcDbEllipse
10
2.61018
20
65.235711
30
0
11
0.0186612519494318
21
-0.169864170313465
31
0
210
0
220
0
230
1
40
0.36409
41
-2.91104422772783
42
-0.816649125335313
0
ELLIPSE
5
33D
100
AcDbEntity
8
1
62
256
6
ByLayer
370
18
48
1
60
0
100
AcDbEllipse
10
2.78498
20
65.735392
30
0
11
0.0164658105433431
21
-0.149880150276011
31
0
210
0
220
0
230
1
40
0.36409
41
0.230548425862119
42
1.27774597706163
0
ELLIPSE
5
33E
100
AcDbEntity
8
1
62
256
6
ByLayer
370
18
48
1
60
0
100
AcDbEllipse
10
2.78498
20
65.957901
30
0
11
0.0164658105436668
21
-0.149880150276351
31
0
210
0
220
0
230
1
40
0.36409
41
1.27774597705622
42
2.32494352825412
0
ELLIPSE
5
33F
100
AcDbEntity
8
1
62
256
6
ByLayer
370
18
48
1
60
0
100
AcDbEllipse
10
2.61018
20
66.687932
30
0
11
0.0186612519494391
21
-0.169864170313476
31
0
210
0
220
0
230
1
40
0.36409
41
-2.91104422772785
42
-0.816649125335541
0
ELLIPSE
5
340
100
AcDbEntity
8
1
62
256
6
ByLayer
370
18
48
1
60
0
100
AcDbEllipse
10
2.78498
20
67.187614
30
0
11
0.0164658105440529
21
-0.14988015027763
31
0
210
0
220
0
230
1
40
0.36409
41
0.230548425860823
42
1.27774597705228
0
ELLIPSE
5
341
100
AcDbEntity
8
1
62
256
6
ByLayer
370
18
48
1
60
0
100
AcDbEllipse
10
2.78498
20
67.410123
30
0
11
0.0164658105437025
21
-0.149880150275201
31
0
210
0
220
0
230
1
40
0.36409
41
1.2777459770509
42
2.3249435282574
0
ELLIPSE
5
342
100
AcDbEntity
8
1
62
256
6
ByLayer
370
18
48
1
60
0
100
AcDbEllipse
10
2.61018
20
68.140154
30
0
11
0.0186612519494224
21
-0.169864170313453
31
0
210
0
220
0
230
1
40
0.36409
41
-2.91104422772758
42
-0.816649125335062
0
ELLIPSE
5
343
100
AcDbEntity
8
1
62
256
6
ByLayer
370
18
48
1
60
0
100
AcDbEllipse
10
2.78498
20
68.639835
30
0
11
0.0164658105442378
21
-0.149880150278068
31
0
210
0
220
0
230
1
40
0.36409
41
0.230548425859848
42
1.27774597704938
0
ELLIPSE
5
344
100
AcDbEntity
8
1
62
256
6
ByLayer
370
18
48
1
60
0
100
AcDbEllipse
10
2.78498
20
68.862344
30
0
11
0.0164658105436315
21
-0.149880150276768
31
0
210
0
220
0
230
1
40
0.36409
41
1.27774597705859
42
2.32494352825357
0
ELLIPSE
5
345
100
AcDbEntity
8
1
62
256
6
ByLayer
370
18
48
1
60
0
100
AcDbEllipse
10
2.61018
20
69.592375
30
0
11
0.0186612519494505
21
-0.169864170313503
31
0
210
0
220
0
230
1
40
0.36409
41
-2.91104422772742
42
-0.816649125335741
0
ELLIPSE
5
346
100
AcDbEntity
8
1
62
256
6
ByLayer
370
18
48
1
60
0
100
AcDbEllipse
10
2.78498
20
70.092057
30
0
11
0.0164658105443391
21
-0.149880150278231
31
0
210
0
220
0
230
1
40
0.36409
41
0.230548425860642
42
1.27774597704858
0
ELLIPSE
5
347
100
AcDbEntity
8
1
62
256
6
ByLayer
370
18
48
1
60
0
100
AcDbEllipse
10
2.78498
20
70.314566
30
0
11
0.0164658105436303
21
-0.149880150276708
31
0
210
0
220
0
230
1
40
0.36409
41
1.27774597705833
42
2.32494352825361
0
ELLIPSE
5
348
100
AcDbEntity
8
1
62
256
6
ByLayer
370
18
48
1
60
0
100
AcDbEllipse
10
2.61018
20
71.044597
30
0
11
0.018661251949376
21
-0.16986417031337
31
0
210
0
220
0
230
1
40
0.36409
41
-2.91104422772793
42
-0.816649125333951
0
ELLIPSE
5
349
100
AcDbEntity
8
1
62
256
6
ByLayer
370
18
48
1
60
0
100
AcDbEllipse
10
2.78498
20
71.544278
30
0
11
0.0164658105448167
21
-0.149880150279357
31
0
210
0
220
0
230
1
40
0.36409
41
0.230548425860147
42
1.27774597704247
0
ELLIPSE
5
34A
100
AcDbEntity
8
1
62
256
6
ByLayer
370
18
48
1
60
0
100
AcDbEllipse
10
2.78498
20
71.766787
30
0
11
0.0164658105435005
21
-0.14988015027801
31
0
210
0
220
0
230
1
40
0.36409
41
1.27774597706568
42
2.32494352825198
0
ELLIPSE
5
34B
100
AcDbEntity
8
1
62
256
6
ByLayer
370
18
48
1
60
0
100
AcDbEllipse
10
8
20
24.709282
30
0
11
-2.5
21
3.06151588455594E-16
31
0
210
0
220
0
230
1
40
0.976296
41
0.610865187014617
42
-2.91017294605286
0
ELLIPSE
5
34C
100
AcDbEntity
8
1
62
256
6
ByLayer
370
18
48
1
60
0
100
AcDbEllipse
10
8
20
24.709282
30
0
11
-2.5
21
3.06151588455594E-16
31
0
210
0
220
0
230
1
40
0.976296
41
-2.91017294605286
42
-0.231376172853699
0
ELLIPSE
5
34D
100
AcDbEntity
8
1
62
256
6
ByLayer
370
18
48
1
60
0
100
AcDbEllipse
10
8
20
24.925721
30
0
11
2.5
21
0
31
0
210
0
220
0
230
1
40
0.976296
41
0.1607120129849
42
2.98078244626184
0
ELLIPSE
5
34E
100
AcDbEntity
8
1
62
256
6
ByLayer
370
18
48
1
60
0
100
AcDbEllipse
10
2.78498
20
-60.833929
30
0
11
0.0434061067874915
21
-0.149616575025023
31
0
210
0
220
0
230
1
40
0.246929
41
-0.342041853866486
42
-0.0715039902639926
0
ELLIPSE
5
34F
100
AcDbEntity
8
1
62
256
6
ByLayer
370
18
48
1
60
0
100
AcDbEllipse
10
13.21502
20
-60.833929
30
0
11
0.0434061067857813
21
0.149616575020178
31
0
210
0
220
0
230
1
40
0.246929
41
-3.07008866332529
42
-2.79955079971805
0
ELLIPSE
5
350
100
AcDbEntity
8
1
62
256
6
ByLayer
370
18
48
1
60
0
100
AcDbEllipse
10
2.604093
20
35.366333
30
0
11
0.232212765108283
21
0.390039249491116
31
0
210
0
220
0
230
1
40
0.382018
41
-2.14128787109305
42
-0.570491544297953
0
ELLIPSE
5
351
100
AcDbEntity
8
1
62
256
6
ByLayer
370
18
48
1
60
0
100
AcDbEllipse
10
13.395907
20
35.366333
30
0
11
0.232212765108405
21
-0.390039249491204
31
0
210
0
220
0
230
1
40
0.382018
41
-2.57110110929179
42
-1.00030478249725
0
ELLIPSE
5
352
100
AcDbEntity
8
1
62
256
6
ByLayer
370
18
48
1
60
0
100
AcDbEllipse
10
8
20
0.102982
30
0
11
2.5
21
0
31
0
210
0
220
0
230
1
40
0.953717
41
-2.62261882620408
42
-2.53072714344445
0
ELLIPSE
5
353
100
AcDbEntity
8
1
62
256
6
ByLayer
370
18
48
1
60
0
100
AcDbEllipse
10
8
20
0.102982
30
0
11
2.5
21
0
31
0
210
0
220
0
230
1
40
0.953717
41
0
42
6.28318530717959
0
ELLIPSE
5
354
100
AcDbEntity
8
1
62
256
6
ByLayer
370
18
48
1
60
0
100
AcDbEllipse
10
8
20
0.102982
30
0
11
2.5
21
0
31
0
210
0
220
0
230
1
40
0.953717
41
-2.53072755616124
42
-0.518930324833894
0
ELLIPSE
5
355
100
AcDbEntity
8
1
62
256
6
ByLayer
370
18
48
1
60
0
100
AcDbEllipse
10
8
20
33.503673
30
0
11
2.4
21
0
31
0
210
0
220
0
230
1
40
0.700909
41
1.92568002963699
42
-2.85875899186694
0
ELLIPSE
5
356
100
AcDbEntity
8
1
62
256
6
ByLayer
370
18
48
1
60
0
100
AcDbEllipse
10
8
20
32.077172
30
0
11
-2.4
21
2.93905524917371E-16
31
0
210
0
220
0
230
1
40
0.700909
41
-2.73986154473727
42
-0.40182955138688
0
ELLIPSE
5
357
100
AcDbEntity
8
1
62
256
6
ByLayer
370
18
48
1
60
0
100
AcDbEllipse
10
8
20
33.503673
30
0
11
2.4
21
0
31
0
210
0
220
0
230
1
40
0.700909
41
-0.282833661722858
42
1.21591262395281
0
ELLIPSE
5
358
100
AcDbEntity
8
1
62
256
6
ByLayer
370
18
48
1
60
0
100
AcDbEllipse
10
8
20
-32.272324
30
0
11
2.99999999999999
21
0
31
0
210
0
220
0
230
1
40
0.67559
41
0
42
6.28318530717959
0
ELLIPSE
5
359
100
AcDbEntity
8
1
62
256
6
ByLayer
370
18
48
1
60
0
100
AcDbEllipse
10
8
20
-32.035867
30
0
11
-4
21
4.89842541528951E-16
31
0
210
0
220
0
230
1
40
0.67559
41
0
42
3.14159265358979
0
ELLIPSE
5
35A
100
AcDbEntity
8
1
62
256
6
ByLayer
370
18
48
1
60
0
100
AcDbEllipse
10
8
20
25.57504
30
0
11
2.99999999999999
21
0
31
0
210
0
220
0
230
1
40
0.976296
41
0.242491684866557
42
2.8990029197412
0
ELLIPSE
5
35B
100
AcDbEntity
8
1
62
256
6
ByLayer
370
18
48
1
60
0
100
AcDbEllipse
10
8
20
26.981898
30
0
11
-2.99999999999999
21
3.67381906146712E-16
31
0
210
0
220
0
230
1
40
0.976296
41
0
42
0.880922111024046
0
ELLIPSE
5
35C
100
AcDbEntity
8
1
62
256
6
ByLayer
370
18
48
1
60
0
100
AcDbEllipse
10
8
20
26.981898
30
0
11
-2.99999999999999
21
3.67381906146712E-16
31
0
210
0
220
0
230
1
40
0.976296
41
2.26076863544291
42
0
0
ELLIPSE
5
35D
100
AcDbEntity
8
1
62
256
6
ByLayer
370
18
48
1
60
0
100
AcDbEllipse
10
8
20
-0.197724
30
0
11
-2.5
21
3.06151588455594E-16
31
0
210
0
220
0
230
1
40
0.953717
41
0.428533028545529
42
2.7131581627339
0
ELLIPSE
5
35E
100
AcDbEntity
8
1
62
256
6
ByLayer
370
18
48
1
60
0
100
AcDbEllipse
10
8
20
33.779488
30
0
11
1.6351501522878E-16
21
2.67049104748475
31
0
210
0
220
0
230
1
40
0.898711
41
1.85362998851776
42
-1.85362998851776
0
ELLIPSE
5
35F
100
AcDbEntity
8
1
62
256
6
ByLayer
370
18
48
1
60
0
100
AcDbEllipse
10
8
20
27.365011
30
0
11
4
21
4.6858214583301E-15
31
0
210
0
220
0
230
1
40
0.964953
41
3.14159265358979
42
-2.38765955199931
0
ELLIPSE
5
360
100
AcDbEntity
8
1
62
256
6
ByLayer
370
18
48
1
60
0
100
AcDbEllipse
10
8
20
27.365011
30
0
11
4
21
4.6858214583301E-15
31
0
210
0
220
0
230
1
40
0.964953
41
-0.753933101590485
42
0
0
ELLIPSE
5
361
100
AcDbEntity
8
1
62
256
6
ByLayer
370
18
48
1
60
0
100
AcDbEllipse
10
10.3
20
-47.558791
30
0
11
1
21
0
31
0
210
0
220
0
230
1
40
0.73633
41
0
42
6.28318530717959
0
ELLIPSE
5
362
100
AcDbEntity
8
1
62
256
6
ByLayer
370
13
48
1
60
0
100
AcDbEllipse
10
10.3
20
-47.558791
30
0
11
1.4
21
0
31
0
210
0
220
0
230
1
40
0.73633
41
3.14159265358979
42
6.89270470499543E-15
0
ELLIPSE
5
363
100
AcDbEntity
8
1
62
256
6
ByLayer
370
13
48
1
60
0
100
AcDbEllipse
10
11.7
20
-47.626453
30
0
11
-0.1
21
1.22460635382238E-17
31
0
210
0
220
0
230
1
40
0.676623
41
3.14159265358979
42
-1.5707963267949
0
ELLIPSE
5
364
100
AcDbEntity
8
1
62
256
6
ByLayer
370
13
48
1
60
0
100
AcDbEllipse
10
8.9
20
-47.626453
30
0
11
0.1
21
0
31
0
210
0
220
0
230
1
40
0.676623
41
1.5707963267949
42
3.14159265358979
0
ELLIPSE
5
365
100
AcDbEntity
8
1
62
256
6
ByLayer
370
18
48
1
60
0
100
AcDbEllipse
10
8
20
-32.176926
30
0
11
4
21
4.6858214583301E-15
31
0
210
0
220
0
230
1
40
0.714229
41
3.14159265358979
42
0
0
ELLIPSE
5
366
100
AcDbEntity
8
1
62
256
6
ByLayer
370
18
48
1
60
0
100
AcDbEllipse
10
8
20
-26.83154
30
0
11
2.4
21
0
31
0
210
0
220
0
230
1
40
0.968148
41
-1.98303204213037
42
-1.15846234330615
0
ELLIPSE
5
367
100
AcDbEntity
8
1
62
256
6
ByLayer
370
18
48
1
60
0
100
AcDbEllipse
10
8
20
-27.429123
30
0
11
2.4
21
2.81149287499805E-15
31
0
210
0
220
0
230
1
40
0.823591
41
-2.2553485576014
42
-0.886244323943375
0
ELLIPSE
5
368
100
AcDbEntity
8
1
62
256
6
ByLayer
370
18
48
1
60
0
100
AcDbEllipse
10
10.3
20
-47.626453
30
0
11
-1.5
21
1.83690953073357E-16
31
0
210
0
220
0
230
1
40
0.73633
41
2.85074981901591
42
3.14159265358979
0
ELLIPSE
5
369
100
AcDbEntity
8
1
62
256
6
ByLayer
370
13
48
1
60
0
100
AcDbEllipse
10
10.3
20
-47.626453
30
0
11
-1.5
21
1.83690953073357E-16
31
0
210
0
220
0
230
1
40
0.73633
41
0.288486659209946
42
2.8507498190159
0
ELLIPSE
5
36A
100
AcDbEntity
8
1
62
256
6
ByLayer
370
18
48
1
60
0
100
AcDbEllipse
10
10.3
20
-47.626453
30
0
11
-1.5
21
1.83690953073357E-16
31
0
210
0
220
0
230
1
40
0.73633
41
0
42
0.288486248260144
0
ELLIPSE
5
36B
100
AcDbEntity
8
1
62
256
6
ByLayer
370
18
48
1
60
0
100
AcDbEllipse
10
8
20
-1.099841
30
0
11
-2.99999999999999
21
3.67381906146712E-16
31
0
210
0
220
0
230
1
40
0.953717
41
0.348618486423058
42
2.79307214150377
0
ELLIPSE
5
36C
100
AcDbEntity
8
1
62
256
6
ByLayer
370
18
48
1
60
0
100
AcDbEllipse
10
8
20
-3.054429
30
0
11
2.99999999999999
21
0
31
0
210
0
220
0
230
1
40
0.953717
41
0
42
6.28318530717959
0
ELLIPSE
5
36D
100
AcDbEntity
8
1
62
256
6
ByLayer
370
18
48
1
60
0
100
AcDbEllipse
10
8
20
-2.720628
30
0
11
-4
21
4.89842541528951E-16
31
0
210
0
220
0
230
1
40
0.953717
41
0
42
3.14159265358979
0
ELLIPSE
5
36E
100
AcDbEntity
8
1
62
256
6
ByLayer
370
18
48
1
60
0
100
AcDbEllipse
10
13.395907
20
5.838539
30
0
11
0.271230962257702
21
-0.398515998332328
31
0
210
0
220
0
230
1
40
0.126917
41
-2.95723274352254
42
-1.38643641672554
0
ELLIPSE
5
36F
100
AcDbEntity
8
1
62
256
6
ByLayer
370
18
48
1
60
0
100
AcDbEllipse
10
2.604093
20
5.838539
30
0
11
0.271230962258182
21
0.398515998332879
31
0
210
0
220
0
230
1
40
0.126917
41
-1.75515623686252
42
-0.184359910067618
0
ELLIPSE
5
370
100
AcDbEntity
8
1
62
256
6
ByLayer
370
18
48
1
60
0
100
AcDbEllipse
10
13.21502
20
47.582736
30
0
11
0.0427681553746387
21
0.149612745291528
31
0
210
0
220
0
230
1
40
0.251859
41
2.41934008727433
42
-2.81664766870816
0
ELLIPSE
5
371
100
AcDbEntity
8
1
62
256
6
ByLayer
370
18
48
1
60
0
100
AcDbEllipse
10
13.38982
20
47.45218
30
0
11
0.04847057609133
21
0.169561111330657
31
0
210
0
220
0
230
1
40
0.251859
41
-1.76945011751121
42
0.32494498488158
0
ELLIPSE
5
372
100
AcDbEntity
8
1
62
256
6
ByLayer
370
18
48
1
60
0
100
AcDbEllipse
10
13.21502
20
46.676786
30
0
11
0.0427681553751061
21
0.149612745292648
31
0
210
0
220
0
230
1
40
0.251859
41
1.37214253608343
42
2.4193400872727
0
ELLIPSE
5
373
100
AcDbEntity
8
1
62
256
6
ByLayer
370
18
48
1
60
0
100
AcDbEllipse
10
13.21502
20
46.512861
30
0
11
0.0427681553750104
21
0.149612745292659
31
0
210
0
220
0
230
1
40
0.251859
41
2.41934008727719
42
-2.8166476687094
0
ELLIPSE
5
374
100
AcDbEntity
8
1
62
256
6
ByLayer
370
18
48
1
60
0
100
AcDbEllipse
10
13.38982
20
46.382304
30
0
11
0.0484705760913513
21
0.169561111330691
31
0
210
0
220
0
230
1
40
0.251859
41
-1.76945011751087
42
0.324944984881506
0
ELLIPSE
5
375
100
AcDbEntity
8
1
62
256
6
ByLayer
370
18
48
1
60
0
100
AcDbEllipse
10
13.21502
20
45.606911
30
0
11
0.0427681553744005
21
0.149612745291209
31
0
210
0
220
0
230
1
40
0.251859
41
1.3721425360742
42
2.41934008727364
0
ELLIPSE
5
376
100
AcDbEntity
8
1
62
256
6
ByLayer
370
18
48
1
60
0
100
AcDbEllipse
10
13.21502
20
45.442985
30
0
11
0.0427681553750104
21
0.149612745292659
31
0
210
0
220
0
230
1
40
0.251859
41
2.4193400872772
42
-2.8166476687094
0
ELLIPSE
5
377
100
AcDbEntity
8
1
62
256
6
ByLayer
370
18
48
1
60
0
100
AcDbEllipse
10
13.38982
20
45.312428
30
0
11
0.0484705760913239
21
0.169561111330648
31
0
210
0
220
0
230
1
40
0.251859
41
-1.76945011751125
42
0.3249449848816
0
ELLIPSE
5
378
100
AcDbEntity
8
1
62
256
6
ByLayer
370
18
48
1
60
0
100
AcDbEllipse
10
13.21502
20
44.537035
30
0
11
0.0427681553739255
21
0.149612745290182
31
0
210
0
220
0
230
1
40
0.251859
41
1.37214253606842
42
2.41934008727556
0
ELLIPSE
5
379
100
AcDbEntity
8
1
62
256
6
ByLayer
370
18
48
1
60
0
100
AcDbEllipse
10
13.21502
20
44.373109
30
0
11
0.0427681553748169
21
0.149612745292093
31
0
210
0
220
0
230
1
40
0.251859
41
2.41934008727573
42
-2.81664766870868
0
ELLIPSE
5
37A
100
AcDbEntity
8
1
62
256
6
ByLayer
370
18
48
1
60
0
100
AcDbEllipse
10
13.38982
20
44.242553
30
0
11
0.0484705760913484
21
0.169561111330677
31
0
210
0
220
0
230
1
40
0.251859
41
-1.76945011751098
42
0.324944984881364
0
ELLIPSE
5
37B
100
AcDbEntity
8
1
62
256
6
ByLayer
370
18
48
1
60
0
100
AcDbEllipse
10
13.21502
20
43.467159
30
0
11
0.0427681553748154
21
0.149612745292039
31
0
210
0
220
0
230
1
40
0.251859
41
1.37214253607962
42
2.41934008727325
0
ELLIPSE
5
37C
100
AcDbEntity
8
1
62
256
6
ByLayer
370
18
48
1
60
0
100
AcDbEllipse
10
13.21502
20
43.303234
30
0
11
0.0427681553750104
21
0.149612745292659
31
0
210
0
220
0
230
1
40
0.251859
41
2.41934008727719
42
-2.8166476687094
0
ELLIPSE
5
37D
100
AcDbEntity
8
1
62
256
6
ByLayer
370
18
48
1
60
0
100
AcDbEllipse
10
13.38982
20
43.172677
30
0
11
0.048470576091262
21
0.169561111330525
31
0
210
0
220
0
230
1
40
0.251859
41
-1.76945011751226
42
0.324944984881689
0
ELLIPSE
5
37E
100
AcDbEntity
8
1
62
256
6
ByLayer
370
18
48
1
60
0
100
AcDbEllipse
10
13.21502
20
42.397284
30
0
11
0.0427681553747926
21
0.149612745291957
31
0
210
0
220
0
230
1
40
0.251859
41
1.37214253607965
42
2.41934008727399
0
ELLIPSE
5
37F
100
AcDbEntity
8
1
62
256
6
ByLayer
370
18
48
1
60
0
100
AcDbEllipse
10
13.21502
20
42.233358
30
0
11
0.0427681553728696
21
0.149612745286617
31
0
210
0
220
0
230
1
40
0.251859
41
2.41934008726102
42
-2.81664766870301
0
ELLIPSE
5
380
100
AcDbEntity
8
1
62
256
6
ByLayer
370
18
48
1
60
0
100
AcDbEllipse
10
13.38982
20
42.102801
30
0
11
0.0484705760913127
21
0.169561111330619
31
0
210
0
220
0
230
1
40
0.251859
41
-1.76945011751148
42
0.32494498488149
0
ELLIPSE
5
381
100
AcDbEntity
8
1
62
256
6
ByLayer
370
18
48
1
60
0
100
AcDbEllipse
10
13.21502
20
41.327408
30
0
11
0.0427681553751677
21
0.149612745292737
31
0
210
0
220
0
230
1
40
0.251859
41
1.37214253608457
42
2.4193400872735
0
ELLIPSE
5
382
100
AcDbEntity
8
1
62
256
6
ByLayer
370
18
48
1
60
0
100
AcDbEllipse
10
13.21502
20
41.163482
30
0
11
0.0427681553748657
21
0.14961274529222
31
0
210
0
220
0
230
1
40
0.251859
41
2.41934008727604
42
-2.81664766870878
0
ELLIPSE
5
383
100
AcDbEntity
8
1
62
256
6
ByLayer
370
18
48
1
60
0
100
AcDbEllipse
10
13.38982
20
41.032926
30
0
11
0.0484705760912048
21
0.169561111330442
31
0
210
0
220
0
230
1
40
0.251859
41
-1.76945011751308
42
0.324944984881872
0
ELLIPSE
5
384
100
AcDbEntity
8
1
62
256
6
ByLayer
370
18
48
1
60
0
100
AcDbEllipse
10
13.21502
20
40.257532
30
0
11
0.0427681553749914
21
0.149612745292388
31
0
210
0
220
0
230
1
40
0.251859
41
1.37214253608211
42
2.41934008727328
0
ELLIPSE
5
385
100
AcDbEntity
8
1
62
256
6
ByLayer
370
18
48
1
60
0
100
AcDbEllipse
10
13.21502
20
40.093606
30
0
11
0.0427681553729316
21
0.149612745286849
31
0
210
0
220
0
230
1
40
0.251859
41
2.41934008726164
42
-2.81664766870334
0
ELLIPSE
5
386
100
AcDbEntity
8
1
62
256
6
ByLayer
370
18
48
1
60
0
100
AcDbEllipse
10
13.38982
20
39.96305
30
0
11
0.0484705760912374
21
0.169561111330488
31
0
210
0
220
0
230
1
40
0.251859
41
-1.76945011751261
42
0.32494498488177
0
ELLIPSE
5
387
100
AcDbEntity
8
1
62
256
6
ByLayer
370
18
48
1
60
0
100
AcDbEllipse
10
13.21502
20
39.187657
30
0
11
0.0427681553741079
21
0.149612745290588
31
0
210
0
220
0
230
1
40
0.251859
41
1.37214253607062
42
2.41934008727467
0
ELLIPSE
5
388
100
AcDbEntity
8
1
62
256
6
ByLayer
370
18
48
1
60
0
100
AcDbEllipse
10
13.21502
20
39.023731
30
0
11
0.0427681553750104
21
0.149612745292659
31
0
210
0
220
0
230
1
40
0.251859
41
2.41934008727719
42
-2.8166476687094
0
ELLIPSE
5
389
100
AcDbEntity
8
1
62
256
6
ByLayer
370
18
48
1
60
0
100
AcDbEllipse
10
13.38982
20
38.893174
30
0
11
0.0484705760912944
21
0.169561111330588
31
0
210
0
220
0
230
1
40
0.251859
41
-1.76945011751177
42
0.324944984881557
0
ELLIPSE
5
38A
100
AcDbEntity
8
1
62
256
6
ByLayer
370
18
48
1
60
0
100
AcDbEllipse
10
13.21502
20
38.117781
30
0
11
0.042768155375108
21
0.149612745292619
31
0
210
0
220
0
230
1
40
0.251859
41
1.37214253608381
42
2.41934008727326
0
ELLIPSE
5
38B
100
AcDbEntity
8
1
62
256
6
ByLayer
370
18
48
1
60
0
100
AcDbEllipse
10
13.21502
20
37.953855
30
0
11
0.0427681553742159
21
0.149612745290491
31
0
210
0
220
0
230
1
40
0.251859
41
2.41934008727138
42
-2.81664766870709
0
ELLIPSE
5
38C
100
AcDbEntity
8
1
62
256
6
ByLayer
370
18
48
1
60
0
100
AcDbEllipse
10
13.38982
20
37.823299
30
0
11
0.0484705760913801
21
0.169561111330741
31
0
210
0
220
0
230
1
40
0.251859
41
-1.76945011751052
42
0.324944984881232
0
ELLIPSE
5
38D
100
AcDbEntity
8
1
62
256
6
ByLayer
370
18
48
1
60
0
100
AcDbEllipse
10
13.21502
20
37.047905
30
0
11
0.0427681553745298
21
0.149612745291465
31
0
210
0
220
0
230
1
40
0.251859
41
1.37214253607599
42
2.41934008727379
0
ELLIPSE
5
38E
100
AcDbEntity
8
1
62
256
6
ByLayer
370
18
48
1
60
0
100
AcDbEllipse
10
13.21502
20
36.883979
30
0
11
0.0427681553752682
21
0.149612745293341
31
0
210
0
220
0
230
1
40
0.251859
41
2.41934008727911
42
-2.81664766871001
0
ELLIPSE
5
38F
100
AcDbEntity
8
1
62
256
6
ByLayer
370
18
48
1
60
0
100
AcDbEllipse
10
13.38982
20
36.753423
30
0
11
0.0484705760913774
21
0.169561111330736
31
0
210
0
220
0
230
1
40
0.251859
41
-1.76945011751053
42
0.324944984881242
0
ELLIPSE
5
390
100
AcDbEntity
8
1
62
256
6
ByLayer
370
18
48
1
60
0
100
AcDbEllipse
10
13.21502
20
47.746662
30
0
11
0.042768155373309
21
0.149612745288932
31
0
210
0
220
0
230
1
40
0.251859
41
1.37214253605996
42
2.41934008727646
0
ELLIPSE
5
391
100
AcDbEntity
8
1
62
256
6
ByLayer
370
18
48
1
60
0
100
AcDbEllipse
10
2.61018
20
36.753423
30
0
11
0.048470576091295
21
-0.169561111330592
31
0
210
0
220
0
230
1
40
0.251859
41
2.81664766870858
42
-1.37214253607807
0
ELLIPSE
5
392
100
AcDbEntity
8
1
62
256
6
ByLayer
370
18
48
1
60
0
100
AcDbEllipse
10
2.78498
20
36.883979
30
0
11
0.0427681553743676
21
-0.149612745290817
31
0
210
0
220
0
230
1
40
0.251859
41
-0.324944984882316
42
0.72225256631758
0
ELLIPSE
5
393
100
AcDbEntity
8
1
62
256
6
ByLayer
370
18
48
1
60
0
100
AcDbEllipse
10
2.78498
20
37.047905
30
0
11
0.0427681553744179
21
-0.149612745291157
31
0
210
0
220
0
230
1
40
0.251859
41
0.722252566314469
42
1.76945011751496
0
ELLIPSE
5
394
100
AcDbEntity
8
1
62
256
6
ByLayer
370
18
48
1
60
0
100
AcDbEllipse
10
2.61018
20
37.823299
30
0
11
0.0484705760913391
21
-0.169561111330665
31
0
210
0
220
0
230
1
40
0.251859
41
2.81664766870857
42
-1.37214253607865
0
ELLIPSE
5
395
100
AcDbEntity
8
1
62
256
6
ByLayer
370
18
48
1
60
0
100
AcDbEllipse
10
2.78498
20
37.953855
30
0
11
0.0427681553742399
21
-0.149612745290554
31
0
210
0
220
0
230
1
40
0.251859
41
-0.324944984882748
42
0.722252566318266
0
ELLIPSE
5
396
100
AcDbEntity
8
1
62
256
6
ByLayer
370
18
48
1
60
0
100
AcDbEllipse
10
2.78498
20
38.117781
30
0
11
0.0427681553743518
21
-0.149612745291034
31
0
210
0
220
0
230
1
40
0.251859
41
0.72225256631451
42
1.76945011751589
0
ELLIPSE
5
397
100
AcDbEntity
8
1
62
256
6
ByLayer
370
18
48
1
60
0
100
AcDbEllipse
10
2.61018
20
38.893174
30
0
11
0.0484705760913107
21
-0.169561111330611
31
0
210
0
220
0
230
1
40
0.251859
41
2.81664766870863
42
-1.37214253607823
0
ELLIPSE
5
398
100
AcDbEntity
8
1
62
256
6
ByLayer
370
18
48
1
60
0
100
AcDbEllipse
10
2.78498
20
39.023731
30
0
11
0.0427681553744279
21
-0.149612745291005
31
0
210
0
220
0
230
1
40
0.251859
41
-0.324944984882081
42
0.722252566317182
0
ELLIPSE
5
399
100
AcDbEntity
8
1
62
256
6
ByLayer
370
18
48
1
60
0
100
AcDbEllipse
10
2.78498
20
39.187657
30
0
11
0.0427681553746428
21
-0.149612745291627
31
0
210
0
220
0
230
1
40
0.251859
41
0.722252566314683
42
1.76945011751195
0
ELLIPSE
5
39A
100
AcDbEntity
8
1
62
256
6
ByLayer
370
18
48
1
60
0
100
AcDbEllipse
10
2.61018
20
39.96305
30
0
11
0.0484705760912953
21
-0.16956111133059
31
0
210
0
220
0
230
1
40
0.251859
41
2.81664766870841
42
-1.372142536078
0
ELLIPSE
5
39B
100
AcDbEntity
8
1
62
256
6
ByLayer
370
18
48
1
60
0
100
AcDbEllipse
10
2.78498
20
40.093606
30
0
11
0.0427681553758347
21
-0.149612745295008
31
0
210
0
220
0
230
1
40
0.251859
41
-0.324944984878076
42
0.722252566306291
0
ELLIPSE
5
39C
100
AcDbEntity
8
1
62
256
6
ByLayer
370
18
48
1
60
0
100
AcDbEllipse
10
2.78498
20
40.257532
30
0
11
0.042768155374964
21
-0.149612745292273
31
0
210
0
220
0
230
1
40
0.251859
41
0.722252566315041
42
1.76945011750777
0
ELLIPSE
5
39D
100
AcDbEntity
8
1
62
256
6
ByLayer
370
18
48
1
60
0
100
AcDbEllipse
10
2.61018
20
41.032926
30
0
11
0.048470576091288
21
-0.169561111330582
31
0
210
0
220
0
230
1
40
0.251859
41
2.81664766870856
42
-1.37214253607788
0
ELLIPSE
5
39E
100
AcDbEntity
8
1
62
256
6
ByLayer
370
18
48
1
60
0
100
AcDbEllipse
10
2.78498
20
41.163482
30
0
11
0.0427681553757596
21
-0.149612745294802
31
0
210
0
220
0
230
1
40
0.251859
41
-0.324944984878358
42
0.722252566307004
0
ELLIPSE
5
39F
100
AcDbEntity
8
1
62
256
6
ByLayer
370
18
48
1
60
0
100
AcDbEllipse
10
2.78498
20
41.327408
30
0
11
0.0427681553749943
21
-0.149612745292329
31
0
210
0
220
0
230
1
40
0.251859
41
0.722252566314923
42
1.76945011750729
0
ELLIPSE
5
3A0
100
AcDbEntity
8
1
62
256
6
ByLayer
370
18
48
1
60
0
100
AcDbEllipse
10
2.61018
20
42.102801
30
0
11
0.0484705760912702
21
-0.169561111330545
31
0
210
0
220
0
230
1
40
0.251859
41
2.81664766870848
42
-1.37214253607769
0
ELLIPSE
5
3A1
100
AcDbEntity
8
1
62
256
6
ByLayer
370
18
48
1
60
0
100
AcDbEllipse
10
2.78498
20
42.233358
30
0
11
0.0427681553734715
21
-0.149612745288346
31
0
210
0
220
0
230
1
40
0.251859
41
-0.324944984884932
42
0.722252566324214
0
ELLIPSE
5
3A2
100
AcDbEntity
8
1
62
256
6
ByLayer
370
18
48
1
60
0
100
AcDbEllipse
10
2.78498
20
42.397284
30
0
11
0.0427681553743147
21
-0.149612745290974
31
0
210
0
220
0
230
1
40
0.251859
41
0.722252566314636
42
1.76945011751646
0
ELLIPSE
5
3A3
100
AcDbEntity
8
1
62
256
6
ByLayer
370
18
48
1
60
0
100
AcDbEllipse
10
2.61018
20
43.172677
30
0
11
0.0484705760913224
21
-0.169561111330629
31
0
210
0
220
0
230
1
40
0.251859
41
2.81664766870866
42
-1.37214253607841
0
ELLIPSE
5
3A4
100
AcDbEntity
8
1
62
256
6
ByLayer
370
18
48
1
60
0
100
AcDbEllipse
10
2.78498
20
43.303234
30
0
11
0.042768155375065
21
-0.149612745292783
31
0
210
0
220
0
230
1
40
0.251859
41
-0.324944984880297
42
0.722252566312344
0
ELLIPSE
5
3A5
100
AcDbEntity
8
1
62
256
6
ByLayer
370
18
48
1
60
0
100
AcDbEllipse
10
2.78498
20
43.467159
30
0
11
0.0427681553744647
21
-0.149612745291278
31
0
210
0
220
0
230
1
40
0.251859
41
0.722252566314916
42
1.76945011751442
0
ELLIPSE
5
3A6
100
AcDbEntity
8
1
62
256
6
ByLayer
370
18
48
1
60
0
100
AcDbEllipse
10
2.61018
20
44.242553
30
0
11
0.0484705760913118
21
-0.169561111330626
31
0
210
0
220
0
230
1
40
0.251859
41
2.81664766870865
42
-1.37214253607827
0
ELLIPSE
5
3A7
100
AcDbEntity
8
1
62
256
6
ByLayer
370
18
48
1
60
0
100
AcDbEllipse
10
2.78498
20
44.373109
30
0
11
0.042768155374867
21
-0.149612745292239
31
0
210
0
220
0
230
1
40
0.251859
41
-0.324944984880972
42
0.722252566313667
0
ELLIPSE
5
3A8
100
AcDbEntity
8
1
62
256
6
ByLayer
370
18
48
1
60
0
100
AcDbEllipse
10
2.78498
20
44.537035
30
0
11
0.0427681553750123
21
-0.149612745292362
31
0
210
0
220
0
230
1
40
0.251859
41
0.722252566315178
42
1.76945011750716
0
ELLIPSE
5
3A9
100
AcDbEntity
8
1
62
256
6
ByLayer
370
18
48
1
60
0
100
AcDbEllipse
10
2.61018
20
45.312428
30
0
11
0.0484705760912703
21
-0.16956111133055
31
0
210
0
220
0
230
1
40
0.251859
41
2.81664766870849
42
-1.3721425360777
0
ELLIPSE
5
3AA
100
AcDbEntity
8
1
62
256
6
ByLayer
370
18
48
1
60
0
100
AcDbEllipse
10
2.78498
20
45.442985
30
0
11
0.0427681553728684
21
-0.149612745286619
31
0
210
0
220
0
230
1
40
0.251859
41
-0.324944984886591
42
0.722252566328762
0
ELLIPSE
5
3AB
100
AcDbEntity
8
1
62
256
6
ByLayer
370
18
48
1
60
0
100
AcDbEllipse
10
2.78498
20
45.606911
30
0
11
0.0427681553750417
21
-0.149612745292411
31
0
210
0
220
0
230
1
40
0.251859
41
0.722252566314861
42
1.76945011750655
0
ELLIPSE
5
3AC
100
AcDbEntity
8
1
62
256
6
ByLayer
370
18
48
1
60
0
100
AcDbEllipse
10
2.61018
20
46.382304
30
0
11
0.0484705760913112
21
-0.169561111330623
31
0
210
0
220
0
230
1
40
0.251859
41
2.81664766870865
42
-1.37214253607825
0
ELLIPSE
5
3AD
100
AcDbEntity
8
1
62
256
6
ByLayer
370
18
48
1
60
0
100
AcDbEllipse
10
2.78498
20
46.512861
30
0
11
0.0427681553749257
21
-0.149612745292408
31
0
210
0
220
0
230
1
40
0.251859
41
-0.324944984880776
42
0.722252566313363
0
ELLIPSE
5
3AE
100
AcDbEntity
8
1
62
256
6
ByLayer
370
18
48
1
60
0
100
AcDbEllipse
10
2.78498
20
46.676786
30
0
11
0.0427681553752434
21
-0.149612745292815
31
0
210
0
220
0
230
1
40
0.251859
41
0.722252566315021
42
1.76945011750405
0
ELLIPSE
5
3AF
100
AcDbEntity
8
1
62
256
6
ByLayer
370
18
48
1
60
0
100
AcDbEllipse
10
2.61018
20
47.45218
30
0
11
0.0484705760912558
21
-0.169561111330515
31
0
210
0
220
0
230
1
40
0.251859
41
2.81664766870842
42
-1.37214253607741
0
ELLIPSE
5
3B0
100
AcDbEntity
8
1
62
256
6
ByLayer
370
18
48
1
60
0
100
AcDbEllipse
10
2.78498
20
47.582736
30
0
11
0.0427681553746123
21
-0.149612745291548
31
0
210
0
220
0
230
1
40
0.251859
41
-0.324944984881797
42
0.722252566315631
0
ELLIPSE
5
3B1
100
AcDbEntity
8
1
62
256
6
ByLayer
370
18
48
1
60
0
100
AcDbEllipse
10
2.78498
20
47.746662
30
0
11
0.0427681553733665
21
-0.149612745289073
31
0
210
0
220
0
230
1
40
0.251859
41
0.722252566314368
42
1.76945011752946
0
ELLIPSE
5
3B2
100
AcDbEntity
8
1
62
256
6
ByLayer
370
18
48
1
60
0
100
AcDbEllipse
10
8
20
-2.77816
30
0
11
4
21
4.6858214583301E-15
31
0
210
0
220
0
230
1
40
0.969476
41
3.14159265358979
42
-2.29035690336874E-16
0
ELLIPSE
5
3B3
100
AcDbEntity
8
1
62
256
6
ByLayer
370
18
48
1
60
0
100
AcDbEllipse
10
8
20
3.666385
30
0
11
1.6428152061095E-16
21
2.68300944378047
31
0
210
0
220
0
230
1
40
0.894518
41
1.85362998851775
42
-1.85362998851775
0
ELLIPSE
5
3B4
100
AcDbEntity
8
1
62
256
6
ByLayer
370
18
48
1
60
0
100
AcDbEllipse
10
8
20
3.563043
30
0
11
2.4
21
0
31
0
210
0
220
0
230
1
40
0.96363
41
-0.282833661722864
42
1.21591262395281
0
ELLIPSE
5
3B5
100
AcDbEntity
8
1
62
256
6
ByLayer
370
18
48
1
60
0
100
AcDbEllipse
10
8
20
3.028567
30
0
11
-2.4
21
2.93905524917371E-16
31
0
210
0
220
0
230
1
40
0.96363
41
-3.02584442079915
42
-0.115846208315596
0
ELLIPSE
5
3B6
100
AcDbEntity
8
1
62
256
6
ByLayer
370
18
48
1
60
0
100
AcDbEllipse
10
8
20
3.563043
30
0
11
2.4
21
0
31
0
210
0
220
0
230
1
40
0.96363
41
1.92568002963699
42
-2.85875899186693
0
ELLIPSE
5
3B7
100
AcDbEntity
8
1
62
256
6
ByLayer
370
18
48
1
60
0
100
AcDbEllipse
10
10.3
20
21.042204
30
0
11
-1
21
1.22460635382238E-16
31
0
210
0
220
0
230
1
40
0.954137
41
-2.65032605412176
42
-0.495389991020005
0
ELLIPSE
5
3B8
100
AcDbEntity
8
1
62
256
6
ByLayer
370
18
48
1
60
0
100
AcDbEllipse
10
2.61018
20
75.600671
30
0
11
0.0198828496661046
21
0.169847666130932
31
0
210
0
220
0
230
1
40
0.361878
41
0.836461919668592
42
2.9308570220608
0
ELLIPSE
5
3B9
100
AcDbEntity
8
1
62
256
6
ByLayer
370
18
48
1
60
0
100
AcDbEllipse
10
10.3
20
-15.309358
30
0
11
1
21
0
31
0
210
0
220
0
230
1
40
0.975992
41
0
42
6.28318530717959
0
ELLIPSE
5
3BA
100
AcDbEntity
8
1
62
256
6
ByLayer
370
18
48
1
60
0
100
AcDbEllipse
10
2.78498
20
-28.810397
30
0
11
0.0556007328761218
21
-0.149927752611532
31
0
210
0
220
0
230
1
40
0.083722
41
-0.825163106585953
42
-0.0310325382027731
0
ELLIPSE
5
3BB
100
AcDbEntity
8
1
62
256
6
ByLayer
370
18
48
1
60
0
100
AcDbEllipse
10
13.21502
20
-28.810397
30
0
11
0.0556007328735086
21
0.149927752603902
31
0
210
0
220
0
230
1
40
0.083722
41
-3.11056011538599
42
-2.3164295469817
0
ELLIPSE
5
3BC
100
AcDbEntity
8
1
62
256
6
ByLayer
370
13
48
1
60
0
100
AcDbEllipse
10
10.3
20
-15.309358
30
0
11
1.4
21
0
31
0
210
0
220
0
230
1
40
0.975992
41
-3.14159265358979
42
0
0
ELLIPSE
5
3BD
100
AcDbEntity
8
1
62
256
6
ByLayer
370
13
48
1
60
0
100
AcDbEllipse
10
11.7
20
-15.331139
30
0
11
-0.1
21
1.22460635382238E-17
31
0
210
0
220
0
230
1
40
0.217807
41
3.14159265358979
42
-1.5707963267949
0
ELLIPSE
5
3BE
100
AcDbEntity
8
1
62
256
6
ByLayer
370
13
48
1
60
0
100
AcDbEllipse
10
8.9
20
-15.331139
30
0
11
0.1
21
0
31
0
210
0
220
0
230
1
40
0.217807
41
1.5707963267949
42
3.14159265358979
0
ELLIPSE
5
3BF
100
AcDbEntity
8
1
62
256
6
ByLayer
370
18
48
1
60
0
100
AcDbEllipse
10
2.78498
20
76.335589
30
0
11
0.0175436908817991
21
0.149865587763719
31
0
210
0
220
0
230
1
40
0.361878
41
-2.30513073391886
42
-1.25793318273087
0
ELLIPSE
5
3C0
100
AcDbEntity
8
1
62
256
6
ByLayer
370
18
48
1
60
0
100
AcDbEllipse
10
10.3
20
-15.331139
30
0
11
-1.5
21
1.83690953073357E-16
31
0
210
0
220
0
230
1
40
0.975992
41
0
42
3.14159265358979
0
ELLIPSE
5
3C1
100
AcDbEntity
8
1
62
256
6
ByLayer
370
18
48
1
60
0
100
AcDbEllipse
10
13.21502
20
10.932858
30
0
11
0.0554001762171675
21
0.149918125165468
31
0
210
0
220
0
230
1
40
0.089447
41
1.85691091735581
42
2.90410846855224
0
ELLIPSE
5
3C2
100
AcDbEntity
8
1
62
256
6
ByLayer
370
18
48
1
60
0
100
AcDbEllipse
10
13.21502
20
10.871438
30
0
11
0.0554001762178903
21
0.149918125167625
31
0
210
0
220
0
230
1
40
0.089447
41
2.9041084685539
42
-2.33187928743728
0
ELLIPSE
5
3C3
100
AcDbEntity
8
1
62
256
6
ByLayer
370
18
48
1
60
0
100
AcDbEllipse
10
13.38982
20
11.144989
30
0
11
0.0627868663795267
21
0.169907208521045
31
0
210
0
220
0
230
1
40
0.089447
41
-1.28468173623312
42
0.809713366158134
0
ELLIPSE
5
3C4
100
AcDbEntity
8
1
62
256
6
ByLayer
370
18
48
1
60
0
100
AcDbEllipse
10
13.21502
20
10.532
30
0
11
0.0554001762157473
21
0.149918125162259
31
0
210
0
220
0
230
1
40
0.089447
41
1.85691091734024
42
2.90410846855141
0
ELLIPSE
5
3C5
100
AcDbEntity
8
1
62
256
6
ByLayer
370
18
48
1
60
0
100
AcDbEllipse
10
13.21502
20
10.470581
30
0
11
0.0554001762187652
21
0.149918125170158
31
0
210
0
220
0
230
1
40
0.089447
41
2.90410846855578
42
-2.33187928744445
0
ELLIPSE
5
3C6
100
AcDbEntity
8
1
62
256
6
ByLayer
370
18
48
1
60
0
100
AcDbEllipse
10
13.38982
20
10.744132
30
0
11
0.0627868663793811
21
0.169907208520677
31
0
210
0
220
0
230
1
40
0.089447
41
-1.28468173623478
42
0.809713366159127
0
ELLIPSE
5
3C7
100
AcDbEntity
8
1
62
256
6
ByLayer
370
18
48
1
60
0
100
AcDbEllipse
10
13.21502
20
10.131143
30
0
11
0.0554001762171106
21
0.149918125165316
31
0
210
0
220
0
230
1
40
0.089447
41
1.85691091735547
42
2.90410846855161
0
ELLIPSE
5
3C8
100
AcDbEntity
8
1
62
256
6
ByLayer
370
18
48
1
60
0
100
AcDbEllipse
10
13.21502
20
10.069723
30
0
11
0.0554001762192694
21
0.149918125171635
31
0
210
0
220
0
230
1
40
0.089447
41
2.90410846855699
42
-2.33187928744859
0
ELLIPSE
5
3C9
100
AcDbEntity
8
1
62
256
6
ByLayer
370
18
48
1
60
0
100
AcDbEllipse
10
13.38982
20
10.343274
30
0
11
0.0627868663793607
21
0.169907208520626
31
0
210
0
220
0
230
1
40
0.089447
41
-1.28468173623497
42
0.809713366159279
0
ELLIPSE
5
3CA
100
AcDbEntity
8
1
62
256
6
ByLayer
370
18
48
1
60
0
100
AcDbEllipse
10
13.21502
20
9.730285
30
0
11
0.0554001762173874
21
0.149918125165944
31
0
210
0
220
0
230
1
40
0.089447
41
1.85691091735869
42
2.90410846855227
0
ELLIPSE
5
3CB
100
AcDbEntity
8
1
62
256
6
ByLayer
370
18
48
1
60
0
100
AcDbEllipse
10
13.21502
20
9.668866
30
0
11
0.0554001762178189
21
0.149918125167364
31
0
210
0
220
0
230
1
40
0.089447
41
2.90410846855374
42
-2.33187928743645
0
ELLIPSE
5
3CC
100
AcDbEntity
8
1
62
256
6
ByLayer
370
18
48
1
60
0
100
AcDbEllipse
10
13.38982
20
9.942417
30
0
11
0.0627868663794096
21
0.169907208520749
31
0
210
0
220
0
230
1
40
0.089447
41
-1.28468173623442
42
0.809713366158987
0
ELLIPSE
5
3CD
100
AcDbEntity
8
1
62
256
6
ByLayer
370
18
48
1
60
0
100
AcDbEllipse
10
13.21502
20
9.329427
30
0
11
0.0554001762167551
21
0.149918125164575
31
0
210
0
220
0
230
1
40
0.089447
41
1.85691091735189
42
2.90410846855267
0
ELLIPSE
5
3CE
100
AcDbEntity
8
1
62
256
6
ByLayer
370
18
48
1
60
0
100
AcDbEllipse
10
13.21502
20
9.268008
30
0
11
0.0554001762172225
21
0.149918125165658
31
0
210
0
220
0
230
1
40
0.089447
41
2.90410846855241
42
-2.33187928743174
0
ELLIPSE
5
3CF
100
AcDbEntity
8
1
62
256
6
ByLayer
370
18
48
1
60
0
100
AcDbEllipse
10
13.38982
20
9.541559
30
0
11
0.0627868663794154
21
0.169907208520761
31
0
210
0
220
0
230
1
40
0.089447
41
-1.2846817362344
42
0.809713366159084
0
ELLIPSE
5
3D0
100
AcDbEntity
8
1
62
256
6
ByLayer
370
18
48
1
60
0
100
AcDbEllipse
10
13.21502
20
8.92857
30
0
11
0.0554001762167541
21
0.149918125164548
31
0
210
0
220
0
230
1
40
0.089447
41
1.85691091735172
42
2.90410846855213
0
ELLIPSE
5
3D1
100
AcDbEntity
8
1
62
256
6
ByLayer
370
18
48
1
60
0
100
AcDbEllipse
10
13.21502
20
8.867151
30
0
11
0.0554001762178191
21
0.149918125167365
31
0
210
0
220
0
230
1
40
0.089447
41
2.90410846855362
42
-2.33187928743645
0
ELLIPSE
5
3D2
100
AcDbEntity
8
1
62
256
6
ByLayer
370
18
48
1
60
0
100
AcDbEllipse
10
13.38982
20
9.140701
30
0
11
0.0627868663794559
21
0.169907208520856
31
0
210
0
220
0
230
1
40
0.089447
41
-1.28468173623391
42
0.809713366158663
0
ELLIPSE
5
3D3
100
AcDbEntity
8
1
62
256
6
ByLayer
370
18
48
1
60
0
100
AcDbEllipse
10
13.21502
20
8.527712
30
0
11
0.0554001762166154
21
0.149918125164246
31
0
210
0
220
0
230
1
40
0.089447
41
1.85691091735022
42
2.90410846855226
0
ELLIPSE
5
3D4
100
AcDbEntity
8
1
62
256
6
ByLayer
370
18
48
1
60
0
100
AcDbEllipse
10
13.21502
20
8.466293
30
0
11
0.0554001762169254
21
0.149918125164763
31
0
210
0
220
0
230
1
40
0.089447
41
2.9041084685515
42
-2.33187928742915
0
ELLIPSE
5
3D5
100
AcDbEntity
8
1
62
256
6
ByLayer
370
18
48
1
60
0
100
AcDbEllipse
10
13.38982
20
8.739844
30
0
11
0.0627868663793905
21
0.169907208520702
31
0
210
0
220
0
230
1
40
0.089447
41
-1.28468173623465
42
0.809713366159132
0
ELLIPSE
5
3D6
100
AcDbEntity
8
1
62
256
6
ByLayer
370
18
48
1
60
0
100
AcDbEllipse
10
13.21502
20
8.126855
30
0
11
0.0554001762168967
21
0.149918125164828
31
0
210
0
220
0
230
1
40
0.089447
41
1.85691091735301
42
2.90410846855158
0
ELLIPSE
5
3D7
100
AcDbEntity
8
1
62
256
6
ByLayer
370
18
48
1
60
0
100
AcDbEllipse
10
13.21502
20
8.065436
30
0
11
0.055400176217892
21
0.149918125167576
31
0
210
0
220
0
230
1
40
0.089447
41
2.9041084685537
42
-2.33187928743717
0
ELLIPSE
5
3D8
100
AcDbEntity
8
1
62
256
6
ByLayer
370
18
48
1
60
0
100
AcDbEllipse
10
13.38982
20
8.338986
30
0
11
0.0627868663793588
21
0.169907208520626
31
0
210
0
220
0
230
1
40
0.089447
41
-1.28468173623502
42
0.809713366159447
0
ELLIPSE
5
3D9
100
AcDbEntity
8
1
62
256
6
ByLayer
370
18
48
1
60
0
100
AcDbEllipse
10
13.21502
20
7.725997
30
0
11
0.0554001762158907
21
0.149918125162615
31
0
210
0
220
0
230
1
40
0.089447
41
1.85691091734211
42
2.90410846855193
0
ELLIPSE
5
3DA
100
AcDbEntity
8
1
62
256
6
ByLayer
370
18
48
1
60
0
100
AcDbEllipse
10
13.21502
20
7.664578
30
0
11
0.0554001762177418
21
0.149918125167151
31
0
210
0
220
0
230
1
40
0.089447
41
2.9041084685534
42
-2.33187928743591
0
ELLIPSE
5
3DB
100
AcDbEntity
8
1
62
256
6
ByLayer
370
18
48
1
60
0
100
AcDbEllipse
10
13.38982
20
7.938129
30
0
11
0.0627868663794878
21
0.169907208520963
31
0
210
0
220
0
230
1
40
0.089447
41
-1.28468173623354
42
0.809713366158412
0
ELLIPSE
5
3DC
100
AcDbEntity
8
1
62
256
6
ByLayer
370
18
48
1
60
0
100
AcDbEllipse
10
13.21502
20
7.32514
30
0
11
0.0554001762155983
21
0.149918125161965
31
0
210
0
220
0
230
1
40
0.089447
41
1.85691091733893
42
2.90410846855213
0
ELLIPSE
5
3DD
100
AcDbEntity
8
1
62
256
6
ByLayer
370
18
48
1
60
0
100
AcDbEllipse
10
13.21502
20
7.26372
30
0
11
0.0554001762168674
21
0.14991812516462
31
0
210
0
220
0
230
1
40
0.089447
41
2.90410846855152
42
-2.33187928742869
0
ELLIPSE
5
3DE
100
AcDbEntity
8
1
62
256
6
ByLayer
370
18
48
1
60
0
100
AcDbEllipse
10
13.38982
20
7.537271
30
0
11
0.0627868663793839
21
0.169907208520691
31
0
210
0
220
0
230
1
40
0.089447
41
-1.28468173623471
42
0.809713366159129
0
ELLIPSE
5
3DF
100
AcDbEntity
8
1
62
256
6
ByLayer
370
18
48
1
60
0
100
AcDbEllipse
10
13.21502
20
6.924282
30
0
11
0.0554001762183724
21
0.149918125168172
31
0
210
0
220
0
230
1
40
0.089447
41
1.85691091736976
42
2.90410846855256
0
ELLIPSE
5
3E0
100
AcDbEntity
8
1
62
256
6
ByLayer
370
18
48
1
60
0
100
AcDbEllipse
10
13.21502
20
6.862863
30
0
11
0.0554001762170361
21
0.149918125165098
31
0
210
0
220
0
230
1
40
0.089447
41
2.9041084685519
42
-2.33187928743004
0
ELLIPSE
5
3E1
100
AcDbEntity
8
1
62
256
6
ByLayer
370
18
48
1
60
0
100
AcDbEllipse
10
13.38982
20
7.136414
30
0
11
0.0627868663793949
21
0.169907208520716
31
0
210
0
220
0
230
1
40
0.089447
41
-1.28468173623458
42
0.809713366159054
0
ELLIPSE
5
3E2
100
AcDbEntity
8
1
62
256
6
ByLayer
370
18
48
1
60
0
100
AcDbEllipse
10
2.61018
20
7.136414
30
0
11
0.0627868663793994
21
-0.169907208520723
31
0
210
0
220
0
230
1
40
0.089447
41
2.33187928743094
42
-1.85691091735524
0
ELLIPSE
5
3E3
100
AcDbEntity
8
1
62
256
6
ByLayer
370
18
48
1
60
0
100
AcDbEllipse
10
2.78498
20
6.862863
30
0
11
0.0554001762169163
21
-0.14991812516478
31
0
210
0
220
0
230
1
40
0.089447
41
-0.809713366160709
42
0.237484185038085
0
ELLIPSE
5
3E4
100
AcDbEntity
8
1
62
256
6
ByLayer
370
18
48
1
60
0
100
AcDbEllipse
10
2.78498
20
6.924282
30
0
11
0.0554001762170402
21
-0.14991812516517
31
0
210
0
220
0
230
1
40
0.089447
41
0.237484185037849
42
1.2846817362354
0
ELLIPSE
5
3E5
100
AcDbEntity
8
1
62
256
6
ByLayer
370
18
48
1
60
0
100
AcDbEllipse
10
2.61018
20
7.537271
30
0
11
0.0627868663794415
21
-0.169907208520833
31
0
210
0
220
0
230
1
40
0.089447
41
2.33187928743115
42
-1.85691091735573
0
ELLIPSE
5
3E6
100
AcDbEntity
8
1
62
256
6
ByLayer
370
18
48
1
60
0
100
AcDbEllipse
10
2.78498
20
7.26372
30
0
11
0.0554001762169209
21
-0.149918125164785
31
0
210
0
220
0
230
1
40
0.089447
41
-0.809713366160671
42
0.237484185038139
0
ELLIPSE
5
3E7
100
AcDbEntity
8
1
62
256
6
ByLayer
370
18
48
1
60
0
100
AcDbEllipse
10
2.78498
20
7.32514
30
0
11
0.0554001762166327
21
-0.149918125164273
31
0
210
0
220
0
230
1
40
0.089447
41
0.237484185037739
42
1.28468173623986
0
ELLIPSE
5
3E8
100
AcDbEntity
8
1
62
256
6
ByLayer
370
18
48
1
60
0
100
AcDbEllipse
10
2.61018
20
7.938129
30
0
11
0.0627868663794156
21
-0.169907208520767
31
0
210
0
220
0
230
1
40
0.089447
41
2.33187928743104
42
-1.85691091735544
0
ELLIPSE
5
3E9
100
AcDbEntity
8
1
62
256
6
ByLayer
370
18
48
1
60
0
100
AcDbEllipse
10
2.78498
20
7.664578
30
0
11
0.0554001762180925
21
-0.149918125168157
31
0
210
0
220
0
230
1
40
0.089447
41
-0.809713366151017
42
0.237484185035546
0
ELLIPSE
5
3EA
100
AcDbEntity
8
1
62
256
6
ByLayer
370
18
48
1
60
0
100
AcDbEllipse
10
2.78498
20
7.725997
30
0
11
0.0554001762175209
21
-0.149918125166261
31
0
210
0
220
0
230
1
40
0.089447
41
0.237484185037517
42
1.28468173622999
0
ELLIPSE
5
3EB
100
AcDbEntity
8
1
62
256
6
ByLayer
370
18
48
1
60
0
100
AcDbEllipse
10
2.61018
20
8.338986
30
0
11
0.0627868663793965
21
-0.169907208520719
31
0
210
0
220
0
230
1
40
0.089447
41
2.33187928743076
42
-1.8569109173552
0
ELLIPSE
5
3EC
100
AcDbEntity
8
1
62
256
6
ByLayer
370
18
48
1
60
0
100
AcDbEllipse
10
2.78498
20
8.065436
30
0
11
0.0554001762175333
21
-0.149918125166537
31
0
210
0
220
0
230
1
40
0.089447
41
-0.809713366155671
42
0.237484185036863
0
ELLIPSE
5
3ED
100
AcDbEntity
8
1
62
256
6
ByLayer
370
18
48
1
60
0
100
AcDbEllipse
10
2.78498
20
8.126855
30
0
11
0.0554001762171635
21
-0.149918125165448
31
0
210
0
220
0
230
1
40
0.089447
41
0.237484185038092
42
1.28468173623407
0
ELLIPSE
5
3EE
100
AcDbEntity
8
1
62
256
6
ByLayer
370
18
48
1
60
0
100
AcDbEllipse
10
2.61018
20
8.739844
30
0
11
0.0627868663794264
21
-0.169907208520791
31
0
210
0
220
0
230
1
40
0.089447
41
2.33187928743105
42
-1.85691091735555
0
ELLIPSE
5
3EF
100
AcDbEntity
8
1
62
256
6
ByLayer
370
18
48
1
60
0
100
AcDbEllipse
10
2.78498
20
8.466293
30
0
11
0.0554001762167517
21
-0.149918125164267
31
0
210
0
220
0
230
1
40
0.089447
41
-0.809713366162087
42
0.237484185038708
0
ELLIPSE
5
3F0
100
AcDbEntity
8
1
62
256
6
ByLayer
370
18
48
1
60
0
100
AcDbEllipse
10
2.78498
20
8.527712
30
0
11
0.0554001762162855
21
-0.149918125163475
31
0
210
0
220
0
230
1
40
0.089447
41
0.237484185038288
42
1.28468173624396
0
ELLIPSE
5
3F1
100
AcDbEntity
8
1
62
256
6
ByLayer
370
18
48
1
60
0
100
AcDbEllipse
10
2.61018
20
9.140701
30
0
11
0.0627868663794394
21
-0.169907208520827
31
0
210
0
220
0
230
1
40
0.089447
41
2.33187928743112
42
-1.85691091735571
0
ELLIPSE
5
3F2
100
AcDbEntity
8
1
62
256
6
ByLayer
370
18
48
1
60
0
100
AcDbEllipse
10
2.78498
20
8.867151
30
0
11
0.0554001762171193
21
-0.149918125165349
31
0
210
0
220
0
230
1
40
0.089447
41
-0.809713366159069
42
0.237484185037617
0
ELLIPSE
5
3F3
100
AcDbEntity
8
1
62
256
6
ByLayer
370
18
48
1
60
0
100
AcDbEllipse
10
2.78498
20
8.92857
30
0
11
0.0554001762183876
21
-0.149918125168225
31
0
210
0
220
0
230
1
40
0.089447
41
0.237484185036829
42
1.28468173622012
0
ELLIPSE
5
3F4
100
AcDbEntity
8
1
62
256
6
ByLayer
370
18
48
1
60
0
100
AcDbEllipse
10
2.61018
20
9.541559
30
0
11
0.0627868663793784
21
-0.169907208520675
31
0
210
0
220
0
230
1
40
0.089447
41
2.33187928743063
42
-1.856910917355
0
ELLIPSE
5
3F5
100
AcDbEntity
8
1
62
256
6
ByLayer
370
18
48
1
60
0
100
AcDbEllipse
10
2.78498
20
9.268008
30
0
11
0.0554001762173851
21
-0.14991812516609
31
0
210
0
220
0
230
1
40
0.089447
41
-0.809713366156958
42
0.237484185037192
0
ELLIPSE
5
3F6
100
AcDbEntity
8
1
62
256
6
ByLayer
370
18
48
1
60
0
100
AcDbEllipse
10
2.78498
20
9.329427
30
0
11
0.0554001762175894
21
-0.149918125166413
31
0
210
0
220
0
230
1
40
0.089447
41
0.237484185037648
42
1.2846817362292
0
ELLIPSE
5
3F7
100
AcDbEntity
8
1
62
256
6
ByLayer
370
18
48
1
60
0
100
AcDbEllipse
10
2.61018
20
9.942417
30
0
11
0.06278686637937
21
-0.169907208520657
31
0
210
0
220
0
230
1
40
0.089447
41
2.33187928743068
42
-1.85691091735495
0
ELLIPSE
5
3F8
100
AcDbEntity
8
1
62
256
6
ByLayer
370
18
48
1
60
0
100
AcDbEllipse
10
2.78498
20
9.668866
30
0
11
0.0554001762182942
21
-0.14991812516874
31
0
210
0
220
0
230
1
40
0.089447
41
-0.809713366149385
42
0.237484185034996
0
ELLIPSE
5
3F9
100
AcDbEntity
8
1
62
256
6
ByLayer
370
18
48
1
60
0
100
AcDbEllipse
10
2.78498
20
9.730285
30
0
11
0.0554001762172617
21
-0.149918125165673
31
0
210
0
220
0
230
1
40
0.089447
41
0.237484185037849
42
1.28468173623298
0
ELLIPSE
5
3FA
100
AcDbEntity
8
1
62
256
6
ByLayer
370
18
48
1
60
0
100
AcDbEllipse
10
2.61018
20
10.343274
30
0
11
0.0627868663794389
21
-0.169907208520823
31
0
210
0
220
0
230
1
40
0.089447
41
2.33187928743111
42
-1.85691091735572
0
ELLIPSE
5
3FB
100
AcDbEntity
8
1
62
256
6
ByLayer
370
18
48
1
60
0
100
AcDbEllipse
10
2.78498
20
10.069723
30
0
11
0.0554001762174704
21
-0.149918125166365
31
0
210
0
220
0
230
1
40
0.089447
41
-0.809713366156161
42
0.237484185037012
0
ELLIPSE
5
3FC
100
AcDbEntity
8
1
62
256
6
ByLayer
370
18
48
1
60
0
100
AcDbEllipse
10
2.78498
20
10.131143
30
0
11
0.0554001762169584
21
-0.149918125164986
31
0
210
0
220
0
230
1
40
0.089447
41
0.237484185037962
42
1.28468173623636
0
ELLIPSE
5
3FD
100
AcDbEntity
8
1
62
256
6
ByLayer
370
18
48
1
60
0
100
AcDbEllipse
10
2.61018
20
10.744132
30
0
11
0.0627868663794106
21
-0.169907208520753
31
0
210
0
220
0
230
1
40
0.089447
41
2.33187928743098
42
-1.85691091735537
0
ELLIPSE
5
3FE
100
AcDbEntity
8
1
62
256
6
ByLayer
370
18
48
1
60
0
100
AcDbEllipse
10
2.78498
20
10.470581
30
0
11
0.0554001762170235
21
-0.149918125165063
31
0
210
0
220
0
230
1
40
0.089447
41
-0.809713366159817
42
0.237484185037818
0
ELLIPSE
5
3FF
100
AcDbEntity
8
1
62
256
6
ByLayer
370
18
48
1
60
0
100
AcDbEllipse
10
2.78498
20
10.532
30
0
11
0.0554001762170393
21
-0.149918125165178
31
0
210
0
220
0
230
1
40
0.089447
41
0.237484185037774
42
1.28468173623543
0
ELLIPSE
5
400
100
AcDbEntity
8
1
62
256
6
ByLayer
370
18
48
1
60
0
100
AcDbEllipse
10
2.61018
20
11.144989
30
0
11
0.0627868663793715
21
-0.169907208520661
31
0
210
0
220
0
230
1
40
0.089447
41
2.33187928743069
42
-1.85691091735498
0
ELLIPSE
5
401
100
AcDbEntity
8
1
62
256
6
ByLayer
370
18
48
1
60
0
100
AcDbEllipse
10
2.78498
20
10.871438
30
0
11
0.0554001762170161
21
-0.149918125165041
31
0
210
0
220
0
230
1
40
0.089447
41
-0.809713366159946
42
0.237484185037853
0
ELLIPSE
5
402
100
AcDbEntity
8
1
62
256
6
ByLayer
370
18
48
1
60
0
100
AcDbEllipse
10
2.78498
20
10.932858
30
0
11
0.0554001762182516
21
-0.149918125167929
31
0
210
0
220
0
230
1
40
0.089447
41
0.237484185036554
42
1.28468173622163
0
POINT
5
70
100
AcDbEntity
8
80
62
256
6
ByLayer
370
18
48
1
60
0
100
AcDbPoint
10
0
20
0
30
0
39
0
210
0
220
0
230
1
50
360
0
POINT
5
72
100
AcDbEntity
8
81
62
256
6
ByLayer
370
18
48
1
60
0
100
AcDbPoint
10
14
20
80
30
0
39
0
210
0
220
0
230
1
50
360
0
POINT
5
74
100
AcDbEntity
8
1
62
256
6
ByLayer
370
18
48
1
60
1
100
AcDbPoint
10
14
20
80
30
0
39
0
210
0
220
0
230
1
50
360
0
POINT
5
76
100
AcDbEntity
8
1
62
256
6
ByLayer
370
18
48
1
60
1
100
AcDbPoint
10
6.4
20
80
30
0
39
0
210
0
220
0
230
1
50
360
0
POINT
5
77
100
AcDbEntity
8
1
62
256
6
ByLayer
370
18
48
1
60
1
100
AcDbPoint
10
0
20
-27.5
30
0
39
0
210
0
220
0
230
1
50
360
0
POINT
5
78
100
AcDbEntity
8
1
62
256
6
ByLayer
370
18
48
1
60
1
100
AcDbPoint
10
16
20
-27.5
30
0
39
0
210
0
220
0
230
1
50
360
0
POINT
5
79
100
AcDbEntity
8
1
62
256
6
ByLayer
370
18
48
1
60
1
100
AcDbPoint
10
2.5
20
80
30
0
39
0
210
0
220
0
230
1
50
360
0
SPLINE
5
403
100
AcDbEntity
8
1
62
256
6
ByLayer
370
18
48
1
60
0
100
AcDbSpline
70
4
71
3
72
18
73
14
40
0
40
0
40
0
40
0
40
0.125000000000007
40
0.125000000000007
40
0.250000000000014
40
0.250000000000014
40
0.37500000000002
40
0.37500000000002
40
0.500000000000027
40
0.500000000000027
40
0.750000000000014
40
0.750000000000014
40
1
40
1
40
1
40
1
41
1
10
2.5
20
75.9948717004949
30
0
41
1
10
2.5
20
76.0354699581233
30
0
41
1
10
2.50262980054646
20
76.0768062560427
30
0
41
1
10
2.51284673720539
20
76.1601218787392
30
0
41
1
10
2.52021380636529
20
76.200437517737
30
0
41
1
10
2.53812473086975
20
76.2779384492214
30
0
41
1
10
2.54837518696769
20
76.3139941411383
30
0
41
1
10
2.57054415912182
20
76.3823283805681
30
0
41
1
10
2.58256902143239
20
76.4148148578142
30
0
41
1
10
2.61983537127014
20
76.5063879184713
30
0
41
1
10
2.64620940008831
20
76.5599660612558
30
0
41
1
10
2.70069027141341
20
76.6586603691741
30
0
41
1
10
2.72888961154621
20
76.7036734317482
30
0
41
1
10
2.75729372288259
20
76.7450297421539
30
0
0
SPLINE
5
404
100
AcDbEntity
8
1
62
256
6
ByLayer
370
18
48
1
60
0
100
AcDbSpline
70
4
71
3
72
18
73
14
40
0
40
0
40
0
40
0
40
0.124999999999998
40
0.124999999999998
40
0.249999999999996
40
0.249999999999996
40
0.374999999999994
40
0.374999999999994
40
0.499999999999993
40
0.499999999999993
40
0.749999999999996
40
0.749999999999996
40
1
40
1
40
1
40
1
41
1
10
12.9719189110768
20
-76.8815320399239
30
0
41
1
10
12.9590575515743
20
-76.8859305475459
30
0
41
1
10
12.943482407954
20
-76.8919700777246
30
0
41
1
10
12.9091588074854
20
-76.9049006738317
30
0
41
1
10
12.8908382395752
20
-76.9116597873962
30
0
41
1
10
12.8530581567046
20
-76.9247106962853
30
0
41
1
10
12.8334179903051
20
-76.9310760405722
30
0
41
1
10
12.7933946377139
20
-76.9429305065807
30
0
41
1
10
12.7731593063164
20
-76.9483838374103
30
0
41
1
10
12.7118765217908
20
-76.9631167696583
30
0
41
1
10
12.6702586315713
20
-76.9707645318712
30
0
41
1
10
12.5857195715674
20
-76.9810882624844
30
0
41
1
10
12.5428396123707
20
-76.9837420640224
30
0
41
1
10
12.5
20
-76.9837420640223
30
0
0
SPLINE
5
405
100
AcDbEntity
8
1
62
256
6
ByLayer
370
18
48
1
60
0
100
AcDbSpline
70
4
71
3
72
10
73
6
40
0
40
0
40
0
40
0
40
0.5
40
0.5
40
1
40
1
40
1
40
1
41
1
10
13.242706277112
20
-76.7450297421593
30
0
41
1
10
13.2092462842748
20
-76.769107433716
30
0
41
1
10
13.171427958829
20
-76.7926894748624
30
0
41
1
10
13.0832189494631
20
-76.838423768473
30
0
41
1
10
13.0331034044688
20
-76.8606073110506
30
0
41
1
10
12.9719189110768
20
-76.8815320399239
30
0
0
SPLINE
5
406
100
AcDbEntity
8
1
62
256
6
ByLayer
370
18
48
1
60
0
100
AcDbSpline
70
4
71
3
72
22
73
18
40
0
40
0
40
0
40
0
40
0.249999999999966
40
0.249999999999966
40
0.499999999999932
40
0.499999999999932
40
0.62499999999993
40
0.62499999999993
40
0.749999999999927
40
0.749999999999927
40
0.812499999999945
40
0.812499999999945
40
0.874999999999964
40
0.874999999999964
40
0.937499999999982
40
0.937499999999982
40
1
40
1
40
1
40
1
41
1
10
13.2427062771121
20
-76.7450297421593
30
0
41
1
10
13.2710440307116
20
-76.703770048442
30
0
41
1
10
13.2990608780648
20
-76.6591022987328
30
0
41
1
10
13.3539224002231
20
-76.5597361539874
30
0
41
1
10
13.3804384006202
20
-76.5058229524345
30
0
41
1
10
13.417807851108
20
-76.413833785473
30
0
41
1
10
13.4296558034096
20
-76.3817437022104
30
0
41
1
10
13.4516577470352
20
-76.3138605958309
30
0
41
1
10
13.4618321961995
20
-76.2780778961161
30
0
41
1
10
13.4752183299901
20
-76.2202259285171
30
0
41
1
10
13.4793465466115
20
-76.2002528213499
30
0
41
1
10
13.4865531353169
20
-76.159994685473
30
0
41
1
10
13.4896686202087
20
-76.1395603308308
30
0
41
1
10
13.4947784546224
20
-76.0979899793087
30
0
41
1
10
13.4967580008336
20
-76.0768261768433
30
0
41
1
10
13.4993536442603
20
-76.0354502624941
30
0
41
1
10
13.5
20
-76.0150287862134
30
0
41
1
10
13.5
20
-75.9948717004949
30
0
0
SPLINE
5
407
100
AcDbEntity
8
1
62
256
6
ByLayer
370
18
48
1
60
0
100
AcDbSpline
70
4
71
3
72
18
73
14
40
0
40
0
40
0
40
0
40
0.125000000000008
40
0.125000000000008
40
0.250000000000015
40
0.250000000000015
40
0.375000000000023
40
0.375000000000023
40
0.500000000000031
40
0.500000000000031
40
0.750000000000015
40
0.750000000000015
40
1
40
1
40
1
40
1
41
1
10
2.5
20
-75.9948717004949
30
0
41
1
10
2.5
20
-76.035469958124
30
0
41
1
10
2.50262980054652
20
-76.076806256044
30
0
41
1
10
2.51284673720579
20
-76.1601218787417
30
0
41
1
10
2.52021380636586
20
-76.2004375177401
30
0
41
1
10
2.53812473087083
20
-76.2779384492255
30
0
41
1
10
2.54837518696894
20
-76.3139941411426
30
0
41
1
10
2.57054415912358
20
-76.3823283805731
30
0
41
1
10
2.58256902143438
20
-76.4148148578195
30
0
41
1
10
2.61983537127293
20
-76.5063879184773
30
0
41
1
10
2.64620940009155
20
-76.5599660612622
30
0
41
1
10
2.70069027141767
20
-76.6586603691813
30
0
41
1
10
2.72888961155093
20
-76.7036734317556
30
0
41
1
10
2.75729372288777
20
-76.7450297421615
30
0
0
SPLINE
5
408
100
AcDbEntity
8
1
62
256
6
ByLayer
370
18
48
1
60
0
100
AcDbSpline
70
4
71
3
72
10
73
6
40
0
40
0
40
0
40
0
40
0.5
40
0.5
40
1
40
1
40
1
40
1
41
1
10
3.02808108892293
20
-76.8815320399239
30
0
41
1
10
2.96717962322708
20
-76.8607041048209
30
0
41
1
10
2.91707434456953
20
-76.8385600762884
30
0
41
1
10
2.82879003600442
20
-76.7928181672698
30
0
41
1
10
2.7908671515674
20
-76.7691890617437
30
0
41
1
10
2.75729372288794
20
-76.7450297421593
30
0
0
SPLINE
5
409
100
AcDbEntity
8
1
62
256
6
ByLayer
370
18
48
1
60
0
100
AcDbSpline
70
4
71
3
72
16
73
12
40
0
40
0
40
0
40
0
40
0.249999999999994
40
0.249999999999994
40
0.499999999999988
40
0.499999999999988
40
0.749999999999982
40
0.749999999999982
40
0.874999999999991
40
0.874999999999991
40
1
40
1
40
1
40
1
41
1
10
3.5
20
-76.9837420640222
30
0
41
1
10
3.45708268322971
20
-76.9837420640222
30
0
41
1
10
3.41464646486088
20
-76.9811052506937
30
0
41
1
10
3.33074967625589
20
-76.9709149254053
30
0
41
1
10
3.28928752275368
20
-76.9633525720898
30
0
41
1
10
3.20751795206581
20
-76.9437813156733
30
0
41
1
10
3.16676408700732
20
-76.9315392396681
30
0
41
1
10
3.1096654471458
20
-76.9118430114372
30
0
41
1
10
3.09108824166128
20
-76.9049922959586
30
0
41
1
10
3.05690293321158
20
-76.8921166670968
30
0
41
1
10
3.04092457926925
20
-76.8859244364012
30
0
41
1
10
3.02808108891867
20
-76.8815320399216
30
0
0
SPLINE
5
40A
100
AcDbEntity
8
1
62
256
6
ByLayer
370
18
48
1
60
0
100
AcDbSpline
70
4
71
3
72
29
73
25
40
0
40
0
40
0
40
0
40
0.0625000000000125
40
0.0625000000000125
40
0.125000000000025
40
0.125000000000025
40
0.250000000000024
40
0.250000000000024
40
0.312500000000024
40
0.312500000000024
40
0.375000000000024
40
0.375000000000024
40
0.500000000000023
40
0.500000000000023
40
0.562500000000023
40
0.562500000000023
40
0.625000000000023
40
0.687500000000023
40
0.687500000000023
40
0.750000000000022
40
0.750000000000022
40
0.875000000000011
40
0.875000000000011
40
1
40
1
40
1
40
1
41
1
10
2.5
20
-73.8577643597206
30
0
41
1
10
2.5
20
-73.8914349104655
30
0
41
1
10
2.50150263266227
20
-73.9254322999089
30
0
41
1
10
2.50747584248427
20
-73.9925512669888
30
0
41
1
10
2.51193454499253
20
-74.0257942399197
30
0
41
1
10
2.52968272543251
20
-74.1245818377141
30
0
41
1
10
2.54730362105261
20
-74.1891941573912
30
0
41
1
10
2.58294219701821
20
-74.2841212724105
30
0
41
1
10
2.59641258857738
20
-74.3154795779861
30
0
41
1
10
2.62592312721813
20
-74.3761274861933
30
0
41
1
10
2.64202072545226
20
-74.40559295148
30
0
41
1
10
2.69432748327796
20
-74.4914196366398
30
0
41
1
10
2.73450958323508
20
-74.545237554755
30
0
41
1
10
2.80337443485922
20
-74.6204521410119
30
0
41
1
10
2.8275686297971
20
-74.6443546135826
30
0
41
1
10
2.87779893256095
20
-74.6892499236874
30
0
41
1
10
2.93004996757321
20
-74.7314333044086
30
0
41
1
10
2.98634811163697
20
-74.7681825193783
30
0
41
1
10
3.04473301552599
20
-74.802128475675
30
0
41
1
10
3.07516704889162
20
-74.8177808074863
30
0
41
1
10
3.16796250387784
20
-74.8594926841187
30
0
41
1
10
3.2318223816111
20
-74.8804991735726
30
0
41
1
10
3.36350648786066
20
-74.9090001407595
30
0
41
1
10
3.43176363312091
20
-74.9164122726724
30
0
41
1
10
3.5
20
-74.9164122726724
30
0
0
SPLINE
5
40B
100
AcDbEntity
8
1
62
256
6
ByLayer
370
18
48
1
60
0
100
AcDbSpline
70
4
71
3
72
27
73
23
40
0
40
0
40
0
40
0
40
0.124999999999994
40
0.124999999999994
40
0.187499999999992
40
0.187499999999992
40
0.249999999999989
40
0.249999999999989
40
0.374999999999991
40
0.374999999999991
40
0.437499999999992
40
0.437499999999992
40
0.499999999999993
40
0.562499999999994
40
0.562499999999994
40
0.624999999999995
40
0.624999999999995
40
0.749999999999997
40
0.749999999999997
40
0.874999999999998
40
0.874999999999998
40
1
40
1
40
1
40
1
41
1
10
12.5
20
-74.9164122726722
30
0
41
1
10
12.5681877017649
20
-74.9164122726723
30
0
41
1
10
12.6351360578583
20
-74.9091874560569
30
0
41
1
10
12.7337820550949
20
-74.8879950733256
30
0
41
1
10
12.7663655636114
20
-74.8791911135499
30
0
41
1
10
12.8309208958618
20
-74.858018338383
30
0
41
1
10
12.8627157506118
20
-74.8456854820141
30
0
41
1
10
12.9550406874966
20
-74.8042364257965
30
0
41
1
10
13.0132083695698
20
-74.770503635975
30
0
41
1
10
13.0954373346225
20
-74.7108524846304
30
0
41
1
10
13.1220546934211
20
-74.6893771226356
30
0
41
1
10
13.1724575407737
20
-74.6443348425527
30
0
41
1
10
13.220333489266
20
-74.5970038025056
30
0
41
1
10
13.2633111030798
20
-74.545239416737
30
0
41
1
10
13.3038475908555
20
-74.4912673151342
30
0
41
1
10
13.322983365372
20
-74.4630227427339
30
0
41
1
10
13.3758505898486
20
-74.3762544022505
30
0
41
1
10
13.4051383736376
20
-74.3157960788363
30
0
41
1
10
13.4524403405078
20
-74.1899495358223
30
0
41
1
10
13.4704795859109
20
-74.1239805880585
30
0
41
1
10
13.4941369003839
20
-73.9916938928325
30
0
41
1
10
13.5
20
-73.9249988498958
30
0
41
1
10
13.5
20
-73.8577643597206
30
0
0
SPLINE
5
40C
100
AcDbEntity
8
1
62
256
6
ByLayer
370
18
48
1
60
0
100
AcDbSpline
70
4
71
3
72
16
73
12
40
0
40
0
40
0
40
0
40
0.24999999999997
40
0.24999999999997
40
0.499999999999939
40
0.499999999999939
40
0.749999999999909
40
0.749999999999909
40
0.874999999999954
40
0.874999999999954
40
1
40
1
40
1
40
1
41
1
10
8.80000000000001
20
-66.1261041659916
30
0
41
1
10
8.80000000000001
20
-66.1114697856524
30
0
41
1
10
8.80163455083823
20
-66.0970837512093
30
0
41
1
10
8.80830923827136
20
-66.0688233859274
30
0
41
1
10
8.813375540967
20
-66.0548129549853
30
0
41
1
10
8.82815704022067
20
-66.0281157420667
30
0
41
1
10
8.83786774938949
20
-66.0153782278789
30
0
41
1
10
8.85729095277543
20
-66.0000882557879
30
0
41
1
10
8.86478200023367
20
-65.9955386859133
30
0
41
1
10
8.88138055785657
20
-65.9890685813526
30
0
41
1
10
8.89060241852457
20
-65.987155069083
30
0
41
1
10
8.89999999999696
20
-65.9871550690826
30
0
0
SPLINE
5
40D
100
AcDbEntity
8
1
62
256
6
ByLayer
370
18
48
1
60
0
100
AcDbSpline
70
4
71
3
72
64
73
60
40
0
40
0
40
0
40
0
40
0.0624999999999973
40
0.0624999999999973
40
0.124999999999995
40
0.124999999999995
40
0.187499999999992
40
0.187499999999992
40
0.218749999999993
40
0.218749999999993
40
0.249999999999995
40
0.249999999999995
40
0.312499999999993
40
0.312499999999993
40
0.343749999999992
40
0.343749999999992
40
0.374999999999991
40
0.374999999999991
40
0.40624999999999
40
0.40624999999999
40
0.437499999999989
40
0.437499999999989
40
0.453124999999988
40
0.453124999999988
40
0.468749999999988
40
0.468749999999988
40
0.484374999999988
40
0.484374999999988
40
0.499999999999987
40
0.499999999999987
40
0.515624999999987
40
0.515624999999987
40
0.531249999999986
40
0.531249999999986
40
0.546874999999986
40
0.546874999999986
40
0.562499999999985
40
0.562499999999985
40
0.593749999999984
40
0.593749999999984
40
0.609374999999983
40
0.609374999999983
40
0.624999999999983
40
0.624999999999983
40
0.687499999999986
40
0.687499999999986
40
0.718749999999988
40
0.718749999999988
40
0.74999999999999
40
0.74999999999999
40
0.812499999999994
40
0.812499999999994
40
0.874999999999998
40
0.874999999999998
40
0.906249999999997
40
0.906249999999997
40
0.937499999999996
40
0.937499999999996
40
1
40
1
40
1
40
1
41
1
10
8.80000000000001
20
-70.3516427803796
30
0
41
1
10
8.80000000000001
20
-70.4906659558988
30
0
41
1
10
8.80768243883693
20
-70.6291294976519
30
0
41
1
10
8.83654679611345
20
-70.905162431217
30
0
41
1
10
8.8577382487245
20
-71.0427306711822
30
0
41
1
10
8.91310352089778
20
-71.3170007629751
30
0
41
1
10
8.94726719261132
20
-71.4537045026456
30
0
41
1
10
9.00883286515773
20
-71.6579818836126
30
0
41
1
10
9.03114517281335
20
-71.7261028982006
30
0
41
1
10
9.07916897279182
20
-71.8611116679191
30
0
41
1
10
9.10486081781914
20
-71.927978128943
30
0
41
1
10
9.18734599934152
20
-72.126479488307
30
0
41
1
10
9.24940133867136
20
-72.2560830987852
30
0
41
1
10
9.35647028339332
20
-72.4447961468979
30
0
41
1
10
9.39466131559055
20
-72.5069344580249
30
0
41
1
10
9.47600098863336
20
-72.6273563447798
30
0
41
1
10
9.51915793418806
20
-72.6857203921873
30
0
41
1
10
9.61181977946637
20
-72.7976698111732
30
0
41
1
10
9.6614678386091
20
-72.8514407851026
30
0
41
1
10
9.7688643468997
20
-72.9515411170206
30
0
41
1
10
9.8258674677457
20
-72.9972429147585
30
0
41
1
10
9.91830400024406
20
-73.0566152436848
30
0
41
1
10
9.95046461877274
20
-73.0749461018692
30
0
41
1
10
10.0168105631216
20
-73.1073510405888
30
0
41
1
10
10.0507526022957
20
-73.1213284024564
30
0
41
1
10
10.1203787005383
20
-73.1442359786216
30
0
41
1
10
10.1560619215438
20
-73.1531685994306
30
0
41
1
10
10.2294410653837
20
-73.1651974329522
30
0
41
1
10
10.2661677191207
20
-73.168115282934
30
0
41
1
10
10.3393131598916
20
-73.167809278795
30
0
41
1
10
10.3757952002756
20
-73.1645958422
30
0
41
1
10
10.4485798093609
20
-73.152113535528
30
0
41
1
10
10.4847274385943
20
-73.1428138583743
30
0
41
1
10
10.5544423651171
20
-73.1193202388112
30
0
41
1
10
10.5883383941874
20
-73.1050793046226
30
0
41
1
10
10.6544558792414
20
-73.0722596036513
30
0
41
1
10
10.6865661817348
20
-73.0537059183061
30
0
41
1
10
10.7786583391762
20
-72.993843253267
30
0
41
1
10
10.83528845293
20
-72.9480060617539
30
0
41
1
10
10.9151872924364
20
-72.8730136591264
30
0
41
1
10
10.9410451780233
20
-72.846865808534
30
0
41
1
10
10.9907854006196
20
-72.7932523817224
30
0
41
1
10
11.0146722465706
20
-72.7657984676559
30
0
41
1
10
11.1299432863956
20
-72.6258081712749
30
0
41
1
10
11.2092708220746
20
-72.5054033775379
30
0
41
1
10
11.3159554982423
20
-72.3170278548776
30
0
41
1
10
11.3494598543461
20
-72.2527047085777
30
0
41
1
10
11.4120329177496
20
-72.1232141680327
30
0
41
1
10
11.4411868456311
20
-72.0579144485477
30
0
41
1
10
11.5230460781922
20
-71.8606162835054
30
0
41
1
10
11.5702087878356
20
-71.7272375398451
30
0
41
1
10
11.6516795222684
20
-71.4574791598196
30
0
41
1
10
11.6859593788406
20
-71.3210902524624
30
0
41
1
10
11.727857021502
20
-71.1143555060752
30
0
41
1
10
11.7402434209374
20
-71.0449501140334
30
0
41
1
10
11.7616127363441
20
-70.9061470674929
30
0
41
1
10
11.7705998376614
20
-70.8367735493707
30
0
41
1
10
11.7923682146804
20
-70.6287345387963
30
0
41
1
10
11.8
20
-70.4901537067978
30
0
41
1
10
11.8
20
-70.3516427803796
30
0
0
SPLINE
5
40E
100
AcDbEntity
8
1
62
256
6
ByLayer
370
18
48
1
60
0
100
AcDbSpline
70
4
71
3
72
27
73
23
40
0
40
0
40
0
40
0
40
0.124999999999994
40
0.124999999999994
40
0.187499999999989
40
0.187499999999989
40
0.249999999999984
40
0.249999999999984
40
0.374999999999978
40
0.374999999999978
40
0.437499999999975
40
0.437499999999975
40
0.499999999999971
40
0.562499999999967
40
0.562499999999967
40
0.624999999999963
40
0.624999999999963
40
0.749999999999975
40
0.749999999999975
40
0.874999999999988
40
0.874999999999988
40
1
40
1
40
1
40
1
41
1
10
12.5
20
75.4980271942321
30
0
41
1
10
12.5681877017649
20
75.4980271942321
30
0
41
1
10
12.6351360578583
20
75.4918614785708
30
0
41
1
10
12.7337820550949
20
75.4737980462525
30
0
41
1
10
12.7663655636114
20
75.4662962787966
30
0
41
1
10
12.8309208958618
20
75.4482682518918
30
0
41
1
10
12.8627157506118
20
75.4377727492271
30
0
41
1
10
12.9550406874967
20
75.4025308604222
30
0
41
1
10
13.0132083695698
20
75.3738861465771
30
0
41
1
10
13.0954373346225
20
75.3233694608578
30
0
41
1
10
13.1220546934211
20
75.3052027511846
30
0
41
1
10
13.1724575407737
20
75.2671540055409
30
0
41
1
10
13.220333489266
20
75.2272226746561
30
0
41
1
10
13.2633111030798
20
75.1836798132019
30
0
41
1
10
13.3038475908555
20
75.138356000786
30
0
41
1
10
13.322983365372
20
75.1146742833996
30
0
41
1
10
13.3758505898486
20
75.0420538946694
30
0
41
1
10
13.4051383736376
20
74.9916216611988
30
0
41
1
10
13.4524403405078
20
74.887059890515
30
0
41
1
10
13.4704795859109
20
74.8324539180374
30
0
41
1
10
13.4941369003839
20
74.7234089092804
30
0
41
1
10
13.5
20
74.6686526685556
30
0
41
1
10
13.5
20
74.6136846110487
30
0
0
SPLINE
5
40F
100
AcDbEntity
8
1
62
256
6
ByLayer
370
18
48
1
60
0
100
AcDbSpline
70
4
71
3
72
18
73
14
40
0
40
0
40
0
40
0
40
0.124999999999997
40
0.124999999999997
40
0.249999999999994
40
0.249999999999994
40
0.374999999999991
40
0.374999999999991
40
0.499999999999987
40
0.499999999999987
40
0.749999999999994
40
0.749999999999994
40
1
40
1
40
1
40
1
41
1
10
12.9719189110768
20
72.3755655677583
30
0
41
1
10
12.959059314021
20
72.3878769832909
30
0
41
1
10
12.943484503941
20
72.399753124593
30
0
41
1
10
12.9091578675263
20
72.4222928006637
30
0
41
1
10
12.8908406166723
20
72.4326213661847
30
0
41
1
10
12.8530602401122
20
72.4513809632094
30
0
41
1
10
12.8334172340524
20
72.4598901531142
30
0
41
1
10
12.7933968996399
20
72.4751164716534
30
0
41
1
10
12.773162518709
20
72.4817882346136
30
0
41
1
10
12.7118811341256
20
72.4993482765304
30
0
41
1
10
12.6702622603748
20
72.5078068263966
30
0
41
1
10
12.5857179052792
20
72.519088275416
30
0
41
1
10
12.5428394515083
20
72.5218714686503
30
0
41
1
10
12.5
20
72.5218714686503
30
0
0
SPLINE
5
410
100
AcDbEntity
8
1
62
256
6
ByLayer
370
18
48
1
60
0
100
AcDbSpline
70
4
71
3
72
29
73
25
40
0
40
0
40
0
40
0
40
0.0625000000000038
40
0.0625000000000038
40
0.125000000000008
40
0.125000000000008
40
0.250000000000015
40
0.250000000000015
40
0.312500000000009
40
0.312500000000009
40
0.375000000000003
40
0.375000000000003
40
0.499999999999987
40
0.499999999999987
40
0.562499999999986
40
0.562499999999986
40
0.624999999999985
40
0.687499999999984
40
0.687499999999984
40
0.749999999999983
40
0.749999999999983
40
0.874999999999992
40
0.874999999999992
40
1
40
1
40
1
40
1
41
1
10
2.5
20
74.6136846110487
30
0
41
1
10
2.5
20
74.6412122202387
30
0
41
1
10
2.50150263266227
20
74.6690653957237
30
0
41
1
10
2.50747584248427
20
74.7241684611909
30
0
41
1
10
2.51193454499253
20
74.7515171356301
30
0
41
1
10
2.52968272543251
20
74.8329515120793
30
0
41
1
10
2.54730362105261
20
74.8864331110383
30
0
41
1
10
2.58294219701821
20
74.965303686046
30
0
41
1
10
2.59641258857738
20
74.9914090616252
30
0
41
1
10
2.62592312721813
20
75.0419885654118
30
0
41
1
10
2.64202072545226
20
75.0666085695643
30
0
41
1
10
2.69432748327796
20
75.1384411368871
30
0
41
1
10
2.73450958323508
20
75.183648381159
30
0
41
1
10
2.80337443485922
20
75.2470049557165
30
0
41
1
10
2.8275686297971
20
75.2671707471514
30
0
41
1
10
2.87779893256095
20
75.3050952616547
30
0
41
1
10
2.93004996757321
20
75.3407792435683
30
0
41
1
10
2.98634811163697
20
75.3719390753631
30
0
41
1
10
3.04473301552599
20
75.4007485394407
30
0
41
1
10
3.07516704889162
20
75.4140470011375
30
0
41
1
10
3.16796250387784
20
75.4495120951926
30
0
41
1
10
3.2318223816111
20
75.4674090277969
30
0
41
1
10
3.36350648786066
20
75.4917016738452
30
0
41
1
10
3.43176363312091
20
75.4980271942323
30
0
41
1
10
3.5
20
75.4980271942323
30
0
0
SPLINE
5
411
100
AcDbEntity
8
1
62
256
6
ByLayer
370
18
48
1
60
0
100
AcDbSpline
70
4
71
3
72
16
73
12
40
0
40
0
40
0
40
0
40
0.249999999999999
40
0.249999999999999
40
0.499999999999997
40
0.499999999999997
40
0.749999999999996
40
0.749999999999996
40
0.874999999999998
40
0.874999999999998
40
1
40
1
40
1
40
1
41
1
10
3.5
20
72.5218714686502
30
0
41
1
10
3.4570826951072
20
72.5218714686501
30
0
41
1
10
3.41464648835318
20
72.5191048987851
30
0
41
1
10
3.33074972241968
20
72.5079733434657
30
0
41
1
10
3.28928757997807
20
72.4996169713486
30
0
41
1
10
3.20751803062143
20
72.4763166688337
30
0
41
1
10
3.16676425698347
20
72.4611669447633
30
0
41
1
10
3.10966522080611
20
72.4329006751519
30
0
41
1
10
3.09108815500844
20
72.4224331267105
30
0
41
1
10
3.05690283732673
20
72.4000282903094
30
0
41
1
10
3.04092380896611
20
72.3878608257226
30
0
41
1
10
3.02808108891475
20
72.3755655677584
30
0
0
SPLINE
5
412
100
AcDbEntity
8
1
62
256
6
ByLayer
370
18
48
1
60
0
100
AcDbSpline
70
4
71
3
72
10
73
6
40
0
40
0
40
0
40
0
40
0.5
40
0.5
40
1
40
1
40
1
40
1
41
1
10
13.2427062771121
20
71.9934434990939
30
0
41
1
10
13.2092462399587
20
72.0608462435369
30
0
41
1
10
13.1714278735465
20
72.1268614356287
30
0
41
1
10
13.0832188344377
20
72.2548892004343
30
0
41
1
10
13.0331032930076
20
72.3169893661255
30
0
41
1
10
12.9719189110768
20
72.3755655677582
30
0
0
SPLINE
5
413
100
AcDbEntity
8
1
62
256
6
ByLayer
370
18
48
1
60
0
100
AcDbSpline
70
4
71
3
72
10
73
6
40
0
40
0
40
0
40
0
40
0.5
40
0.5
40
1
40
1
40
1
40
1
41
1
10
3.02808108892276
20
72.3755655677579
30
0
41
1
10
2.96718032611358
20
72.317260895073
30
0
41
1
10
2.91707507598858
20
72.2552715794458
30
0
41
1
10
2.8287905809953
20
72.1272224540534
30
0
41
1
10
2.79086743555462
20
72.0610752343636
30
0
41
1
10
2.75729372288794
20
71.9934434990938
30
0
0
SPLINE
5
414
100
AcDbEntity
8
1
62
256
6
ByLayer
370
18
48
1
60
0
100
AcDbSpline
70
4
71
3
72
22
73
18
40
0
40
0
40
0
40
0
40
0.249999999999997
40
0.249999999999997
40
0.499999999999994
40
0.499999999999994
40
0.624999999999986
40
0.624999999999986
40
0.749999999999978
40
0.749999999999978
40
0.812499999999984
40
0.812499999999984
40
0.874999999999989
40
0.874999999999989
40
0.937499999999995
40
0.937499999999995
40
1
40
1
40
1
40
1
41
1
10
13.2427062771121
20
71.9934434990939
30
0
41
1
10
13.2710371741529
20
71.9906848545793
30
0
41
1
10
13.2989446597614
20
71.9840743924016
30
0
41
1
10
13.3534978497404
20
71.9593749134116
30
0
41
1
10
13.3803213587207
20
71.941256451688
30
0
41
1
10
13.417608068425
20
71.9000359860706
30
0
41
1
10
13.4296345723522
20
71.8837786518674
30
0
41
1
10
13.4518022139646
20
71.8452983110191
30
0
41
1
10
13.4620001967191
20
71.8230948200857
30
0
41
1
10
13.4753422645979
20
71.7832499980561
30
0
41
1
10
13.4794506157115
20
71.7688401763856
30
0
41
1
10
13.4866239490963
20
71.7382759998258
30
0
41
1
10
13.489722811005
20
71.7220322647088
30
0
41
1
10
13.4948032830794
20
71.6873422707594
30
0
41
1
10
13.4967753186987
20
71.6688060685811
30
0
41
1
10
13.4993583054841
20
71.6308510248308
30
0
41
1
10
13.5
20
71.6112692458391
30
0
41
1
10
13.5
20
71.5910907460899
30
0
0
SPLINE
5
415
100
AcDbEntity
8
1
62
256
6
ByLayer
370
18
48
1
60
0
100
AcDbSpline
70
4
71
3
72
24
73
20
40
0
40
0
40
0
40
0
40
0.0624999999999971
40
0.0624999999999971
40
0.124999999999994
40
0.124999999999994
40
0.187499999999991
40
0.187499999999991
40
0.249999999999988
40
0.249999999999988
40
0.37499999999999
40
0.37499999999999
40
0.499999999999992
40
0.499999999999992
40
0.624999999999994
40
0.624999999999994
40
0.749999999999996
40
0.749999999999996
40
1
40
1
40
1
40
1
41
1
10
2.5
20
71.5910907460899
30
0
41
1
10
2.5
20
71.6113274672941
30
0
41
1
10
2.50066560835916
20
71.6314265304857
30
0
41
1
10
2.50328780076654
20
71.6695018450566
30
0
41
1
10
2.50523456110329
20
71.6876548695341
30
0
41
1
10
2.51032397665989
20
71.7222966310251
30
0
41
1
10
2.5134974306755
20
71.7388733533364
30
0
41
1
10
2.52071652673055
20
71.7694688830611
30
0
41
1
10
2.52477386095222
20
71.7836282480167
30
0
41
1
10
2.53807144844865
20
71.8232447859981
30
0
41
1
10
2.54851752886464
20
71.8459489535991
30
0
41
1
10
2.57074619860742
20
71.8843409507214
30
0
41
1
10
2.58261695022861
20
71.9003169131049
30
0
41
1
10
2.60743455674589
20
71.9276879088046
30
0
41
1
10
2.62043716965405
20
71.9390828025141
30
0
41
1
10
2.64680464923805
20
71.9580021364159
30
0
41
1
10
2.66022192874402
20
71.9655896362346
30
0
41
1
10
2.70101065028047
20
71.9840482221344
30
0
41
1
10
2.7289109409125
20
71.9906798024249
30
0
41
1
10
2.75729372288788
20
71.9934434990947
30
0
0
SPLINE
5
416
100
AcDbEntity
8
1
62
256
6
ByLayer
370
18
48
1
60
0
100
AcDbSpline
70
4
71
3
72
22
73
18
40
0
40
0
40
0
40
0
40
0.125000000000001
40
0.125000000000001
40
0.250000000000002
40
0.250000000000002
40
0.375000000000003
40
0.375000000000003
40
0.500000000000002
40
0.500000000000002
40
0.625000000000002
40
0.625000000000002
40
0.750000000000001
40
0.750000000000001
40
0.875000000000001
40
0.875000000000001
40
1
40
1
40
1
40
1
41
1
10
7.16604483856719
20
35.0810327970291
30
0
41
1
10
7.23323448264529
20
35.0984844974196
30
0
41
1
10
7.30097193189664
20
35.1153086676053
30
0
41
1
10
7.43760340311275
20
35.1457773410166
30
0
41
1
10
7.50649707406996
20
35.1594319422193
30
0
41
1
10
7.64550833310864
20
35.182100908219
30
0
41
1
10
7.71562604712921
20
35.1911135006673
30
0
41
1
10
7.85716348358505
20
35.2033493012284
30
0
41
1
10
7.92894735721956
20
35.2065504222828
30
0
41
1
10
8.07139471422056
20
35.2065403882415
30
0
41
1
10
8.14217792948608
20
35.203376733969
30
0
41
1
10
8.28290250402995
20
35.1912697647022
30
0
41
1
10
8.35284412634343
20
35.1823319607738
30
0
41
1
10
8.49193301165451
20
35.1597247093128
30
0
41
1
10
8.56108039472934
20
35.1460564772925
30
0
41
1
10
8.69862954119844
20
35.1154117360512
30
0
41
1
10
8.76686234078477
20
35.0984593487004
30
0
41
1
10
8.83395516143281
20
35.0810327970291
30
0
0
SPLINE
5
417
100
AcDbEntity
8
1
62
256
6
ByLayer
370
18
48
1
60
0
100
AcDbSpline
70
4
71
3
72
18
73
14
40
0
40
0
40
0
40
0
40
0.125
40
0.125
40
0.25
40
0.25
40
0.375
40
0.375
40
0.5
40
0.5
40
0.75
40
0.75
40
1
40
1
40
1
40
1
41
1
10
12.9719189110768
20
-60.7871540891244
30
0
41
1
10
12.959057574708
20
-60.7824594333981
30
0
41
1
10
12.9434824355057
20
-60.7810443297746
30
0
41
1
10
12.9091587953794
20
-60.7809031727577
30
0
41
1
10
12.8908382707971
20
-60.7822797991956
30
0
41
1
10
12.8530581841703
20
-60.7861253803394
30
0
41
1
10
12.8334179803163
20
-60.7886424932588
30
0
41
1
10
12.7933946673597
20
-60.7939476103685
30
0
41
1
10
12.7731593484606
20
-60.7967211003059
30
0
41
1
10
12.711876582413
20
-60.8046791594971
30
0
41
1
10
12.6702586793976
20
-60.8094675063382
30
0
41
1
10
12.5857195501954
20
-60.8160680870986
30
0
41
1
10
12.5428396102497
20
-60.8178811430136
30
0
41
1
10
12.5
20
-60.8178811430136
30
0
0
SPLINE
5
418
100
AcDbEntity
8
1
62
256
6
ByLayer
370
18
48
1
60
0
100
AcDbSpline
70
4
71
3
72
10
73
6
40
0
40
0
40
0
40
0
40
0.5
40
0.5
40
1
40
1
40
1
40
1
41
1
10
13.2427062771121
20
-60.9328472427105
30
0
41
1
10
13.2092462837301
20
-60.907148372226
30
0
41
1
10
13.1714279577807
20
-60.8819785250369
30
0
41
1
10
13.0832189480491
20
-60.8331648890918
30
0
41
1
10
13.0331034030987
20
-60.8094877034235
30
0
41
1
10
12.9719189110768
20
-60.7871540891244
30
0
0
SPLINE
5
419
100
AcDbEntity
8
1
62
256
6
ByLayer
370
18
48
1
60
0
100
AcDbSpline
70
4
71
3
72
24
73
20
40
0
40
0
40
0
40
0
40
0.250000000000008
40
0.250000000000008
40
0.375000000000008
40
0.375000000000008
40
0.500000000000008
40
0.500000000000008
40
0.625000000000009
40
0.625000000000009
40
0.750000000000009
40
0.750000000000009
40
0.812500000000007
40
0.812500000000007
40
0.875000000000004
40
0.875000000000004
40
0.937500000000002
40
0.937500000000002
40
1
40
1
40
1
40
1
41
1
10
13.2427062771121
20
-60.9328472427105
30
0
41
1
10
13.2710311574121
20
-60.8641738802147
30
0
41
1
10
13.2989600081603
20
-60.793646266831
30
0
41
1
10
13.3399612208485
20
-60.6836781144721
30
0
41
1
10
13.3535201959494
20
-60.6461910462178
30
0
41
1
10
13.3799432983224
20
-60.570211848512
30
0
41
1
10
13.3928227173337
20
-60.5316954295965
30
0
41
1
10
13.417687797032
20
-60.4532449338226
30
0
41
1
10
13.4296779728126
20
-60.4132707771173
30
0
41
1
10
13.4517828951185
20
-60.3334513135679
30
0
41
1
10
13.4619795343574
20
-60.2933973213568
30
0
41
1
10
13.4753548113789
20
-60.2329927445284
30
0
41
1
10
13.4794475770307
20
-60.2129609413979
30
0
41
1
10
13.4866171252185
20
-60.1739720582931
30
0
41
1
10
13.4897202407536
20
-60.1549001553139
30
0
41
1
10
13.4948125554481
20
-60.1177335408278
30
0
41
1
10
13.4967754170757
20
-60.099736177927
30
0
41
1
10
13.4993555210035
20
-60.0662251905022
30
0
41
1
10
13.5
20
-60.0505282783273
30
0
41
1
10
13.5
20
-60.0358881538455
30
0
0
SPLINE
5
41A
100
AcDbEntity
8
1
62
256
6
ByLayer
370
18
48
1
60
0
100
AcDbSpline
70
4
71
3
72
24
73
20
40
0
40
0
40
0
40
0
40
0.0624999999999998
40
0.0624999999999998
40
0.125
40
0.125
40
0.187499999999999
40
0.187499999999999
40
0.249999999999999
40
0.249999999999999
40
0.375000000000002
40
0.375000000000002
40
0.500000000000006
40
0.500000000000006
40
0.750000000000012
40
0.750000000000012
40
0.875000000000006
40
0.875000000000006
40
1
40
1
40
1
40
1
41
1
10
2.5
20
-60.0358881538455
30
0
41
1
10
2.5
20
-60.0505390852969
30
0
41
1
10
2.50064542891079
20
-60.0662306465866
30
0
41
1
10
2.50321999858153
20
-60.0996835073382
30
0
41
1
10
2.50516775599306
20
-60.1175757213006
30
0
41
1
10
2.51026958760576
20
-60.1548399557211
30
0
41
1
10
2.51337963019239
20
-60.1739561906381
30
0
41
1
10
2.52056431991792
20
-60.2130238595012
30
0
41
1
10
2.52466762808831
20
-60.2330991660364
30
0
41
1
10
2.53804227551973
20
-60.2934856160069
30
0
41
1
10
2.54826203152288
20
-60.3336326152122
30
0
41
1
10
2.57046746672484
20
-60.4137767113107
30
0
41
1
10
2.5825185349006
20
-60.4539139108522
30
0
41
1
10
2.61967137119899
20
-60.5710785395335
30
0
41
1
10
2.6460584403921
20
-60.6461458232875
30
0
41
1
10
2.68703961551017
20
-60.7561139631735
30
0
41
1
10
2.70095807045829
20
-60.7923384255835
30
0
41
1
10
2.7289627543347
20
-60.8634329925348
30
0
41
1
10
2.74308030526004
20
-60.8983869671248
30
0
41
1
10
2.75729372288305
20
-60.9328472426986
30
0
0
SPLINE
5
41B
100
AcDbEntity
8
1
62
256
6
ByLayer
370
18
48
1
60
0
100
AcDbSpline
70
4
71
3
72
10
73
6
40
0
40
0
40
0
40
0
40
0.5
40
0.5
40
1
40
1
40
1
40
1
41
1
10
3.02808108892299
20
-60.7871540891245
30
0
41
1
10
2.96717963186939
20
-60.8093843897636
30
0
41
1
10
2.91707435356346
20
-60.8330193997581
30
0
41
1
10
2.82879004270796
20
-60.8818411640616
30
0
41
1
10
2.79086715506287
20
-60.907061245824
30
0
41
1
10
2.75729372289271
20
-60.9328472427069
30
0
0
SPLINE
5
41C
100
AcDbEntity
8
1
62
256
6
ByLayer
370
18
48
1
60
0
100
AcDbSpline
70
4
71
3
72
16
73
12
40
0
40
0
40
0
40
0
40
0.25
40
0.25
40
0.5
40
0.5
40
0.75
40
0.75
40
0.875
40
0.875
40
1
40
1
40
1
40
1
41
1
10
3.5
20
-60.8178811430136
30
0
41
1
10
3.45708268339126
20
-60.8178811430136
30
0
41
1
10
3.41464646518028
20
-60.8160806197488
30
0
41
1
10
3.33074967688322
20
-60.8095620201882
30
0
41
1
10
3.28928752353113
20
-60.8048200168582
30
0
41
1
10
3.20751795313276
20
-60.7942219228008
30
0
41
1
10
3.16676408927748
20
-60.7881678154527
30
0
41
1
10
3.10966544422263
20
-60.7823190079446
30
0
41
1
10
3.09108824056438
20
-60.780920834773
30
0
41
1
10
3.05690293200473
20
-60.781024409799
30
0
41
1
10
3.04092456918738
20
-60.7824659512432
30
0
41
1
10
3.02808108891867
20
-60.7871540891205
30
0
0
SPLINE
5
41D
100
AcDbEntity
8
1
62
256
6
ByLayer
370
18
48
1
60
0
100
AcDbSpline
70
4
71
3
72
14
73
10
40
0
40
0
40
0
40
0
40
0.25
40
0.25
40
0.5
40
0.5
40
0.75
40
0.75
40
1
40
1
40
1
40
1
41
1
10
11.7
20
-44.9080031339662
30
0
41
1
10
11.7187533495993
20
-44.9080031339662
30
0
41
1
10
11.7359889247406
20
-44.9177010337467
30
0
41
1
10
11.762103068051
20
-44.9435308370885
30
0
41
1
10
11.77176526979
20
-44.959553019432
30
0
41
1
10
11.7864509432771
20
-44.9927961694295
30
0
41
1
10
11.7916015893125
20
-45.0104846630497
30
0
41
1
10
11.7983688968355
20
-45.0463006978089
30
0
41
1
10
11.8
20
-45.0644229538587
30
0
41
1
10
11.8
20
-45.0827452158799
30
0
0
SPLINE
5
41E
100
AcDbEntity
8
1
62
256
6
ByLayer
370
18
48
1
60
0
100
AcDbSpline
70
4
71
3
72
64
73
60
40
0
40
0
40
0
40
0
40
0.0625000000000017
40
0.0625000000000017
40
0.125000000000003
40
0.125000000000003
40
0.187500000000005
40
0.187500000000005
40
0.218750000000005
40
0.218750000000005
40
0.250000000000006
40
0.250000000000006
40
0.312500000000004
40
0.312500000000004
40
0.343750000000003
40
0.343750000000003
40
0.375000000000001
40
0.375000000000001
40
0.40625
40
0.40625
40
0.437499999999999
40
0.437499999999999
40
0.453125
40
0.453125
40
0.46875
40
0.46875
40
0.484375000000001
40
0.484375000000001
40
0.500000000000002
40
0.500000000000002
40
0.515625000000003
40
0.515625000000003
40
0.531250000000003
40
0.531250000000003
40
0.546875000000004
40
0.546875000000004
40
0.562500000000005
40
0.562500000000005
40
0.593750000000007
40
0.593750000000007
40
0.609375000000007
40
0.609375000000007
40
0.625000000000007
40
0.625000000000007
40
0.687500000000007
40
0.687500000000007
40
0.718750000000007
40
0.718750000000007
40
0.750000000000006
40
0.750000000000006
40
0.812500000000006
40
0.812500000000006
40
0.875000000000005
40
0.875000000000005
40
0.906250000000005
40
0.906250000000005
40
0.937500000000004
40
0.937500000000004
40
1
40
1
40
1
40
1
41
1
10
8.80000000000001
20
-49.8895827107265
30
0
41
1
10
8.80000000000001
20
-50.0342990104344
30
0
41
1
10
8.80768243883693
20
-50.1772847730412
30
0
41
1
10
8.83654679611345
20
-50.4601424145304
30
0
41
1
10
8.8577382487245
20
-50.6000125199272
30
0
41
1
10
8.91310352089778
20
-50.876763437446
30
0
41
1
10
8.94726719261132
20
-51.0136455956896
30
0
41
1
10
9.00883286515773
20
-51.2166657635335
30
0
41
1
10
9.03114517281335
20
-51.284111037104
30
0
41
1
10
9.07916897279182
20
-51.4172860786671
30
0
41
1
10
9.10486081781914
20
-51.4829963121864
30
0
41
1
10
9.18734599934152
20
-51.6773646122174
30
0
41
1
10
9.24940133867136
20
-51.8033221407781
30
0
41
1
10
9.35647028339332
20
-51.9854995996014
30
0
41
1
10
9.39466131559055
20
-52.0452738162099
30
0
41
1
10
9.47600098863336
20
-52.1607400015353
30
0
41
1
10
9.51915793418806
20
-52.2165106444601
30
0
41
1
10
9.61181977946637
20
-52.3231699123233
30
0
41
1
10
9.6614678386091
20
-52.3742337896325
30
0
41
1
10
9.7688643468997
20
-52.4690480020784
30
0
41
1
10
9.82586746774575
20
-52.5122046921004
30
0
41
1
10
9.91830400024406
20
-52.5681637893182
30
0
41
1
10
9.95046461877274
20
-52.5854202889753
30
0
41
1
10
10.0168105631216
20
-52.6159016133003
30
0
41
1
10
10.0507526022957
20
-52.6290358261545
30
0
41
1
10
10.1203787005383
20
-52.6505507300117
30
0
41
1
10
10.1560619215438
20
-52.6589337625497
30
0
41
1
10
10.2294410653838
20
-52.6702203764702
30
0
41
1
10
10.2661677191207
20
-52.6729568141415
30
0
41
1
10
10.3393131598917
20
-52.6726697838489
30
0
41
1
10
10.3757952002757
20
-52.6696560718555
30
0
41
1
10
10.4485798093609
20
-52.6579436100982
30
0
41
1
10
10.4847274385943
20
-52.6492157106306
30
0
41
1
10
10.5544423651171
20
-52.6271490054568
30
0
41
1
10
10.5883383941874
20
-52.6137660273807
30
0
41
1
10
10.6544558792414
20
-52.5828917584954
30
0
41
1
10
10.6865661817349
20
-52.5654236701219
30
0
41
1
10
10.7786583391762
20
-52.5089960772751
30
0
41
1
10
10.83528845293
20
-52.465705447095
30
0
41
1
10
10.9151872924364
20
-52.3946642138127
30
0
41
1
10
10.9410451780233
20
-52.3698611511574
30
0
41
1
10
10.9907854006196
20
-52.3189274300919
30
0
41
1
10
11.0146722465706
20
-52.2928081798049
30
0
41
1
10
11.1299432863956
20
-52.1594141000713
30
0
41
1
10
11.2092708220746
20
-52.0440169725287
30
0
41
1
10
11.3159554982423
20
-51.8621515601641
30
0
41
1
10
11.3494598543461
20
-51.7998400232418
30
0
41
1
10
11.4120329177497
20
-51.6739433427332
30
0
41
1
10
11.4411868456311
20
-51.6102318334069
30
0
41
1
10
11.5230460781922
20
-51.4170275207488
30
0
41
1
10
11.5702087878356
20
-51.285482873042
30
0
41
1
10
11.6516795222684
20
-51.0174091154033
30
0
41
1
10
11.6859593788406
20
-50.8808721192362
30
0
41
1
10
11.727857021502
20
-50.6722937887597
30
0
41
1
10
11.7402434209374
20
-50.6020010920256
30
0
41
1
10
11.7616127363441
20
-50.4608722391785
30
0
41
1
10
11.7705998376614
20
-50.3900619163994
30
0
41
1
10
11.7923682146804
20
-50.1768815491709
30
0
41
1
10
11.8
20
-50.0337657842716
30
0
41
1
10
11.8
20
-49.8895827107265
30
0
0
SPLINE
5
41F
100
AcDbEntity
8
1
62
256
6
ByLayer
370
18
48
1
60
0
100
AcDbSpline
70
4
71
3
72
16
73
12
40
0
40
0
40
0
40
0
40
0.25
40
0.25
40
0.5
40
0.5
40
0.75
40
0.75
40
0.875
40
0.875
40
1
40
1
40
1
40
1
41
1
10
8.80000000000001
20
-45.0827452158799
30
0
41
1
10
8.80000000000001
20
-45.064410181416
30
0
41
1
10
8.80163455083823
20
-45.0463646456076
30
0
41
1
10
8.80830923827136
20
-45.0108754608878
30
0
41
1
10
8.81337554096694
20
-44.9932603964342
30
0
41
1
10
8.82815704022067
20
-44.9596586354635
30
0
41
1
10
8.83786774938949
20
-44.9436071225744
30
0
41
1
10
8.85729095277543
20
-44.9243246502219
30
0
41
1
10
8.86478200023367
20
-44.9185842509798
30
0
41
1
10
8.88138055785657
20
-44.9104189209669
30
0
41
1
10
8.89060241852457
20
-44.9080031339567
30
0
41
1
10
8.89999999999696
20
-44.9080031339562
30
0
0
SPLINE
5
420
100
AcDbEntity
8
1
62
256
6
ByLayer
370
18
48
1
60
0
100
AcDbSpline
70
4
71
3
72
29
73
25
40
0
40
0
40
0
40
0
40
0.0624999999999981
40
0.0624999999999981
40
0.124999999999996
40
0.124999999999996
40
0.249999999999993
40
0.249999999999993
40
0.312499999999985
40
0.312499999999985
40
0.374999999999978
40
0.374999999999978
40
0.499999999999979
40
0.499999999999979
40
0.562499999999984
40
0.562499999999984
40
0.624999999999988
40
0.687499999999993
40
0.687499999999993
40
0.749999999999997
40
0.749999999999997
40
0.874999999999999
40
0.874999999999999
40
1
40
1
40
1
40
1
41
1
10
2.5
20
-53.3117157934374
30
0
41
1
10
2.5
20
-53.3425072888564
30
0
41
1
10
2.50150263266227
20
-53.3735393192119
30
0
41
1
10
2.50747584248427
20
-53.4346897148787
30
0
41
1
10
2.51193454499253
20
-53.4649195585503
30
0
41
1
10
2.52968272543251
20
-53.5545903206389
30
0
41
1
10
2.54730362105261
20
-53.6130205421554
30
0
41
1
10
2.58294219701821
20
-53.6985685533771
30
0
41
1
10
2.59641258857738
20
-53.7267773562942
30
0
41
1
10
2.62592312721813
20
-53.7812431108952
30
0
41
1
10
2.64202072545226
20
-53.8076587896879
30
0
41
1
10
2.69432748327796
20
-53.884482401707
30
0
41
1
10
2.73450958323508
20
-53.9324905259681
30
0
41
1
10
2.80337443485922
20
-53.9994094362779
30
0
41
1
10
2.8275686297971
20
-54.020643941762
30
0
41
1
10
2.87779893256095
20
-54.0604803853819
30
0
41
1
10
2.93004996757321
20
-54.0978601621123
30
0
41
1
10
2.98634811163697
20
-54.1303518377835
30
0
41
1
10
3.04473301552599
20
-54.1603384947231
30
0
41
1
10
3.07516704889162
20
-54.1741506669804
30
0
41
1
10
3.16796250387784
20
-54.2109326625317
30
0
41
1
10
3.2318223816111
20
-54.2294200369503
30
0
41
1
10
3.36350648786066
20
-54.2544925141345
30
0
41
1
10
3.43176363312091
20
-54.261005182813
30
0
41
1
10
3.5
20
-54.261005182813
30
0
0
SPLINE
5
421
100
AcDbEntity
8
1
62
256
6
ByLayer
370
18
48
1
60
0
100
AcDbSpline
70
4
71
3
72
27
73
23
40
0
40
0
40
0
40
0
40
0.124999999999992
40
0.124999999999992
40
0.18749999999999
40
0.18749999999999
40
0.249999999999988
40
0.249999999999988
40
0.374999999999987
40
0.374999999999987
40
0.437499999999989
40
0.437499999999989
40
0.499999999999992
40
0.562499999999994
40
0.562499999999994
40
0.624999999999996
40
0.624999999999996
40
0.749999999999997
40
0.749999999999997
40
0.874999999999999
40
0.874999999999999
40
1
40
1
40
1
40
1
41
1
10
12.5
20
-54.2610051828128
30
0
41
1
10
12.5681877017649
20
-54.2610051828128
30
0
41
1
10
12.6351360578583
20
-54.254657149021
30
0
41
1
10
12.7337820550949
20
-54.2360142977153
30
0
41
1
10
12.7663655636114
20
-54.2282671595319
30
0
41
1
10
12.8309208958618
20
-54.2096228641105
30
0
41
1
10
12.8627157506118
20
-54.1987572329417
30
0
41
1
10
12.9550406874967
20
-54.1622072504519
30
0
41
1
10
13.0132083695698
20
-54.1324250584452
30
0
41
1
10
13.0954373346225
20
-54.0796229193057
30
0
41
1
10
13.1220546934211
20
-54.0605932108929
30
0
41
1
10
13.1724575407737
20
-54.0206264389441
30
0
41
1
10
13.220333489266
20
-53.9785780036925
30
0
41
1
10
13.2633111030798
20
-53.9324623189727
30
0
41
1
10
13.3038475908555
20
-53.8843037092215
30
0
41
1
10
13.322983365372
20
-53.8590643921723
30
0
41
1
10
13.3758505898486
20
-53.7813976066968
30
0
41
1
10
13.4051383736377
20
-53.7271129522736
30
0
41
1
10
13.4524403405078
20
-53.6137021165003
30
0
41
1
10
13.4704795859109
20
-53.5540465197292
30
0
41
1
10
13.4941369003838
20
-53.4339642511893
30
0
41
1
10
13.5
20
-53.3732012889349
30
0
41
1
10
13.5
20
-53.3117157934374
30
0
0
SPLINE
5
422
100
AcDbEntity
8
1
62
256
6
ByLayer
370
18
48
1
60
0
100
AcDbSpline
70
4
71
3
72
14
73
10
40
0
40
0
40
0
40
0
40
0.25
40
0.25
40
0.5
40
0.5
40
0.75
40
0.75
40
1
40
1
40
1
40
1
41
1
10
11.7
20
-65.9871550690908
30
0
41
1
10
11.7187533495993
20
-65.9871550690908
30
0
41
1
10
11.7359889247406
20
-65.9948361420564
30
0
41
1
10
11.762103068051
20
-66.0153176773515
30
0
41
1
10
11.77176526979
20
-66.028031992325
30
0
41
1
10
11.7864509432771
20
-66.0544439568144
30
0
41
1
10
11.7916015893125
20
-66.0685123305938
30
0
41
1
10
11.7983688968355
20
-66.0970326901697
30
0
41
1
10
11.8
20
-66.1114799801675
30
0
41
1
10
11.8
20
-66.1261041659916
30
0
0
SPLINE
5
423
100
AcDbEntity
8
1
62
256
6
ByLayer
370
18
48
1
60
0
100
AcDbSpline
70
4
71
2
72
6
73
3
40
0
40
0
40
0
40
1
40
1
40
1
41
0.500000038838015
10
13.1200195415
20
35.8233921794427
30
0
41
0.499999961161985
10
13.1200097792388
20
35.8232796950763
30
0
41
0.500000038838015
10
13.12
20
35.8231671855917
30
0
0
SPLINE
5
424
100
AcDbEntity
8
1
62
256
6
ByLayer
370
18
48
1
60
0
100
AcDbSpline
70
4
71
3
72
10
73
6
40
0
40
0
40
0
40
0
40
0.5
40
0.5
40
1
40
1
40
1
40
1
41
1
10
3.02808108892293
20
48.4766247499657
30
0
41
1
10
2.96717963186791
20
48.3964648754948
30
0
41
1
10
2.91707435356108
20
48.311239782724
30
0
41
1
10
2.8287900427041
20
48.1351941879488
30
0
41
1
10
2.79086715505849
20
48.04425351103
30
0
41
1
10
2.75729372288794
20
47.9512722101106
30
0
0
SPLINE
5
425
100
AcDbEntity
8
1
62
256
6
ByLayer
370
18
48
1
60
0
100
AcDbSpline
70
4
71
2
72
6
73
3
40
0
40
0
40
0
40
1
40
1
40
1
41
0.500000080954042
10
2.87999999999997
20
35.8231671855919
30
0
41
0.499999919045957
10
2.87999022076153
20
35.8232796950731
30
0
41
0.500000080954042
10
2.87998045849999
20
35.8233921794427
30
0
0
SPLINE
5
426
100
AcDbEntity
8
1
62
256
6
ByLayer
370
18
48
1
60
0
100
AcDbSpline
70
4
71
3
72
22
73
18
40
0
40
0
40
0
40
0
40
0.249999999999966
40
0.249999999999966
40
0.499999999999932
40
0.499999999999932
40
0.624999999999931
40
0.624999999999931
40
0.749999999999929
40
0.749999999999929
40
0.812499999999947
40
0.812499999999947
40
0.874999999999964
40
0.874999999999964
40
0.937499999999982
40
0.937499999999982
40
1
40
1
40
1
40
1
41
1
10
13.2427062771121
20
76.7450297421592
30
0
41
1
10
13.2710440307116
20
76.703770048442
30
0
41
1
10
13.2990608780648
20
76.6591022987328
30
0
41
1
10
13.3539224002231
20
76.5597361539874
30
0
41
1
10
13.3804384006202
20
76.5058229524344
30
0
41
1
10
13.417807851108
20
76.413833785473
30
0
41
1
10
13.4296558034096
20
76.3817437022104
30
0
41
1
10
13.4516577470352
20
76.3138605958309
30
0
41
1
10
13.4618321961995
20
76.2780778961161
30
0
41
1
10
13.4752183299901
20
76.2202259285171
30
0
41
1
10
13.4793465466115
20
76.2002528213499
30
0
41
1
10
13.4865531353169
20
76.1599946854729
30
0
41
1
10
13.4896686202087
20
76.1395603308308
30
0
41
1
10
13.4947784546224
20
76.0979899793087
30
0
41
1
10
13.4967580008336
20
76.0768261768433
30
0
41
1
10
13.4993536442603
20
76.0354502624941
30
0
41
1
10
13.5
20
76.0150287862134
30
0
41
1
10
13.5
20
75.9948717004949
30
0
0
SPLINE
5
427
100
AcDbEntity
8
1
62
256
6
ByLayer
370
18
48
1
60
0
100
AcDbSpline
70
4
71
3
72
22
73
18
40
0
40
0
40
0
40
0
40
0.125
40
0.125
40
0.25
40
0.25
40
0.375
40
0.375
40
0.5
40
0.5
40
0.625
40
0.625
40
0.75
40
0.75
40
0.875
40
0.875
40
1
40
1
40
1
40
1
41
1
10
7.16604483856719
20
5.73164411513119
30
0
41
1
10
7.23323448264523
20
5.75563722067716
30
0
41
1
10
7.30097193189664
20
5.7771448122196
30
0
41
1
10
7.43760340311275
20
5.81464857521252
30
0
41
1
10
7.50649707406996
20
5.8306477182453
30
0
41
1
10
7.64550833310864
20
5.85663227215906
30
0
41
1
10
7.71562604712921
20
5.86661688007462
30
0
41
1
10
7.85716348358505
20
5.88006733308765
30
0
41
1
10
7.92894735721956
20
5.88351415432544
30
0
41
1
10
8.07139471422056
20
5.88350327844296
30
0
41
1
10
8.14217792948608
20
5.88009654837532
30
0
41
1
10
8.28290250402995
20
5.86678958304276
30
0
41
1
10
8.35284412634343
20
5.85689148278129
30
0
41
1
10
8.49193301165451
20
5.83098881259139
30
0
41
1
10
8.56108039472934
20
5.81498518006015
30
0
41
1
10
8.69862954119844
20
5.77727857500008
30
0
41
1
10
8.76686234078477
20
5.75560264548619
30
0
41
1
10
8.83395516143281
20
5.73164411513119
30
0
0
SPLINE
5
428
100
AcDbEntity
8
1
62
256
6
ByLayer
370
18
48
1
60
0
100
AcDbSpline
70
4
71
3
72
27
73
23
40
0
40
0
40
0
40
0
40
0.124999999999998
40
0.124999999999998
40
0.187499999999998
40
0.187499999999998
40
0.249999999999997
40
0.249999999999997
40
0.374999999999999
40
0.374999999999999
40
0.437499999999997
40
0.437499999999997
40
0.499999999999995
40
0.562499999999994
40
0.562499999999994
40
0.624999999999992
40
0.624999999999992
40
0.749999999999994
40
0.749999999999994
40
0.874999999999997
40
0.874999999999997
40
1
40
1
40
1
40
1
41
1
10
12.5
20
55.8500066989544
30
0
41
1
10
12.5681877017649
20
55.8500066989544
30
0
41
1
10
12.6351360578583
20
55.8465521827793
30
0
41
1
10
12.7337820550949
20
55.8364577829761
30
0
41
1
10
12.7663655636114
20
55.8322683003717
30
0
41
1
10
12.8309208958618
20
55.8222156169791
30
0
41
1
10
12.8627157506118
20
55.8163697294819
30
0
41
1
10
12.9550406874967
20
55.7967780437348
30
0
41
1
10
13.0132083695698
20
55.7808967338082
30
0
41
1
10
13.0954373346225
20
55.753050418857
30
0
41
1
10
13.1220546934211
20
55.7430601166916
30
0
41
1
10
13.1724575407737
20
55.7222000361554
30
0
41
1
10
13.2203332679605
20
55.7003678482159
30
0
41
1
10
13.2633111030798
20
55.676713919719
30
0
41
1
10
13.3038475908555
20
55.6521828754247
30
0
41
1
10
13.322983365372
20
55.6394095101014
30
0
41
1
10
13.3758505898486
20
55.6003956476387
30
0
41
1
10
13.4051383736377
20
55.5735027803427
30
0
41
1
10
13.4524403405078
20
55.5182430240028
30
0
41
1
10
13.4704795859109
20
55.4896316530387
30
0
41
1
10
13.4941369003838
20
55.4330468527859
30
0
41
1
10
13.5
20
55.4049013047556
30
0
41
1
10
13.5
20
55.3769283265354
30
0
0
SPLINE
5
429
100
AcDbEntity
8
1
62
256
6
ByLayer
370
18
48
1
60
0
100
AcDbSpline
70
4
71
3
72
18
73
14
40
0
40
0
40
0
40
0
40
0.125000000000002
40
0.125000000000002
40
0.250000000000005
40
0.250000000000005
40
0.375000000000007
40
0.375000000000007
40
0.50000000000001
40
0.50000000000001
40
0.750000000000005
40
0.750000000000005
40
1
40
1
40
1
40
1
41
1
10
12.9719189110768
20
48.476624749966
30
0
41
1
10
12.959057574708
20
48.4935531316289
30
0
41
1
10
12.9434824355058
20
48.5080832183548
30
0
41
1
10
12.9091587953794
20
48.5341889317137
30
0
41
1
10
12.8908382707971
20
48.5453227403031
30
0
41
1
10
12.8530581841703
20
48.5647638204392
30
0
41
1
10
12.8334179803163
20
48.5731347652451
30
0
41
1
10
12.7933946673597
20
48.5876549421128
30
0
41
1
10
12.7731593484606
20
48.5937577733844
30
0
41
1
10
12.7118765824131
20
48.6094398716908
30
0
41
1
10
12.6702586793976
20
48.6164417488088
30
0
41
1
10
12.5857195501954
20
48.6256566878318
30
0
41
1
10
12.5428396102497
20
48.6278239796598
30
0
41
1
10
12.5
20
48.6278239796598
30
0
0
SPLINE
5
42A
100
AcDbEntity
8
1
62
256
6
ByLayer
370
18
48
1
60
0
100
AcDbSpline
70
4
71
3
72
24
73
20
40
0
40
0
40
0
40
0
40
0.250000000000006
40
0.250000000000006
40
0.375000000000005
40
0.375000000000005
40
0.500000000000005
40
0.500000000000005
40
0.625000000000004
40
0.625000000000004
40
0.750000000000004
40
0.750000000000004
40
0.812500000000003
40
0.812500000000003
40
0.875000000000002
40
0.875000000000002
40
0.937500000000001
40
0.937500000000001
40
1
40
1
40
1
40
1
41
1
10
13.2427062771121
20
47.9512722101106
30
0
41
1
10
13.2710311574121
20
47.9877360626249
30
0
41
1
10
13.2989600081603
20
48.0208261142346
30
0
41
1
10
13.3399612208485
20
48.0628616465995
30
0
41
1
10
13.3535201959494
20
48.075621993208
30
0
41
1
10
13.3799432983224
20
48.0975111075632
30
0
41
1
10
13.3928227173337
20
48.1066725713364
30
0
41
1
10
13.417687797032
20
48.1201972447778
30
0
41
1
10
13.4296779728126
20
48.1245366209135
30
0
41
1
10
13.4517828951185
20
48.1263051521753
30
0
41
1
10
13.4619795343574
20
48.1238294154881
30
0
41
1
10
13.4753548113789
20
48.1125790375426
30
0
41
1
10
13.4794475770307
20
48.1075609034795
30
0
41
1
10
13.4866171252185
20
48.0948037510647
30
0
41
1
10
13.4897202407536
20
48.087046755788
30
0
41
1
10
13.4948125554481
20
48.0683449394474
30
0
41
1
10
13.4967754170757
20
48.057400296214
30
0
41
1
10
13.4993555210035
20
48.0329863234995
30
0
41
1
10
13.5
20
48.0194327399135
30
0
41
1
10
13.5
20
48.0045348410069
30
0
0
SPLINE
5
42B
100
AcDbEntity
8
1
62
256
6
ByLayer
370
18
48
1
60
0
100
AcDbSpline
70
4
71
3
72
29
73
25
40
0
40
0
40
0
40
0
40
0.0624999999999946
40
0.0624999999999946
40
0.124999999999989
40
0.124999999999989
40
0.249999999999979
40
0.249999999999979
40
0.312499999999979
40
0.312499999999979
40
0.374999999999979
40
0.374999999999979
40
0.499999999999974
40
0.499999999999974
40
0.562499999999978
40
0.562499999999978
40
0.624999999999982
40
0.687499999999986
40
0.687499999999986
40
0.74999999999999
40
0.74999999999999
40
0.874999999999995
40
0.874999999999995
40
1
40
1
40
1
40
1
41
1
10
2.5
20
55.3769283265354
30
0
41
1
10
2.5
20
55.3909369935186
30
0
41
1
10
2.50150263266227
20
55.4051827191675
30
0
41
1
10
2.50747584248427
20
55.4335050611295
30
0
41
1
10
2.51193454499253
20
55.447631381847
30
0
41
1
10
2.52968272543251
20
55.4898922615452
30
0
41
1
10
2.54730362105261
20
55.5179127885353
30
0
41
1
10
2.58294219701821
20
55.5595935166514
30
0
41
1
10
2.59641258857738
20
55.5734510479296
30
0
41
1
10
2.62592312721813
20
55.6004094101024
30
0
41
1
10
2.64202072545226
20
55.6135870428904
30
0
41
1
10
2.69432748327796
20
55.6521780139719
30
0
41
1
10
2.73450958323508
20
55.6766613398058
30
0
41
1
10
2.80337443485922
20
55.711183559676
30
0
41
1
10
2.8275686297971
20
55.7222092624454
30
0
41
1
10
2.87779893256095
20
55.7430011383127
30
0
41
1
10
2.93004996757321
20
55.7626242272822
30
0
41
1
10
2.98634811163697
20
55.7798454241362
30
0
41
1
10
3.04473301552599
20
55.7957989233609
30
0
41
1
10
3.07516704889162
20
55.8031802028709
30
0
41
1
10
3.16796250387784
20
55.8228956710373
30
0
41
1
10
3.2318223816111
20
55.8328875781535
30
0
41
1
10
3.36350648786066
20
55.8464627081726
30
0
41
1
10
3.43176363312091
20
55.8500066989545
30
0
41
1
10
3.5
20
55.8500066989545
30
0
0
SPLINE
5
42C
100
AcDbEntity
8
1
62
256
6
ByLayer
370
18
48
1
60
0
100
AcDbSpline
70
4
71
3
72
24
73
20
40
0
40
0
40
0
40
0
40
0.0624999999999943
40
0.0624999999999943
40
0.124999999999989
40
0.124999999999989
40
0.187499999999983
40
0.187499999999983
40
0.249999999999977
40
0.249999999999977
40
0.374999999999985
40
0.374999999999985
40
0.499999999999994
40
0.499999999999994
40
0.750000000000009
40
0.750000000000009
40
0.875000000000005
40
0.875000000000005
40
1
40
1
40
1
40
1
41
1
10
2.5
20
48.0045348410069
30
0
41
1
10
2.5
20
48.0194437371659
30
0
41
1
10
2.50064542891079
20
48.0329883091781
30
0
41
1
10
2.50321999858159
20
48.0573639102479
30
0
41
1
10
2.50516775599323
20
48.0682582622493
30
0
41
1
10
2.51026958760605
20
48.0870236858823
30
0
41
1
10
2.51337963019273
20
48.0947997859026
30
0
41
1
10
2.52056431991849
20
48.1075802620571
30
0
41
1
10
2.52466762808899
20
48.1126030833931
30
0
41
1
10
2.53804227552075
20
48.1238373791231
30
0
41
1
10
2.54826203152408
20
48.126320968025
30
0
41
1
10
2.57046746672654
20
48.1245054074089
30
0
41
1
10
2.58251853490253
20
48.1201033230576
30
0
41
1
10
2.6196713712016
20
48.0998397903434
30
0
41
1
10
2.64605844039517
20
48.0771579929591
30
0
41
1
10
2.68703961551393
20
48.0351976793898
30
0
41
1
10
2.70095807046232
20
48.0198028209009
30
0
41
1
10
2.72896275433919
20
47.987004988317
30
0
41
1
10
2.74308030526476
20
47.9695697618901
30
0
41
1
10
2.75729372288799
20
47.9512722101106
30
0
0
SPLINE
5
42D
100
AcDbEntity
8
1
62
256
6
ByLayer
370
18
48
1
60
0
100
AcDbSpline
70
4
71
3
72
16
73
12
40
0
40
0
40
0
40
0
40
0.25
40
0.25
40
0.5
40
0.5
40
0.75
40
0.75
40
0.875
40
0.875
40
1
40
1
40
1
40
1
41
1
10
3.5
20
48.6278239796597
30
0
41
1
10
3.45708268339126
20
48.6278239796597
30
0
41
1
10
3.41464646518028
20
48.6256689508171
30
0
41
1
10
3.33074967688316
20
48.616578846024
30
0
41
1
10
3.28928752353107
20
48.6096675302016
30
0
41
1
10
3.20751795313276
20
48.5888814550195
30
0
41
1
10
3.16676408927742
20
48.5748833255844
30
0
41
1
10
3.10966544422263
20
48.5456212972035
30
0
41
1
10
3.09108824056438
20
48.5343415744529
30
0
41
1
10
3.05690293200468
20
48.508410919418
30
0
41
1
10
3.04092456918738
20
48.4935296290281
30
0
41
1
10
3.02808108891861
20
48.4766247499683
30
0
0
SPLINE
5
42E
100
AcDbEntity
8
1
62
256
6
ByLayer
370
18
48
1
60
0
100
AcDbSpline
70
4
71
3
72
10
73
6
40
0
40
0
40
0
40
0
40
0.5
40
0.5
40
1
40
1
40
1
40
1
41
1
10
13.2427062771121
20
47.9512722101106
30
0
41
1
10
13.2092462837301
20
48.0439393433844
30
0
41
1
10
13.1714279577807
20
48.1346988802819
30
0
41
1
10
13.0832189480491
20
48.3107151651386
30
0
41
1
10
13.0331034030987
20
48.3960923384738
30
0
41
1
10
12.9719189110768
20
48.476624749966
30
0
0
SPLINE
5
42F
100
AcDbEntity
8
1
62
256
6
ByLayer
370
18
48
1
60
0
100
AcDbSpline
70
4
71
3
72
14
73
10
40
0
40
0
40
0
40
0
40
0.25
40
0.25
40
0.5
40
0.5
40
0.75
40
0.75
40
1
40
1
40
1
40
1
41
1
10
11.7
20
24.4770989586589
30
0
41
1
10
11.7187533495993
20
24.4770989586589
30
0
41
1
10
11.7359889247406
20
24.4710071677309
30
0
41
1
10
11.762103068051
20
24.4548226207957
30
0
41
1
10
11.77176526979
20
24.4448000956263
30
0
41
1
10
11.7864509432771
20
24.4240606600545
30
0
41
1
10
11.7916015893125
20
24.4130508109799
30
0
41
1
10
11.7983688968355
20
24.3908174532971
30
0
41
1
10
11.8
20
24.3795963815054
30
0
41
1
10
11.8
20
24.3682816903296
30
0
0
SPLINE
5
430
100
AcDbEntity
8
1
62
256
6
ByLayer
370
18
48
1
60
0
100
AcDbSpline
70
4
71
3
72
64
73
60
40
0
40
0
40
0
40
0
40
0.0624999999999992
40
0.0624999999999992
40
0.124999999999999
40
0.124999999999999
40
0.187499999999998
40
0.187499999999998
40
0.21875
40
0.21875
40
0.250000000000002
40
0.250000000000002
40
0.312500000000012
40
0.312500000000012
40
0.343750000000017
40
0.343750000000017
40
0.375000000000022
40
0.375000000000022
40
0.406250000000027
40
0.406250000000027
40
0.437500000000032
40
0.437500000000032
40
0.453125000000034
40
0.453125000000034
40
0.468750000000037
40
0.468750000000037
40
0.484375000000039
40
0.484375000000039
40
0.500000000000042
40
0.500000000000042
40
0.515625000000044
40
0.515625000000044
40
0.531250000000047
40
0.531250000000047
40
0.546875000000049
40
0.546875000000049
40
0.562500000000052
40
0.562500000000052
40
0.593750000000056
40
0.593750000000056
40
0.609375000000058
40
0.609375000000058
40
0.62500000000006
40
0.62500000000006
40
0.687500000000054
40
0.687500000000054
40
0.718750000000051
40
0.718750000000051
40
0.750000000000048
40
0.750000000000048
40
0.812500000000037
40
0.812500000000037
40
0.875000000000026
40
0.875000000000026
40
0.906250000000018
40
0.906250000000018
40
0.93750000000001
40
0.93750000000001
40
1
40
1
40
1
40
1
41
1
10
8.80000000000001
20
22.0734542701006
30
0
41
1
10
8.80000000000001
20
22.0248168741136
30
0
41
1
10
8.80768243883693
20
21.9786712382123
30
0
41
1
10
8.83654679611345
20
21.8910590207311
30
0
41
1
10
8.8577382487245
20
21.8495939910647
30
0
41
1
10
8.91310352089778
20
21.7711418900091
30
0
41
1
10
8.94726719261132
20
21.7341553962158
30
0
41
1
10
9.00883286515773
20
21.6819338632003
30
0
41
1
10
9.03114517281335
20
21.6650323743889
30
0
41
1
10
9.07916897279182
20
21.6325243398822
30
0
41
1
10
9.10486081781909
20
21.6169199806594
30
0
41
1
10
9.18734599934152
20
21.5719978203873
30
0
41
1
10
9.24940133867136
20
21.5445628014585
30
0
41
1
10
9.35647028339332
20
21.5070684711943
30
0
41
1
10
9.39466131559055
20
21.4951467499458
30
0
41
1
10
9.4760009886333
20
21.4727912054977
30
0
41
1
10
9.519157934188
20
21.4623394150933
30
0
41
1
10
9.61181977946632
20
21.4429229609283
30
0
41
1
10
9.6614678386091
20
21.4339292651283
30
0
41
1
10
9.7688643468997
20
21.4176797009729
30
0
41
1
10
9.8258674677457
20
21.410524156608
30
0
41
1
10
9.91830400024406
20
21.4014418524363
30
0
41
1
10
9.95046461877274
20
21.3986788308439
30
0
41
1
10
10.0168105631216
20
21.3938431824726
30
0
41
1
10
10.0507526022957
20
21.3917842576746
30
0
41
1
10
10.1203787005382
20
21.3884315357566
30
0
41
1
10
10.1560619215438
20
21.3871372237666
30
0
41
1
10
10.2294410653837
20
21.3853985467407
30
0
41
1
10
10.2661677191207
20
21.3849795358155
30
0
41
1
10
10.3393131598916
20
21.3850235816846
30
0
41
1
10
10.3757952002756
20
21.3854851702221
30
0
41
1
10
10.4485798093609
20
21.387290104385
30
0
41
1
10
10.4847274385943
20
21.3886383899961
30
0
41
1
10
10.5544423651171
20
21.3920796576067
30
0
41
1
10
10.5883383941874
20
21.394179592197
30
0
41
1
10
10.6544558792414
20
21.3990827403961
30
0
41
1
10
10.6865661817348
20
21.4018829914576
30
0
41
1
10
10.7786583391762
20
21.411052999827
30
0
41
1
10
10.83528845293
20
21.4182419156099
30
0
41
1
10
10.9151872924364
20
21.4304337306423
30
0
41
1
10
10.9410451780233
20
21.4347504502182
30
0
41
1
10
10.9907854006196
20
21.4437567131434
30
0
41
1
10
11.0146722465706
20
21.4484436396877
30
0
41
1
10
11.1299432863956
20
21.4727614932564
30
0
41
1
10
11.2092708220746
20
21.4950085281142
30
0
41
1
10
11.3159554982423
20
21.5324633766933
30
0
41
1
10
11.3494598543461
20
21.5456754930438
30
0
41
1
10
11.4120329177496
20
21.5731846587375
30
0
41
1
10
11.4411868456311
20
21.5875052455222
30
0
41
1
10
11.5230460781922
20
21.6321834247451
30
0
41
1
10
11.5702087878356
20
21.6642539594893
30
0
41
1
10
11.6516795222684
20
21.7331662547952
30
0
41
1
10
11.6859593788406
20
21.7700077299977
30
0
41
1
10
11.727857021502
20
21.8290893065185
30
0
41
1
10
11.7402434209374
20
21.8494610346509
30
0
41
1
10
11.7616127363441
20
21.8913048114916
30
0
41
1
10
11.7705998376614
20
21.9127669989624
30
0
41
1
10
11.7923682146804
20
21.978793597148
30
0
41
1
10
11.8
20
22.0249960849702
30
0
41
1
10
11.8
20
22.0734542701006
30
0
0
SPLINE
5
431
100
AcDbEntity
8
1
62
256
6
ByLayer
370
18
48
1
60
0
100
AcDbSpline
70
4
71
3
72
16
73
12
40
0
40
0
40
0
40
0
40
0.249999999999975
40
0.249999999999975
40
0.499999999999949
40
0.499999999999949
40
0.749999999999924
40
0.749999999999924
40
0.874999999999962
40
0.874999999999962
40
1
40
1
40
1
40
1
41
1
10
8.80000000000001
20
24.3682816903296
30
0
41
1
10
8.80000000000001
20
24.3796042689728
30
0
41
1
10
8.80163455083823
20
24.3907779980145
30
0
41
1
10
8.80830923827136
20
24.4128079789454
30
0
41
1
10
8.81337554096694
20
24.4237713296249
30
0
41
1
10
8.82815704022067
20
24.444733922371
30
0
41
1
10
8.83786774938949
20
24.4547749264136
30
0
41
1
10
8.85729095277543
20
24.4668568626107
30
0
41
1
10
8.86478200023367
20
24.4704575749197
30
0
41
1
10
8.88138055785657
20
24.475581685116
30
0
41
1
10
8.89060241852457
20
24.4770989586646
30
0
41
1
10
8.89999999999696
20
24.4770989586648
30
0
0
SPLINE
5
432
100
AcDbEntity
8
1
62
256
6
ByLayer
370
18
48
1
60
0
100
AcDbSpline
70
4
71
3
72
18
73
14
40
0
40
0
40
0
40
0
40
0.125000000000003
40
0.125000000000003
40
0.250000000000006
40
0.250000000000006
40
0.375000000000009
40
0.375000000000009
40
0.500000000000012
40
0.500000000000012
40
0.750000000000006
40
0.750000000000006
40
1
40
1
40
1
40
1
41
1
10
12.9719189110768
20
-28.4049072899579
30
0
41
1
10
12.9590593140209
20
-28.3923791024939
30
0
41
1
10
12.9434845039409
20
-28.3838877037782
30
0
41
1
10
12.9091578675263
20
-28.3707113297045
30
0
41
1
10
12.8908406166723
20
-28.3663375366761
30
0
41
1
10
12.8530602401122
20
-28.3599471105304
30
0
41
1
10
12.8334172340524
20
-28.3579412461314
30
0
41
1
10
12.7933968996399
20
-28.355275686817
30
0
41
1
10
12.7731625187089
20
-28.3546261436874
30
0
41
1
10
12.7118811341256
20
-28.3536768725199
30
0
41
1
10
12.6702622603747
20
-28.3543227296455
30
0
41
1
10
12.5857179052792
20
-28.3554315994461
30
0
41
1
10
12.5428394515083
20
-28.3559180843624
30
0
41
1
10
12.5
20
-28.3559180843624
30
0
0
SPLINE
5
433
100
AcDbEntity
8
1
62
256
6
ByLayer
370
18
48
1
60
0
100
AcDbSpline
70
4
71
3
72
10
73
6
40
0
40
0
40
0
40
0
40
0.5
40
0.5
40
1
40
1
40
1
40
1
41
1
10
13.242706277112
20
-28.7937575320485
30
0
41
1
10
13.209246242737
20
-28.7251680066921
30
0
41
1
10
13.1714278788932
20
-28.6579904624716
30
0
41
1
10
13.0832188416491
20
-28.5277084630559
30
0
41
1
10
13.0331032999956
20
-28.4645148725994
30
0
41
1
10
12.9719189110768
20
-28.4049072899579
30
0
0
SPLINE
5
434
100
AcDbEntity
8
1
62
256
6
ByLayer
370
18
48
1
60
0
100
AcDbSpline
70
4
71
3
72
22
73
18
40
0
40
0
40
0
40
0
40
0.249999999999993
40
0.249999999999993
40
0.499999999999986
40
0.499999999999986
40
0.624999999999976
40
0.624999999999976
40
0.749999999999967
40
0.749999999999967
40
0.812499999999975
40
0.812499999999975
40
0.874999999999983
40
0.874999999999983
40
0.937499999999992
40
0.937499999999992
40
1
40
1
40
1
40
1
41
1
10
13.242706277112
20
-28.7937575320485
30
0
41
1
10
13.2710371741529
20
-28.7160362233355
30
0
41
1
10
13.2989446597614
20
-28.6384696663186
30
0
41
1
10
13.3534978497404
20
-28.4837977178835
30
0
41
1
10
13.3803213587207
20
-28.4062014103435
30
0
41
1
10
13.4176080684249
20
-28.2941898781145
30
0
41
1
10
13.4296345723522
20
-28.2572954991381
30
0
41
1
10
13.4518022139646
20
-28.187088638074
30
0
41
1
10
13.4620001967191
20
-28.1536266891716
30
0
41
1
10
13.4753422645979
20
-28.1070562594507
30
0
41
1
10
13.4794506157115
20
-28.0921624757904
30
0
41
1
10
13.4866239490963
20
-28.0647597836156
30
0
41
1
10
13.489722811005
20
-28.052135669571
30
0
41
1
10
13.4948032830794
20
-28.0293546976824
30
0
41
1
10
13.4967753186987
20
-28.0192006040446
30
0
41
1
10
13.4993583054841
20
-28.002363794271
30
0
41
1
10
13.5
20
-27.9955553743491
30
0
41
1
10
13.5
20
-27.990336859488
30
0
0
SPLINE
5
435
100
AcDbEntity
8
1
62
256
6
ByLayer
370
18
48
1
60
0
100
AcDbSpline
70
4
71
3
72
24
73
20
40
0
40
0
40
0
40
0
40
0.0625
40
0.0625
40
0.125
40
0.125
40
0.1875
40
0.1875
40
0.25
40
0.25
40
0.375
40
0.375
40
0.5
40
0.5
40
0.625
40
0.625
40
0.75
40
0.75
40
1
40
1
40
1
40
1
41
1
10
2.5
20
-27.990336859488
30
0
41
1
10
2.5
20
-27.995570431441
30
0
41
1
10
2.50066560835916
20
-28.0025776317745
30
0
41
1
10
2.50328780076643
20
-28.0195521128001
30
0
41
1
10
2.50523456110318
20
-28.029538407717
30
0
41
1
10
2.51032397665966
20
-28.0523312156474
30
0
41
1
10
2.51349743067522
20
-28.0652441992212
30
0
41
1
10
2.5207165267301
20
-28.0927793900761
30
0
41
1
10
2.52477386095171
20
-28.1074697292164
30
0
41
1
10
2.53807144844785
20
-28.1538602159282
30
0
41
1
10
2.54851752886373
20
-28.1881260174416
30
0
41
1
10
2.57074619860612
20
-28.2584759154082
30
0
41
1
10
2.58261695022713
20
-28.2948741671954
30
0
41
1
10
2.60743455674407
20
-28.3694109814566
30
0
41
1
10
2.62043716965206
20
-28.4077010669525
30
0
41
1
10
2.64680464923572
20
-28.4842649338412
30
0
41
1
10
2.66022192874152
20
-28.5226974899535
30
0
41
1
10
2.7010106502774
20
-28.6383414238196
30
0
41
1
10
2.72891094090909
20
-28.715893885263
30
0
41
1
10
2.75729372288413
20
-28.7937575320382
30
0
0
SPLINE
5
436
100
AcDbEntity
8
1
62
256
6
ByLayer
370
18
48
1
60
0
100
AcDbSpline
70
4
71
3
72
10
73
6
40
0
40
0
40
0
40
0
40
0.5
40
0.5
40
1
40
1
40
1
40
1
41
1
10
3.02808108892282
20
-28.4049072899583
30
0
41
1
10
2.96718028205032
20
-28.4642385988549
30
0
41
1
10
2.91707503013697
20
-28.5273194024676
30
0
41
1
10
2.82879054683212
20
-28.6576231358829
30
0
41
1
10
2.79086741775455
20
-28.7249350147276
30
0
41
1
10
2.75729372289192
20
-28.7937575320405
30
0
0
SPLINE
5
437
100
AcDbEntity
8
1
62
256
6
ByLayer
370
18
48
1
60
0
100
AcDbSpline
70
4
71
3
72
16
73
12
40
0
40
0
40
0
40
0
40
0.250000000000001
40
0.250000000000001
40
0.500000000000003
40
0.500000000000003
40
0.750000000000004
40
0.750000000000004
40
0.875000000000002
40
0.875000000000002
40
1
40
1
40
1
40
1
41
1
10
3.5
20
-28.3559180843625
30
0
41
1
10
3.4570826951072
20
-28.3559180843625
30
0
41
1
10
3.41464648835318
20
-28.3554363001952
30
0
41
1
10
3.33074972241974
20
-28.3543360800786
30
0
41
1
10
3.28928757997807
20
-28.3536850427133
30
0
41
1
10
3.20751803062143
20
-28.3548998582803
30
0
41
1
10
3.16676425698353
20
-28.356655878025
30
0
41
1
10
3.10966522080611
20
-28.3662217550279
30
0
41
1
10
3.09108815500849
20
-28.3706507442587
30
0
41
1
10
3.05690283732679
20
-28.3837057928876
30
0
41
1
10
3.04092380896611
20
-28.3923955445475
30
0
41
1
10
3.0280810889148
20
-28.4049072899494
30
0
0
SPLINE
5
438
100
AcDbEntity
8
1
62
256
6
ByLayer
370
18
48
1
60
0
100
AcDbSpline
70
4
71
3
72
14
73
10
40
0
40
0
40
0
40
0
40
0.25
40
0.25
40
0.5
40
0.5
40
0.75
40
0.75
40
1
40
1
40
1
40
1
41
1
10
11.7
20
-11.7957880254011
30
0
41
1
10
11.7187533495993
20
-11.7957880254011
30
0
41
1
10
11.7359889247406
20
-11.8049042075821
30
0
41
1
10
11.762103068051
20
-11.8291612040243
30
0
41
1
10
11.77176526979
20
-11.8441981229179
30
0
41
1
10
11.7864509432771
20
-11.8753649832278
30
0
41
1
10
11.7916015893125
20
-11.891933979108
30
0
41
1
10
11.7983688968355
20
-11.9254488114607
30
0
41
1
10
11.8
20
-11.9423901896889
30
0
41
1
10
11.8
20
-11.9595010925951
30
0
0
SPLINE
5
439
100
AcDbEntity
8
1
62
256
6
ByLayer
370
18
48
1
60
0
100
AcDbSpline
70
4
71
3
72
64
73
60
40
0
40
0
40
0
40
0
40
0.0625000000000007
40
0.0625000000000007
40
0.125000000000001
40
0.125000000000001
40
0.187500000000002
40
0.187500000000002
40
0.218750000000003
40
0.218750000000003
40
0.250000000000003
40
0.250000000000003
40
0.312500000000004
40
0.312500000000004
40
0.343750000000005
40
0.343750000000005
40
0.375000000000006
40
0.375000000000006
40
0.406250000000007
40
0.406250000000007
40
0.437500000000008
40
0.437500000000008
40
0.453125000000007
40
0.453125000000007
40
0.468750000000006
40
0.468750000000006
40
0.484375000000006
40
0.484375000000006
40
0.500000000000005
40
0.500000000000005
40
0.515625000000004
40
0.515625000000004
40
0.531250000000003
40
0.531250000000003
40
0.546875000000003
40
0.546875000000003
40
0.562500000000002
40
0.562500000000002
40
0.59375
40
0.59375
40
0.609374999999999
40
0.609374999999999
40
0.624999999999998
40
0.624999999999998
40
0.687499999999999
40
0.687499999999999
40
0.71875
40
0.71875
40
0.75
40
0.75
40
0.812500000000001
40
0.812500000000001
40
0.875000000000002
40
0.875000000000002
40
0.906250000000001
40
0.906250000000001
40
0.937499999999999
40
0.937499999999999
40
1
40
1
40
1
40
1
41
1
10
8.80000000000001
20
-16.0596492430086
30
0
41
1
10
8.80000000000001
20
-16.1712820512668
30
0
41
1
10
8.80768243883693
20
-16.2804771151077
30
0
41
1
10
8.83654679611345
20
-16.4943679879109
30
0
41
1
10
8.8577382487245
20
-16.5990618769532
30
0
41
1
10
8.91310352089778
20
-16.804138435344
30
0
41
1
10
8.94726719261132
20
-16.9045215484012
30
0
41
1
10
9.00883286515773
20
-17.0518854131008
30
0
41
1
10
9.03114517281335
20
-17.1005830390672
30
0
41
1
10
9.07916897279182
20
-17.1962402076363
30
0
41
1
10
9.10486081781914
20
-17.243187209645
30
0
41
1
10
9.18734599934152
20
-17.3813416213155
30
0
41
1
10
9.24940133867136
20
-17.4699028499002
30
0
41
1
10
9.35647028339332
20
-17.5967304164633
30
0
41
1
10
9.39466131559055
20
-17.6381240854848
30
0
41
1
10
9.4760009886333
20
-17.7176954982698
30
0
41
1
10
9.51915793418806
20
-17.7559290379788
30
0
41
1
10
9.61181977946637
20
-17.82871889003
30
0
41
1
10
9.6614678386091
20
-17.8633931460315
30
0
41
1
10
9.7688643468997
20
-17.9275158473495
30
0
41
1
10
9.8258674677457
20
-17.9565636294163
30
0
41
1
10
9.91830400024406
20
-17.994115300017
30
0
41
1
10
9.95046461877274
20
-18.0056735759994
30
0
41
1
10
10.0168105631216
20
-18.0260638396925
30
0
41
1
10
10.0507526022957
20
-18.0348356018059
30
0
41
1
10
10.1203787005383
20
-18.0491929322413
30
0
41
1
10
10.1560619215438
20
-18.0547801497096
30
0
41
1
10
10.2294410653837
20
-18.0623003049438
30
0
41
1
10
10.2661677191207
20
-18.0641221040405
30
0
41
1
10
10.3393131598916
20
-18.0639309571293
30
0
41
1
10
10.3757952002756
20
-18.0619244914323
30
0
41
1
10
10.4485798093609
20
-18.0541202192591
30
0
41
1
10
10.4847274385943
20
-18.0483027310914
30
0
41
1
10
10.5544423651171
20
-18.0335756961379
30
0
41
1
10
10.5883383941874
20
-18.0246366323422
30
0
41
1
10
10.6544558792414
20
-18.0039805309575
30
0
41
1
10
10.6865661817348
20
-17.9922785997287
30
0
41
1
10
10.7786583391762
20
-17.9544058070083
30
0
41
1
10
10.83528845293
20
-17.925261427558
30
0
41
1
10
10.9151872924364
20
-17.877206804708
30
0
41
1
10
10.9410451780233
20
-17.8603944905981
30
0
41
1
10
10.9907854006196
20
-17.8257881247059
30
0
41
1
10
11.0146722465706
20
-17.8080021702196
30
0
41
1
10
11.1299432863956
20
-17.7169471430731
30
0
41
1
10
11.2092708220746
20
-17.6374782488588
30
0
41
1
10
11.3159554982423
20
-17.5108536371642
30
0
41
1
10
11.3494598543461
20
-17.467250035617
30
0
41
1
10
11.4120329177496
20
-17.3786811290169
30
0
41
1
10
11.4411868456311
20
-17.3336292773218
30
0
41
1
10
11.5230460781922
20
-17.1962877565987
30
0
41
1
10
11.5702087878356
20
-17.1018244869672
30
0
41
1
10
11.6516795222684
20
-16.9072654985865
30
0
41
1
10
11.6859593788406
20
-16.8071653914696
30
0
41
1
10
11.727857021502
20
-16.6526318721134
30
0
41
1
10
11.7402434209374
20
-16.6002867420108
30
0
41
1
10
11.7616127363441
20
-16.4946474450061
30
0
41
1
10
11.7705998376614
20
-16.4413738863745
30
0
41
1
10
11.7923682146804
20
-16.2801736697332
30
0
41
1
10
11.8
20
-16.1708707255619
30
0
41
1
10
11.8
20
-16.0596492430085
30
0
0
SPLINE
5
43A
100
AcDbEntity
8
1
62
256
6
ByLayer
370
18
48
1
60
0
100
AcDbSpline
70
4
71
3
72
16
73
12
40
0
40
0
40
0
40
0
40
0.249999999999996
40
0.249999999999996
40
0.499999999999992
40
0.499999999999992
40
0.749999999999988
40
0.749999999999988
40
0.874999999999994
40
0.874999999999994
40
1
40
1
40
1
40
1
41
1
10
8.80000000000001
20
-11.9595010925951
30
0
41
1
10
8.80000000000001
20
-11.9423782616841
30
0
41
1
10
8.80163455083823
20
-11.9255085112575
30
0
41
1
10
8.80830923827136
20
-11.8922998054855
30
0
41
1
10
8.813375540967
20
-11.8758000498154
30
0
41
1
10
8.82815704022067
20
-11.8442973055089
30
0
41
1
10
8.83786774938949
20
-11.8292327838345
30
0
41
1
10
8.85729095277543
20
-11.8111245341154
30
0
41
1
10
8.86478200023367
20
-11.8057314408468
30
0
41
1
10
8.88138055785657
20
-11.7980587789647
30
0
41
1
10
8.89060241852457
20
-11.7957880253924
30
0
41
1
10
8.89999999999696
20
-11.7957880253919
30
0
0
SPLINE
5
43B
100
AcDbEntity
8
1
62
256
6
ByLayer
370
18
48
1
60
0
100
AcDbSpline
70
4
71
3
72
29
73
25
40
0
40
0
40
0
40
0
40
0.0625000000000024
40
0.0625000000000024
40
0.125000000000005
40
0.125000000000005
40
0.25000000000001
40
0.25000000000001
40
0.31250000000001
40
0.31250000000001
40
0.375000000000011
40
0.375000000000011
40
0.500000000000016
40
0.500000000000016
40
0.562500000000012
40
0.562500000000012
40
0.625000000000007
40
0.687500000000003
40
0.687500000000003
40
0.749999999999999
40
0.749999999999999
40
0.874999999999999
40
0.874999999999999
40
1
40
1
40
1
40
1
41
1
10
2.5
20
-18.4808360331852
30
0
41
1
10
2.5
20
-18.5004979169469
30
0
41
1
10
2.50150263266227
20
-18.5202495807414
30
0
41
1
10
2.50747584248427
20
-18.5590462058593
30
0
41
1
10
2.51193454499253
20
-18.5781628580725
30
0
41
1
10
2.52968272543251
20
-18.6346895761689
30
0
41
1
10
2.54730362105261
20
-18.6712813688559
30
0
41
1
10
2.58294219701821
20
-18.7245277557591
30
0
41
1
10
2.59641258857738
20
-18.7420285300565
30
0
41
1
10
2.62592312721813
20
-18.7757180760908
30
0
41
1
10
2.64202072545226
20
-18.7920059085895
30
0
41
1
10
2.69432748327796
20
-18.8392416226678
30
0
41
1
10
2.73450958323508
20
-18.8685762149491
30
0
41
1
10
2.80337443485922
20
-18.9092685813358
30
0
41
1
10
2.8275686297971
20
-18.9221453511371
30
0
41
1
10
2.87779893256095
20
-18.9462487853747
30
0
41
1
10
2.93004996757321
20
-18.9688090771263
30
0
41
1
10
2.98634811163697
20
-18.9883370952421
30
0
41
1
10
3.04473301552599
20
-19.006329552314
30
0
41
1
10
3.07516704889162
20
-19.0146006046153
30
0
41
1
10
3.16796250387784
20
-19.0365970130814
30
0
41
1
10
3.2318223816111
20
-19.047611595419
30
0
41
1
10
3.36350648786066
20
-19.0625374325869
30
0
41
1
10
3.43176363312091
20
-19.0664055737179
30
0
41
1
10
3.5
20
-19.0664055737179
30
0
0
SPLINE
5
43C
100
AcDbEntity
8
1
62
256
6
ByLayer
370
18
48
1
60
0
100
AcDbSpline
70
4
71
3
72
27
73
23
40
0
40
0
40
0
40
0
40
0.125000000000009
40
0.125000000000009
40
0.187500000000016
40
0.187500000000016
40
0.250000000000023
40
0.250000000000023
40
0.375000000000026
40
0.375000000000026
40
0.437500000000029
40
0.437500000000029
40
0.500000000000033
40
0.562500000000036
40
0.562500000000036
40
0.625000000000039
40
0.625000000000039
40
0.750000000000026
40
0.750000000000026
40
0.875000000000013
40
0.875000000000013
40
1
40
1
40
1
40
1
41
1
10
12.5
20
-19.0664055737178
30
0
41
1
10
12.5681877017649
20
-19.0664055737178
30
0
41
1
10
12.6351360578583
20
-19.0626352732776
30
0
41
1
10
12.7337820550949
20
-19.0515372903494
30
0
41
1
10
12.7663655636114
20
-19.0469228131782
30
0
41
1
10
12.8309208958618
20
-19.0358027214039
30
0
41
1
10
12.8627157506118
20
-19.0293157525321
30
0
41
1
10
12.9550406874967
20
-19.0074583820616
30
0
41
1
10
13.0132083695697
20
-18.9896069021667
30
0
41
1
10
13.0954373346225
20
-18.9578020657734
30
0
41
1
10
13.1220546934211
20
-18.946317005944
30
0
41
1
10
13.1724575407737
20
-18.9221348063972
30
0
41
1
10
13.220333489266
20
-18.8966358202096
30
0
41
1
10
13.2633111030798
20
-18.8685254970179
30
0
41
1
10
13.3038475908555
20
-18.8390844397095
30
0
41
1
10
13.322983365372
20
-18.8236132326324
30
0
41
1
10
13.3758505898486
20
-18.7758587546117
30
0
41
1
10
13.4051383736376
20
-18.7422932984936
30
0
41
1
10
13.4524403405078
20
-18.6717065118194
30
0
41
1
10
13.4704795859109
20
-18.6343489350198
30
0
41
1
10
13.4941369003838
20
-18.5586470400466
30
0
41
1
10
13.5
20
-18.5200975451401
30
0
41
1
10
13.5
20
-18.4808360331852
30
0
0
SPLINE
5
43D
100
AcDbEntity
8
1
62
256
6
ByLayer
370
18
48
1
60
0
100
AcDbSpline
70
4
71
2
72
6
73
3
40
0
40
0
40
0
40
1
40
1
40
1
41
0.499999989576686
10
13.1200195415
20
6.29023139509032
30
0
41
0.500000010423314
10
13.1200097792402
20
6.29017124060492
30
0
41
0.499999989576686
10
13.12
20
6.29011104537098
30
0
0
SPLINE
5
43E
100
AcDbEntity
8
1
62
256
6
ByLayer
370
18
48
1
60
0
100
AcDbSpline
70
4
71
2
72
6
73
3
40
0
40
0
40
0
40
1
40
1
40
1
41
0.499999876840962
10
2.88000000000002
20
6.29011104537107
30
0
41
0.500000123159038
10
2.87999022075934
20
6.29017124060768
30
0
41
0.499999876840962
10
2.87998045850001
20
6.29023139509027
30
0
0
SPLINE
5
43F
100
AcDbEntity
8
1
62
256
6
ByLayer
370
18
48
1
60
0
100
AcDbSpline
70
4
71
3
72
27
73
23
40
0
40
0
40
0
40
0
40
0.12499999999999
40
0.12499999999999
40
0.187499999999985
40
0.187499999999985
40
0.249999999999979
40
0.249999999999979
40
0.37499999999998
40
0.37499999999998
40
0.437499999999981
40
0.437499999999981
40
0.499999999999983
40
0.562499999999984
40
0.562499999999984
40
0.624999999999985
40
0.624999999999985
40
0.74999999999999
40
0.74999999999999
40
0.874999999999995
40
0.874999999999995
40
1
40
1
40
1
40
1
41
1
10
12.5
20
21.2370220114191
30
0
41
1
10
12.5681877017649
20
21.2370220114191
30
0
41
1
10
12.6351360578583
20
21.2372043295497
30
0
41
1
10
12.7337820550949
20
21.237783748537
30
0
41
1
10
12.7663655636114
20
21.2380291192646
30
0
41
1
10
12.8309208958618
20
21.2386453877811
30
0
41
1
10
12.8627157506118
20
21.2390155162853
30
0
41
1
10
12.9550406874966
20
21.2403236099702
30
0
41
1
10
13.0132083695698
20
21.2414610881318
30
0
41
1
10
13.0954373346225
20
21.243746541552
30
0
41
1
10
13.1220546934211
20
21.2446095402917
30
0
41
1
10
13.1724575407737
20
21.2465275665966
30
0
41
1
10
13.220333489266
20
21.2486446709635
30
0
41
1
10
13.2633111030798
20
21.2512174942289
30
0
41
1
10
13.3038475908555
20
21.2540522915644
30
0
41
1
10
13.322983365372
20
21.2556098912271
30
0
41
1
10
13.3758505898486
20
21.2606562879725
30
0
41
1
10
13.4051383736377
20
21.2645087089251
30
0
41
1
10
13.4524403405078
20
21.2733577740144
30
0
41
1
10
13.4704795859109
20
21.278407398308
30
0
41
1
10
13.4941369003839
20
21.2894446580909
30
0
41
1
10
13.5
20
21.2954513796205
30
0
41
1
10
13.5
20
21.3019688176111
30
0
0
SPLINE
5
440
100
AcDbEntity
8
1
62
256
6
ByLayer
370
18
48
1
60
0
100
AcDbSpline
70
4
71
3
72
10
73
6
40
0
40
0
40
0
40
0
40
0.5
40
0.5
40
1
40
1
40
1
40
1
41
1
10
13.2427062771121
20
11.0605962563834
30
0
41
1
10
13.2092462842749
20
11.1536977816208
30
0
41
1
10
13.171427958829
20
11.2448827689259
30
0
41
1
10
13.0832189494631
20
11.421724160916
30
0
41
1
10
13.0331034044688
20
11.5075015554921
30
0
41
1
10
12.9719189110768
20
11.5884114786338
30
0
0
SPLINE
5
441
100
AcDbEntity
8
1
62
256
6
ByLayer
370
18
48
1
60
0
100
AcDbSpline
70
4
71
3
72
22
73
18
40
0
40
0
40
0
40
0
40
0.250000000000021
40
0.250000000000021
40
0.500000000000043
40
0.500000000000043
40
0.625000000000051
40
0.625000000000051
40
0.750000000000059
40
0.750000000000059
40
0.812500000000045
40
0.812500000000045
40
0.87500000000003
40
0.87500000000003
40
0.937500000000015
40
0.937500000000015
40
1
40
1
40
1
40
1
41
1
10
13.2427062771121
20
11.0605962563834
30
0
41
1
10
13.2710440307116
20
11.1265415178994
30
0
41
1
10
13.2990608780648
20
11.1906652787927
30
0
41
1
10
13.3539224002231
20
11.3129299697657
30
0
41
1
10
13.3804384006202
20
11.3703910761437
30
0
41
1
10
13.417807851108
20
11.4469324757409
30
0
41
1
10
13.4296558034096
20
11.4703886876442
30
0
41
1
10
13.4516577470352
20
11.5116481563564
30
0
41
1
10
13.4618321961995
20
11.5295101444257
30
0
41
1
10
13.4752183299901
20
11.5500225741958
30
0
41
1
10
13.4793465466115
20
11.5557572904534
30
0
41
1
10
13.4865531353169
20
11.5642731984309
30
0
41
1
10
13.4896686202087
20
11.5671143297924
30
0
41
1
10
13.4947784546224
20
11.5695403006882
30
0
41
1
10
13.4967580008336
20
11.569077002682
30
0
41
1
10
13.4993536442603
20
11.5646908901958
30
0
41
1
10
13.5
20
11.5607926468508
30
0
41
1
10
13.5
20
11.5552025922444
30
0
0
SPLINE
5
442
100
AcDbEntity
8
1
62
256
6
ByLayer
370
18
48
1
60
0
100
AcDbSpline
70
4
71
3
72
18
73
14
40
0
40
0
40
0
40
0
40
0.125000000000005
40
0.125000000000005
40
0.25000000000001
40
0.25000000000001
40
0.375000000000015
40
0.375000000000015
40
0.50000000000002
40
0.50000000000002
40
0.75000000000001
40
0.75000000000001
40
1
40
1
40
1
40
1
41
1
10
12.9719189110768
20
11.5884114786338
30
0
41
1
10
12.9590575515744
20
11.6054192456538
30
0
41
1
10
12.943482407954
20
11.6187102102735
30
0
41
1
10
12.9091588074854
20
11.6413889715883
30
0
41
1
10
12.8908382395752
20
11.6503428425887
30
0
41
1
10
12.8530581567046
20
11.6652565161194
30
0
41
1
10
12.8334179903051
20
11.6712473994139
30
0
41
1
10
12.7933946377139
20
11.6811696919752
30
0
41
1
10
12.7731593063164
20
11.6850681547215
30
0
41
1
10
12.7118765217908
20
11.694670220021
30
0
41
1
10
12.6702586315713
20
11.6983398458599
30
0
41
1
10
12.5857195715674
20
11.703019922324
30
0
41
1
10
12.5428396123707
20
11.7039903256366
30
0
41
1
10
12.5
20
11.7039903256366
30
0
0
SPLINE
5
443
100
AcDbEntity
8
1
62
256
6
ByLayer
370
18
48
1
60
0
100
AcDbSpline
70
4
71
3
72
29
73
25
40
0
40
0
40
0
40
0
40
0.06249999999999
40
0.06249999999999
40
0.12499999999998
40
0.12499999999998
40
0.249999999999986
40
0.249999999999986
40
0.312499999999989
40
0.312499999999989
40
0.374999999999991
40
0.374999999999991
40
0.499999999999997
40
0.499999999999997
40
0.5625
40
0.5625
40
0.625000000000003
40
0.687500000000007
40
0.687500000000007
40
0.75000000000001
40
0.75000000000001
40
0.875000000000005
40
0.875000000000005
40
1
40
1
40
1
40
1
41
1
10
2.5
20
21.3019688176111
30
0
41
1
10
2.5
20
21.2987049313822
30
0
41
1
10
2.50150263266227
20
21.2955260765116
30
0
41
1
10
2.50747584248427
20
21.2894787463121
30
0
41
1
10
2.51193454499253
20
21.2865975770797
30
0
41
1
10
2.52968272543251
20
21.2783611914402
30
0
41
1
10
2.54730362105261
20
21.2734125688828
30
0
41
1
10
2.58294219701821
20
21.2667351326687
30
0
41
1
10
2.59641258857738
20
21.2646317053309
30
0
41
1
10
2.62592312721813
20
21.2607454545164
30
0
41
1
10
2.64202072545226
20
21.2589497798762
30
0
41
1
10
2.69432748327796
20
21.25395873518
30
0
41
1
10
2.73450958323508
20
21.2511578551907
30
0
41
1
10
2.80337443485922
20
21.2475955194384
30
0
41
1
10
2.8275686297971
20
21.2465268053893
30
0
41
1
10
2.87779893256095
20
21.2446148762727
30
0
41
1
10
2.93004996757321
20
21.2429190814558
30
0
41
1
10
2.98634811163697
20
21.2415872375794
30
0
41
1
10
3.04473301552599
20
21.2404100447174
30
0
41
1
10
3.07516704889162
20
21.2398963341569
30
0
41
1
10
3.16796250387784
20
21.2385794326609
30
0
41
1
10
3.2318223816111
20
21.2379889908465
30
0
41
1
10
3.36350648786066
20
21.2372091597105
30
0
41
1
10
3.43176363312091
20
21.2370220114191
30
0
41
1
10
3.5
20
21.2370220114191
30
0
0
SPLINE
5
444
100
AcDbEntity
8
1
62
256
6
ByLayer
370
18
48
1
60
0
100
AcDbSpline
70
4
71
3
72
18
73
14
40
0
40
0
40
0
40
0
40
0.124999999999993
40
0.124999999999993
40
0.249999999999987
40
0.249999999999987
40
0.37499999999998
40
0.37499999999998
40
0.499999999999973
40
0.499999999999973
40
0.749999999999986
40
0.749999999999986
40
1
40
1
40
1
40
1
41
1
10
2.5
20
11.5552025922444
30
0
41
1
10
2.5
20
11.566461485531
30
0
41
1
10
2.50262980054652
20
11.5707433317112
30
0
41
1
10
2.51284673720579
20
11.5659473607121
30
0
41
1
10
2.52021380636586
20
11.5570091435975
30
0
41
1
10
2.53812473087083
20
11.5295891002682
30
0
41
1
10
2.54837518696894
20
11.5115952522586
30
0
41
1
10
2.57054415912358
20
11.4700047555101
30
0
41
1
10
2.58256902143438
20
11.4461753497437
30
0
41
1
10
2.61983537127293
20
11.369800111277
30
0
41
1
10
2.64620940009149
20
11.3126337951422
30
0
41
1
10
2.70069027141767
20
11.1912223068999
30
0
41
1
10
2.72888961155093
20
11.1266959401038
30
0
41
1
10
2.75729372288777
20
11.0605962563845
30
0
0
SPLINE
5
445
100
AcDbEntity
8
1
62
256
6
ByLayer
370
18
48
1
60
0
100
AcDbSpline
70
4
71
3
72
10
73
6
40
0
40
0
40
0
40
0
40
0.5
40
0.5
40
1
40
1
40
1
40
1
41
1
10
3.02808108892299
20
11.5884114786335
30
0
41
1
10
2.96717962322708
20
11.5078758292312
30
0
41
1
10
2.91707434456958
20
11.4222512241308
30
0
41
1
10
2.82879003600442
20
11.2453803855427
30
0
41
1
10
2.7908671515674
20
11.1540134137843
30
0
41
1
10
2.75729372288794
20
11.0605962563833
30
0
0
SPLINE
5
446
100
AcDbEntity
8
1
62
256
6
ByLayer
370
18
48
1
60
0
100
AcDbSpline
70
4
71
3
72
16
73
12
40
0
40
0
40
0
40
0
40
0.249999999999994
40
0.249999999999994
40
0.499999999999989
40
0.499999999999989
40
0.749999999999983
40
0.749999999999983
40
0.874999999999992
40
0.874999999999992
40
1
40
1
40
1
40
1
41
1
10
3.5
20
11.7039903256366
30
0
41
1
10
3.45708268322971
20
11.7039903256366
30
0
41
1
10
3.41464646486088
20
11.7030242775388
30
0
41
1
10
3.33074967625589
20
11.6984113156065
30
0
41
1
10
3.28928752275368
20
11.6947969421648
30
0
41
1
10
3.20751795206581
20
11.682094719907
30
0
41
1
10
3.16676408700732
20
11.6729990370537
30
0
41
1
10
3.1096654471458
20
11.6505817831274
30
0
41
1
10
3.09108824166128
20
11.6415123426197
30
0
41
1
10
3.05690293321158
20
11.6190039494691
30
0
41
1
10
3.04092457926925
20
11.6053956156222
30
0
41
1
10
3.02808108891867
20
11.5884114786377
30
0
0
SPLINE
5
447
100
AcDbEntity
8
1
62
256
6
ByLayer
370
18
48
1
60
0
100
AcDbSpline
70
4
71
3
72
18
73
14
40
0
40
0
40
0
40
0
40
0.125000000000005
40
0.125000000000005
40
0.250000000000009
40
0.250000000000009
40
0.375000000000014
40
0.375000000000014
40
0.500000000000019
40
0.500000000000019
40
0.750000000000009
40
0.750000000000009
40
1
40
1
40
1
40
1
41
1
10
12.9719189110768
20
76.8815320399239
30
0
41
1
10
12.9590575515744
20
76.8859305475459
30
0
41
1
10
12.943482407954
20
76.8919700777246
30
0
41
1
10
12.9091588074854
20
76.9049006738317
30
0
41
1
10
12.8908382395752
20
76.9116597873962
30
0
41
1
10
12.8530581567046
20
76.9247106962853
30
0
41
1
10
12.8334179903051
20
76.9310760405722
30
0
41
1
10
12.7933946377139
20
76.9429305065807
30
0
41
1
10
12.7731593063164
20
76.9483838374103
30
0
41
1
10
12.7118765217908
20
76.9631167696583
30
0
41
1
10
12.6702586315713
20
76.9707645318712
30
0
41
1
10
12.5857195715674
20
76.9810882624844
30
0
41
1
10
12.5428396123707
20
76.9837420640222
30
0
41
1
10
12.5
20
76.9837420640222
30
0
0
SPLINE
5
448
100
AcDbEntity
8
1
62
256
6
ByLayer
370
18
48
1
60
0
100
AcDbSpline
70
4
71
3
72
16
73
12
40
0
40
0
40
0
40
0
40
0.249999999999994
40
0.249999999999994
40
0.499999999999988
40
0.499999999999988
40
0.749999999999982
40
0.749999999999982
40
0.874999999999991
40
0.874999999999991
40
1
40
1
40
1
40
1
41
1
10
3.5
20
76.9837420640222
30
0
41
1
10
3.45708268322971
20
76.9837420640222
30
0
41
1
10
3.41464646486088
20
76.9811052506936
30
0
41
1
10
3.33074967625583
20
76.9709149254052
30
0
41
1
10
3.28928752275368
20
76.9633525720898
30
0
41
1
10
3.20751795206581
20
76.9437813156733
30
0
41
1
10
3.16676408700732
20
76.931539239668
30
0
41
1
10
3.1096654471458
20
76.9118430114372
30
0
41
1
10
3.09108824166128
20
76.9049922959586
30
0
41
1
10
3.05690293321152
20
76.8921166670968
30
0
41
1
10
3.04092457926925
20
76.8859244364012
30
0
41
1
10
3.02808108891867
20
76.8815320399216
30
0
0
SPLINE
5
449
100
AcDbEntity
8
1
62
256
6
ByLayer
370
18
48
1
60
0
100
AcDbSpline
70
4
71
3
72
10
73
6
40
0
40
0
40
0
40
0
40
0.5
40
0.5
40
1
40
1
40
1
40
1
41
1
10
13.242706277112
20
76.7450297421592
30
0
41
1
10
13.2092462842748
20
76.7691074337159
30
0
41
1
10
13.171427958829
20
76.7926894748624
30
0
41
1
10
13.0832189494631
20
76.8384237684729
30
0
41
1
10
13.0331034044688
20
76.8606073110506
30
0
41
1
10
12.9719189110768
20
76.8815320399239
30
0
0
SPLINE
5
44A
100
AcDbEntity
8
1
62
256
6
ByLayer
370
18
48
1
60
0
100
AcDbSpline
70
4
71
3
72
10
73
6
40
0
40
0
40
0
40
0
40
0.5
40
0.5
40
1
40
1
40
1
40
1
41
1
10
3.02808108892299
20
76.8815320399238
30
0
41
1
10
2.96717962322856
20
76.8607041048213
30
0
41
1
10
2.91707434457197
20
76.8385600762895
30
0
41
1
10
2.82879003600834
20
76.7928181672719
30
0
41
1
10
2.79086715157183
20
76.7691890617465
30
0
41
1
10
2.75729372289277
20
76.7450297421627
30
0
0
LINE
5
7A
100
AcDbEntity
8
1
62
256
6
ByLayer
370
18
48
1
60
0
100
AcDbLine
10
12.5
20
76.983742
30
0
11
3.5
21
76.983742
31
0
39
0
210
0
220
0
230
1
0
LINE
5
7B
100
AcDbEntity
8
1
62
256
6
ByLayer
370
13
48
1
60
0
100
AcDbLine
10
12.971919
20
76.881532
30
0
11
3.028081
21
76.881532
31
0
39
0
210
0
220
0
230
1
0
LINE
5
7C
100
AcDbEntity
8
1
62
256
6
ByLayer
370
13
48
1
60
0
100
AcDbLine
10
2.81348
20
76.702281
30
0
11
13.18652
21
76.702281
31
0
39
0
210
0
220
0
230
1
0
LINE
5
7D
100
AcDbEntity
8
1
62
256
6
ByLayer
370
13
48
1
60
0
100
AcDbLine
10
2.57788
20
75.719826
30
0
11
13.42212
21
75.719826
31
0
39
0
210
0
220
0
230
1
0
LINE
5
7E
100
AcDbEntity
8
1
62
256
6
ByLayer
370
13
48
1
60
0
100
AcDbLine
10
13.15802
20
76.597145
30
0
11
2.84198
21
76.597145
31
0
39
0
210
0
220
0
230
1
0
LINE
5
7F
100
AcDbEntity
8
1
62
256
6
ByLayer
370
13
48
1
60
0
100
AcDbLine
10
13.18652
20
76.230452
30
0
11
2.81348
21
76.230452
31
0
39
0
210
0
220
0
230
1
0
LINE
5
80
100
AcDbEntity
8
1
62
256
6
ByLayer
370
13
48
1
60
0
100
AcDbLine
10
2.84198
20
76.375674
30
0
11
13.15802
21
76.375674
31
0
39
0
210
0
220
0
230
1
0
LINE
5
81
100
AcDbEntity
8
1
62
256
6
ByLayer
370
13
48
1
60
0
100
AcDbLine
10
13.42212
20
75.436086
30
0
11
12.851441
21
75.436086
31
0
39
0
210
0
220
0
230
1
0
LINE
5
82
100
AcDbEntity
8
1
62
256
6
ByLayer
370
13
48
1
60
0
100
AcDbLine
10
3.166689
20
75.436086
30
0
11
2.57788
21
75.436086
31
0
39
0
210
0
220
0
230
1
0
LINE
5
83
100
AcDbEntity
8
1
62
256
6
ByLayer
370
18
48
1
60
0
100
AcDbLine
10
2.84198
20
76.375674
30
0
11
2.84198
21
76.597145
31
0
39
0
210
0
220
0
230
1
0
LINE
5
84
100
AcDbEntity
8
1
62
256
6
ByLayer
370
18
48
1
60
0
100
AcDbLine
10
2.81348
20
76.702281
30
0
11
2.757294
21
76.74503
31
0
39
0
210
0
220
0
230
1
0
LINE
5
85
100
AcDbEntity
8
1
62
256
6
ByLayer
370
18
48
1
60
0
100
AcDbLine
10
13.242706
20
76.74503
30
0
11
13.18652
21
76.702281
31
0
39
0
210
0
220
0
230
1
0
LINE
5
86
100
AcDbEntity
8
1
62
256
6
ByLayer
370
18
48
1
60
0
100
AcDbLine
10
13.15802
20
76.597145
30
0
11
13.15802
21
76.375674
31
0
39
0
210
0
220
0
230
1
0
LINE
5
87
100
AcDbEntity
8
1
62
256
6
ByLayer
370
18
48
1
60
0
100
AcDbLine
10
13.18652
20
76.230452
30
0
11
13.42212
21
75.719826
31
0
39
0
210
0
220
0
230
1
0
LINE
5
88
100
AcDbEntity
8
1
62
256
6
ByLayer
370
18
48
1
60
0
100
AcDbLine
10
13.42212
20
75.436086
30
0
11
13.18652
21
75.256836
31
0
39
0
210
0
220
0
230
1
0
LINE
5
89
100
AcDbEntity
8
1
62
256
6
ByLayer
370
18
48
1
60
0
100
AcDbLine
10
12.5
20
-76.983742
30
0
11
3.5
21
-76.983742
31
0
39
0
210
0
220
0
230
1
0
LINE
5
8A
100
AcDbEntity
8
1
62
256
6
ByLayer
370
18
48
1
60
0
100
AcDbLine
10
13.5
20
-73.857764
30
0
11
13.5
21
-75.994872
31
0
39
0
210
0
220
0
230
1
0
LINE
5
8B
100
AcDbEntity
8
1
62
256
6
ByLayer
370
18
48
1
60
0
100
AcDbLine
10
2.5
20
-75.994872
30
0
11
2.5
21
-73.857764
31
0
39
0
210
0
220
0
230
1
0
LINE
5
8C
100
AcDbEntity
8
1
62
256
6
ByLayer
370
13
48
1
60
0
100
AcDbLine
10
12.5
20
-76.983742
30
0
11
12.5
21
-74.916412
31
0
39
0
210
0
220
0
230
1
0
LINE
5
8D
100
AcDbEntity
8
1
62
256
6
ByLayer
370
13
48
1
60
0
100
AcDbLine
10
3.5
20
-74.916412
30
0
11
3.5
21
-76.983742
31
0
39
0
210
0
220
0
230
1
0
LINE
5
8E
100
AcDbEntity
8
1
62
256
6
ByLayer
370
18
48
1
60
0
100
AcDbLine
10
8.8
20
-66.126104
30
0
11
8.8
21
-70.351643
31
0
39
0
210
0
220
0
230
1
0
LINE
5
8F
100
AcDbEntity
8
1
62
256
6
ByLayer
370
18
48
1
60
0
100
AcDbLine
10
3.5
20
-74.916412
30
0
11
12.5
21
-74.916412
31
0
39
0
210
0
220
0
230
1
0
LINE
5
90
100
AcDbEntity
8
1
62
256
6
ByLayer
370
18
48
1
60
0
100
AcDbLine
10
2.5
20
-60.036013
30
0
11
2.5
21
-65.037102
31
0
39
0
210
0
220
0
230
1
0
LINE
5
91
100
AcDbEntity
8
1
62
256
6
ByLayer
370
18
48
1
60
0
100
AcDbLine
10
13.5
20
-65.037102
30
0
11
13.5
21
-60.036013
31
0
39
0
210
0
220
0
230
1
0
LINE
5
92
100
AcDbEntity
8
1
62
256
6
ByLayer
370
18
48
1
60
0
100
AcDbLine
10
2.5
20
-65.037102
30
0
11
2.5
21
-65.987155
31
0
39
0
210
0
220
0
230
1
0
LINE
5
93
100
AcDbEntity
8
1
62
256
6
ByLayer
370
13
48
1
60
0
100
AcDbLine
10
11.7
20
-67.064884
30
0
11
11.7
21
-65.987155
31
0
39
0
210
0
220
0
230
1
0
LINE
5
94
100
AcDbEntity
8
1
62
256
6
ByLayer
370
18
48
1
60
0
100
AcDbLine
10
13.5
20
-65.987155
30
0
11
13.5
21
-65.037102
31
0
39
0
210
0
220
0
230
1
0
LINE
5
95
100
AcDbEntity
8
1
62
256
6
ByLayer
370
13
48
1
60
0
100
AcDbLine
10
8.9
20
-65.987155
30
0
11
8.9
21
-67.064884
31
0
39
0
210
0
220
0
230
1
0
LINE
5
96
100
AcDbEntity
8
1
62
256
6
ByLayer
370
18
48
1
60
0
100
AcDbLine
10
2.5
20
-65.987155
30
0
11
8.9
21
-65.987155
31
0
39
0
210
0
220
0
230
1
0
LINE
5
97
100
AcDbEntity
8
1
62
256
6
ByLayer
370
18
48
1
60
0
100
AcDbLine
10
8.9
20
-65.987155
30
0
11
11.7
21
-65.987155
31
0
39
0
210
0
220
0
230
1
0
LINE
5
98
100
AcDbEntity
8
1
62
256
6
ByLayer
370
18
48
1
60
0
100
AcDbLine
10
11.7
20
-65.987155
30
0
11
13.5
21
-65.987155
31
0
39
0
210
0
220
0
230
1
0
LINE
5
99
100
AcDbEntity
8
1
62
256
6
ByLayer
370
18
48
1
60
0
100
AcDbLine
10
2.5
20
-65.037102
30
0
11
13.5
21
-65.037102
31
0
39
0
210
0
220
0
230
1
0
LINE
5
9A
100
AcDbEntity
8
1
62
256
6
ByLayer
370
18
48
1
60
0
100
AcDbLine
10
13.5
20
55.37507
30
0
11
13.5
21
55.768278
31
0
39
0
210
0
220
0
230
1
0
LINE
5
9B
100
AcDbEntity
8
1
62
256
6
ByLayer
370
18
48
1
60
0
100
AcDbLine
10
2.5
20
55.768278
30
0
11
2.5
21
55.375162
31
0
39
0
210
0
220
0
230
1
0
LINE
5
9C
100
AcDbEntity
8
1
62
256
6
ByLayer
370
18
48
1
60
0
100
AcDbLine
10
16
20
27.1
30
0
11
16
21
-27.1
31
0
39
0
210
0
220
0
230
1
0
LINE
5
9D
100
AcDbEntity
8
1
62
256
6
ByLayer
370
13
48
1
60
0
100
AcDbLine
10
13.42212
20
56.40113
30
0
11
2.57788
21
56.40113
31
0
39
0
210
0
220
0
230
1
0
LINE
5
9E
100
AcDbEntity
8
1
62
256
6
ByLayer
370
13
48
1
60
0
100
AcDbLine
10
2.57788
20
56.686199
30
0
11
13.42212
21
56.686199
31
0
39
0
210
0
220
0
230
1
0
LINE
5
9F
100
AcDbEntity
8
1
62
256
6
ByLayer
370
13
48
1
60
0
100
AcDbLine
10
13.18652
20
56.877519
30
0
11
2.81348
21
56.877519
31
0
39
0
210
0
220
0
230
1
0
LINE
5
A0
100
AcDbEntity
8
1
62
256
6
ByLayer
370
18
48
1
60
0
100
AcDbLine
10
0
20
27.1
30
0
11
0
21
-27.1
31
0
39
0
210
0
220
0
230
1
0
LINE
5
A1
100
AcDbEntity
8
1
62
256
6
ByLayer
370
13
48
1
60
0
100
AcDbLine
10
13.42212
20
57.853351
30
0
11
2.57788
21
57.853351
31
0
39
0
210
0
220
0
230
1
0
LINE
5
A2
100
AcDbEntity
8
1
62
256
6
ByLayer
370
13
48
1
60
0
100
AcDbLine
10
2.84198
20
56.984507
30
0
11
13.15802
21
56.984507
31
0
39
0
210
0
220
0
230
1
0
LINE
5
A3
100
AcDbEntity
8
1
62
256
6
ByLayer
370
13
48
1
60
0
100
AcDbLine
10
13.15802
20
57.207015
30
0
11
2.84198
21
57.207015
31
0
39
0
210
0
220
0
230
1
0
LINE
5
A4
100
AcDbEntity
8
1
62
256
6
ByLayer
370
13
48
1
60
0
100
AcDbLine
10
2.81348
20
57.35156
30
0
11
13.18652
21
57.35156
31
0
39
0
210
0
220
0
230
1
0
LINE
5
A5
100
AcDbEntity
8
1
62
256
6
ByLayer
370
13
48
1
60
0
100
AcDbLine
10
2.57788
20
58.138421
30
0
11
13.42212
21
58.138421
31
0
39
0
210
0
220
0
230
1
0
LINE
5
A6
100
AcDbEntity
8
1
62
256
6
ByLayer
370
13
48
1
60
0
100
AcDbLine
10
13.18652
20
58.32974
30
0
11
2.81348
21
58.32974
31
0
39
0
210
0
220
0
230
1
0
LINE
5
A7
100
AcDbEntity
8
1
62
256
6
ByLayer
370
13
48
1
60
0
100
AcDbLine
10
13.42212
20
59.305572
30
0
11
2.57788
21
59.305572
31
0
39
0
210
0
220
0
230
1
0
LINE
5
A8
100
AcDbEntity
8
1
62
256
6
ByLayer
370
13
48
1
60
0
100
AcDbLine
10
2.84198
20
58.436728
30
0
11
13.15802
21
58.436728
31
0
39
0
210
0
220
0
230
1
0
LINE
5
A9
100
AcDbEntity
8
1
62
256
6
ByLayer
370
13
48
1
60
0
100
AcDbLine
10
13.15802
20
58.659237
30
0
11
2.84198
21
58.659237
31
0
39
0
210
0
220
0
230
1
0
LINE
5
AA
100
AcDbEntity
8
1
62
256
6
ByLayer
370
13
48
1
60
0
100
AcDbLine
10
2.81348
20
58.803781
30
0
11
13.18652
21
58.803781
31
0
39
0
210
0
220
0
230
1
0
LINE
5
AB
100
AcDbEntity
8
1
62
256
6
ByLayer
370
13
48
1
60
0
100
AcDbLine
10
2.57788
20
59.590642
30
0
11
13.42212
21
59.590642
31
0
39
0
210
0
220
0
230
1
0
LINE
5
AC
100
AcDbEntity
8
1
62
256
6
ByLayer
370
13
48
1
60
0
100
AcDbLine
10
13.18652
20
59.781962
30
0
11
2.81348
21
59.781962
31
0
39
0
210
0
220
0
230
1
0
LINE
5
AD
100
AcDbEntity
8
1
62
256
6
ByLayer
370
13
48
1
60
0
100
AcDbLine
10
13.42212
20
60.757794
30
0
11
2.57788
21
60.757794
31
0
39
0
210
0
220
0
230
1
0
LINE
5
AE
100
AcDbEntity
8
1
62
256
6
ByLayer
370
13
48
1
60
0
100
AcDbLine
10
2.84198
20
59.88895
30
0
11
13.15802
21
59.88895
31
0
39
0
210
0
220
0
230
1
0
LINE
5
AF
100
AcDbEntity
8
1
62
256
6
ByLayer
370
13
48
1
60
0
100
AcDbLine
10
13.15802
20
60.111458
30
0
11
2.84198
21
60.111458
31
0
39
0
210
0
220
0
230
1
0
LINE
5
B0
100
AcDbEntity
8
1
62
256
6
ByLayer
370
13
48
1
60
0
100
AcDbLine
10
2.81348
20
60.256003
30
0
11
13.18652
21
60.256003
31
0
39
0
210
0
220
0
230
1
0
LINE
5
B1
100
AcDbEntity
8
1
62
256
6
ByLayer
370
13
48
1
60
0
100
AcDbLine
10
2.57788
20
61.042864
30
0
11
13.42212
21
61.042864
31
0
39
0
210
0
220
0
230
1
0
LINE
5
B2
100
AcDbEntity
8
1
62
256
6
ByLayer
370
13
48
1
60
0
100
AcDbLine
10
13.18652
20
61.234183
30
0
11
2.81348
21
61.234183
31
0
39
0
210
0
220
0
230
1
0
LINE
5
B3
100
AcDbEntity
8
1
62
256
6
ByLayer
370
13
48
1
60
0
100
AcDbLine
10
13.42212
20
62.210015
30
0
11
2.57788
21
62.210015
31
0
39
0
210
0
220
0
230
1
0
LINE
5
B4
100
AcDbEntity
8
1
62
256
6
ByLayer
370
13
48
1
60
0
100
AcDbLine
10
2.84198
20
61.341171
30
0
11
13.15802
21
61.341171
31
0
39
0
210
0
220
0
230
1
0
LINE
5
B5
100
AcDbEntity
8
1
62
256
6
ByLayer
370
13
48
1
60
0
100
AcDbLine
10
13.15802
20
61.56368
30
0
11
2.84198
21
61.56368
31
0
39
0
210
0
220
0
230
1
0
LINE
5
B6
100
AcDbEntity
8
1
62
256
6
ByLayer
370
13
48
1
60
0
100
AcDbLine
10
2.81348
20
61.708224
30
0
11
13.18652
21
61.708224
31
0
39
0
210
0
220
0
230
1
0
LINE
5
B7
100
AcDbEntity
8
1
62
256
6
ByLayer
370
13
48
1
60
0
100
AcDbLine
10
2.57788
20
62.495085
30
0
11
13.42212
21
62.495085
31
0
39
0
210
0
220
0
230
1
0
LINE
5
B8
100
AcDbEntity
8
1
62
256
6
ByLayer
370
13
48
1
60
0
100
AcDbLine
10
13.18652
20
62.686405
30
0
11
2.81348
21
62.686405
31
0
39
0
210
0
220
0
230
1
0
LINE
5
B9
100
AcDbEntity
8
1
62
256
6
ByLayer
370
13
48
1
60
0
100
AcDbLine
10
13.42212
20
63.662237
30
0
11
2.57788
21
63.662237
31
0
39
0
210
0
220
0
230
1
0
LINE
5
BA
100
AcDbEntity
8
1
62
256
6
ByLayer
370
13
48
1
60
0
100
AcDbLine
10
2.84198
20
62.793392
30
0
11
13.15802
21
62.793392
31
0
39
0
210
0
220
0
230
1
0
LINE
5
BB
100
AcDbEntity
8
1
62
256
6
ByLayer
370
13
48
1
60
0
100
AcDbLine
10
13.15802
20
63.015901
30
0
11
2.84198
21
63.015901
31
0
39
0
210
0
220
0
230
1
0
LINE
5
BC
100
AcDbEntity
8
1
62
256
6
ByLayer
370
13
48
1
60
0
100
AcDbLine
10
2.81348
20
63.160446
30
0
11
13.18652
21
63.160446
31
0
39
0
210
0
220
0
230
1
0
LINE
5
BD
100
AcDbEntity
8
1
62
256
6
ByLayer
370
13
48
1
60
0
100
AcDbLine
10
2.57788
20
63.947307
30
0
11
13.42212
21
63.947307
31
0
39
0
210
0
220
0
230
1
0
LINE
5
BE
100
AcDbEntity
8
1
62
256
6
ByLayer
370
13
48
1
60
0
100
AcDbLine
10
13.18652
20
64.138626
30
0
11
2.81348
21
64.138626
31
0
39
0
210
0
220
0
230
1
0
LINE
5
BF
100
AcDbEntity
8
1
62
256
6
ByLayer
370
13
48
1
60
0
100
AcDbLine
10
13.42212
20
65.114458
30
0
11
2.57788
21
65.114458
31
0
39
0
210
0
220
0
230
1
0
LINE
5
C0
100
AcDbEntity
8
1
62
256
6
ByLayer
370
13
48
1
60
0
100
AcDbLine
10
2.84198
20
64.245614
30
0
11
13.15802
21
64.245614
31
0
39
0
210
0
220
0
230
1
0
LINE
5
C1
100
AcDbEntity
8
1
62
256
6
ByLayer
370
13
48
1
60
0
100
AcDbLine
10
13.15802
20
64.468123
30
0
11
2.84198
21
64.468123
31
0
39
0
210
0
220
0
230
1
0
LINE
5
C2
100
AcDbEntity
8
1
62
256
6
ByLayer
370
13
48
1
60
0
100
AcDbLine
10
2.81348
20
64.612667
30
0
11
13.18652
21
64.612667
31
0
39
0
210
0
220
0
230
1
0
LINE
5
C3
100
AcDbEntity
8
1
62
256
6
ByLayer
370
13
48
1
60
0
100
AcDbLine
10
2.57788
20
65.399528
30
0
11
13.42212
21
65.399528
31
0
39
0
210
0
220
0
230
1
0
LINE
5
C4
100
AcDbEntity
8
1
62
256
6
ByLayer
370
13
48
1
60
0
100
AcDbLine
10
13.18652
20
65.590848
30
0
11
2.81348
21
65.590848
31
0
39
0
210
0
220
0
230
1
0
LINE
5
C5
100
AcDbEntity
8
1
62
256
6
ByLayer
370
13
48
1
60
0
100
AcDbLine
10
13.42212
20
66.56668
30
0
11
2.57788
21
66.56668
31
0
39
0
210
0
220
0
230
1
0
LINE
5
C6
100
AcDbEntity
8
1
62
256
6
ByLayer
370
13
48
1
60
0
100
AcDbLine
10
2.84198
20
65.697835
30
0
11
13.15802
21
65.697835
31
0
39
0
210
0
220
0
230
1
0
LINE
5
C7
100
AcDbEntity
8
1
62
256
6
ByLayer
370
13
48
1
60
0
100
AcDbLine
10
13.15802
20
65.920344
30
0
11
2.84198
21
65.920344
31
0
39
0
210
0
220
0
230
1
0
LINE
5
C8
100
AcDbEntity
8
1
62
256
6
ByLayer
370
13
48
1
60
0
100
AcDbLine
10
2.81348
20
66.064889
30
0
11
13.18652
21
66.064889
31
0
39
0
210
0
220
0
230
1
0
LINE
5
C9
100
AcDbEntity
8
1
62
256
6
ByLayer
370
18
48
1
60
0
100
AcDbLine
10
0.4
20
27.5
30
0
11
0.4
21
-27.5
31
0
39
0
210
0
220
0
230
1
0
LINE
5
CA
100
AcDbEntity
8
1
62
256
6
ByLayer
370
18
48
1
60
0
100
AcDbLine
10
15.6
20
27.5
30
0
11
15.6
21
-27.5
31
0
39
0
210
0
220
0
230
1
0
LINE
5
CB
100
AcDbEntity
8
1
62
256
6
ByLayer
370
18
48
1
60
0
100
AcDbLine
10
3.5
20
75.498027
30
0
11
12.5
21
75.498027
31
0
39
0
210
0
220
0
230
1
0
LINE
5
CC
100
AcDbEntity
8
1
62
256
6
ByLayer
370
13
48
1
60
0
100
AcDbLine
10
2.57788
20
66.851749
30
0
11
13.42212
21
66.851749
31
0
39
0
210
0
220
0
230
1
0
LINE
5
CD
100
AcDbEntity
8
1
62
256
6
ByLayer
370
13
48
1
60
0
100
AcDbLine
10
13.18652
20
67.043069
30
0
11
2.81348
21
67.043069
31
0
39
0
210
0
220
0
230
1
0
LINE
5
CE
100
AcDbEntity
8
1
62
256
6
ByLayer
370
13
48
1
60
0
100
AcDbLine
10
13.42212
20
68.018901
30
0
11
2.57788
21
68.018901
31
0
39
0
210
0
220
0
230
1
0
LINE
5
CF
100
AcDbEntity
8
1
62
256
6
ByLayer
370
13
48
1
60
0
100
AcDbLine
10
2.84198
20
67.150057
30
0
11
13.15802
21
67.150057
31
0
39
0
210
0
220
0
230
1
0
LINE
5
D0
100
AcDbEntity
8
1
62
256
6
ByLayer
370
13
48
1
60
0
100
AcDbLine
10
13.15802
20
67.372566
30
0
11
2.84198
21
67.372566
31
0
39
0
210
0
220
0
230
1
0
LINE
5
D1
100
AcDbEntity
8
1
62
256
6
ByLayer
370
13
48
1
60
0
100
AcDbLine
10
2.81348
20
67.51711
30
0
11
13.18652
21
67.51711
31
0
39
0
210
0
220
0
230
1
0
LINE
5
D2
100
AcDbEntity
8
1
62
256
6
ByLayer
370
13
48
1
60
0
100
AcDbLine
10
2.57788
20
68.303971
30
0
11
13.42212
21
68.303971
31
0
39
0
210
0
220
0
230
1
0
LINE
5
D3
100
AcDbEntity
8
1
62
256
6
ByLayer
370
13
48
1
60
0
100
AcDbLine
10
13.18652
20
68.495291
30
0
11
2.81348
21
68.495291
31
0
39
0
210
0
220
0
230
1
0
LINE
5
D4
100
AcDbEntity
8
1
62
256
6
ByLayer
370
13
48
1
60
0
100
AcDbLine
10
13.42212
20
69.471123
30
0
11
2.57788
21
69.471123
31
0
39
0
210
0
220
0
230
1
0
LINE
5
D5
100
AcDbEntity
8
1
62
256
6
ByLayer
370
13
48
1
60
0
100
AcDbLine
10
2.84198
20
68.602278
30
0
11
13.15802
21
68.602278
31
0
39
0
210
0
220
0
230
1
0
LINE
5
D6
100
AcDbEntity
8
1
62
256
6
ByLayer
370
13
48
1
60
0
100
AcDbLine
10
13.15802
20
68.824787
30
0
11
2.84198
21
68.824787
31
0
39
0
210
0
220
0
230
1
0
LINE
5
D7
100
AcDbEntity
8
1
62
256
6
ByLayer
370
13
48
1
60
0
100
AcDbLine
10
2.81348
20
68.969332
30
0
11
13.18652
21
68.969332
31
0
39
0
210
0
220
0
230
1
0
LINE
5
D8
100
AcDbEntity
8
1
62
256
6
ByLayer
370
13
48
1
60
0
100
AcDbLine
10
1.7
20
-27.5
30
0
11
1.7
21
27.5
31
0
39
0
210
0
220
0
230
1
0
LINE
5
D9
100
AcDbEntity
8
1
62
256
6
ByLayer
370
18
48
1
60
0
100
AcDbLine
10
12.5
20
72.521871
30
0
11
3.5
21
72.521871
31
0
39
0
210
0
220
0
230
1
0
LINE
5
DA
100
AcDbEntity
8
1
62
256
6
ByLayer
370
18
48
1
60
0
100
AcDbLine
10
13.5
20
74.613685
30
0
11
13.5
21
71.591091
31
0
39
0
210
0
220
0
230
1
0
LINE
5
DB
100
AcDbEntity
8
1
62
256
6
ByLayer
370
13
48
1
60
0
100
AcDbLine
10
14.3
20
27.5
30
0
11
14.3
21
-27.5
31
0
39
0
210
0
220
0
230
1
0
LINE
5
DC
100
AcDbEntity
8
1
62
256
6
ByLayer
370
18
48
1
60
0
100
AcDbLine
10
2.5
20
71.591091
30
0
11
2.5
21
74.613685
31
0
39
0
210
0
220
0
230
1
0
LINE
5
DD
100
AcDbEntity
8
1
62
256
6
ByLayer
370
13
48
1
60
0
100
AcDbLine
10
2.57788
20
69.756192
30
0
11
13.42212
21
69.756192
31
0
39
0
210
0
220
0
230
1
0
LINE
5
DE
100
AcDbEntity
8
1
62
256
6
ByLayer
370
13
48
1
60
0
100
AcDbLine
10
13.18652
20
69.947512
30
0
11
2.81348
21
69.947512
31
0
39
0
210
0
220
0
230
1
0
LINE
5
DF
100
AcDbEntity
8
1
62
256
6
ByLayer
370
13
48
1
60
0
100
AcDbLine
10
13.42212
20
70.923344
30
0
11
2.57788
21
70.923344
31
0
39
0
210
0
220
0
230
1
0
LINE
5
E0
100
AcDbEntity
8
1
62
256
6
ByLayer
370
13
48
1
60
0
100
AcDbLine
10
2.84198
20
70.0545
30
0
11
13.15802
21
70.0545
31
0
39
0
210
0
220
0
230
1
0
LINE
5
E1
100
AcDbEntity
8
1
62
256
6
ByLayer
370
13
48
1
60
0
100
AcDbLine
10
13.15802
20
70.277009
30
0
11
2.84198
21
70.277009
31
0
39
0
210
0
220
0
230
1
0
LINE
5
E2
100
AcDbEntity
8
1
62
256
6
ByLayer
370
13
48
1
60
0
100
AcDbLine
10
2.81348
20
70.421553
30
0
11
13.18652
21
70.421553
31
0
39
0
210
0
220
0
230
1
0
LINE
5
E3
100
AcDbEntity
8
1
62
256
6
ByLayer
370
13
48
1
60
0
100
AcDbLine
10
2.57788
20
71.208414
30
0
11
13.42212
21
71.208414
31
0
39
0
210
0
220
0
230
1
0
LINE
5
E4
100
AcDbEntity
8
1
62
256
6
ByLayer
370
13
48
1
60
0
100
AcDbLine
10
12.5
20
72.521871
30
0
11
12.5
21
75.498027
31
0
39
0
210
0
220
0
230
1
0
LINE
5
E5
100
AcDbEntity
8
1
62
256
6
ByLayer
370
18
48
1
60
0
100
AcDbLine
10
13.5
20
71.591091
30
0
11
13.5
21
55.768278
31
0
39
0
210
0
220
0
230
1
0
LINE
5
E6
100
AcDbEntity
8
1
62
256
6
ByLayer
370
18
48
1
60
0
100
AcDbLine
10
13.242706
20
71.993443
30
0
11
13.18652
21
71.873775
31
0
39
0
210
0
220
0
230
1
0
LINE
5
E7
100
AcDbEntity
8
1
62
256
6
ByLayer
370
13
48
1
60
0
100
AcDbLine
10
3.5
20
75.498027
30
0
11
3.5
21
72.521871
31
0
39
0
210
0
220
0
230
1
0
LINE
5
E8
100
AcDbEntity
8
1
62
256
6
ByLayer
370
13
48
1
60
0
100
AcDbLine
10
13.18652
20
71.399734
30
0
11
2.81348
21
71.399734
31
0
39
0
210
0
220
0
230
1
0
LINE
5
E9
100
AcDbEntity
8
1
62
256
6
ByLayer
370
18
48
1
60
0
100
AcDbLine
10
13.15802
20
71.72923
30
0
11
13.15802
21
71.506721
31
0
39
0
210
0
220
0
230
1
0
LINE
5
EA
100
AcDbEntity
8
1
62
256
6
ByLayer
370
13
48
1
60
0
100
AcDbLine
10
12.971919
20
72.375566
30
0
11
3.028081
21
72.375566
31
0
39
0
210
0
220
0
230
1
0
LINE
5
EB
100
AcDbEntity
8
1
62
256
6
ByLayer
370
13
48
1
60
0
100
AcDbLine
10
2.84198
20
71.506721
30
0
11
13.15802
21
71.506721
31
0
39
0
210
0
220
0
230
1
0
LINE
5
EC
100
AcDbEntity
8
1
62
256
6
ByLayer
370
13
48
1
60
0
100
AcDbLine
10
13.15802
20
71.72923
30
0
11
2.84198
21
71.72923
31
0
39
0
210
0
220
0
230
1
0
LINE
5
ED
100
AcDbEntity
8
1
62
256
6
ByLayer
370
13
48
1
60
0
100
AcDbLine
10
2.81348
20
71.873775
30
0
11
13.18652
21
71.873775
31
0
39
0
210
0
220
0
230
1
0
LINE
5
EE
100
AcDbEntity
8
1
62
256
6
ByLayer
370
18
48
1
60
0
100
AcDbLine
10
2.87998
20
55.757704
30
0
11
2.57788
21
56.40113
31
0
39
0
210
0
220
0
230
1
0
LINE
5
EF
100
AcDbEntity
8
1
62
256
6
ByLayer
370
13
48
1
60
0
100
AcDbLine
10
13.312078
20
55.644457
30
0
11
13.5
21
55.768278
31
0
39
0
210
0
220
0
230
1
0
LINE
5
F0
100
AcDbEntity
8
1
62
256
6
ByLayer
370
18
48
1
60
0
100
AcDbLine
10
13.18652
20
71.399734
30
0
11
13.42212
21
71.208414
31
0
39
0
210
0
220
0
230
1
0
LINE
5
F1
100
AcDbEntity
8
1
62
256
6
ByLayer
370
18
48
1
60
0
100
AcDbLine
10
13.42212
20
70.923344
30
0
11
13.18652
21
70.421553
31
0
39
0
210
0
220
0
230
1
0
LINE
5
F2
100
AcDbEntity
8
1
62
256
6
ByLayer
370
18
48
1
60
0
100
AcDbLine
10
13.15802
20
70.277009
30
0
11
13.15802
21
70.0545
31
0
39
0
210
0
220
0
230
1
0
LINE
5
F3
100
AcDbEntity
8
1
62
256
6
ByLayer
370
18
48
1
60
0
100
AcDbLine
10
13.18652
20
69.947512
30
0
11
13.42212
21
69.756192
31
0
39
0
210
0
220
0
230
1
0
LINE
5
F4
100
AcDbEntity
8
1
62
256
6
ByLayer
370
18
48
1
60
0
100
AcDbLine
10
13.42212
20
69.471123
30
0
11
13.18652
21
68.969332
31
0
39
0
210
0
220
0
230
1
0
LINE
5
F5
100
AcDbEntity
8
1
62
256
6
ByLayer
370
18
48
1
60
0
100
AcDbLine
10
13.15802
20
68.824787
30
0
11
13.15802
21
68.602278
31
0
39
0
210
0
220
0
230
1
0
LINE
5
F6
100
AcDbEntity
8
1
62
256
6
ByLayer
370
18
48
1
60
0
100
AcDbLine
10
13.18652
20
68.495291
30
0
11
13.42212
21
68.303971
31
0
39
0
210
0
220
0
230
1
0
LINE
5
F7
100
AcDbEntity
8
1
62
256
6
ByLayer
370
18
48
1
60
0
100
AcDbLine
10
13.42212
20
68.018901
30
0
11
13.18652
21
67.51711
31
0
39
0
210
0
220
0
230
1
0
LINE
5
F8
100
AcDbEntity
8
1
62
256
6
ByLayer
370
18
48
1
60
0
100
AcDbLine
10
13.15802
20
67.372566
30
0
11
13.15802
21
67.150057
31
0
39
0
210
0
220
0
230
1
0
LINE
5
F9
100
AcDbEntity
8
1
62
256
6
ByLayer
370
18
48
1
60
0
100
AcDbLine
10
13.18652
20
67.043069
30
0
11
13.42212
21
66.851749
31
0
39
0
210
0
220
0
230
1
0
LINE
5
FA
100
AcDbEntity
8
1
62
256
6
ByLayer
370
18
48
1
60
0
100
AcDbLine
10
13.42212
20
66.56668
30
0
11
13.18652
21
66.064889
31
0
39
0
210
0
220
0
230
1
0
LINE
5
FB
100
AcDbEntity
8
1
62
256
6
ByLayer
370
18
48
1
60
0
100
AcDbLine
10
13.15802
20
65.920344
30
0
11
13.15802
21
65.697835
31
0
39
0
210
0
220
0
230
1
0
LINE
5
FC
100
AcDbEntity
8
1
62
256
6
ByLayer
370
18
48
1
60
0
100
AcDbLine
10
13.18652
20
65.590848
30
0
11
13.42212
21
65.399528
31
0
39
0
210
0
220
0
230
1
0
LINE
5
FD
100
AcDbEntity
8
1
62
256
6
ByLayer
370
18
48
1
60
0
100
AcDbLine
10
13.42212
20
65.114458
30
0
11
13.18652
21
64.612667
31
0
39
0
210
0
220
0
230
1
0
LINE
5
FE
100
AcDbEntity
8
1
62
256
6
ByLayer
370
18
48
1
60
0
100
AcDbLine
10
13.15802
20
64.468123
30
0
11
13.15802
21
64.245614
31
0
39
0
210
0
220
0
230
1
0
LINE
5
FF
100
AcDbEntity
8
1
62
256
6
ByLayer
370
18
48
1
60
0
100
AcDbLine
10
13.18652
20
64.138626
30
0
11
13.42212
21
63.947307
31
0
39
0
210
0
220
0
230
1
0
LINE
5
100
100
AcDbEntity
8
1
62
256
6
ByLayer
370
18
48
1
60
0
100
AcDbLine
10
13.42212
20
63.662237
30
0
11
13.18652
21
63.160446
31
0
39
0
210
0
220
0
230
1
0
LINE
5
101
100
AcDbEntity
8
1
62
256
6
ByLayer
370
18
48
1
60
0
100
AcDbLine
10
13.15802
20
63.015901
30
0
11
13.15802
21
62.793392
31
0
39
0
210
0
220
0
230
1
0
LINE
5
102
100
AcDbEntity
8
1
62
256
6
ByLayer
370
18
48
1
60
0
100
AcDbLine
10
13.18652
20
62.686405
30
0
11
13.42212
21
62.495085
31
0
39
0
210
0
220
0
230
1
0
LINE
5
103
100
AcDbEntity
8
1
62
256
6
ByLayer
370
18
48
1
60
0
100
AcDbLine
10
13.42212
20
62.210015
30
0
11
13.18652
21
61.708224
31
0
39
0
210
0
220
0
230
1
0
LINE
5
104
100
AcDbEntity
8
1
62
256
6
ByLayer
370
18
48
1
60
0
100
AcDbLine
10
13.15802
20
61.56368
30
0
11
13.15802
21
61.341171
31
0
39
0
210
0
220
0
230
1
0
LINE
5
105
100
AcDbEntity
8
1
62
256
6
ByLayer
370
18
48
1
60
0
100
AcDbLine
10
13.18652
20
61.234183
30
0
11
13.42212
21
61.042864
31
0
39
0
210
0
220
0
230
1
0
LINE
5
106
100
AcDbEntity
8
1
62
256
6
ByLayer
370
18
48
1
60
0
100
AcDbLine
10
13.42212
20
60.757794
30
0
11
13.18652
21
60.256003
31
0
39
0
210
0
220
0
230
1
0
LINE
5
107
100
AcDbEntity
8
1
62
256
6
ByLayer
370
18
48
1
60
0
100
AcDbLine
10
13.15802
20
60.111458
30
0
11
13.15802
21
59.88895
31
0
39
0
210
0
220
0
230
1
0
LINE
5
108
100
AcDbEntity
8
1
62
256
6
ByLayer
370
18
48
1
60
0
100
AcDbLine
10
13.18652
20
59.781962
30
0
11
13.42212
21
59.590642
31
0
39
0
210
0
220
0
230
1
0
LINE
5
109
100
AcDbEntity
8
1
62
256
6
ByLayer
370
18
48
1
60
0
100
AcDbLine
10
13.42212
20
59.305572
30
0
11
13.18652
21
58.803781
31
0
39
0
210
0
220
0
230
1
0
LINE
5
10A
100
AcDbEntity
8
1
62
256
6
ByLayer
370
18
48
1
60
0
100
AcDbLine
10
13.15802
20
58.659237
30
0
11
13.15802
21
58.436728
31
0
39
0
210
0
220
0
230
1
0
LINE
5
10B
100
AcDbEntity
8
1
62
256
6
ByLayer
370
18
48
1
60
0
100
AcDbLine
10
13.18652
20
58.32974
30
0
11
13.42212
21
58.138421
31
0
39
0
210
0
220
0
230
1
0
LINE
5
10C
100
AcDbEntity
8
1
62
256
6
ByLayer
370
18
48
1
60
0
100
AcDbLine
10
13.42212
20
57.853351
30
0
11
13.18652
21
57.35156
31
0
39
0
210
0
220
0
230
1
0
LINE
5
10D
100
AcDbEntity
8
1
62
256
6
ByLayer
370
18
48
1
60
0
100
AcDbLine
10
13.15802
20
57.207015
30
0
11
13.15802
21
56.984507
31
0
39
0
210
0
220
0
230
1
0
LINE
5
10E
100
AcDbEntity
8
1
62
256
6
ByLayer
370
18
48
1
60
0
100
AcDbLine
10
13.18652
20
56.877519
30
0
11
13.42212
21
56.686199
31
0
39
0
210
0
220
0
230
1
0
LINE
5
10F
100
AcDbEntity
8
1
62
256
6
ByLayer
370
18
48
1
60
0
100
AcDbLine
10
13.42212
20
56.40113
30
0
11
13.12002
21
55.757704
31
0
39
0
210
0
220
0
230
1
0
LINE
5
110
100
AcDbEntity
8
1
62
256
6
ByLayer
370
18
48
1
60
0
100
AcDbLine
10
2.5
20
71.591091
30
0
11
2.5
21
55.768278
31
0
39
0
210
0
220
0
230
1
0
LINE
5
111
100
AcDbEntity
8
1
62
256
6
ByLayer
370
18
48
1
60
0
100
AcDbLine
10
2.57788
20
56.686199
30
0
11
2.81348
21
56.877519
31
0
39
0
210
0
220
0
230
1
0
LINE
5
112
100
AcDbEntity
8
1
62
256
6
ByLayer
370
18
48
1
60
0
100
AcDbLine
10
2.84198
20
56.984507
30
0
11
2.84198
21
57.207015
31
0
39
0
210
0
220
0
230
1
0
LINE
5
113
100
AcDbEntity
8
1
62
256
6
ByLayer
370
18
48
1
60
0
100
AcDbLine
10
2.81348
20
57.35156
30
0
11
2.57788
21
57.853351
31
0
39
0
210
0
220
0
230
1
0
LINE
5
114
100
AcDbEntity
8
1
62
256
6
ByLayer
370
18
48
1
60
0
100
AcDbLine
10
2.57788
20
58.138421
30
0
11
2.81348
21
58.32974
31
0
39
0
210
0
220
0
230
1
0
LINE
5
115
100
AcDbEntity
8
1
62
256
6
ByLayer
370
18
48
1
60
0
100
AcDbLine
10
2.84198
20
58.436728
30
0
11
2.84198
21
58.659237
31
0
39
0
210
0
220
0
230
1
0
LINE
5
116
100
AcDbEntity
8
1
62
256
6
ByLayer
370
18
48
1
60
0
100
AcDbLine
10
2.81348
20
58.803781
30
0
11
2.57788
21
59.305572
31
0
39
0
210
0
220
0
230
1
0
LINE
5
117
100
AcDbEntity
8
1
62
256
6
ByLayer
370
18
48
1
60
0
100
AcDbLine
10
2.57788
20
59.590642
30
0
11
2.81348
21
59.781962
31
0
39
0
210
0
220
0
230
1
0
LINE
5
118
100
AcDbEntity
8
1
62
256
6
ByLayer
370
18
48
1
60
0
100
AcDbLine
10
2.84198
20
59.88895
30
0
11
2.84198
21
60.111458
31
0
39
0
210
0
220
0
230
1
0
LINE
5
119
100
AcDbEntity
8
1
62
256
6
ByLayer
370
18
48
1
60
0
100
AcDbLine
10
2.81348
20
60.256003
30
0
11
2.57788
21
60.757794
31
0
39
0
210
0
220
0
230
1
0
LINE
5
11A
100
AcDbEntity
8
1
62
256
6
ByLayer
370
18
48
1
60
0
100
AcDbLine
10
2.57788
20
61.042864
30
0
11
2.81348
21
61.234183
31
0
39
0
210
0
220
0
230
1
0
LINE
5
11B
100
AcDbEntity
8
1
62
256
6
ByLayer
370
18
48
1
60
0
100
AcDbLine
10
2.84198
20
61.341171
30
0
11
2.84198
21
61.56368
31
0
39
0
210
0
220
0
230
1
0
LINE
5
11C
100
AcDbEntity
8
1
62
256
6
ByLayer
370
18
48
1
60
0
100
AcDbLine
10
2.81348
20
61.708224
30
0
11
2.57788
21
62.210015
31
0
39
0
210
0
220
0
230
1
0
LINE
5
11D
100
AcDbEntity
8
1
62
256
6
ByLayer
370
18
48
1
60
0
100
AcDbLine
10
2.57788
20
62.495085
30
0
11
2.81348
21
62.686405
31
0
39
0
210
0
220
0
230
1
0
LINE
5
11E
100
AcDbEntity
8
1
62
256
6
ByLayer
370
18
48
1
60
0
100
AcDbLine
10
2.84198
20
62.793392
30
0
11
2.84198
21
63.015901
31
0
39
0
210
0
220
0
230
1
0
LINE
5
11F
100
AcDbEntity
8
1
62
256
6
ByLayer
370
18
48
1
60
0
100
AcDbLine
10
2.81348
20
63.160446
30
0
11
2.57788
21
63.662237
31
0
39
0
210
0
220
0
230
1
0
LINE
5
120
100
AcDbEntity
8
1
62
256
6
ByLayer
370
18
48
1
60
0
100
AcDbLine
10
2.57788
20
63.947307
30
0
11
2.81348
21
64.138626
31
0
39
0
210
0
220
0
230
1
0
LINE
5
121
100
AcDbEntity
8
1
62
256
6
ByLayer
370
18
48
1
60
0
100
AcDbLine
10
2.84198
20
64.245614
30
0
11
2.84198
21
64.468123
31
0
39
0
210
0
220
0
230
1
0
LINE
5
122
100
AcDbEntity
8
1
62
256
6
ByLayer
370
18
48
1
60
0
100
AcDbLine
10
2.81348
20
64.612667
30
0
11
2.57788
21
65.114458
31
0
39
0
210
0
220
0
230
1
0
LINE
5
123
100
AcDbEntity
8
1
62
256
6
ByLayer
370
18
48
1
60
0
100
AcDbLine
10
2.57788
20
65.399528
30
0
11
2.81348
21
65.590848
31
0
39
0
210
0
220
0
230
1
0
LINE
5
124
100
AcDbEntity
8
1
62
256
6
ByLayer
370
18
48
1
60
0
100
AcDbLine
10
2.84198
20
65.697835
30
0
11
2.84198
21
65.920344
31
0
39
0
210
0
220
0
230
1
0
LINE
5
125
100
AcDbEntity
8
1
62
256
6
ByLayer
370
18
48
1
60
0
100
AcDbLine
10
2.81348
20
66.064889
30
0
11
2.57788
21
66.56668
31
0
39
0
210
0
220
0
230
1
0
LINE
5
126
100
AcDbEntity
8
1
62
256
6
ByLayer
370
18
48
1
60
0
100
AcDbLine
10
2.57788
20
66.851749
30
0
11
2.81348
21
67.043069
31
0
39
0
210
0
220
0
230
1
0
LINE
5
127
100
AcDbEntity
8
1
62
256
6
ByLayer
370
18
48
1
60
0
100
AcDbLine
10
2.84198
20
67.150057
30
0
11
2.84198
21
67.372566
31
0
39
0
210
0
220
0
230
1
0
LINE
5
128
100
AcDbEntity
8
1
62
256
6
ByLayer
370
18
48
1
60
0
100
AcDbLine
10
2.81348
20
67.51711
30
0
11
2.57788
21
68.018901
31
0
39
0
210
0
220
0
230
1
0
LINE
5
129
100
AcDbEntity
8
1
62
256
6
ByLayer
370
18
48
1
60
0
100
AcDbLine
10
2.57788
20
68.303971
30
0
11
2.81348
21
68.495291
31
0
39
0
210
0
220
0
230
1
0
LINE
5
12A
100
AcDbEntity
8
1
62
256
6
ByLayer
370
18
48
1
60
0
100
AcDbLine
10
2.84198
20
68.602278
30
0
11
2.84198
21
68.824787
31
0
39
0
210
0
220
0
230
1
0
LINE
5
12B
100
AcDbEntity
8
1
62
256
6
ByLayer
370
18
48
1
60
0
100
AcDbLine
10
2.81348
20
68.969332
30
0
11
2.57788
21
69.471123
31
0
39
0
210
0
220
0
230
1
0
LINE
5
12C
100
AcDbEntity
8
1
62
256
6
ByLayer
370
18
48
1
60
0
100
AcDbLine
10
2.57788
20
69.756192
30
0
11
2.81348
21
69.947512
31
0
39
0
210
0
220
0
230
1
0
LINE
5
12D
100
AcDbEntity
8
1
62
256
6
ByLayer
370
18
48
1
60
0
100
AcDbLine
10
2.84198
20
70.0545
30
0
11
2.84198
21
70.277009
31
0
39
0
210
0
220
0
230
1
0
LINE
5
12E
100
AcDbEntity
8
1
62
256
6
ByLayer
370
18
48
1
60
0
100
AcDbLine
10
2.81348
20
70.421553
30
0
11
2.57788
21
70.923344
31
0
39
0
210
0
220
0
230
1
0
LINE
5
12F
100
AcDbEntity
8
1
62
256
6
ByLayer
370
18
48
1
60
0
100
AcDbLine
10
2.57788
20
71.208414
30
0
11
2.81348
21
71.399734
31
0
39
0
210
0
220
0
230
1
0
LINE
5
130
100
AcDbEntity
8
1
62
256
6
ByLayer
370
18
48
1
60
0
100
AcDbLine
10
2.84198
20
71.506721
30
0
11
2.84198
21
71.72923
31
0
39
0
210
0
220
0
230
1
0
LINE
5
131
100
AcDbEntity
8
1
62
256
6
ByLayer
370
18
48
1
60
0
100
AcDbLine
10
2.81348
20
71.873775
30
0
11
2.757294
21
71.993443
31
0
39
0
210
0
220
0
230
1
0
LINE
5
132
100
AcDbEntity
8
1
62
256
6
ByLayer
370
18
48
1
60
0
100
AcDbLine
10
2.5
20
-35.106026
30
0
11
2.5
21
-35.31815
31
0
39
0
210
0
220
0
230
1
0
LINE
5
133
100
AcDbEntity
8
1
62
256
6
ByLayer
370
18
48
1
60
0
100
AcDbLine
10
13.5
20
-35.31815
30
0
11
13.5
21
-35.106026
31
0
39
0
210
0
220
0
230
1
0
LINE
5
134
100
AcDbEntity
8
1
62
256
6
ByLayer
370
13
48
1
60
0
100
AcDbLine
10
2.5
20
55.768278
30
0
11
2.696169
21
55.639023
31
0
39
0
210
0
220
0
230
1
0
LINE
5
135
100
AcDbEntity
8
1
62
256
6
ByLayer
370
18
48
1
60
0
100
AcDbLine
10
2.5
20
-35.31815
30
0
11
2.5
21
-36.198772
31
0
39
0
210
0
220
0
230
1
0
LINE
5
136
100
AcDbEntity
8
1
62
256
6
ByLayer
370
18
48
1
60
0
100
AcDbLine
10
13.5
20
-36.198772
30
0
11
13.5
21
-35.31815
31
0
39
0
210
0
220
0
230
1
0
LINE
5
137
100
AcDbEntity
8
1
62
256
6
ByLayer
370
18
48
1
60
0
100
AcDbLine
10
13.5
20
-35.31815
30
0
11
2.5
21
-35.31815
31
0
39
0
210
0
220
0
230
1
0
LINE
5
138
100
AcDbEntity
8
1
62
256
6
ByLayer
370
18
48
1
60
0
100
AcDbLine
10
13.242706
20
-60.932847
30
0
11
13.18652
21
-60.978474
31
0
39
0
210
0
220
0
230
1
0
LINE
5
139
100
AcDbEntity
8
1
62
256
6
ByLayer
370
18
48
1
60
0
100
AcDbLine
10
2.81348
20
-60.978474
30
0
11
2.757294
21
-60.932847
31
0
39
0
210
0
220
0
230
1
0
LINE
5
13A
100
AcDbEntity
8
1
62
256
6
ByLayer
370
18
48
1
60
0
100
AcDbLine
10
2.5
20
36.347606
30
0
11
2.5
21
35.273033
31
0
39
0
210
0
220
0
230
1
0
LINE
5
13B
100
AcDbEntity
8
1
62
256
6
ByLayer
370
18
48
1
60
0
100
AcDbLine
10
13.5
20
35.273033
30
0
11
13.5
21
36.347606
31
0
39
0
210
0
220
0
230
1
0
LINE
5
13C
100
AcDbEntity
8
1
62
256
6
ByLayer
370
18
48
1
60
0
100
AcDbLine
10
13.12
20
35.823167
30
0
11
2.88
21
35.823167
31
0
39
0
210
0
220
0
230
1
0
LINE
5
13D
100
AcDbEntity
8
1
62
256
6
ByLayer
370
13
48
1
60
0
100
AcDbLine
10
2.81348
20
-60.978474
30
0
11
13.18652
21
-60.978474
31
0
39
0
210
0
220
0
230
1
0
LINE
5
13E
100
AcDbEntity
8
1
62
256
6
ByLayer
370
13
48
1
60
0
100
AcDbLine
10
12.971919
20
-60.787154
30
0
11
12.854768
21
-60.787154
31
0
39
0
210
0
220
0
230
1
0
LINE
5
13F
100
AcDbEntity
8
1
62
256
6
ByLayer
370
13
48
1
60
0
100
AcDbLine
10
3.148339
20
-60.787154
30
0
11
3.028081
21
-60.787154
31
0
39
0
210
0
220
0
230
1
0
LINE
5
140
100
AcDbEntity
8
1
62
256
6
ByLayer
370
18
48
1
60
0
100
AcDbLine
10
13.12002
20
35.823392
30
0
11
2.87998
21
35.823392
31
0
39
0
210
0
220
0
230
1
0
LINE
5
141
100
AcDbEntity
8
1
62
256
6
ByLayer
370
13
48
1
60
0
100
AcDbLine
10
2.88
20
35.646697
30
0
11
13.12
21
35.646697
31
0
39
0
210
0
220
0
230
1
0
LINE
5
142
100
AcDbEntity
8
1
62
256
6
ByLayer
370
18
48
1
60
0
100
AcDbLine
10
2.5
20
35.273033
30
0
11
2.5
21
33.034213
31
0
39
0
210
0
220
0
230
1
0
LINE
5
143
100
AcDbEntity
8
1
62
256
6
ByLayer
370
13
48
1
60
0
100
AcDbLine
10
13.42212
20
36.707992
30
0
11
2.57788
21
36.707992
31
0
39
0
210
0
220
0
230
1
0
LINE
5
144
100
AcDbEntity
8
1
62
256
6
ByLayer
370
18
48
1
60
0
100
AcDbLine
10
13.5
20
33.034213
30
0
11
13.5
21
35.273033
31
0
39
0
210
0
220
0
230
1
0
LINE
5
145
100
AcDbEntity
8
1
62
256
6
ByLayer
370
13
48
1
60
0
100
AcDbLine
10
2.84198
20
36.778843
30
0
11
13.15802
21
36.778843
31
0
39
0
210
0
220
0
230
1
0
LINE
5
146
100
AcDbEntity
8
1
62
256
6
ByLayer
370
13
48
1
60
0
100
AcDbLine
10
13.15802
20
36.942769
30
0
11
2.84198
21
36.942769
31
0
39
0
210
0
220
0
230
1
0
LINE
5
147
100
AcDbEntity
8
1
62
256
6
ByLayer
370
13
48
1
60
0
100
AcDbLine
10
2.81348
20
37.087991
30
0
11
13.18652
21
37.087991
31
0
39
0
210
0
220
0
230
1
0
LINE
5
148
100
AcDbEntity
8
1
62
256
6
ByLayer
370
13
48
1
60
0
100
AcDbLine
10
13.42212
20
37.777868
30
0
11
2.57788
21
37.777868
31
0
39
0
210
0
220
0
230
1
0
LINE
5
149
100
AcDbEntity
8
1
62
256
6
ByLayer
370
13
48
1
60
0
100
AcDbLine
10
8.833955
20
35.081033
30
0
11
13.395907
21
35.081033
31
0
39
0
210
0
220
0
230
1
0
LINE
5
14A
100
AcDbEntity
8
1
62
256
6
ByLayer
370
13
48
1
60
0
100
AcDbLine
10
13.395907
20
35.081033
30
0
11
13.5
21
35.273033
31
0
39
0
210
0
220
0
230
1
0
LINE
5
14B
100
AcDbEntity
8
1
62
256
6
ByLayer
370
13
48
1
60
0
100
AcDbLine
10
2.604093
20
35.081033
30
0
11
7.166045
21
35.081033
31
0
39
0
210
0
220
0
230
1
0
LINE
5
14C
100
AcDbEntity
8
1
62
256
6
ByLayer
370
13
48
1
60
0
100
AcDbLine
10
2.5
20
35.273033
30
0
11
2.604093
21
35.081033
31
0
39
0
210
0
220
0
230
1
0
LINE
5
14D
100
AcDbEntity
8
1
62
256
6
ByLayer
370
13
48
1
60
0
100
AcDbLine
10
2.84198
20
37.848719
30
0
11
13.15802
21
37.848719
31
0
39
0
210
0
220
0
230
1
0
LINE
5
14E
100
AcDbEntity
8
1
62
256
6
ByLayer
370
13
48
1
60
0
100
AcDbLine
10
13.15802
20
38.012645
30
0
11
2.84198
21
38.012645
31
0
39
0
210
0
220
0
230
1
0
LINE
5
14F
100
AcDbEntity
8
1
62
256
6
ByLayer
370
13
48
1
60
0
100
AcDbLine
10
2.81348
20
38.157867
30
0
11
13.18652
21
38.157867
31
0
39
0
210
0
220
0
230
1
0
LINE
5
150
100
AcDbEntity
8
1
62
256
6
ByLayer
370
13
48
1
60
0
100
AcDbLine
10
13.42212
20
38.847744
30
0
11
2.57788
21
38.847744
31
0
39
0
210
0
220
0
230
1
0
LINE
5
151
100
AcDbEntity
8
1
62
256
6
ByLayer
370
13
48
1
60
0
100
AcDbLine
10
2.84198
20
38.918594
30
0
11
13.15802
21
38.918594
31
0
39
0
210
0
220
0
230
1
0
LINE
5
152
100
AcDbEntity
8
1
62
256
6
ByLayer
370
13
48
1
60
0
100
AcDbLine
10
13.15802
20
39.08252
30
0
11
2.84198
21
39.08252
31
0
39
0
210
0
220
0
230
1
0
LINE
5
153
100
AcDbEntity
8
1
62
256
6
ByLayer
370
13
48
1
60
0
100
AcDbLine
10
2.81348
20
39.227743
30
0
11
13.18652
21
39.227743
31
0
39
0
210
0
220
0
230
1
0
LINE
5
154
100
AcDbEntity
8
1
62
256
6
ByLayer
370
13
48
1
60
0
100
AcDbLine
10
13.42212
20
39.917619
30
0
11
2.57788
21
39.917619
31
0
39
0
210
0
220
0
230
1
0
LINE
5
155
100
AcDbEntity
8
1
62
256
6
ByLayer
370
18
48
1
60
0
100
AcDbLine
10
2.5
20
-36.198772
30
0
11
2.5
21
-43.95795
31
0
39
0
210
0
220
0
230
1
0
LINE
5
156
100
AcDbEntity
8
1
62
256
6
ByLayer
370
18
48
1
60
0
100
AcDbLine
10
13.5
20
-43.95795
30
0
11
13.5
21
-36.198772
31
0
39
0
210
0
220
0
230
1
0
LINE
5
157
100
AcDbEntity
8
1
62
256
6
ByLayer
370
18
48
1
60
0
100
AcDbLine
10
2.5
20
-36.198772
30
0
11
13.5
21
-36.198772
31
0
39
0
210
0
220
0
230
1
0
LINE
5
158
100
AcDbEntity
8
1
62
256
6
ByLayer
370
13
48
1
60
0
100
AcDbLine
10
2.84198
20
39.98847
30
0
11
13.15802
21
39.98847
31
0
39
0
210
0
220
0
230
1
0
LINE
5
159
100
AcDbEntity
8
1
62
256
6
ByLayer
370
13
48
1
60
0
100
AcDbLine
10
13.15802
20
40.152396
30
0
11
2.84198
21
40.152396
31
0
39
0
210
0
220
0
230
1
0
LINE
5
15A
100
AcDbEntity
8
1
62
256
6
ByLayer
370
13
48
1
60
0
100
AcDbLine
10
2.81348
20
40.297618
30
0
11
13.18652
21
40.297618
31
0
39
0
210
0
220
0
230
1
0
LINE
5
15B
100
AcDbEntity
8
1
62
256
6
ByLayer
370
18
48
1
60
0
100
AcDbLine
10
2.5
20
33.034213
30
0
11
2.5
21
24.731778
31
0
39
0
210
0
220
0
230
1
0
LINE
5
15C
100
AcDbEntity
8
1
62
256
6
ByLayer
370
13
48
1
60
0
100
AcDbLine
10
13.42212
20
40.987495
30
0
11
2.57788
21
40.987495
31
0
39
0
210
0
220
0
230
1
0
LINE
5
15D
100
AcDbEntity
8
1
62
256
6
ByLayer
370
18
48
1
60
0
100
AcDbLine
10
13.5
20
24.731778
30
0
11
13.5
21
33.034213
31
0
39
0
210
0
220
0
230
1
0
LINE
5
15E
100
AcDbEntity
8
1
62
256
6
ByLayer
370
18
48
1
60
0
100
AcDbLine
10
10.304644
20
33.034213
30
0
11
13.5
21
33.034213
31
0
39
0
210
0
220
0
230
1
0
LINE
5
15F
100
AcDbEntity
8
1
62
256
6
ByLayer
370
18
48
1
60
0
100
AcDbLine
10
2.5
20
33.034213
30
0
11
5.695356
21
33.034213
31
0
39
0
210
0
220
0
230
1
0
LINE
5
160
100
AcDbEntity
8
1
62
256
6
ByLayer
370
18
48
1
60
0
100
AcDbLine
10
4
20
30.887756
30
0
11
4
21
27.365011
31
0
39
0
210
0
220
0
230
1
0
LINE
5
161
100
AcDbEntity
8
1
62
256
6
ByLayer
370
18
48
1
60
0
100
AcDbLine
10
12
20
30.887756
30
0
11
4
21
30.887756
31
0
39
0
210
0
220
0
230
1
0
LINE
5
162
100
AcDbEntity
8
1
62
256
6
ByLayer
370
18
48
1
60
0
100
AcDbLine
10
12
20
27.365011
30
0
11
12
21
30.887756
31
0
39
0
210
0
220
0
230
1
0
LINE
5
163
100
AcDbEntity
8
1
62
256
6
ByLayer
370
18
48
1
60
0
100
AcDbLine
10
2.5
20
-43.95795
30
0
11
2.5
21
-44.908003
31
0
39
0
210
0
220
0
230
1
0
LINE
5
164
100
AcDbEntity
8
1
62
256
6
ByLayer
370
18
48
1
60
0
100
AcDbLine
10
13.5
20
-44.908003
30
0
11
13.5
21
-43.95795
31
0
39
0
210
0
220
0
230
1
0
LINE
5
165
100
AcDbEntity
8
1
62
256
6
ByLayer
370
18
48
1
60
0
100
AcDbLine
10
2.5
20
-27.990439
30
0
11
2.5
21
-35.106026
31
0
39
0
210
0
220
0
230
1
0
LINE
5
166
100
AcDbEntity
8
1
62
256
6
ByLayer
370
18
48
1
60
0
100
AcDbLine
10
2.5
20
-43.95795
30
0
11
13.5
21
-43.95795
31
0
39
0
210
0
220
0
230
1
0
LINE
5
167
100
AcDbEntity
8
1
62
256
6
ByLayer
370
18
48
1
60
0
100
AcDbLine
10
13.5
20
-35.106026
30
0
11
13.5
21
-27.990439
31
0
39
0
210
0
220
0
230
1
0
LINE
5
168
100
AcDbEntity
8
1
62
256
6
ByLayer
370
18
48
1
60
0
100
AcDbLine
10
8.9
20
-44.908003
30
0
11
11.7
21
-44.908003
31
0
39
0
210
0
220
0
230
1
0
LINE
5
169
100
AcDbEntity
8
1
62
256
6
ByLayer
370
18
48
1
60
0
100
AcDbLine
10
2.5
20
-35.106026
30
0
11
13.5
21
-35.106026
31
0
39
0
210
0
220
0
230
1
0
LINE
5
16A
100
AcDbEntity
8
1
62
256
6
ByLayer
370
18
48
1
60
0
100
AcDbLine
10
4
20
-29.569496
30
0
11
4
21
-32.176926
31
0
39
0
210
0
220
0
230
1
0
LINE
5
16B
100
AcDbEntity
8
1
62
256
6
ByLayer
370
18
48
1
60
0
100
AcDbLine
10
12
20
-29.569496
30
0
11
4
21
-29.569496
31
0
39
0
210
0
220
0
230
1
0
LINE
5
16C
100
AcDbEntity
8
1
62
256
6
ByLayer
370
13
48
1
60
0
100
AcDbLine
10
11.7
20
-47.558791
30
0
11
11.7
21
-44.908003
31
0
39
0
210
0
220
0
230
1
0
LINE
5
16D
100
AcDbEntity
8
1
62
256
6
ByLayer
370
13
48
1
60
0
100
AcDbLine
10
8.9
20
-44.908003
30
0
11
8.9
21
-47.558791
31
0
39
0
210
0
220
0
230
1
0
LINE
5
16E
100
AcDbEntity
8
1
62
256
6
ByLayer
370
18
48
1
60
0
100
AcDbLine
10
12
20
-32.176926
30
0
11
12
21
-29.569496
31
0
39
0
210
0
220
0
230
1
0
LINE
5
16F
100
AcDbEntity
8
1
62
256
6
ByLayer
370
18
48
1
60
0
100
AcDbLine
10
12.5
20
-60.817881
30
0
11
3.5
21
-60.817881
31
0
39
0
210
0
220
0
230
1
0
LINE
5
170
100
AcDbEntity
8
1
62
256
6
ByLayer
370
13
48
1
60
0
100
AcDbLine
10
2.84198
20
41.058346
30
0
11
13.15802
21
41.058346
31
0
39
0
210
0
220
0
230
1
0
LINE
5
171
100
AcDbEntity
8
1
62
256
6
ByLayer
370
13
48
1
60
0
100
AcDbLine
10
13.15802
20
41.222272
30
0
11
2.84198
21
41.222272
31
0
39
0
210
0
220
0
230
1
0
LINE
5
172
100
AcDbEntity
8
1
62
256
6
ByLayer
370
13
48
1
60
0
100
AcDbLine
10
2.81348
20
41.367494
30
0
11
13.18652
21
41.367494
31
0
39
0
210
0
220
0
230
1
0
LINE
5
173
100
AcDbEntity
8
1
62
256
6
ByLayer
370
13
48
1
60
0
100
AcDbLine
10
13.42212
20
42.057371
30
0
11
2.57788
21
42.057371
31
0
39
0
210
0
220
0
230
1
0
LINE
5
174
100
AcDbEntity
8
1
62
256
6
ByLayer
370
18
48
1
60
0
100
AcDbLine
10
13.5
20
-53.311716
30
0
11
13.5
21
-60.035888
31
0
39
0
210
0
220
0
230
1
0
LINE
5
175
100
AcDbEntity
8
1
62
256
6
ByLayer
370
18
48
1
60
0
100
AcDbLine
10
2.5
20
-65.987155
30
0
11
2.5
21
-73.857764
31
0
39
0
210
0
220
0
230
1
0
LINE
5
176
100
AcDbEntity
8
1
62
256
6
ByLayer
370
18
48
1
60
0
100
AcDbLine
10
13.5
20
-73.857764
30
0
11
13.5
21
-65.987155
31
0
39
0
210
0
220
0
230
1
0
LINE
5
177
100
AcDbEntity
8
1
62
256
6
ByLayer
370
13
48
1
60
0
100
AcDbLine
10
2.84198
20
42.128221
30
0
11
13.15802
21
42.128221
31
0
39
0
210
0
220
0
230
1
0
LINE
5
178
100
AcDbEntity
8
1
62
256
6
ByLayer
370
13
48
1
60
0
100
AcDbLine
10
13.15802
20
42.292147
30
0
11
2.84198
21
42.292147
31
0
39
0
210
0
220
0
230
1
0
LINE
5
179
100
AcDbEntity
8
1
62
256
6
ByLayer
370
13
48
1
60
0
100
AcDbLine
10
2.81348
20
42.43737
30
0
11
13.18652
21
42.43737
31
0
39
0
210
0
220
0
230
1
0
LINE
5
17A
100
AcDbEntity
8
1
62
256
6
ByLayer
370
13
48
1
60
0
100
AcDbLine
10
13.42212
20
43.127246
30
0
11
2.57788
21
43.127246
31
0
39
0
210
0
220
0
230
1
0
LINE
5
17B
100
AcDbEntity
8
1
62
256
6
ByLayer
370
18
48
1
60
0
100
AcDbLine
10
2.5
20
-60.035888
30
0
11
2.5
21
-53.311716
31
0
39
0
210
0
220
0
230
1
0
LINE
5
17C
100
AcDbEntity
8
1
62
256
6
ByLayer
370
13
48
1
60
0
100
AcDbLine
10
12.5
20
-60.817881
30
0
11
12.5
21
-54.261005
31
0
39
0
210
0
220
0
230
1
0
LINE
5
17D
100
AcDbEntity
8
1
62
256
6
ByLayer
370
18
48
1
60
0
100
AcDbLine
10
2.5
20
-44.908003
30
0
11
2.5
21
-53.311716
31
0
39
0
210
0
220
0
230
1
0
LINE
5
17E
100
AcDbEntity
8
1
62
256
6
ByLayer
370
18
48
1
60
0
100
AcDbLine
10
13.5
20
-53.311716
30
0
11
13.5
21
-44.908003
31
0
39
0
210
0
220
0
230
1
0
LINE
5
17F
100
AcDbEntity
8
1
62
256
6
ByLayer
370
18
48
1
60
0
100
AcDbLine
10
11.7
20
-44.908003
30
0
11
13.5
21
-44.908003
31
0
39
0
210
0
220
0
230
1
0
LINE
5
180
100
AcDbEntity
8
1
62
256
6
ByLayer
370
18
48
1
60
0
100
AcDbLine
10
11.8
20
-49.889583
30
0
11
11.8
21
-45.082745
31
0
39
0
210
0
220
0
230
1
0
LINE
5
181
100
AcDbEntity
8
1
62
256
6
ByLayer
370
13
48
1
60
0
100
AcDbLine
10
3.5
20
-54.261005
30
0
11
3.5
21
-60.817881
31
0
39
0
210
0
220
0
230
1
0
LINE
5
182
100
AcDbEntity
8
1
62
256
6
ByLayer
370
18
48
1
60
0
100
AcDbLine
10
8.8
20
-45.082745
30
0
11
8.8
21
-49.889583
31
0
39
0
210
0
220
0
230
1
0
LINE
5
183
100
AcDbEntity
8
1
62
256
6
ByLayer
370
18
48
1
60
0
100
AcDbLine
10
2.5
20
-44.908003
30
0
11
8.9
21
-44.908003
31
0
39
0
210
0
220
0
230
1
0
LINE
5
184
100
AcDbEntity
8
1
62
256
6
ByLayer
370
18
48
1
60
0
100
AcDbLine
10
3.5
20
-54.261005
30
0
11
12.5
21
-54.261005
31
0
39
0
210
0
220
0
230
1
0
LINE
5
185
100
AcDbEntity
8
1
62
256
6
ByLayer
370
18
48
1
60
0
100
AcDbLine
10
2.5
20
-6.754044
30
0
11
2.5
21
-6.936823
31
0
39
0
210
0
220
0
230
1
0
LINE
5
186
100
AcDbEntity
8
1
62
256
6
ByLayer
370
18
48
1
60
0
100
AcDbLine
10
13.5
20
-6.936823
30
0
11
13.5
21
-6.754044
31
0
39
0
210
0
220
0
230
1
0
LINE
5
187
100
AcDbEntity
8
1
62
256
6
ByLayer
370
13
48
1
60
0
100
AcDbLine
10
2.84198
20
43.198097
30
0
11
13.15802
21
43.198097
31
0
39
0
210
0
220
0
230
1
0
LINE
5
188
100
AcDbEntity
8
1
62
256
6
ByLayer
370
13
48
1
60
0
100
AcDbLine
10
13.15802
20
43.362023
30
0
11
2.84198
21
43.362023
31
0
39
0
210
0
220
0
230
1
0
LINE
5
189
100
AcDbEntity
8
1
62
256
6
ByLayer
370
13
48
1
60
0
100
AcDbLine
10
2.81348
20
43.507245
30
0
11
13.18652
21
43.507245
31
0
39
0
210
0
220
0
230
1
0
LINE
5
18A
100
AcDbEntity
8
1
62
256
6
ByLayer
370
13
48
1
60
0
100
AcDbLine
10
13.42212
20
44.197122
30
0
11
2.57788
21
44.197122
31
0
39
0
210
0
220
0
230
1
0
LINE
5
18B
100
AcDbEntity
8
1
62
256
6
ByLayer
370
18
48
1
60
0
100
AcDbLine
10
2.5
20
-6.936823
30
0
11
2.5
21
-7.251401
31
0
39
0
210
0
220
0
230
1
0
LINE
5
18C
100
AcDbEntity
8
1
62
256
6
ByLayer
370
13
48
1
60
0
100
AcDbLine
10
2.84198
20
44.267973
30
0
11
13.15802
21
44.267973
31
0
39
0
210
0
220
0
230
1
0
LINE
5
18D
100
AcDbEntity
8
1
62
256
6
ByLayer
370
13
48
1
60
0
100
AcDbLine
10
13.15802
20
44.431899
30
0
11
2.84198
21
44.431899
31
0
39
0
210
0
220
0
230
1
0
LINE
5
18E
100
AcDbEntity
8
1
62
256
6
ByLayer
370
13
48
1
60
0
100
AcDbLine
10
2.81348
20
44.577121
30
0
11
13.18652
21
44.577121
31
0
39
0
210
0
220
0
230
1
0
LINE
5
18F
100
AcDbEntity
8
1
62
256
6
ByLayer
370
13
48
1
60
0
100
AcDbLine
10
13.42212
20
45.266998
30
0
11
2.57788
21
45.266998
31
0
39
0
210
0
220
0
230
1
0
LINE
5
190
100
AcDbEntity
8
1
62
256
6
ByLayer
370
18
48
1
60
0
100
AcDbLine
10
13.5
20
-7.251401
30
0
11
13.5
21
-6.936823
31
0
39
0
210
0
220
0
230
1
0
LINE
5
191
100
AcDbEntity
8
1
62
256
6
ByLayer
370
18
48
1
60
0
100
AcDbLine
10
13.5
20
-6.936823
30
0
11
2.5
21
-6.936823
31
0
39
0
210
0
220
0
230
1
0
LINE
5
192
100
AcDbEntity
8
1
62
256
6
ByLayer
370
13
48
1
60
0
100
AcDbLine
10
2.84198
20
45.337848
30
0
11
13.15802
21
45.337848
31
0
39
0
210
0
220
0
230
1
0
LINE
5
193
100
AcDbEntity
8
1
62
256
6
ByLayer
370
13
48
1
60
0
100
AcDbLine
10
13.15802
20
45.501774
30
0
11
2.84198
21
45.501774
31
0
39
0
210
0
220
0
230
1
0
LINE
5
194
100
AcDbEntity
8
1
62
256
6
ByLayer
370
13
48
1
60
0
100
AcDbLine
10
2.81348
20
45.646997
30
0
11
13.18652
21
45.646997
31
0
39
0
210
0
220
0
230
1
0
LINE
5
195
100
AcDbEntity
8
1
62
256
6
ByLayer
370
13
48
1
60
0
100
AcDbLine
10
13.42212
20
46.336873
30
0
11
2.57788
21
46.336873
31
0
39
0
210
0
220
0
230
1
0
LINE
5
196
100
AcDbEntity
8
1
62
256
6
ByLayer
370
18
48
1
60
0
100
AcDbLine
10
13.5
20
5.995612
30
0
11
13.5
21
7.187622
31
0
39
0
210
0
220
0
230
1
0
LINE
5
197
100
AcDbEntity
8
1
62
256
6
ByLayer
370
13
48
1
60
0
100
AcDbLine
10
2.84198
20
46.407724
30
0
11
13.15802
21
46.407724
31
0
39
0
210
0
220
0
230
1
0
LINE
5
198
100
AcDbEntity
8
1
62
256
6
ByLayer
370
13
48
1
60
0
100
AcDbLine
10
13.15802
20
46.57165
30
0
11
2.84198
21
46.57165
31
0
39
0
210
0
220
0
230
1
0
LINE
5
199
100
AcDbEntity
8
1
62
256
6
ByLayer
370
13
48
1
60
0
100
AcDbLine
10
2.81348
20
46.716872
30
0
11
13.18652
21
46.716872
31
0
39
0
210
0
220
0
230
1
0
LINE
5
19A
100
AcDbEntity
8
1
62
256
6
ByLayer
370
13
48
1
60
0
100
AcDbLine
10
13.42212
20
47.406749
30
0
11
2.57788
21
47.406749
31
0
39
0
210
0
220
0
230
1
0
LINE
5
19B
100
AcDbEntity
8
1
62
256
6
ByLayer
370
18
48
1
60
0
100
AcDbLine
10
13.5
20
75.994872
30
0
11
13.5
21
74.613636
31
0
39
0
210
0
220
0
230
1
0
LINE
5
19C
100
AcDbEntity
8
1
62
256
6
ByLayer
370
18
48
1
60
0
100
AcDbLine
10
2.5
20
7.187622
30
0
11
2.5
21
5.995612
31
0
39
0
210
0
220
0
230
1
0
LINE
5
19D
100
AcDbEntity
8
1
62
256
6
ByLayer
370
18
48
1
60
0
100
AcDbLine
10
13.12
20
6.290111
30
0
11
2.88
21
6.290111
31
0
39
0
210
0
220
0
230
1
0
LINE
5
19E
100
AcDbEntity
8
1
62
256
6
ByLayer
370
18
48
1
60
0
100
AcDbLine
10
3.5
20
55.850007
30
0
11
12.5
21
55.850007
31
0
39
0
210
0
220
0
230
1
0
LINE
5
19F
100
AcDbEntity
8
1
62
256
6
ByLayer
370
18
48
1
60
0
100
AcDbLine
10
12.5
20
48.627824
30
0
11
3.5
21
48.627824
31
0
39
0
210
0
220
0
230
1
0
LINE
5
1A0
100
AcDbEntity
8
1
62
256
6
ByLayer
370
18
48
1
60
0
100
AcDbLine
10
13.12002
20
6.290231
30
0
11
2.87998
21
6.290231
31
0
39
0
210
0
220
0
230
1
0
LINE
5
1A1
100
AcDbEntity
8
1
62
256
6
ByLayer
370
13
48
1
60
0
100
AcDbLine
10
2.88
20
6.223992
30
0
11
13.12
21
6.223992
31
0
39
0
210
0
220
0
230
1
0
LINE
5
1A2
100
AcDbEntity
8
1
62
256
6
ByLayer
370
18
48
1
60
0
100
AcDbLine
10
13.5
20
48.004535
30
0
11
13.5
21
36.347606
31
0
39
0
210
0
220
0
230
1
0
LINE
5
1A3
100
AcDbEntity
8
1
62
256
6
ByLayer
370
18
48
1
60
0
100
AcDbLine
10
13.12
20
35.646697
30
0
11
13.12
21
35.823167
31
0
39
0
210
0
220
0
230
1
0
LINE
5
1A4
100
AcDbEntity
8
1
62
256
6
ByLayer
370
18
48
1
60
0
100
AcDbLine
10
13.15802
20
47.641526
30
0
11
13.15802
21
47.4776
31
0
39
0
210
0
220
0
230
1
0
LINE
5
1A5
100
AcDbEntity
8
1
62
256
6
ByLayer
370
13
48
1
60
0
100
AcDbLine
10
2.84198
20
47.4776
30
0
11
13.15802
21
47.4776
31
0
39
0
210
0
220
0
230
1
0
LINE
5
1A6
100
AcDbEntity
8
1
62
256
6
ByLayer
370
13
48
1
60
0
100
AcDbLine
10
12.971919
20
48.476625
30
0
11
3.028081
21
48.476625
31
0
39
0
210
0
220
0
230
1
0
LINE
5
1A7
100
AcDbEntity
8
1
62
256
6
ByLayer
370
13
48
1
60
0
100
AcDbLine
10
13.15802
20
47.641526
30
0
11
2.84198
21
47.641526
31
0
39
0
210
0
220
0
230
1
0
LINE
5
1A8
100
AcDbEntity
8
1
62
256
6
ByLayer
370
13
48
1
60
0
100
AcDbLine
10
2.81348
20
47.786748
30
0
11
13.18652
21
47.786748
31
0
39
0
210
0
220
0
230
1
0
LINE
5
1A9
100
AcDbEntity
8
1
62
256
6
ByLayer
370
18
48
1
60
0
100
AcDbLine
10
13.18652
20
47.437514
30
0
11
13.42212
21
47.616765
31
0
39
0
210
0
220
0
230
1
0
LINE
5
1AA
100
AcDbEntity
8
1
62
256
6
ByLayer
370
13
48
1
60
0
100
AcDbLine
10
13.12
20
35.646697
30
0
11
13.5
21
36.347606
31
0
39
0
210
0
220
0
230
1
0
LINE
5
1AB
100
AcDbEntity
8
1
62
256
6
ByLayer
370
18
48
1
60
0
100
AcDbLine
10
13.42212
20
47.406749
30
0
11
13.18652
21
46.716872
31
0
39
0
210
0
220
0
230
1
0
LINE
5
1AC
100
AcDbEntity
8
1
62
256
6
ByLayer
370
18
48
1
60
0
100
AcDbLine
10
13.15802
20
46.57165
30
0
11
13.15802
21
46.407724
31
0
39
0
210
0
220
0
230
1
0
LINE
5
1AD
100
AcDbEntity
8
1
62
256
6
ByLayer
370
18
48
1
60
0
100
AcDbLine
10
13.18652
20
46.367638
30
0
11
13.42212
21
46.546889
31
0
39
0
210
0
220
0
230
1
0
LINE
5
1AE
100
AcDbEntity
8
1
62
256
6
ByLayer
370
18
48
1
60
0
100
AcDbLine
10
13.42212
20
46.336873
30
0
11
13.18652
21
45.646997
31
0
39
0
210
0
220
0
230
1
0
LINE
5
1AF
100
AcDbEntity
8
1
62
256
6
ByLayer
370
18
48
1
60
0
100
AcDbLine
10
13.15802
20
45.501774
30
0
11
13.15802
21
45.337848
31
0
39
0
210
0
220
0
230
1
0
LINE
5
1B0
100
AcDbEntity
8
1
62
256
6
ByLayer
370
18
48
1
60
0
100
AcDbLine
10
13.18652
20
45.297763
30
0
11
13.42212
21
45.477013
31
0
39
0
210
0
220
0
230
1
0
LINE
5
1B1
100
AcDbEntity
8
1
62
256
6
ByLayer
370
18
48
1
60
0
100
AcDbLine
10
13.42212
20
45.266998
30
0
11
13.18652
21
44.577121
31
0
39
0
210
0
220
0
230
1
0
LINE
5
1B2
100
AcDbEntity
8
1
62
256
6
ByLayer
370
18
48
1
60
0
100
AcDbLine
10
13.15802
20
44.431899
30
0
11
13.15802
21
44.267973
31
0
39
0
210
0
220
0
230
1
0
LINE
5
1B3
100
AcDbEntity
8
1
62
256
6
ByLayer
370
18
48
1
60
0
100
AcDbLine
10
13.18652
20
44.227887
30
0
11
13.42212
21
44.407138
31
0
39
0
210
0
220
0
230
1
0
LINE
5
1B4
100
AcDbEntity
8
1
62
256
6
ByLayer
370
18
48
1
60
0
100
AcDbLine
10
13.42212
20
44.197122
30
0
11
13.18652
21
43.507245
31
0
39
0
210
0
220
0
230
1
0
LINE
5
1B5
100
AcDbEntity
8
1
62
256
6
ByLayer
370
18
48
1
60
0
100
AcDbLine
10
13.15802
20
43.362023
30
0
11
13.15802
21
43.198097
31
0
39
0
210
0
220
0
230
1
0
LINE
5
1B6
100
AcDbEntity
8
1
62
256
6
ByLayer
370
18
48
1
60
0
100
AcDbLine
10
13.18652
20
43.158011
30
0
11
13.42212
21
43.337262
31
0
39
0
210
0
220
0
230
1
0
LINE
5
1B7
100
AcDbEntity
8
1
62
256
6
ByLayer
370
18
48
1
60
0
100
AcDbLine
10
13.42212
20
43.127246
30
0
11
13.18652
21
42.43737
31
0
39
0
210
0
220
0
230
1
0
LINE
5
1B8
100
AcDbEntity
8
1
62
256
6
ByLayer
370
18
48
1
60
0
100
AcDbLine
10
13.15802
20
42.292147
30
0
11
13.15802
21
42.128221
31
0
39
0
210
0
220
0
230
1
0
LINE
5
1B9
100
AcDbEntity
8
1
62
256
6
ByLayer
370
18
48
1
60
0
100
AcDbLine
10
13.18652
20
42.088136
30
0
11
13.42212
21
42.267386
31
0
39
0
210
0
220
0
230
1
0
LINE
5
1BA
100
AcDbEntity
8
1
62
256
6
ByLayer
370
18
48
1
60
0
100
AcDbLine
10
13.42212
20
42.057371
30
0
11
13.18652
21
41.367494
31
0
39
0
210
0
220
0
230
1
0
LINE
5
1BB
100
AcDbEntity
8
1
62
256
6
ByLayer
370
18
48
1
60
0
100
AcDbLine
10
13.15802
20
41.222272
30
0
11
13.15802
21
41.058346
31
0
39
0
210
0
220
0
230
1
0
LINE
5
1BC
100
AcDbEntity
8
1
62
256
6
ByLayer
370
18
48
1
60
0
100
AcDbLine
10
13.18652
20
41.01826
30
0
11
13.42212
21
41.197511
31
0
39
0
210
0
220
0
230
1
0
LINE
5
1BD
100
AcDbEntity
8
1
62
256
6
ByLayer
370
18
48
1
60
0
100
AcDbLine
10
13.42212
20
40.987495
30
0
11
13.18652
21
40.297618
31
0
39
0
210
0
220
0
230
1
0
LINE
5
1BE
100
AcDbEntity
8
1
62
256
6
ByLayer
370
18
48
1
60
0
100
AcDbLine
10
13.15802
20
40.152396
30
0
11
13.15802
21
39.98847
31
0
39
0
210
0
220
0
230
1
0
LINE
5
1BF
100
AcDbEntity
8
1
62
256
6
ByLayer
370
18
48
1
60
0
100
AcDbLine
10
13.18652
20
39.948384
30
0
11
13.42212
21
40.127635
31
0
39
0
210
0
220
0
230
1
0
LINE
5
1C0
100
AcDbEntity
8
1
62
256
6
ByLayer
370
18
48
1
60
0
100
AcDbLine
10
13.42212
20
39.917619
30
0
11
13.18652
21
39.227743
31
0
39
0
210
0
220
0
230
1
0
LINE
5
1C1
100
AcDbEntity
8
1
62
256
6
ByLayer
370
18
48
1
60
0
100
AcDbLine
10
13.15802
20
39.08252
30
0
11
13.15802
21
38.918594
31
0
39
0
210
0
220
0
230
1
0
LINE
5
1C2
100
AcDbEntity
8
1
62
256
6
ByLayer
370
18
48
1
60
0
100
AcDbLine
10
13.18652
20
38.878509
30
0
11
13.42212
21
39.057759
31
0
39
0
210
0
220
0
230
1
0
LINE
5
1C3
100
AcDbEntity
8
1
62
256
6
ByLayer
370
18
48
1
60
0
100
AcDbLine
10
13.42212
20
38.847744
30
0
11
13.18652
21
38.157867
31
0
39
0
210
0
220
0
230
1
0
LINE
5
1C4
100
AcDbEntity
8
1
62
256
6
ByLayer
370
18
48
1
60
0
100
AcDbLine
10
13.15802
20
38.012645
30
0
11
13.15802
21
37.848719
31
0
39
0
210
0
220
0
230
1
0
LINE
5
1C5
100
AcDbEntity
8
1
62
256
6
ByLayer
370
18
48
1
60
0
100
AcDbLine
10
13.18652
20
37.808633
30
0
11
13.42212
21
37.987884
31
0
39
0
210
0
220
0
230
1
0
LINE
5
1C6
100
AcDbEntity
8
1
62
256
6
ByLayer
370
18
48
1
60
0
100
AcDbLine
10
13.42212
20
37.777868
30
0
11
13.18652
21
37.087991
31
0
39
0
210
0
220
0
230
1
0
LINE
5
1C7
100
AcDbEntity
8
1
62
256
6
ByLayer
370
18
48
1
60
0
100
AcDbLine
10
13.15802
20
36.942769
30
0
11
13.15802
21
36.778843
31
0
39
0
210
0
220
0
230
1
0
LINE
5
1C8
100
AcDbEntity
8
1
62
256
6
ByLayer
370
18
48
1
60
0
100
AcDbLine
10
13.18652
20
36.738757
30
0
11
13.42212
21
36.918008
31
0
39
0
210
0
220
0
230
1
0
LINE
5
1C9
100
AcDbEntity
8
1
62
256
6
ByLayer
370
18
48
1
60
0
100
AcDbLine
10
13.42212
20
36.707992
30
0
11
13.12002
21
35.823392
31
0
39
0
210
0
220
0
230
1
0
LINE
5
1CA
100
AcDbEntity
8
1
62
256
6
ByLayer
370
18
48
1
60
0
100
AcDbLine
10
2.5
20
48.004535
30
0
11
2.5
21
36.347606
31
0
39
0
210
0
220
0
230
1
0
LINE
5
1CB
100
AcDbEntity
8
1
62
256
6
ByLayer
370
18
48
1
60
0
100
AcDbLine
10
2.87998
20
35.823392
30
0
11
2.57788
21
36.707992
31
0
39
0
210
0
220
0
230
1
0
LINE
5
1CC
100
AcDbEntity
8
1
62
256
6
ByLayer
370
18
48
1
60
0
100
AcDbLine
10
2.57788
20
36.918008
30
0
11
2.81348
21
36.738757
31
0
39
0
210
0
220
0
230
1
0
LINE
5
1CD
100
AcDbEntity
8
1
62
256
6
ByLayer
370
18
48
1
60
0
100
AcDbLine
10
2.84198
20
36.778843
30
0
11
2.84198
21
36.942769
31
0
39
0
210
0
220
0
230
1
0
LINE
5
1CE
100
AcDbEntity
8
1
62
256
6
ByLayer
370
18
48
1
60
0
100
AcDbLine
10
2.81348
20
37.087991
30
0
11
2.57788
21
37.777868
31
0
39
0
210
0
220
0
230
1
0
LINE
5
1CF
100
AcDbEntity
8
1
62
256
6
ByLayer
370
18
48
1
60
0
100
AcDbLine
10
2.57788
20
37.987884
30
0
11
2.81348
21
37.808633
31
0
39
0
210
0
220
0
230
1
0
LINE
5
1D0
100
AcDbEntity
8
1
62
256
6
ByLayer
370
18
48
1
60
0
100
AcDbLine
10
2.84198
20
37.848719
30
0
11
2.84198
21
38.012645
31
0
39
0
210
0
220
0
230
1
0
LINE
5
1D1
100
AcDbEntity
8
1
62
256
6
ByLayer
370
18
48
1
60
0
100
AcDbLine
10
2.81348
20
38.157867
30
0
11
2.57788
21
38.847744
31
0
39
0
210
0
220
0
230
1
0
LINE
5
1D2
100
AcDbEntity
8
1
62
256
6
ByLayer
370
18
48
1
60
0
100
AcDbLine
10
2.57788
20
39.057759
30
0
11
2.81348
21
38.878509
31
0
39
0
210
0
220
0
230
1
0
LINE
5
1D3
100
AcDbEntity
8
1
62
256
6
ByLayer
370
18
48
1
60
0
100
AcDbLine
10
2.84198
20
38.918594
30
0
11
2.84198
21
39.08252
31
0
39
0
210
0
220
0
230
1
0
LINE
5
1D4
100
AcDbEntity
8
1
62
256
6
ByLayer
370
18
48
1
60
0
100
AcDbLine
10
2.81348
20
39.227743
30
0
11
2.57788
21
39.917619
31
0
39
0
210
0
220
0
230
1
0
LINE
5
1D5
100
AcDbEntity
8
1
62
256
6
ByLayer
370
18
48
1
60
0
100
AcDbLine
10
2.57788
20
40.127635
30
0
11
2.81348
21
39.948384
31
0
39
0
210
0
220
0
230
1
0
LINE
5
1D6
100
AcDbEntity
8
1
62
256
6
ByLayer
370
18
48
1
60
0
100
AcDbLine
10
2.84198
20
39.98847
30
0
11
2.84198
21
40.152396
31
0
39
0
210
0
220
0
230
1
0
LINE
5
1D7
100
AcDbEntity
8
1
62
256
6
ByLayer
370
18
48
1
60
0
100
AcDbLine
10
2.81348
20
40.297618
30
0
11
2.57788
21
40.987495
31
0
39
0
210
0
220
0
230
1
0
LINE
5
1D8
100
AcDbEntity
8
1
62
256
6
ByLayer
370
18
48
1
60
0
100
AcDbLine
10
2.57788
20
41.197511
30
0
11
2.81348
21
41.01826
31
0
39
0
210
0
220
0
230
1
0
LINE
5
1D9
100
AcDbEntity
8
1
62
256
6
ByLayer
370
18
48
1
60
0
100
AcDbLine
10
2.84198
20
41.058346
30
0
11
2.84198
21
41.222272
31
0
39
0
210
0
220
0
230
1
0
LINE
5
1DA
100
AcDbEntity
8
1
62
256
6
ByLayer
370
18
48
1
60
0
100
AcDbLine
10
2.81348
20
41.367494
30
0
11
2.57788
21
42.057371
31
0
39
0
210
0
220
0
230
1
0
LINE
5
1DB
100
AcDbEntity
8
1
62
256
6
ByLayer
370
18
48
1
60
0
100
AcDbLine
10
2.57788
20
42.267386
30
0
11
2.81348
21
42.088136
31
0
39
0
210
0
220
0
230
1
0
LINE
5
1DC
100
AcDbEntity
8
1
62
256
6
ByLayer
370
18
48
1
60
0
100
AcDbLine
10
2.84198
20
42.128221
30
0
11
2.84198
21
42.292147
31
0
39
0
210
0
220
0
230
1
0
LINE
5
1DD
100
AcDbEntity
8
1
62
256
6
ByLayer
370
18
48
1
60
0
100
AcDbLine
10
2.81348
20
42.43737
30
0
11
2.57788
21
43.127246
31
0
39
0
210
0
220
0
230
1
0
LINE
5
1DE
100
AcDbEntity
8
1
62
256
6
ByLayer
370
18
48
1
60
0
100
AcDbLine
10
2.57788
20
43.337262
30
0
11
2.81348
21
43.158011
31
0
39
0
210
0
220
0
230
1
0
LINE
5
1DF
100
AcDbEntity
8
1
62
256
6
ByLayer
370
18
48
1
60
0
100
AcDbLine
10
2.84198
20
43.198097
30
0
11
2.84198
21
43.362023
31
0
39
0
210
0
220
0
230
1
0
LINE
5
1E0
100
AcDbEntity
8
1
62
256
6
ByLayer
370
18
48
1
60
0
100
AcDbLine
10
2.81348
20
43.507245
30
0
11
2.57788
21
44.197122
31
0
39
0
210
0
220
0
230
1
0
LINE
5
1E1
100
AcDbEntity
8
1
62
256
6
ByLayer
370
18
48
1
60
0
100
AcDbLine
10
2.57788
20
44.407138
30
0
11
2.81348
21
44.227887
31
0
39
0
210
0
220
0
230
1
0
LINE
5
1E2
100
AcDbEntity
8
1
62
256
6
ByLayer
370
18
48
1
60
0
100
AcDbLine
10
2.84198
20
44.267973
30
0
11
2.84198
21
44.431899
31
0
39
0
210
0
220
0
230
1
0
LINE
5
1E3
100
AcDbEntity
8
1
62
256
6
ByLayer
370
18
48
1
60
0
100
AcDbLine
10
2.81348
20
44.577121
30
0
11
2.57788
21
45.266998
31
0
39
0
210
0
220
0
230
1
0
LINE
5
1E4
100
AcDbEntity
8
1
62
256
6
ByLayer
370
18
48
1
60
0
100
AcDbLine
10
2.57788
20
45.477013
30
0
11
2.81348
21
45.297763
31
0
39
0
210
0
220
0
230
1
0
LINE
5
1E5
100
AcDbEntity
8
1
62
256
6
ByLayer
370
18
48
1
60
0
100
AcDbLine
10
2.84198
20
45.337848
30
0
11
2.84198
21
45.501774
31
0
39
0
210
0
220
0
230
1
0
LINE
5
1E6
100
AcDbEntity
8
1
62
256
6
ByLayer
370
18
48
1
60
0
100
AcDbLine
10
2.81348
20
45.646997
30
0
11
2.57788
21
46.336873
31
0
39
0
210
0
220
0
230
1
0
LINE
5
1E7
100
AcDbEntity
8
1
62
256
6
ByLayer
370
18
48
1
60
0
100
AcDbLine
10
2.57788
20
46.546889
30
0
11
2.81348
21
46.367638
31
0
39
0
210
0
220
0
230
1
0
LINE
5
1E8
100
AcDbEntity
8
1
62
256
6
ByLayer
370
18
48
1
60
0
100
AcDbLine
10
2.84198
20
46.407724
30
0
11
2.84198
21
46.57165
31
0
39
0
210
0
220
0
230
1
0
LINE
5
1E9
100
AcDbEntity
8
1
62
256
6
ByLayer
370
18
48
1
60
0
100
AcDbLine
10
2.81348
20
46.716872
30
0
11
2.57788
21
47.406749
31
0
39
0
210
0
220
0
230
1
0
LINE
5
1EA
100
AcDbEntity
8
1
62
256
6
ByLayer
370
18
48
1
60
0
100
AcDbLine
10
2.57788
20
47.616765
30
0
11
2.81348
21
47.437514
31
0
39
0
210
0
220
0
230
1
0
LINE
5
1EB
100
AcDbEntity
8
1
62
256
6
ByLayer
370
18
48
1
60
0
100
AcDbLine
10
2.84198
20
47.4776
30
0
11
2.84198
21
47.641526
31
0
39
0
210
0
220
0
230
1
0
LINE
5
1EC
100
AcDbEntity
8
1
62
256
6
ByLayer
370
18
48
1
60
0
100
AcDbLine
10
2.88
20
35.646697
30
0
11
2.88
21
35.823167
31
0
39
0
210
0
220
0
230
1
0
LINE
5
1ED
100
AcDbEntity
8
1
62
256
6
ByLayer
370
18
48
1
60
0
100
AcDbLine
10
2.5
20
2.917616
30
0
11
2.5
21
-6.754044
31
0
39
0
210
0
220
0
230
1
0
LINE
5
1EE
100
AcDbEntity
8
1
62
256
6
ByLayer
370
18
48
1
60
0
100
AcDbLine
10
13.5
20
-6.754044
30
0
11
13.5
21
2.917616
31
0
39
0
210
0
220
0
230
1
0
LINE
5
1EF
100
AcDbEntity
8
1
62
256
6
ByLayer
370
18
48
1
60
0
100
AcDbLine
10
2.5
20
-6.754044
30
0
11
13.5
21
-6.754044
31
0
39
0
210
0
220
0
230
1
0
LINE
5
1F0
100
AcDbEntity
8
1
62
256
6
ByLayer
370
18
48
1
60
0
100
AcDbLine
10
4
20
0.761097
30
0
11
4
21
-2.77816
31
0
39
0
210
0
220
0
230
1
0
LINE
5
1F1
100
AcDbEntity
8
1
62
256
6
ByLayer
370
13
48
1
60
0
100
AcDbLine
10
2.5
20
36.347606
30
0
11
2.88
21
35.646697
31
0
39
0
210
0
220
0
230
1
0
LINE
5
1F2
100
AcDbEntity
8
1
62
256
6
ByLayer
370
18
48
1
60
0
100
AcDbLine
10
12
20
0.761097
30
0
11
4
21
0.761097
31
0
39
0
210
0
220
0
230
1
0
LINE
5
1F3
100
AcDbEntity
8
1
62
256
6
ByLayer
370
18
48
1
60
0
100
AcDbLine
10
12
20
-2.77816
30
0
11
12
21
0.761097
31
0
39
0
210
0
220
0
230
1
0
LINE
5
1F4
100
AcDbEntity
8
1
62
256
6
ByLayer
370
18
48
1
60
0
100
AcDbLine
10
2.5
20
5.995612
30
0
11
2.5
21
2.917616
31
0
39
0
210
0
220
0
230
1
0
LINE
5
1F5
100
AcDbEntity
8
1
62
256
6
ByLayer
370
18
48
1
60
0
100
AcDbLine
10
2.5
20
2.917616
30
0
11
5.695356
21
2.917616
31
0
39
0
210
0
220
0
230
1
0
LINE
5
1F6
100
AcDbEntity
8
1
62
256
6
ByLayer
370
18
48
1
60
0
100
AcDbLine
10
13.5
20
2.917616
30
0
11
13.5
21
5.995612
31
0
39
0
210
0
220
0
230
1
0
LINE
5
1F7
100
AcDbEntity
8
1
62
256
6
ByLayer
370
18
48
1
60
0
100
AcDbLine
10
11.8
20
-70.351643
30
0
11
11.8
21
-66.126104
31
0
39
0
210
0
220
0
230
1
0
LINE
5
1F8
100
AcDbEntity
8
1
62
256
6
ByLayer
370
18
48
1
60
0
100
AcDbLine
10
10.304644
20
2.917616
30
0
11
13.5
21
2.917616
31
0
39
0
210
0
220
0
230
1
0
LINE
5
1F9
100
AcDbEntity
8
1
62
256
6
ByLayer
370
18
48
1
60
0
100
AcDbLine
10
13.5
20
55.376928
30
0
11
13.5
21
48.004535
31
0
39
0
210
0
220
0
230
1
0
LINE
5
1FA
100
AcDbEntity
8
1
62
256
6
ByLayer
370
13
48
1
60
0
100
AcDbLine
10
2.604093
20
5.731644
30
0
11
7.166045
21
5.731644
31
0
39
0
210
0
220
0
230
1
0
LINE
5
1FB
100
AcDbEntity
8
1
62
256
6
ByLayer
370
13
48
1
60
0
100
AcDbLine
10
2.5
20
5.995612
30
0
11
2.604093
21
5.731644
31
0
39
0
210
0
220
0
230
1
0
LINE
5
1FC
100
AcDbEntity
8
1
62
256
6
ByLayer
370
13
48
1
60
0
100
AcDbLine
10
8.833955
20
5.731644
30
0
11
13.395907
21
5.731644
31
0
39
0
210
0
220
0
230
1
0
LINE
5
1FD
100
AcDbEntity
8
1
62
256
6
ByLayer
370
18
48
1
60
0
100
AcDbLine
10
2.5
20
48.004535
30
0
11
2.5
21
55.376928
31
0
39
0
210
0
220
0
230
1
0
LINE
5
1FE
100
AcDbEntity
8
1
62
256
6
ByLayer
370
13
48
1
60
0
100
AcDbLine
10
13.395907
20
5.731644
30
0
11
13.5
21
5.995612
31
0
39
0
210
0
220
0
230
1
0
LINE
5
1FF
100
AcDbEntity
8
1
62
256
6
ByLayer
370
18
48
1
60
0
100
AcDbLine
10
2.81348
20
47.786748
30
0
11
2.757294
21
47.951272
31
0
39
0
210
0
220
0
230
1
0
LINE
5
200
100
AcDbEntity
8
1
62
256
6
ByLayer
370
13
48
1
60
0
100
AcDbLine
10
12.5
20
48.627824
30
0
11
12.5
21
55.850007
31
0
39
0
210
0
220
0
230
1
0
LINE
5
201
100
AcDbEntity
8
1
62
256
6
ByLayer
370
18
48
1
60
0
100
AcDbLine
10
13.242706
20
47.951272
30
0
11
13.18652
21
47.786748
31
0
39
0
210
0
220
0
230
1
0
LINE
5
202
100
AcDbEntity
8
1
62
256
6
ByLayer
370
18
48
1
60
0
100
AcDbLine
10
2.5
20
24.731665
30
0
11
2.5
21
24.477099
31
0
39
0
210
0
220
0
230
1
0
LINE
5
203
100
AcDbEntity
8
1
62
256
6
ByLayer
370
18
48
1
60
0
100
AcDbLine
10
13.5
20
24.477099
30
0
11
13.5
21
24.731665
31
0
39
0
210
0
220
0
230
1
0
LINE
5
204
100
AcDbEntity
8
1
62
256
6
ByLayer
370
13
48
1
60
0
100
AcDbLine
10
3.5
20
55.850007
30
0
11
3.5
21
48.627824
31
0
39
0
210
0
220
0
230
1
0
LINE
5
205
100
AcDbEntity
8
1
62
256
6
ByLayer
370
13
48
1
60
0
100
AcDbLine
10
13.42212
20
7.178978
30
0
11
13.385012
21
7.178978
31
0
39
0
210
0
220
0
230
1
0
LINE
5
206
100
AcDbEntity
8
1
62
256
6
ByLayer
370
13
48
1
60
0
100
AcDbLine
10
2.614988
20
7.178978
30
0
11
2.57788
21
7.178978
31
0
39
0
210
0
220
0
230
1
0
LINE
5
207
100
AcDbEntity
8
1
62
256
6
ByLayer
370
18
48
1
60
0
100
AcDbLine
10
2.5
20
24.731665
30
0
11
13.5
21
24.731665
31
0
39
0
210
0
220
0
230
1
0
LINE
5
208
100
AcDbEntity
8
1
62
256
6
ByLayer
370
13
48
1
60
0
100
AcDbLine
10
2.84198
20
6.718318
30
0
11
13.15802
21
6.718318
31
0
39
0
210
0
220
0
230
1
0
LINE
5
209
100
AcDbEntity
8
1
62
256
6
ByLayer
370
13
48
1
60
0
100
AcDbLine
10
13.15802
20
6.779737
30
0
11
2.84198
21
6.779737
31
0
39
0
210
0
220
0
230
1
0
LINE
5
20A
100
AcDbEntity
8
1
62
256
6
ByLayer
370
13
48
1
60
0
100
AcDbLine
10
2.81348
20
6.886725
30
0
11
13.18652
21
6.886725
31
0
39
0
210
0
220
0
230
1
0
LINE
5
20B
100
AcDbEntity
8
1
62
256
6
ByLayer
370
13
48
1
60
0
100
AcDbLine
10
13.42212
20
7.579836
30
0
11
13.385012
21
7.579836
31
0
39
0
210
0
220
0
230
1
0
LINE
5
20C
100
AcDbEntity
8
1
62
256
6
ByLayer
370
13
48
1
60
0
100
AcDbLine
10
2.614988
20
7.579836
30
0
11
2.57788
21
7.579836
31
0
39
0
210
0
220
0
230
1
0
LINE
5
20D
100
AcDbEntity
8
1
62
256
6
ByLayer
370
13
48
1
60
0
100
AcDbLine
10
2.84198
20
7.119176
30
0
11
13.15802
21
7.119176
31
0
39
0
210
0
220
0
230
1
0
LINE
5
20E
100
AcDbEntity
8
1
62
256
6
ByLayer
370
13
48
1
60
0
100
AcDbLine
10
13.15802
20
7.180595
30
0
11
2.84198
21
7.180595
31
0
39
0
210
0
220
0
230
1
0
LINE
5
20F
100
AcDbEntity
8
1
62
256
6
ByLayer
370
13
48
1
60
0
100
AcDbLine
10
2.81348
20
7.287583
30
0
11
13.18652
21
7.287583
31
0
39
0
210
0
220
0
230
1
0
LINE
5
210
100
AcDbEntity
8
1
62
256
6
ByLayer
370
13
48
1
60
0
100
AcDbLine
10
13.42212
20
7.980693
30
0
11
13.385012
21
7.980693
31
0
39
0
210
0
220
0
230
1
0
LINE
5
211
100
AcDbEntity
8
1
62
256
6
ByLayer
370
13
48
1
60
0
100
AcDbLine
10
2.614988
20
7.980693
30
0
11
2.57788
21
7.980693
31
0
39
0
210
0
220
0
230
1
0
LINE
5
212
100
AcDbEntity
8
1
62
256
6
ByLayer
370
13
48
1
60
0
100
AcDbLine
10
2.84198
20
7.520033
30
0
11
13.15802
21
7.520033
31
0
39
0
210
0
220
0
230
1
0
LINE
5
213
100
AcDbEntity
8
1
62
256
6
ByLayer
370
13
48
1
60
0
100
AcDbLine
10
13.15802
20
7.581453
30
0
11
2.84198
21
7.581453
31
0
39
0
210
0
220
0
230
1
0
LINE
5
214
100
AcDbEntity
8
1
62
256
6
ByLayer
370
13
48
1
60
0
100
AcDbLine
10
2.81348
20
7.68844
30
0
11
13.18652
21
7.68844
31
0
39
0
210
0
220
0
230
1
0
LINE
5
215
100
AcDbEntity
8
1
62
256
6
ByLayer
370
13
48
1
60
0
100
AcDbLine
10
13.42212
20
8.381551
30
0
11
13.385012
21
8.381551
31
0
39
0
210
0
220
0
230
1
0
LINE
5
216
100
AcDbEntity
8
1
62
256
6
ByLayer
370
13
48
1
60
0
100
AcDbLine
10
2.614988
20
8.381551
30
0
11
2.57788
21
8.381551
31
0
39
0
210
0
220
0
230
1
0
LINE
5
217
100
AcDbEntity
8
1
62
256
6
ByLayer
370
18
48
1
60
0
100
AcDbLine
10
8.9
20
24.477099
30
0
11
11.7
21
24.477099
31
0
39
0
210
0
220
0
230
1
0
LINE
5
218
100
AcDbEntity
8
1
62
256
6
ByLayer
370
18
48
1
60
0
100
AcDbLine
10
2.5
20
-7.251401
30
0
11
2.5
21
-11.100301
31
0
39
0
210
0
220
0
230
1
0
LINE
5
219
100
AcDbEntity
8
1
62
256
6
ByLayer
370
18
48
1
60
0
100
AcDbLine
10
13.5
20
-11.100301
30
0
11
13.5
21
-7.251401
31
0
39
0
210
0
220
0
230
1
0
LINE
5
21A
100
AcDbEntity
8
1
62
256
6
ByLayer
370
13
48
1
60
0
100
AcDbLine
10
2.84198
20
7.920891
30
0
11
13.15802
21
7.920891
31
0
39
0
210
0
220
0
230
1
0
LINE
5
21B
100
AcDbEntity
8
1
62
256
6
ByLayer
370
13
48
1
60
0
100
AcDbLine
10
13.15802
20
7.98231
30
0
11
2.84198
21
7.98231
31
0
39
0
210
0
220
0
230
1
0
LINE
5
21C
100
AcDbEntity
8
1
62
256
6
ByLayer
370
13
48
1
60
0
100
AcDbLine
10
2.81348
20
8.089298
30
0
11
13.18652
21
8.089298
31
0
39
0
210
0
220
0
230
1
0
LINE
5
21D
100
AcDbEntity
8
1
62
256
6
ByLayer
370
13
48
1
60
0
100
AcDbLine
10
13.42212
20
8.782409
30
0
11
13.385012
21
8.782409
31
0
39
0
210
0
220
0
230
1
0
LINE
5
21E
100
AcDbEntity
8
1
62
256
6
ByLayer
370
13
48
1
60
0
100
AcDbLine
10
2.614988
20
8.782409
30
0
11
2.57788
21
8.782409
31
0
39
0
210
0
220
0
230
1
0
LINE
5
21F
100
AcDbEntity
8
1
62
256
6
ByLayer
370
18
48
1
60
0
100
AcDbLine
10
2.57788
20
75.719826
30
0
11
2.81348
21
76.230452
31
0
39
0
210
0
220
0
230
1
0
LINE
5
220
100
AcDbEntity
8
1
62
256
6
ByLayer
370
18
48
1
60
0
100
AcDbLine
10
2.5
20
-7.251401
30
0
11
13.5
21
-7.251401
31
0
39
0
210
0
220
0
230
1
0
LINE
5
221
100
AcDbEntity
8
1
62
256
6
ByLayer
370
13
48
1
60
0
100
AcDbLine
10
8.9
20
24.477099
30
0
11
8.9
21
21.806844
31
0
39
0
210
0
220
0
230
1
0
LINE
5
222
100
AcDbEntity
8
1
62
256
6
ByLayer
370
13
48
1
60
0
100
AcDbLine
10
11.7
20
21.805663
30
0
11
11.7
21
24.477099
31
0
39
0
210
0
220
0
230
1
0
LINE
5
223
100
AcDbEntity
8
1
62
256
6
ByLayer
370
13
48
1
60
0
100
AcDbLine
10
2.84198
20
8.321749
30
0
11
13.15802
21
8.321749
31
0
39
0
210
0
220
0
230
1
0
LINE
5
224
100
AcDbEntity
8
1
62
256
6
ByLayer
370
13
48
1
60
0
100
AcDbLine
10
13.15802
20
8.383168
30
0
11
2.84198
21
8.383168
31
0
39
0
210
0
220
0
230
1
0
LINE
5
225
100
AcDbEntity
8
1
62
256
6
ByLayer
370
13
48
1
60
0
100
AcDbLine
10
2.81348
20
8.490155
30
0
11
13.18652
21
8.490155
31
0
39
0
210
0
220
0
230
1
0
LINE
5
226
100
AcDbEntity
8
1
62
256
6
ByLayer
370
13
48
1
60
0
100
AcDbLine
10
13.42212
20
9.183266
30
0
11
13.385012
21
9.183266
31
0
39
0
210
0
220
0
230
1
0
LINE
5
227
100
AcDbEntity
8
1
62
256
6
ByLayer
370
13
48
1
60
0
100
AcDbLine
10
2.614988
20
9.183266
30
0
11
2.57788
21
9.183266
31
0
39
0
210
0
220
0
230
1
0
LINE
5
228
100
AcDbEntity
8
1
62
256
6
ByLayer
370
18
48
1
60
0
100
AcDbLine
10
2.5
20
-11.100301
30
0
11
2.5
21
-11.795788
31
0
39
0
210
0
220
0
230
1
0
LINE
5
229
100
AcDbEntity
8
1
62
256
6
ByLayer
370
18
48
1
60
0
100
AcDbLine
10
8.9
20
-11.795788
30
0
11
11.7
21
-11.795788
31
0
39
0
210
0
220
0
230
1
0
LINE
5
22A
100
AcDbEntity
8
1
62
256
6
ByLayer
370
18
48
1
60
0
100
AcDbLine
10
2.5
20
-11.100301
30
0
11
13.5
21
-11.100301
31
0
39
0
210
0
220
0
230
1
0
LINE
5
22B
100
AcDbEntity
8
1
62
256
6
ByLayer
370
13
48
1
60
0
100
AcDbLine
10
2.84198
20
8.722606
30
0
11
13.15802
21
8.722606
31
0
39
0
210
0
220
0
230
1
0
LINE
5
22C
100
AcDbEntity
8
1
62
256
6
ByLayer
370
18
48
1
60
0
100
AcDbLine
10
13.5
20
-11.795788
30
0
11
13.5
21
-11.100301
31
0
39
0
210
0
220
0
230
1
0
LINE
5
22D
100
AcDbEntity
8
1
62
256
6
ByLayer
370
13
48
1
60
0
100
AcDbLine
10
11.7
20
-15.309358
30
0
11
11.7
21
-11.795788
31
0
39
0
210
0
220
0
230
1
0
LINE
5
22E
100
AcDbEntity
8
1
62
256
6
ByLayer
370
13
48
1
60
0
100
AcDbLine
10
8.9
20
-11.795788
30
0
11
8.9
21
-15.309358
31
0
39
0
210
0
220
0
230
1
0
LINE
5
22F
100
AcDbEntity
8
1
62
256
6
ByLayer
370
13
48
1
60
0
100
AcDbLine
10
13.15802
20
8.784025
30
0
11
2.84198
21
8.784025
31
0
39
0
210
0
220
0
230
1
0
LINE
5
230
100
AcDbEntity
8
1
62
256
6
ByLayer
370
13
48
1
60
0
100
AcDbLine
10
2.81348
20
8.891013
30
0
11
13.18652
21
8.891013
31
0
39
0
210
0
220
0
230
1
0
LINE
5
231
100
AcDbEntity
8
1
62
256
6
ByLayer
370
13
48
1
60
0
100
AcDbLine
10
13.42212
20
9.584124
30
0
11
13.385012
21
9.584124
31
0
39
0
210
0
220
0
230
1
0
LINE
5
232
100
AcDbEntity
8
1
62
256
6
ByLayer
370
13
48
1
60
0
100
AcDbLine
10
2.614988
20
9.584124
30
0
11
2.57788
21
9.584124
31
0
39
0
210
0
220
0
230
1
0
LINE
5
233
100
AcDbEntity
8
1
62
256
6
ByLayer
370
18
48
1
60
0
100
AcDbLine
10
13.242706
20
-28.793758
30
0
11
13.18652
21
-28.915534
31
0
39
0
210
0
220
0
230
1
0
LINE
5
234
100
AcDbEntity
8
1
62
256
6
ByLayer
370
13
48
1
60
0
100
AcDbLine
10
2.84198
20
9.123464
30
0
11
13.15802
21
9.123464
31
0
39
0
210
0
220
0
230
1
0
LINE
5
235
100
AcDbEntity
8
1
62
256
6
ByLayer
370
13
48
1
60
0
100
AcDbLine
10
13.15802
20
9.184883
30
0
11
2.84198
21
9.184883
31
0
39
0
210
0
220
0
230
1
0
LINE
5
236
100
AcDbEntity
8
1
62
256
6
ByLayer
370
13
48
1
60
0
100
AcDbLine
10
2.81348
20
9.29187
30
0
11
13.18652
21
9.29187
31
0
39
0
210
0
220
0
230
1
0
LINE
5
237
100
AcDbEntity
8
1
62
256
6
ByLayer
370
13
48
1
60
0
100
AcDbLine
10
13.42212
20
9.984981
30
0
11
13.385012
21
9.984981
31
0
39
0
210
0
220
0
230
1
0
LINE
5
238
100
AcDbEntity
8
1
62
256
6
ByLayer
370
13
48
1
60
0
100
AcDbLine
10
2.614988
20
9.984981
30
0
11
2.57788
21
9.984981
31
0
39
0
210
0
220
0
230
1
0
LINE
5
239
100
AcDbEntity
8
1
62
256
6
ByLayer
370
18
48
1
60
0
100
AcDbLine
10
2.81348
20
-28.915534
30
0
11
2.757294
21
-28.793758
31
0
39
0
210
0
220
0
230
1
0
LINE
5
23A
100
AcDbEntity
8
1
62
256
6
ByLayer
370
18
48
1
60
0
100
AcDbLine
10
2.81348
20
75.256836
30
0
11
2.57788
21
75.436086
31
0
39
0
210
0
220
0
230
1
0
LINE
5
23B
100
AcDbEntity
8
1
62
256
6
ByLayer
370
13
48
1
60
0
100
AcDbLine
10
2.84198
20
9.524321
30
0
11
13.15802
21
9.524321
31
0
39
0
210
0
220
0
230
1
0
LINE
5
23C
100
AcDbEntity
8
1
62
256
6
ByLayer
370
13
48
1
60
0
100
AcDbLine
10
13.15802
20
9.58574
30
0
11
2.84198
21
9.58574
31
0
39
0
210
0
220
0
230
1
0
LINE
5
23D
100
AcDbEntity
8
1
62
256
6
ByLayer
370
18
48
1
60
0
100
AcDbLine
10
2.5
20
24.477099
30
0
11
2.5
21
21.301969
31
0
39
0
210
0
220
0
230
1
0
LINE
5
23E
100
AcDbEntity
8
1
62
256
6
ByLayer
370
18
48
1
60
0
100
AcDbLine
10
13.5
20
21.301969
30
0
11
13.5
21
24.477099
31
0
39
0
210
0
220
0
230
1
0
LINE
5
23F
100
AcDbEntity
8
1
62
256
6
ByLayer
370
13
48
1
60
0
100
AcDbLine
10
2.81348
20
-28.915534
30
0
11
13.18652
21
-28.915534
31
0
39
0
210
0
220
0
230
1
0
LINE
5
240
100
AcDbEntity
8
1
62
256
6
ByLayer
370
13
48
1
60
0
100
AcDbLine
10
2.81348
20
9.692728
30
0
11
13.18652
21
9.692728
31
0
39
0
210
0
220
0
230
1
0
LINE
5
241
100
AcDbEntity
8
1
62
256
6
ByLayer
370
13
48
1
60
0
100
AcDbLine
10
12.971919
20
-28.404907
30
0
11
3.028081
21
-28.404907
31
0
39
0
210
0
220
0
230
1
0
LINE
5
242
100
AcDbEntity
8
1
62
256
6
ByLayer
370
13
48
1
60
0
100
AcDbLine
10
13.42212
20
10.385839
30
0
11
13.385012
21
10.385839
31
0
39
0
210
0
220
0
230
1
0
LINE
5
243
100
AcDbEntity
8
1
62
256
6
ByLayer
370
13
48
1
60
0
100
AcDbLine
10
2.614988
20
10.385839
30
0
11
2.57788
21
10.385839
31
0
39
0
210
0
220
0
230
1
0
LINE
5
244
100
AcDbEntity
8
1
62
256
6
ByLayer
370
18
48
1
60
0
100
AcDbLine
10
11.7
20
24.477099
30
0
11
13.5
21
24.477099
31
0
39
0
210
0
220
0
230
1
0
LINE
5
245
100
AcDbEntity
8
1
62
256
6
ByLayer
370
13
48
1
60
0
100
AcDbLine
10
2.84198
20
9.925179
30
0
11
13.15802
21
9.925179
31
0
39
0
210
0
220
0
230
1
0
LINE
5
246
100
AcDbEntity
8
1
62
256
6
ByLayer
370
13
48
1
60
0
100
AcDbLine
10
13.15802
20
9.986598
30
0
11
2.84198
21
9.986598
31
0
39
0
210
0
220
0
230
1
0
LINE
5
247
100
AcDbEntity
8
1
62
256
6
ByLayer
370
13
48
1
60
0
100
AcDbLine
10
2.81348
20
10.093586
30
0
11
13.18652
21
10.093586
31
0
39
0
210
0
220
0
230
1
0
LINE
5
248
100
AcDbEntity
8
1
62
256
6
ByLayer
370
13
48
1
60
0
100
AcDbLine
10
13.42212
20
10.786696
30
0
11
13.385012
21
10.786696
31
0
39
0
210
0
220
0
230
1
0
LINE
5
249
100
AcDbEntity
8
1
62
256
6
ByLayer
370
13
48
1
60
0
100
AcDbLine
10
2.614988
20
10.786696
30
0
11
2.57788
21
10.786696
31
0
39
0
210
0
220
0
230
1
0
LINE
5
24A
100
AcDbEntity
8
1
62
256
6
ByLayer
370
18
48
1
60
0
100
AcDbLine
10
11.8
20
22.073454
30
0
11
11.8
21
24.368282
31
0
39
0
210
0
220
0
230
1
0
LINE
5
24B
100
AcDbEntity
8
1
62
256
6
ByLayer
370
18
48
1
60
0
100
AcDbLine
10
8.8
20
24.368282
30
0
11
8.8
21
22.073454
31
0
39
0
210
0
220
0
230
1
0
LINE
5
24C
100
AcDbEntity
8
1
62
256
6
ByLayer
370
18
48
1
60
0
100
AcDbLine
10
2.5
20
24.477099
30
0
11
8.9
21
24.477099
31
0
39
0
210
0
220
0
230
1
0
LINE
5
24D
100
AcDbEntity
8
1
62
256
6
ByLayer
370
18
48
1
60
0
100
AcDbLine
10
12.5
20
-28.355918
30
0
11
3.5
21
-28.355918
31
0
39
0
210
0
220
0
230
1
0
LINE
5
24E
100
AcDbEntity
8
1
62
256
6
ByLayer
370
18
48
1
60
0
100
AcDbLine
10
13.5
20
-18.480836
30
0
11
13.5
21
-27.990337
31
0
39
0
210
0
220
0
230
1
0
LINE
5
24F
100
AcDbEntity
8
1
62
256
6
ByLayer
370
13
48
1
60
0
100
AcDbLine
10
2.84198
20
10.326036
30
0
11
13.15802
21
10.326036
31
0
39
0
210
0
220
0
230
1
0
LINE
5
250
100
AcDbEntity
8
1
62
256
6
ByLayer
370
13
48
1
60
0
100
AcDbLine
10
13.15802
20
10.387456
30
0
11
2.84198
21
10.387456
31
0
39
0
210
0
220
0
230
1
0
LINE
5
251
100
AcDbEntity
8
1
62
256
6
ByLayer
370
13
48
1
60
0
100
AcDbLine
10
2.81348
20
10.494443
30
0
11
13.18652
21
10.494443
31
0
39
0
210
0
220
0
230
1
0
LINE
5
252
100
AcDbEntity
8
1
62
256
6
ByLayer
370
18
48
1
60
0
100
AcDbLine
10
2.5
20
-27.990337
30
0
11
2.5
21
-18.480836
31
0
39
0
210
0
220
0
230
1
0
LINE
5
253
100
AcDbEntity
8
1
62
256
6
ByLayer
370
13
48
1
60
0
100
AcDbLine
10
12.5
20
-28.355918
30
0
11
12.5
21
-19.066406
31
0
39
0
210
0
220
0
230
1
0
LINE
5
254
100
AcDbEntity
8
1
62
256
6
ByLayer
370
18
48
1
60
0
100
AcDbLine
10
2.5
20
-11.795788
30
0
11
2.5
21
-18.480836
31
0
39
0
210
0
220
0
230
1
0
LINE
5
255
100
AcDbEntity
8
1
62
256
6
ByLayer
370
18
48
1
60
0
100
AcDbLine
10
13.5
20
-18.480836
30
0
11
13.5
21
-11.795788
31
0
39
0
210
0
220
0
230
1
0
LINE
5
256
100
AcDbEntity
8
1
62
256
6
ByLayer
370
18
48
1
60
0
100
AcDbLine
10
11.7
20
-11.795788
30
0
11
13.5
21
-11.795788
31
0
39
0
210
0
220
0
230
1
0
LINE
5
257
100
AcDbEntity
8
1
62
256
6
ByLayer
370
18
48
1
60
0
100
AcDbLine
10
11.8
20
-16.059649
30
0
11
11.8
21
-11.959501
31
0
39
0
210
0
220
0
230
1
0
LINE
5
258
100
AcDbEntity
8
1
62
256
6
ByLayer
370
13
48
1
60
0
100
AcDbLine
10
3.5
20
-19.066406
30
0
11
3.5
21
-28.355918
31
0
39
0
210
0
220
0
230
1
0
LINE
5
259
100
AcDbEntity
8
1
62
256
6
ByLayer
370
18
48
1
60
0
100
AcDbLine
10
8.8
20
-11.959501
30
0
11
8.8
21
-16.059649
31
0
39
0
210
0
220
0
230
1
0
LINE
5
25A
100
AcDbEntity
8
1
62
256
6
ByLayer
370
18
48
1
60
0
100
AcDbLine
10
2.5
20
-11.795788
30
0
11
8.9
21
-11.795788
31
0
39
0
210
0
220
0
230
1
0
LINE
5
25B
100
AcDbEntity
8
1
62
256
6
ByLayer
370
18
48
1
60
0
100
AcDbLine
10
3.5
20
-19.066406
30
0
11
12.5
21
-19.066406
31
0
39
0
210
0
220
0
230
1
0
LINE
5
25C
100
AcDbEntity
8
1
62
256
6
ByLayer
370
18
48
1
60
0
100
AcDbLine
10
13.12
20
6.223992
30
0
11
13.12
21
6.290111
31
0
39
0
210
0
220
0
230
1
0
LINE
5
25D
100
AcDbEntity
8
1
62
256
6
ByLayer
370
18
48
1
60
0
100
AcDbLine
10
13.5
20
11.555203
30
0
11
13.5
21
7.187622
31
0
39
0
210
0
220
0
230
1
0
LINE
5
25E
100
AcDbEntity
8
1
62
256
6
ByLayer
370
13
48
1
60
0
100
AcDbLine
10
13.42212
20
11.187554
30
0
11
13.385012
21
11.187554
31
0
39
0
210
0
220
0
230
1
0
LINE
5
25F
100
AcDbEntity
8
1
62
256
6
ByLayer
370
13
48
1
60
0
100
AcDbLine
10
2.614988
20
11.187554
30
0
11
2.57788
21
11.187554
31
0
39
0
210
0
220
0
230
1
0
LINE
5
260
100
AcDbEntity
8
1
62
256
6
ByLayer
370
18
48
1
60
0
100
AcDbLine
10
13.15802
20
10.788313
30
0
11
13.15802
21
10.726894
31
0
39
0
210
0
220
0
230
1
0
LINE
5
261
100
AcDbEntity
8
1
62
256
6
ByLayer
370
13
48
1
60
0
100
AcDbLine
10
2.84198
20
10.726894
30
0
11
13.15802
21
10.726894
31
0
39
0
210
0
220
0
230
1
0
LINE
5
262
100
AcDbEntity
8
1
62
256
6
ByLayer
370
13
48
1
60
0
100
AcDbLine
10
13.15802
20
10.788313
30
0
11
2.84198
21
10.788313
31
0
39
0
210
0
220
0
230
1
0
LINE
5
263
100
AcDbEntity
8
1
62
256
6
ByLayer
370
18
48
1
60
0
100
AcDbLine
10
13.18652
20
10.764451
30
0
11
13.42212
21
11.266242
31
0
39
0
210
0
220
0
230
1
0
LINE
5
264
100
AcDbEntity
8
1
62
256
6
ByLayer
370
13
48
1
60
0
100
AcDbLine
10
13.12
20
6.223992
30
0
11
13.5
21
7.187622
31
0
39
0
210
0
220
0
230
1
0
LINE
5
265
100
AcDbEntity
8
1
62
256
6
ByLayer
370
18
48
1
60
0
100
AcDbLine
10
13.42212
20
11.187554
30
0
11
13.18652
21
10.494443
31
0
39
0
210
0
220
0
230
1
0
LINE
5
266
100
AcDbEntity
8
1
62
256
6
ByLayer
370
18
48
1
60
0
100
AcDbLine
10
13.15802
20
10.387456
30
0
11
13.15802
21
10.326036
31
0
39
0
210
0
220
0
230
1
0
LINE
5
267
100
AcDbEntity
8
1
62
256
6
ByLayer
370
18
48
1
60
0
100
AcDbLine
10
13.18652
20
10.363593
30
0
11
13.42212
21
10.865384
31
0
39
0
210
0
220
0
230
1
0
LINE
5
268
100
AcDbEntity
8
1
62
256
6
ByLayer
370
18
48
1
60
0
100
AcDbLine
10
13.42212
20
10.786696
30
0
11
13.18652
21
10.093586
31
0
39
0
210
0
220
0
230
1
0
LINE
5
269
100
AcDbEntity
8
1
62
256
6
ByLayer
370
18
48
1
60
0
100
AcDbLine
10
13.15802
20
9.986598
30
0
11
13.15802
21
9.925179
31
0
39
0
210
0
220
0
230
1
0
LINE
5
26A
100
AcDbEntity
8
1
62
256
6
ByLayer
370
18
48
1
60
0
100
AcDbLine
10
13.18652
20
9.962736
30
0
11
13.42212
21
10.464527
31
0
39
0
210
0
220
0
230
1
0
LINE
5
26B
100
AcDbEntity
8
1
62
256
6
ByLayer
370
18
48
1
60
0
100
AcDbLine
10
13.42212
20
10.385839
30
0
11
13.18652
21
9.692728
31
0
39
0
210
0
220
0
230
1
0
LINE
5
26C
100
AcDbEntity
8
1
62
256
6
ByLayer
370
18
48
1
60
0
100
AcDbLine
10
13.15802
20
9.58574
30
0
11
13.15802
21
9.524321
31
0
39
0
210
0
220
0
230
1
0
LINE
5
26D
100
AcDbEntity
8
1
62
256
6
ByLayer
370
18
48
1
60
0
100
AcDbLine
10
13.18652
20
9.561878
30
0
11
13.42212
21
10.063669
31
0
39
0
210
0
220
0
230
1
0
LINE
5
26E
100
AcDbEntity
8
1
62
256
6
ByLayer
370
18
48
1
60
0
100
AcDbLine
10
13.42212
20
9.984981
30
0
11
13.18652
21
9.29187
31
0
39
0
210
0
220
0
230
1
0
LINE
5
26F
100
AcDbEntity
8
1
62
256
6
ByLayer
370
18
48
1
60
0
100
AcDbLine
10
13.15802
20
9.184883
30
0
11
13.15802
21
9.123464
31
0
39
0
210
0
220
0
230
1
0
LINE
5
270
100
AcDbEntity
8
1
62
256
6
ByLayer
370
18
48
1
60
0
100
AcDbLine
10
13.18652
20
9.161021
30
0
11
13.42212
21
9.662812
31
0
39
0
210
0
220
0
230
1
0
LINE
5
271
100
AcDbEntity
8
1
62
256
6
ByLayer
370
18
48
1
60
0
100
AcDbLine
10
13.42212
20
9.584124
30
0
11
13.18652
21
8.891013
31
0
39
0
210
0
220
0
230
1
0
LINE
5
272
100
AcDbEntity
8
1
62
256
6
ByLayer
370
18
48
1
60
0
100
AcDbLine
10
13.15802
20
8.784025
30
0
11
13.15802
21
8.722606
31
0
39
0
210
0
220
0
230
1
0
LINE
5
273
100
AcDbEntity
8
1
62
256
6
ByLayer
370
18
48
1
60
0
100
AcDbLine
10
13.18652
20
8.760163
30
0
11
13.42212
21
9.261954
31
0
39
0
210
0
220
0
230
1
0
LINE
5
274
100
AcDbEntity
8
1
62
256
6
ByLayer
370
18
48
1
60
0
100
AcDbLine
10
13.42212
20
9.183266
30
0
11
13.18652
21
8.490155
31
0
39
0
210
0
220
0
230
1
0
LINE
5
275
100
AcDbEntity
8
1
62
256
6
ByLayer
370
18
48
1
60
0
100
AcDbLine
10
13.15802
20
8.383168
30
0
11
13.15802
21
8.321749
31
0
39
0
210
0
220
0
230
1
0
LINE
5
276
100
AcDbEntity
8
1
62
256
6
ByLayer
370
18
48
1
60
0
100
AcDbLine
10
13.18652
20
8.359306
30
0
11
13.42212
21
8.861097
31
0
39
0
210
0
220
0
230
1
0
LINE
5
277
100
AcDbEntity
8
1
62
256
6
ByLayer
370
18
48
1
60
0
100
AcDbLine
10
13.42212
20
8.782409
30
0
11
13.18652
21
8.089298
31
0
39
0
210
0
220
0
230
1
0
LINE
5
278
100
AcDbEntity
8
1
62
256
6
ByLayer
370
18
48
1
60
0
100
AcDbLine
10
13.15802
20
7.98231
30
0
11
13.15802
21
7.920891
31
0
39
0
210
0
220
0
230
1
0
LINE
5
279
100
AcDbEntity
8
1
62
256
6
ByLayer
370
18
48
1
60
0
100
AcDbLine
10
13.18652
20
7.958448
30
0
11
13.42212
21
8.460239
31
0
39
0
210
0
220
0
230
1
0
LINE
5
27A
100
AcDbEntity
8
1
62
256
6
ByLayer
370
18
48
1
60
0
100
AcDbLine
10
13.42212
20
8.381551
30
0
11
13.18652
21
7.68844
31
0
39
0
210
0
220
0
230
1
0
LINE
5
27B
100
AcDbEntity
8
1
62
256
6
ByLayer
370
18
48
1
60
0
100
AcDbLine
10
13.15802
20
7.581453
30
0
11
13.15802
21
7.520033
31
0
39
0
210
0
220
0
230
1
0
LINE
5
27C
100
AcDbEntity
8
1
62
256
6
ByLayer
370
18
48
1
60
0
100
AcDbLine
10
13.18652
20
7.55759
30
0
11
13.42212
21
8.059381
31
0
39
0
210
0
220
0
230
1
0
LINE
5
27D
100
AcDbEntity
8
1
62
256
6
ByLayer
370
18
48
1
60
0
100
AcDbLine
10
13.42212
20
7.980693
30
0
11
13.18652
21
7.287583
31
0
39
0
210
0
220
0
230
1
0
LINE
5
27E
100
AcDbEntity
8
1
62
256
6
ByLayer
370
18
48
1
60
0
100
AcDbLine
10
13.15802
20
7.180595
30
0
11
13.15802
21
7.119176
31
0
39
0
210
0
220
0
230
1
0
LINE
5
27F
100
AcDbEntity
8
1
62
256
6
ByLayer
370
18
48
1
60
0
100
AcDbLine
10
13.18652
20
7.156733
30
0
11
13.42212
21
7.658524
31
0
39
0
210
0
220
0
230
1
0
LINE
5
280
100
AcDbEntity
8
1
62
256
6
ByLayer
370
18
48
1
60
0
100
AcDbLine
10
13.42212
20
7.579836
30
0
11
13.18652
21
6.886725
31
0
39
0
210
0
220
0
230
1
0
LINE
5
281
100
AcDbEntity
8
1
62
256
6
ByLayer
370
18
48
1
60
0
100
AcDbLine
10
13.15802
20
6.779737
30
0
11
13.15802
21
6.718318
31
0
39
0
210
0
220
0
230
1
0
LINE
5
282
100
AcDbEntity
8
1
62
256
6
ByLayer
370
18
48
1
60
0
100
AcDbLine
10
13.18652
20
6.755875
30
0
11
13.42212
21
7.257666
31
0
39
0
210
0
220
0
230
1
0
LINE
5
283
100
AcDbEntity
8
1
62
256
6
ByLayer
370
18
48
1
60
0
100
AcDbLine
10
13.42212
20
7.178978
30
0
11
13.12002
21
6.290231
31
0
39
0
210
0
220
0
230
1
0
LINE
5
284
100
AcDbEntity
8
1
62
256
6
ByLayer
370
18
48
1
60
0
100
AcDbLine
10
2.87998
20
6.290231
30
0
11
2.57788
21
7.178978
31
0
39
0
210
0
220
0
230
1
0
LINE
5
285
100
AcDbEntity
8
1
62
256
6
ByLayer
370
18
48
1
60
0
100
AcDbLine
10
2.57788
20
7.257666
30
0
11
2.81348
21
6.755875
31
0
39
0
210
0
220
0
230
1
0
LINE
5
286
100
AcDbEntity
8
1
62
256
6
ByLayer
370
18
48
1
60
0
100
AcDbLine
10
2.84198
20
6.718318
30
0
11
2.84198
21
6.779737
31
0
39
0
210
0
220
0
230
1
0
LINE
5
287
100
AcDbEntity
8
1
62
256
6
ByLayer
370
18
48
1
60
0
100
AcDbLine
10
2.81348
20
6.886725
30
0
11
2.57788
21
7.579836
31
0
39
0
210
0
220
0
230
1
0
LINE
5
288
100
AcDbEntity
8
1
62
256
6
ByLayer
370
18
48
1
60
0
100
AcDbLine
10
2.57788
20
7.658524
30
0
11
2.81348
21
7.156733
31
0
39
0
210
0
220
0
230
1
0
LINE
5
289
100
AcDbEntity
8
1
62
256
6
ByLayer
370
18
48
1
60
0
100
AcDbLine
10
2.84198
20
7.119176
30
0
11
2.84198
21
7.180595
31
0
39
0
210
0
220
0
230
1
0
LINE
5
28A
100
AcDbEntity
8
1
62
256
6
ByLayer
370
18
48
1
60
0
100
AcDbLine
10
2.81348
20
7.287583
30
0
11
2.57788
21
7.980693
31
0
39
0
210
0
220
0
230
1
0
LINE
5
28B
100
AcDbEntity
8
1
62
256
6
ByLayer
370
18
48
1
60
0
100
AcDbLine
10
2.57788
20
8.059381
30
0
11
2.81348
21
7.55759
31
0
39
0
210
0
220
0
230
1
0
LINE
5
28C
100
AcDbEntity
8
1
62
256
6
ByLayer
370
18
48
1
60
0
100
AcDbLine
10
2.84198
20
7.520033
30
0
11
2.84198
21
7.581453
31
0
39
0
210
0
220
0
230
1
0
LINE
5
28D
100
AcDbEntity
8
1
62
256
6
ByLayer
370
18
48
1
60
0
100
AcDbLine
10
2.81348
20
7.68844
30
0
11
2.57788
21
8.381551
31
0
39
0
210
0
220
0
230
1
0
LINE
5
28E
100
AcDbEntity
8
1
62
256
6
ByLayer
370
18
48
1
60
0
100
AcDbLine
10
2.57788
20
8.460239
30
0
11
2.81348
21
7.958448
31
0
39
0
210
0
220
0
230
1
0
LINE
5
28F
100
AcDbEntity
8
1
62
256
6
ByLayer
370
18
48
1
60
0
100
AcDbLine
10
2.84198
20
7.920891
30
0
11
2.84198
21
7.98231
31
0
39
0
210
0
220
0
230
1
0
LINE
5
290
100
AcDbEntity
8
1
62
256
6
ByLayer
370
18
48
1
60
0
100
AcDbLine
10
2.81348
20
8.089298
30
0
11
2.57788
21
8.782409
31
0
39
0
210
0
220
0
230
1
0
LINE
5
291
100
AcDbEntity
8
1
62
256
6
ByLayer
370
18
48
1
60
0
100
AcDbLine
10
2.57788
20
8.861097
30
0
11
2.81348
21
8.359306
31
0
39
0
210
0
220
0
230
1
0
LINE
5
292
100
AcDbEntity
8
1
62
256
6
ByLayer
370
18
48
1
60
0
100
AcDbLine
10
2.84198
20
8.321749
30
0
11
2.84198
21
8.383168
31
0
39
0
210
0
220
0
230
1
0
LINE
5
293
100
AcDbEntity
8
1
62
256
6
ByLayer
370
18
48
1
60
0
100
AcDbLine
10
2.81348
20
8.490155
30
0
11
2.57788
21
9.183266
31
0
39
0
210
0
220
0
230
1
0
LINE
5
294
100
AcDbEntity
8
1
62
256
6
ByLayer
370
18
48
1
60
0
100
AcDbLine
10
2.57788
20
9.261954
30
0
11
2.81348
21
8.760163
31
0
39
0
210
0
220
0
230
1
0
LINE
5
295
100
AcDbEntity
8
1
62
256
6
ByLayer
370
18
48
1
60
0
100
AcDbLine
10
2.84198
20
8.722606
30
0
11
2.84198
21
8.784025
31
0
39
0
210
0
220
0
230
1
0
LINE
5
296
100
AcDbEntity
8
1
62
256
6
ByLayer
370
18
48
1
60
0
100
AcDbLine
10
2.81348
20
8.891013
30
0
11
2.57788
21
9.584124
31
0
39
0
210
0
220
0
230
1
0
LINE
5
297
100
AcDbEntity
8
1
62
256
6
ByLayer
370
18
48
1
60
0
100
AcDbLine
10
2.57788
20
9.662812
30
0
11
2.81348
21
9.161021
31
0
39
0
210
0
220
0
230
1
0
LINE
5
298
100
AcDbEntity
8
1
62
256
6
ByLayer
370
18
48
1
60
0
100
AcDbLine
10
2.84198
20
9.123464
30
0
11
2.84198
21
9.184883
31
0
39
0
210
0
220
0
230
1
0
LINE
5
299
100
AcDbEntity
8
1
62
256
6
ByLayer
370
18
48
1
60
0
100
AcDbLine
10
2.81348
20
9.29187
30
0
11
2.57788
21
9.984981
31
0
39
0
210
0
220
0
230
1
0
LINE
5
29A
100
AcDbEntity
8
1
62
256
6
ByLayer
370
18
48
1
60
0
100
AcDbLine
10
2.57788
20
10.063669
30
0
11
2.81348
21
9.561878
31
0
39
0
210
0
220
0
230
1
0
LINE
5
29B
100
AcDbEntity
8
1
62
256
6
ByLayer
370
18
48
1
60
0
100
AcDbLine
10
2.84198
20
9.524321
30
0
11
2.84198
21
9.58574
31
0
39
0
210
0
220
0
230
1
0
LINE
5
29C
100
AcDbEntity
8
1
62
256
6
ByLayer
370
18
48
1
60
0
100
AcDbLine
10
2.81348
20
9.692728
30
0
11
2.57788
21
10.385839
31
0
39
0
210
0
220
0
230
1
0
LINE
5
29D
100
AcDbEntity
8
1
62
256
6
ByLayer
370
18
48
1
60
0
100
AcDbLine
10
2.57788
20
10.464527
30
0
11
2.81348
21
9.962736
31
0
39
0
210
0
220
0
230
1
0
LINE
5
29E
100
AcDbEntity
8
1
62
256
6
ByLayer
370
18
48
1
60
0
100
AcDbLine
10
2.84198
20
9.925179
30
0
11
2.84198
21
9.986598
31
0
39
0
210
0
220
0
230
1
0
LINE
5
29F
100
AcDbEntity
8
1
62
256
6
ByLayer
370
18
48
1
60
0
100
AcDbLine
10
2.81348
20
10.093586
30
0
11
2.57788
21
10.786696
31
0
39
0
210
0
220
0
230
1
0
LINE
5
2A0
100
AcDbEntity
8
1
62
256
6
ByLayer
370
18
48
1
60
0
100
AcDbLine
10
2.57788
20
10.865384
30
0
11
2.81348
21
10.363593
31
0
39
0
210
0
220
0
230
1
0
LINE
5
2A1
100
AcDbEntity
8
1
62
256
6
ByLayer
370
18
48
1
60
0
100
AcDbLine
10
2.84198
20
10.326036
30
0
11
2.84198
21
10.387456
31
0
39
0
210
0
220
0
230
1
0
LINE
5
2A2
100
AcDbEntity
8
1
62
256
6
ByLayer
370
18
48
1
60
0
100
AcDbLine
10
2.81348
20
10.494443
30
0
11
2.57788
21
11.187554
31
0
39
0
210
0
220
0
230
1
0
LINE
5
2A3
100
AcDbEntity
8
1
62
256
6
ByLayer
370
18
48
1
60
0
100
AcDbLine
10
2.57788
20
11.266242
30
0
11
2.81348
21
10.764451
31
0
39
0
210
0
220
0
230
1
0
LINE
5
2A4
100
AcDbEntity
8
1
62
256
6
ByLayer
370
18
48
1
60
0
100
AcDbLine
10
2.84198
20
10.726894
30
0
11
2.84198
21
10.788313
31
0
39
0
210
0
220
0
230
1
0
LINE
5
2A5
100
AcDbEntity
8
1
62
256
6
ByLayer
370
18
48
1
60
0
100
AcDbLine
10
2.5
20
11.555203
30
0
11
2.5
21
7.187622
31
0
39
0
210
0
220
0
230
1
0
LINE
5
2A6
100
AcDbEntity
8
1
62
256
6
ByLayer
370
18
48
1
60
0
100
AcDbLine
10
2.88
20
6.223992
30
0
11
2.88
21
6.290111
31
0
39
0
210
0
220
0
230
1
0
LINE
5
2A7
100
AcDbEntity
8
1
62
256
6
ByLayer
370
18
48
1
60
0
100
AcDbLine
10
3.5
20
21.237022
30
0
11
12.5
21
21.237022
31
0
39
0
210
0
220
0
230
1
0
LINE
5
2A8
100
AcDbEntity
8
1
62
256
6
ByLayer
370
18
48
1
60
0
100
AcDbLine
10
13.242706
20
11.060596
30
0
11
13.18652
21
10.895301
31
0
39
0
210
0
220
0
230
1
0
LINE
5
2A9
100
AcDbEntity
8
1
62
256
6
ByLayer
370
13
48
1
60
0
100
AcDbLine
10
2.5
20
7.187622
30
0
11
2.88
21
6.223992
31
0
39
0
210
0
220
0
230
1
0
LINE
5
2AA
100
AcDbEntity
8
1
62
256
6
ByLayer
370
18
48
1
60
0
100
AcDbLine
10
2.81348
20
10.895301
30
0
11
2.757294
21
11.060596
31
0
39
0
210
0
220
0
230
1
0
LINE
5
2AB
100
AcDbEntity
8
1
62
256
6
ByLayer
370
18
48
1
60
0
100
AcDbLine
10
13.5
20
21.301969
30
0
11
13.5
21
11.555203
31
0
39
0
210
0
220
0
230
1
0
LINE
5
2AC
100
AcDbEntity
8
1
62
256
6
ByLayer
370
13
48
1
60
0
100
AcDbLine
10
2.81348
20
10.895301
30
0
11
13.18652
21
10.895301
31
0
39
0
210
0
220
0
230
1
0
LINE
5
2AD
100
AcDbEntity
8
1
62
256
6
ByLayer
370
18
48
1
60
0
100
AcDbLine
10
12.5
20
11.70399
30
0
11
3.5
21
11.70399
31
0
39
0
210
0
220
0
230
1
0
LINE
5
2AE
100
AcDbEntity
8
1
62
256
6
ByLayer
370
13
48
1
60
0
100
AcDbLine
10
12.5
20
11.70399
30
0
11
12.5
21
21.237022
31
0
39
0
210
0
220
0
230
1
0
LINE
5
2AF
100
AcDbEntity
8
1
62
256
6
ByLayer
370
18
48
1
60
0
100
AcDbLine
10
2.5
20
11.555203
30
0
11
2.5
21
21.301969
31
0
39
0
210
0
220
0
230
1
0
LINE
5
2B0
100
AcDbEntity
8
1
62
256
6
ByLayer
370
13
48
1
60
0
100
AcDbLine
10
12.971919
20
11.588411
30
0
11
3.028081
21
11.588411
31
0
39
0
210
0
220
0
230
1
0
LINE
5
2B1
100
AcDbEntity
8
1
62
256
6
ByLayer
370
18
48
1
60
0
100
AcDbLine
10
2.5
20
75.994872
30
0
11
2.5
21
74.613636
31
0
39
0
210
0
220
0
230
1
0
LINE
5
2B2
100
AcDbEntity
8
1
62
256
6
ByLayer
370
13
48
1
60
0
100
AcDbLine
10
3.5
20
21.237022
30
0
11
3.5
21
11.70399
31
0
39
0
210
0
220
0
230
1
0
LINE
5
2B3
100
AcDbEntity
8
80
62
256
6
ByLayer
370
18
48
1
60
0
100
AcDbLine
10
0
20
0
30
0
11
-5
21
0
31
0
39
0
210
0
220
0
230
1
0
LINE
5
2B4
100
AcDbEntity
8
4
62
256
6
ByLayer
370
18
48
0.05
60
0
100
AcDbLine
10
0
20
0
30
0
11
17
21
0
31
0
39
0
210
0
220
0
230
1
0
LINE
5
2B6
100
AcDbEntity
8
SK4
62
256
6
ByLayer
370
18
48
0.05
60
0
100
AcDbLine
10
-3
20
0
30
0
11
17
21
0
31
0
39
0
210
0
220
0
230
1
0
LINE
5
2B8
100
AcDbEntity
8
1
62
256
6
ByLayer
370
18
48
1
60
0
100
AcDbLine
10
16
20
27.1
30
0
11
15.6
21
27.5
31
0
39
0
210
0
220
0
230
1
0
LINE
5
2B9
100
AcDbEntity
8
1
62
256
6
ByLayer
370
18
48
1
60
0
100
AcDbLine
10
15.6
20
-27.5
30
0
11
16
21
-27.1
31
0
39
0
210
0
220
0
230
1
0
LINE
5
2BA
100
AcDbEntity
8
1
62
256
6
ByLayer
370
18
48
1
60
0
100
AcDbLine
10
0
20
-27.1
30
0
11
0.4
21
-27.5
31
0
39
0
210
0
220
0
230
1
0
LINE
5
2BB
100
AcDbEntity
8
1
62
256
6
ByLayer
370
18
48
1
60
0
100
AcDbLine
10
0.4
20
27.5
30
0
11
0
21
27.1
31
0
39
0
210
0
220
0
230
1
0
LINE
5
2BC
100
AcDbEntity
8
1
62
256
6
ByLayer
370
18
48
1
60
0
100
AcDbLine
10
0.4
20
-27.5
30
0
11
1.7
21
-27.5
31
0
39
0
210
0
220
0
230
1
0
LINE
5
2BD
100
AcDbEntity
8
1
62
256
6
ByLayer
370
18
48
1
60
0
100
AcDbLine
10
1.7
20
27.5
30
0
11
0.4
21
27.5
31
0
39
0
210
0
220
0
230
1
0
LINE
5
2BE
100
AcDbEntity
8
1
62
256
6
ByLayer
370
18
48
1
60
0
100
AcDbLine
10
14.3
20
-27.5
30
0
11
15.6
21
-27.5
31
0
39
0
210
0
220
0
230
1
0
LINE
5
2BF
100
AcDbEntity
8
1
62
256
6
ByLayer
370
18
48
1
60
0
100
AcDbLine
10
15.6
20
27.5
30
0
11
14.3
21
27.5
31
0
39
0
210
0
220
0
230
1
0
LINE
5
2C0
100
AcDbEntity
8
1
62
256
6
ByLayer
370
18
48
1
60
0
100
AcDbLine
10
2.825636
20
-60.983929
30
0
11
13.174364
21
-60.983929
31
0
39
0
210
0
220
0
230
1
0
LINE
5
2C1
100
AcDbEntity
8
1
62
256
6
ByLayer
370
18
48
1
60
0
100
AcDbLine
10
2.824932
20
36.733979
30
0
11
13.175068
21
36.733979
31
0
39
0
210
0
220
0
230
1
0
LINE
5
2C2
100
AcDbEntity
8
1
62
256
6
ByLayer
370
18
48
1
60
0
100
AcDbLine
10
2.824932
20
37.803855
30
0
11
13.175068
21
37.803855
31
0
39
0
210
0
220
0
230
1
0
LINE
5
2C3
100
AcDbEntity
8
1
62
256
6
ByLayer
370
18
48
1
60
0
100
AcDbLine
10
2.824932
20
38.873731
30
0
11
13.175068
21
38.873731
31
0
39
0
210
0
220
0
230
1
0
LINE
5
2C4
100
AcDbEntity
8
1
62
256
6
ByLayer
370
18
48
1
60
0
100
AcDbLine
10
2.824932
20
39.943606
30
0
11
13.175068
21
39.943606
31
0
39
0
210
0
220
0
230
1
0
LINE
5
2C5
100
AcDbEntity
8
1
62
256
6
ByLayer
370
18
48
1
60
0
100
AcDbLine
10
2.824932
20
41.013482
30
0
11
13.175068
21
41.013482
31
0
39
0
210
0
220
0
230
1
0
LINE
5
2C6
100
AcDbEntity
8
1
62
256
6
ByLayer
370
18
48
1
60
0
100
AcDbLine
10
2.824932
20
42.083358
30
0
11
13.175068
21
42.083358
31
0
39
0
210
0
220
0
230
1
0
LINE
5
2C7
100
AcDbEntity
8
1
62
256
6
ByLayer
370
18
48
1
60
0
100
AcDbLine
10
2.824932
20
43.153234
30
0
11
13.175068
21
43.153234
31
0
39
0
210
0
220
0
230
1
0
LINE
5
2C8
100
AcDbEntity
8
1
62
256
6
ByLayer
370
18
48
1
60
0
100
AcDbLine
10
2.824932
20
44.223109
30
0
11
13.175068
21
44.223109
31
0
39
0
210
0
220
0
230
1
0
LINE
5
2C9
100
AcDbEntity
8
1
62
256
6
ByLayer
370
18
48
1
60
0
100
AcDbLine
10
2.824932
20
45.292985
30
0
11
13.175068
21
45.292985
31
0
39
0
210
0
220
0
230
1
0
LINE
5
2CA
100
AcDbEntity
8
1
62
256
6
ByLayer
370
18
48
1
60
0
100
AcDbLine
10
2.824932
20
46.362861
30
0
11
13.175068
21
46.362861
31
0
39
0
210
0
220
0
230
1
0
LINE
5
2CB
100
AcDbEntity
8
1
62
256
6
ByLayer
370
18
48
1
60
0
100
AcDbLine
10
2.824932
20
47.432736
30
0
11
13.175068
21
47.432736
31
0
39
0
210
0
220
0
230
1
0
LINE
5
2CC
100
AcDbEntity
8
1
62
256
6
ByLayer
370
18
48
1
60
0
100
AcDbLine
10
2.839907
20
6.712863
30
0
11
13.160093
21
6.712863
31
0
39
0
210
0
220
0
230
1
0
LINE
5
2CD
100
AcDbEntity
8
1
62
256
6
ByLayer
370
18
48
1
60
0
100
AcDbLine
10
2.839907
20
7.11372
30
0
11
13.160093
21
7.11372
31
0
39
0
210
0
220
0
230
1
0
LINE
5
2CE
100
AcDbEntity
8
1
62
256
6
ByLayer
370
18
48
1
60
0
100
AcDbLine
10
2.839907
20
7.514578
30
0
11
13.160093
21
7.514578
31
0
39
0
210
0
220
0
230
1
0
LINE
5
2CF
100
AcDbEntity
8
1
62
256
6
ByLayer
370
18
48
1
60
0
100
AcDbLine
10
2.839907
20
7.915436
30
0
11
13.160093
21
7.915436
31
0
39
0
210
0
220
0
230
1
0
LINE
5
2D0
100
AcDbEntity
8
1
62
256
6
ByLayer
370
18
48
1
60
0
100
AcDbLine
10
2.839907
20
8.316293
30
0
11
13.160093
21
8.316293
31
0
39
0
210
0
220
0
230
1
0
LINE
5
2D1
100
AcDbEntity
8
1
62
256
6
ByLayer
370
18
48
1
60
0
100
AcDbLine
10
2.839907
20
8.717151
30
0
11
13.160093
21
8.717151
31
0
39
0
210
0
220
0
230
1
0
LINE
5
2D2
100
AcDbEntity
8
1
62
256
6
ByLayer
370
18
48
1
60
0
100
AcDbLine
10
2.839907
20
9.118008
30
0
11
13.160093
21
9.118008
31
0
39
0
210
0
220
0
230
1
0
LINE
5
2D3
100
AcDbEntity
8
1
62
256
6
ByLayer
370
18
48
1
60
0
100
AcDbLine
10
2.840165
20
-28.960397
30
0
11
13.159835
21
-28.960397
31
0
39
0
210
0
220
0
230
1
0
LINE
5
2D4
100
AcDbEntity
8
1
62
256
6
ByLayer
370
18
48
1
60
0
100
AcDbLine
10
2.839907
20
9.518866
30
0
11
13.160093
21
9.518866
31
0
39
0
210
0
220
0
230
1
0
LINE
5
2D5
100
AcDbEntity
8
1
62
256
6
ByLayer
370
18
48
1
60
0
100
AcDbLine
10
2.839907
20
9.919723
30
0
11
13.160093
21
9.919723
31
0
39
0
210
0
220
0
230
1
0
LINE
5
2D6
100
AcDbEntity
8
1
62
256
6
ByLayer
370
18
48
1
60
0
100
AcDbLine
10
2.839907
20
10.320581
30
0
11
13.160093
21
10.320581
31
0
39
0
210
0
220
0
230
1
0
LINE
5
2D7
100
AcDbEntity
8
1
62
256
6
ByLayer
370
18
48
1
60
0
100
AcDbLine
10
2.839907
20
10.721438
30
0
11
13.160093
21
10.721438
31
0
39
0
210
0
220
0
230
1
0
LINE
5
2D8
100
AcDbEntity
8
81
62
256
6
ByLayer
370
18
48
1
60
0
100
AcDbLine
10
14
20
80
30
0
11
19
21
80
31
0
39
0
210
0
220
0
230
1
0
LINE
5
2D9
100
AcDbEntity
8
SK2
62
256
6
ByLayer
370
13
48
1
60
0
100
AcDbLine
10
14.565685
20
-80.565685
30
0
11
20.576093
21
-86.576093
31
0
39
0
210
0
220
0
230
1
0
LINE
5
2DB
100
AcDbEntity
8
1
62
256
6
ByLayer
370
18
48
1
60
1
100
AcDbLine
10
14.565685
20
-80.565685
30
0
11
17.366381
21
-82.714735
31
0
39
0
210
0
220
0
230
1
0
LINE
5
2DC
100
AcDbEntity
8
1
62
256
6
ByLayer
370
18
48
1
60
1
100
AcDbLine
10
17.366381
20
-82.714735
30
0
11
16.714737
21
-83.366384
31
0
39
0
210
0
220
0
230
1
0
LINE
5
2DD
100
AcDbEntity
8
1
62
256
6
ByLayer
370
18
48
1
60
1
100
AcDbLine
10
16.714737
20
-83.366384
30
0
11
14.565685
21
-80.565685
31
0
39
0
210
0
220
0
230
1
0
LINE
5
2DE
100
AcDbEntity
8
2
62
256
6
ByLayer
370
13
48
1
60
0
100
AcDbLine
10
47.35
20
80
30
0
11
47.35
21
-80
31
0
39
0
210
0
220
0
230
1
0
LINE
5
2E0
100
AcDbEntity
8
2
62
256
6
ByLayer
370
13
48
1
60
0
100
AcDbLine
10
15.5875
20
-80
30
0
11
49.35
21
-80
31
0
39
0
210
0
220
0
230
1
0
LINE
5
2E1
100
AcDbEntity
8
2
62
256
6
ByLayer
370
13
48
1
60
0
100
AcDbLine
10
15.5875
20
80
30
0
11
49.35
21
80
31
0
39
0
210
0
220
0
230
1
0
LINE
5
2E2
100
AcDbEntity
8
1
62
256
6
ByLayer
370
18
48
1
60
1
100
AcDbLine
10
47.35
20
-80
30
0
11
46.889216
21
-76.500002
31
0
39
0
210
0
220
0
230
1
0
LINE
5
2E3
100
AcDbEntity
8
1
62
256
6
ByLayer
370
18
48
1
60
1
100
AcDbLine
10
46.889216
20
-76.500002
30
0
11
47.810784
21
-76.499998
31
0
39
0
210
0
220
0
230
1
0
LINE
5
2E4
100
AcDbEntity
8
1
62
256
6
ByLayer
370
18
48
1
60
1
100
AcDbLine
10
47.810784
20
-76.499998
30
0
11
47.35
21
-80
31
0
39
0
210
0
220
0
230
1
0
LINE
5
2E5
100
AcDbEntity
8
1
62
256
6
ByLayer
370
18
48
1
60
1
100
AcDbLine
10
47.35
20
80
30
0
11
47.810784
21
76.500002
31
0
39
0
210
0
220
0
230
1
0
LINE
5
2E6
100
AcDbEntity
8
1
62
256
6
ByLayer
370
18
48
1
60
1
100
AcDbLine
10
47.810784
20
76.500002
30
0
11
46.889216
21
76.499998
31
0
39
0
210
0
220
0
230
1
0
LINE
5
2E7
100
AcDbEntity
8
1
62
256
6
ByLayer
370
18
48
1
60
1
100
AcDbLine
10
46.889216
20
76.499998
30
0
11
47.35
21
80
31
0
39
0
210
0
220
0
230
1
0
LINE
5
2E8
100
AcDbEntity
8
SK2
62
256
6
ByLayer
370
13
48
1
60
0
100
AcDbLine
10
-14.35
20
20
30
0
11
-14.35
21
-20
31
0
39
0
210
0
220
0
230
1
0
LINE
5
2E9
100
AcDbEntity
8
SK2
62
256
6
ByLayer
370
13
48
1
60
0
100
AcDbLine
10
-1.5875
20
-20
30
0
11
-16.35
21
-20
31
0
39
0
210
0
220
0
230
1
0
LINE
5
2EA
100
AcDbEntity
8
SK2
62
256
6
ByLayer
370
13
48
1
60
0
100
AcDbLine
10
-1.5875
20
20
30
0
11
-16.35
21
20
31
0
39
0
210
0
220
0
230
1
0
LINE
5
2EB
100
AcDbEntity
8
1
62
256
6
ByLayer
370
18
48
1
60
1
100
AcDbLine
10
-14.35
20
-20
30
0
11
-14.810784
21
-16.500002
31
0
39
0
210
0
220
0
230
1
0
LINE
5
2EC
100
AcDbEntity
8
1
62
256
6
ByLayer
370
18
48
1
60
1
100
AcDbLine
10
-14.810784
20
-16.500002
30
0
11
-13.889216
21
-16.499998
31
0
39
0
210
0
220
0
230
1
0
LINE
5
2ED
100
AcDbEntity
8
1
62
256
6
ByLayer
370
18
48
1
60
1
100
AcDbLine
10
-13.889216
20
-16.499998
30
0
11
-14.35
21
-20
31
0
39
0
210
0
220
0
230
1
0
LINE
5
2EE
100
AcDbEntity
8
1
62
256
6
ByLayer
370
18
48
1
60
1
100
AcDbLine
10
-14.35
20
20
30
0
11
-13.889216
21
16.500002
31
0
39
0
210
0
220
0
230
1
0
LINE
5
2EF
100
AcDbEntity
8
1
62
256
6
ByLayer
370
18
48
1
60
1
100
AcDbLine
10
-13.889216
20
16.500002
30
0
11
-14.810784
21
16.499998
31
0
39
0
210
0
220
0
230
1
0
LINE
5
2F0
100
AcDbEntity
8
1
62
256
6
ByLayer
370
18
48
1
60
1
100
AcDbLine
10
-14.810784
20
16.499998
30
0
11
-14.35
21
20
31
0
39
0
210
0
220
0
230
1
0
LINE
5
2F1
100
AcDbEntity
8
SK2
62
256
6
ByLayer
370
13
48
1
60
0
100
AcDbLine
10
-29.35
20
27.5
30
0
11
-29.35
21
-27.5
31
0
39
0
210
0
220
0
230
1
0
LINE
5
2F2
100
AcDbEntity
8
SK2
62
256
6
ByLayer
370
13
48
1
60
0
100
AcDbLine
10
-1.5875
20
-27.5
30
0
11
-31.35
21
-27.5
31
0
39
0
210
0
220
0
230
1
0
LINE
5
2F3
100
AcDbEntity
8
SK2
62
256
6
ByLayer
370
13
48
1
60
0
100
AcDbLine
10
-1.5875
20
27.5
30
0
11
-31.35
21
27.5
31
0
39
0
210
0
220
0
230
1
0
LINE
5
2F4
100
AcDbEntity
8
1
62
256
6
ByLayer
370
18
48
1
60
1
100
AcDbLine
10
-29.35
20
-27.5
30
0
11
-29.810784
21
-24.000002
31
0
39
0
210
0
220
0
230
1
0
LINE
5
2F5
100
AcDbEntity
8
1
62
256
6
ByLayer
370
18
48
1
60
1
100
AcDbLine
10
-29.810784
20
-24.000002
30
0
11
-28.889216
21
-23.999998
31
0
39
0
210
0
220
0
230
1
0
LINE
5
2F6
100
AcDbEntity
8
1
62
256
6
ByLayer
370
18
48
1
60
1
100
AcDbLine
10
-28.889216
20
-23.999998
30
0
11
-29.35
21
-27.5
31
0
39
0
210
0
220
0
230
1
0
LINE
5
2F7
100
AcDbEntity
8
1
62
256
6
ByLayer
370
18
48
1
60
1
100
AcDbLine
10
-29.35
20
27.5
30
0
11
-28.889216
21
24.000002
31
0
39
0
210
0
220
0
230
1
0
LINE
5
2F8
100
AcDbEntity
8
1
62
256
6
ByLayer
370
18
48
1
60
1
100
AcDbLine
10
-28.889216
20
24.000002
30
0
11
-29.810784
21
23.999998
31
0
39
0
210
0
220
0
230
1
0
LINE
5
2F9
100
AcDbEntity
8
1
62
256
6
ByLayer
370
18
48
1
60
1
100
AcDbLine
10
-29.810784
20
23.999998
30
0
11
-29.35
21
27.5
31
0
39
0
210
0
220
0
230
1
0
LINE
5
44F
100
AcDbEntity
8
1
62
256
6
ByLayer
370
18
48
1
60
1
100
AcDbLine
10
14.565685
20
-80.565685
30
0
11
17.366381
21
-82.714735
31
0
39
0
210
0
220
0
230
1
0
LINE
5
450
100
AcDbEntity
8
1
62
256
6
ByLayer
370
18
48
1
60
1
100
AcDbLine
10
17.366381
20
-82.714735
30
0
11
16.714737
21
-83.366384
31
0
39
0
210
0
220
0
230
1
0
LINE
5
451
100
AcDbEntity
8
1
62
256
6
ByLayer
370
18
48
1
60
1
100
AcDbLine
10
16.714737
20
-83.366384
30
0
11
14.565685
21
-80.565685
31
0
39
0
210
0
220
0
230
1
0
LINE
5
455
100
AcDbEntity
8
1
62
256
6
ByLayer
370
18
48
1
60
1
100
AcDbLine
10
47.35
20
-80
30
0
11
46.889216
21
-76.500002
31
0
39
0
210
0
220
0
230
1
0
LINE
5
456
100
AcDbEntity
8
1
62
256
6
ByLayer
370
18
48
1
60
1
100
AcDbLine
10
46.889216
20
-76.500002
30
0
11
47.810784
21
-76.499998
31
0
39
0
210
0
220
0
230
1
0
LINE
5
457
100
AcDbEntity
8
1
62
256
6
ByLayer
370
18
48
1
60
1
100
AcDbLine
10
47.810784
20
-76.499998
30
0
11
47.35
21
-80
31
0
39
0
210
0
220
0
230
1
0
LINE
5
459
100
AcDbEntity
8
1
62
256
6
ByLayer
370
18
48
1
60
1
100
AcDbLine
10
47.35
20
80
30
0
11
47.810784
21
76.500002
31
0
39
0
210
0
220
0
230
1
0
LINE
5
45A
100
AcDbEntity
8
1
62
256
6
ByLayer
370
18
48
1
60
1
100
AcDbLine
10
47.810784
20
76.500002
30
0
11
46.889216
21
76.499998
31
0
39
0
210
0
220
0
230
1
0
LINE
5
45B
100
AcDbEntity
8
1
62
256
6
ByLayer
370
18
48
1
60
1
100
AcDbLine
10
46.889216
20
76.499998
30
0
11
47.35
21
80
31
0
39
0
210
0
220
0
230
1
0
LINE
5
45F
100
AcDbEntity
8
1
62
256
6
ByLayer
370
18
48
1
60
1
100
AcDbLine
10
-14.35
20
-20
30
0
11
-14.810784
21
-16.500002
31
0
39
0
210
0
220
0
230
1
0
LINE
5
460
100
AcDbEntity
8
1
62
256
6
ByLayer
370
18
48
1
60
1
100
AcDbLine
10
-14.810784
20
-16.500002
30
0
11
-13.889216
21
-16.499998
31
0
39
0
210
0
220
0
230
1
0
LINE
5
461
100
AcDbEntity
8
1
62
256
6
ByLayer
370
18
48
1
60
1
100
AcDbLine
10
-13.889216
20
-16.499998
30
0
11
-14.35
21
-20
31
0
39
0
210
0
220
0
230
1
0
LINE
5
463
100
AcDbEntity
8
1
62
256
6
ByLayer
370
18
48
1
60
1
100
AcDbLine
10
-14.35
20
20
30
0
11
-13.889216
21
16.500002
31
0
39
0
210
0
220
0
230
1
0
LINE
5
464
100
AcDbEntity
8
1
62
256
6
ByLayer
370
18
48
1
60
1
100
AcDbLine
10
-13.889216
20
16.500002
30
0
11
-14.810784
21
16.499998
31
0
39
0
210
0
220
0
230
1
0
LINE
5
465
100
AcDbEntity
8
1
62
256
6
ByLayer
370
18
48
1
60
1
100
AcDbLine
10
-14.810784
20
16.499998
30
0
11
-14.35
21
20
31
0
39
0
210
0
220
0
230
1
0
LINE
5
469
100
AcDbEntity
8
1
62
256
6
ByLayer
370
18
48
1
60
1
100
AcDbLine
10
-29.35
20
-27.5
30
0
11
-29.810784
21
-24.000002
31
0
39
0
210
0
220
0
230
1
0
LINE
5
46A
100
AcDbEntity
8
1
62
256
6
ByLayer
370
18
48
1
60
1
100
AcDbLine
10
-29.810784
20
-24.000002
30
0
11
-28.889216
21
-23.999998
31
0
39
0
210
0
220
0
230
1
0
LINE
5
46B
100
AcDbEntity
8
1
62
256
6
ByLayer
370
18
48
1
60
1
100
AcDbLine
10
-28.889216
20
-23.999998
30
0
11
-29.35
21
-27.5
31
0
39
0
210
0
220
0
230
1
0
LINE
5
46D
100
AcDbEntity
8
1
62
256
6
ByLayer
370
18
48
1
60
1
100
AcDbLine
10
-29.35
20
27.5
30
0
11
-28.889216
21
24.000002
31
0
39
0
210
0
220
0
230
1
0
LINE
5
46E
100
AcDbEntity
8
1
62
256
6
ByLayer
370
18
48
1
60
1
100
AcDbLine
10
-28.889216
20
24.000002
30
0
11
-29.810784
21
23.999998
31
0
39
0
210
0
220
0
230
1
0
LINE
5
46F
100
AcDbEntity
8
1
62
256
6
ByLayer
370
18
48
1
60
1
100
AcDbLine
10
-29.810784
20
23.999998
30
0
11
-29.35
21
27.5
31
0
39
0
210
0
220
0
230
1
0
MTEXT
5
44B
100
AcDbEntity
8
SK2
62
256
6
ByLayer
370
13
48
1
60
0
100
AcDbMText
10
19.966192
20
-89.335314
30
0
210
0
220
0
230
1
1
\W0.6380;R
40
3.5
41
0
44
1.084337
50
315
71
7
72
5
7
iso_b_vert
0
MTEXT
5
44E
100
AcDbEntity
8
SK2
62
256
6
ByLayer
370
13
48
1
60
0
100
AcDbMText
10
22.571174
20
-91.940295
30
0
210
0
220
0
230
1
1
\W0.7121;0.8
40
3.5
41
0
44
1.084337
50
315
71
7
72
5
7
iso_b_vert
0
MTEXT
5
453
100
AcDbEntity
8
2
62
256
6
ByLayer
370
18
48
1
60
0
100
AcDbMText
10
45.561847
20
-6.172483
30
0
210
0
220
0
230
1
1
%%c
40
4
41
0
44
1.084337
50
90
71
7
72
5
7
iso_b_vert
0
MTEXT
5
454
100
AcDbEntity
8
2
62
256
6
ByLayer
370
18
48
1
60
0
100
AcDbMText
10
45.561847
20
1.796267
30
0
210
0
220
0
230
1
1
\W0.6217;160
40
4
41
0
44
1.084337
50
90
71
7
72
5
7
iso_b_vert
0
MTEXT
5
45D
100
AcDbEntity
8
SK2
62
256
6
ByLayer
370
18
48
1
60
0
100
AcDbMText
10
-16.138153
20
-7.693282
30
0
210
0
220
0
230
1
1
%%c
40
4
41
0
44
1.084337
50
90
71
7
72
5
7
iso_b_vert
0
MTEXT
5
45E
100
AcDbEntity
8
SK2
62
256
6
ByLayer
370
18
48
1
60
0
100
AcDbMText
10
-16.138153
20
0.275468
30
0
210
0
220
0
230
1
1
\W0.7640;40.0
40
4
41
0
44
1.084337
50
90
71
7
72
5
7
iso_b_vert
0
MTEXT
5
467
100
AcDbEntity
8
SK2
62
256
6
ByLayer
370
18
48
1
60
0
100
AcDbMText
10
-31.138153
20
-5.177854
30
0
210
0
220
0
230
1
1
%%c
40
4
41
0
44
1.084337
50
90
71
7
72
5
7
iso_b_vert
0
MTEXT
5
468
100
AcDbEntity
8
SK2
62
256
6
ByLayer
370
18
48
1
60
0
100
AcDbMText
10
-31.138153
20
2.790896
30
0
210
0
220
0
230
1
1
\W0.6740;55
40
4
41
0
44
1.084337
50
90
71
7
72
5
7
iso_b_vert
0
MTEXT
5
471
100
AcDbEntity
8
SK6
62
256
6
ByLayer
370
13
48
1
60
0
100
AcDbMText
10
7.1855
20
-87.741367
30
0
210
0
220
0
230
1
1
\W0.7559;R331.52C-160S40FM
40
3.5
41
0
44
1.084337
50
0
71
7
72
5
7
iso_b_vert
0
HATCH
5
452
100
AcDbEntity
8
SK2
62
256
6
ByLayer
370
13
48
1
60
0
100
AcDbHatch
10
0
20
0
30
0
210
0
220
0
230
1
2
ANSI31
70
0
71
0
91
1
92
5
93
3
72
1
10
14.5656854249493
20
-80.5656854249493
11
17.3663812705988
21
-82.7147346539739
72
1
10
17.3663812705988
20
-82.7147346539739
11
16.7147370476056
21
-83.3663836642305
72
1
10
16.7147370476056
20
-83.3663836642305
11
14.5656854249493
21
-80.5656854249493
97
0
75
0
76
1
52
0
41
0.0062
77
0
78
1
53
44.9999999999999
43
0
44
0
45
-0.0139193969876572
46
0.0139193969876572
79
0
47
0
98
1
10
0
20
0
0
HATCH
5
458
100
AcDbEntity
8
2
62
256
6
ByLayer
370
13
48
1
60
0
100
AcDbHatch
10
0
20
0
30
0
210
0
220
0
230
1
2
ANSI31
70
0
71
0
91
1
92
5
93
3
72
1
10
47.35
20
-80
11
46.8892162584473
21
-76.5000016925532
72
1
10
46.8892162584473
20
-76.5000016925532
11
47.8107837415528
21
-76.4999983074468
72
1
10
47.8107837415528
20
-76.4999983074468
11
47.35
21
-80
97
0
75
0
76
1
52
0
41
0.0062
77
0
78
1
53
44.9999999999999
43
0
44
0
45
-0.0139193969876572
46
0.0139193969876572
79
0
47
0
98
1
10
0
20
0
0
HATCH
5
45C
100
AcDbEntity
8
2
62
256
6
ByLayer
370
13
48
1
60
0
100
AcDbHatch
10
0
20
0
30
0
210
0
220
0
230
1
2
ANSI31
70
0
71
0
91
1
92
5
93
3
72
1
10
47.35
20
80
11
47.8107837415528
21
76.5000016925532
72
1
10
47.8107837415528
20
76.5000016925532
11
46.8892162584473
21
76.4999983074468
72
1
10
46.8892162584473
20
76.4999983074468
11
47.35
21
80
97
0
75
0
76
1
52
0
41
0.0062
77
0
78
1
53
44.9999999999999
43
0
44
0
45
-0.0139193969876572
46
0.0139193969876572
79
0
47
0
98
1
10
0
20
0
0
HATCH
5
462
100
AcDbEntity
8
SK2
62
256
6
ByLayer
370
13
48
1
60
0
100
AcDbHatch
10
0
20
0
30
0
210
0
220
0
230
1
2
ANSI31
70
0
71
0
91
1
92
5
93
3
72
1
10
-14.35
20
-20
11
-14.8107837415528
21
-16.5000016925532
72
1
10
-14.8107837415528
20
-16.5000016925532
11
-13.8892162584473
21
-16.4999983074468
72
1
10
-13.8892162584473
20
-16.4999983074468
11
-14.35
21
-20
97
0
75
0
76
1
52
0
41
0.0062
77
0
78
1
53
44.9999999999999
43
0
44
0
45
-0.0139193969876572
46
0.0139193969876572
79
0
47
0
98
1
10
0
20
0
0
HATCH
5
466
100
AcDbEntity
8
SK2
62
256
6
ByLayer
370
13
48
1
60
0
100
AcDbHatch
10
0
20
0
30
0
210
0
220
0
230
1
2
ANSI31
70
0
71
0
91
1
92
5
93
3
72
1
10
-14.35
20
20
11
-13.8892162584473
21
16.5000016925532
72
1
10
-13.8892162584473
20
16.5000016925532
11
-14.8107837415528
21
16.4999983074468
72
1
10
-14.8107837415528
20
16.4999983074468
11
-14.35
21
20
97
0
75
0
76
1
52
0
41
0.0062
77
0
78
1
53
44.9999999999999
43
0
44
0
45
-0.0139193969876572
46
0.0139193969876572
79
0
47
0
98
1
10
0
20
0
0
HATCH
5
46C
100
AcDbEntity
8
SK2
62
256
6
ByLayer
370
13
48
1
60
0
100
AcDbHatch
10
0
20
0
30
0
210
0
220
0
230
1
2
ANSI31
70
0
71
0
91
1
92
5
93
3
72
1
10
-29.35
20
-27.5
11
-29.8107837415528
21
-24.0000016925532
72
1
10
-29.8107837415528
20
-24.0000016925532
11
-28.8892162584473
21
-23.9999983074468
72
1
10
-28.8892162584473
20
-23.9999983074468
11
-29.35
21
-27.5
97
0
75
0
76
1
52
0
41
0.0062
77
0
78
1
53
44.9999999999999
43
0
44
0
45
-0.0139193969876572
46
0.0139193969876572
79
0
47
0
98
1
10
0
20
0
0
HATCH
5
470
100
AcDbEntity
8
SK2
62
256
6
ByLayer
370
13
48
1
60
0
100
AcDbHatch
10
0
20
0
30
0
210
0
220
0
230
1
2
ANSI31
70
0
71
0
91
1
92
5
93
3
72
1
10
-29.35
20
27.5
11
-28.8892162584473
21
24.0000016925532
72
1
10
-28.8892162584473
20
24.0000016925532
11
-29.8107837415528
21
23.9999983074468
72
1
10
-29.8107837415528
20
23.9999983074468
11
-29.35
21
27.5
97
0
75
0
76
1
52
0
41
0.0062
77
0
78
1
53
44.9999999999999
43
0
44
0
45
-0.0139193969876572
46
0.0139193969876572
79
0
47
0
98
1
10
0
20
0
0
DIMENSION
5
474
100
AcDbEntity
8
SK2
62
256
6
ByLayer
370
13
48
1
60
0
100
AcDbDimension
2
_U0
10
6.4
20
83
30
0
11
-10.790476
21
83
31
0
70
32
71
1
72
1
41
1
210
0
220
0
230
1
3
Standard
100
AcDbAlignedDimension
13
14
23
80
33
0
14
6.4
24
80
34
0
50
0
100
AcDbRotatedDimension
1001
ACAD
1000
DSTYLE
1002
{
1070
   371
1070
    13
1070
   372
1070
    13
1070
     3
1000

1070
   170
1070
     0
1070
   144
1040
1.0
1070
   277
1070
     2
1070
   284
1070
     8
1070
   278
1070
    46
1070
   146
1040
0.875
1070
   345
1005
16
1070
   347
1005
16
1070
   346
1005
16
1070
   344
1005
0
1070
   343
1005
0
1070
   172
1070
     1
1070
    76
1070
     0
1070
    75
1070
     0
1070
   282
1070
     0
1070
   281
1070
     0
1070
    71
1070
     0
1070
    74
1070
     0
1070
   279
1070
     0
1070
   173
1070
     1
1070
   340
1005
44C
1070
   271
1070
     2
1070
   272
1070
     2
1070
    77
1070
     1
1070
    73
1070
     1
1070
   171
1070
     3
1070
   274
1070
     4
1070
   177
1070
     2
1070
   176
1070
     2
1070
   178
1070
     2
1070
    78
1070
     8
1070
    48
1040
-0.1
1070
    41
1040
3.5
1070
   147
1040
2.0
1070
    42
1040
1.5875
1070
    44
1040
2.0
1070
   140
1040
4.0
1002
}
1001
ACAD_DSTYLE_DIM_LINETYPE
1070
   380
1005
16
1001
ACAD_DSTYLE_DIM_EXT1_LINETYPE
1070
   381
1005
16
1001
ACAD_DSTYLE_DIM_EXT2_LINETYPE
1070
   382
1005
16
0
DIMENSION
5
48F
100
AcDbEntity
8
SK2
62
256
6
ByLayer
370
13
48
1
60
0
100
AcDbDimension
2
_U1
10
16
20
-94
30
0
11
-20.110819
21
-94
31
0
70
32
71
1
72
1
41
1
210
0
220
0
230
1
3
Standard
100
AcDbAlignedDimension
13
0
23
-27.5
33
0
14
16
24
-27.5
34
0
50
0
100
AcDbRotatedDimension
1001
ACAD
1000
DSTYLE
1002
{
1070
   371
1070
    13
1070
   372
1070
    13
1070
   170
1070
     0
1070
   144
1040
1.0
1070
   277
1070
     2
1070
   284
1070
     8
1070
   278
1070
    46
1070
   146
1040
0.875
1070
   345
1005
16
1070
   347
1005
16
1070
   346
1005
16
1070
   344
1005
0
1070
   343
1005
0
1070
   172
1070
     1
1070
    76
1070
     0
1070
    75
1070
     0
1070
   282
1070
     0
1070
   281
1070
     0
1070
    71
1070
     0
1070
    74
1070
     0
1070
   279
1070
     0
1070
   173
1070
     1
1070
   340
1005
44C
1070
   271
1070
     2
1070
   272
1070
     2
1070
    77
1070
     1
1070
    73
1070
     1
1070
   171
1070
     3
1070
   274
1070
     4
1070
   177
1070
     2
1070
   176
1070
     2
1070
   178
1070
     2
1070
    78
1070
     8
1070
    48
1040
-0.1
1070
    41
1040
3.5
1070
   147
1040
2.0
1070
    42
1040
1.5875
1070
    44
1040
2.0
1070
   140
1040
4.0
1002
}
1001
ACAD_DSTYLE_DIM_LINETYPE
1070
   380
1005
16
1001
ACAD_DSTYLE_DIM_EXT1_LINETYPE
1070
   381
1005
16
1001
ACAD_DSTYLE_DIM_EXT2_LINETYPE
1070
   382
1005
16
0
DIMENSION
5
4A9
100
AcDbEntity
8
SK2
62
256
6
ByLayer
370
13
48
1
60
0
100
AcDbDimension
2
_U2
10
2.5
20
96.35
30
0
11
8.25
21
96.35
31
0
70
32
71
1
72
1
41
1
210
0
220
0
230
1
3
Standard
100
AcDbAlignedDimension
13
14
23
80
33
0
14
2.5
24
80
34
0
50
0
100
AcDbRotatedDimension
1001
ACAD
1000
DSTYLE
1002
{
1070
   371
1070
    13
1070
   372
1070
    13
1070
   170
1070
     0
1070
   144
1040
1.0
1070
   277
1070
     2
1070
   284
1070
     8
1070
   278
1070
    46
1070
   146
1040
0.875
1070
   345
1005
16
1070
   347
1005
16
1070
   346
1005
16
1070
   344
1005
0
1070
   343
1005
0
1070
   172
1070
     1
1070
    76
1070
     0
1070
    75
1070
     0
1070
   282
1070
     0
1070
   281
1070
     0
1070
    71
1070
     0
1070
    74
1070
     0
1070
   279
1070
     0
1070
   173
1070
     1
1070
   340
1005
44C
1070
   271
1070
     2
1070
   272
1070
     2
1070
    77
1070
     1
1070
    73
1070
     1
1070
   171
1070
     3
1070
   274
1070
     4
1070
   177
1070
     2
1070
   176
1070
     2
1070
   178
1070
     2
1070
    78
1070
     8
1070
    48
1040
-0.1
1070
    41
1040
3.5
1070
   147
1040
2.0
1070
    42
1040
1.5875
1070
    44
1040
2.0
1070
   140
1040
4.0
1002
}
1001
ACAD_DSTYLE_DIM_LINETYPE
1070
   380
1005
16
1001
ACAD_DSTYLE_DIM_EXT1_LINETYPE
1070
   381
1005
16
1001
ACAD_DSTYLE_DIM_EXT2_LINETYPE
1070
   382
1005
16
0
ENDSEC
0
SECTION
2
OBJECTS
0
DICTIONARY
5
531
330
0
100
AcDbDictionary
280
0
281
1
3
ACAD_GROUP
350
532
3
ACAD_MLINESTYLE
350
533
0
DICTIONARY
5
532
330
0
100
AcDbDictionary
280
0
281
1
0
DICTIONARY
5
533
330
0
100
AcDbDictionary
280
0
281
1
3
Standard
350
18
0
MLINESTYLE
5
18
330
533
100
AcDbMlineStyle
2
Standard
70
0
3

62
256
51
90
52
90
71
2
49
-0.5
62
256
6
ByLayer
49
0.5
62
256
6
ByLayer
0
RASTERVARIABLES
5
520
330

100
AcDbRasterVariables
90
0
70
1
71
1
72
1
0
ENDSEC
0
EOF
