0
SECTION
2
HEADER
9
$ACADVER
1
AC1015
9
$DWGCODEPAGE
3
ANSI_1252
9
$HANDSEED
5
362
9
$ANGBASE
50
0
9
$ANGDIR
70
0
9
$ATTMODE
70
1
9
$AUNITS
70
0
9
$AUPREC
70
0
9
$CECOLOR
62
256
9
$CELTSCALE
40
1
9
$CELTYPE
6
ByLayer
9
$CELWEIGHT
370
18
9
$CLAYER
8
0
9
$CMLJUST
70
0
9
$CMLSCALE
40
1
9
$CMLSTYLE
2
Standard
9
$DIMSTYLE
2
Standard
9
$TEXTSIZE
40
0.2
9
$TEXTSTYLE
7
Standard
9
$LUNITS
70
2
9
$LUPREC
70
4
9
$EXTNAMES
290
1
9
$INSUNITS
70
4
9
$LTSCALE
40
1
9
$LWDISPLAY
290
1
9
$PDMODE
70
0
9
$PDSIZE
40
0
9
$PLINEGEN
70
0
0
ENDSEC
0
SECTION
2
CLASSES
0
CLASS
1
RASTERVARIABLES
2
AcDbRasterVariables
3
ISM
90
0
280
0
281
0
0
ENDSEC
0
SECTION
2
TABLES
0
TABLE
2
VPORT
5
358
100
AcDbSymbolTable
0
VPORT
5
1
100
AcDbSymbolTableRecord
100
AcDbViewportTableRecord
2
*Active
70
0
10
0
20
0
11
1
21
1
12
-1
22
1
13
0
23
0
14
0.5
24
0.5
15
10
25
10
16
0
26
0
36
1
17
0
27
0
37
0
0
ENDTAB
0
TABLE
2
LTYPE
5
359
100
AcDbSymbolTable
0
LTYPE
5
14
100
AcDbSymbolTableRecord
100
AcDbLinetypeTableRecord
70
0
2
ByBlock
3

72
65
73
0
40
0
0
LTYPE
5
15
100
AcDbSymbolTableRecord
100
AcDbLinetypeTableRecord
70
0
2
ByLayer
3

72
65
73
0
40
0
0
LTYPE
5
16
100
AcDbSymbolTableRecord
100
AcDbLinetypeTableRecord
70
0
2
Continuous
3
Solid line
72
65
73
0
40
0
0
LTYPE
5
6E
100
AcDbSymbolTableRecord
100
AcDbLinetypeTableRecord
70
0
2
CENTER
3
____ _ ____ _ ____ _ ____
72
65
73
4
40
47.5
49
22
74
0
49
-8.5
74
0
49
8.5
74
0
49
-8.5
74
0
0
LTYPE
5
6F
100
AcDbSymbolTableRecord
100
AcDbLinetypeTableRecord
70
0
2
DASHED
3
__ __ __ __ __ __ __ __ __
72
65
73
2
40
25.72
49
12.86
74
0
49
-12.86
74
0
0
ENDTAB
0
TABLE
2
LAYER
5
35a
100
AcDbSymbolTable
0
LAYER
5
10
100
AcDbSymbolTableRecord
100
AcDbLayerTableRecord
2
0
70
0
62
7
6
Continuous
290
1
370
-3
390
0
0
LAYER
5
71
100
AcDbSymbolTableRecord
100
AcDbLayerTableRecord
2
80
70
0
62
-6
6
Continuous
290
1
370
-3
390
0
0
LAYER
5
73
100
AcDbSymbolTableRecord
100
AcDbLayerTableRecord
2
81
70
0
62
-3
6
Continuous
290
1
370
-3
390
0
0
LAYER
5
75
100
AcDbSymbolTableRecord
100
AcDbLayerTableRecord
2
1
70
0
62
4
6
Continuous
290
1
370
-3
390
0
0
LAYER
5
185
100
AcDbSymbolTableRecord
100
AcDbLayerTableRecord
2
4
70
0
62
-2
6
CENTER
290
1
370
-3
390
0
0
LAYER
5
1A6
100
AcDbSymbolTableRecord
100
AcDbLayerTableRecord
2
2
70
0
62
7
6
Continuous
290
1
370
-3
390
0
0
LAYER
5
29B
100
AcDbSymbolTableRecord
100
AcDbLayerTableRecord
2
Defpoints
70
0
62
7
6
Continuous
290
0
370
-3
390
0
0
LAYER
5
345
100
AcDbSymbolTableRecord
100
AcDbLayerTableRecord
2
SK4
70
0
62
2
6
CENTER
290
1
370
-3
390
0
0
LAYER
5
346
100
AcDbSymbolTableRecord
100
AcDbLayerTableRecord
2
SK2
70
0
62
7
6
Continuous
290
1
370
-3
390
0
0
LAYER
5
347
100
AcDbSymbolTableRecord
100
AcDbLayerTableRecord
2
SK6
70
0
62
5
6
Continuous
290
1
370
-3
390
0
0
ENDTAB
0
TABLE
2
STYLE
5
35b
100
AcDbSymbolTable
0
STYLE
5
11
100
AcDbSymbolTableRecord
100
AcDbTextStyleTableRecord
2
Standard
3
txt
70
0
71
0
40
0
41
1
42
0
50
0
0
STYLE
5
270
100
AcDbSymbolTableRecord
100
AcDbTextStyleTableRecord
2
iso_b_vert
3
simplex.shx
70
0
71
0
40
0
41
1
42
0
50
0
0
STYLE
5
271
100
AcDbSymbolTableRecord
100
AcDbTextStyleTableRecord
2
DWGDirectTextStyle
3
simplex
70
0
71
0
40
0
41
1
42
0
50
0
0
ENDTAB
0
TABLE
2
DIMSTYLE
5
35c
100
AcDbSymbolTable
100
AcDbDimStyleTable
0
DIMSTYLE
105
27
100
AcDbSymbolTableRecord
100
AcDbDimStyleTableRecord
2
Standard
70
0
3
<>
41
0.18
42
0.0625
44
0.18
140
0.18
147
0.09
73
0
74
0
77
1
271
2
275
0
278
52
280
0
340
11
0
ENDTAB
0
TABLE
2
VIEW
5
35d
100
AcDbSymbolTable
0
ENDTAB
0
TABLE
2
UCS
5
35e
100
AcDbSymbolTable
0
ENDTAB
0
TABLE
2
APPID
5
35f
100
AcDbSymbolTable
0
APPID
5
12
100
AcDbSymbolTableRecord
100
AcDbRegAppTableRecord
2
ACAD
70
0
0
APPID
5
297
100
AcDbSymbolTableRecord
100
AcDbRegAppTableRecord
2
ACAD_DSTYLE_DIMBREAK
70
0
0
APPID
5
304
100
AcDbSymbolTableRecord
100
AcDbRegAppTableRecord
2
ACAD_DSTYLE_DIM_LINETYPE
70
0
0
APPID
5
305
100
AcDbSymbolTableRecord
100
AcDbRegAppTableRecord
2
ACAD_DSTYLE_DIM_EXT1_LINETYPE
70
0
0
APPID
5
306
100
AcDbSymbolTableRecord
100
AcDbRegAppTableRecord
2
ACAD_DSTYLE_DIM_EXT2_LINETYPE
70
0
0
APPID
5
341
100
AcDbSymbolTableRecord
100
AcDbRegAppTableRecord
2
ACAD_MLEADERVER
70
0
0
ENDTAB
0
TABLE
2
BLOCK_RECORD
5
360
100
AcDbSymbolTable
0
BLOCK_RECORD
5
1F
100
AcDbSymbolTableRecord
100
AcDbBlockTableRecord
2
*Model_Space
340
0
70
0
0
BLOCK_RECORD
5
1B
100
AcDbSymbolTableRecord
100
AcDbBlockTableRecord
2
*Paper_Space
340
0
70
0
0
BLOCK_RECORD
5
23
100
AcDbSymbolTableRecord
100
AcDbBlockTableRecord
2
*Paper_Space0
340
0
70
0
0
BLOCK_RECORD
5
29C
100
AcDbSymbolTableRecord
100
AcDbBlockTableRecord
2
*D1
340
0
70
0
0
BLOCK_RECORD
5
2AA
100
AcDbSymbolTableRecord
100
AcDbBlockTableRecord
2
_U0
340
0
70
0
0
BLOCK_RECORD
5
2B6
100
AcDbSymbolTableRecord
100
AcDbBlockTableRecord
2
*D3
340
0
70
0
0
BLOCK_RECORD
5
2C4
100
AcDbSymbolTableRecord
100
AcDbBlockTableRecord
2
_U1
340
0
70
0
0
BLOCK_RECORD
5
2D0
100
AcDbSymbolTableRecord
100
AcDbBlockTableRecord
2
*D5
340
0
70
0
0
BLOCK_RECORD
5
2DD
100
AcDbSymbolTableRecord
100
AcDbBlockTableRecord
2
_U2
340
0
70
0
0
ENDTAB
0
ENDSEC
0
SECTION
2
BLOCKS
0
BLOCK
5
20
100
AcDbEntity
8
0
100
AcDbBlockBegin
2
*Model_Space
70
0
10
0
20
0
30
0
3
*Model_Space
0
ENDBLK
5
21
100
AcDbEntity
8
0
100
AcDbBlockEnd
0
BLOCK
5
1C
100
AcDbEntity
8
0
100
AcDbBlockBegin
2
*Paper_Space
70
0
10
0
20
0
30
0
3
*Paper_Space
0
ENDBLK
5
1D
100
AcDbEntity
8
0
100
AcDbBlockEnd
0
BLOCK
5
24
100
AcDbEntity
8
0
100
AcDbBlockBegin
2
*Paper_Space0
70
0
10
0
20
0
30
0
3
*Paper_Space0
0
ENDBLK
5
25
100
AcDbEntity
8
0
100
AcDbBlockEnd
0
BLOCK
5
29D
100
AcDbEntity
8
0
100
AcDbBlockBegin
2
*D1
70
1
10
0
20
0
30
0
3
*D1
0
LINE
5
29F
100
AcDbEntity
8
0
62
256
6
ByLayer
370
-2
48
1
60
0
100
AcDbLine
10
16.75
20
51.5875
30
0
11
16.75
21
55
31
0
39
0
210
0
220
0
230
1
0
LINE
5
2A0
100
AcDbEntity
8
0
62
256
6
ByLayer
370
-2
48
1
60
0
100
AcDbLine
10
6.15
20
51.5875
30
0
11
6.15
21
55
31
0
39
0
210
0
220
0
230
1
0
LINE
5
2A1
100
AcDbEntity
8
0
62
256
6
ByLayer
370
-2
48
1
60
0
100
AcDbLine
10
6.15
20
53
30
0
11
-24.469048
21
53
31
0
39
0
210
0
220
0
230
1
0
LINE
5
2A2
100
AcDbEntity
8
0
62
256
6
ByLayer
370
-2
48
1
60
0
100
AcDbLine
10
20.25
20
53
30
0
11
23.75
21
53
31
0
39
0
210
0
220
0
230
1
0
LINE
5
2A3
100
AcDbEntity
8
0
62
256
6
ByLayer
370
-2
48
1
60
0
100
AcDbLine
10
2.65
20
53
30
0
11
-0.85
21
53
31
0
39
0
210
0
220
0
230
1
0
SOLID
5
2A4
100
AcDbEntity
8
0
62
256
6
ByLayer
370
-1
48
1
60
0
100
AcDbTrace
10
20.25
20
53.583333
30
0
11
20.25
21
52.416667
31
0
12
16.75
22
53
32
0
13
16.75
23
53
33
0
39
0
210
0
220
0
230
1
0
SOLID
5
2A5
100
AcDbEntity
8
0
62
256
6
ByLayer
370
-1
48
1
60
0
100
AcDbTrace
10
2.65
20
52.416667
30
0
11
2.65
21
53.583333
31
0
12
6.15
22
53
32
0
13
6.15
23
53
33
0
39
0
210
0
220
0
230
1
0
MTEXT
5
2A6
100
AcDbEntity
8
0
62
256
6
ByLayer
370
18
48
1
60
0
100
AcDbMText
10
-12.659524
20
61
30
0
210
0
220
0
230
1
1
\A1;10.6
40
4
41
0
44
1
50
0
71
5
72
5
7
iso_b_vert
0
POINT
5
2A7
100
AcDbEntity
8
Defpoints
62
0
6
ByLayer
370
-1
48
1
60
0
100
AcDbPoint
10
16.75
20
50
30
0
39
0
210
0
220
0
230
1
50
360
0
POINT
5
2A8
100
AcDbEntity
8
Defpoints
62
0
6
ByLayer
370
-1
48
1
60
0
100
AcDbPoint
10
6.15
20
50
30
0
39
0
210
0
220
0
230
1
50
360
0
POINT
5
2A9
100
AcDbEntity
8
Defpoints
62
0
6
ByLayer
370
-1
48
1
60
0
100
AcDbPoint
10
6.15
20
53
30
0
39
0
210
0
220
0
230
1
50
360
0
ENDBLK
5
29E
100
AcDbEntity
8
0
100
AcDbBlockEnd
0
BLOCK
5
2B1
100
AcDbEntity
8
0
100
AcDbBlockBegin
2
_U0
70
0
10
0
20
0
30
0
3
_U0
0
MTEXT
5
2AB
100
AcDbEntity
8
SK2
62
256
6
ByLayer
370
13
48
1
60
0
100
AcDbMText
10
-7.026036
20
54.180153
30
0
210
0
220
0
230
1
1
\W0.6563;10.6
40
4
41
0
44
1.084337
50
0
71
7
72
5
7
iso_b_vert
0
LINE
5
2AC
100
AcDbEntity
8
SK2
62
256
6
ByLayer
370
13
48
1
60
0
100
AcDbLine
10
16.75
20
51.5875
30
0
11
16.75
21
55
31
0
39
0
210
0
220
0
230
1
0
LINE
5
2AD
100
AcDbEntity
8
SK2
62
256
6
ByLayer
370
13
48
1
60
0
100
AcDbLine
10
6.15
20
51.5875
30
0
11
6.15
21
55
31
0
39
0
210
0
220
0
230
1
0
LINE
5
2AE
100
AcDbEntity
8
SK2
62
256
6
ByLayer
370
13
48
1
60
0
100
AcDbLine
10
16.75
20
53
30
0
11
-7.238036
21
53
31
0
39
0
210
0
220
0
230
1
0
SOLID
5
2AF
100
AcDbEntity
8
SK2
62
256
6
ByLayer
370
18
48
1
60
0
100
AcDbTrace
10
16.75
20
53
30
0
11
13.250002
21
52.539216
31
0
12
13.249998
22
53.460784
32
0
13
13.249998
23
53.460784
33
0
39
0
210
0
220
0
230
1
0
SOLID
5
2B0
100
AcDbEntity
8
SK2
62
256
6
ByLayer
370
18
48
1
60
0
100
AcDbTrace
10
6.15
20
53
30
0
11
9.649998
21
53.460784
31
0
12
9.650002
22
52.539216
32
0
13
9.650002
23
52.539216
33
0
39
0
210
0
220
0
230
1
0
ENDBLK
5
2B2
100
AcDbEntity
8
0
100
AcDbBlockEnd
0
BLOCK
5
2B7
100
AcDbEntity
8
0
100
AcDbBlockBegin
2
*D3
70
1
10
0
20
0
30
0
3
*D3
0
LINE
5
2B9
100
AcDbEntity
8
0
62
256
6
ByLayer
370
-2
48
1
60
0
100
AcDbLine
10
0
20
-25.0875
30
0
11
0
21
-66
31
0
39
0
210
0
220
0
230
1
0
LINE
5
2BA
100
AcDbEntity
8
0
62
256
6
ByLayer
370
-2
48
1
60
0
100
AcDbLine
10
18.5
20
-25.0875
30
0
11
18.5
21
-66
31
0
39
0
210
0
220
0
230
1
0
LINE
5
2BB
100
AcDbEntity
8
0
62
256
6
ByLayer
370
-2
48
1
60
0
100
AcDbLine
10
0
20
-64
30
0
11
-32.115506
21
-64
31
0
39
0
210
0
220
0
230
1
0
LINE
5
2BC
100
AcDbEntity
8
0
62
256
6
ByLayer
370
-2
48
1
60
0
100
AcDbLine
10
-3.5
20
-64
30
0
11
-7
21
-64
31
0
39
0
210
0
220
0
230
1
0
LINE
5
2BD
100
AcDbEntity
8
0
62
256
6
ByLayer
370
-2
48
1
60
0
100
AcDbLine
10
22
20
-64
30
0
11
25.5
21
-64
31
0
39
0
210
0
220
0
230
1
0
SOLID
5
2BE
100
AcDbEntity
8
0
62
256
6
ByLayer
370
-1
48
1
60
0
100
AcDbTrace
10
-3.5
20
-64.583333
30
0
11
-3.5
21
-63.416667
31
0
12
0
22
-64
32
0
13
0
23
-64
33
0
39
0
210
0
220
0
230
1
0
SOLID
5
2BF
100
AcDbEntity
8
0
62
256
6
ByLayer
370
-1
48
1
60
0
100
AcDbTrace
10
22
20
-63.416667
30
0
11
22
21
-64.583333
31
0
12
18.5
22
-64
32
0
13
18.5
23
-64
33
0
39
0
210
0
220
0
230
1
0
MTEXT
5
2C0
100
AcDbEntity
8
0
62
256
6
ByLayer
370
18
48
1
60
0
100
AcDbMText
10
-20.305982
20
-56
30
0
210
0
220
0
230
1
1
\A1;18.5
40
4
41
0
44
1
50
0
71
5
72
5
7
iso_b_vert
0
POINT
5
2C1
100
AcDbEntity
8
Defpoints
62
0
6
ByLayer
370
-1
48
1
60
0
100
AcDbPoint
10
0
20
-23.5
30
0
39
0
210
0
220
0
230
1
50
360
0
POINT
5
2C2
100
AcDbEntity
8
Defpoints
62
0
6
ByLayer
370
-1
48
1
60
0
100
AcDbPoint
10
18.5
20
-23.5
30
0
39
0
210
0
220
0
230
1
50
360
0
POINT
5
2C3
100
AcDbEntity
8
Defpoints
62
0
6
ByLayer
370
-1
48
1
60
0
100
AcDbPoint
10
18.5
20
-64
30
0
39
0
210
0
220
0
230
1
50
360
0
ENDBLK
5
2B8
100
AcDbEntity
8
0
100
AcDbBlockEnd
0
BLOCK
5
2CB
100
AcDbEntity
8
0
100
AcDbBlockBegin
2
_U1
70
0
10
0
20
0
30
0
3
_U1
0
MTEXT
5
2C5
100
AcDbEntity
8
SK2
62
256
6
ByLayer
370
13
48
1
60
0
100
AcDbMText
10
-24.288
20
-62.819847
30
0
210
0
220
0
230
1
1
\W0.6563;18.5
40
4
41
0
44
1.084337
50
0
71
7
72
5
7
iso_b_vert
0
LINE
5
2C6
100
AcDbEntity
8
SK2
62
256
6
ByLayer
370
13
48
1
60
0
100
AcDbLine
10
0
20
-25.0875
30
0
11
0
21
-66
31
0
39
0
210
0
220
0
230
1
0
LINE
5
2C7
100
AcDbEntity
8
SK2
62
256
6
ByLayer
370
13
48
1
60
0
100
AcDbLine
10
18.5
20
-25.0875
30
0
11
18.5
21
-66
31
0
39
0
210
0
220
0
230
1
0
LINE
5
2C8
100
AcDbEntity
8
SK2
62
256
6
ByLayer
370
13
48
1
60
0
100
AcDbLine
10
18.5
20
-64
30
0
11
-24.5
21
-64
31
0
39
0
210
0
220
0
230
1
0
SOLID
5
2C9
100
AcDbEntity
8
SK2
62
256
6
ByLayer
370
18
48
1
60
0
100
AcDbTrace
10
0
20
-64
30
0
11
3.499998
21
-63.539216
31
0
12
3.500002
22
-64.460784
32
0
13
3.500002
23
-64.460784
33
0
39
0
210
0
220
0
230
1
0
SOLID
5
2CA
100
AcDbEntity
8
SK2
62
256
6
ByLayer
370
18
48
1
60
0
100
AcDbTrace
10
18.5
20
-64
30
0
11
15.000002
21
-64.460784
31
0
12
14.999998
22
-63.539216
32
0
13
14.999998
23
-63.539216
33
0
39
0
210
0
220
0
230
1
0
ENDBLK
5
2CC
100
AcDbEntity
8
0
100
AcDbBlockEnd
0
BLOCK
5
2D1
100
AcDbEntity
8
0
100
AcDbBlockBegin
2
*D5
70
1
10
0
20
0
30
0
3
*D5
0
LINE
5
2D3
100
AcDbEntity
8
0
62
256
6
ByLayer
370
-2
48
1
60
0
100
AcDbLine
10
16.75
20
51.5875
30
0
11
16.75
21
68.35
31
0
39
0
210
0
220
0
230
1
0
LINE
5
2D4
100
AcDbEntity
8
0
62
256
6
ByLayer
370
-2
48
1
60
0
100
AcDbLine
10
2.35
20
51.5875
30
0
11
2.35
21
68.35
31
0
39
0
210
0
220
0
230
1
0
LINE
5
2D5
100
AcDbEntity
8
0
62
256
6
ByLayer
370
-2
48
1
60
0
100
AcDbLine
10
20.25
20
66.35
30
0
11
23.75
21
66.35
31
0
39
0
210
0
220
0
230
1
0
LINE
5
2D6
100
AcDbEntity
8
0
62
256
6
ByLayer
370
-2
48
1
60
0
100
AcDbLine
10
-1.15
20
66.35
30
0
11
-4.65
21
66.35
31
0
39
0
210
0
220
0
230
1
0
SOLID
5
2D7
100
AcDbEntity
8
0
62
256
6
ByLayer
370
-1
48
1
60
0
100
AcDbTrace
10
20.25
20
66.933333
30
0
11
20.25
21
65.766667
31
0
12
16.75
22
66.35
32
0
13
16.75
23
66.35
33
0
39
0
210
0
220
0
230
1
0
SOLID
5
2D8
100
AcDbEntity
8
0
62
256
6
ByLayer
370
-1
48
1
60
0
100
AcDbTrace
10
-1.15
20
65.766667
30
0
11
-1.15
21
66.933333
31
0
12
2.35
22
66.35
32
0
13
2.35
23
66.35
33
0
39
0
210
0
220
0
230
1
0
MTEXT
5
2D9
100
AcDbEntity
8
0
62
256
6
ByLayer
370
18
48
1
60
0
100
AcDbMText
10
9.55
20
74.35
30
0
210
0
220
0
230
1
1
\A1;14.4
40
4
41
0
44
1
50
0
71
5
72
5
7
iso_b_vert
0
POINT
5
2DA
100
AcDbEntity
8
Defpoints
62
0
6
ByLayer
370
-1
48
1
60
0
100
AcDbPoint
10
16.75
20
50
30
0
39
0
210
0
220
0
230
1
50
360
0
POINT
5
2DB
100
AcDbEntity
8
Defpoints
62
0
6
ByLayer
370
-1
48
1
60
0
100
AcDbPoint
10
2.35
20
50
30
0
39
0
210
0
220
0
230
1
50
360
0
POINT
5
2DC
100
AcDbEntity
8
Defpoints
62
0
6
ByLayer
370
-1
48
1
60
0
100
AcDbPoint
10
2.35
20
66.35
30
0
39
0
210
0
220
0
230
1
50
360
0
ENDBLK
5
2D2
100
AcDbEntity
8
0
100
AcDbBlockEnd
0
BLOCK
5
2E4
100
AcDbEntity
8
0
100
AcDbBlockBegin
2
_U2
70
0
10
0
20
0
30
0
3
_U2
0
MTEXT
5
2DE
100
AcDbEntity
8
SK2
62
256
6
ByLayer
370
13
48
1
60
0
100
AcDbMText
10
5.146801
20
67.530153
30
0
210
0
220
0
230
1
1
\W0.7093;14.4
40
4
41
0
44
1.084337
50
0
71
7
72
5
7
iso_b_vert
0
LINE
5
2DF
100
AcDbEntity
8
SK2
62
256
6
ByLayer
370
13
48
1
60
0
100
AcDbLine
10
16.75
20
51.5875
30
0
11
16.75
21
68.35
31
0
39
0
210
0
220
0
230
1
0
LINE
5
2E0
100
AcDbEntity
8
SK2
62
256
6
ByLayer
370
13
48
1
60
0
100
AcDbLine
10
2.35
20
51.5875
30
0
11
2.35
21
68.35
31
0
39
0
210
0
220
0
230
1
0
LINE
5
2E1
100
AcDbEntity
8
SK2
62
256
6
ByLayer
370
13
48
1
60
0
100
AcDbLine
10
16.75
20
66.35
30
0
11
2.35
21
66.35
31
0
39
0
210
0
220
0
230
1
0
SOLID
5
2E2
100
AcDbEntity
8
SK2
62
256
6
ByLayer
370
18
48
1
60
0
100
AcDbTrace
10
16.75
20
66.35
30
0
11
13.250002
21
65.889216
31
0
12
13.249998
22
66.810784
32
0
13
13.249998
23
66.810784
33
0
39
0
210
0
220
0
230
1
0
SOLID
5
2E3
100
AcDbEntity
8
SK2
62
256
6
ByLayer
370
18
48
1
60
0
100
AcDbTrace
10
2.35
20
66.35
30
0
11
5.849998
21
66.810784
31
0
12
5.850002
22
65.889216
32
0
13
5.850002
23
65.889216
33
0
39
0
210
0
220
0
230
1
0
ENDBLK
5
2E5
100
AcDbEntity
8
0
100
AcDbBlockEnd
0
ENDSEC
0
SECTION
2
ENTITIES
0
ARC
5
1C1
100
AcDbEntity
8
1
62
256
6
ByLayer
370
18
48
1
60
0
100
AcDbCircle
39
0
10
16.95
20
-24.3
30
0
40
0.8
210
0
220
0
230
1
100
AcDbArc
50
90
51
180
0
ARC
5
1C2
100
AcDbEntity
8
1
62
256
6
ByLayer
370
18
48
1
60
0
100
AcDbCircle
39
0
10
16.95
20
24.3
30
0
40
0.8
210
0
220
0
230
1
100
AcDbArc
50
180
51
270
0
ARC
5
1C3
100
AcDbEntity
8
1
62
256
6
ByLayer
370
18
48
1
60
0
100
AcDbCircle
39
0
10
1.55
20
24.3
30
0
40
0.8
210
0
220
0
230
1
100
AcDbArc
50
270
51
0
0
ARC
5
1C4
100
AcDbEntity
8
1
62
256
6
ByLayer
370
18
48
1
60
0
100
AcDbCircle
39
0
10
1.55
20
-24.3
30
0
40
0.8
210
0
220
0
230
1
100
AcDbArc
50
0
51
90
0
ELLIPSE
5
1C5
100
AcDbEntity
8
1
62
256
6
ByLayer
370
18
48
1
60
0
100
AcDbEllipse
10
2.63498
20
44.266249
30
0
11
0.0159229560413348
21
0.149887274212176
31
0
210
0
220
0
230
1
40
0.365146
41
-2.33487667494195
42
-1.28767912374666
0
ELLIPSE
5
1C6
100
AcDbEntity
8
1
62
256
6
ByLayer
370
18
48
1
60
0
100
AcDbEllipse
10
2.63498
20
44.489251
30
0
11
0.015922956041699
21
0.149887274212813
31
0
210
0
220
0
230
1
40
0.365146
41
-1.2876791237409
42
-0.240481572548204
0
ELLIPSE
5
1C7
100
AcDbEntity
8
1
62
256
6
ByLayer
370
18
48
1
60
0
100
AcDbEllipse
10
2.46018
20
44.994188
30
0
11
0.0180460168468596
21
0.169872244106916
31
0
210
0
220
0
230
1
40
0.365146
41
0.80671597864751
42
2.90111108104103
0
ELLIPSE
5
1C8
100
AcDbEntity
8
1
62
256
6
ByLayer
370
18
48
1
60
0
100
AcDbEllipse
10
2.63498
20
45.721693
30
0
11
0.0159229560413293
21
0.149887274212586
31
0
210
0
220
0
230
1
40
0.365146
41
-2.33487667494062
42
-1.2876791237483
0
ELLIPSE
5
1C9
100
AcDbEntity
8
1
62
256
6
ByLayer
370
18
48
1
60
0
100
AcDbEllipse
10
2.63498
20
45.944695
30
0
11
0.0159229560410411
21
0.1498872742113
31
0
210
0
220
0
230
1
40
0.365146
41
-1.2876791237497
42
-0.240481572549436
0
ELLIPSE
5
1CA
100
AcDbEntity
8
1
62
256
6
ByLayer
370
18
48
1
60
0
100
AcDbEllipse
10
15.86502
20
45.944695
30
0
11
0.0159229560417839
21
-0.149887274212976
31
0
210
0
220
0
230
1
40
0.365146
41
-2.90111108104107
42
-1.85391352984959
0
ELLIPSE
5
1CB
100
AcDbEntity
8
1
62
256
6
ByLayer
370
18
48
1
60
0
100
AcDbEllipse
10
15.86502
20
45.721693
30
0
11
0.0159229560413907
21
-0.149887274211775
31
0
210
0
220
0
230
1
40
0.365146
41
-1.85391352984572
42
-0.806715978647621
0
ELLIPSE
5
1CC
100
AcDbEntity
8
1
62
256
6
ByLayer
370
18
48
1
60
0
100
AcDbEllipse
10
16.03982
20
44.994188
30
0
11
0.0180460168468568
21
-0.169872244106912
31
0
210
0
220
0
230
1
40
0.365146
41
0.240481572548766
42
2.33487667494257
0
ELLIPSE
5
1CD
100
AcDbEntity
8
1
62
256
6
ByLayer
370
18
48
1
60
0
100
AcDbEllipse
10
15.86502
20
44.489251
30
0
11
0.0159229560415791
21
-0.149887274212536
31
0
210
0
220
0
230
1
40
0.365146
41
-2.90111108104099
42
-1.85391352984715
0
ELLIPSE
5
1CE
100
AcDbEntity
8
1
62
256
6
ByLayer
370
18
48
1
60
0
100
AcDbEllipse
10
15.86502
20
44.266249
30
0
11
0.0159229560413619
21
-0.149887274212321
31
0
210
0
220
0
230
1
40
0.365146
41
-1.85391352984308
42
-0.806715978648918
0
ELLIPSE
5
1CF
100
AcDbEntity
8
1
62
256
6
ByLayer
370
18
48
1
60
0
100
AcDbEllipse
10
16.03982
20
43.538744
30
0
11
0.0180460168468868
21
-0.169872244106969
31
0
210
0
220
0
230
1
40
0.365146
41
0.240481572549033
42
2.3348766749418
0
ELLIPSE
5
1D0
100
AcDbEntity
8
1
62
256
6
ByLayer
370
18
48
1
60
0
100
AcDbEllipse
10
16.045907
20
19.726118
30
0
11
0.235332615580458
21
-0.390468092289571
31
0
210
0
220
0
230
1
40
0.36885
41
-2.59239429502724
42
-1.02159796823273
0
ELLIPSE
5
1D1
100
AcDbEntity
8
1
62
256
6
ByLayer
370
18
48
1
60
0
100
AcDbEllipse
10
2.454093
20
19.726118
30
0
11
0.235332615580479
21
0.390468092289607
31
0
210
0
220
0
230
1
40
0.36885
41
-2.11999468535701
42
-0.549198358562695
0
ELLIPSE
5
1D2
100
AcDbEntity
8
1
62
256
6
ByLayer
370
18
48
1
60
0
100
AcDbEllipse
10
9.25
20
15.599106
30
0
11
-2.65
21
3.2452068376293E-16
31
0
210
0
220
0
230
1
40
0.71934
41
-2.58494188575018
42
-0.556749322809885
0
ELLIPSE
5
1D3
100
AcDbEntity
8
1
62
256
6
ByLayer
370
18
48
1
60
0
100
AcDbEllipse
10
9.25
20
17.613615
30
0
11
2.65
21
0
31
0
210
0
220
0
230
1
40
0.71934
41
1.84576602874808
42
-2.29947921201762
0
ELLIPSE
5
1D4
100
AcDbEntity
8
1
62
256
6
ByLayer
370
18
48
1
60
0
100
AcDbEllipse
10
9.25
20
17.613615
30
0
11
2.65
21
0
31
0
210
0
220
0
230
1
40
0.71934
41
-0.842113441572172
42
1.29582662484171
0
ELLIPSE
5
1D5
100
AcDbEntity
8
1
62
256
6
ByLayer
370
18
48
1
60
0
100
AcDbEllipse
10
9.25
20
8.776716
30
0
11
3
21
0
31
0
210
0
220
0
230
1
40
0.981627
41
0.74758434966902
42
2.86260080644885
0
ELLIPSE
5
1D6
100
AcDbEntity
8
1
62
256
6
ByLayer
370
18
48
1
60
0
100
AcDbEllipse
10
9.25
20
10.398592
30
0
11
-3
21
3.67381906146713E-16
31
0
210
0
220
0
230
1
40
0.981627
41
0
42
1.01944678607761
0
ELLIPSE
5
1D7
100
AcDbEntity
8
1
62
256
6
ByLayer
370
18
48
1
60
0
100
AcDbEllipse
10
9.25
20
10.398592
30
0
11
-3
21
3.67381906146713E-16
31
0
210
0
220
0
230
1
40
0.981627
41
2.12224395433442
42
0
0
ELLIPSE
5
1D8
100
AcDbEntity
8
1
62
256
6
ByLayer
370
18
48
1
60
0
100
AcDbEllipse
10
9.25
20
-14.040887
30
0
11
3
21
0
31
0
210
0
220
0
230
1
40
0.656059
41
0
42
6.28318530717959
0
ELLIPSE
5
1D9
100
AcDbEntity
8
1
62
256
6
ByLayer
370
18
48
1
60
0
100
AcDbEllipse
10
9.25
20
-13.811266
30
0
11
-4
21
4.89842541528951E-16
31
0
210
0
220
0
230
1
40
0.656059
41
0
42
3.14159265358979
0
ELLIPSE
5
1DA
100
AcDbEntity
8
1
62
256
6
ByLayer
370
18
48
1
60
0
100
AcDbEllipse
10
9.25
20
18.406529
30
0
11
1.81796648901592E-16
21
2.96906264342249
31
0
210
0
220
0
230
1
40
0.892538
41
2.41290976836705
42
-2.41290976836705
0
ELLIPSE
5
1DB
100
AcDbEntity
8
1
62
256
6
ByLayer
370
18
48
1
60
0
100
AcDbEllipse
10
9.25
20
10.778641
30
0
11
4
21
4.6858214583301E-15
31
0
210
0
220
0
230
1
40
0.971627
41
-0.837872584197771
42
-1.37117188957304E-15
0
ELLIPSE
5
1DC
100
AcDbEntity
8
1
62
256
6
ByLayer
370
18
48
1
60
0
100
AcDbEllipse
10
9.25
20
10.778641
30
0
11
4
21
4.6858214583301E-15
31
0
210
0
220
0
230
1
40
0.971627
41
3.14159265358979
42
-2.30372006939202
0
ELLIPSE
5
1DD
100
AcDbEntity
8
1
62
256
6
ByLayer
370
18
48
1
60
0
100
AcDbEllipse
10
9.25
20
-13.955554
30
0
11
4
21
4.6858214583301E-15
31
0
210
0
220
0
230
1
40
0.695612
41
3.14159265358979
42
-1.91524532289579E-15
0
ELLIPSE
5
1DE
100
AcDbEntity
8
1
62
256
6
ByLayer
370
18
48
1
60
0
100
AcDbEllipse
10
12.95
20
-30.487309
30
0
11
-1
21
1.22460635382238E-16
31
0
210
0
220
0
230
1
40
0.605753
41
0
42
6.28318530717959
0
ELLIPSE
5
1DF
100
AcDbEntity
8
1
62
256
6
ByLayer
370
13
48
1
60
0
100
AcDbEllipse
10
12.95
20
-30.487309
30
0
11
1.4
21
0
31
0
210
0
220
0
230
1
40
0.605753
41
3.14159265358979
42
0
0
ELLIPSE
5
1E0
100
AcDbEntity
8
1
62
256
6
ByLayer
370
13
48
1
60
0
100
AcDbEllipse
10
11.55
20
-30.566875
30
0
11
0.1
21
0
31
0
210
0
220
0
230
1
40
0.795653
41
1.5707963267949
42
3.14159265358979
0
ELLIPSE
5
1E1
100
AcDbEntity
8
1
62
256
6
ByLayer
370
13
48
1
60
0
100
AcDbEllipse
10
14.35
20
-30.566875
30
0
11
-0.1
21
1.22460635382238E-17
31
0
210
0
220
0
230
1
40
0.795653
41
3.1415926535897
42
-1.5707963267949
0
ELLIPSE
5
1E2
100
AcDbEntity
8
1
62
256
6
ByLayer
370
13
48
1
60
0
100
AcDbEllipse
10
12.95
20
-30.566875
30
0
11
-1.5
21
1.83690953073357E-16
31
0
210
0
220
0
230
1
40
0.605753
41
0
42
-3.14159265358979
0
ELLIPSE
5
1E3
100
AcDbEntity
8
1
62
256
6
ByLayer
370
18
48
1
60
0
100
AcDbEllipse
10
15.86502
20
34.737222
30
0
11
0.0437192101372066
21
0.149618811884246
31
0
210
0
220
0
230
1
40
0.244445
41
2.44495460072265
42
-2.79103315525149
0
ELLIPSE
5
1E4
100
AcDbEntity
8
1
62
256
6
ByLayer
370
18
48
1
60
0
100
AcDbEllipse
10
16.03982
20
34.626951
30
0
11
0.0495484381564718
21
0.169567986804867
31
0
210
0
220
0
230
1
40
0.244445
41
-1.74383560405753
42
0.350559498335558
0
ELLIPSE
5
1E5
100
AcDbEntity
8
1
62
256
6
ByLayer
370
18
48
1
60
0
100
AcDbEllipse
10
15.86502
20
33.854888
30
0
11
0.0437192101377059
21
0.149618811885907
31
0
210
0
220
0
230
1
40
0.244445
41
1.39775704952784
42
2.44495460072932
0
ELLIPSE
5
1E6
100
AcDbEntity
8
1
62
256
6
ByLayer
370
18
48
1
60
0
100
AcDbEllipse
10
15.86502
20
33.695235
30
0
11
0.0437192101375446
21
0.149618811885199
31
0
210
0
220
0
230
1
40
0.244445
41
2.44495460072494
42
-2.79103315525266
0
ELLIPSE
5
1E7
100
AcDbEntity
8
1
62
256
6
ByLayer
370
18
48
1
60
0
100
AcDbEllipse
10
16.03982
20
33.584964
30
0
11
0.0495484381565011
21
0.169567986804937
31
0
210
0
220
0
230
1
40
0.244445
41
-1.74383560405709
42
0.350559498335406
0
ELLIPSE
5
1E8
100
AcDbEntity
8
1
62
256
6
ByLayer
370
18
48
1
60
0
100
AcDbEllipse
10
15.86502
20
32.8129
30
0
11
0.0437192101376114
21
0.149618811885751
31
0
210
0
220
0
230
1
40
0.244445
41
1.39775704952659
42
2.44495460072934
0
ELLIPSE
5
1E9
100
AcDbEntity
8
1
62
256
6
ByLayer
370
18
48
1
60
0
100
AcDbEllipse
10
15.86502
20
32.653247
30
0
11
0.0437192101385204
21
0.149618811887965
31
0
210
0
220
0
230
1
40
0.244445
41
2.44495460073214
42
-2.79103315525596
0
ELLIPSE
5
1EA
100
AcDbEntity
8
1
62
256
6
ByLayer
370
18
48
1
60
0
100
AcDbEllipse
10
16.03982
20
32.542976
30
0
11
0.0495484381564812
21
0.169567986804888
31
0
210
0
220
0
230
1
40
0.244445
41
-1.74383560405744
42
0.350559498335509
0
ELLIPSE
5
1EB
100
AcDbEntity
8
1
62
256
6
ByLayer
370
18
48
1
60
0
100
AcDbEllipse
10
15.86502
20
31.770912
30
0
11
0.0437192101380532
21
0.149618811886621
31
0
210
0
220
0
230
1
40
0.244445
41
1.39775704953233
42
2.4449546007289
0
ELLIPSE
5
1EC
100
AcDbEntity
8
1
62
256
6
ByLayer
370
18
48
1
60
0
100
AcDbEllipse
10
15.86502
20
31.611259
30
0
11
0.0437192101380008
21
0.149618811886475
31
0
210
0
220
0
230
1
40
0.244445
41
2.4449546007283
42
-2.79103315525405
0
ELLIPSE
5
1ED
100
AcDbEntity
8
1
62
256
6
ByLayer
370
18
48
1
60
0
100
AcDbEllipse
10
16.03982
20
31.500988
30
0
11
0.0495484381564709
21
0.169567986804872
31
0
210
0
220
0
230
1
40
0.244445
41
-1.74383560405761
42
0.350559498335551
0
ELLIPSE
5
1EE
100
AcDbEntity
8
1
62
256
6
ByLayer
370
18
48
1
60
0
100
AcDbEllipse
10
15.86502
20
30.728925
30
0
11
0.0437192101382541
21
0.149618811887016
31
0
210
0
220
0
230
1
40
0.244445
41
1.3977570495348
42
2.44495460072856
0
ELLIPSE
5
1EF
100
AcDbEntity
8
1
62
256
6
ByLayer
370
18
48
1
60
0
100
AcDbEllipse
10
15.86502
20
30.569272
30
0
11
0.0437192101375453
21
0.149618811885094
31
0
210
0
220
0
230
1
40
0.244445
41
2.44495460072488
42
-2.79103315525272
0
ELLIPSE
5
1F0
100
AcDbEntity
8
1
62
256
6
ByLayer
370
18
48
1
60
0
100
AcDbEllipse
10
16.03982
20
30.459001
30
0
11
0.0495484381565079
21
0.169567986804936
31
0
210
0
220
0
230
1
40
0.244445
41
-1.74383560405699
42
0.350559498335399
0
ELLIPSE
5
1F1
100
AcDbEntity
8
1
62
256
6
ByLayer
370
18
48
1
60
0
100
AcDbEllipse
10
15.86502
20
29.686937
30
0
11
0.043719210137801
21
0.149618811886155
31
0
210
0
220
0
230
1
40
0.244445
41
1.39775704952856
42
2.44495460072806
0
ELLIPSE
5
1F2
100
AcDbEntity
8
1
62
256
6
ByLayer
370
18
48
1
60
0
100
AcDbEllipse
10
15.86502
20
29.527284
30
0
11
0.0437192101372074
21
0.149618811884141
31
0
210
0
220
0
230
1
40
0.244445
41
2.44495460072249
42
-2.79103315525145
0
ELLIPSE
5
1F3
100
AcDbEntity
8
1
62
256
6
ByLayer
370
18
48
1
60
0
100
AcDbEllipse
10
16.03982
20
29.417013
30
0
11
0.0495484381564642
21
0.169567986804864
31
0
210
0
220
0
230
1
40
0.244445
41
-1.74383560405761
42
0.350559498335572
0
ELLIPSE
5
1F4
100
AcDbEntity
8
1
62
256
6
ByLayer
370
18
48
1
60
0
100
AcDbEllipse
10
15.86502
20
28.64495
30
0
11
0.0437192101376114
21
0.149618811885751
31
0
210
0
220
0
230
1
40
0.244445
41
1.39775704952659
42
2.44495460072934
0
ELLIPSE
5
1F5
100
AcDbEntity
8
1
62
256
6
ByLayer
370
18
48
1
60
0
100
AcDbEllipse
10
15.86502
20
28.485297
30
0
11
0.0437192101378865
21
0.149618811886197
31
0
210
0
220
0
230
1
40
0.244445
41
2.44495460072755
42
-2.79103315525374
0
ELLIPSE
5
1F6
100
AcDbEntity
8
1
62
256
6
ByLayer
370
18
48
1
60
0
100
AcDbEllipse
10
16.03982
20
28.375026
30
0
11
0.0495484381564682
21
0.169567986804862
31
0
210
0
220
0
230
1
40
0.244445
41
-1.74383560405765
42
0.350559498335572
0
ELLIPSE
5
1F7
100
AcDbEntity
8
1
62
256
6
ByLayer
370
18
48
1
60
0
100
AcDbEllipse
10
15.86502
20
27.602962
30
0
11
0.0437192101380307
21
0.149618811886606
31
0
210
0
220
0
230
1
40
0.244445
41
1.39775704953179
42
2.4449546007283
0
ELLIPSE
5
1F8
100
AcDbEntity
8
1
62
256
6
ByLayer
370
18
48
1
60
0
100
AcDbEllipse
10
15.86502
20
27.443309
30
0
11
0.0437192101381658
21
0.14961881188696
31
0
210
0
220
0
230
1
40
0.244445
41
2.44495460072958
42
-2.79103315525466
0
ELLIPSE
5
1F9
100
AcDbEntity
8
1
62
256
6
ByLayer
370
18
48
1
60
0
100
AcDbEllipse
10
16.03982
20
27.333038
30
0
11
0.0495484381564612
21
0.169567986804862
31
0
210
0
220
0
230
1
40
0.244445
41
-1.74383560405766
42
0.350559498335578
0
ELLIPSE
5
1FA
100
AcDbEntity
8
1
62
256
6
ByLayer
370
18
48
1
60
0
100
AcDbEllipse
10
15.86502
20
26.560975
30
0
11
0.043719210138542
21
0.149618811887626
31
0
210
0
220
0
230
1
40
0.244445
41
1.39775704953844
42
2.44495460072787
0
ELLIPSE
5
1FB
100
AcDbEntity
8
1
62
256
6
ByLayer
370
18
48
1
60
0
100
AcDbEllipse
10
15.86502
20
26.401322
30
0
11
0.0437192101376565
21
0.14961881188548
31
0
210
0
220
0
230
1
40
0.244445
41
2.44495460072581
42
-2.79103315525298
0
ELLIPSE
5
1FC
100
AcDbEntity
8
1
62
256
6
ByLayer
370
18
48
1
60
0
100
AcDbEllipse
10
16.03982
20
26.291051
30
0
11
0.0495484381563732
21
0.16956798680469
31
0
210
0
220
0
230
1
40
0.244445
41
-1.74383560405898
42
0.35055949833579
0
ELLIPSE
5
1FD
100
AcDbEntity
8
1
62
256
6
ByLayer
370
18
48
1
60
0
100
AcDbEllipse
10
15.86502
20
25.518987
30
0
11
0.0437192101378697
21
0.149618811886258
31
0
210
0
220
0
230
1
40
0.244445
41
1.39775704952989
42
2.44495460072905
0
ELLIPSE
5
1FE
100
AcDbEntity
8
1
62
256
6
ByLayer
370
18
48
1
60
0
100
AcDbEllipse
10
15.86502
20
25.359334
30
0
11
0.0437192101386271
21
0.149618811888207
31
0
210
0
220
0
230
1
40
0.244445
41
2.44495460073281
42
-2.79103315525608
0
ELLIPSE
5
1FF
100
AcDbEntity
8
1
62
256
6
ByLayer
370
18
48
1
60
0
100
AcDbEllipse
10
16.03982
20
25.249063
30
0
11
0.0495484381564651
21
0.169567986804857
31
0
210
0
220
0
230
1
40
0.244445
41
-1.74383560405762
42
0.350559498335494
0
ELLIPSE
5
200
100
AcDbEntity
8
1
62
256
6
ByLayer
370
18
48
1
60
0
100
AcDbEllipse
10
15.86502
20
24.477
30
0
11
0.0437192101378692
21
0.149618811886257
31
0
210
0
220
0
230
1
40
0.244445
41
1.39775704952985
42
2.44495460072893
0
ELLIPSE
5
201
100
AcDbEntity
8
1
62
256
6
ByLayer
370
18
48
1
60
0
100
AcDbEllipse
10
15.86502
20
24.317347
30
0
11
0.0437192101381658
21
0.14961881188696
31
0
210
0
220
0
230
1
40
0.244445
41
2.44495460072947
42
-2.79103315525466
0
ELLIPSE
5
202
100
AcDbEntity
8
1
62
256
6
ByLayer
370
18
48
1
60
0
100
AcDbEllipse
10
16.03982
20
24.207076
30
0
11
0.0495484381564615
21
0.16956798680485
31
0
210
0
220
0
230
1
40
0.244445
41
-1.74383560405766
42
0.350559498335515
0
ELLIPSE
5
203
100
AcDbEntity
8
1
62
256
6
ByLayer
370
18
48
1
60
0
100
AcDbEllipse
10
15.86502
20
23.435012
30
0
11
0.0437192101372042
21
0.149618811884898
31
0
210
0
220
0
230
1
40
0.244445
41
1.39775704952145
42
2.44495460073029
0
ELLIPSE
5
204
100
AcDbEntity
8
1
62
256
6
ByLayer
370
18
48
1
60
0
100
AcDbEllipse
10
15.86502
20
23.275359
30
0
11
0.0437192101381658
21
0.14961881188696
31
0
210
0
220
0
230
1
40
0.244445
41
2.44495460072947
42
-2.79103315525466
0
ELLIPSE
5
205
100
AcDbEntity
8
1
62
256
6
ByLayer
370
18
48
1
60
0
100
AcDbEllipse
10
16.03982
20
23.165088
30
0
11
0.0495484381563733
21
0.16956798680469
31
0
210
0
220
0
230
1
40
0.244445
41
-1.74383560405898
42
0.35055949833579
0
ELLIPSE
5
206
100
AcDbEntity
8
1
62
256
6
ByLayer
370
18
48
1
60
0
100
AcDbEllipse
10
15.86502
20
22.393024
30
0
11
0.0437192101382921
21
0.149618811887119
31
0
210
0
220
0
230
1
40
0.244445
41
1.39775704953529
42
2.4449546007283
0
ELLIPSE
5
207
100
AcDbEntity
8
1
62
256
6
ByLayer
370
18
48
1
60
0
100
AcDbEllipse
10
15.86502
20
22.233371
30
0
11
0.0437192101378215
21
0.149618811885965
31
0
210
0
220
0
230
1
40
0.244445
41
2.44495460072699
42
-2.79103315525348
0
ELLIPSE
5
208
100
AcDbEntity
8
1
62
256
6
ByLayer
370
18
48
1
60
0
100
AcDbEllipse
10
16.03982
20
22.1231
30
0
11
0.0495484381564637
21
0.169567986804861
31
0
210
0
220
0
230
1
40
0.244445
41
-1.74383560405764
42
0.350559498335487
0
ELLIPSE
5
209
100
AcDbEntity
8
1
62
256
6
ByLayer
370
18
48
1
60
0
100
AcDbEllipse
10
15.86502
20
21.351037
30
0
11
0.043719210137975
21
0.149618811886512
31
0
210
0
220
0
230
1
40
0.244445
41
1.39775704953082
42
2.44495460072785
0
ELLIPSE
5
20A
100
AcDbEntity
8
1
62
256
6
ByLayer
370
18
48
1
60
0
100
AcDbEllipse
10
15.86502
20
21.191384
30
0
11
0.0437192101378404
21
0.149618811886014
31
0
210
0
220
0
230
1
40
0.244445
41
2.44495460072715
42
-2.7910331552537
0
ELLIPSE
5
20B
100
AcDbEntity
8
1
62
256
6
ByLayer
370
18
48
1
60
0
100
AcDbEllipse
10
16.03982
20
21.081113
30
0
11
0.0495484381564279
21
0.169567986804795
31
0
210
0
220
0
230
1
40
0.244445
41
-1.74383560405812
42
0.350559498335555
0
ELLIPSE
5
20C
100
AcDbEntity
8
1
62
256
6
ByLayer
370
18
48
1
60
0
100
AcDbEllipse
10
2.46018
20
21.081113
30
0
11
0.049548438156463
21
-0.169567986804853
31
0
210
0
220
0
230
1
40
0.244445
41
2.79103315525446
42
-1.39775704953215
0
ELLIPSE
5
20D
100
AcDbEntity
8
1
62
256
6
ByLayer
370
18
48
1
60
0
100
AcDbEllipse
10
2.63498
20
21.191384
30
0
11
0.0437192101380552
21
-0.149618811886659
31
0
210
0
220
0
230
1
40
0.244445
41
-0.350559498335492
42
0.696638052860825
0
ELLIPSE
5
20E
100
AcDbEntity
8
1
62
256
6
ByLayer
370
18
48
1
60
0
100
AcDbEllipse
10
2.63498
20
21.351037
30
0
11
0.0437192101379938
21
-0.149618811886505
31
0
210
0
220
0
230
1
40
0.244445
41
0.696638052860628
42
1.74383560405839
0
ELLIPSE
5
20F
100
AcDbEntity
8
1
62
256
6
ByLayer
370
18
48
1
60
0
100
AcDbEllipse
10
2.46018
20
22.1231
30
0
11
0.0495484381564672
21
-0.169567986804859
31
0
210
0
220
0
230
1
40
0.244445
41
2.79103315525439
42
-1.39775704953214
0
ELLIPSE
5
210
100
AcDbEntity
8
1
62
256
6
ByLayer
370
18
48
1
60
0
100
AcDbEllipse
10
2.63498
20
22.233371
30
0
11
0.0437192101382716
21
-0.149618811887244
31
0
210
0
220
0
230
1
40
0.244445
41
-0.350559498334826
42
0.696638052859308
0
ELLIPSE
5
211
100
AcDbEntity
8
1
62
256
6
ByLayer
370
18
48
1
60
0
100
AcDbEllipse
10
2.63498
20
22.393024
30
0
11
0.0437192101382201
21
-0.149618811886958
31
0
210
0
220
0
230
1
40
0.244445
41
0.69663805286122
42
1.74383560405549
0
ELLIPSE
5
212
100
AcDbEntity
8
1
62
256
6
ByLayer
370
18
48
1
60
0
100
AcDbEllipse
10
2.46018
20
23.165088
30
0
11
0.0495484381564616
21
-0.169567986804854
31
0
210
0
220
0
230
1
40
0.244445
41
2.79103315525438
42
-1.3977570495321
0
ELLIPSE
5
213
100
AcDbEntity
8
1
62
256
6
ByLayer
370
18
48
1
60
0
100
AcDbEllipse
10
2.63498
20
23.275359
30
0
11
0.0437192101378498
21
-0.149618811886026
31
0
210
0
220
0
230
1
40
0.244445
41
-0.350559498336258
42
0.696638052862564
0
ELLIPSE
5
214
100
AcDbEntity
8
1
62
256
6
ByLayer
370
18
48
1
60
0
100
AcDbEllipse
10
2.63498
20
23.435012
30
0
11
0.043719210137732
21
-0.149618811886005
31
0
210
0
220
0
230
1
40
0.244445
41
0.696638052861153
42
1.74383560406204
0
ELLIPSE
5
215
100
AcDbEntity
8
1
62
256
6
ByLayer
370
18
48
1
60
0
100
AcDbEllipse
10
2.46018
20
24.207076
30
0
11
0.0495484381564629
21
-0.169567986804851
31
0
210
0
220
0
230
1
40
0.244445
41
2.79103315525437
42
-1.39775704953213
0
ELLIPSE
5
216
100
AcDbEntity
8
1
62
256
6
ByLayer
370
18
48
1
60
0
100
AcDbEllipse
10
2.63498
20
24.317347
30
0
11
0.0437192101380033
21
-0.149618811886466
31
0
210
0
220
0
230
1
40
0.244445
41
-0.350559498335663
42
0.696638052861406
0
ELLIPSE
5
217
100
AcDbEntity
8
1
62
256
6
ByLayer
370
18
48
1
60
0
100
AcDbEllipse
10
2.63498
20
24.477
30
0
11
0.0437192101377018
21
-0.149618811885907
31
0
210
0
220
0
230
1
40
0.244445
41
0.696638052860378
42
1.74383560406216
0
ELLIPSE
5
218
100
AcDbEntity
8
1
62
256
6
ByLayer
370
18
48
1
60
0
100
AcDbEllipse
10
2.46018
20
25.249063
30
0
11
0.0495484381564524
21
-0.169567986804833
31
0
210
0
220
0
230
1
40
0.244445
41
2.79103315525442
42
-1.39775704953197
0
ELLIPSE
5
219
100
AcDbEntity
8
1
62
256
6
ByLayer
370
18
48
1
60
0
100
AcDbEllipse
10
2.63498
20
25.359334
30
0
11
0.0437192101384292
21
-0.149618811887653
31
0
210
0
220
0
230
1
40
0.244445
41
-0.350559498334298
42
0.696638052858301
0
ELLIPSE
5
21A
100
AcDbEntity
8
1
62
256
6
ByLayer
370
18
48
1
60
0
100
AcDbEllipse
10
2.63498
20
25.518987
30
0
11
0.043719210138341
21
-0.149618811887208
31
0
210
0
220
0
230
1
40
0.244445
41
0.696638052861339
42
1.74383560405393
0
ELLIPSE
5
21B
100
AcDbEntity
8
1
62
256
6
ByLayer
370
18
48
1
60
0
100
AcDbEllipse
10
2.46018
20
26.291051
30
0
11
0.0495484381564557
21
-0.169567986804836
31
0
210
0
220
0
230
1
40
0.244445
41
2.79103315525443
42
-1.39775704953202
0
ELLIPSE
5
21C
100
AcDbEntity
8
1
62
256
6
ByLayer
370
18
48
1
60
0
100
AcDbEllipse
10
2.63498
20
26.401322
30
0
11
0.0437192101380484
21
-0.149618811886653
31
0
210
0
220
0
230
1
40
0.244445
41
-0.35055949833551
42
0.696638052860981
0
ELLIPSE
5
21D
100
AcDbEntity
8
1
62
256
6
ByLayer
370
18
48
1
60
0
100
AcDbEllipse
10
2.63498
20
26.560975
30
0
11
0.0437192101383487
21
-0.149618811887216
31
0
210
0
220
0
230
1
40
0.244445
41
0.696638052861154
42
1.74383560405379
0
ELLIPSE
5
21E
100
AcDbEntity
8
1
62
256
6
ByLayer
370
18
48
1
60
0
100
AcDbEllipse
10
2.46018
20
27.333038
30
0
11
0.0495484381564583
21
-0.169567986804846
31
0
210
0
220
0
230
1
40
0.244445
41
2.79103315525445
42
-1.39775704953203
0
ELLIPSE
5
21F
100
AcDbEntity
8
1
62
256
6
ByLayer
370
18
48
1
60
0
100
AcDbEllipse
10
2.63498
20
27.443309
30
0
11
0.0437192101381414
21
-0.149618811886832
31
0
210
0
220
0
230
1
40
0.244445
41
-0.350559498335245
42
0.696638052860296
0
ELLIPSE
5
220
100
AcDbEntity
8
1
62
256
6
ByLayer
370
18
48
1
60
0
100
AcDbEllipse
10
2.63498
20
27.602962
30
0
11
0.0437192101377489
21
-0.149618811886015
31
0
210
0
220
0
230
1
40
0.244445
41
0.696638052860721
42
1.74383560406166
0
ELLIPSE
5
221
100
AcDbEntity
8
1
62
256
6
ByLayer
370
18
48
1
60
0
100
AcDbEllipse
10
2.46018
20
28.375026
30
0
11
0.0495484381564661
21
-0.169567986804857
31
0
210
0
220
0
230
1
40
0.244445
41
2.79103315525439
42
-1.39775704953215
0
ELLIPSE
5
222
100
AcDbEntity
8
1
62
256
6
ByLayer
370
18
48
1
60
0
100
AcDbEllipse
10
2.63498
20
28.485297
30
0
11
0.043719210137858
21
-0.149618811886101
31
0
210
0
220
0
230
1
40
0.244445
41
-0.350559498336084
42
0.696638052862184
0
ELLIPSE
5
223
100
AcDbEntity
8
1
62
256
6
ByLayer
370
18
48
1
60
0
100
AcDbEllipse
10
2.63498
20
28.64495
30
0
11
0.0437192101380968
21
-0.149618811886717
31
0
210
0
220
0
230
1
40
0.244445
41
0.696638052861071
42
1.74383560405711
0
ELLIPSE
5
224
100
AcDbEntity
8
1
62
256
6
ByLayer
370
18
48
1
60
0
100
AcDbEllipse
10
2.46018
20
29.417013
30
0
11
0.0495484381564785
21
-0.169567986804881
31
0
210
0
220
0
230
1
40
0.244445
41
2.79103315525444
42
-1.39775704953234
0
ELLIPSE
5
225
100
AcDbEntity
8
1
62
256
6
ByLayer
370
18
48
1
60
0
100
AcDbEllipse
10
2.63498
20
29.527284
30
0
11
0.043719210138334
21
-0.149618811887457
31
0
210
0
220
0
230
1
40
0.244445
41
-0.350559498334604
42
0.696638052858857
0
ELLIPSE
5
226
100
AcDbEntity
8
1
62
256
6
ByLayer
370
18
48
1
60
0
100
AcDbEllipse
10
2.63498
20
29.686937
30
0
11
0.0437192101382895
21
-0.1496188118871
31
0
210
0
220
0
230
1
40
0.244445
41
0.696638052861235
42
1.74383560405459
0
ELLIPSE
5
227
100
AcDbEntity
8
1
62
256
6
ByLayer
370
18
48
1
60
0
100
AcDbEllipse
10
2.46018
20
30.459001
30
0
11
0.0495484381564838
21
-0.169567986804898
31
0
210
0
220
0
230
1
40
0.244445
41
2.79103315525448
42
-1.39775704953246
0
ELLIPSE
5
228
100
AcDbEntity
8
1
62
256
6
ByLayer
370
18
48
1
60
0
100
AcDbEllipse
10
2.63498
20
30.569272
30
0
11
0.0437192101379682
21
-0.149618811886405
31
0
210
0
220
0
230
1
40
0.244445
41
-0.350559498335823
42
0.696638052861533
0
ELLIPSE
5
229
100
AcDbEntity
8
1
62
256
6
ByLayer
370
18
48
1
60
0
100
AcDbEllipse
10
2.63498
20
30.728925
30
0
11
0.0437192101384588
21
-0.149618811887433
31
0
210
0
220
0
230
1
40
0.244445
41
0.696638052861339
42
1.74383560405238
0
ELLIPSE
5
22A
100
AcDbEntity
8
1
62
256
6
ByLayer
370
18
48
1
60
0
100
AcDbEllipse
10
2.46018
20
31.500988
30
0
11
0.0495484381564626
21
-0.169567986804854
31
0
210
0
220
0
230
1
40
0.244445
41
2.79103315525438
42
-1.39775704953208
0
ELLIPSE
5
22B
100
AcDbEntity
8
1
62
256
6
ByLayer
370
18
48
1
60
0
100
AcDbEllipse
10
2.63498
20
31.611259
30
0
11
0.0437192101378158
21
-0.149618811885991
31
0
210
0
220
0
230
1
40
0.244445
41
-0.350559498336261
42
0.696638052862675
0
ELLIPSE
5
22C
100
AcDbEntity
8
1
62
256
6
ByLayer
370
18
48
1
60
0
100
AcDbEllipse
10
2.63498
20
31.770912
30
0
11
0.0437192101379348
21
-0.14961881188639
31
0
210
0
220
0
230
1
40
0.244445
41
0.696638052861051
42
1.74383560405925
0
ELLIPSE
5
22D
100
AcDbEntity
8
1
62
256
6
ByLayer
370
18
48
1
60
0
100
AcDbEllipse
10
2.46018
20
32.542976
30
0
11
0.0495484381564679
21
-0.169567986804861
31
0
210
0
220
0
230
1
40
0.244445
41
2.7910331552544
42
-1.39775704953219
0
ELLIPSE
5
22E
100
AcDbEntity
8
1
62
256
6
ByLayer
370
18
48
1
60
0
100
AcDbEllipse
10
2.63498
20
32.653247
30
0
11
0.0437192101380035
21
-0.14961881188652
31
0
210
0
220
0
230
1
40
0.244445
41
-0.350559498335641
42
0.696638052861254
0
ELLIPSE
5
22F
100
AcDbEntity
8
1
62
256
6
ByLayer
370
18
48
1
60
0
100
AcDbEllipse
10
2.63498
20
32.8129
30
0
11
0.0437192101380567
21
-0.14961881188663
31
0
210
0
220
0
230
1
40
0.244445
41
0.696638052861087
42
1.7438356040576
0
ELLIPSE
5
230
100
AcDbEntity
8
1
62
256
6
ByLayer
370
18
48
1
60
0
100
AcDbEllipse
10
2.46018
20
33.584964
30
0
11
0.0495484381564561
21
-0.169567986804845
31
0
210
0
220
0
230
1
40
0.244445
41
2.79103315525436
42
-1.39775704953199
0
ELLIPSE
5
231
100
AcDbEntity
8
1
62
256
6
ByLayer
370
18
48
1
60
0
100
AcDbEllipse
10
2.63498
20
33.695235
30
0
11
0.0437192101383053
21
-0.14961881188734
31
0
210
0
220
0
230
1
40
0.244445
41
-0.350559498334588
42
0.696638052859027
0
ELLIPSE
5
232
100
AcDbEntity
8
1
62
256
6
ByLayer
370
18
48
1
60
0
100
AcDbEllipse
10
2.63498
20
33.854888
30
0
11
0.0437192101379869
21
-0.1496188118865
31
0
210
0
220
0
230
1
40
0.244445
41
0.696638052861138
42
1.74383560405858
0
ELLIPSE
5
233
100
AcDbEntity
8
1
62
256
6
ByLayer
370
18
48
1
60
0
100
AcDbEllipse
10
2.46018
20
34.626951
30
0
11
0.0495484381564759
21
-0.169567986804882
31
0
210
0
220
0
230
1
40
0.244445
41
2.79103315525444
42
-1.39775704953236
0
ELLIPSE
5
234
100
AcDbEntity
8
1
62
256
6
ByLayer
370
18
48
1
60
0
100
AcDbEllipse
10
2.63498
20
34.737222
30
0
11
0.0437192101375879
21
-0.149618811885347
31
0
210
0
220
0
230
1
40
0.244445
41
-0.350559498336966
42
0.696638052864291
0
ELLIPSE
5
235
100
AcDbEntity
8
1
62
256
6
ByLayer
370
18
48
1
60
0
100
AcDbEllipse
10
15.86502
20
34.896875
30
0
11
0.0437192101374611
21
0.149618811885418
31
0
210
0
220
0
230
1
40
0.244445
41
1.39775704952455
42
2.4449546007296
0
ELLIPSE
5
236
100
AcDbEntity
8
1
62
256
6
ByLayer
370
18
48
1
60
0
100
AcDbEllipse
10
2.63498
20
34.896875
30
0
11
0.0437192101380966
21
-0.14961881188674
31
0
210
0
220
0
230
1
40
0.244445
41
0.696638052861687
42
1.74383560405733
0
ELLIPSE
5
237
100
AcDbEntity
8
1
62
256
6
ByLayer
370
18
48
1
60
0
100
AcDbEllipse
10
12.95
20
4.857539
30
0
11
-1
21
1.22460635382238E-16
31
0
210
0
220
0
230
1
40
0.991932
41
0
42
0.427551116193291
0
ELLIPSE
5
238
100
AcDbEntity
8
1
62
256
6
ByLayer
370
18
48
1
60
0
100
AcDbEllipse
10
12.95
20
4.857539
30
0
11
-1
21
1.22460635382238E-16
31
0
210
0
220
0
230
1
40
0.991932
41
2.70324206745698
42
3.1415919192263
0
ELLIPSE
5
239
100
AcDbEntity
8
1
62
256
6
ByLayer
370
18
48
1
60
0
100
AcDbEllipse
10
12.95
20
4.857539
30
0
11
-1
21
1.22460635382238E-16
31
0
210
0
220
0
230
1
40
0.991932
41
-3.14159237981964
42
0
0
ELLIPSE
5
23A
100
AcDbEntity
8
1
62
256
6
ByLayer
370
18
48
1
60
0
100
AcDbEllipse
10
2.63498
20
-11.04782
30
0
11
0.0552947944633439
21
-0.149913137970903
31
0
210
0
220
0
230
1
40
0.092306
41
-0.801978269088757
42
-0.0340488321764656
0
ELLIPSE
5
23B
100
AcDbEntity
8
1
62
256
6
ByLayer
370
18
48
1
60
0
100
AcDbEllipse
10
15.86502
20
-11.04782
30
0
11
0.055294794463554
21
0.149913137971542
31
0
210
0
220
0
230
1
40
0.092306
41
-3.10754382141347
42
-2.33961438450293
0
ELLIPSE
5
23C
100
AcDbEntity
8
1
62
256
6
ByLayer
370
18
48
1
60
0
100
AcDbEllipse
10
2.46018
20
43.538744
30
0
11
0.0180460168468713
21
0.169872244106943
31
0
210
0
220
0
230
1
40
0.365146
41
0.806715978647833
42
2.90111108104072
0
POINT
5
70
100
AcDbEntity
8
80
62
256
6
ByLayer
370
18
48
1
60
0
100
AcDbPoint
10
0
20
0
30
0
39
0
210
0
220
0
230
1
50
360
0
POINT
5
72
100
AcDbEntity
8
81
62
256
6
ByLayer
370
18
48
1
60
0
100
AcDbPoint
10
16.75
20
50
30
0
39
0
210
0
220
0
230
1
50
360
0
POINT
5
74
100
AcDbEntity
8
1
62
256
6
ByLayer
370
18
48
1
60
1
100
AcDbPoint
10
16.75
20
50
30
0
39
0
210
0
220
0
230
1
50
360
0
POINT
5
76
100
AcDbEntity
8
1
62
256
6
ByLayer
370
18
48
1
60
1
100
AcDbPoint
10
6.15
20
50
30
0
39
0
210
0
220
0
230
1
50
360
0
POINT
5
77
100
AcDbEntity
8
1
62
256
6
ByLayer
370
18
48
1
60
1
100
AcDbPoint
10
0
20
-23.5
30
0
39
0
210
0
220
0
230
1
50
360
0
POINT
5
78
100
AcDbEntity
8
1
62
256
6
ByLayer
370
18
48
1
60
1
100
AcDbPoint
10
18.5
20
-23.5
30
0
39
0
210
0
220
0
230
1
50
360
0
POINT
5
79
100
AcDbEntity
8
1
62
256
6
ByLayer
370
18
48
1
60
1
100
AcDbPoint
10
2.35
20
50
30
0
39
0
210
0
220
0
230
1
50
360
0
SPLINE
5
23D
100
AcDbEntity
8
1
62
256
6
ByLayer
370
18
48
1
60
0
100
AcDbSpline
70
4
71
3
72
8
73
4
40
0
40
0
40
0
40
0
40
1
40
1
40
1
40
1
41
1
10
12.1206728259728
20
10.4972975960407
30
0
41
1
10
12.0753026443323
20
10.3602841757444
30
0
41
1
10
12.0183871823281
20
10.2256442544024
30
0
41
1
10
11.95
20
10.0936462714028
30
0
0
SPLINE
5
23E
100
AcDbEntity
8
1
62
256
6
ByLayer
370
18
48
1
60
0
100
AcDbSpline
70
4
71
3
72
22
73
18
40
0
40
0
40
0
40
0
40
0.0624999999999914
40
0.0624999999999914
40
0.124999999999983
40
0.124999999999983
40
0.249999999999988
40
0.249999999999988
40
0.374999999999992
40
0.374999999999992
40
0.499999999999997
40
0.499999999999997
40
0.625000000000002
40
0.625000000000002
40
0.750000000000006
40
0.750000000000006
40
1
40
1
40
1
40
1
41
1
10
2.34999999999997
20
45.3998489321602
30
0
41
1
10
2.34999999999997
20
45.4188088950059
30
0
41
1
10
2.35056971135322
20
45.4380165128658
30
0
41
1
10
2.35278321901609
20
45.4768986561231
30
0
41
1
10
2.35444664767437
20
45.4967059340909
30
0
41
1
10
2.36075418445904
20
45.5550444825699
30
0
41
1
10
2.36669479219836
20
45.5929619930674
30
0
41
1
10
2.3811173217544
20
45.6673695900666
30
0
41
1
10
2.38946665930433
20
45.7031171899211
30
0
41
1
10
2.40750998546889
20
45.7716162712677
30
0
41
1
10
2.41725274253668
20
45.8045579394428
30
0
41
1
10
2.43782159356306
20
45.868476391112
30
0
41
1
10
2.44863423874233
20
45.8993747681791
30
0
41
1
10
2.47073423821439
20
45.9586199504308
30
0
41
1
10
2.48207403212689
20
45.9871226365668
30
0
41
1
10
2.51678112185846
20
46.0699730583602
30
0
41
1
10
2.54082688968248
20
46.1216988497361
30
0
41
1
10
2.56551652468124
20
46.1709364266472
30
0
0
SPLINE
5
23F
100
AcDbEntity
8
1
62
256
6
ByLayer
370
18
48
1
60
0
100
AcDbSpline
70
4
71
3
72
22
73
18
40
0
40
0
40
0
40
0
40
0.249999999999987
40
0.249999999999987
40
0.499999999999975
40
0.499999999999975
40
0.62499999999997
40
0.62499999999997
40
0.749999999999965
40
0.749999999999965
40
0.812499999999974
40
0.812499999999974
40
0.874999999999982
40
0.874999999999982
40
0.937499999999991
40
0.937499999999991
40
1
40
1
40
1
40
1
41
1
10
15.9344834753163
20
46.1709364266511
30
0
41
1
10
15.9590908216534
20
46.1218629548113
30
0
41
1
10
15.9832556173982
20
46.069921680439
30
0
41
1
10
16.0298921114132
20
45.9585212035239
30
0
41
1
10
16.05210015631
20
45.8998184026576
30
0
41
1
10
16.082745431811
20
45.804551812852
30
0
41
1
10
16.0925346310057
20
45.7714845321042
30
0
41
1
10
16.1107364665893
20
45.7023078927065
30
0
41
1
10
16.1190256583398
20
45.6666970324093
30
0
41
1
10
16.129772310339
20
45.6111554378766
30
0
41
1
10
16.1330879425921
20
45.5921613204105
30
0
41
1
10
16.1389173673148
20
45.5540128716756
30
0
41
1
10
16.1414341574852
20
45.5348748761642
30
0
41
1
10
16.1455726273237
20
45.4964554344315
30
0
41
1
10
16.147194727742
20
45.4771740556398
30
0
41
1
10
16.1494120568973
20
45.4384467312558
30
0
41
1
10
16.15
20
45.4188045538784
30
0
41
1
10
16.15
20
45.3998489321602
30
0
0
SPLINE
5
240
100
AcDbEntity
8
1
62
256
6
ByLayer
370
18
48
1
60
0
100
AcDbSpline
70
4
71
3
72
8
73
4
40
0
40
0
40
0
40
0
40
1
40
1
40
1
40
1
41
1
10
11.45
20
10.7788500987743
30
0
41
1
10
11.45
20
10.5982431227931
30
0
41
1
10
11.45
20
10.4139701443723
30
0
41
1
10
11.45
20
10.2239852219417
30
0
0
SPLINE
5
241
100
AcDbEntity
8
1
62
256
6
ByLayer
370
18
48
1
60
0
100
AcDbSpline
70
4
71
3
72
55
73
51
40
0
40
0
40
0
40
0
40
0.0019129355203864
40
0.0019129355203864
40
0.0227064160303774
40
0.0227064160303774
40
0.0434998965403684
40
0.0434998965403684
40
0.0850868575603508
40
0.0850868575603508
40
0.168260779600317
40
0.168260779600317
40
0.2098477406203
40
0.2098477406203
40
0.251434701640283
40
0.251434701640283
40
0.334608623680249
40
0.334608623680249
40
0.35540210419024
40
0.35540210419024
40
0.376195584700232
40
0.376195584700232
40
0.417782545720216
40
0.417782545720216
40
0.500956467760185
40
0.500956467760185
40
0.521749948270177
40
0.521749948270177
40
0.542543428780169
40
0.542543428780169
40
0.584130389800153
40
0.584130389800153
40
0.667304311840122
40
0.667304311840122
40
0.688097792350115
40
0.688097792350115
40
0.708891272860108
40
0.708891272860108
40
0.750478233880092
40
0.792065194900077
40
0.792065194900077
40
0.81285867541007
40
0.81285867541007
40
0.833652155920063
40
0.833652155920063
40
0.916826077960032
40
0.916826077960032
40
0.958413038980016
40
0.958413038980016
40
1
40
1
40
1
40
1
41
1
10
6.46076526887242
20
9.32422946484797
30
0
41
1
10
6.46194794133288
20
9.32742873650432
30
0
41
1
10
6.4631378976369
20
9.33062625312743
30
0
41
1
10
6.47734906890679
20
9.36855974382178
30
0
41
1
10
6.49124393171195
20
9.40311137571121
30
0
41
1
10
6.52053236935757
20
9.47122781292018
30
0
41
1
10
6.53595126327252
20
9.50486510996421
30
0
41
1
10
6.58449596083187
20
9.60454605291022
30
0
41
1
10
6.61990516389705
20
9.6693607833372
30
0
41
1
10
6.73515569934256
20
9.85906384187626
30
0
41
1
10
6.82394081965492
20
9.9792428399478
30
0
41
1
10
6.97595050318768
20
10.1502051704919
30
0
41
1
10
7.02987210985856
20
10.2056712981392
30
0
41
1
10
7.14221012565167
20
10.3114975420643
30
0
41
1
10
7.20084755053489
20
10.3621257226026
30
0
41
1
10
7.38421957122404
20
10.5073025471053
30
0
41
1
10
7.51634033676368
20
10.5952031312146
30
0
41
1
10
7.69502081372195
20
10.6936158566849
30
0
41
1
10
7.73143923494211
20
10.712720491952
30
0
41
1
10
7.8056962892357
20
10.749744265344
30
0
41
1
10
7.84357241041323
20
10.7676740436112
30
0
41
1
10
7.9580548445694
20
10.8190439572018
30
0
41
1
10
8.03593219491984
20
10.8502885885379
30
0
41
1
10
8.27426563890992
20
10.9351436221476
30
0
41
1
10
8.43938182880754
20
10.97995971244
30
0
41
1
10
8.65425302199037
20
11.020503212753
30
0
41
1
10
8.69765434763093
20
11.0278313347911
30
0
41
1
10
8.78534286569732
20
11.0408775192999
30
0
41
1
10
8.82971114716685
20
11.0465987435747
30
0
41
1
10
8.96240128500568
20
11.0610902108123
30
0
41
1
10
9.05084967060071
20
11.0672881749603
30
0
41
1
10
9.31616041941942
20
11.0757499258794
30
0
41
1
10
9.49298861960693
20
11.0679707742729
30
0
41
1
10
9.71396547686055
20
11.0409728067286
30
0
41
1
10
9.75815112172165
20
11.0346961589051
30
0
41
1
10
9.84545420562495
20
11.0205597225864
30
0
41
1
10
9.88870757041201
20
11.0126849993999
30
0
41
1
10
10.0173071317805
20
10.9866961210529
30
0
41
1
10
10.1856833066996
20
10.9457495077414
30
0
41
1
10
10.3481200801158
20
10.8925177123175
30
0
41
1
10
10.4677567092934
20
10.847975113078
30
0
41
1
10
10.5073643158053
20
10.8323156142009
30
0
41
1
10
10.5853006579995
20
10.7996714531339
30
0
41
1
10
10.6236218886809
20
10.7826959069981
30
0
41
1
10
10.8121089929308
20
10.694626854654
30
0
41
1
10
10.9530006971006
20
10.6140448861318
30
0
41
1
10
11.1506271471752
20
10.4783391819938
30
0
41
1
10
11.2143656124068
20
10.4304738468405
30
0
41
1
10
11.3363246419092
20
10.3304100000951
30
0
41
1
10
11.3945203775533
20
10.2782624925198
30
0
41
1
10
11.45
20
10.2239852219417
30
0
0
SPLINE
5
242
100
AcDbEntity
8
1
62
256
6
ByLayer
370
18
48
1
60
0
100
AcDbSpline
70
4
71
3
72
42
73
38
40
0
40
0
40
0
40
0
40
0.13583056236746
40
0.13583056236746
40
0.169788202959325
40
0.169788202959325
40
0.20374584355119
40
0.20374584355119
40
0.271661124734919
40
0.271661124734919
40
0.339576405918648
40
0.339576405918648
40
0.373534046510512
40
0.373534046510512
40
0.407491687102377
40
0.407491687102377
40
0.543322249469832
40
0.543322249469832
40
0.577279890061696
40
0.577279890061696
40
0.611237530653559
40
0.611237530653559
40
0.679152811837286
40
0.679152811837286
40
0.71311045242915
40
0.71311045242915
40
0.747068093021014
40
0.747068093021014
40
0.81498337420474
40
0.81498337420474
40
0.882898655388467
40
0.882898655388467
40
0.91685629598033
40
0.91685629598033
40
0.950813936572193
40
0.950813936572193
40
1
40
1
40
1
40
1
41
1
10
11.45
20
9.13299769812534
30
0
41
1
10
11.2826672254341
20
9.2859013978902
30
0
41
1
10
11.0959189420404
20
9.41685356518337
30
0
41
1
10
10.8385968041272
20
9.55511442084463
30
0
41
1
10
10.7859219606112
20
9.58147676951137
30
0
41
1
10
10.6780940732486
20
9.63159731058789
30
0
41
1
10
10.6228869534168
20
9.65536169640853
30
0
41
1
10
10.4558920772692
20
9.72176969009291
30
0
41
1
10
10.3419774478683
20
9.75992378473171
30
0
41
1
10
10.10909972719
20
9.82451718676549
30
0
41
1
10
9.99013676885704
20
9.85095625718907
30
0
41
1
10
9.8078190141328
20
9.88175678985385
30
0
41
1
10
9.74618753186473
20
9.89056512354881
30
0
41
1
10
9.6226928984571
20
9.9050256599262
30
0
41
1
10
9.5609553245564
20
9.91067613845166
30
0
41
1
10
9.25231505640795
20
9.93123419262844
30
0
41
1
10
9.00555290520617
20
9.92347665888792
30
0
41
1
10
8.69729307311388
20
9.88253295381719
30
0
41
1
10
8.63607621341623
20
9.87280536718646
30
0
41
1
10
8.5151912271233
20
9.85043102000827
30
0
41
1
10
8.45541045752799
20
9.83776949287085
30
0
41
1
10
8.27802316701832
20
9.79539817178278
30
0
41
1
10
8.16236427523404
20
9.7613204120986
30
0
41
1
10
7.9927918602192
20
9.70125877170841
30
0
41
1
10
7.9369222224874
20
9.67974272823534
30
0
41
1
10
7.82651772874516
20
9.63362764033928
30
0
41
1
10
7.77188085852004
20
9.60896641554604
30
0
41
1
10
7.61224443401227
20
9.53130622262643
30
0
41
1
10
7.51078083822028
20
9.47437418436249
30
0
41
1
10
7.31746798433642
20
9.35021750094154
30
0
41
1
10
7.22561976958332
20
9.28299251123616
30
0
41
1
10
7.09514550521385
20
9.17410308288368
30
0
41
1
10
7.0527544499916
20
9.13634542849712
30
0
41
1
10
6.97104891423714
20
9.05860153876461
30
0
41
1
10
6.93185413505478
20
9.01874644026793
30
0
41
1
10
6.83983199531031
20
8.91877851105278
30
0
41
1
10
6.78873256123444
20
8.85761954775489
30
0
41
1
10
6.74095547399884
20
8.79439899572924
30
0
0
SPLINE
5
243
100
AcDbEntity
8
1
62
256
6
ByLayer
370
18
48
1
60
0
100
AcDbSpline
70
4
71
3
72
24
73
20
40
0
40
0
40
0
40
0
40
0.250000000000003
40
0.250000000000003
40
0.375000000000003
40
0.375000000000003
40
0.500000000000004
40
0.500000000000004
40
0.625000000000005
40
0.625000000000005
40
0.687500000000005
40
0.687500000000005
40
0.750000000000004
40
0.750000000000004
40
0.874999999999998
40
0.874999999999998
40
0.937499999999999
40
0.937499999999999
40
1
40
1
40
1
40
1
41
1
10
11.95
20
10.9011776390304
30
0
41
1
10
11.9057587616728
20
10.9844082278207
30
0
41
1
10
11.8580154449183
20
11.0620882185746
30
0
41
1
10
11.7832891013589
20
11.1683607727648
30
0
41
1
10
11.7578676727143
20
11.2020726988518
30
0
41
1
10
11.7065060725384
20
11.2655889724369
30
0
41
1
10
11.6804710289097
20
11.2954680972906
30
0
41
1
10
11.629957441249
20
11.3492363611182
30
0
41
1
10
11.6053257373758
20
11.3733311777764
30
0
41
1
10
11.5702248703322
20
11.4046701433635
30
0
41
1
10
11.5588175836309
20
11.4143210910591
30
0
41
1
10
11.5372290388243
20
11.4315393519899
30
0
41
1
10
11.5269969562173
20
11.4391547150122
30
0
41
1
10
11.4983384163415
20
11.4588090575933
30
0
41
1
10
11.4818554636703
20
11.4677750789782
30
0
41
1
10
11.4635326729893
20
11.4728171223093
30
0
41
1
10
11.4586595472885
20
11.4730235548147
30
0
41
1
10
11.4518990370984
20
11.4700692172274
30
0
41
1
10
11.45
20
11.4668694215409
30
0
41
1
10
11.45
20
11.4616745976162
30
0
0
SPLINE
5
244
100
AcDbEntity
8
1
62
256
6
ByLayer
370
18
48
1
60
0
100
AcDbSpline
70
4
71
3
72
10
73
6
40
0
40
0
40
0
40
0
40
0.338238558223112
40
0.338238558223112
40
1
40
1
40
1
40
1
41
1
10
12.230978764608
20
10.0124120203269
30
0
41
1
10
12.2181390216906
20
10.1168392376443
30
0
41
1
10
12.1987881277707
20
10.2204565196857
30
0
41
1
10
12.1222292087326
20
10.5244271656899
30
0
41
1
10
12.0478597119853
20
10.7170751646117
30
0
41
1
10
11.95
20
10.9011776390304
30
0
0
SPLINE
5
245
100
AcDbEntity
8
1
62
256
6
ByLayer
370
18
48
1
60
0
100
AcDbSpline
70
4
71
3
72
16
73
12
40
0
40
0
40
0
40
0
40
0.249999999999998
40
0.249999999999998
40
0.499999999999996
40
0.499999999999996
40
0.624999999999997
40
0.624999999999997
40
0.749999999999998
40
0.749999999999998
40
1
40
1
40
1
40
1
41
1
10
8.53047789034633
20
19.4482545632119
30
0
41
1
10
8.64815223427973
20
19.4721350649959
30
0
41
1
10
8.76680319469642
20
19.4926018479251
30
0
41
1
10
9.00612073013582
20
19.5208079611132
30
0
41
1
10
9.12678763212915
20
19.5285471515216
30
0
41
1
10
9.30937323580224
20
19.5286392404957
30
0
41
1
10
9.37062823563093
20
19.526758991257
30
0
41
1
10
9.49214029993351
20
19.5193724144434
30
0
41
1
10
9.55256649410359
20
19.5138755652519
30
0
41
1
10
9.73288375524817
20
19.4926693785001
30
0
41
1
10
9.85181517296394
20
19.4721416792786
30
0
41
1
10
9.96952210965367
20
19.4482545632119
30
0
0
SPLINE
5
246
100
AcDbEntity
8
1
62
256
6
ByLayer
370
18
48
1
60
0
100
AcDbSpline
70
4
71
3
72
8
73
4
40
0
40
0
40
0
40
0
40
1
40
1
40
1
40
1
41
1
10
16.1500415161215
20
-16.9767148847533
30
0
41
1
10
16.1500138377555
20
-16.9806729289215
30
0
41
1
10
16.15
20
-16.9846301943898
30
0
41
1
10
16.15
20
-16.9885866813187
30
0
0
SPLINE
5
247
100
AcDbEntity
8
1
62
256
6
ByLayer
370
18
48
1
60
0
100
AcDbSpline
70
4
71
3
72
8
73
4
40
0
40
0
40
0
40
0
40
1
40
1
40
1
40
1
41
1
10
2.35000000000002
20
-16.9885866813187
30
0
41
1
10
2.35000000000002
20
-16.9846301943898
30
0
41
1
10
2.34998616224448
20
-16.9806729289215
30
0
41
1
10
2.34995848387848
20
-16.9767148847533
30
0
0
SPLINE
5
248
100
AcDbEntity
8
1
62
256
6
ByLayer
370
18
48
1
60
0
100
AcDbSpline
70
4
71
3
72
8
73
4
40
0
40
0
40
0
40
0
40
1
40
1
40
1
40
1
41
1
10
2.35000000000002
20
-16.8100566905978
30
0
41
1
10
2.35000000000002
20
-16.8656093112618
30
0
41
1
10
2.34998214327788
20
-16.9211620747945
30
0
41
1
10
2.34995848387825
20
-16.9767148847533
30
0
0
SPLINE
5
249
100
AcDbEntity
8
1
62
256
6
ByLayer
370
18
48
1
60
0
100
AcDbSpline
70
4
71
3
72
8
73
4
40
0
40
0
40
0
40
0
40
1
40
1
40
1
40
1
41
1
10
16.1500415161218
20
-16.9767148847533
30
0
41
1
10
16.1500178567463
20
-16.9211621315156
30
0
41
1
10
16.15
20
-16.8656093911897
30
0
41
1
10
16.15
20
-16.8100566905979
30
0
0
SPLINE
5
24A
100
AcDbEntity
8
1
62
256
6
ByLayer
370
18
48
1
60
0
100
AcDbSpline
70
4
71
3
72
22
73
18
40
0
40
0
40
0
40
0
40
0.0625000000000086
40
0.0625000000000086
40
0.125000000000017
40
0.125000000000017
40
0.250000000000012
40
0.250000000000012
40
0.375000000000008
40
0.375000000000008
40
0.500000000000003
40
0.500000000000003
40
0.624999999999998
40
0.624999999999998
40
0.749999999999994
40
0.749999999999994
40
1
40
1
40
1
40
1
41
1
10
2.34999999999997
20
-45.3998489321602
30
0
41
1
10
2.34999999999997
20
-45.418808895006
30
0
41
1
10
2.35056971135322
20
-45.4380165128658
30
0
41
1
10
2.35278321901609
20
-45.4768986561231
30
0
41
1
10
2.35444664767437
20
-45.4967059340909
30
0
41
1
10
2.36075418445904
20
-45.55504448257
30
0
41
1
10
2.36669479219836
20
-45.5929619930674
30
0
41
1
10
2.3811173217544
20
-45.6673695900666
30
0
41
1
10
2.38946665930433
20
-45.7031171899212
30
0
41
1
10
2.40750998546889
20
-45.7716162712677
30
0
41
1
10
2.41725274253668
20
-45.8045579394428
30
0
41
1
10
2.43782159356306
20
-45.868476391112
30
0
41
1
10
2.44863423874233
20
-45.8993747681791
30
0
41
1
10
2.47073423821439
20
-45.9586199504309
30
0
41
1
10
2.48207403212689
20
-45.9871226365669
30
0
41
1
10
2.51678112185846
20
-46.0699730583602
30
0
41
1
10
2.54082688968248
20
-46.1216988497362
30
0
41
1
10
2.56551652468124
20
-46.1709364266472
30
0
0
SPLINE
5
24B
100
AcDbEntity
8
1
62
256
6
ByLayer
370
18
48
1
60
0
100
AcDbSpline
70
4
71
3
72
10
73
6
40
0
40
0
40
0
40
0
40
0.5
40
0.5
40
1
40
1
40
1
40
1
41
1
10
2.82080401910122
20
-46.2862169921483
30
0
41
1
10
2.76596988988706
20
-46.2690470247848
30
0
41
1
10
2.71875562015185
20
-46.2506097117297
30
0
41
1
10
2.63474370681837
20
-46.2120025777832
30
0
41
1
10
2.59803282061097
20
-46.1918183272813
30
0
41
1
10
2.5655165246875
20
-46.1709364266535
30
0
0
SPLINE
5
24C
100
AcDbEntity
8
1
62
256
6
ByLayer
370
18
48
1
60
0
100
AcDbSpline
70
4
71
3
72
16
73
12
40
0
40
0
40
0
40
0
40
0.250000000000001
40
0.250000000000001
40
0.500000000000002
40
0.500000000000002
40
0.750000000000004
40
0.750000000000004
40
0.875000000000002
40
0.875000000000002
40
1
40
1
40
1
40
1
41
1
10
3.35000000000002
20
-46.4080849596191
30
0
41
1
10
3.30205357367231
20
-46.4080849596191
30
0
41
1
10
3.25468436249184
20
-46.4047238140842
30
0
41
1
10
3.16107530093535
20
-46.3919104966724
30
0
41
1
10
3.11483536429472
20
-46.382450163608
30
0
41
1
10
3.0235701355374
20
-46.3584299840429
30
0
41
1
10
2.97840025051687
20
-46.3437015071418
30
0
41
1
10
2.91461410144848
20
-46.3206400414075
30
0
41
1
10
2.89375331014361
20
-46.3127123741093
30
0
41
1
10
2.85497283246525
20
-46.2980729487624
30
0
41
1
10
2.83688435083087
20
-46.29125215501
30
0
41
1
10
2.82080401909957
20
-46.2862169921477
30
0
0
SPLINE
5
24D
100
AcDbEntity
8
1
62
256
6
ByLayer
370
18
48
1
60
0
100
AcDbSpline
70
4
71
3
72
16
73
12
40
0
40
0
40
0
40
0
40
0.124999999999996
40
0.124999999999996
40
0.249999999999991
40
0.249999999999991
40
0.499999999999994
40
0.499999999999994
40
0.749999999999997
40
0.749999999999997
40
1
40
1
40
1
40
1
41
1
10
15.6791959808955
20
-46.2862169921493
30
0
41
1
10
15.663171622951
20
-46.2912346281885
30
0
41
1
10
15.6450457671982
20
-46.2980656145268
30
0
41
1
10
15.6060088338962
20
-46.3128024782052
30
0
41
1
10
15.585259448546
20
-46.3206858939075
30
0
41
1
10
15.5218160327699
20
-46.3436230405662
30
0
41
1
10
15.4767748959229
20
-46.3583238639716
30
0
41
1
10
15.3855979772618
20
-46.3823512928078
30
0
41
1
10
15.3393381703866
20
-46.391839227914
30
0
41
1
10
15.2455609310246
20
-46.4047048076328
30
0
41
1
10
15.197857442271
20
-46.4080849596191
30
0
41
1
10
15.15
20
-46.4080849596191
30
0
0
SPLINE
5
24E
100
AcDbEntity
8
1
62
256
6
ByLayer
370
18
48
1
60
0
100
AcDbSpline
70
4
71
3
72
12
73
8
40
0
40
0
40
0
40
0
40
0.500000000000009
40
0.500000000000009
40
0.750000000000005
40
0.750000000000005
40
1
40
1
40
1
40
1
41
1
10
15.9344834753163
20
-46.1709364266511
30
0
41
1
10
15.9023705096206
20
-46.1915593094084
30
0
41
1
10
15.8659278474071
20
-46.211669195321
30
0
41
1
10
15.8026009652293
20
-46.240807616304
30
0
41
1
10
15.7800024599875
20
-46.2503530939809
30
0
41
1
10
15.7319651056016
20
-46.2687723288766
30
0
41
1
10
15.7064679648943
20
-46.2776774369148
30
0
41
1
10
15.6791959808966
20
-46.2862169921495
30
0
0
SPLINE
5
24F
100
AcDbEntity
8
1
62
256
6
ByLayer
370
18
48
1
60
0
100
AcDbSpline
70
4
71
3
72
22
73
18
40
0
40
0
40
0
40
0
40
0.250000000000005
40
0.250000000000005
40
0.500000000000009
40
0.500000000000009
40
0.625000000000019
40
0.625000000000019
40
0.750000000000029
40
0.750000000000029
40
0.812500000000022
40
0.812500000000022
40
0.875000000000015
40
0.875000000000015
40
0.937500000000007
40
0.937500000000007
40
1
40
1
40
1
40
1
41
1
10
15.9344834753163
20
-46.1709364266511
30
0
41
1
10
15.9590908216534
20
-46.1218629548113
30
0
41
1
10
15.9832556173982
20
-46.0699216804391
30
0
41
1
10
16.0298921114132
20
-45.958521203524
30
0
41
1
10
16.05210015631
20
-45.8998184026577
30
0
41
1
10
16.082745431811
20
-45.804551812852
30
0
41
1
10
16.0925346310057
20
-45.7714845321043
30
0
41
1
10
16.1107364665893
20
-45.7023078927066
30
0
41
1
10
16.1190256583398
20
-45.6666970324093
30
0
41
1
10
16.1297723103389
20
-45.6111554378766
30
0
41
1
10
16.1330879425921
20
-45.5921613204105
30
0
41
1
10
16.1389173673148
20
-45.5540128716756
30
0
41
1
10
16.1414341574852
20
-45.5348748761642
30
0
41
1
10
16.1455726273237
20
-45.4964554344316
30
0
41
1
10
16.147194727742
20
-45.4771740556399
30
0
41
1
10
16.1494120568973
20
-45.4384467312558
30
0
41
1
10
16.15
20
-45.4188045538784
30
0
41
1
10
16.15
20
-45.3998489321602
30
0
0
SPLINE
5
250
100
AcDbEntity
8
1
62
256
6
ByLayer
370
18
48
1
60
0
100
AcDbSpline
70
4
71
3
72
14
73
10
40
0
40
0
40
0
40
0
40
0.25
40
0.25
40
0.5
40
0.5
40
0.75
40
0.75
40
1
40
1
40
1
40
1
41
1
10
14.45
20
-28.9305746366983
30
0
41
1
10
14.45
20
-28.914768483422
30
0
41
1
10
14.4481143926861
20
-28.8992818987844
30
0
41
1
10
14.4404009656781
20
-28.8689759596749
30
0
41
1
10
14.434494485112
20
-28.8541084977273
30
0
41
1
10
14.418218505946
20
-28.8272584545614
30
0
41
1
10
14.4077313695894
20
-28.815031440506
30
0
41
1
10
14.3815710360067
20
-28.7967885833058
30
0
41
1
10
14.3660706027107
20
-28.7912006504222
30
0
41
1
10
14.3500000000011
20
-28.791200650422
30
0
0
SPLINE
5
251
100
AcDbEntity
8
1
62
256
6
ByLayer
370
18
48
1
60
0
100
AcDbSpline
70
4
71
3
72
71
73
67
40
0
40
0
40
0
40
0
40
0.0624999999999983
40
0.0624999999999983
40
0.124999999999997
40
0.124999999999997
40
0.187499999999995
40
0.187499999999995
40
0.249999999999993
40
0.249999999999993
40
0.281249999999994
40
0.281249999999994
40
0.312499999999994
40
0.312499999999994
40
0.343749999999994
40
0.343749999999994
40
0.374999999999995
40
0.374999999999995
40
0.406249999999995
40
0.406249999999995
40
0.421874999999996
40
0.421874999999996
40
0.437499999999997
40
0.437499999999997
40
0.453124999999998
40
0.453124999999998
40
0.460937499999998
40
0.460937499999998
40
0.468749999999998
40
0.468749999999998
40
0.484374999999998
40
0.484374999999998
40
0.492187499999998
40
0.492187499999998
40
0.499999999999998
40
0.507812499999999
40
0.507812499999999
40
0.515624999999999
40
0.515624999999999
40
0.523437499999999
40
0.523437499999999
40
0.531249999999999
40
0.531249999999999
40
0.546874999999999
40
0.546874999999999
40
0.562499999999999
40
0.562499999999999
40
0.593749999999999
40
0.593749999999999
40
0.624999999999999
40
0.624999999999999
40
0.65625
40
0.65625
40
0.6875
40
0.6875
40
0.75
40
0.75
40
0.812500000000001
40
0.812500000000001
40
0.84375
40
0.84375
40
0.874999999999999
40
0.874999999999999
40
0.937499999999999
40
0.937499999999999
40
1
40
1
40
1
40
1
41
1
10
14.45
20
-33.3883505214971
30
0
41
1
10
14.45
20
-33.5615683253826
30
0
41
1
10
14.4423629871552
20
-33.7330956158387
30
0
41
1
10
14.4140334691521
20
-34.0731648990933
30
0
41
1
10
14.3933282824431
20
-34.2417046659756
30
0
41
1
10
14.3397848944285
20
-34.5759786580434
30
0
41
1
10
14.306950939271
20
-34.7417133905038
30
0
41
1
10
14.2289586587899
20
-35.0703760292507
30
0
41
1
10
14.1838297430835
20
-35.233308368241
30
0
41
1
10
14.1055776120869
20
-35.4754157309257
30
0
41
1
10
14.0777183118168
20
-35.5557077628494
30
0
41
1
10
14.0184221926955
20
-35.7143104406791
30
0
41
1
10
13.9869473020848
20
-35.7927587544467
30
0
41
1
10
13.9197387313328
20
-35.9477312674674
30
0
41
1
10
13.8840141607001
20
-36.0242588972148
30
0
41
1
10
13.8072759386758
20
-36.1750111990849
30
0
41
1
10
13.7665108325038
20
-36.2487720748317
30
0
41
1
10
13.6787720497806
20
-36.3921029554317
30
0
41
1
10
13.631832455399
20
-36.4617124755769
30
0
41
1
10
13.5546566551972
20
-36.5617331601214
30
0
41
1
10
13.5277907423164
20
-36.5943332083168
30
0
41
1
10
13.4711145249287
20
-36.6576486552374
30
0
41
1
10
13.4411683851917
20
-36.6884839191609
30
0
41
1
10
13.3784907894294
20
-36.7465401708648
30
0
41
1
10
13.3456948657299
20
-36.7738697723124
30
0
41
1
10
13.2935783990634
20
-36.8114840803697
30
0
41
1
10
13.2757157204181
20
-36.8234549326484
30
0
41
1
10
13.238824759274
20
-36.8460530221699
30
0
41
1
10
13.2197232145093
20
-36.8567096908347
30
0
41
1
10
13.1613999420287
20
-36.8857373134015
30
0
41
1
10
13.120933632425
20
-36.9013729433515
30
0
41
1
10
13.0571461633811
20
-36.9176052801379
30
0
41
1
10
13.0353586871185
20
-36.9217753966726
30
0
41
1
10
12.9920251448507
20
-36.9272402473743
30
0
41
1
10
12.9486085656768
20
-36.9299258832307
30
0
41
1
10
12.9050240890177
20
-36.9269934021709
30
0
41
1
10
12.8613546247776
20
-36.9212163581581
30
0
41
1
10
12.8396405337739
20
-36.916907984256
30
0
41
1
10
12.7973560086103
20
-36.905887789754
30
0
41
1
10
12.7766384327532
20
-36.8991587313117
30
0
41
1
10
12.7359618542729
20
-36.8835204431435
30
0
41
1
10
12.7159055337419
20
-36.8745583138644
30
0
41
1
10
12.6576033739464
20
-36.8451611076298
30
0
41
1
10
12.6212081874999
20
-36.8223245891776
30
0
41
1
10
12.5519549638
20
-36.7719926153822
30
0
41
1
10
12.5190406673752
20
-36.7444134888631
30
0
41
1
10
12.4248426738235
20
-36.6566612288264
30
0
41
1
10
12.3692502892288
20
-36.5929210732476
30
0
41
1
10
12.2664072802157
20
-36.4592196711956
30
0
41
1
10
12.2192848864755
20
-36.3891677335512
30
0
41
1
10
12.1310172436976
20
-36.2444826767444
30
0
41
1
10
12.0903823291052
20
-36.1706209665349
30
0
41
1
10
12.0144206295619
20
-36.0209628528498
30
0
41
1
10
11.9790733624623
20
-35.9450867567267
30
0
41
1
10
11.8793483337116
20
-35.7148489323732
30
0
41
1
10
11.821194021387
20
-35.5579099553771
30
0
41
1
10
11.717705346828
20
-35.2383862985188
30
0
41
1
10
11.6724431103232
20
-35.0757771455674
30
0
41
1
10
11.6134253166961
20
-34.8278227260394
30
0
41
1
10
11.5952553274531
20
-34.7445005892224
30
0
41
1
10
11.5620962163876
20
-34.5775847130094
30
0
41
1
10
11.5470737963614
20
-34.4938559109609
30
0
41
1
10
11.5066700184511
20
-34.2418544234365
30
0
41
1
10
11.4859183898486
20
-34.0727705331847
30
0
41
1
10
11.4575883734624
20
-33.7323275964031
30
0
41
1
10
11.45
20
-33.5609697772295
30
0
41
1
10
11.45
20
-33.3883505214971
30
0
0
SPLINE
5
252
100
AcDbEntity
8
1
62
256
6
ByLayer
370
18
48
1
60
0
100
AcDbSpline
70
4
71
3
72
14
73
10
40
0
40
0
40
0
40
0
40
0.25
40
0.25
40
0.5
40
0.5
40
0.75
40
0.75
40
1
40
1
40
1
40
1
41
1
10
11.55
20
-28.791200650426
30
0
41
1
10
11.5339340075568
20
-28.791200650426
30
0
41
1
10
11.5184978444144
20
-28.7967725342349
30
0
41
1
10
11.4924509063096
20
-28.8148726532468
30
0
41
1
10
11.4819282496483
20
-28.8270503251268
30
0
41
1
10
11.4655185442413
20
-28.8540533636567
30
0
41
1
10
11.4597250871768
20
-28.8685724053968
30
0
41
1
10
11.4518850023419
20
-28.8991940297353
30
0
41
1
10
11.45
20
-28.9147734217362
30
0
41
1
10
11.45
20
-28.9305746366983
30
0
0
SPLINE
5
253
100
AcDbEntity
8
1
62
256
6
ByLayer
370
18
48
1
60
0
100
AcDbSpline
70
4
71
3
72
29
73
25
40
0
40
0
40
0
40
0
40
0.12499999999999
40
0.12499999999999
40
0.187499999999985
40
0.187499999999985
40
0.249999999999979
40
0.249999999999979
40
0.374999999999971
40
0.374999999999971
40
0.437499999999967
40
0.437499999999967
40
0.499999999999963
40
0.499999999999963
40
0.624999999999964
40
0.624999999999964
40
0.68749999999997
40
0.68749999999997
40
0.749999999999976
40
0.812499999999982
40
0.812499999999982
40
0.874999999999988
40
0.874999999999988
40
1
40
1
40
1
40
1
41
1
10
3.35000000000002
20
-40.0289709438704
30
0
41
1
10
3.28366107051079
20
-40.0289709438704
30
0
41
1
10
3.21843866018946
20
-40.0232619746342
30
0
41
1
10
3.12221140770362
20
-40.0064697749209
30
0
41
1
10
3.09040539977906
20
-39.9994903088117
30
0
41
1
10
3.0273454918426
20
-39.9826963015864
30
0
41
1
10
2.9960276056679
20
-39.9728402448502
30
0
41
1
10
2.90497136622645
20
-39.9396250025672
30
0
41
1
10
2.84741231170489
20
-39.9125028491372
30
0
41
1
10
2.76575336771697
20
-39.8643476302997
30
0
41
1
10
2.73920642451657
20
-39.8469577295219
30
0
41
1
10
2.68828258161875
20
-39.809952114759
30
0
41
1
10
2.66405689800138
20
-39.7904649692387
30
0
41
1
10
2.59497375936439
20
-39.7291231782655
30
0
41
1
10
2.55367650007395
20
-39.6844153548527
30
0
41
1
10
2.49903757313496
20
-39.6114224638765
30
0
41
1
10
2.48213768308614
20
-39.5861801878918
30
0
41
1
10
2.45150194053929
20
-39.5347857558575
30
0
41
1
10
2.42383981645367
20
-39.4822353465523
30
0
41
1
10
2.4020330042058
20
-39.4273900499475
30
0
41
1
10
2.38319126303821
20
-39.3713748127379
30
0
41
1
10
2.37522350857933
20
-39.3426206595881
30
0
41
1
10
2.3562404781955
20
-39.2559925705123
30
0
41
1
10
2.34999999999991
20
-39.1977452859296
30
0
41
1
10
2.34999999999997
20
-39.1390065832458
30
0
0
SPLINE
5
254
100
AcDbEntity
8
1
62
256
6
ByLayer
370
18
48
1
60
0
100
AcDbSpline
70
4
71
3
72
26
73
22
40
0
40
0
40
0
40
0
40
0.124999999999994
40
0.124999999999994
40
0.249999999999989
40
0.249999999999989
40
0.312499999999991
40
0.312499999999991
40
0.374999999999994
40
0.374999999999994
40
0.499999999999998
40
0.499999999999998
40
0.625000000000003
40
0.625000000000003
40
0.687500000000006
40
0.687500000000006
40
0.750000000000006
40
0.750000000000006
40
0.875000000000003
40
0.875000000000003
40
1
40
1
40
1
40
1
41
1
10
16.15
20
-39.1390065832475
30
0
41
1
10
16.15
20
-39.1977029015905
30
0
41
1
10
16.1435609680253
20
-39.2571526894686
30
0
41
1
10
16.1183213789386
20
-39.3718208972124
30
0
41
1
10
16.0996360037893
20
-39.4274824554005
30
0
41
1
10
16.0623583161021
20
-39.5084650026362
30
0
41
1
10
16.0482905745492
20
-39.5351693264129
30
0
41
1
10
16.017536706764
20
-39.5866903150661
30
0
41
1
10
16.0008314516467
20
-39.6115901994135
30
0
41
1
10
15.9468120730747
20
-39.6837770899581
30
0
41
1
10
15.9056325449222
20
-39.7285751981558
30
0
41
1
10
15.8124707967518
20
-39.8113166055912
30
0
41
1
10
15.7619251424645
20
-39.8479633143194
30
0
41
1
10
15.6806772420434
20
-39.8959684815636
30
0
41
1
10
15.6526674144029
20
-39.9108144989915
30
0
41
1
10
15.5947513385526
20
-39.9381542043093
30
0
41
1
10
15.5647197381375
20
-39.9506795447804
30
0
41
1
10
15.4736621351973
20
-39.9838996392013
30
0
41
1
10
15.4111685792383
20
-40.0005729577076
30
0
41
1
10
15.2826415729141
20
-40.0231439685536
30
0
41
1
10
15.2162922354732
20
-40.0289709438706
30
0
41
1
10
15.15
20
-40.0289709438705
30
0
0
SPLINE
5
255
100
AcDbEntity
8
1
62
256
6
ByLayer
370
18
48
1
60
0
100
AcDbSpline
70
4
71
3
72
26
73
22
40
0
40
0
40
0
40
0
40
0.125000000000006
40
0.125000000000006
40
0.250000000000012
40
0.250000000000012
40
0.312500000000011
40
0.312500000000011
40
0.37500000000001
40
0.37500000000001
40
0.500000000000006
40
0.500000000000006
40
0.625000000000002
40
0.625000000000002
40
0.687500000000004
40
0.687500000000004
40
0.750000000000002
40
0.750000000000002
40
0.875000000000001
40
0.875000000000001
40
1
40
1
40
1
40
1
41
1
10
16.15
20
43.077371802599
30
0
41
1
10
16.15
20
43.1318408271027
30
0
41
1
10
16.1435609680253
20
43.1873654258665
30
0
41
1
10
16.1183213789386
20
43.2951298887553
30
0
41
1
10
16.0996360037894
20
43.3477748104923
30
0
41
1
10
16.0623583161021
20
43.4248069779084
30
0
41
1
10
16.0482905745492
20
43.4502852262168
30
0
41
1
10
16.017536706764
20
43.4995764806654
30
0
41
1
10
16.0008314516467
20
43.5234678453404
30
0
41
1
10
15.9468120730747
20
43.5929070199473
30
0
41
1
10
15.9056325449222
20
43.6362426039004
30
0
41
1
10
15.8124707967518
20
43.7166181766586
30
0
41
1
10
15.7619251424645
20
43.7523969894345
30
0
41
1
10
15.6806772420433
20
43.7994067344077
30
0
41
1
10
15.6526674144029
20
43.8139723821046
30
0
41
1
10
15.5947513385526
20
43.8408328080216
30
0
41
1
10
15.5647197381375
20
43.8531589158439
30
0
41
1
10
15.4736621351973
20
43.8858861716399
30
0
41
1
10
15.4111685792383
20
43.9023621663695
30
0
41
1
10
15.2826415729141
20
43.924680487442
30
0
41
1
10
15.2162922354732
20
43.9304529006839
30
0
41
1
10
15.15
20
43.9304529006839
30
0
0
SPLINE
5
256
100
AcDbEntity
8
1
62
256
6
ByLayer
370
18
48
1
60
0
100
AcDbSpline
70
4
71
3
72
16
73
12
40
0
40
0
40
0
40
0
40
0.125000000000006
40
0.125000000000006
40
0.250000000000006
40
0.250000000000006
40
0.500000000000004
40
0.500000000000004
40
0.750000000000002
40
0.750000000000002
40
1
40
1
40
1
40
1
41
1
10
15.6791959808955
20
35.6278119597823
30
0
41
1
10
15.6631715878145
20
35.6454750282215
30
0
41
1
10
15.6450457191565
20
35.6609127060372
30
0
41
1
10
15.6060088080424
20
35.6887201540856
30
0
41
1
10
15.5852593948839
20
35.7008717894818
30
0
41
1
10
15.5218159672541
20
35.7325703253481
30
0
41
1
10
15.4767748608495
20
35.7480267601756
30
0
41
1
10
15.3855978854237
20
35.7710129322265
30
0
41
1
10
15.3393380750188
20
35.7786217682049
30
0
41
1
10
15.2455608753565
20
35.7885856872888
30
0
41
1
10
15.1978574472379
20
35.7909254123491
30
0
41
1
10
15.15
20
35.7909254123491
30
0
0
SPLINE
5
257
100
AcDbEntity
8
1
62
256
6
ByLayer
370
18
48
1
60
0
100
AcDbSpline
70
4
71
2
72
6
73
3
40
0
40
0
40
0
40
1
40
1
40
1
41
0.500000023655757
10
15.7700195415
20
20.1492673871166
30
0
41
0.499999976344243
10
15.7700097753635
20
20.1491815973368
30
0
41
0.500000023655757
10
15.7699999999999
20
20.1490957945557
30
0
0
SPLINE
5
258
100
AcDbEntity
8
1
62
256
6
ByLayer
370
18
48
1
60
0
100
AcDbSpline
70
4
71
3
72
29
73
25
40
0
40
0
40
0
40
0
40
0.125000000000002
40
0.125000000000002
40
0.187500000000003
40
0.187500000000003
40
0.250000000000004
40
0.250000000000004
40
0.375000000000007
40
0.375000000000007
40
0.437500000000011
40
0.437500000000011
40
0.500000000000015
40
0.500000000000015
40
0.625000000000022
40
0.625000000000022
40
0.68750000000002
40
0.68750000000002
40
0.750000000000018
40
0.812500000000016
40
0.812500000000016
40
0.875000000000014
40
0.875000000000014
40
1
40
1
40
1
40
1
41
1
10
3.35000000000002
20
43.9304529006837
30
0
41
1
10
3.28366107051079
20
43.9304529006837
30
0
41
1
10
3.21843866018946
20
43.9247973442022
30
0
41
1
10
3.12221140770362
20
43.9081928832874
30
0
41
1
10
3.09040539977906
20
43.9012946441295
30
0
41
1
10
3.02734549184265
20
43.8847140269373
30
0
41
1
10
2.9960276056679
20
43.8749908620845
30
0
41
1
10
2.90497136622645
20
43.8422683489279
30
0
41
1
10
2.84741231170489
20
43.8155992541035
30
0
41
1
10
2.76575336771697
20
43.7684410725495
30
0
41
1
10
2.73920642451657
20
43.751439106244
30
0
41
1
10
2.68828258161881
20
43.7153373831689
30
0
41
1
10
2.66405689800143
20
43.6963628580057
30
0
41
1
10
2.59497375936439
20
43.6367747072226
30
0
41
1
10
2.55367650007395
20
43.5935213343553
30
0
41
1
10
2.49903757313496
20
43.5233063228221
30
0
41
1
10
2.48213768308614
20
43.4990876395221
30
0
41
1
10
2.45150194053929
20
43.4499190611158
30
0
41
1
10
2.42383983340204
20
43.3997822642016
30
0
41
1
10
2.4020330042058
20
43.3477607436371
30
0
41
1
10
2.38319126303821
20
43.2947938779827
30
0
41
1
10
2.37522350857933
20
43.2676862525551
30
0
41
1
10
2.3562404781955
20
43.1862780812427
30
0
41
1
10
2.34999999999991
20
43.1318801589326
30
0
41
1
10
2.34999999999997
20
43.0773718025974
30
0
0
SPLINE
5
259
100
AcDbEntity
8
1
62
256
6
ByLayer
370
18
48
1
60
0
100
AcDbSpline
70
4
71
3
72
24
73
20
40
0
40
0
40
0
40
0
40
0.249999999999985
40
0.249999999999985
40
0.374999999999988
40
0.374999999999988
40
0.49999999999999
40
0.49999999999999
40
0.624999999999992
40
0.624999999999992
40
0.749999999999995
40
0.749999999999995
40
0.812499999999996
40
0.812499999999996
40
0.874999999999997
40
0.874999999999997
40
0.937499999999999
40
0.937499999999999
40
1
40
1
40
1
40
1
41
1
10
15.9344834753163
20
35.2220025233435
30
0
41
1
10
15.959108943168
20
35.2446836385574
30
0
41
1
10
15.9831334453044
20
35.2641279268274
30
0
41
1
10
16.0178847819816
20
35.2863710510563
30
0
41
1
10
16.0292520754182
20
35.2926194259123
30
0
41
1
10
16.0514347169391
20
35.3021433744432
30
0
41
1
10
16.0622374759803
20
35.3054046785613
30
0
41
1
10
16.0827784454071
20
35.3079408963286
30
0
41
1
10
16.0925725352379
20
35.3072438993675
30
0
41
1
10
16.1107437565319
20
35.3004723078591
30
0
41
1
10
16.1189972708339
20
35.2944584257776
30
0
41
1
10
16.1296796752295
20
35.2800750731533
30
0
41
1
10
16.1329551382939
20
35.2743794117945
30
0
41
1
10
16.1388127047219
20
35.2607981874383
30
0
41
1
10
16.1413836987525
20
35.2529004334221
30
0
41
1
10
16.1455640940493
20
35.2349932627362
30
0
41
1
10
16.1471945560071
20
35.2249433584226
30
0
41
1
10
16.1494162578337
20
35.2023653456567
30
0
41
1
10
16.15
20
35.1897153905302
30
0
41
1
10
16.15
20
35.1761637582165
30
0
0
SPLINE
5
25A
100
AcDbEntity
8
1
62
256
6
ByLayer
370
18
48
1
60
0
100
AcDbSpline
70
4
71
2
72
6
73
3
40
0
40
0
40
0
40
1
40
1
40
1
41
0.499999925528501
10
2.73000000000001
20
20.1490957945558
30
0
41
0.500000074471499
10
2.72999022463846
20
20.1491815973191
30
0
41
0.499999925528501
10
2.72998045850003
20
20.1492673871166
30
0
0
SPLINE
5
25B
100
AcDbEntity
8
1
62
256
6
ByLayer
370
18
48
1
60
0
100
AcDbSpline
70
4
71
3
72
12
73
8
40
0
40
0
40
0
40
0
40
0.500000000000004
40
0.500000000000004
40
0.750000000000002
40
0.750000000000002
40
1
40
1
40
1
40
1
41
1
10
15.9344834753163
20
35.2220025233435
30
0
41
1
10
15.9023705108842
20
35.2945989758678
30
0
41
1
10
15.8659278521846
20
35.3653895775707
30
0
41
1
10
15.8026009841951
20
35.4679623222693
30
0
41
1
10
15.7800024772185
20
35.5015642175446
30
0
41
1
10
15.7319651152122
20
35.5664034274441
30
0
41
1
10
15.7064679701052
20
35.5977511013511
30
0
41
1
10
15.6791959808966
20
35.6278119597831
30
0
0
SPLINE
5
25C
100
AcDbEntity
8
1
62
256
6
ByLayer
370
18
48
1
60
0
100
AcDbSpline
70
4
71
3
72
18
73
14
40
0
40
0
40
0
40
0
40
0.125
40
0.125
40
0.25
40
0.25
40
0.375
40
0.375
40
0.499999999999999
40
0.499999999999999
40
0.75
40
0.75
40
1
40
1
40
1
40
1
41
1
10
2.35000000000002
20
35.1761637582165
30
0
41
1
10
2.35000000000002
20
35.2031282836223
30
0
41
1
10
2.35234603708415
20
35.2260520736475
30
0
41
1
10
2.36071737457632
20
35.2618896033018
30
0
41
1
10
2.36678072687602
20
35.2753303995304
30
0
41
1
10
2.38106929121307
20
35.294526689932
30
0
41
1
10
2.38932547200636
20
35.3005075561321
30
0
41
1
10
2.40744495677075
20
35.3072409225703
30
0
41
1
10
2.41728492125793
20
35.3079342248902
30
0
41
1
10
2.44793400243424
20
35.3041464874807
30
0
41
1
10
2.4700877355603
20
35.294021494926
30
0
41
1
10
2.51651780974481
20
35.2643982658608
30
0
41
1
10
2.54078928651774
20
35.2447773733946
30
0
41
1
10
2.56551652468113
20
35.2220025233459
30
0
0
SPLINE
5
25D
100
AcDbEntity
8
1
62
256
6
ByLayer
370
18
48
1
60
0
100
AcDbSpline
70
4
71
3
72
10
73
6
40
0
40
0
40
0
40
0
40
0.5
40
0.5
40
1
40
1
40
1
40
1
41
1
10
2.82080401910127
20
35.6278119597787
30
0
41
1
10
2.7659698742367
20
35.5673704036673
30
0
41
1
10
2.71875560224561
20
35.502467559096
30
0
41
1
10
2.63474369269721
20
35.3665631315938
30
0
41
1
10
2.5980328130334
20
35.2955107535913
30
0
41
1
10
2.5655165246875
20
35.2220025233519
30
0
0
SPLINE
5
25E
100
AcDbEntity
8
1
62
256
6
ByLayer
370
18
48
1
60
0
100
AcDbSpline
70
4
71
3
72
16
73
12
40
0
40
0
40
0
40
0
40
0.250000000000005
40
0.250000000000005
40
0.500000000000009
40
0.500000000000009
40
0.750000000000014
40
0.750000000000014
40
0.875000000000007
40
0.875000000000007
40
1
40
1
40
1
40
1
41
1
10
3.35000000000002
20
35.7909254123491
30
0
41
1
10
3.30205358277959
20
35.7909254123491
30
0
41
1
10
3.25468438048881
20
35.7885986986669
30
0
41
1
10
3.16107533628036
20
35.7786786493583
30
0
41
1
10
3.11483540809871
20
35.7710984125167
30
0
41
1
10
3.02357019574617
20
35.7481373040663
30
0
41
1
10
2.97840031711877
20
35.7326797669728
30
0
41
1
10
2.91461418759837
20
35.7008079373892
30
0
41
1
10
2.89375339679475
20
35.6885605427622
30
0
41
1
10
2.85497288354304
20
35.6609161229747
30
0
41
1
10
2.83688437840493
20
35.6455367176206
30
0
41
1
10
2.82080401909963
20
35.6278119597769
30
0
0
SPLINE
5
25F
100
AcDbEntity
8
1
62
256
6
ByLayer
370
18
48
1
60
0
100
AcDbSpline
70
4
71
3
72
24
73
20
40
0
40
0
40
0
40
0
40
0.249999999999997
40
0.249999999999997
40
0.374999999999996
40
0.374999999999996
40
0.499999999999994
40
0.499999999999994
40
0.624999999999992
40
0.624999999999992
40
0.687499999999991
40
0.687499999999991
40
0.749999999999991
40
0.749999999999991
40
0.874999999999992
40
0.874999999999992
40
0.937499999999996
40
0.937499999999996
40
1
40
1
40
1
40
1
41
1
10
11.95
20
10.0936462714028
30
0
41
1
10
11.9057587616728
20
10.0082537457014
30
0
41
1
10
11.8580154449183
20
9.9219998809798
30
0
41
1
10
11.7832891013589
20
9.78866135524061
30
0
41
1
10
11.7578676727143
20
9.74354876982108
30
0
41
1
10
11.7065060725384
20
9.65134312959083
30
0
41
1
10
11.6804710289097
20
9.60406981700453
30
0
41
1
10
11.629957441249
20
9.50919637208654
30
0
41
1
10
11.6053257373758
20
9.46134849827826
30
0
41
1
10
11.5702248703322
20
9.38846563839877
30
0
41
1
10
11.5588175836309
20
9.36393257602197
30
0
41
1
10
11.5372290388243
20
9.31527695945874
30
0
41
1
10
11.5269969562173
20
9.29105465966416
30
0
41
1
10
11.4983384163414
20
9.21865180321163
30
0
41
1
10
11.4818554636703
20
9.17073138352151
30
0
41
1
10
11.4635326729893
20
9.09921275651271
30
0
41
1
10
11.4586595472885
20
9.07597419083385
30
0
41
1
10
11.4518990370984
20
9.0310194101931
30
0
41
1
10
11.45
20
9.00908524296358
30
0
41
1
10
11.45
20
8.98853808073056
30
0
0
SPLINE
5
260
100
AcDbEntity
8
1
62
256
6
ByLayer
370
18
48
1
60
0
100
AcDbSpline
70
4
71
3
72
14
73
10
40
0
40
0
40
0
40
0
40
0.25
40
0.25
40
0.5
40
0.5
40
0.75
40
0.75
40
1
40
1
40
1
40
1
41
1
10
14.45
20
7.54968759125523
30
0
41
1
10
14.45
20
7.55930256453155
30
0
41
1
10
14.4481143926861
20
7.5687416005552
30
0
41
1
10
14.4404009656781
20
7.58724622764043
30
0
41
1
10
14.434494485112
20
7.59634198341814
30
0
41
1
10
14.418218505946
20
7.61279399021481
30
0
41
1
10
14.4077313695894
20
7.62030011320758
30
0
41
1
10
14.3815710360067
20
7.63150949337387
30
0
41
1
10
14.3660706027107
20
7.63494835854027
30
0
41
1
10
14.3500000000011
20
7.63494835854038
30
0
0
SPLINE
5
261
100
AcDbEntity
8
1
62
256
6
ByLayer
370
18
48
1
60
0
100
AcDbSpline
70
4
71
3
72
71
73
67
40
0
40
0
40
0
40
0
40
0.062500000000007
40
0.062500000000007
40
0.125000000000014
40
0.125000000000014
40
0.187500000000021
40
0.187500000000021
40
0.250000000000028
40
0.250000000000028
40
0.28125000000003
40
0.28125000000003
40
0.312500000000032
40
0.312500000000032
40
0.343750000000035
40
0.343750000000035
40
0.375000000000037
40
0.375000000000037
40
0.406250000000039
40
0.406250000000039
40
0.421875000000039
40
0.421875000000039
40
0.437500000000039
40
0.437500000000039
40
0.453125000000039
40
0.453125000000039
40
0.460937500000039
40
0.460937500000039
40
0.46875000000004
40
0.46875000000004
40
0.48437500000004
40
0.48437500000004
40
0.49218750000004
40
0.49218750000004
40
0.50000000000004
40
0.507812500000041
40
0.507812500000041
40
0.515625000000041
40
0.515625000000041
40
0.523437500000041
40
0.523437500000041
40
0.531250000000041
40
0.531250000000041
40
0.54687500000004
40
0.54687500000004
40
0.56250000000004
40
0.56250000000004
40
0.593750000000037
40
0.593750000000037
40
0.625000000000035
40
0.625000000000035
40
0.656250000000033
40
0.656250000000033
40
0.687500000000031
40
0.687500000000031
40
0.750000000000025
40
0.750000000000025
40
0.812500000000019
40
0.812500000000019
40
0.843750000000016
40
0.843750000000016
40
0.875000000000013
40
0.875000000000013
40
0.937500000000006
40
0.937500000000006
40
1
40
1
40
1
40
1
41
1
10
14.45
20
5.31976130794953
30
0
41
1
10
14.45
20
5.25183093194937
30
0
41
1
10
14.4423629871552
20
5.18677732070188
30
0
41
1
10
14.4140334691521
20
5.06208278502504
30
0
41
1
10
14.3933282824431
20
5.00244362134771
30
0
41
1
10
14.3397848944285
20
4.88835732979493
30
0
41
1
10
14.306950939271
20
4.83391084754447
30
0
41
1
10
14.2289586587899
20
4.73006885910024
30
0
41
1
10
14.1838297430835
20
4.68067305454974
30
0
41
1
10
14.1055776120869
20
4.61031737345695
30
0
41
1
10
14.0777183118168
20
4.58749901856618
30
0
41
1
10
14.0184221926955
20
4.54341652450853
30
0
41
1
10
13.9869473020848
20
4.5221121243917
30
0
41
1
10
13.9197387313328
20
4.48097858976718
30
0
41
1
10
13.8840141607001
20
4.46114887592569
30
0
41
1
10
13.8072759386758
20
4.42299584023255
30
0
41
1
10
13.7665108325038
20
4.40479091369957
30
0
41
1
10
13.6787720497806
20
4.3702377050306
30
0
41
1
10
13.631832455399
20
4.35388117955733
30
0
41
1
10
13.5546566551972
20
4.33091303837114
30
0
41
1
10
13.5277907423164
20
4.3235195129231
30
0
41
1
10
13.4711145249287
20
4.30932287382649
30
0
41
1
10
13.4411683851917
20
4.30249414995694
30
0
41
1
10
13.3784907894294
20
4.28977298571698
30
0
41
1
10
13.3456948657299
20
4.28385580189109
30
0
41
1
10
13.2935783990634
20
4.27578546029343
30
0
41
1
10
13.275715720418
20
4.27323033710576
30
0
41
1
10
13.238824759274
20
4.26842729489101
30
0
41
1
10
13.2197232145093
20
4.26617323731273
30
0
41
1
10
13.1613999420287
20
4.26005537208158
30
0
41
1
10
13.120933632425
20
4.25679122865927
30
0
41
1
10
13.0571461633811
20
4.25341208172983
30
0
41
1
10
13.0353586871185
20
4.25254635690476
30
0
41
1
10
12.9920251448507
20
4.25141252397214
30
0
41
1
10
12.9486085659103
20
4.25085625274107
30
0
41
1
10
12.9050240890177
20
4.25146367751307
30
0
41
1
10
12.8613546247776
20
4.25266241519665
30
0
41
1
10
12.8396405337739
20
4.25355701023551
30
0
41
1
10
12.7973560086103
20
4.2558516221028
30
0
41
1
10
12.7766384327532
20
4.25725524550455
30
0
41
1
10
12.7359618542729
20
4.2605291539918
30
0
41
1
10
12.7159055337419
20
4.26241063543051
30
0
41
1
10
12.6576033739464
20
4.26860908966887
30
0
41
1
10
12.6212081874999
20
4.27345713745956
30
0
41
1
10
12.5519549638
20
4.28426117128879
30
0
41
1
10
12.5190406673752
20
4.29023529290828
30
0
41
1
10
12.4248426738235
20
4.30947490779067
30
0
41
1
10
12.3692502892288
20
4.32374279708824
30
0
41
1
10
12.2664072802157
20
4.35446234910398
30
0
41
1
10
12.2192848864755
20
4.37093137015398
30
0
41
1
10
12.1310172436976
20
4.40583962335154
30
0
41
1
10
12.0903823291052
20
4.42409178290092
30
0
41
1
10
12.0144206295619
20
4.46199900795312
30
0
41
1
10
11.9790733624623
20
4.48167278667705
30
0
41
1
10
11.8793483337116
20
4.54280705064764
30
0
41
1
10
11.821194021387
20
4.58637385888062
30
0
41
1
10
11.717705346828
20
4.67916897902285
30
0
41
1
10
11.6724431103232
20
4.72840050858707
30
0
41
1
10
11.6134253166961
20
4.80668601570994
30
0
41
1
10
11.5952553274531
20
4.83352204590551
30
0
41
1
10
11.5620962163876
20
4.8883528975328
30
0
41
1
10
11.5470737963614
20
4.91638980525278
30
0
41
1
10
11.5066700184511
20
5.00238392527166
30
0
41
1
10
11.4859183898486
20
5.06222246710877
30
0
41
1
10
11.4575883734624
20
5.18706387183659
30
0
41
1
10
11.45
20
5.25206566302307
30
0
41
1
10
11.45
20
5.31976130794953
30
0
0
SPLINE
5
262
100
AcDbEntity
8
1
62
256
6
ByLayer
370
18
48
1
60
0
100
AcDbSpline
70
4
71
3
72
14
73
10
40
0
40
0
40
0
40
0
40
0.25
40
0.25
40
0.5
40
0.5
40
0.75
40
0.75
40
1
40
1
40
1
40
1
41
1
10
11.55
20
7.63494835853811
30
0
41
1
10
11.5339340075568
20
7.63494835853811
30
0
41
1
10
11.5184978444144
20
7.63151939402928
30
0
41
1
10
11.4924509063096
20
7.62039764165462
30
0
41
1
10
11.4819282496483
20
7.61292160687458
30
0
41
1
10
11.4655185442413
20
7.59637567882424
30
0
41
1
10
11.4597250871768
20
7.58749282243031
30
0
41
1
10
11.4518850023419
20
7.56879506891704
30
0
41
1
10
11.45
20
7.55929956052682
30
0
41
1
10
11.45
20
7.54968759125523
30
0
0
SPLINE
5
263
100
AcDbEntity
8
1
62
256
6
ByLayer
370
18
48
1
60
0
100
AcDbSpline
70
4
71
3
72
29
73
25
40
0
40
0
40
0
40
0
40
0.125000000000009
40
0.125000000000009
40
0.187500000000014
40
0.187500000000014
40
0.250000000000019
40
0.250000000000019
40
0.375000000000023
40
0.375000000000023
40
0.437500000000024
40
0.437500000000024
40
0.500000000000026
40
0.500000000000026
40
0.625000000000019
40
0.625000000000019
40
0.687500000000016
40
0.687500000000016
40
0.750000000000013
40
0.81250000000001
40
0.81250000000001
40
0.875000000000006
40
0.875000000000006
40
1
40
1
40
1
40
1
41
1
10
3.35000000000002
20
3.9014819568132
30
0
41
1
10
3.28366107051079
20
3.9014819568132
30
0
41
1
10
3.21843866018946
20
3.9015353695678
30
0
41
1
10
3.12221140770362
20
3.90172310836636
30
0
41
1
10
3.09040539977906
20
3.90180433531771
30
0
41
1
10
3.02734549184265
20
3.90201772535079
30
0
41
1
10
2.9960276056679
20
3.90215061723421
30
0
41
1
10
2.90497136622645
20
3.9026433463606
30
0
41
1
10
2.84741231170489
20
3.90309640496616
30
0
41
1
10
2.76575336771697
20
3.90409344224963
30
0
41
1
10
2.73920642451657
20
3.90448137672195
30
0
41
1
10
2.68828258161875
20
3.90538526840976
30
0
41
1
10
2.66405689800138
20
3.90589788876696
30
0
41
1
10
2.59497375936439
20
3.90765152895699
30
0
41
1
10
2.55367650007395
20
3.90910597950244
30
0
41
1
10
2.49903757313496
20
3.91188385894554
30
0
41
1
10
2.48213768308614
20
3.91290745163019
30
0
41
1
10
2.45150194053929
20
3.91513330525822
30
0
41
1
10
2.42383981645367
20
3.91754693922337
30
0
41
1
10
2.4020330042058
20
3.92037069368939
30
0
41
1
10
2.38319126303821
20
3.92341906524462
30
0
41
1
10
2.37522350857933
20
3.9250655929668
30
0
41
1
10
2.3562404781955
20
3.93028551073036
30
0
41
1
10
2.34999999999991
20
3.93413487300279
30
0
41
1
10
2.34999999999997
20
3.93836521935157
30
0
0
SPLINE
5
264
100
AcDbEntity
8
1
62
256
6
ByLayer
370
18
48
1
60
0
100
AcDbSpline
70
4
71
3
72
22
73
18
40
0
40
0
40
0
40
0
40
0.0625000000000048
40
0.0625000000000048
40
0.12500000000001
40
0.12500000000001
40
0.187500000000014
40
0.187500000000014
40
0.250000000000019
40
0.250000000000019
40
0.375000000000018
40
0.375000000000018
40
0.500000000000016
40
0.500000000000016
40
0.750000000000008
40
0.750000000000008
40
1
40
1
40
1
40
1
41
1
10
2.35000000000002
20
-10.2236851739436
30
0
41
1
10
2.35000000000002
20
-10.2290574442307
30
0
41
1
10
2.35058234018374
20
-10.2359883154184
30
0
41
1
10
2.35280889510727
20
-10.2522683585908
30
0
41
1
10
2.35444401572102
20
-10.2616279632394
30
0
41
1
10
2.35863870943757
20
-10.2825076810987
30
0
41
1
10
2.36121918811307
20
-10.294110181163
30
0
41
1
10
2.36707750620656
20
-10.3187085214428
30
0
41
1
10
2.37035556687698
20
-10.3317214254149
30
0
41
1
10
2.38105607333699
20
-10.3725323419491
30
0
41
1
10
2.38936578689965
20
-10.4021867468219
30
0
41
1
10
2.40755436653836
20
-10.4645282429628
30
0
41
1
10
2.41729254538325
20
-10.4967415610799
30
0
41
1
10
2.4478867641912
20
-10.5956154646914
30
0
41
1
10
2.4701446922611
20
-10.6646103670993
30
0
41
1
10
2.51675885269958
20
-10.8057254729117
30
0
41
1
10
2.5408630246522
20
-10.8770614548962
30
0
41
1
10
2.56551652468119
20
-10.9489339033001
30
0
0
SPLINE
5
265
100
AcDbEntity
8
1
62
256
6
ByLayer
370
18
48
1
60
0
100
AcDbSpline
70
4
71
3
72
10
73
6
40
0
40
0
40
0
40
0
40
0.5
40
0.5
40
1
40
1
40
1
40
1
41
1
10
2.82080401910429
20
-10.6584050323672
30
0
41
1
10
2.76597045524926
20
-10.7016761577189
30
0
41
1
10
2.71875626701052
20
-10.7481414552242
30
0
41
1
10
2.63474421694366
20
-10.8454387518439
30
0
41
1
10
2.59803309434989
20
-10.8963071135241
30
0
41
1
10
2.56551652468738
20
-10.9489339033017
30
0
0
SPLINE
5
266
100
AcDbEntity
8
1
62
256
6
ByLayer
370
18
48
1
60
0
100
AcDbSpline
70
4
71
3
72
16
73
12
40
0
40
0
40
0
40
0
40
0.249999999999997
40
0.249999999999997
40
0.499999999999993
40
0.499999999999993
40
0.74999999999999
40
0.74999999999999
40
0.874999999999995
40
0.874999999999995
40
1
40
1
40
1
40
1
41
1
10
3.35000000000002
20
-10.61715954727
30
0
41
1
10
3.30205323134464
20
-10.61715954727
30
0
41
1
10
3.25468368601247
20
-10.6161251002256
30
0
41
1
10
3.16107397236607
20
-10.6132318061867
30
0
41
1
10
3.11483371776757
20
-10.6113516977945
30
0
41
1
10
3.0235678723746
20
-10.6102927140746
30
0
41
1
10
2.9783977470193
20
-10.6110218382722
30
0
41
1
10
2.91461086357356
20
-10.6198327347907
30
0
41
1
10
2.89375005431373
20
-10.6241527397118
30
0
41
1
10
2.85497091331069
20
-10.6371577510581
30
0
41
1
10
2.83688331480926
20
-10.6457162853461
30
0
41
1
10
2.82080401910423
20
-10.6584050323672
30
0
0
SPLINE
5
267
100
AcDbEntity
8
1
62
256
6
ByLayer
370
18
48
1
60
0
100
AcDbSpline
70
4
71
3
72
26
73
22
40
0
40
0
40
0
40
0
40
0.124999999999993
40
0.124999999999993
40
0.249999999999987
40
0.249999999999987
40
0.312499999999985
40
0.312499999999985
40
0.374999999999983
40
0.374999999999983
40
0.499999999999978
40
0.499999999999978
40
0.624999999999974
40
0.624999999999974
40
0.687499999999978
40
0.687499999999978
40
0.749999999999983
40
0.749999999999983
40
0.874999999999991
40
0.874999999999991
40
1
40
1
40
1
40
1
41
1
10
16.15
20
3.93836521935145
30
0
41
1
10
16.15
20
3.93413792551206
30
0
41
1
10
16.1435609680253
20
3.93021273639772
30
0
41
1
10
16.1183213789386
20
3.9233089915428
30
0
41
1
10
16.0996360037893
20
3.9202923550917
30
0
41
1
10
16.0623583161021
20
3.91634197527196
30
0
41
1
10
16.0482905745492
20
3.91511589980377
30
0
41
1
10
16.017536706764
20
3.91288616559922
30
0
41
1
10
16.0008314516467
20
3.91187764592672
30
0
41
1
10
15.9468120730747
20
3.90912992998909
30
0
41
1
10
15.9056325449222
20
3.90766740574441
30
0
41
1
10
15.8124707967518
20
3.9053015710673
30
0
41
1
10
15.7619251424645
20
3.904433675115
30
0
41
1
10
15.6806772420434
20
3.90343825284407
30
0
41
1
10
15.6526674144029
20
3.90315788311295
30
0
41
1
10
15.5947513385526
20
3.90267860371216
30
0
41
1
10
15.5647197381375
20
3.90247937106341
30
0
41
1
10
15.4736621351973
20
3.9019865324384
30
0
41
1
10
15.4111685792383
20
3.90178920866174
30
0
41
1
10
15.2826415729141
20
3.90153651888824
30
0
41
1
10
15.2162922354732
20
3.9014819568132
30
0
41
1
10
15.15
20
3.9014819568132
30
0
0
SPLINE
5
268
100
AcDbEntity
8
1
62
256
6
ByLayer
370
18
48
1
60
0
100
AcDbSpline
70
4
71
3
72
16
73
12
40
0
40
0
40
0
40
0
40
0.125000000000006
40
0.125000000000006
40
0.250000000000005
40
0.250000000000005
40
0.500000000000003
40
0.500000000000003
40
0.750000000000002
40
0.750000000000002
40
1
40
1
40
1
40
1
41
1
10
15.6791959808955
20
-10.658405032367
30
0
41
1
10
15.6631729420998
20
-10.645760679684
30
0
41
1
10
15.6450475701917
20
-10.6371536783345
30
0
41
1
10
15.6060098007683
20
-10.6240825343471
30
0
41
1
10
15.5852614627664
20
-10.6198145103233
30
0
41
1
10
15.521818490212
20
-10.6110528854807
30
0
41
1
10
15.4767762146205
20
-10.6102971529313
30
0
41
1
10
15.3856014255007
20
-10.6113382890039
30
0
41
1
10
15.3393417496579
20
-10.6132173484281
30
0
41
1
10
15.2455630156525
20
-10.6161190724198
30
0
41
1
10
15.1978572556232
20
-10.61715954727
30
0
41
1
10
15.15
20
-10.61715954727
30
0
0
SPLINE
5
269
100
AcDbEntity
8
1
62
256
6
ByLayer
370
18
48
1
60
0
100
AcDbSpline
70
4
71
3
72
12
73
8
40
0
40
0
40
0
40
0
40
0.500000000000005
40
0.500000000000005
40
0.750000000000003
40
0.750000000000003
40
1
40
1
40
1
40
1
41
1
10
15.9344834753163
20
-10.9489339033076
30
0
41
1
10
15.9023704638969
20
-10.8969602566821
30
0
41
1
10
15.8659276746552
20
-10.8462793374147
30
0
41
1
10
15.8026002797807
20
-10.7728445046008
30
0
41
1
10
15.7800018375745
20
-10.7487882208152
30
0
41
1
10
15.7319647584435
20
-10.7023685838981
30
0
41
1
10
15.7064677766641
20
-10.6799261812796
30
0
41
1
10
15.6791959808974
20
-10.658405032366
30
0
0
SPLINE
5
26A
100
AcDbEntity
8
1
62
256
6
ByLayer
370
18
48
1
60
0
100
AcDbSpline
70
4
71
3
72
20
73
16
40
0
40
0
40
0
40
0
40
0.249999999999999
40
0.249999999999999
40
0.499999999999998
40
0.499999999999998
40
0.624999999999994
40
0.624999999999994
40
0.74999999999999
40
0.74999999999999
40
0.874999999999985
40
0.874999999999985
40
0.937499999999993
40
0.937499999999993
40
1
40
1
40
1
40
1
41
1
10
15.9344834753163
20
-10.9489339033076
30
0
41
1
10
15.9590974076687
20
-10.8771768067112
30
0
41
1
10
15.9831445381016
20
-10.8060096551014
30
0
41
1
10
16.0296052441335
20
-10.6653756063291
30
0
41
1
10
16.0520937444798
20
-10.5956886372427
30
0
41
1
10
16.0828710248478
20
-10.496207808802
30
0
41
1
10
16.0927102658963
20
-10.4636377853287
30
0
41
1
10
16.1107576212985
20
-10.4017468323755
30
0
41
1
10
16.1189873155087
20
-10.3723739010166
30
0
41
1
10
16.1332413884846
20
-10.3179958344508
30
0
41
1
10
16.139301007551
20
-10.2927757712776
30
0
41
1
10
16.145562096993
20
-10.2615911376234
30
0
41
1
10
16.1471965741685
20
-10.2522380259478
30
0
41
1
10
16.1494245724797
20
-10.2359280604788
30
0
41
1
10
16.15
20
-10.2290413656942
30
0
41
1
10
16.15
20
-10.2236851739437
30
0
0
SPLINE
5
26B
100
AcDbEntity
8
1
62
256
6
ByLayer
370
18
48
1
60
0
100
AcDbSpline
70
4
71
3
72
16
73
12
40
0
40
0
40
0
40
0
40
0.124999999999996
40
0.124999999999996
40
0.249999999999991
40
0.249999999999991
40
0.499999999999994
40
0.499999999999994
40
0.749999999999997
40
0.749999999999997
40
1
40
1
40
1
40
1
41
1
10
15.6791959808955
20
46.2862169921493
30
0
41
1
10
15.663171622951
20
46.2912346281885
30
0
41
1
10
15.6450457671982
20
46.2980656145268
30
0
41
1
10
15.6060088338962
20
46.3128024782051
30
0
41
1
10
15.585259448546
20
46.3206858939075
30
0
41
1
10
15.5218160327699
20
46.3436230405661
30
0
41
1
10
15.4767748959229
20
46.3583238639716
30
0
41
1
10
15.3855979772618
20
46.3823512928077
30
0
41
1
10
15.3393381703866
20
46.391839227914
30
0
41
1
10
15.2455609310246
20
46.4047048076327
30
0
41
1
10
15.197857442271
20
46.4080849596191
30
0
41
1
10
15.15
20
46.408084959619
30
0
0
SPLINE
5
26C
100
AcDbEntity
8
1
62
256
6
ByLayer
370
18
48
1
60
0
100
AcDbSpline
70
4
71
3
72
16
73
12
40
0
40
0
40
0
40
0
40
0.25
40
0.25
40
0.5
40
0.5
40
0.75
40
0.75
40
0.875
40
0.875
40
1
40
1
40
1
40
1
41
1
10
3.35000000000002
20
46.408084959619
30
0
41
1
10
3.30205357367231
20
46.408084959619
30
0
41
1
10
3.25468436249184
20
46.4047238140842
30
0
41
1
10
3.16107530093535
20
46.3919104966724
30
0
41
1
10
3.11483536429472
20
46.382450163608
30
0
41
1
10
3.0235701355374
20
46.3584299840429
30
0
41
1
10
2.97840025051687
20
46.3437015071418
30
0
41
1
10
2.91461410144848
20
46.3206400414075
30
0
41
1
10
2.89375331014361
20
46.3127123741093
30
0
41
1
10
2.85497283246525
20
46.2980729487624
30
0
41
1
10
2.83688435083082
20
46.29125215501
30
0
41
1
10
2.82080401909951
20
46.2862169921477
30
0
0
SPLINE
5
26D
100
AcDbEntity
8
1
62
256
6
ByLayer
370
18
48
1
60
0
100
AcDbSpline
70
4
71
3
72
12
73
8
40
0
40
0
40
0
40
0
40
0.499999999999995
40
0.499999999999995
40
0.749999999999998
40
0.749999999999998
40
1
40
1
40
1
40
1
41
1
10
15.9344834753163
20
46.1709364266511
30
0
41
1
10
15.9023705096206
20
46.1915593094084
30
0
41
1
10
15.8659278474071
20
46.211669195321
30
0
41
1
10
15.8026009652293
20
46.240807616304
30
0
41
1
10
15.7800024599875
20
46.2503530939809
30
0
41
1
10
15.7319651056016
20
46.2687723288765
30
0
41
1
10
15.7064679648943
20
46.2776774369148
30
0
41
1
10
15.6791959808966
20
46.2862169921495
30
0
0
SPLINE
5
26E
100
AcDbEntity
8
1
62
256
6
ByLayer
370
18
48
1
60
0
100
AcDbSpline
70
4
71
3
72
10
73
6
40
0
40
0
40
0
40
0
40
0.5
40
0.5
40
1
40
1
40
1
40
1
41
1
10
2.82080401910122
20
46.2862169921482
30
0
41
1
10
2.76596988988706
20
46.2690470247848
30
0
41
1
10
2.71875562015185
20
46.2506097117296
30
0
41
1
10
2.63474370681837
20
46.2120025777832
30
0
41
1
10
2.59803282061091
20
46.1918183272813
30
0
41
1
10
2.5655165246875
20
46.1709364266535
30
0
0
LINE
5
7A
100
AcDbEntity
8
1
62
256
6
ByLayer
370
18
48
1
60
0
100
AcDbLine
10
15.15
20
46.408085
30
0
11
3.35
21
46.408085
31
0
39
0
210
0
220
0
230
1
0
LINE
5
7B
100
AcDbEntity
8
1
62
256
6
ByLayer
370
13
48
1
60
0
100
AcDbLine
10
15.679196
20
46.286217
30
0
11
2.820804
21
46.286217
31
0
39
0
210
0
220
0
230
1
0
LINE
5
7C
100
AcDbEntity
8
1
62
256
6
ByLayer
370
13
48
1
60
0
100
AcDbLine
10
2.66348
20
46.088884
30
0
11
15.83652
21
46.088884
31
0
39
0
210
0
220
0
230
1
0
LINE
5
7D
100
AcDbEntity
8
1
62
256
6
ByLayer
370
13
48
1
60
0
100
AcDbLine
10
2.42788
20
45.116476
30
0
11
16.07212
21
45.116476
31
0
39
0
210
0
220
0
230
1
0
LINE
5
7E
100
AcDbEntity
8
1
62
256
6
ByLayer
370
13
48
1
60
0
100
AcDbLine
10
15.80802
20
45.980983
30
0
11
2.69198
21
45.980983
31
0
39
0
210
0
220
0
230
1
0
LINE
5
7F
100
AcDbEntity
8
1
62
256
6
ByLayer
370
13
48
1
60
0
100
AcDbLine
10
15.83652
20
45.613792
30
0
11
2.66348
21
45.613792
31
0
39
0
210
0
220
0
230
1
0
LINE
5
80
100
AcDbEntity
8
1
62
256
6
ByLayer
370
13
48
1
60
0
100
AcDbLine
10
2.69198
20
45.757981
30
0
11
15.80802
21
45.757981
31
0
39
0
210
0
220
0
230
1
0
LINE
5
81
100
AcDbEntity
8
1
62
256
6
ByLayer
370
13
48
1
60
0
100
AcDbLine
10
16.07212
20
44.830773
30
0
11
2.42788
21
44.830773
31
0
39
0
210
0
220
0
230
1
0
LINE
5
82
100
AcDbEntity
8
1
62
256
6
ByLayer
370
13
48
1
60
0
100
AcDbLine
10
2.66348
20
44.633441
30
0
11
15.83652
21
44.633441
31
0
39
0
210
0
220
0
230
1
0
LINE
5
83
100
AcDbEntity
8
1
62
256
6
ByLayer
370
13
48
1
60
0
100
AcDbLine
10
2.42788
20
43.661032
30
0
11
2.641924
21
43.661032
31
0
39
0
210
0
220
0
230
1
0
LINE
5
84
100
AcDbEntity
8
1
62
256
6
ByLayer
370
13
48
1
60
0
100
AcDbLine
10
15.870867
20
43.661032
30
0
11
16.07212
21
43.661032
31
0
39
0
210
0
220
0
230
1
0
LINE
5
85
100
AcDbEntity
8
1
62
256
6
ByLayer
370
13
48
1
60
0
100
AcDbLine
10
15.80802
20
44.52554
30
0
11
2.69198
21
44.52554
31
0
39
0
210
0
220
0
230
1
0
LINE
5
86
100
AcDbEntity
8
1
62
256
6
ByLayer
370
13
48
1
60
0
100
AcDbLine
10
15.83652
20
44.158348
30
0
11
2.66348
21
44.158348
31
0
39
0
210
0
220
0
230
1
0
LINE
5
87
100
AcDbEntity
8
1
62
256
6
ByLayer
370
13
48
1
60
0
100
AcDbLine
10
2.69198
20
44.302537
30
0
11
15.80802
21
44.302537
31
0
39
0
210
0
220
0
230
1
0
LINE
5
88
100
AcDbEntity
8
1
62
256
6
ByLayer
370
18
48
1
60
0
100
AcDbLine
10
2.69198
20
44.302537
30
0
11
2.69198
21
44.52554
31
0
39
0
210
0
220
0
230
1
0
LINE
5
89
100
AcDbEntity
8
1
62
256
6
ByLayer
370
18
48
1
60
0
100
AcDbLine
10
2.66348
20
44.633441
30
0
11
2.42788
21
44.830773
31
0
39
0
210
0
220
0
230
1
0
LINE
5
8A
100
AcDbEntity
8
1
62
256
6
ByLayer
370
18
48
1
60
0
100
AcDbLine
10
2.42788
20
45.116476
30
0
11
2.66348
21
45.613792
31
0
39
0
210
0
220
0
230
1
0
LINE
5
8B
100
AcDbEntity
8
1
62
256
6
ByLayer
370
18
48
1
60
0
100
AcDbLine
10
2.69198
20
45.757981
30
0
11
2.69198
21
45.980983
31
0
39
0
210
0
220
0
230
1
0
LINE
5
8C
100
AcDbEntity
8
1
62
256
6
ByLayer
370
18
48
1
60
0
100
AcDbLine
10
2.66348
20
46.088884
30
0
11
2.565517
21
46.170936
31
0
39
0
210
0
220
0
230
1
0
LINE
5
8D
100
AcDbEntity
8
1
62
256
6
ByLayer
370
18
48
1
60
0
100
AcDbLine
10
16.15
20
45.399849
30
0
11
16.15
21
43.077331
31
0
39
0
210
0
220
0
230
1
0
LINE
5
8E
100
AcDbEntity
8
1
62
256
6
ByLayer
370
18
48
1
60
0
100
AcDbLine
10
15.934483
20
46.170936
30
0
11
15.83652
21
46.088884
31
0
39
0
210
0
220
0
230
1
0
LINE
5
8F
100
AcDbEntity
8
1
62
256
6
ByLayer
370
18
48
1
60
0
100
AcDbLine
10
15.80802
20
45.980983
30
0
11
15.80802
21
45.757981
31
0
39
0
210
0
220
0
230
1
0
LINE
5
90
100
AcDbEntity
8
1
62
256
6
ByLayer
370
18
48
1
60
0
100
AcDbLine
10
15.83652
20
45.613792
30
0
11
16.07212
21
45.116476
31
0
39
0
210
0
220
0
230
1
0
LINE
5
91
100
AcDbEntity
8
1
62
256
6
ByLayer
370
18
48
1
60
0
100
AcDbLine
10
16.07212
20
44.830773
30
0
11
15.83652
21
44.633441
31
0
39
0
210
0
220
0
230
1
0
LINE
5
92
100
AcDbEntity
8
1
62
256
6
ByLayer
370
18
48
1
60
0
100
AcDbLine
10
15.80802
20
44.52554
30
0
11
15.80802
21
44.302537
31
0
39
0
210
0
220
0
230
1
0
LINE
5
93
100
AcDbEntity
8
1
62
256
6
ByLayer
370
18
48
1
60
0
100
AcDbLine
10
15.83652
20
44.158348
30
0
11
16.07212
21
43.661032
31
0
39
0
210
0
220
0
230
1
0
LINE
5
94
100
AcDbEntity
8
1
62
256
6
ByLayer
370
18
48
1
60
0
100
AcDbLine
10
11.45
20
10.193939
30
0
11
11.45
21
9.132998
31
0
39
0
210
0
220
0
230
1
0
LINE
5
95
100
AcDbEntity
8
1
62
256
6
ByLayer
370
18
48
1
60
0
100
AcDbLine
10
16.15
20
-17.188815
30
0
11
16.15
21
-16.988587
31
0
39
0
210
0
220
0
230
1
0
LINE
5
96
100
AcDbEntity
8
1
62
256
6
ByLayer
370
18
48
1
60
0
100
AcDbLine
10
2.35
20
-16.988587
30
0
11
2.35
21
-17.188815
31
0
39
0
210
0
220
0
230
1
0
LINE
5
97
100
AcDbEntity
8
1
62
256
6
ByLayer
370
18
48
1
60
0
100
AcDbLine
10
2.35
20
20.733194
30
0
11
2.35
21
19.645303
31
0
39
0
210
0
220
0
230
1
0
LINE
5
98
100
AcDbEntity
8
1
62
256
6
ByLayer
370
18
48
1
60
0
100
AcDbLine
10
16.15
20
19.645303
30
0
11
16.15
21
20.733194
31
0
39
0
210
0
220
0
230
1
0
LINE
5
99
100
AcDbEntity
8
1
62
256
6
ByLayer
370
18
48
1
60
0
100
AcDbLine
10
15.77
20
20.149096
30
0
11
2.73
21
20.149096
31
0
39
0
210
0
220
0
230
1
0
LINE
5
9A
100
AcDbEntity
8
1
62
256
6
ByLayer
370
18
48
1
60
0
100
AcDbLine
10
15.77002
20
20.149267
30
0
11
2.72998
21
20.149267
31
0
39
0
210
0
220
0
230
1
0
LINE
5
9B
100
AcDbEntity
8
1
62
256
6
ByLayer
370
18
48
1
60
0
100
AcDbLine
10
16.15
20
-17.188815
30
0
11
16.15
21
-18.522758
31
0
39
0
210
0
220
0
230
1
0
LINE
5
9C
100
AcDbEntity
8
1
62
256
6
ByLayer
370
18
48
1
60
0
100
AcDbLine
10
2.35
20
-18.522758
30
0
11
2.35
21
-17.188815
31
0
39
0
210
0
220
0
230
1
0
LINE
5
9D
100
AcDbEntity
8
1
62
256
6
ByLayer
370
13
48
1
60
0
100
AcDbLine
10
2.73
20
20.013854
30
0
11
15.77
21
20.013854
31
0
39
0
210
0
220
0
230
1
0
LINE
5
9E
100
AcDbEntity
8
1
62
256
6
ByLayer
370
18
48
1
60
0
100
AcDbLine
10
16.15
20
-17.188815
30
0
11
2.35
21
-17.188815
31
0
39
0
210
0
220
0
230
1
0
LINE
5
9F
100
AcDbEntity
8
1
62
256
6
ByLayer
370
13
48
1
60
0
100
AcDbLine
10
16.07212
20
21.039986
30
0
11
2.42788
21
21.039986
31
0
39
0
210
0
220
0
230
1
0
LINE
5
A0
100
AcDbEntity
8
1
62
256
6
ByLayer
370
18
48
1
60
0
100
AcDbLine
10
16.15
20
16.191453
30
0
11
16.15
21
19.645303
31
0
39
0
210
0
220
0
230
1
0
LINE
5
A1
100
AcDbEntity
8
1
62
256
6
ByLayer
370
18
48
1
60
0
100
AcDbLine
10
2.35
20
19.645303
30
0
11
2.35
21
16.191453
31
0
39
0
210
0
220
0
230
1
0
LINE
5
A2
100
AcDbEntity
8
1
62
256
6
ByLayer
370
13
48
1
60
0
100
AcDbLine
10
2.69198
20
21.083483
30
0
11
15.80802
21
21.083483
31
0
39
0
210
0
220
0
230
1
0
LINE
5
A3
100
AcDbEntity
8
1
62
256
6
ByLayer
370
13
48
1
60
0
100
AcDbLine
10
15.80802
20
21.243136
30
0
11
2.69198
21
21.243136
31
0
39
0
210
0
220
0
230
1
0
LINE
5
A4
100
AcDbEntity
8
1
62
256
6
ByLayer
370
13
48
1
60
0
100
AcDbLine
10
2.66348
20
21.387325
30
0
11
15.83652
21
21.387325
31
0
39
0
210
0
220
0
230
1
0
LINE
5
A5
100
AcDbEntity
8
1
62
256
6
ByLayer
370
13
48
1
60
0
100
AcDbLine
10
16.07212
20
22.081974
30
0
11
2.42788
21
22.081974
31
0
39
0
210
0
220
0
230
1
0
LINE
5
A6
100
AcDbEntity
8
1
62
256
6
ByLayer
370
13
48
1
60
0
100
AcDbLine
10
2.69198
20
22.12547
30
0
11
15.80802
21
22.12547
31
0
39
0
210
0
220
0
230
1
0
LINE
5
A7
100
AcDbEntity
8
1
62
256
6
ByLayer
370
13
48
1
60
0
100
AcDbLine
10
15.80802
20
22.285123
30
0
11
2.69198
21
22.285123
31
0
39
0
210
0
220
0
230
1
0
LINE
5
A8
100
AcDbEntity
8
1
62
256
6
ByLayer
370
13
48
1
60
0
100
AcDbLine
10
2.66348
20
22.429313
30
0
11
15.83652
21
22.429313
31
0
39
0
210
0
220
0
230
1
0
LINE
5
A9
100
AcDbEntity
8
1
62
256
6
ByLayer
370
13
48
1
60
0
100
AcDbLine
10
16.07212
20
23.123961
30
0
11
2.42788
21
23.123961
31
0
39
0
210
0
220
0
230
1
0
LINE
5
AA
100
AcDbEntity
8
1
62
256
6
ByLayer
370
13
48
1
60
0
100
AcDbLine
10
9.969522
20
19.448255
30
0
11
16.045907
21
19.448255
31
0
39
0
210
0
220
0
230
1
0
LINE
5
AB
100
AcDbEntity
8
1
62
256
6
ByLayer
370
13
48
1
60
0
100
AcDbLine
10
16.045907
20
19.448255
30
0
11
16.15
21
19.645303
31
0
39
0
210
0
220
0
230
1
0
LINE
5
AC
100
AcDbEntity
8
1
62
256
6
ByLayer
370
13
48
1
60
0
100
AcDbLine
10
2.454093
20
19.448255
30
0
11
8.530478
21
19.448255
31
0
39
0
210
0
220
0
230
1
0
LINE
5
AD
100
AcDbEntity
8
1
62
256
6
ByLayer
370
13
48
1
60
0
100
AcDbLine
10
2.35
20
19.645303
30
0
11
2.454093
21
19.448255
31
0
39
0
210
0
220
0
230
1
0
LINE
5
AE
100
AcDbEntity
8
1
62
256
6
ByLayer
370
13
48
1
60
0
100
AcDbLine
10
2.69198
20
23.167458
30
0
11
15.80802
21
23.167458
31
0
39
0
210
0
220
0
230
1
0
LINE
5
AF
100
AcDbEntity
8
1
62
256
6
ByLayer
370
18
48
1
60
0
100
AcDbLine
10
11.45
20
11.461675
30
0
11
11.45
21
10.77885
31
0
39
0
210
0
220
0
230
1
0
LINE
5
B0
100
AcDbEntity
8
1
62
256
6
ByLayer
370
13
48
1
60
0
100
AcDbLine
10
15.80802
20
23.327111
30
0
11
2.69198
21
23.327111
31
0
39
0
210
0
220
0
230
1
0
LINE
5
B1
100
AcDbEntity
8
1
62
256
6
ByLayer
370
13
48
1
60
0
100
AcDbLine
10
2.66348
20
23.4713
30
0
11
15.83652
21
23.4713
31
0
39
0
210
0
220
0
230
1
0
LINE
5
B2
100
AcDbEntity
8
1
62
256
6
ByLayer
370
13
48
1
60
0
100
AcDbLine
10
16.07212
20
24.165949
30
0
11
2.42788
21
24.165949
31
0
39
0
210
0
220
0
230
1
0
LINE
5
B3
100
AcDbEntity
8
1
62
256
6
ByLayer
370
13
48
1
60
0
100
AcDbLine
10
2.69198
20
24.209446
30
0
11
15.80802
21
24.209446
31
0
39
0
210
0
220
0
230
1
0
LINE
5
B4
100
AcDbEntity
8
1
62
256
6
ByLayer
370
13
48
1
60
0
100
AcDbLine
10
15.80802
20
24.369099
30
0
11
2.69198
21
24.369099
31
0
39
0
210
0
220
0
230
1
0
LINE
5
B5
100
AcDbEntity
8
1
62
256
6
ByLayer
370
13
48
1
60
0
100
AcDbLine
10
2.66348
20
24.513288
30
0
11
15.83652
21
24.513288
31
0
39
0
210
0
220
0
230
1
0
LINE
5
B6
100
AcDbEntity
8
1
62
256
6
ByLayer
370
13
48
1
60
0
100
AcDbLine
10
16.07212
20
25.207936
30
0
11
2.42788
21
25.207936
31
0
39
0
210
0
220
0
230
1
0
LINE
5
B7
100
AcDbEntity
8
1
62
256
6
ByLayer
370
18
48
1
60
0
100
AcDbLine
10
2.35
20
7.889518
30
0
11
2.35
21
16.191453
31
0
39
0
210
0
220
0
230
1
0
LINE
5
B8
100
AcDbEntity
8
1
62
256
6
ByLayer
370
18
48
1
60
0
100
AcDbLine
10
16.15
20
16.191453
30
0
11
16.15
21
7.889518
31
0
39
0
210
0
220
0
230
1
0
LINE
5
B9
100
AcDbEntity
8
1
62
256
6
ByLayer
370
18
48
1
60
0
100
AcDbLine
10
7.485398
20
16.191453
30
0
11
2.35
21
16.191453
31
0
39
0
210
0
220
0
230
1
0
LINE
5
BA
100
AcDbEntity
8
1
62
256
6
ByLayer
370
18
48
1
60
0
100
AcDbLine
10
16.15
20
16.191453
30
0
11
11.014602
21
16.191453
31
0
39
0
210
0
220
0
230
1
0
LINE
5
BB
100
AcDbEntity
8
1
62
256
6
ByLayer
370
13
48
1
60
0
100
AcDbLine
10
2.69198
20
25.251433
30
0
11
15.80802
21
25.251433
31
0
39
0
210
0
220
0
230
1
0
LINE
5
BC
100
AcDbEntity
8
1
62
256
6
ByLayer
370
13
48
1
60
0
100
AcDbLine
10
15.80802
20
25.411086
30
0
11
2.69198
21
25.411086
31
0
39
0
210
0
220
0
230
1
0
LINE
5
BD
100
AcDbEntity
8
1
62
256
6
ByLayer
370
13
48
1
60
0
100
AcDbLine
10
2.66348
20
25.555275
30
0
11
15.83652
21
25.555275
31
0
39
0
210
0
220
0
230
1
0
LINE
5
BE
100
AcDbEntity
8
1
62
256
6
ByLayer
370
13
48
1
60
0
100
AcDbLine
10
16.07212
20
26.249924
30
0
11
2.42788
21
26.249924
31
0
39
0
210
0
220
0
230
1
0
LINE
5
BF
100
AcDbEntity
8
1
62
256
6
ByLayer
370
18
48
1
60
0
100
AcDbLine
10
5.25
20
10.778641
30
0
11
5.25
21
14.323125
31
0
39
0
210
0
220
0
230
1
0
LINE
5
C0
100
AcDbEntity
8
1
62
256
6
ByLayer
370
18
48
1
60
0
100
AcDbLine
10
5.25
20
14.323125
30
0
11
13.25
21
14.323125
31
0
39
0
210
0
220
0
230
1
0
LINE
5
C1
100
AcDbEntity
8
1
62
256
6
ByLayer
370
18
48
1
60
0
100
AcDbLine
10
13.25
20
14.323125
30
0
11
13.25
21
10.778641
31
0
39
0
210
0
220
0
230
1
0
LINE
5
C2
100
AcDbEntity
8
1
62
256
6
ByLayer
370
18
48
1
60
0
100
AcDbLine
10
18.5
20
23.1
30
0
11
18.5
21
-23.1
31
0
39
0
210
0
220
0
230
1
0
LINE
5
C3
100
AcDbEntity
8
1
62
256
6
ByLayer
370
18
48
1
60
0
100
AcDbLine
10
0
20
23.1
30
0
11
0
21
-23.1
31
0
39
0
210
0
220
0
230
1
0
LINE
5
C4
100
AcDbEntity
8
1
62
256
6
ByLayer
370
18
48
1
60
0
100
AcDbLine
10
18.1
20
23.5
30
0
11
18.1
21
-23.5
31
0
39
0
210
0
220
0
230
1
0
LINE
5
C5
100
AcDbEntity
8
1
62
256
6
ByLayer
370
18
48
1
60
0
100
AcDbLine
10
0.4
20
23.5
30
0
11
0.4
21
-23.5
31
0
39
0
210
0
220
0
230
1
0
LINE
5
C6
100
AcDbEntity
8
1
62
256
6
ByLayer
370
13
48
1
60
0
100
AcDbLine
10
16.95
20
23.5
30
0
11
16.95
21
-23.5
31
0
39
0
210
0
220
0
230
1
0
LINE
5
C7
100
AcDbEntity
8
1
62
256
6
ByLayer
370
18
48
1
60
0
100
AcDbLine
10
16.15
20
-10.223711
30
0
11
16.15
21
-16.810057
31
0
39
0
210
0
220
0
230
1
0
LINE
5
C8
100
AcDbEntity
8
1
62
256
6
ByLayer
370
18
48
1
60
0
100
AcDbLine
10
2.35
20
-16.810057
30
0
11
2.35
21
-10.223711
31
0
39
0
210
0
220
0
230
1
0
LINE
5
C9
100
AcDbEntity
8
1
62
256
6
ByLayer
370
13
48
1
60
0
100
AcDbLine
10
1.55
20
-23.5
30
0
11
1.55
21
23.5
31
0
39
0
210
0
220
0
230
1
0
LINE
5
CA
100
AcDbEntity
8
1
62
256
6
ByLayer
370
18
48
1
60
0
100
AcDbLine
10
2.349958
20
-16.976715
30
0
11
16.150042
21
-16.976715
31
0
39
0
210
0
220
0
230
1
0
LINE
5
CB
100
AcDbEntity
8
1
62
256
6
ByLayer
370
13
48
1
60
0
100
AcDbLine
10
2.69198
20
26.293421
30
0
11
15.80802
21
26.293421
31
0
39
0
210
0
220
0
230
1
0
LINE
5
CC
100
AcDbEntity
8
1
62
256
6
ByLayer
370
13
48
1
60
0
100
AcDbLine
10
15.80802
20
26.453074
30
0
11
2.69198
21
26.453074
31
0
39
0
210
0
220
0
230
1
0
LINE
5
CD
100
AcDbEntity
8
1
62
256
6
ByLayer
370
13
48
1
60
0
100
AcDbLine
10
2.66348
20
26.597263
30
0
11
15.83652
21
26.597263
31
0
39
0
210
0
220
0
230
1
0
LINE
5
CE
100
AcDbEntity
8
1
62
256
6
ByLayer
370
13
48
1
60
0
100
AcDbLine
10
16.07212
20
27.291912
30
0
11
2.42788
21
27.291912
31
0
39
0
210
0
220
0
230
1
0
LINE
5
CF
100
AcDbEntity
8
1
62
256
6
ByLayer
370
18
48
1
60
0
100
AcDbLine
10
11.45
20
8.988538
30
0
11
11.45
21
8.396433
31
0
39
0
210
0
220
0
230
1
0
LINE
5
D0
100
AcDbEntity
8
1
62
256
6
ByLayer
370
18
48
1
60
0
100
AcDbLine
10
2.35
20
45.399849
30
0
11
2.35
21
43.077331
31
0
39
0
210
0
220
0
230
1
0
LINE
5
D1
100
AcDbEntity
8
1
62
256
6
ByLayer
370
18
48
1
60
0
100
AcDbLine
10
5.25
20
-13.955554
30
0
11
5.25
21
-11.417971
31
0
39
0
210
0
220
0
230
1
0
LINE
5
D2
100
AcDbEntity
8
1
62
256
6
ByLayer
370
18
48
1
60
0
100
AcDbLine
10
5.25
20
-11.417971
30
0
11
13.25
21
-11.417971
31
0
39
0
210
0
220
0
230
1
0
LINE
5
D3
100
AcDbEntity
8
1
62
256
6
ByLayer
370
18
48
1
60
0
100
AcDbLine
10
13.25
20
-11.417971
30
0
11
13.25
21
-13.955554
31
0
39
0
210
0
220
0
230
1
0
LINE
5
D4
100
AcDbEntity
8
1
62
256
6
ByLayer
370
18
48
1
60
0
100
AcDbLine
10
16.15
20
-18.522758
30
0
11
16.15
21
-27.841148
31
0
39
0
210
0
220
0
230
1
0
LINE
5
D5
100
AcDbEntity
8
1
62
256
6
ByLayer
370
18
48
1
60
0
100
AcDbLine
10
2.35
20
-27.841148
30
0
11
2.35
21
-18.522758
31
0
39
0
210
0
220
0
230
1
0
LINE
5
D6
100
AcDbEntity
8
1
62
256
6
ByLayer
370
18
48
1
60
0
100
AcDbLine
10
2.35
20
-18.522758
30
0
11
16.15
21
-18.522758
31
0
39
0
210
0
220
0
230
1
0
LINE
5
D7
100
AcDbEntity
8
1
62
256
6
ByLayer
370
18
48
1
60
0
100
AcDbLine
10
16.15
20
-27.841148
30
0
11
16.15
21
-28.791201
31
0
39
0
210
0
220
0
230
1
0
LINE
5
D8
100
AcDbEntity
8
1
62
256
6
ByLayer
370
18
48
1
60
0
100
AcDbLine
10
2.35
20
-28.791201
30
0
11
2.35
21
-27.841148
31
0
39
0
210
0
220
0
230
1
0
LINE
5
D9
100
AcDbEntity
8
1
62
256
6
ByLayer
370
18
48
1
60
0
100
AcDbLine
10
11.55
20
-28.791201
30
0
11
14.35
21
-28.791201
31
0
39
0
210
0
220
0
230
1
0
LINE
5
DA
100
AcDbEntity
8
1
62
256
6
ByLayer
370
18
48
1
60
0
100
AcDbLine
10
2.35
20
-27.841148
30
0
11
16.15
21
-27.841148
31
0
39
0
210
0
220
0
230
1
0
LINE
5
DB
100
AcDbEntity
8
1
62
256
6
ByLayer
370
18
48
1
60
0
100
AcDbLine
10
15.15
20
-46.408085
30
0
11
3.35
21
-46.408085
31
0
39
0
210
0
220
0
230
1
0
LINE
5
DC
100
AcDbEntity
8
1
62
256
6
ByLayer
370
18
48
1
60
0
100
AcDbLine
10
2.35
20
-45.399849
30
0
11
2.35
21
-39.139007
31
0
39
0
210
0
220
0
230
1
0
LINE
5
DD
100
AcDbEntity
8
1
62
256
6
ByLayer
370
13
48
1
60
0
100
AcDbLine
10
11.55
20
-28.791201
30
0
11
11.55
21
-30.487309
31
0
39
0
210
0
220
0
230
1
0
LINE
5
DE
100
AcDbEntity
8
1
62
256
6
ByLayer
370
13
48
1
60
0
100
AcDbLine
10
14.35
20
-30.487309
30
0
11
14.35
21
-28.791201
31
0
39
0
210
0
220
0
230
1
0
LINE
5
DF
100
AcDbEntity
8
1
62
256
6
ByLayer
370
13
48
1
60
0
100
AcDbLine
10
2.69198
20
27.335408
30
0
11
15.80802
21
27.335408
31
0
39
0
210
0
220
0
230
1
0
LINE
5
E0
100
AcDbEntity
8
1
62
256
6
ByLayer
370
13
48
1
60
0
100
AcDbLine
10
15.80802
20
27.495061
30
0
11
2.69198
21
27.495061
31
0
39
0
210
0
220
0
230
1
0
LINE
5
E1
100
AcDbEntity
8
1
62
256
6
ByLayer
370
13
48
1
60
0
100
AcDbLine
10
2.66348
20
27.63925
30
0
11
15.83652
21
27.63925
31
0
39
0
210
0
220
0
230
1
0
LINE
5
E2
100
AcDbEntity
8
1
62
256
6
ByLayer
370
13
48
1
60
0
100
AcDbLine
10
16.07212
20
28.333899
30
0
11
2.42788
21
28.333899
31
0
39
0
210
0
220
0
230
1
0
LINE
5
E3
100
AcDbEntity
8
1
62
256
6
ByLayer
370
13
48
1
60
0
100
AcDbLine
10
2.69198
20
28.377396
30
0
11
15.80802
21
28.377396
31
0
39
0
210
0
220
0
230
1
0
LINE
5
E4
100
AcDbEntity
8
1
62
256
6
ByLayer
370
13
48
1
60
0
100
AcDbLine
10
15.80802
20
28.537049
30
0
11
2.69198
21
28.537049
31
0
39
0
210
0
220
0
230
1
0
LINE
5
E5
100
AcDbEntity
8
1
62
256
6
ByLayer
370
13
48
1
60
0
100
AcDbLine
10
2.66348
20
28.681238
30
0
11
15.83652
21
28.681238
31
0
39
0
210
0
220
0
230
1
0
LINE
5
E6
100
AcDbEntity
8
1
62
256
6
ByLayer
370
13
48
1
60
0
100
AcDbLine
10
16.07212
20
29.375887
30
0
11
2.42788
21
29.375887
31
0
39
0
210
0
220
0
230
1
0
LINE
5
E7
100
AcDbEntity
8
1
62
256
6
ByLayer
370
13
48
1
60
0
100
AcDbLine
10
2.69198
20
29.419383
30
0
11
15.80802
21
29.419383
31
0
39
0
210
0
220
0
230
1
0
LINE
5
E8
100
AcDbEntity
8
1
62
256
6
ByLayer
370
18
48
1
60
0
100
AcDbLine
10
16.15
20
-39.139007
30
0
11
16.15
21
-45.399849
31
0
39
0
210
0
220
0
230
1
0
LINE
5
E9
100
AcDbEntity
8
1
62
256
6
ByLayer
370
13
48
1
60
0
100
AcDbLine
10
15.80802
20
29.579036
30
0
11
2.69198
21
29.579036
31
0
39
0
210
0
220
0
230
1
0
LINE
5
EA
100
AcDbEntity
8
1
62
256
6
ByLayer
370
13
48
1
60
0
100
AcDbLine
10
2.66348
20
29.723226
30
0
11
15.83652
21
29.723226
31
0
39
0
210
0
220
0
230
1
0
LINE
5
EB
100
AcDbEntity
8
1
62
256
6
ByLayer
370
13
48
1
60
0
100
AcDbLine
10
3.35
20
-40.028971
30
0
11
3.35
21
-46.408085
31
0
39
0
210
0
220
0
230
1
0
LINE
5
EC
100
AcDbEntity
8
1
62
256
6
ByLayer
370
18
48
1
60
0
100
AcDbLine
10
14.45
20
-28.930575
30
0
11
14.45
21
-33.388351
31
0
39
0
210
0
220
0
230
1
0
LINE
5
ED
100
AcDbEntity
8
1
62
256
6
ByLayer
370
13
48
1
60
0
100
AcDbLine
10
15.15
20
-46.408085
30
0
11
15.15
21
-40.028971
31
0
39
0
210
0
220
0
230
1
0
LINE
5
EE
100
AcDbEntity
8
1
62
256
6
ByLayer
370
18
48
1
60
0
100
AcDbLine
10
11.45
20
-33.388351
30
0
11
11.45
21
-28.930575
31
0
39
0
210
0
220
0
230
1
0
LINE
5
EF
100
AcDbEntity
8
1
62
256
6
ByLayer
370
18
48
1
60
0
100
AcDbLine
10
2.35
20
-28.791201
30
0
11
11.55
21
-28.791201
31
0
39
0
210
0
220
0
230
1
0
LINE
5
F0
100
AcDbEntity
8
1
62
256
6
ByLayer
370
18
48
1
60
0
100
AcDbLine
10
2.35
20
-39.139007
30
0
11
2.35
21
-28.791201
31
0
39
0
210
0
220
0
230
1
0
LINE
5
F1
100
AcDbEntity
8
1
62
256
6
ByLayer
370
18
48
1
60
0
100
AcDbLine
10
15.15
20
-40.028971
30
0
11
3.35
21
-40.028971
31
0
39
0
210
0
220
0
230
1
0
LINE
5
F2
100
AcDbEntity
8
1
62
256
6
ByLayer
370
18
48
1
60
0
100
AcDbLine
10
16.15
20
-28.791201
30
0
11
16.15
21
-39.139007
31
0
39
0
210
0
220
0
230
1
0
LINE
5
F3
100
AcDbEntity
8
1
62
256
6
ByLayer
370
18
48
1
60
0
100
AcDbLine
10
14.35
20
-28.791201
30
0
11
16.15
21
-28.791201
31
0
39
0
210
0
220
0
230
1
0
LINE
5
F4
100
AcDbEntity
8
1
62
256
6
ByLayer
370
13
48
1
60
0
100
AcDbLine
10
16.07212
20
30.417874
30
0
11
2.42788
21
30.417874
31
0
39
0
210
0
220
0
230
1
0
LINE
5
F5
100
AcDbEntity
8
1
62
256
6
ByLayer
370
18
48
1
60
0
100
AcDbLine
10
15.15
20
43.930453
30
0
11
3.35
21
43.930453
31
0
39
0
210
0
220
0
230
1
0
LINE
5
F6
100
AcDbEntity
8
1
62
256
6
ByLayer
370
13
48
1
60
0
100
AcDbLine
10
2.69198
20
30.461371
30
0
11
15.80802
21
30.461371
31
0
39
0
210
0
220
0
230
1
0
LINE
5
F7
100
AcDbEntity
8
1
62
256
6
ByLayer
370
13
48
1
60
0
100
AcDbLine
10
15.80802
20
30.621024
30
0
11
2.69198
21
30.621024
31
0
39
0
210
0
220
0
230
1
0
LINE
5
F8
100
AcDbEntity
8
1
62
256
6
ByLayer
370
13
48
1
60
0
100
AcDbLine
10
2.66348
20
30.765213
30
0
11
15.83652
21
30.765213
31
0
39
0
210
0
220
0
230
1
0
LINE
5
F9
100
AcDbEntity
8
1
62
256
6
ByLayer
370
13
48
1
60
0
100
AcDbLine
10
16.07212
20
31.459862
30
0
11
2.42788
21
31.459862
31
0
39
0
210
0
220
0
230
1
0
LINE
5
FA
100
AcDbEntity
8
1
62
256
6
ByLayer
370
18
48
1
60
0
100
AcDbLine
10
15.15
20
35.790925
30
0
11
3.35
21
35.790925
31
0
39
0
210
0
220
0
230
1
0
LINE
5
FB
100
AcDbEntity
8
1
62
256
6
ByLayer
370
13
48
1
60
0
100
AcDbLine
10
2.69198
20
31.503358
30
0
11
15.80802
21
31.503358
31
0
39
0
210
0
220
0
230
1
0
LINE
5
FC
100
AcDbEntity
8
1
62
256
6
ByLayer
370
13
48
1
60
0
100
AcDbLine
10
15.80802
20
31.663011
30
0
11
2.69198
21
31.663011
31
0
39
0
210
0
220
0
230
1
0
LINE
5
FD
100
AcDbEntity
8
1
62
256
6
ByLayer
370
13
48
1
60
0
100
AcDbLine
10
2.66348
20
31.807201
30
0
11
15.83652
21
31.807201
31
0
39
0
210
0
220
0
230
1
0
LINE
5
FE
100
AcDbEntity
8
1
62
256
6
ByLayer
370
13
48
1
60
0
100
AcDbLine
10
16.07212
20
32.501849
30
0
11
2.42788
21
32.501849
31
0
39
0
210
0
220
0
230
1
0
LINE
5
FF
100
AcDbEntity
8
1
62
256
6
ByLayer
370
18
48
1
60
0
100
AcDbLine
10
16.15
20
43.077372
30
0
11
16.15
21
35.176164
31
0
39
0
210
0
220
0
230
1
0
LINE
5
100
100
AcDbEntity
8
1
62
256
6
ByLayer
370
13
48
1
60
0
100
AcDbLine
10
2.69198
20
32.545346
30
0
11
15.80802
21
32.545346
31
0
39
0
210
0
220
0
230
1
0
LINE
5
101
100
AcDbEntity
8
1
62
256
6
ByLayer
370
13
48
1
60
0
100
AcDbLine
10
15.80802
20
32.704999
30
0
11
2.69198
21
32.704999
31
0
39
0
210
0
220
0
230
1
0
LINE
5
102
100
AcDbEntity
8
1
62
256
6
ByLayer
370
13
48
1
60
0
100
AcDbLine
10
2.66348
20
32.849188
30
0
11
15.83652
21
32.849188
31
0
39
0
210
0
220
0
230
1
0
LINE
5
103
100
AcDbEntity
8
1
62
256
6
ByLayer
370
13
48
1
60
0
100
AcDbLine
10
16.07212
20
33.543837
30
0
11
2.42788
21
33.543837
31
0
39
0
210
0
220
0
230
1
0
LINE
5
104
100
AcDbEntity
8
1
62
256
6
ByLayer
370
13
48
1
60
0
100
AcDbLine
10
2.69198
20
33.587334
30
0
11
15.80802
21
33.587334
31
0
39
0
210
0
220
0
230
1
0
LINE
5
105
100
AcDbEntity
8
1
62
256
6
ByLayer
370
13
48
1
60
0
100
AcDbLine
10
15.80802
20
33.746987
30
0
11
2.69198
21
33.746987
31
0
39
0
210
0
220
0
230
1
0
LINE
5
106
100
AcDbEntity
8
1
62
256
6
ByLayer
370
13
48
1
60
0
100
AcDbLine
10
2.66348
20
33.891176
30
0
11
15.83652
21
33.891176
31
0
39
0
210
0
220
0
230
1
0
LINE
5
107
100
AcDbEntity
8
1
62
256
6
ByLayer
370
13
48
1
60
0
100
AcDbLine
10
16.07212
20
34.585824
30
0
11
2.42788
21
34.585824
31
0
39
0
210
0
220
0
230
1
0
LINE
5
108
100
AcDbEntity
8
1
62
256
6
ByLayer
370
18
48
1
60
0
100
AcDbLine
10
15.77
20
20.013854
30
0
11
15.77
21
20.149096
31
0
39
0
210
0
220
0
230
1
0
LINE
5
109
100
AcDbEntity
8
1
62
256
6
ByLayer
370
18
48
1
60
0
100
AcDbLine
10
16.15
20
35.176164
30
0
11
16.15
21
20.733194
31
0
39
0
210
0
220
0
230
1
0
LINE
5
10A
100
AcDbEntity
8
1
62
256
6
ByLayer
370
13
48
1
60
0
100
AcDbLine
10
15.15
20
35.790925
30
0
11
15.15
21
43.930453
31
0
39
0
210
0
220
0
230
1
0
LINE
5
10B
100
AcDbEntity
8
1
62
256
6
ByLayer
370
13
48
1
60
0
100
AcDbLine
10
2.69198
20
34.629321
30
0
11
15.80802
21
34.629321
31
0
39
0
210
0
220
0
230
1
0
LINE
5
10C
100
AcDbEntity
8
1
62
256
6
ByLayer
370
18
48
1
60
0
100
AcDbLine
10
15.80802
20
34.788974
30
0
11
15.80802
21
34.629321
31
0
39
0
210
0
220
0
230
1
0
LINE
5
10D
100
AcDbEntity
8
1
62
256
6
ByLayer
370
13
48
1
60
0
100
AcDbLine
10
15.679196
20
35.627812
30
0
11
2.820804
21
35.627812
31
0
39
0
210
0
220
0
230
1
0
LINE
5
10E
100
AcDbEntity
8
1
62
256
6
ByLayer
370
18
48
1
60
0
100
AcDbLine
10
2.66348
20
34.933163
30
0
11
2.565517
21
35.222003
31
0
39
0
210
0
220
0
230
1
0
LINE
5
10F
100
AcDbEntity
8
1
62
256
6
ByLayer
370
13
48
1
60
0
100
AcDbLine
10
15.77
20
20.013854
30
0
11
16.15
21
20.733194
31
0
39
0
210
0
220
0
230
1
0
LINE
5
110
100
AcDbEntity
8
1
62
256
6
ByLayer
370
18
48
1
60
0
100
AcDbLine
10
15.83652
20
34.593033
30
0
11
16.07212
21
34.790366
31
0
39
0
210
0
220
0
230
1
0
LINE
5
111
100
AcDbEntity
8
1
62
256
6
ByLayer
370
18
48
1
60
0
100
AcDbLine
10
16.07212
20
34.585824
30
0
11
15.83652
21
33.891176
31
0
39
0
210
0
220
0
230
1
0
LINE
5
112
100
AcDbEntity
8
1
62
256
6
ByLayer
370
18
48
1
60
0
100
AcDbLine
10
15.80802
20
33.746987
30
0
11
15.80802
21
33.587334
31
0
39
0
210
0
220
0
230
1
0
LINE
5
113
100
AcDbEntity
8
1
62
256
6
ByLayer
370
18
48
1
60
0
100
AcDbLine
10
15.83652
20
33.551045
30
0
11
16.07212
21
33.748378
31
0
39
0
210
0
220
0
230
1
0
LINE
5
114
100
AcDbEntity
8
1
62
256
6
ByLayer
370
18
48
1
60
0
100
AcDbLine
10
16.07212
20
33.543837
30
0
11
15.83652
21
32.849188
31
0
39
0
210
0
220
0
230
1
0
LINE
5
115
100
AcDbEntity
8
1
62
256
6
ByLayer
370
18
48
1
60
0
100
AcDbLine
10
15.80802
20
32.704999
30
0
11
15.80802
21
32.545346
31
0
39
0
210
0
220
0
230
1
0
LINE
5
116
100
AcDbEntity
8
1
62
256
6
ByLayer
370
18
48
1
60
0
100
AcDbLine
10
15.83652
20
32.509058
30
0
11
16.07212
21
32.706391
31
0
39
0
210
0
220
0
230
1
0
LINE
5
117
100
AcDbEntity
8
1
62
256
6
ByLayer
370
18
48
1
60
0
100
AcDbLine
10
16.07212
20
32.501849
30
0
11
15.83652
21
31.807201
31
0
39
0
210
0
220
0
230
1
0
LINE
5
118
100
AcDbEntity
8
1
62
256
6
ByLayer
370
18
48
1
60
0
100
AcDbLine
10
15.80802
20
31.663011
30
0
11
15.80802
21
31.503358
31
0
39
0
210
0
220
0
230
1
0
LINE
5
119
100
AcDbEntity
8
1
62
256
6
ByLayer
370
18
48
1
60
0
100
AcDbLine
10
15.83652
20
31.46707
30
0
11
16.07212
21
31.664403
31
0
39
0
210
0
220
0
230
1
0
LINE
5
11A
100
AcDbEntity
8
1
62
256
6
ByLayer
370
18
48
1
60
0
100
AcDbLine
10
16.07212
20
31.459862
30
0
11
15.83652
21
30.765213
31
0
39
0
210
0
220
0
230
1
0
LINE
5
11B
100
AcDbEntity
8
1
62
256
6
ByLayer
370
18
48
1
60
0
100
AcDbLine
10
15.80802
20
30.621024
30
0
11
15.80802
21
30.461371
31
0
39
0
210
0
220
0
230
1
0
LINE
5
11C
100
AcDbEntity
8
1
62
256
6
ByLayer
370
18
48
1
60
0
100
AcDbLine
10
15.83652
20
30.425083
30
0
11
16.07212
21
30.622415
31
0
39
0
210
0
220
0
230
1
0
LINE
5
11D
100
AcDbEntity
8
1
62
256
6
ByLayer
370
18
48
1
60
0
100
AcDbLine
10
16.07212
20
30.417874
30
0
11
15.83652
21
29.723226
31
0
39
0
210
0
220
0
230
1
0
LINE
5
11E
100
AcDbEntity
8
1
62
256
6
ByLayer
370
18
48
1
60
0
100
AcDbLine
10
15.80802
20
29.579036
30
0
11
15.80802
21
29.419383
31
0
39
0
210
0
220
0
230
1
0
LINE
5
11F
100
AcDbEntity
8
1
62
256
6
ByLayer
370
18
48
1
60
0
100
AcDbLine
10
15.83652
20
29.383095
30
0
11
16.07212
21
29.580428
31
0
39
0
210
0
220
0
230
1
0
LINE
5
120
100
AcDbEntity
8
1
62
256
6
ByLayer
370
18
48
1
60
0
100
AcDbLine
10
16.07212
20
29.375887
30
0
11
15.83652
21
28.681238
31
0
39
0
210
0
220
0
230
1
0
LINE
5
121
100
AcDbEntity
8
1
62
256
6
ByLayer
370
18
48
1
60
0
100
AcDbLine
10
15.80802
20
28.537049
30
0
11
15.80802
21
28.377396
31
0
39
0
210
0
220
0
230
1
0
LINE
5
122
100
AcDbEntity
8
1
62
256
6
ByLayer
370
18
48
1
60
0
100
AcDbLine
10
15.83652
20
28.341108
30
0
11
16.07212
21
28.53844
31
0
39
0
210
0
220
0
230
1
0
LINE
5
123
100
AcDbEntity
8
1
62
256
6
ByLayer
370
18
48
1
60
0
100
AcDbLine
10
16.07212
20
28.333899
30
0
11
15.83652
21
27.63925
31
0
39
0
210
0
220
0
230
1
0
LINE
5
124
100
AcDbEntity
8
1
62
256
6
ByLayer
370
18
48
1
60
0
100
AcDbLine
10
15.80802
20
27.495061
30
0
11
15.80802
21
27.335408
31
0
39
0
210
0
220
0
230
1
0
LINE
5
125
100
AcDbEntity
8
1
62
256
6
ByLayer
370
18
48
1
60
0
100
AcDbLine
10
15.83652
20
27.29912
30
0
11
16.07212
21
27.496453
31
0
39
0
210
0
220
0
230
1
0
LINE
5
126
100
AcDbEntity
8
1
62
256
6
ByLayer
370
18
48
1
60
0
100
AcDbLine
10
16.07212
20
27.291912
30
0
11
15.83652
21
26.597263
31
0
39
0
210
0
220
0
230
1
0
LINE
5
127
100
AcDbEntity
8
1
62
256
6
ByLayer
370
18
48
1
60
0
100
AcDbLine
10
15.80802
20
26.453074
30
0
11
15.80802
21
26.293421
31
0
39
0
210
0
220
0
230
1
0
LINE
5
128
100
AcDbEntity
8
1
62
256
6
ByLayer
370
18
48
1
60
0
100
AcDbLine
10
15.83652
20
26.257132
30
0
11
16.07212
21
26.454465
31
0
39
0
210
0
220
0
230
1
0
LINE
5
129
100
AcDbEntity
8
1
62
256
6
ByLayer
370
18
48
1
60
0
100
AcDbLine
10
16.07212
20
26.249924
30
0
11
15.83652
21
25.555275
31
0
39
0
210
0
220
0
230
1
0
LINE
5
12A
100
AcDbEntity
8
1
62
256
6
ByLayer
370
18
48
1
60
0
100
AcDbLine
10
15.80802
20
25.411086
30
0
11
15.80802
21
25.251433
31
0
39
0
210
0
220
0
230
1
0
LINE
5
12B
100
AcDbEntity
8
1
62
256
6
ByLayer
370
18
48
1
60
0
100
AcDbLine
10
15.83652
20
25.215145
30
0
11
16.07212
21
25.412478
31
0
39
0
210
0
220
0
230
1
0
LINE
5
12C
100
AcDbEntity
8
1
62
256
6
ByLayer
370
18
48
1
60
0
100
AcDbLine
10
16.07212
20
25.207936
30
0
11
15.83652
21
24.513288
31
0
39
0
210
0
220
0
230
1
0
LINE
5
12D
100
AcDbEntity
8
1
62
256
6
ByLayer
370
18
48
1
60
0
100
AcDbLine
10
15.80802
20
24.369099
30
0
11
15.80802
21
24.209446
31
0
39
0
210
0
220
0
230
1
0
LINE
5
12E
100
AcDbEntity
8
1
62
256
6
ByLayer
370
18
48
1
60
0
100
AcDbLine
10
15.83652
20
24.173157
30
0
11
16.07212
21
24.37049
31
0
39
0
210
0
220
0
230
1
0
LINE
5
12F
100
AcDbEntity
8
1
62
256
6
ByLayer
370
18
48
1
60
0
100
AcDbLine
10
16.07212
20
24.165949
30
0
11
15.83652
21
23.4713
31
0
39
0
210
0
220
0
230
1
0
LINE
5
130
100
AcDbEntity
8
1
62
256
6
ByLayer
370
18
48
1
60
0
100
AcDbLine
10
15.80802
20
23.327111
30
0
11
15.80802
21
23.167458
31
0
39
0
210
0
220
0
230
1
0
LINE
5
131
100
AcDbEntity
8
1
62
256
6
ByLayer
370
18
48
1
60
0
100
AcDbLine
10
15.83652
20
23.13117
30
0
11
16.07212
21
23.328503
31
0
39
0
210
0
220
0
230
1
0
LINE
5
132
100
AcDbEntity
8
1
62
256
6
ByLayer
370
18
48
1
60
0
100
AcDbLine
10
16.07212
20
23.123961
30
0
11
15.83652
21
22.429313
31
0
39
0
210
0
220
0
230
1
0
LINE
5
133
100
AcDbEntity
8
1
62
256
6
ByLayer
370
18
48
1
60
0
100
AcDbLine
10
15.80802
20
22.285123
30
0
11
15.80802
21
22.12547
31
0
39
0
210
0
220
0
230
1
0
LINE
5
134
100
AcDbEntity
8
1
62
256
6
ByLayer
370
18
48
1
60
0
100
AcDbLine
10
15.83652
20
22.089182
30
0
11
16.07212
21
22.286515
31
0
39
0
210
0
220
0
230
1
0
LINE
5
135
100
AcDbEntity
8
1
62
256
6
ByLayer
370
18
48
1
60
0
100
AcDbLine
10
16.07212
20
22.081974
30
0
11
15.83652
21
21.387325
31
0
39
0
210
0
220
0
230
1
0
LINE
5
136
100
AcDbEntity
8
1
62
256
6
ByLayer
370
18
48
1
60
0
100
AcDbLine
10
15.80802
20
21.243136
30
0
11
15.80802
21
21.083483
31
0
39
0
210
0
220
0
230
1
0
LINE
5
137
100
AcDbEntity
8
1
62
256
6
ByLayer
370
18
48
1
60
0
100
AcDbLine
10
15.83652
20
21.047195
30
0
11
16.07212
21
21.244527
31
0
39
0
210
0
220
0
230
1
0
LINE
5
138
100
AcDbEntity
8
1
62
256
6
ByLayer
370
18
48
1
60
0
100
AcDbLine
10
16.07212
20
21.039986
30
0
11
15.77002
21
20.149267
31
0
39
0
210
0
220
0
230
1
0
LINE
5
139
100
AcDbEntity
8
1
62
256
6
ByLayer
370
18
48
1
60
0
100
AcDbLine
10
2.72998
20
20.149267
30
0
11
2.42788
21
21.039986
31
0
39
0
210
0
220
0
230
1
0
LINE
5
13A
100
AcDbEntity
8
1
62
256
6
ByLayer
370
18
48
1
60
0
100
AcDbLine
10
15.934483
20
35.222003
30
0
11
15.83652
21
34.933163
31
0
39
0
210
0
220
0
230
1
0
LINE
5
13B
100
AcDbEntity
8
1
62
256
6
ByLayer
370
18
48
1
60
0
100
AcDbLine
10
2.42788
20
21.244527
30
0
11
2.66348
21
21.047195
31
0
39
0
210
0
220
0
230
1
0
LINE
5
13C
100
AcDbEntity
8
1
62
256
6
ByLayer
370
13
48
1
60
0
100
AcDbLine
10
15.80802
20
34.788974
30
0
11
2.69198
21
34.788974
31
0
39
0
210
0
220
0
230
1
0
LINE
5
13D
100
AcDbEntity
8
1
62
256
6
ByLayer
370
13
48
1
60
0
100
AcDbLine
10
2.66348
20
34.933163
30
0
11
15.83652
21
34.933163
31
0
39
0
210
0
220
0
230
1
0
LINE
5
13E
100
AcDbEntity
8
1
62
256
6
ByLayer
370
18
48
1
60
0
100
AcDbLine
10
2.69198
20
21.083483
30
0
11
2.69198
21
21.243136
31
0
39
0
210
0
220
0
230
1
0
LINE
5
13F
100
AcDbEntity
8
1
62
256
6
ByLayer
370
18
48
1
60
0
100
AcDbLine
10
2.66348
20
21.387325
30
0
11
2.42788
21
22.081974
31
0
39
0
210
0
220
0
230
1
0
LINE
5
140
100
AcDbEntity
8
1
62
256
6
ByLayer
370
18
48
1
60
0
100
AcDbLine
10
2.42788
20
22.286515
30
0
11
2.66348
21
22.089182
31
0
39
0
210
0
220
0
230
1
0
LINE
5
141
100
AcDbEntity
8
1
62
256
6
ByLayer
370
18
48
1
60
0
100
AcDbLine
10
2.69198
20
22.12547
30
0
11
2.69198
21
22.285123
31
0
39
0
210
0
220
0
230
1
0
LINE
5
142
100
AcDbEntity
8
1
62
256
6
ByLayer
370
18
48
1
60
0
100
AcDbLine
10
2.66348
20
22.429313
30
0
11
2.42788
21
23.123961
31
0
39
0
210
0
220
0
230
1
0
LINE
5
143
100
AcDbEntity
8
1
62
256
6
ByLayer
370
18
48
1
60
0
100
AcDbLine
10
2.42788
20
23.328503
30
0
11
2.66348
21
23.13117
31
0
39
0
210
0
220
0
230
1
0
LINE
5
144
100
AcDbEntity
8
1
62
256
6
ByLayer
370
18
48
1
60
0
100
AcDbLine
10
2.69198
20
23.167458
30
0
11
2.69198
21
23.327111
31
0
39
0
210
0
220
0
230
1
0
LINE
5
145
100
AcDbEntity
8
1
62
256
6
ByLayer
370
18
48
1
60
0
100
AcDbLine
10
2.66348
20
23.4713
30
0
11
2.42788
21
24.165949
31
0
39
0
210
0
220
0
230
1
0
LINE
5
146
100
AcDbEntity
8
1
62
256
6
ByLayer
370
18
48
1
60
0
100
AcDbLine
10
2.42788
20
24.37049
30
0
11
2.66348
21
24.173157
31
0
39
0
210
0
220
0
230
1
0
LINE
5
147
100
AcDbEntity
8
1
62
256
6
ByLayer
370
18
48
1
60
0
100
AcDbLine
10
2.69198
20
24.209446
30
0
11
2.69198
21
24.369099
31
0
39
0
210
0
220
0
230
1
0
LINE
5
148
100
AcDbEntity
8
1
62
256
6
ByLayer
370
18
48
1
60
0
100
AcDbLine
10
2.66348
20
24.513288
30
0
11
2.42788
21
25.207936
31
0
39
0
210
0
220
0
230
1
0
LINE
5
149
100
AcDbEntity
8
1
62
256
6
ByLayer
370
18
48
1
60
0
100
AcDbLine
10
2.42788
20
25.412478
30
0
11
2.66348
21
25.215145
31
0
39
0
210
0
220
0
230
1
0
LINE
5
14A
100
AcDbEntity
8
1
62
256
6
ByLayer
370
18
48
1
60
0
100
AcDbLine
10
2.69198
20
25.251433
30
0
11
2.69198
21
25.411086
31
0
39
0
210
0
220
0
230
1
0
LINE
5
14B
100
AcDbEntity
8
1
62
256
6
ByLayer
370
18
48
1
60
0
100
AcDbLine
10
2.66348
20
25.555275
30
0
11
2.42788
21
26.249924
31
0
39
0
210
0
220
0
230
1
0
LINE
5
14C
100
AcDbEntity
8
1
62
256
6
ByLayer
370
18
48
1
60
0
100
AcDbLine
10
2.42788
20
26.454465
30
0
11
2.66348
21
26.257132
31
0
39
0
210
0
220
0
230
1
0
LINE
5
14D
100
AcDbEntity
8
1
62
256
6
ByLayer
370
18
48
1
60
0
100
AcDbLine
10
2.69198
20
26.293421
30
0
11
2.69198
21
26.453074
31
0
39
0
210
0
220
0
230
1
0
LINE
5
14E
100
AcDbEntity
8
1
62
256
6
ByLayer
370
18
48
1
60
0
100
AcDbLine
10
2.66348
20
26.597263
30
0
11
2.42788
21
27.291912
31
0
39
0
210
0
220
0
230
1
0
LINE
5
14F
100
AcDbEntity
8
1
62
256
6
ByLayer
370
18
48
1
60
0
100
AcDbLine
10
2.42788
20
27.496453
30
0
11
2.66348
21
27.29912
31
0
39
0
210
0
220
0
230
1
0
LINE
5
150
100
AcDbEntity
8
1
62
256
6
ByLayer
370
18
48
1
60
0
100
AcDbLine
10
2.69198
20
27.335408
30
0
11
2.69198
21
27.495061
31
0
39
0
210
0
220
0
230
1
0
LINE
5
151
100
AcDbEntity
8
1
62
256
6
ByLayer
370
18
48
1
60
0
100
AcDbLine
10
2.66348
20
27.63925
30
0
11
2.42788
21
28.333899
31
0
39
0
210
0
220
0
230
1
0
LINE
5
152
100
AcDbEntity
8
1
62
256
6
ByLayer
370
18
48
1
60
0
100
AcDbLine
10
2.42788
20
28.53844
30
0
11
2.66348
21
28.341108
31
0
39
0
210
0
220
0
230
1
0
LINE
5
153
100
AcDbEntity
8
1
62
256
6
ByLayer
370
18
48
1
60
0
100
AcDbLine
10
2.69198
20
28.377396
30
0
11
2.69198
21
28.537049
31
0
39
0
210
0
220
0
230
1
0
LINE
5
154
100
AcDbEntity
8
1
62
256
6
ByLayer
370
18
48
1
60
0
100
AcDbLine
10
2.66348
20
28.681238
30
0
11
2.42788
21
29.375887
31
0
39
0
210
0
220
0
230
1
0
LINE
5
155
100
AcDbEntity
8
1
62
256
6
ByLayer
370
18
48
1
60
0
100
AcDbLine
10
2.42788
20
29.580428
30
0
11
2.66348
21
29.383095
31
0
39
0
210
0
220
0
230
1
0
LINE
5
156
100
AcDbEntity
8
1
62
256
6
ByLayer
370
18
48
1
60
0
100
AcDbLine
10
2.69198
20
29.419383
30
0
11
2.69198
21
29.579036
31
0
39
0
210
0
220
0
230
1
0
LINE
5
157
100
AcDbEntity
8
1
62
256
6
ByLayer
370
18
48
1
60
0
100
AcDbLine
10
2.66348
20
29.723226
30
0
11
2.42788
21
30.417874
31
0
39
0
210
0
220
0
230
1
0
LINE
5
158
100
AcDbEntity
8
1
62
256
6
ByLayer
370
18
48
1
60
0
100
AcDbLine
10
2.42788
20
30.622415
30
0
11
2.66348
21
30.425083
31
0
39
0
210
0
220
0
230
1
0
LINE
5
159
100
AcDbEntity
8
1
62
256
6
ByLayer
370
18
48
1
60
0
100
AcDbLine
10
2.69198
20
30.461371
30
0
11
2.69198
21
30.621024
31
0
39
0
210
0
220
0
230
1
0
LINE
5
15A
100
AcDbEntity
8
1
62
256
6
ByLayer
370
18
48
1
60
0
100
AcDbLine
10
2.66348
20
30.765213
30
0
11
2.42788
21
31.459862
31
0
39
0
210
0
220
0
230
1
0
LINE
5
15B
100
AcDbEntity
8
1
62
256
6
ByLayer
370
18
48
1
60
0
100
AcDbLine
10
2.42788
20
31.664403
30
0
11
2.66348
21
31.46707
31
0
39
0
210
0
220
0
230
1
0
LINE
5
15C
100
AcDbEntity
8
1
62
256
6
ByLayer
370
18
48
1
60
0
100
AcDbLine
10
2.69198
20
31.503358
30
0
11
2.69198
21
31.663011
31
0
39
0
210
0
220
0
230
1
0
LINE
5
15D
100
AcDbEntity
8
1
62
256
6
ByLayer
370
18
48
1
60
0
100
AcDbLine
10
2.66348
20
31.807201
30
0
11
2.42788
21
32.501849
31
0
39
0
210
0
220
0
230
1
0
LINE
5
15E
100
AcDbEntity
8
1
62
256
6
ByLayer
370
18
48
1
60
0
100
AcDbLine
10
2.42788
20
32.706391
30
0
11
2.66348
21
32.509058
31
0
39
0
210
0
220
0
230
1
0
LINE
5
15F
100
AcDbEntity
8
1
62
256
6
ByLayer
370
18
48
1
60
0
100
AcDbLine
10
2.69198
20
32.545346
30
0
11
2.69198
21
32.704999
31
0
39
0
210
0
220
0
230
1
0
LINE
5
160
100
AcDbEntity
8
1
62
256
6
ByLayer
370
18
48
1
60
0
100
AcDbLine
10
2.66348
20
32.849188
30
0
11
2.42788
21
33.543837
31
0
39
0
210
0
220
0
230
1
0
LINE
5
161
100
AcDbEntity
8
1
62
256
6
ByLayer
370
18
48
1
60
0
100
AcDbLine
10
2.42788
20
33.748378
30
0
11
2.66348
21
33.551045
31
0
39
0
210
0
220
0
230
1
0
LINE
5
162
100
AcDbEntity
8
1
62
256
6
ByLayer
370
18
48
1
60
0
100
AcDbLine
10
2.69198
20
33.587334
30
0
11
2.69198
21
33.746987
31
0
39
0
210
0
220
0
230
1
0
LINE
5
163
100
AcDbEntity
8
1
62
256
6
ByLayer
370
18
48
1
60
0
100
AcDbLine
10
2.66348
20
33.891176
30
0
11
2.42788
21
34.585824
31
0
39
0
210
0
220
0
230
1
0
LINE
5
164
100
AcDbEntity
8
1
62
256
6
ByLayer
370
18
48
1
60
0
100
AcDbLine
10
2.42788
20
34.790366
30
0
11
2.66348
21
34.593033
31
0
39
0
210
0
220
0
230
1
0
LINE
5
165
100
AcDbEntity
8
1
62
256
6
ByLayer
370
18
48
1
60
0
100
AcDbLine
10
2.69198
20
34.629321
30
0
11
2.69198
21
34.788974
31
0
39
0
210
0
220
0
230
1
0
LINE
5
166
100
AcDbEntity
8
1
62
256
6
ByLayer
370
18
48
1
60
0
100
AcDbLine
10
2.35
20
35.176164
30
0
11
2.35
21
20.733194
31
0
39
0
210
0
220
0
230
1
0
LINE
5
167
100
AcDbEntity
8
1
62
256
6
ByLayer
370
18
48
1
60
0
100
AcDbLine
10
2.73
20
20.013854
30
0
11
2.73
21
20.149096
31
0
39
0
210
0
220
0
230
1
0
LINE
5
168
100
AcDbEntity
8
1
62
256
6
ByLayer
370
18
48
1
60
0
100
AcDbLine
10
2.35
20
35.176164
30
0
11
2.35
21
43.077372
31
0
39
0
210
0
220
0
230
1
0
LINE
5
169
100
AcDbEntity
8
1
62
256
6
ByLayer
370
13
48
1
60
0
100
AcDbLine
10
2.35
20
20.733194
30
0
11
2.73
21
20.013854
31
0
39
0
210
0
220
0
230
1
0
LINE
5
16A
100
AcDbEntity
8
1
62
256
6
ByLayer
370
13
48
1
60
0
100
AcDbLine
10
3.35
20
43.930453
30
0
11
3.35
21
35.790925
31
0
39
0
210
0
220
0
230
1
0
LINE
5
16B
100
AcDbEntity
8
1
62
256
6
ByLayer
370
18
48
1
60
0
100
AcDbLine
10
16.15
20
7.889514
30
0
11
16.15
21
7.634948
31
0
39
0
210
0
220
0
230
1
0
LINE
5
16C
100
AcDbEntity
8
1
62
256
6
ByLayer
370
18
48
1
60
0
100
AcDbLine
10
2.35
20
7.634948
30
0
11
2.35
21
7.889514
31
0
39
0
210
0
220
0
230
1
0
LINE
5
16D
100
AcDbEntity
8
1
62
256
6
ByLayer
370
18
48
1
60
0
100
AcDbLine
10
2.35
20
7.889514
30
0
11
16.15
21
7.889514
31
0
39
0
210
0
220
0
230
1
0
LINE
5
16E
100
AcDbEntity
8
1
62
256
6
ByLayer
370
18
48
1
60
0
100
AcDbLine
10
11.55
20
7.634948
30
0
11
14.35
21
7.634948
31
0
39
0
210
0
220
0
230
1
0
LINE
5
16F
100
AcDbEntity
8
1
62
256
6
ByLayer
370
13
48
1
60
0
100
AcDbLine
10
11.55
20
7.634948
30
0
11
11.55
21
4.934004
31
0
39
0
210
0
220
0
230
1
0
LINE
5
170
100
AcDbEntity
8
1
62
256
6
ByLayer
370
13
48
1
60
0
100
AcDbLine
10
14.35
20
4.930533
30
0
11
14.35
21
7.634948
31
0
39
0
210
0
220
0
230
1
0
LINE
5
171
100
AcDbEntity
8
1
62
256
6
ByLayer
370
18
48
1
60
0
100
AcDbLine
10
15.934483
20
-10.948934
30
0
11
15.83652
21
-11.155721
31
0
39
0
210
0
220
0
230
1
0
LINE
5
172
100
AcDbEntity
8
1
62
256
6
ByLayer
370
18
48
1
60
0
100
AcDbLine
10
2.66348
20
-11.155721
30
0
11
2.565517
21
-10.948934
31
0
39
0
210
0
220
0
230
1
0
LINE
5
173
100
AcDbEntity
8
1
62
256
6
ByLayer
370
18
48
1
60
0
100
AcDbLine
10
2.42788
20
43.661032
30
0
11
2.66348
21
44.158348
31
0
39
0
210
0
220
0
230
1
0
LINE
5
174
100
AcDbEntity
8
1
62
256
6
ByLayer
370
18
48
1
60
0
100
AcDbLine
10
14.45
20
7.549688
30
0
11
14.45
21
5.319761
31
0
39
0
210
0
220
0
230
1
0
LINE
5
175
100
AcDbEntity
8
1
62
256
6
ByLayer
370
18
48
1
60
0
100
AcDbLine
10
11.45
20
5.319761
30
0
11
11.45
21
7.549688
31
0
39
0
210
0
220
0
230
1
0
LINE
5
176
100
AcDbEntity
8
1
62
256
6
ByLayer
370
13
48
1
60
0
100
AcDbLine
10
2.66348
20
-11.155721
30
0
11
15.83652
21
-11.155721
31
0
39
0
210
0
220
0
230
1
0
LINE
5
177
100
AcDbEntity
8
1
62
256
6
ByLayer
370
13
48
1
60
0
100
AcDbLine
10
15.679196
20
-10.658405
30
0
11
2.820804
21
-10.658405
31
0
39
0
210
0
220
0
230
1
0
LINE
5
178
100
AcDbEntity
8
1
62
256
6
ByLayer
370
18
48
1
60
0
100
AcDbLine
10
2.35
20
7.634948
30
0
11
11.55
21
7.634948
31
0
39
0
210
0
220
0
230
1
0
LINE
5
179
100
AcDbEntity
8
1
62
256
6
ByLayer
370
18
48
1
60
0
100
AcDbLine
10
2.35
20
3.938365
30
0
11
2.35
21
7.634948
31
0
39
0
210
0
220
0
230
1
0
LINE
5
17A
100
AcDbEntity
8
1
62
256
6
ByLayer
370
18
48
1
60
0
100
AcDbLine
10
16.15
20
7.634948
30
0
11
16.15
21
3.938365
31
0
39
0
210
0
220
0
230
1
0
LINE
5
17B
100
AcDbEntity
8
1
62
256
6
ByLayer
370
18
48
1
60
0
100
AcDbLine
10
14.35
20
7.634948
30
0
11
16.15
21
7.634948
31
0
39
0
210
0
220
0
230
1
0
LINE
5
17C
100
AcDbEntity
8
1
62
256
6
ByLayer
370
18
48
1
60
0
100
AcDbLine
10
2.35
20
-10.223685
30
0
11
2.35
21
3.938365
31
0
39
0
210
0
220
0
230
1
0
LINE
5
17D
100
AcDbEntity
8
1
62
256
6
ByLayer
370
18
48
1
60
0
100
AcDbLine
10
16.15
20
3.938365
30
0
11
16.15
21
-10.223685
31
0
39
0
210
0
220
0
230
1
0
LINE
5
17E
100
AcDbEntity
8
1
62
256
6
ByLayer
370
18
48
1
60
0
100
AcDbLine
10
15.15
20
3.901482
30
0
11
3.35
21
3.901482
31
0
39
0
210
0
220
0
230
1
0
LINE
5
17F
100
AcDbEntity
8
1
62
256
6
ByLayer
370
18
48
1
60
0
100
AcDbLine
10
15.15
20
-10.61716
30
0
11
3.35
21
-10.61716
31
0
39
0
210
0
220
0
230
1
0
LINE
5
180
100
AcDbEntity
8
1
62
256
6
ByLayer
370
13
48
1
60
0
100
AcDbLine
10
15.15
20
-10.61716
30
0
11
15.15
21
3.901482
31
0
39
0
210
0
220
0
230
1
0
LINE
5
181
100
AcDbEntity
8
1
62
256
6
ByLayer
370
13
48
1
60
0
100
AcDbLine
10
3.35
20
3.901482
30
0
11
3.35
21
-10.61716
31
0
39
0
210
0
220
0
230
1
0
LINE
5
182
100
AcDbEntity
8
1
62
256
6
ByLayer
370
13
48
1
60
0
100
AcDbLine
10
11.95
20
10.093646
30
0
11
11.95
21
9.114871
31
0
39
0
210
0
220
0
230
1
0
LINE
5
183
100
AcDbEntity
8
80
62
256
6
ByLayer
370
18
48
1
60
0
100
AcDbLine
10
0
20
0
30
0
11
-5
21
0
31
0
39
0
210
0
220
0
230
1
0
LINE
5
184
100
AcDbEntity
8
4
62
256
6
ByLayer
370
18
48
0.05
60
0
100
AcDbLine
10
0
20
0
30
0
11
19.75
21
0
31
0
39
0
210
0
220
0
230
1
0
LINE
5
186
100
AcDbEntity
8
SK4
62
256
6
ByLayer
370
18
48
0.05
60
0
100
AcDbLine
10
-3
20
0
30
0
11
19.75
21
0
31
0
39
0
210
0
220
0
230
1
0
LINE
5
188
100
AcDbEntity
8
1
62
256
6
ByLayer
370
18
48
1
60
0
100
AcDbLine
10
2.675983
20
21.041384
30
0
11
15.824017
21
21.041384
31
0
39
0
210
0
220
0
230
1
0
LINE
5
189
100
AcDbEntity
8
1
62
256
6
ByLayer
370
18
48
1
60
0
100
AcDbLine
10
2.675983
20
22.083371
30
0
11
15.824017
21
22.083371
31
0
39
0
210
0
220
0
230
1
0
LINE
5
18A
100
AcDbEntity
8
1
62
256
6
ByLayer
370
18
48
1
60
0
100
AcDbLine
10
2.675983
20
23.125359
30
0
11
15.824017
21
23.125359
31
0
39
0
210
0
220
0
230
1
0
LINE
5
18B
100
AcDbEntity
8
1
62
256
6
ByLayer
370
18
48
1
60
0
100
AcDbLine
10
2.675983
20
24.167347
30
0
11
15.824017
21
24.167347
31
0
39
0
210
0
220
0
230
1
0
LINE
5
18C
100
AcDbEntity
8
1
62
256
6
ByLayer
370
18
48
1
60
0
100
AcDbLine
10
2.675983
20
25.209334
30
0
11
15.824017
21
25.209334
31
0
39
0
210
0
220
0
230
1
0
LINE
5
18D
100
AcDbEntity
8
1
62
256
6
ByLayer
370
18
48
1
60
0
100
AcDbLine
10
18.5
20
23.1
30
0
11
18.1
21
23.5
31
0
39
0
210
0
220
0
230
1
0
LINE
5
18E
100
AcDbEntity
8
1
62
256
6
ByLayer
370
18
48
1
60
0
100
AcDbLine
10
18.1
20
-23.5
30
0
11
18.5
21
-23.1
31
0
39
0
210
0
220
0
230
1
0
LINE
5
18F
100
AcDbEntity
8
1
62
256
6
ByLayer
370
18
48
1
60
0
100
AcDbLine
10
0
20
-23.1
30
0
11
0.4
21
-23.5
31
0
39
0
210
0
220
0
230
1
0
LINE
5
190
100
AcDbEntity
8
1
62
256
6
ByLayer
370
18
48
1
60
0
100
AcDbLine
10
0.4
20
23.5
30
0
11
0
21
23.1
31
0
39
0
210
0
220
0
230
1
0
LINE
5
191
100
AcDbEntity
8
1
62
256
6
ByLayer
370
18
48
1
60
0
100
AcDbLine
10
16.95
20
-23.5
30
0
11
18.1
21
-23.5
31
0
39
0
210
0
220
0
230
1
0
LINE
5
192
100
AcDbEntity
8
1
62
256
6
ByLayer
370
18
48
1
60
0
100
AcDbLine
10
18.1
20
23.5
30
0
11
16.95
21
23.5
31
0
39
0
210
0
220
0
230
1
0
LINE
5
193
100
AcDbEntity
8
1
62
256
6
ByLayer
370
18
48
1
60
0
100
AcDbLine
10
0.4
20
-23.5
30
0
11
1.55
21
-23.5
31
0
39
0
210
0
220
0
230
1
0
LINE
5
194
100
AcDbEntity
8
1
62
256
6
ByLayer
370
18
48
1
60
0
100
AcDbLine
10
1.55
20
23.5
30
0
11
0.4
21
23.5
31
0
39
0
210
0
220
0
230
1
0
LINE
5
195
100
AcDbEntity
8
1
62
256
6
ByLayer
370
18
48
1
60
0
100
AcDbLine
10
2.675983
20
26.251322
30
0
11
15.824017
21
26.251322
31
0
39
0
210
0
220
0
230
1
0
LINE
5
196
100
AcDbEntity
8
1
62
256
6
ByLayer
370
18
48
1
60
0
100
AcDbLine
10
2.675983
20
27.293309
30
0
11
15.824017
21
27.293309
31
0
39
0
210
0
220
0
230
1
0
LINE
5
197
100
AcDbEntity
8
1
62
256
6
ByLayer
370
18
48
1
60
0
100
AcDbLine
10
2.675983
20
28.335297
30
0
11
15.824017
21
28.335297
31
0
39
0
210
0
220
0
230
1
0
LINE
5
198
100
AcDbEntity
8
1
62
256
6
ByLayer
370
18
48
1
60
0
100
AcDbLine
10
2.675983
20
29.377284
30
0
11
15.824017
21
29.377284
31
0
39
0
210
0
220
0
230
1
0
LINE
5
199
100
AcDbEntity
8
1
62
256
6
ByLayer
370
18
48
1
60
0
100
AcDbLine
10
2.675983
20
30.419272
30
0
11
15.824017
21
30.419272
31
0
39
0
210
0
220
0
230
1
0
LINE
5
19A
100
AcDbEntity
8
1
62
256
6
ByLayer
370
18
48
1
60
0
100
AcDbLine
10
2.675983
20
31.461259
30
0
11
15.824017
21
31.461259
31
0
39
0
210
0
220
0
230
1
0
LINE
5
19B
100
AcDbEntity
8
1
62
256
6
ByLayer
370
18
48
1
60
0
100
AcDbLine
10
2.675983
20
32.503247
30
0
11
15.824017
21
32.503247
31
0
39
0
210
0
220
0
230
1
0
LINE
5
19C
100
AcDbEntity
8
1
62
256
6
ByLayer
370
18
48
1
60
0
100
AcDbLine
10
2.675983
20
33.545235
30
0
11
15.824017
21
33.545235
31
0
39
0
210
0
220
0
230
1
0
LINE
5
19D
100
AcDbEntity
8
1
62
256
6
ByLayer
370
18
48
1
60
0
100
AcDbLine
10
2.675983
20
34.587222
30
0
11
15.824017
21
34.587222
31
0
39
0
210
0
220
0
230
1
0
LINE
5
19E
100
AcDbEntity
8
1
62
256
6
ByLayer
370
18
48
1
60
0
100
AcDbLine
10
2.689772
20
-11.19782
30
0
11
15.810228
21
-11.19782
31
0
39
0
210
0
220
0
230
1
0
LINE
5
19F
100
AcDbEntity
8
81
62
256
6
ByLayer
370
18
48
1
60
0
100
AcDbLine
10
16.75
20
50
30
0
11
21.75
21
50
31
0
39
0
210
0
220
0
230
1
0
LINE
5
1A0
100
AcDbEntity
8
SK2
62
256
6
ByLayer
370
13
48
1
60
0
100
AcDbLine
10
17.315685
20
-50.565685
30
0
11
23.326093
21
-56.576093
31
0
39
0
210
0
220
0
230
1
0
LINE
5
1A2
100
AcDbEntity
8
1
62
256
6
ByLayer
370
18
48
1
60
1
100
AcDbLine
10
17.315685
20
-50.565685
30
0
11
20.116381
21
-52.714735
31
0
39
0
210
0
220
0
230
1
0
LINE
5
1A3
100
AcDbEntity
8
1
62
256
6
ByLayer
370
18
48
1
60
1
100
AcDbLine
10
20.116381
20
-52.714735
30
0
11
19.464737
21
-53.366384
31
0
39
0
210
0
220
0
230
1
0
LINE
5
1A4
100
AcDbEntity
8
1
62
256
6
ByLayer
370
18
48
1
60
1
100
AcDbLine
10
19.464737
20
-53.366384
30
0
11
17.315685
21
-50.565685
31
0
39
0
210
0
220
0
230
1
0
LINE
5
1A5
100
AcDbEntity
8
2
62
256
6
ByLayer
370
13
48
1
60
0
100
AcDbLine
10
50.1
20
50
30
0
11
50.1
21
-50
31
0
39
0
210
0
220
0
230
1
0
LINE
5
1A7
100
AcDbEntity
8
2
62
256
6
ByLayer
370
13
48
1
60
0
100
AcDbLine
10
18.3375
20
-50
30
0
11
52.1
21
-50
31
0
39
0
210
0
220
0
230
1
0
LINE
5
1A8
100
AcDbEntity
8
2
62
256
6
ByLayer
370
13
48
1
60
0
100
AcDbLine
10
18.3375
20
50
30
0
11
52.1
21
50
31
0
39
0
210
0
220
0
230
1
0
LINE
5
1A9
100
AcDbEntity
8
1
62
256
6
ByLayer
370
18
48
1
60
1
100
AcDbLine
10
50.1
20
-50
30
0
11
49.639216
21
-46.500002
31
0
39
0
210
0
220
0
230
1
0
LINE
5
1AA
100
AcDbEntity
8
1
62
256
6
ByLayer
370
18
48
1
60
1
100
AcDbLine
10
49.639216
20
-46.500002
30
0
11
50.560784
21
-46.499998
31
0
39
0
210
0
220
0
230
1
0
LINE
5
1AB
100
AcDbEntity
8
1
62
256
6
ByLayer
370
18
48
1
60
1
100
AcDbLine
10
50.560784
20
-46.499998
30
0
11
50.1
21
-50
31
0
39
0
210
0
220
0
230
1
0
LINE
5
1AC
100
AcDbEntity
8
1
62
256
6
ByLayer
370
18
48
1
60
1
100
AcDbLine
10
50.1
20
50
30
0
11
50.560784
21
46.500002
31
0
39
0
210
0
220
0
230
1
0
LINE
5
1AD
100
AcDbEntity
8
1
62
256
6
ByLayer
370
18
48
1
60
1
100
AcDbLine
10
50.560784
20
46.500002
30
0
11
49.639216
21
46.499998
31
0
39
0
210
0
220
0
230
1
0
LINE
5
1AE
100
AcDbEntity
8
1
62
256
6
ByLayer
370
18
48
1
60
1
100
AcDbLine
10
49.639216
20
46.499998
30
0
11
50.1
21
50
31
0
39
0
210
0
220
0
230
1
0
LINE
5
1AF
100
AcDbEntity
8
SK2
62
256
6
ByLayer
370
13
48
1
60
0
100
AcDbLine
10
-14.35
20
16
30
0
11
-14.35
21
-16
31
0
39
0
210
0
220
0
230
1
0
LINE
5
1B0
100
AcDbEntity
8
SK2
62
256
6
ByLayer
370
13
48
1
60
0
100
AcDbLine
10
-1.5875
20
-16
30
0
11
-16.35
21
-16
31
0
39
0
210
0
220
0
230
1
0
LINE
5
1B1
100
AcDbEntity
8
SK2
62
256
6
ByLayer
370
13
48
1
60
0
100
AcDbLine
10
-1.5875
20
16
30
0
11
-16.35
21
16
31
0
39
0
210
0
220
0
230
1
0
LINE
5
1B2
100
AcDbEntity
8
1
62
256
6
ByLayer
370
18
48
1
60
1
100
AcDbLine
10
-14.35
20
-16
30
0
11
-14.810784
21
-12.500002
31
0
39
0
210
0
220
0
230
1
0
LINE
5
1B3
100
AcDbEntity
8
1
62
256
6
ByLayer
370
18
48
1
60
1
100
AcDbLine
10
-14.810784
20
-12.500002
30
0
11
-13.889216
21
-12.499998
31
0
39
0
210
0
220
0
230
1
0
LINE
5
1B4
100
AcDbEntity
8
1
62
256
6
ByLayer
370
18
48
1
60
1
100
AcDbLine
10
-13.889216
20
-12.499998
30
0
11
-14.35
21
-16
31
0
39
0
210
0
220
0
230
1
0
LINE
5
1B5
100
AcDbEntity
8
1
62
256
6
ByLayer
370
18
48
1
60
1
100
AcDbLine
10
-14.35
20
16
30
0
11
-13.889216
21
12.500002
31
0
39
0
210
0
220
0
230
1
0
LINE
5
1B6
100
AcDbEntity
8
1
62
256
6
ByLayer
370
18
48
1
60
1
100
AcDbLine
10
-13.889216
20
12.500002
30
0
11
-14.810784
21
12.499998
31
0
39
0
210
0
220
0
230
1
0
LINE
5
1B7
100
AcDbEntity
8
1
62
256
6
ByLayer
370
18
48
1
60
1
100
AcDbLine
10
-14.810784
20
12.499998
30
0
11
-14.35
21
16
31
0
39
0
210
0
220
0
230
1
0
LINE
5
1B8
100
AcDbEntity
8
SK2
62
256
6
ByLayer
370
13
48
1
60
0
100
AcDbLine
10
-29.35
20
23.5
30
0
11
-29.35
21
-23.5
31
0
39
0
210
0
220
0
230
1
0
LINE
5
1B9
100
AcDbEntity
8
SK2
62
256
6
ByLayer
370
13
48
1
60
0
100
AcDbLine
10
-1.5875
20
-23.5
30
0
11
-31.35
21
-23.5
31
0
39
0
210
0
220
0
230
1
0
LINE
5
1BA
100
AcDbEntity
8
SK2
62
256
6
ByLayer
370
13
48
1
60
0
100
AcDbLine
10
-1.5875
20
23.5
30
0
11
-31.35
21
23.5
31
0
39
0
210
0
220
0
230
1
0
LINE
5
1BB
100
AcDbEntity
8
1
62
256
6
ByLayer
370
18
48
1
60
1
100
AcDbLine
10
-29.35
20
-23.5
30
0
11
-29.810784
21
-20.000002
31
0
39
0
210
0
220
0
230
1
0
LINE
5
1BC
100
AcDbEntity
8
1
62
256
6
ByLayer
370
18
48
1
60
1
100
AcDbLine
10
-29.810784
20
-20.000002
30
0
11
-28.889216
21
-19.999998
31
0
39
0
210
0
220
0
230
1
0
LINE
5
1BD
100
AcDbEntity
8
1
62
256
6
ByLayer
370
18
48
1
60
1
100
AcDbLine
10
-28.889216
20
-19.999998
30
0
11
-29.35
21
-23.5
31
0
39
0
210
0
220
0
230
1
0
LINE
5
1BE
100
AcDbEntity
8
1
62
256
6
ByLayer
370
18
48
1
60
1
100
AcDbLine
10
-29.35
20
23.5
30
0
11
-28.889216
21
20.000002
31
0
39
0
210
0
220
0
230
1
0
LINE
5
1BF
100
AcDbEntity
8
1
62
256
6
ByLayer
370
18
48
1
60
1
100
AcDbLine
10
-28.889216
20
20.000002
30
0
11
-29.810784
21
19.999998
31
0
39
0
210
0
220
0
230
1
0
LINE
5
1C0
100
AcDbEntity
8
1
62
256
6
ByLayer
370
18
48
1
60
1
100
AcDbLine
10
-29.810784
20
19.999998
30
0
11
-29.35
21
23.5
31
0
39
0
210
0
220
0
230
1
0
LINE
5
273
100
AcDbEntity
8
1
62
256
6
ByLayer
370
18
48
1
60
1
100
AcDbLine
10
17.315685
20
-50.565685
30
0
11
20.116381
21
-52.714735
31
0
39
0
210
0
220
0
230
1
0
LINE
5
274
100
AcDbEntity
8
1
62
256
6
ByLayer
370
18
48
1
60
1
100
AcDbLine
10
20.116381
20
-52.714735
30
0
11
19.464737
21
-53.366384
31
0
39
0
210
0
220
0
230
1
0
LINE
5
275
100
AcDbEntity
8
1
62
256
6
ByLayer
370
18
48
1
60
1
100
AcDbLine
10
19.464737
20
-53.366384
30
0
11
17.315685
21
-50.565685
31
0
39
0
210
0
220
0
230
1
0
LINE
5
279
100
AcDbEntity
8
1
62
256
6
ByLayer
370
18
48
1
60
1
100
AcDbLine
10
50.1
20
-50
30
0
11
49.639216
21
-46.500002
31
0
39
0
210
0
220
0
230
1
0
LINE
5
27A
100
AcDbEntity
8
1
62
256
6
ByLayer
370
18
48
1
60
1
100
AcDbLine
10
49.639216
20
-46.500002
30
0
11
50.560784
21
-46.499998
31
0
39
0
210
0
220
0
230
1
0
LINE
5
27B
100
AcDbEntity
8
1
62
256
6
ByLayer
370
18
48
1
60
1
100
AcDbLine
10
50.560784
20
-46.499998
30
0
11
50.1
21
-50
31
0
39
0
210
0
220
0
230
1
0
LINE
5
27D
100
AcDbEntity
8
1
62
256
6
ByLayer
370
18
48
1
60
1
100
AcDbLine
10
50.1
20
50
30
0
11
50.560784
21
46.500002
31
0
39
0
210
0
220
0
230
1
0
LINE
5
27E
100
AcDbEntity
8
1
62
256
6
ByLayer
370
18
48
1
60
1
100
AcDbLine
10
50.560784
20
46.500002
30
0
11
49.639216
21
46.499998
31
0
39
0
210
0
220
0
230
1
0
LINE
5
27F
100
AcDbEntity
8
1
62
256
6
ByLayer
370
18
48
1
60
1
100
AcDbLine
10
49.639216
20
46.499998
30
0
11
50.1
21
50
31
0
39
0
210
0
220
0
230
1
0
LINE
5
283
100
AcDbEntity
8
1
62
256
6
ByLayer
370
18
48
1
60
1
100
AcDbLine
10
-14.35
20
-16
30
0
11
-14.810784
21
-12.500002
31
0
39
0
210
0
220
0
230
1
0
LINE
5
284
100
AcDbEntity
8
1
62
256
6
ByLayer
370
18
48
1
60
1
100
AcDbLine
10
-14.810784
20
-12.500002
30
0
11
-13.889216
21
-12.499998
31
0
39
0
210
0
220
0
230
1
0
LINE
5
285
100
AcDbEntity
8
1
62
256
6
ByLayer
370
18
48
1
60
1
100
AcDbLine
10
-13.889216
20
-12.499998
30
0
11
-14.35
21
-16
31
0
39
0
210
0
220
0
230
1
0
LINE
5
287
100
AcDbEntity
8
1
62
256
6
ByLayer
370
18
48
1
60
1
100
AcDbLine
10
-14.35
20
16
30
0
11
-13.889216
21
12.500002
31
0
39
0
210
0
220
0
230
1
0
LINE
5
288
100
AcDbEntity
8
1
62
256
6
ByLayer
370
18
48
1
60
1
100
AcDbLine
10
-13.889216
20
12.500002
30
0
11
-14.810784
21
12.499998
31
0
39
0
210
0
220
0
230
1
0
LINE
5
289
100
AcDbEntity
8
1
62
256
6
ByLayer
370
18
48
1
60
1
100
AcDbLine
10
-14.810784
20
12.499998
30
0
11
-14.35
21
16
31
0
39
0
210
0
220
0
230
1
0
LINE
5
28D
100
AcDbEntity
8
1
62
256
6
ByLayer
370
18
48
1
60
1
100
AcDbLine
10
-29.35
20
-23.5
30
0
11
-29.810784
21
-20.000002
31
0
39
0
210
0
220
0
230
1
0
LINE
5
28E
100
AcDbEntity
8
1
62
256
6
ByLayer
370
18
48
1
60
1
100
AcDbLine
10
-29.810784
20
-20.000002
30
0
11
-28.889216
21
-19.999998
31
0
39
0
210
0
220
0
230
1
0
LINE
5
28F
100
AcDbEntity
8
1
62
256
6
ByLayer
370
18
48
1
60
1
100
AcDbLine
10
-28.889216
20
-19.999998
30
0
11
-29.35
21
-23.5
31
0
39
0
210
0
220
0
230
1
0
LINE
5
291
100
AcDbEntity
8
1
62
256
6
ByLayer
370
18
48
1
60
1
100
AcDbLine
10
-29.35
20
23.5
30
0
11
-28.889216
21
20.000002
31
0
39
0
210
0
220
0
230
1
0
LINE
5
292
100
AcDbEntity
8
1
62
256
6
ByLayer
370
18
48
1
60
1
100
AcDbLine
10
-28.889216
20
20.000002
30
0
11
-29.810784
21
19.999998
31
0
39
0
210
0
220
0
230
1
0
LINE
5
293
100
AcDbEntity
8
1
62
256
6
ByLayer
370
18
48
1
60
1
100
AcDbLine
10
-29.810784
20
19.999998
30
0
11
-29.35
21
23.5
31
0
39
0
210
0
220
0
230
1
0
MTEXT
5
26F
100
AcDbEntity
8
SK2
62
256
6
ByLayer
370
13
48
1
60
0
100
AcDbMText
10
22.716192
20
-59.335314
30
0
210
0
220
0
230
1
1
\W0.6380;R
40
3.5
41
0
44
1.084337
50
315
71
7
72
5
7
iso_b_vert
0
MTEXT
5
272
100
AcDbEntity
8
SK2
62
256
6
ByLayer
370
13
48
1
60
0
100
AcDbMText
10
25.321174
20
-61.940295
30
0
210
0
220
0
230
1
1
\W0.7121;0.8
40
3.5
41
0
44
1.084337
50
315
71
7
72
5
7
iso_b_vert
0
MTEXT
5
277
100
AcDbEntity
8
2
62
256
6
ByLayer
370
18
48
1
60
0
100
AcDbMText
10
48.311847
20
-6.172483
30
0
210
0
220
0
230
1
1
%%c
40
4
41
0
44
1.084337
50
90
71
7
72
5
7
iso_b_vert
0
MTEXT
5
278
100
AcDbEntity
8
2
62
256
6
ByLayer
370
18
48
1
60
0
100
AcDbMText
10
48.311847
20
1.796267
30
0
210
0
220
0
230
1
1
\W0.6217;100
40
4
41
0
44
1.084337
50
90
71
7
72
5
7
iso_b_vert
0
MTEXT
5
281
100
AcDbEntity
8
SK2
62
256
6
ByLayer
370
18
48
1
60
0
100
AcDbMText
10
-16.138153
20
-7.482692
30
0
210
0
220
0
230
1
1
%%c
40
4
41
0
44
1.084337
50
90
71
7
72
5
7
iso_b_vert
0
MTEXT
5
282
100
AcDbEntity
8
SK2
62
256
6
ByLayer
370
18
48
1
60
0
100
AcDbMText
10
-16.138153
20
0.486058
30
0
210
0
220
0
230
1
1
\W0.7346;32.0
40
4
41
0
44
1.084337
50
90
71
7
72
5
7
iso_b_vert
0
MTEXT
5
28B
100
AcDbEntity
8
SK2
62
256
6
ByLayer
370
18
48
1
60
0
100
AcDbMText
10
-31.138153
20
-5.388445
30
0
210
0
220
0
230
1
1
%%c
40
4
41
0
44
1.084337
50
90
71
7
72
5
7
iso_b_vert
0
MTEXT
5
28C
100
AcDbEntity
8
SK2
62
256
6
ByLayer
370
18
48
1
60
0
100
AcDbMText
10
-31.138153
20
2.580305
30
0
210
0
220
0
230
1
1
\W0.7361;47
40
4
41
0
44
1.084337
50
90
71
7
72
5
7
iso_b_vert
0
MTEXT
5
295
100
AcDbEntity
8
SK6
62
256
6
ByLayer
370
13
48
1
60
0
100
AcDbMText
10
8.5605
20
-87.452091
30
0
210
0
220
0
230
1
1
\W0.7492;R331.52C-100S32KM
40
3.5
41
0
44
1.084337
50
0
71
7
72
5
7
iso_b_vert
0
HATCH
5
276
100
AcDbEntity
8
SK2
62
256
6
ByLayer
370
13
48
1
60
0
100
AcDbHatch
10
0
20
0
30
0
210
0
220
0
230
1
2
ANSI31
70
0
71
0
91
1
92
5
93
3
72
1
10
17.3156854249493
20
-50.5656854249493
11
20.1163812705988
21
-52.7147346539739
72
1
10
20.1163812705988
20
-52.7147346539739
11
19.4647370476056
21
-53.3663836642305
72
1
10
19.4647370476056
20
-53.3663836642305
11
17.3156854249493
21
-50.5656854249493
97
0
75
0
76
1
52
0
41
0.0062
77
0
78
1
53
44.9999999999999
43
0
44
0
45
-0.0139193969876572
46
0.0139193969876572
79
0
47
0
98
1
10
0
20
0
0
HATCH
5
27C
100
AcDbEntity
8
2
62
256
6
ByLayer
370
13
48
1
60
0
100
AcDbHatch
10
0
20
0
30
0
210
0
220
0
230
1
2
ANSI31
70
0
71
0
91
1
92
5
93
3
72
1
10
50.1
20
-50
11
49.6392162584473
21
-46.5000016925532
72
1
10
49.6392162584473
20
-46.5000016925532
11
50.5607837415528
21
-46.4999983074468
72
1
10
50.5607837415528
20
-46.4999983074468
11
50.1
21
-50
97
0
75
0
76
1
52
0
41
0.0062
77
0
78
1
53
44.9999999999999
43
0
44
0
45
-0.0139193969876572
46
0.0139193969876572
79
0
47
0
98
1
10
0
20
0
0
HATCH
5
280
100
AcDbEntity
8
2
62
256
6
ByLayer
370
13
48
1
60
0
100
AcDbHatch
10
0
20
0
30
0
210
0
220
0
230
1
2
ANSI31
70
0
71
0
91
1
92
5
93
3
72
1
10
50.1
20
50
11
50.5607837415528
21
46.5000016925532
72
1
10
50.5607837415528
20
46.5000016925532
11
49.6392162584473
21
46.4999983074468
72
1
10
49.6392162584473
20
46.4999983074468
11
50.1
21
50
97
0
75
0
76
1
52
0
41
0.0062
77
0
78
1
53
44.9999999999999
43
0
44
0
45
-0.0139193969876572
46
0.0139193969876572
79
0
47
0
98
1
10
0
20
0
0
HATCH
5
286
100
AcDbEntity
8
SK2
62
256
6
ByLayer
370
13
48
1
60
0
100
AcDbHatch
10
0
20
0
30
0
210
0
220
0
230
1
2
ANSI31
70
0
71
0
91
1
92
5
93
3
72
1
10
-14.35
20
-16
11
-14.8107837415528
21
-12.5000016925532
72
1
10
-14.8107837415528
20
-12.5000016925532
11
-13.8892162584473
21
-12.4999983074468
72
1
10
-13.8892162584473
20
-12.4999983074468
11
-14.35
21
-16
97
0
75
0
76
1
52
0
41
0.0062
77
0
78
1
53
44.9999999999999
43
0
44
0
45
-0.0139193969876572
46
0.0139193969876572
79
0
47
0
98
1
10
0
20
0
0
HATCH
5
28A
100
AcDbEntity
8
SK2
62
256
6
ByLayer
370
13
48
1
60
0
100
AcDbHatch
10
0
20
0
30
0
210
0
220
0
230
1
2
ANSI31
70
0
71
0
91
1
92
5
93
3
72
1
10
-14.35
20
16
11
-13.8892162584473
21
12.5000016925532
72
1
10
-13.8892162584473
20
12.5000016925532
11
-14.8107837415528
21
12.4999983074468
72
1
10
-14.8107837415528
20
12.4999983074468
11
-14.35
21
16
97
0
75
0
76
1
52
0
41
0.0062
77
0
78
1
53
44.9999999999999
43
0
44
0
45
-0.0139193969876572
46
0.0139193969876572
79
0
47
0
98
1
10
0
20
0
0
HATCH
5
290
100
AcDbEntity
8
SK2
62
256
6
ByLayer
370
13
48
1
60
0
100
AcDbHatch
10
0
20
0
30
0
210
0
220
0
230
1
2
ANSI31
70
0
71
0
91
1
92
5
93
3
72
1
10
-29.35
20
-23.5
11
-29.8107837415528
21
-20.0000016925532
72
1
10
-29.8107837415528
20
-20.0000016925532
11
-28.8892162584473
21
-19.9999983074468
72
1
10
-28.8892162584473
20
-19.9999983074468
11
-29.35
21
-23.5
97
0
75
0
76
1
52
0
41
0.0062
77
0
78
1
53
44.9999999999999
43
0
44
0
45
-0.0139193969876572
46
0.0139193969876572
79
0
47
0
98
1
10
0
20
0
0
HATCH
5
294
100
AcDbEntity
8
SK2
62
256
6
ByLayer
370
13
48
1
60
0
100
AcDbHatch
10
0
20
0
30
0
210
0
220
0
230
1
2
ANSI31
70
0
71
0
91
1
92
5
93
3
72
1
10
-29.35
20
23.5
11
-28.8892162584473
21
20.0000016925532
72
1
10
-28.8892162584473
20
20.0000016925532
11
-29.8107837415528
21
19.9999983074468
72
1
10
-29.8107837415528
20
19.9999983074468
11
-29.35
21
23.5
97
0
75
0
76
1
52
0
41
0.0062
77
0
78
1
53
44.9999999999999
43
0
44
0
45
-0.0139193969876572
46
0.0139193969876572
79
0
47
0
98
1
10
0
20
0
0
DIMENSION
5
298
100
AcDbEntity
8
SK2
62
256
6
ByLayer
370
13
48
1
60
0
100
AcDbDimension
2
_U0
10
6.15
20
53
30
0
11
-12.659524
21
53
31
0
70
32
71
1
72
1
41
1
210
0
220
0
230
1
3
Standard
100
AcDbAlignedDimension
13
16.75
23
50
33
0
14
6.15
24
50
34
0
50
0
100
AcDbRotatedDimension
1001
ACAD
1000
DSTYLE
1002
{
1070
   371
1070
    13
1070
   372
1070
    13
1070
     3
1000

1070
   170
1070
     0
1070
   144
1040
1.0
1070
   277
1070
     2
1070
   284
1070
     8
1070
   278
1070
    46
1070
   146
1040
0.875
1070
   345
1005
16
1070
   347
1005
16
1070
   346
1005
16
1070
   344
1005
0
1070
   343
1005
0
1070
   172
1070
     1
1070
    76
1070
     0
1070
    75
1070
     0
1070
   282
1070
     0
1070
   281
1070
     0
1070
    71
1070
     0
1070
    74
1070
     0
1070
   279
1070
     0
1070
   173
1070
     1
1070
   340
1005
270
1070
   271
1070
     2
1070
   272
1070
     2
1070
    77
1070
     1
1070
    73
1070
     1
1070
   171
1070
     3
1070
   274
1070
     4
1070
   177
1070
     2
1070
   176
1070
     2
1070
   178
1070
     2
1070
    78
1070
     8
1070
    48
1040
-0.1
1070
    41
1040
3.5
1070
   147
1040
2.0
1070
    42
1040
1.5875
1070
    44
1040
2.0
1070
   140
1040
4.0
1002
}
1001
ACAD_DSTYLE_DIM_LINETYPE
1070
   380
1005
16
1001
ACAD_DSTYLE_DIM_EXT1_LINETYPE
1070
   381
1005
16
1001
ACAD_DSTYLE_DIM_EXT2_LINETYPE
1070
   382
1005
16
0
DIMENSION
5
2B3
100
AcDbEntity
8
SK2
62
256
6
ByLayer
370
13
48
1
60
0
100
AcDbDimension
2
_U1
10
18.5
20
-64
30
0
11
-20.305982
21
-64
31
0
70
32
71
1
72
1
41
1
210
0
220
0
230
1
3
Standard
100
AcDbAlignedDimension
13
0
23
-23.5
33
0
14
18.5
24
-23.5
34
0
50
0
100
AcDbRotatedDimension
1001
ACAD
1000
DSTYLE
1002
{
1070
   371
1070
    13
1070
   372
1070
    13
1070
   170
1070
     0
1070
   144
1040
1.0
1070
   277
1070
     2
1070
   284
1070
     8
1070
   278
1070
    46
1070
   146
1040
0.875
1070
   345
1005
16
1070
   347
1005
16
1070
   346
1005
16
1070
   344
1005
0
1070
   343
1005
0
1070
   172
1070
     1
1070
    76
1070
     0
1070
    75
1070
     0
1070
   282
1070
     0
1070
   281
1070
     0
1070
    71
1070
     0
1070
    74
1070
     0
1070
   279
1070
     0
1070
   173
1070
     1
1070
   340
1005
270
1070
   271
1070
     2
1070
   272
1070
     2
1070
    77
1070
     1
1070
    73
1070
     1
1070
   171
1070
     3
1070
   274
1070
     4
1070
   177
1070
     2
1070
   176
1070
     2
1070
   178
1070
     2
1070
    78
1070
     8
1070
    48
1040
-0.1
1070
    41
1040
3.5
1070
   147
1040
2.0
1070
    42
1040
1.5875
1070
    44
1040
2.0
1070
   140
1040
4.0
1002
}
1001
ACAD_DSTYLE_DIM_LINETYPE
1070
   380
1005
16
1001
ACAD_DSTYLE_DIM_EXT1_LINETYPE
1070
   381
1005
16
1001
ACAD_DSTYLE_DIM_EXT2_LINETYPE
1070
   382
1005
16
0
DIMENSION
5
2CD
100
AcDbEntity
8
SK2
62
256
6
ByLayer
370
13
48
1
60
0
100
AcDbDimension
2
_U2
10
2.35
20
66.35
30
0
11
9.55
21
66.35
31
0
70
32
71
1
72
1
41
1
210
0
220
0
230
1
3
Standard
100
AcDbAlignedDimension
13
16.75
23
50
33
0
14
2.35
24
50
34
0
50
0
100
AcDbRotatedDimension
1001
ACAD
1000
DSTYLE
1002
{
1070
   371
1070
    13
1070
   372
1070
    13
1070
   170
1070
     0
1070
   144
1040
1.0
1070
   277
1070
     2
1070
   284
1070
     8
1070
   278
1070
    46
1070
   146
1040
0.875
1070
   345
1005
16
1070
   347
1005
16
1070
   346
1005
16
1070
   344
1005
0
1070
   343
1005
0
1070
   172
1070
     1
1070
    76
1070
     0
1070
    75
1070
     0
1070
   282
1070
     0
1070
   281
1070
     0
1070
    71
1070
     0
1070
    74
1070
     0
1070
   279
1070
     0
1070
   173
1070
     1
1070
   340
1005
270
1070
   271
1070
     2
1070
   272
1070
     2
1070
    77
1070
     1
1070
    73
1070
     1
1070
   171
1070
     3
1070
   274
1070
     4
1070
   177
1070
     2
1070
   176
1070
     2
1070
   178
1070
     2
1070
    78
1070
     8
1070
    48
1040
-0.1
1070
    41
1040
3.5
1070
   147
1040
2.0
1070
    42
1040
1.5875
1070
    44
1040
2.0
1070
   140
1040
4.0
1002
}
1001
ACAD_DSTYLE_DIM_LINETYPE
1070
   380
1005
16
1001
ACAD_DSTYLE_DIM_EXT1_LINETYPE
1070
   381
1005
16
1001
ACAD_DSTYLE_DIM_EXT2_LINETYPE
1070
   382
1005
16
0
ENDSEC
0
SECTION
2
OBJECTS
0
DICTIONARY
5
355
330
0
100
AcDbDictionary
280
0
281
1
3
ACAD_GROUP
350
356
3
ACAD_MLINESTYLE
350
357
0
DICTIONARY
5
356
330
0
100
AcDbDictionary
280
0
281
1
0
DICTIONARY
5
357
330
0
100
AcDbDictionary
280
0
281
1
3
Standard
350
18
0
MLINESTYLE
5
18
330
357
100
AcDbMlineStyle
2
Standard
70
0
3

62
256
51
90
52
90
71
2
49
-0.5
62
256
6
ByLayer
49
0.5
62
256
6
ByLayer
0
RASTERVARIABLES
5
344
330

100
AcDbRasterVariables
90
0
70
1
71
1
72
1
0
ENDSEC
0
EOF
