0
SECTION
2
HEADER
9
$ACADVER
1
AC1015
9
$DWGCODEPAGE
3
ANSI_1252
9
$HANDSEED
5
36d
9
$ANGBASE
50
0
9
$ANGDIR
70
0
9
$ATTMODE
70
1
9
$AUNITS
70
0
9
$AUPREC
70
0
9
$CECOLOR
62
256
9
$CELTSCALE
40
1
9
$CELTYPE
6
ByLayer
9
$CELWEIGHT
370
18
9
$CLAYER
8
0
9
$CMLJUST
70
0
9
$CMLSCALE
40
1
9
$CMLSTYLE
2
Standard
9
$DIMSTYLE
2
Standard
9
$TEXTSIZE
40
0.2
9
$TEXTSTYLE
7
Standard
9
$LUNITS
70
2
9
$LUPREC
70
4
9
$EXTNAMES
290
1
9
$INSUNITS
70
4
9
$LTSCALE
40
1
9
$LWDISPLAY
290
1
9
$PDMODE
70
0
9
$PDSIZE
40
0
9
$PLINEGEN
70
0
0
ENDSEC
0
SECTION
2
CLASSES
0
CLASS
1
RASTERVARIABLES
2
AcDbRasterVariables
3
ISM
90
0
280
0
281
0
0
ENDSEC
0
SECTION
2
TABLES
0
TABLE
2
VPORT
5
363
100
AcDbSymbolTable
0
VPORT
5
1
100
AcDbSymbolTableRecord
100
AcDbViewportTableRecord
2
*Active
70
0
10
0
20
0
11
1
21
1
12
-1
22
1
13
0
23
0
14
0.5
24
0.5
15
10
25
10
16
0
26
0
36
1
17
0
27
0
37
0
0
ENDTAB
0
TABLE
2
LTYPE
5
364
100
AcDbSymbolTable
0
LTYPE
5
14
100
AcDbSymbolTableRecord
100
AcDbLinetypeTableRecord
70
0
2
ByBlock
3

72
65
73
0
40
0
0
LTYPE
5
15
100
AcDbSymbolTableRecord
100
AcDbLinetypeTableRecord
70
0
2
ByLayer
3

72
65
73
0
40
0
0
LTYPE
5
16
100
AcDbSymbolTableRecord
100
AcDbLinetypeTableRecord
70
0
2
Continuous
3
Solid line
72
65
73
0
40
0
0
LTYPE
5
6E
100
AcDbSymbolTableRecord
100
AcDbLinetypeTableRecord
70
0
2
CENTER
3
____ _ ____ _ ____ _ ____
72
65
73
4
40
47.5
49
22
74
0
49
-8.5
74
0
49
8.5
74
0
49
-8.5
74
0
0
LTYPE
5
6F
100
AcDbSymbolTableRecord
100
AcDbLinetypeTableRecord
70
0
2
DASHED
3
__ __ __ __ __ __ __ __ __
72
65
73
2
40
25.72
49
12.86
74
0
49
-12.86
74
0
0
ENDTAB
0
TABLE
2
LAYER
5
365
100
AcDbSymbolTable
0
LAYER
5
10
100
AcDbSymbolTableRecord
100
AcDbLayerTableRecord
2
0
70
0
62
7
6
Continuous
290
1
370
-3
390
0
0
LAYER
5
71
100
AcDbSymbolTableRecord
100
AcDbLayerTableRecord
2
80
70
0
62
-6
6
Continuous
290
1
370
-3
390
0
0
LAYER
5
73
100
AcDbSymbolTableRecord
100
AcDbLayerTableRecord
2
81
70
0
62
-3
6
Continuous
290
1
370
-3
390
0
0
LAYER
5
75
100
AcDbSymbolTableRecord
100
AcDbLayerTableRecord
2
1
70
0
62
4
6
Continuous
290
1
370
-3
390
0
0
LAYER
5
172
100
AcDbSymbolTableRecord
100
AcDbLayerTableRecord
2
4
70
0
62
-2
6
CENTER
290
1
370
-3
390
0
0
LAYER
5
194
100
AcDbSymbolTableRecord
100
AcDbLayerTableRecord
2
2
70
0
62
7
6
Continuous
290
1
370
-3
390
0
0
LAYER
5
2A6
100
AcDbSymbolTableRecord
100
AcDbLayerTableRecord
2
Defpoints
70
0
62
7
6
Continuous
290
0
370
-3
390
0
0
LAYER
5
350
100
AcDbSymbolTableRecord
100
AcDbLayerTableRecord
2
SK4
70
0
62
2
6
CENTER
290
1
370
-3
390
0
0
LAYER
5
351
100
AcDbSymbolTableRecord
100
AcDbLayerTableRecord
2
SK2
70
0
62
7
6
Continuous
290
1
370
-3
390
0
0
LAYER
5
352
100
AcDbSymbolTableRecord
100
AcDbLayerTableRecord
2
SK6
70
0
62
5
6
Continuous
290
1
370
-3
390
0
0
ENDTAB
0
TABLE
2
STYLE
5
366
100
AcDbSymbolTable
0
STYLE
5
11
100
AcDbSymbolTableRecord
100
AcDbTextStyleTableRecord
2
Standard
3
txt
70
0
71
0
40
0
41
1
42
0
50
0
0
STYLE
5
27B
100
AcDbSymbolTableRecord
100
AcDbTextStyleTableRecord
2
iso_b_vert
3
simplex.shx
70
0
71
0
40
0
41
1
42
0
50
0
0
STYLE
5
27C
100
AcDbSymbolTableRecord
100
AcDbTextStyleTableRecord
2
DWGDirectTextStyle
3
simplex
70
0
71
0
40
0
41
1
42
0
50
0
0
ENDTAB
0
TABLE
2
DIMSTYLE
5
367
100
AcDbSymbolTable
100
AcDbDimStyleTable
0
DIMSTYLE
105
27
100
AcDbSymbolTableRecord
100
AcDbDimStyleTableRecord
2
Standard
70
0
3
<>
41
0.18
42
0.0625
44
0.18
140
0.18
147
0.09
73
0
74
0
77
1
271
2
275
0
278
52
280
0
340
11
0
ENDTAB
0
TABLE
2
VIEW
5
368
100
AcDbSymbolTable
0
ENDTAB
0
TABLE
2
UCS
5
369
100
AcDbSymbolTable
0
ENDTAB
0
TABLE
2
APPID
5
36a
100
AcDbSymbolTable
0
APPID
5
12
100
AcDbSymbolTableRecord
100
AcDbRegAppTableRecord
2
ACAD
70
0
0
APPID
5
2A2
100
AcDbSymbolTableRecord
100
AcDbRegAppTableRecord
2
ACAD_DSTYLE_DIMBREAK
70
0
0
APPID
5
30F
100
AcDbSymbolTableRecord
100
AcDbRegAppTableRecord
2
ACAD_DSTYLE_DIM_LINETYPE
70
0
0
APPID
5
310
100
AcDbSymbolTableRecord
100
AcDbRegAppTableRecord
2
ACAD_DSTYLE_DIM_EXT1_LINETYPE
70
0
0
APPID
5
311
100
AcDbSymbolTableRecord
100
AcDbRegAppTableRecord
2
ACAD_DSTYLE_DIM_EXT2_LINETYPE
70
0
0
APPID
5
34C
100
AcDbSymbolTableRecord
100
AcDbRegAppTableRecord
2
ACAD_MLEADERVER
70
0
0
ENDTAB
0
TABLE
2
BLOCK_RECORD
5
36b
100
AcDbSymbolTable
0
BLOCK_RECORD
5
1F
100
AcDbSymbolTableRecord
100
AcDbBlockTableRecord
2
*Model_Space
340
0
70
0
0
BLOCK_RECORD
5
1B
100
AcDbSymbolTableRecord
100
AcDbBlockTableRecord
2
*Paper_Space
340
0
70
0
0
BLOCK_RECORD
5
23
100
AcDbSymbolTableRecord
100
AcDbBlockTableRecord
2
*Paper_Space0
340
0
70
0
0
BLOCK_RECORD
5
2A7
100
AcDbSymbolTableRecord
100
AcDbBlockTableRecord
2
*D1
340
0
70
0
0
BLOCK_RECORD
5
2B5
100
AcDbSymbolTableRecord
100
AcDbBlockTableRecord
2
_U0
340
0
70
0
0
BLOCK_RECORD
5
2C1
100
AcDbSymbolTableRecord
100
AcDbBlockTableRecord
2
*D3
340
0
70
0
0
BLOCK_RECORD
5
2CF
100
AcDbSymbolTableRecord
100
AcDbBlockTableRecord
2
_U1
340
0
70
0
0
BLOCK_RECORD
5
2DB
100
AcDbSymbolTableRecord
100
AcDbBlockTableRecord
2
*D5
340
0
70
0
0
BLOCK_RECORD
5
2E8
100
AcDbSymbolTableRecord
100
AcDbBlockTableRecord
2
_U2
340
0
70
0
0
ENDTAB
0
ENDSEC
0
SECTION
2
BLOCKS
0
BLOCK
5
20
100
AcDbEntity
8
0
100
AcDbBlockBegin
2
*Model_Space
70
0
10
0
20
0
30
0
3
*Model_Space
0
ENDBLK
5
21
100
AcDbEntity
8
0
100
AcDbBlockEnd
0
BLOCK
5
1C
100
AcDbEntity
8
0
100
AcDbBlockBegin
2
*Paper_Space
70
0
10
0
20
0
30
0
3
*Paper_Space
0
ENDBLK
5
1D
100
AcDbEntity
8
0
100
AcDbBlockEnd
0
BLOCK
5
24
100
AcDbEntity
8
0
100
AcDbBlockBegin
2
*Paper_Space0
70
0
10
0
20
0
30
0
3
*Paper_Space0
0
ENDBLK
5
25
100
AcDbEntity
8
0
100
AcDbBlockEnd
0
BLOCK
5
2A8
100
AcDbEntity
8
0
100
AcDbBlockBegin
2
*D1
70
1
10
0
20
0
30
0
3
*D1
0
LINE
5
2AA
100
AcDbEntity
8
0
62
256
6
ByLayer
370
-2
48
1
60
0
100
AcDbLine
10
14
20
41.5875
30
0
11
14
21
45
31
0
39
0
210
0
220
0
230
1
0
LINE
5
2AB
100
AcDbEntity
8
0
62
256
6
ByLayer
370
-2
48
1
60
0
100
AcDbLine
10
6.4
20
41.5875
30
0
11
6.4
21
45
31
0
39
0
210
0
220
0
230
1
0
LINE
5
2AC
100
AcDbEntity
8
0
62
256
6
ByLayer
370
-2
48
1
60
0
100
AcDbLine
10
6.4
20
43
30
0
11
-20.980952
21
43
31
0
39
0
210
0
220
0
230
1
0
LINE
5
2AD
100
AcDbEntity
8
0
62
256
6
ByLayer
370
-2
48
1
60
0
100
AcDbLine
10
17.5
20
43
30
0
11
21
21
43
31
0
39
0
210
0
220
0
230
1
0
LINE
5
2AE
100
AcDbEntity
8
0
62
256
6
ByLayer
370
-2
48
1
60
0
100
AcDbLine
10
2.9
20
43
30
0
11
-0.6
21
43
31
0
39
0
210
0
220
0
230
1
0
SOLID
5
2AF
100
AcDbEntity
8
0
62
256
6
ByLayer
370
-1
48
1
60
0
100
AcDbTrace
10
17.5
20
43.583333
30
0
11
17.5
21
42.416667
31
0
12
14
22
43
32
0
13
14
23
43
33
0
39
0
210
0
220
0
230
1
0
SOLID
5
2B0
100
AcDbEntity
8
0
62
256
6
ByLayer
370
-1
48
1
60
0
100
AcDbTrace
10
2.9
20
42.416667
30
0
11
2.9
21
43.583333
31
0
12
6.4
22
43
32
0
13
6.4
23
43
33
0
39
0
210
0
220
0
230
1
0
MTEXT
5
2B1
100
AcDbEntity
8
0
62
256
6
ByLayer
370
18
48
1
60
0
100
AcDbMText
10
-10.790476
20
51
30
0
210
0
220
0
230
1
1
\A1;7.6
40
4
41
0
44
1
50
0
71
5
72
5
7
iso_b_vert
0
POINT
5
2B2
100
AcDbEntity
8
Defpoints
62
0
6
ByLayer
370
-1
48
1
60
0
100
AcDbPoint
10
14
20
40
30
0
39
0
210
0
220
0
230
1
50
360
0
POINT
5
2B3
100
AcDbEntity
8
Defpoints
62
0
6
ByLayer
370
-1
48
1
60
0
100
AcDbPoint
10
6.4
20
40
30
0
39
0
210
0
220
0
230
1
50
360
0
POINT
5
2B4
100
AcDbEntity
8
Defpoints
62
0
6
ByLayer
370
-1
48
1
60
0
100
AcDbPoint
10
6.4
20
43
30
0
39
0
210
0
220
0
230
1
50
360
0
ENDBLK
5
2A9
100
AcDbEntity
8
0
100
AcDbBlockEnd
0
BLOCK
5
2BC
100
AcDbEntity
8
0
100
AcDbBlockBegin
2
_U0
70
0
10
0
20
0
30
0
3
_U0
0
MTEXT
5
2B6
100
AcDbEntity
8
SK2
62
256
6
ByLayer
370
13
48
1
60
0
100
AcDbMText
10
-4.786779
20
44.180153
30
0
210
0
220
0
230
1
1
\W0.7121;7.6
40
4
41
0
44
1.084337
50
0
71
7
72
5
7
iso_b_vert
0
LINE
5
2B7
100
AcDbEntity
8
SK2
62
256
6
ByLayer
370
13
48
1
60
0
100
AcDbLine
10
14
20
41.5875
30
0
11
14
21
45
31
0
39
0
210
0
220
0
230
1
0
LINE
5
2B8
100
AcDbEntity
8
SK2
62
256
6
ByLayer
370
13
48
1
60
0
100
AcDbLine
10
6.4
20
41.5875
30
0
11
6.4
21
45
31
0
39
0
210
0
220
0
230
1
0
LINE
5
2B9
100
AcDbEntity
8
SK2
62
256
6
ByLayer
370
13
48
1
60
0
100
AcDbLine
10
14
20
43
30
0
11
-4.998779
21
43
31
0
39
0
210
0
220
0
230
1
0
SOLID
5
2BA
100
AcDbEntity
8
SK2
62
256
6
ByLayer
370
18
48
1
60
0
100
AcDbTrace
10
14
20
43
30
0
11
10.500002
21
42.539216
31
0
12
10.499998
22
43.460784
32
0
13
10.499998
23
43.460784
33
0
39
0
210
0
220
0
230
1
0
SOLID
5
2BB
100
AcDbEntity
8
SK2
62
256
6
ByLayer
370
18
48
1
60
0
100
AcDbTrace
10
6.4
20
43
30
0
11
9.899998
21
43.460784
31
0
12
9.900002
22
42.539216
32
0
13
9.900002
23
42.539216
33
0
39
0
210
0
220
0
230
1
0
ENDBLK
5
2BD
100
AcDbEntity
8
0
100
AcDbBlockEnd
0
BLOCK
5
2C2
100
AcDbEntity
8
0
100
AcDbBlockBegin
2
*D3
70
1
10
0
20
0
30
0
3
*D3
0
LINE
5
2C4
100
AcDbEntity
8
0
62
256
6
ByLayer
370
-2
48
1
60
0
100
AcDbLine
10
0
20
-21.0875
30
0
11
0
21
-56
31
0
39
0
210
0
220
0
230
1
0
LINE
5
2C5
100
AcDbEntity
8
0
62
256
6
ByLayer
370
-2
48
1
60
0
100
AcDbLine
10
16
20
-21.0875
30
0
11
16
21
-56
31
0
39
0
210
0
220
0
230
1
0
LINE
5
2C6
100
AcDbEntity
8
0
62
256
6
ByLayer
370
-2
48
1
60
0
100
AcDbLine
10
0
20
-54
30
0
11
-29.0632
21
-54
31
0
39
0
210
0
220
0
230
1
0
LINE
5
2C7
100
AcDbEntity
8
0
62
256
6
ByLayer
370
-2
48
1
60
0
100
AcDbLine
10
-3.5
20
-54
30
0
11
-7
21
-54
31
0
39
0
210
0
220
0
230
1
0
LINE
5
2C8
100
AcDbEntity
8
0
62
256
6
ByLayer
370
-2
48
1
60
0
100
AcDbLine
10
19.5
20
-54
30
0
11
23
21
-54
31
0
39
0
210
0
220
0
230
1
0
SOLID
5
2C9
100
AcDbEntity
8
0
62
256
6
ByLayer
370
-1
48
1
60
0
100
AcDbTrace
10
-3.5
20
-54.583333
30
0
11
-3.5
21
-53.416667
31
0
12
0
22
-54
32
0
13
0
23
-54
33
0
39
0
210
0
220
0
230
1
0
SOLID
5
2CA
100
AcDbEntity
8
0
62
256
6
ByLayer
370
-1
48
1
60
0
100
AcDbTrace
10
19.5
20
-53.416667
30
0
11
19.5
21
-54.583333
31
0
12
16
22
-54
32
0
13
16
23
-54
33
0
39
0
210
0
220
0
230
1
0
MTEXT
5
2CB
100
AcDbEntity
8
0
62
256
6
ByLayer
370
18
48
1
60
0
100
AcDbMText
10
-20.110819
20
-46
30
0
210
0
220
0
230
1
1
\A1;16
40
4
41
0
44
1
50
0
71
5
72
5
7
iso_b_vert
0
POINT
5
2CC
100
AcDbEntity
8
Defpoints
62
0
6
ByLayer
370
-1
48
1
60
0
100
AcDbPoint
10
0
20
-19.5
30
0
39
0
210
0
220
0
230
1
50
360
0
POINT
5
2CD
100
AcDbEntity
8
Defpoints
62
0
6
ByLayer
370
-1
48
1
60
0
100
AcDbPoint
10
16
20
-19.5
30
0
39
0
210
0
220
0
230
1
50
360
0
POINT
5
2CE
100
AcDbEntity
8
Defpoints
62
0
6
ByLayer
370
-1
48
1
60
0
100
AcDbPoint
10
16
20
-54
30
0
39
0
210
0
220
0
230
1
50
360
0
ENDBLK
5
2C3
100
AcDbEntity
8
0
100
AcDbBlockEnd
0
BLOCK
5
2D6
100
AcDbEntity
8
0
100
AcDbBlockBegin
2
_U1
70
0
10
0
20
0
30
0
3
_U1
0
MTEXT
5
2D0
100
AcDbEntity
8
SK2
62
256
6
ByLayer
370
13
48
1
60
0
100
AcDbMText
10
-21.788
20
-52.819847
30
0
210
0
220
0
230
1
1
\W0.5321;16
40
4
41
0
44
1.084337
50
0
71
7
72
5
7
iso_b_vert
0
LINE
5
2D1
100
AcDbEntity
8
SK2
62
256
6
ByLayer
370
13
48
1
60
0
100
AcDbLine
10
0
20
-21.0875
30
0
11
0
21
-56
31
0
39
0
210
0
220
0
230
1
0
LINE
5
2D2
100
AcDbEntity
8
SK2
62
256
6
ByLayer
370
13
48
1
60
0
100
AcDbLine
10
16
20
-21.0875
30
0
11
16
21
-56
31
0
39
0
210
0
220
0
230
1
0
LINE
5
2D3
100
AcDbEntity
8
SK2
62
256
6
ByLayer
370
13
48
1
60
0
100
AcDbLine
10
16
20
-54
30
0
11
-22
21
-54
31
0
39
0
210
0
220
0
230
1
0
SOLID
5
2D4
100
AcDbEntity
8
SK2
62
256
6
ByLayer
370
18
48
1
60
0
100
AcDbTrace
10
0
20
-54
30
0
11
3.499998
21
-53.539216
31
0
12
3.500002
22
-54.460784
32
0
13
3.500002
23
-54.460784
33
0
39
0
210
0
220
0
230
1
0
SOLID
5
2D5
100
AcDbEntity
8
SK2
62
256
6
ByLayer
370
18
48
1
60
0
100
AcDbTrace
10
16
20
-54
30
0
11
12.500002
21
-54.460784
31
0
12
12.499998
22
-53.539216
32
0
13
12.499998
23
-53.539216
33
0
39
0
210
0
220
0
230
1
0
ENDBLK
5
2D7
100
AcDbEntity
8
0
100
AcDbBlockEnd
0
BLOCK
5
2DC
100
AcDbEntity
8
0
100
AcDbBlockBegin
2
*D5
70
1
10
0
20
0
30
0
3
*D5
0
LINE
5
2DE
100
AcDbEntity
8
0
62
256
6
ByLayer
370
-2
48
1
60
0
100
AcDbLine
10
14
20
41.5875
30
0
11
14
21
58.35
31
0
39
0
210
0
220
0
230
1
0
LINE
5
2DF
100
AcDbEntity
8
0
62
256
6
ByLayer
370
-2
48
1
60
0
100
AcDbLine
10
2.5
20
41.5875
30
0
11
2.5
21
58.35
31
0
39
0
210
0
220
0
230
1
0
LINE
5
2E0
100
AcDbEntity
8
0
62
256
6
ByLayer
370
-2
48
1
60
0
100
AcDbLine
10
17.5
20
56.35
30
0
11
21
21
56.35
31
0
39
0
210
0
220
0
230
1
0
LINE
5
2E1
100
AcDbEntity
8
0
62
256
6
ByLayer
370
-2
48
1
60
0
100
AcDbLine
10
-1
20
56.35
30
0
11
-4.5
21
56.35
31
0
39
0
210
0
220
0
230
1
0
SOLID
5
2E2
100
AcDbEntity
8
0
62
256
6
ByLayer
370
-1
48
1
60
0
100
AcDbTrace
10
17.5
20
56.933333
30
0
11
17.5
21
55.766667
31
0
12
14
22
56.35
32
0
13
14
23
56.35
33
0
39
0
210
0
220
0
230
1
0
SOLID
5
2E3
100
AcDbEntity
8
0
62
256
6
ByLayer
370
-1
48
1
60
0
100
AcDbTrace
10
-1
20
55.766667
30
0
11
-1
21
56.933333
31
0
12
2.5
22
56.35
32
0
13
2.5
23
56.35
33
0
39
0
210
0
220
0
230
1
0
MTEXT
5
2E4
100
AcDbEntity
8
0
62
256
6
ByLayer
370
18
48
1
60
0
100
AcDbMText
10
8.25
20
64.35
30
0
210
0
220
0
230
1
1
\A1;11.5
40
4
41
0
44
1
50
0
71
5
72
5
7
iso_b_vert
0
POINT
5
2E5
100
AcDbEntity
8
Defpoints
62
0
6
ByLayer
370
-1
48
1
60
0
100
AcDbPoint
10
14
20
40
30
0
39
0
210
0
220
0
230
1
50
360
0
POINT
5
2E6
100
AcDbEntity
8
Defpoints
62
0
6
ByLayer
370
-1
48
1
60
0
100
AcDbPoint
10
2.5
20
40
30
0
39
0
210
0
220
0
230
1
50
360
0
POINT
5
2E7
100
AcDbEntity
8
Defpoints
62
0
6
ByLayer
370
-1
48
1
60
0
100
AcDbPoint
10
2.5
20
56.35
30
0
39
0
210
0
220
0
230
1
50
360
0
ENDBLK
5
2DD
100
AcDbEntity
8
0
100
AcDbBlockEnd
0
BLOCK
5
2EF
100
AcDbEntity
8
0
100
AcDbBlockBegin
2
_U2
70
0
10
0
20
0
30
0
3
_U2
0
MTEXT
5
2E9
100
AcDbEntity
8
SK2
62
256
6
ByLayer
370
13
48
1
60
0
100
AcDbMText
10
4.767906
20
57.530153
30
0
210
0
220
0
230
1
1
\W0.5779;11.5
40
4
41
0
44
1.084337
50
0
71
7
72
5
7
iso_b_vert
0
LINE
5
2EA
100
AcDbEntity
8
SK2
62
256
6
ByLayer
370
13
48
1
60
0
100
AcDbLine
10
14
20
41.5875
30
0
11
14
21
58.35
31
0
39
0
210
0
220
0
230
1
0
LINE
5
2EB
100
AcDbEntity
8
SK2
62
256
6
ByLayer
370
13
48
1
60
0
100
AcDbLine
10
2.5
20
41.5875
30
0
11
2.5
21
58.35
31
0
39
0
210
0
220
0
230
1
0
LINE
5
2EC
100
AcDbEntity
8
SK2
62
256
6
ByLayer
370
13
48
1
60
0
100
AcDbLine
10
14
20
56.35
30
0
11
2.5
21
56.35
31
0
39
0
210
0
220
0
230
1
0
SOLID
5
2ED
100
AcDbEntity
8
SK2
62
256
6
ByLayer
370
18
48
1
60
0
100
AcDbTrace
10
14
20
56.35
30
0
11
10.500002
21
55.889216
31
0
12
10.499998
22
56.810784
32
0
13
10.499998
23
56.810784
33
0
39
0
210
0
220
0
230
1
0
SOLID
5
2EE
100
AcDbEntity
8
SK2
62
256
6
ByLayer
370
18
48
1
60
0
100
AcDbTrace
10
2.5
20
56.35
30
0
11
5.999998
21
56.810784
31
0
12
6.000002
22
55.889216
32
0
13
6.000002
23
55.889216
33
0
39
0
210
0
220
0
230
1
0
ENDBLK
5
2F0
100
AcDbEntity
8
0
100
AcDbBlockEnd
0
ENDSEC
0
SECTION
2
ENTITIES
0
ELLIPSE
5
1AF
100
AcDbEntity
8
1
62
256
6
ByLayer
370
18
48
1
60
0
100
AcDbEllipse
10
2.78498
20
35.096186
30
0
11
0.0175436908815154
21
0.149865587761832
31
0
210
0
220
0
230
1
40
0.361878
41
-1.25793318272938
42
-0.210735631529444
0
ELLIPSE
5
1B0
100
AcDbEntity
8
1
62
256
6
ByLayer
370
18
48
1
60
0
100
AcDbEllipse
10
2.61018
20
35.585244
30
0
11
0.0198828496660547
21
0.16984766613086
31
0
210
0
220
0
230
1
40
0.361878
41
0.836461919667497
42
2.93085702206118
0
ELLIPSE
5
1B1
100
AcDbEntity
8
1
62
256
6
ByLayer
370
18
48
1
60
0
100
AcDbEllipse
10
2.78498
20
36.320161
30
0
11
0.017543690881931
21
0.149865587761422
31
0
210
0
220
0
230
1
40
0.361878
41
-2.30513073392339
42
-1.25793318271871
0
ELLIPSE
5
1B2
100
AcDbEntity
8
1
62
256
6
ByLayer
370
18
48
1
60
0
100
AcDbEllipse
10
2.78498
20
36.541631
30
0
11
0.0175436908822613
21
0.149865587763563
31
0
210
0
220
0
230
1
40
0.361878
41
-1.25793318271958
42
-0.210735631527682
0
ELLIPSE
5
1B3
100
AcDbEntity
8
1
62
256
6
ByLayer
370
18
48
1
60
0
100
AcDbEllipse
10
13.21502
20
36.541631
30
0
11
0.0175436908817396
21
-0.149865587762348
31
0
210
0
220
0
230
1
40
0.361878
41
-2.93085702206098
42
-1.88365947086346
0
ELLIPSE
5
1B4
100
AcDbEntity
8
1
62
256
6
ByLayer
370
18
48
1
60
0
100
AcDbEllipse
10
13.21502
20
36.320161
30
0
11
0.0175436908817985
21
-0.149865587763453
31
0
210
0
220
0
230
1
40
0.361878
41
-1.88365947086012
42
-0.836461919670134
0
ELLIPSE
5
1B5
100
AcDbEntity
8
1
62
256
6
ByLayer
370
18
48
1
60
0
100
AcDbEllipse
10
13.38982
20
35.585244
30
0
11
0.0198828496660522
21
-0.169847666130859
31
0
210
0
220
0
230
1
40
0.361878
41
0.210735631528618
42
2.3051307339223
0
ELLIPSE
5
1B6
100
AcDbEntity
8
1
62
256
6
ByLayer
370
18
48
1
60
0
100
AcDbEllipse
10
13.21502
20
35.096186
30
0
11
0.0175436908812741
21
-0.149865587761267
31
0
210
0
220
0
230
1
40
0.361878
41
-2.93085702206018
42
-1.88365947085731
0
ELLIPSE
5
1B7
100
AcDbEntity
8
1
62
256
6
ByLayer
370
18
48
1
60
0
100
AcDbEllipse
10
13.21502
20
34.874715
30
0
11
0.0175436908818555
21
-0.149865587761811
31
0
210
0
220
0
230
1
40
0.361878
41
-1.88365947086814
42
-0.83646191966613
0
ELLIPSE
5
1B8
100
AcDbEntity
8
1
62
256
6
ByLayer
370
18
48
1
60
0
100
AcDbEllipse
10
13.38982
20
34.139798
30
0
11
0.0198828496660522
21
-0.169847666130859
31
0
210
0
220
0
230
1
40
0.361878
41
0.210735631528618
42
2.3051307339223
0
ELLIPSE
5
1B9
100
AcDbEntity
8
1
62
256
6
ByLayer
370
18
48
1
60
0
100
AcDbEllipse
10
2.1
20
-20.250083
30
0
11
0.359486646997919
21
0.186670070324074
31
0
210
0
220
0
230
1
40
0.93969
41
-0.453962201972219
42
1.11683412482244
0
ELLIPSE
5
1BA
100
AcDbEntity
8
1
62
256
6
ByLayer
370
18
48
1
60
0
100
AcDbEllipse
10
13.9
20
-20.250083
30
0
11
0.359486646998053
21
-0.186670070323765
31
0
210
0
220
0
230
1
40
0.93969
41
2.02475852876655
42
-2.68763045161835
0
ELLIPSE
5
1BB
100
AcDbEntity
8
1
62
256
6
ByLayer
370
18
48
1
60
0
100
AcDbEllipse
10
13.9
20
16.288418
30
0
11
0.393999529374637
21
-0.0999330803450173
31
0
210
0
220
0
230
1
40
0.690706
41
-2.96816351412021
42
-1.39736718732476
0
ELLIPSE
5
1BC
100
AcDbEntity
8
1
62
256
6
ByLayer
370
18
48
1
60
0
100
AcDbEllipse
10
2.1
20
16.288418
30
0
11
0.393999529375007
21
0.099933080344752
31
0
210
0
220
0
230
1
40
0.690706
41
-1.74422546626362
42
-0.173429139469111
0
ELLIPSE
5
1BD
100
AcDbEntity
8
1
62
256
6
ByLayer
370
18
48
1
60
0
100
AcDbEllipse
10
13.395907
20
15.358619
30
0
11
0.232212765108324
21
-0.390039249491148
31
0
210
0
220
0
230
1
40
0.382018
41
-2.57110110929181
42
-1.00030478249691
0
ELLIPSE
5
1BE
100
AcDbEntity
8
1
62
256
6
ByLayer
370
18
48
1
60
0
100
AcDbEllipse
10
2.604093
20
15.358619
30
0
11
0.232212765108305
21
0.390039249491133
31
0
210
0
220
0
230
1
40
0.382018
41
-2.14128787109297
42
-0.570491544297977
0
ELLIPSE
5
1BF
100
AcDbEntity
8
1
62
256
6
ByLayer
370
18
48
1
60
0
100
AcDbEllipse
10
8
20
12.069458
30
0
11
-2.4
21
2.93905524917371E-16
31
0
210
0
220
0
230
1
40
0.700909
41
-2.73986154473727
42
-0.401829551386879
0
ELLIPSE
5
1C0
100
AcDbEntity
8
1
62
256
6
ByLayer
370
18
48
1
60
0
100
AcDbEllipse
10
8
20
13.495959
30
0
11
2.4
21
0
31
0
210
0
220
0
230
1
40
0.700909
41
1.925680029637
42
-2.8587589918669
0
ELLIPSE
5
1C1
100
AcDbEntity
8
1
62
256
6
ByLayer
370
18
48
1
60
0
100
AcDbEllipse
10
8
20
-12.26461
30
0
11
3
21
0
31
0
210
0
220
0
230
1
40
0.67559
41
0
42
6.28318530717959
0
ELLIPSE
5
1C2
100
AcDbEntity
8
1
62
256
6
ByLayer
370
18
48
1
60
0
100
AcDbEllipse
10
8
20
-12.028153
30
0
11
-4
21
4.89842541528951E-16
31
0
210
0
220
0
230
1
40
0.67559
41
0
42
3.14159265358979
0
ELLIPSE
5
1C3
100
AcDbEntity
8
1
62
256
6
ByLayer
370
18
48
1
60
0
100
AcDbEllipse
10
8
20
5.567326
30
0
11
3
21
0
31
0
210
0
220
0
230
1
40
0.976296
41
1.67096374795646
42
2.60551022039918
0
ELLIPSE
5
1C4
100
AcDbEntity
8
1
62
256
6
ByLayer
370
18
48
1
60
0
100
AcDbEllipse
10
8
20
6.974184
30
0
11
-3
21
3.67381906146713E-16
31
0
210
0
220
0
230
1
40
0.976296
41
0
42
0.880922111024045
0
ELLIPSE
5
1C5
100
AcDbEntity
8
1
62
256
6
ByLayer
370
18
48
1
60
0
100
AcDbEllipse
10
8
20
6.974184
30
0
11
-3
21
3.67381906146713E-16
31
0
210
0
220
0
230
1
40
0.976296
41
2.26076863544291
42
-3.03247655663216E-16
0
ELLIPSE
5
1C6
100
AcDbEntity
8
1
62
256
6
ByLayer
370
18
48
1
60
0
100
AcDbEllipse
10
8
20
7.357298
30
0
11
4
21
4.6858214583301E-15
31
0
210
0
220
0
230
1
40
0.964953
41
3.14159265358979
42
-2.38765955199932
0
ELLIPSE
5
1C7
100
AcDbEntity
8
1
62
256
6
ByLayer
370
18
48
1
60
0
100
AcDbEllipse
10
8
20
7.357298
30
0
11
4
21
4.6858214583301E-15
31
0
210
0
220
0
230
1
40
0.964953
41
-0.753933101590484
42
-2.30109243584953E-16
0
ELLIPSE
5
1C8
100
AcDbEntity
8
1
62
256
6
ByLayer
370
18
48
1
60
0
100
AcDbEllipse
10
10.3
20
-26.032959
30
0
11
-1
21
1.22460635382238E-16
31
0
210
0
220
0
230
1
40
0.566335
41
0
42
6.28318530717959
0
ELLIPSE
5
1C9
100
AcDbEntity
8
1
62
256
6
ByLayer
370
13
48
1
60
0
100
AcDbEllipse
10
10.3
20
-26.032959
30
0
11
1.4
21
0
31
0
210
0
220
0
230
1
40
0.566335
41
3.14159265358979
42
0
0
ELLIPSE
5
1CA
100
AcDbEntity
8
1
62
256
6
ByLayer
370
13
48
1
60
0
100
AcDbEllipse
10
8.9
20
-26.115377
30
0
11
0.1
21
0
31
0
210
0
220
0
230
1
40
0.824175
41
1.5707963267949
42
3.14159265358979
0
ELLIPSE
5
1CB
100
AcDbEntity
8
1
62
256
6
ByLayer
370
13
48
1
60
0
100
AcDbEllipse
10
11.7
20
-26.115377
30
0
11
-0.1
21
1.22460635382238E-17
31
0
210
0
220
0
230
1
40
0.824175
41
3.14159265358979
42
-1.5707963267949
0
ELLIPSE
5
1CC
100
AcDbEntity
8
1
62
256
6
ByLayer
370
18
48
1
60
0
100
AcDbEllipse
10
8
20
13.495959
30
0
11
2.4
21
0
31
0
210
0
220
0
230
1
40
0.700909
41
-0.28283366172289
42
1.2159126239528
0
ELLIPSE
5
1CD
100
AcDbEntity
8
1
62
256
6
ByLayer
370
18
48
1
60
0
100
AcDbEllipse
10
8
20
-12.169212
30
0
11
4
21
4.6858214583301E-15
31
0
210
0
220
0
230
1
40
0.714229
41
3.14159265358979
42
-6.21774262666543E-16
0
ELLIPSE
5
1CE
100
AcDbEntity
8
1
62
256
6
ByLayer
370
18
48
1
60
0
100
AcDbEllipse
10
8
20
-6.823827
30
0
11
2.4
21
0
31
0
210
0
220
0
230
1
40
0.968148
41
-1.98303204213037
42
-1.15846234330615
0
ELLIPSE
5
1CF
100
AcDbEntity
8
1
62
256
6
ByLayer
370
18
48
1
60
0
100
AcDbEllipse
10
8
20
-7.421409
30
0
11
2.4
21
2.81149287499806E-15
31
0
210
0
220
0
230
1
40
0.823591
41
-2.25534855760137
42
-0.886244323943355
0
ELLIPSE
5
1D0
100
AcDbEntity
8
1
62
256
6
ByLayer
370
18
48
1
60
0
100
AcDbEllipse
10
8
20
13.771774
30
0
11
1.63515015228779E-16
21
2.67049104748474
31
0
210
0
220
0
230
1
40
0.898711
41
1.85362998851779
42
-1.85362998851779
0
ELLIPSE
5
1D1
100
AcDbEntity
8
1
62
256
6
ByLayer
370
18
48
1
60
0
100
AcDbEllipse
10
2.1
20
-3.961664
30
0
11
0.39958046810263
21
0.0756102696984439
31
0
210
0
220
0
230
1
40
0.242233
41
-0.0458042167372381
42
1.52499211005754
0
ELLIPSE
5
1D2
100
AcDbEntity
8
1
62
256
6
ByLayer
370
18
48
1
60
0
100
AcDbEllipse
10
13.9
20
-3.961664
30
0
11
0.399580468102457
21
-0.0756102696983704
31
0
210
0
220
0
230
1
40
0.242233
41
1.6166005435318
42
-3.09578843685251
0
ELLIPSE
5
1D3
100
AcDbEntity
8
1
62
256
6
ByLayer
370
13
48
1
60
0
100
AcDbEllipse
10
10.3
20
-26.115377
30
0
11
-1.5
21
1.83690953073357E-16
31
0
210
0
220
0
230
1
40
0.566335
41
0
42
-3.14159265358979
0
ELLIPSE
5
1D4
100
AcDbEntity
8
1
62
256
6
ByLayer
370
18
48
1
60
0
100
AcDbEllipse
10
2.61018
20
34.139798
30
0
11
0.0198828496660799
21
0.169847666130891
31
0
210
0
220
0
230
1
40
0.361878
41
0.83646191966797
42
2.93085702206122
0
ELLIPSE
5
1D5
100
AcDbEntity
8
1
62
256
6
ByLayer
370
18
48
1
60
0
100
AcDbEllipse
10
2.61018
20
16.745709
30
0
11
0.0484705760913066
21
-0.169561111330608
31
0
210
0
220
0
230
1
40
0.251859
41
2.81664766870828
42
-1.37214253607818
0
ELLIPSE
5
1D6
100
AcDbEntity
8
1
62
256
6
ByLayer
370
18
48
1
60
0
100
AcDbEllipse
10
2.78498
20
16.876266
30
0
11
0.0427681553752163
21
-0.149612745293243
31
0
210
0
220
0
230
1
40
0.251859
41
-0.324944984880014
42
0.722252566310918
0
ELLIPSE
5
1D7
100
AcDbEntity
8
1
62
256
6
ByLayer
370
18
48
1
60
0
100
AcDbEllipse
10
2.78498
20
17.040191
30
0
11
0.0427681553746931
21
-0.149612745291722
31
0
210
0
220
0
230
1
40
0.251859
41
0.722252566314937
42
1.76945011751136
0
ELLIPSE
5
1D8
100
AcDbEntity
8
1
62
256
6
ByLayer
370
18
48
1
60
0
100
AcDbEllipse
10
2.61018
20
17.815585
30
0
11
0.0484705760913136
21
-0.169561111330625
31
0
210
0
220
0
230
1
40
0.251859
41
2.81664766870831
42
-1.37214253607829
0
ELLIPSE
5
1D9
100
AcDbEntity
8
1
62
256
6
ByLayer
370
18
48
1
60
0
100
AcDbEllipse
10
2.78498
20
17.946141
30
0
11
0.0427681553749185
21
-0.149612745292398
31
0
210
0
220
0
230
1
40
0.251859
41
-0.324944984880803
42
0.722252566313201
0
ELLIPSE
5
1DA
100
AcDbEntity
8
1
62
256
6
ByLayer
370
18
48
1
60
0
100
AcDbEllipse
10
2.78498
20
18.110067
30
0
11
0.0427681553747087
21
-0.149612745291745
31
0
210
0
220
0
230
1
40
0.251859
41
0.722252566314782
42
1.76945011751106
0
ELLIPSE
5
1DB
100
AcDbEntity
8
1
62
256
6
ByLayer
370
18
48
1
60
0
100
AcDbEllipse
10
2.61018
20
18.88546
30
0
11
0.0484705760912802
21
-0.169561111330564
31
0
210
0
220
0
230
1
40
0.251859
41
2.81664766870827
42
-1.37214253607781
0
ELLIPSE
5
1DC
100
AcDbEntity
8
1
62
256
6
ByLayer
370
18
48
1
60
0
100
AcDbEllipse
10
2.78498
20
19.016017
30
0
11
0.0427681553748925
21
-0.149612745292313
31
0
210
0
220
0
230
1
40
0.251859
41
-0.324944984880899
42
0.722252566313352
0
ELLIPSE
5
1DD
100
AcDbEntity
8
1
62
256
6
ByLayer
370
18
48
1
60
0
100
AcDbEllipse
10
2.78498
20
19.179943
30
0
11
0.0427681553747266
21
-0.149612745291818
31
0
210
0
220
0
230
1
40
0.251859
41
0.722252566315445
42
1.76945011751109
0
ELLIPSE
5
1DE
100
AcDbEntity
8
1
62
256
6
ByLayer
370
18
48
1
60
0
100
AcDbEllipse
10
2.61018
20
19.955336
30
0
11
0.0484705760912975
21
-0.169561111330591
31
0
210
0
220
0
230
1
40
0.251859
41
2.81664766870833
42
-1.37214253607805
0
ELLIPSE
5
1DF
100
AcDbEntity
8
1
62
256
6
ByLayer
370
18
48
1
60
0
100
AcDbEllipse
10
2.78498
20
20.085893
30
0
11
0.0427681553747824
21
-0.149612745291993
31
0
210
0
220
0
230
1
40
0.251859
41
-0.324944984881248
42
0.722252566314168
0
ELLIPSE
5
1E0
100
AcDbEntity
8
1
62
256
6
ByLayer
370
18
48
1
60
0
100
AcDbEllipse
10
2.78498
20
20.249819
30
0
11
0.0427681553749378
21
-0.149612745292235
31
0
210
0
220
0
230
1
40
0.251859
41
0.722252566315385
42
1.76945011750818
0
ELLIPSE
5
1E1
100
AcDbEntity
8
1
62
256
6
ByLayer
370
18
48
1
60
0
100
AcDbEllipse
10
2.61018
20
21.025212
30
0
11
0.0484705760912874
21
-0.169561111330572
31
0
210
0
220
0
230
1
40
0.251859
41
2.8166476687082
42
-1.37214253607791
0
ELLIPSE
5
1E2
100
AcDbEntity
8
1
62
256
6
ByLayer
370
18
48
1
60
0
100
AcDbEllipse
10
2.78498
20
21.155768
30
0
11
0.0427681553745678
21
-0.149612745291434
31
0
210
0
220
0
230
1
40
0.251859
41
-0.324944984881869
42
0.722252566315851
0
ELLIPSE
5
1E3
100
AcDbEntity
8
1
62
256
6
ByLayer
370
18
48
1
60
0
100
AcDbEllipse
10
2.78498
20
21.319694
30
0
11
0.0427681553744615
21
-0.149612745291272
31
0
210
0
220
0
230
1
40
0.251859
41
0.722252566314976
42
1.7694501175145
0
ELLIPSE
5
1E4
100
AcDbEntity
8
1
62
256
6
ByLayer
370
18
48
1
60
0
100
AcDbEllipse
10
2.61018
20
22.095087
30
0
11
0.0484705760913109
21
-0.169561111330618
31
0
210
0
220
0
230
1
40
0.251859
41
2.8166476687083
42
-1.37214253607824
0
ELLIPSE
5
1E5
100
AcDbEntity
8
1
62
256
6
ByLayer
370
18
48
1
60
0
100
AcDbEllipse
10
2.78498
20
22.225644
30
0
11
0.042768155374417
21
-0.149612745290984
31
0
210
0
220
0
230
1
40
0.251859
41
-0.324944984882226
42
0.722252566316984
0
ELLIPSE
5
1E6
100
AcDbEntity
8
1
62
256
6
ByLayer
370
18
48
1
60
0
100
AcDbEllipse
10
2.78498
20
22.38957
30
0
11
0.0427681553747408
21
-0.149612745291834
31
0
210
0
220
0
230
1
40
0.251859
41
0.722252566315105
42
1.76945011751077
0
ELLIPSE
5
1E7
100
AcDbEntity
8
1
62
256
6
ByLayer
370
18
48
1
60
0
100
AcDbEllipse
10
2.61018
20
23.164963
30
0
11
0.0484705760913028
21
-0.169561111330602
31
0
210
0
220
0
230
1
40
0.251859
41
2.81664766870827
42
-1.37214253607813
0
ELLIPSE
5
1E8
100
AcDbEntity
8
1
62
256
6
ByLayer
370
18
48
1
60
0
100
AcDbEllipse
10
2.78498
20
23.29552
30
0
11
0.0427681553746271
21
-0.149612745291551
31
0
210
0
220
0
230
1
40
0.251859
41
-0.324944984881591
42
0.722252566315374
0
ELLIPSE
5
1E9
100
AcDbEntity
8
1
62
256
6
ByLayer
370
18
48
1
60
0
100
AcDbEllipse
10
2.78498
20
23.459446
30
0
11
0.0427681553747402
21
-0.149612745291816
31
0
210
0
220
0
230
1
40
0.251859
41
0.722252566314837
42
1.76945011751065
0
ELLIPSE
5
1EA
100
AcDbEntity
8
1
62
256
6
ByLayer
370
18
48
1
60
0
100
AcDbEllipse
10
2.61018
20
24.234839
30
0
11
0.0484705760912679
21
-0.169561111330537
31
0
210
0
220
0
230
1
40
0.251859
41
2.81664766870813
42
-1.37214253607759
0
ELLIPSE
5
1EB
100
AcDbEntity
8
1
62
256
6
ByLayer
370
18
48
1
60
0
100
AcDbEllipse
10
2.78498
20
24.365395
30
0
11
0.0427681553745177
21
-0.149612745291233
31
0
210
0
220
0
230
1
40
0.251859
41
-0.324944984881937
42
0.722252566316299
0
ELLIPSE
5
1EC
100
AcDbEntity
8
1
62
256
6
ByLayer
370
18
48
1
60
0
100
AcDbEllipse
10
2.78498
20
24.529321
30
0
11
0.0427681553745048
21
-0.149612745291356
31
0
210
0
220
0
230
1
40
0.251859
41
0.722252566314935
42
1.76945011751395
0
ELLIPSE
5
1ED
100
AcDbEntity
8
1
62
256
6
ByLayer
370
18
48
1
60
0
100
AcDbEllipse
10
2.61018
20
25.304714
30
0
11
0.0484705760912965
21
-0.169561111330589
31
0
210
0
220
0
230
1
40
0.251859
41
2.81664766870832
42
-1.37214253607808
0
ELLIPSE
5
1EE
100
AcDbEntity
8
1
62
256
6
ByLayer
370
18
48
1
60
0
100
AcDbEllipse
10
2.78498
20
25.435271
30
0
11
0.0427681553745922
21
-0.14961274529146
31
0
210
0
220
0
230
1
40
0.251859
41
-0.324944984881706
42
0.722252566315677
0
ELLIPSE
5
1EF
100
AcDbEntity
8
1
62
256
6
ByLayer
370
18
48
1
60
0
100
AcDbEllipse
10
2.78498
20
25.599197
30
0
11
0.0427681553745273
21
-0.149612745291419
31
0
210
0
220
0
230
1
40
0.251859
41
0.722252566315162
42
1.76945011751374
0
ELLIPSE
5
1F0
100
AcDbEntity
8
1
62
256
6
ByLayer
370
18
48
1
60
0
100
AcDbEllipse
10
2.61018
20
26.37459
30
0
11
0.048470576091308
21
-0.169561111330613
31
0
210
0
220
0
230
1
40
0.251859
41
2.81664766870829
42
-1.37214253607822
0
ELLIPSE
5
1F1
100
AcDbEntity
8
1
62
256
6
ByLayer
370
18
48
1
60
0
100
AcDbEllipse
10
2.78498
20
26.505147
30
0
11
0.0427681553744119
21
-0.149612745290942
31
0
210
0
220
0
230
1
40
0.251859
41
-0.324944984882222
42
0.722252566316976
0
ELLIPSE
5
1F2
100
AcDbEntity
8
1
62
256
6
ByLayer
370
18
48
1
60
0
100
AcDbEllipse
10
2.78498
20
26.669073
30
0
11
0.0427681553747415
21
-0.149612745291845
31
0
210
0
220
0
230
1
40
0.251859
41
0.72225256631529
42
1.7694501175109
0
ELLIPSE
5
1F3
100
AcDbEntity
8
1
62
256
6
ByLayer
370
18
48
1
60
0
100
AcDbEllipse
10
2.61018
20
27.444466
30
0
11
0.0484705760913061
21
-0.169561111330609
31
0
210
0
220
0
230
1
40
0.251859
41
2.81664766870836
42
-1.37214253607817
0
ELLIPSE
5
1F4
100
AcDbEntity
8
1
62
256
6
ByLayer
370
18
48
1
60
0
100
AcDbEllipse
10
2.78498
20
27.575022
30
0
11
0.0427681553745659
21
-0.149612745291374
31
0
210
0
220
0
230
1
40
0.251859
41
-0.324944984881805
42
0.722252566315936
0
ELLIPSE
5
1F5
100
AcDbEntity
8
1
62
256
6
ByLayer
370
18
48
1
60
0
100
AcDbEllipse
10
13.21502
20
27.575022
30
0
11
0.0427681553745952
21
0.149612745291468
31
0
210
0
220
0
230
1
40
0.251859
41
2.41934008727405
42
-2.81664766870801
0
ELLIPSE
5
1F6
100
AcDbEntity
8
1
62
256
6
ByLayer
370
18
48
1
60
0
100
AcDbEllipse
10
13.38982
20
27.444466
30
0
11
0.048470576091285
21
0.169561111330577
31
0
210
0
220
0
230
1
40
0.251859
41
-1.76945011751187
42
0.324944984881498
0
ELLIPSE
5
1F7
100
AcDbEntity
8
1
62
256
6
ByLayer
370
18
48
1
60
0
100
AcDbEllipse
10
13.21502
20
26.669073
30
0
11
0.0427681553741061
21
0.149612745290548
31
0
210
0
220
0
230
1
40
0.251859
41
1.37214253607048
42
2.41934008727527
0
ELLIPSE
5
1F8
100
AcDbEntity
8
1
62
256
6
ByLayer
370
18
48
1
60
0
100
AcDbEllipse
10
13.21502
20
26.505147
30
0
11
0.0427681553742593
21
0.14961274529056
31
0
210
0
220
0
230
1
40
0.251859
41
2.4193400872716
42
-2.81664766870707
0
ELLIPSE
5
1F9
100
AcDbEntity
8
1
62
256
6
ByLayer
370
18
48
1
60
0
100
AcDbEllipse
10
13.38982
20
26.37459
30
0
11
0.0484705760912858
21
0.169561111330569
31
0
210
0
220
0
230
1
40
0.251859
41
-1.76945011751194
42
0.324944984881511
0
ELLIPSE
5
1FA
100
AcDbEntity
8
1
62
256
6
ByLayer
370
18
48
1
60
0
100
AcDbEllipse
10
13.21502
20
25.599197
30
0
11
0.042768155374764
21
0.149612745291875
31
0
210
0
220
0
230
1
40
0.251859
41
1.37214253607933
42
2.41934008727482
0
ELLIPSE
5
1FB
100
AcDbEntity
8
1
62
256
6
ByLayer
370
18
48
1
60
0
100
AcDbEllipse
10
13.21502
20
25.435271
30
0
11
0.0427681553748659
21
0.149612745292221
31
0
210
0
220
0
230
1
40
0.251859
41
2.41934008727614
42
-2.81664766870888
0
ELLIPSE
5
1FC
100
AcDbEntity
8
1
62
256
6
ByLayer
370
18
48
1
60
0
100
AcDbEllipse
10
13.38982
20
25.304714
30
0
11
0.0484705760913259
21
0.16956111133064
31
0
210
0
220
0
230
1
40
0.251859
41
-1.76945011751129
42
0.324944984881359
0
ELLIPSE
5
1FD
100
AcDbEntity
8
1
62
256
6
ByLayer
370
18
48
1
60
0
100
AcDbEllipse
10
13.21502
20
24.529321
30
0
11
0.0427681553751769
21
0.149612745292762
31
0
210
0
220
0
230
1
40
0.251859
41
1.37214253608437
42
2.41934008727318
0
ELLIPSE
5
1FE
100
AcDbEntity
8
1
62
256
6
ByLayer
370
18
48
1
60
0
100
AcDbEllipse
10
13.21502
20
24.365395
30
0
11
0.0427681553750886
21
0.149612745292836
31
0
210
0
220
0
230
1
40
0.251859
41
2.41934008727778
42
-2.81664766870943
0
ELLIPSE
5
1FF
100
AcDbEntity
8
1
62
256
6
ByLayer
370
18
48
1
60
0
100
AcDbEllipse
10
13.38982
20
24.234839
30
0
11
0.0484705760912982
21
0.169561111330588
31
0
210
0
220
0
230
1
40
0.251859
41
-1.76945011751177
42
0.324944984881472
0
ELLIPSE
5
200
100
AcDbEntity
8
1
62
256
6
ByLayer
370
18
48
1
60
0
100
AcDbEllipse
10
13.21502
20
23.459446
30
0
11
0.0427681553748395
21
0.149612745292024
31
0
210
0
220
0
230
1
40
0.251859
41
1.37214253608039
42
2.4193400872748
0
ELLIPSE
5
201
100
AcDbEntity
8
1
62
256
6
ByLayer
370
18
48
1
60
0
100
AcDbEllipse
10
13.21502
20
23.29552
30
0
11
0.0427681553752327
21
0.149612745293274
31
0
210
0
220
0
230
1
40
0.251859
41
2.41934008727894
42
-2.81664766870995
0
ELLIPSE
5
202
100
AcDbEntity
8
1
62
256
6
ByLayer
370
18
48
1
60
0
100
AcDbEllipse
10
13.38982
20
23.164963
30
0
11
0.0484705760912948
21
0.169561111330597
31
0
210
0
220
0
230
1
40
0.251859
41
-1.76945011751174
42
0.324944984881456
0
ELLIPSE
5
203
100
AcDbEntity
8
1
62
256
6
ByLayer
370
18
48
1
60
0
100
AcDbEllipse
10
13.21502
20
22.38957
30
0
11
0.0427681553747783
21
0.149612745291933
31
0
210
0
220
0
230
1
40
0.251859
41
1.37214253607923
42
2.41934008727397
0
ELLIPSE
5
204
100
AcDbEntity
8
1
62
256
6
ByLayer
370
18
48
1
60
0
100
AcDbEllipse
10
13.21502
20
22.225644
30
0
11
0.0427681553745952
21
0.149612745291468
31
0
210
0
220
0
230
1
40
0.251859
41
2.41934008727405
42
-2.81664766870801
0
ELLIPSE
5
205
100
AcDbEntity
8
1
62
256
6
ByLayer
370
18
48
1
60
0
100
AcDbEllipse
10
13.38982
20
22.095087
30
0
11
0.0484705760913017
21
0.169561111330601
31
0
210
0
220
0
230
1
40
0.251859
41
-1.7694501175117
42
0.324944984881446
0
ELLIPSE
5
206
100
AcDbEntity
8
1
62
256
6
ByLayer
370
18
48
1
60
0
100
AcDbEllipse
10
13.21502
20
21.319694
30
0
11
0.0427681553747296
21
0.149612745291788
31
0
210
0
220
0
230
1
40
0.251859
41
1.37214253607902
42
2.41934008727515
0
ELLIPSE
5
207
100
AcDbEntity
8
1
62
256
6
ByLayer
370
18
48
1
60
0
100
AcDbEllipse
10
13.21502
20
21.155768
30
0
11
0.0427681553750884
21
0.149612745292836
31
0
210
0
220
0
230
1
40
0.251859
41
2.41934008727779
42
-2.81664766870943
0
ELLIPSE
5
208
100
AcDbEntity
8
1
62
256
6
ByLayer
370
18
48
1
60
0
100
AcDbEllipse
10
13.38982
20
21.025212
30
0
11
0.0484705760913197
21
0.169561111330636
31
0
210
0
220
0
230
1
40
0.251859
41
-1.76945011751138
42
0.324944984881454
0
ELLIPSE
5
209
100
AcDbEntity
8
1
62
256
6
ByLayer
370
18
48
1
60
0
100
AcDbEllipse
10
13.21502
20
20.249819
30
0
11
0.0427681553744821
21
0.149612745291295
31
0
210
0
220
0
230
1
40
0.251859
41
1.37214253607569
42
2.41934008727522
0
ELLIPSE
5
20A
100
AcDbEntity
8
1
62
256
6
ByLayer
370
18
48
1
60
0
100
AcDbEllipse
10
13.21502
20
20.085893
30
0
11
0.0427681553742593
21
0.14961274529056
31
0
210
0
220
0
230
1
40
0.251859
41
2.4193400872716
42
-2.81664766870707
0
ELLIPSE
5
20B
100
AcDbEntity
8
1
62
256
6
ByLayer
370
18
48
1
60
0
100
AcDbEllipse
10
13.38982
20
19.955336
30
0
11
0.0484705760912973
21
0.169561111330593
31
0
210
0
220
0
230
1
40
0.251859
41
-1.76945011751174
42
0.324944984881544
0
ELLIPSE
5
20C
100
AcDbEntity
8
1
62
256
6
ByLayer
370
18
48
1
60
0
100
AcDbEllipse
10
13.21502
20
19.179943
30
0
11
0.0427681553740218
21
0.149612745290379
31
0
210
0
220
0
230
1
40
0.251859
41
1.37214253606945
42
2.41934008727544
0
ELLIPSE
5
20D
100
AcDbEntity
8
1
62
256
6
ByLayer
370
18
48
1
60
0
100
AcDbEllipse
10
13.21502
20
19.016017
30
0
11
0.0427681553746386
21
0.14961274529158
31
0
210
0
220
0
230
1
40
0.251859
41
2.41934008727436
42
-2.81664766870817
0
ELLIPSE
5
20E
100
AcDbEntity
8
1
62
256
6
ByLayer
370
18
48
1
60
0
100
AcDbEllipse
10
13.38982
20
18.88546
30
0
11
0.0484705760913275
21
0.169561111330647
31
0
210
0
220
0
230
1
40
0.251859
41
-1.76945011751127
42
0.324944984881432
0
ELLIPSE
5
20F
100
AcDbEntity
8
1
62
256
6
ByLayer
370
18
48
1
60
0
100
AcDbEllipse
10
13.21502
20
18.110067
30
0
11
0.0427681553745877
21
0.149612745291525
31
0
210
0
220
0
230
1
40
0.251859
41
1.37214253607684
42
2.41934008727459
0
ELLIPSE
5
210
100
AcDbEntity
8
1
62
256
6
ByLayer
370
18
48
1
60
0
100
AcDbEllipse
10
13.21502
20
17.946141
30
0
11
0.0427681553749749
21
0.149612745292543
31
0
210
0
220
0
230
1
40
0.251859
41
2.41934008727697
42
-2.81664766870913
0
ELLIPSE
5
211
100
AcDbEntity
8
1
62
256
6
ByLayer
370
18
48
1
60
0
100
AcDbEllipse
10
13.38982
20
17.815585
30
0
11
0.0484705760912558
21
0.169561111330516
31
0
210
0
220
0
230
1
40
0.251859
41
-1.76945011751238
42
0.324944984881541
0
ELLIPSE
5
212
100
AcDbEntity
8
1
62
256
6
ByLayer
370
18
48
1
60
0
100
AcDbEllipse
10
13.21502
20
17.040191
30
0
11
0.0427681553744821
21
0.149612745291295
31
0
210
0
220
0
230
1
40
0.251859
41
1.37214253607569
42
2.41934008727522
0
ELLIPSE
5
213
100
AcDbEntity
8
1
62
256
6
ByLayer
370
18
48
1
60
0
100
AcDbEllipse
10
13.21502
20
16.876266
30
0
11
0.0427681553743021
21
0.14961274529067
31
0
210
0
220
0
230
1
40
0.251859
41
2.4193400872719
42
-2.81664766870723
0
ELLIPSE
5
214
100
AcDbEntity
8
1
62
256
6
ByLayer
370
18
48
1
60
0
100
AcDbEllipse
10
13.38982
20
16.745709
30
0
11
0.0484705760913275
21
0.169561111330647
31
0
210
0
220
0
230
1
40
0.251859
41
-1.76945011751127
42
0.324944984881432
0
ELLIPSE
5
215
100
AcDbEntity
8
1
62
256
6
ByLayer
370
18
48
1
60
0
100
AcDbEllipse
10
13.21502
20
27.738948
30
0
11
0.0427681553741939
21
0.149612745290722
31
0
210
0
220
0
230
1
40
0.251859
41
1.37214253607172
42
2.41934008727529
0
ELLIPSE
5
216
100
AcDbEntity
8
1
62
256
6
ByLayer
370
18
48
1
60
0
100
AcDbEllipse
10
2.78498
20
27.738948
30
0
11
0.0427681553745995
21
-0.149612745291547
31
0
210
0
220
0
230
1
40
0.251859
41
0.722252566314956
42
1.76945011751273
0
ELLIPSE
5
217
100
AcDbEntity
8
1
62
256
6
ByLayer
370
18
48
1
60
0
100
AcDbEllipse
10
10.3
20
2.475537
30
0
11
-1
21
1.22460635382238E-16
31
0
210
0
220
0
230
1
40
0.996924
41
0
42
6.28318530717959
0
ELLIPSE
5
218
100
AcDbEntity
8
1
62
256
6
ByLayer
370
18
48
1
60
0
100
AcDbEllipse
10
2.78498
20
-8.802683
30
0
11
0.0556007328754048
21
-0.149927752609445
31
0
210
0
220
0
230
1
40
0.083722
41
-0.825163106591889
42
-0.0310325382020066
0
ELLIPSE
5
219
100
AcDbEntity
8
1
62
256
6
ByLayer
370
18
48
1
60
0
100
AcDbEllipse
10
13.21502
20
-8.802683
30
0
11
0.0556007328747749
21
0.149927752607638
31
0
210
0
220
0
230
1
40
0.083722
41
-3.11056011538755
42
-2.31642954699273
0
ELLIPSE
5
21A
100
AcDbEntity
8
1
62
256
6
ByLayer
370
13
48
1
60
0
100
AcDbEllipse
10
11.7
20
2.483374
30
0
11
-0.1
21
1.22460635382238E-17
31
0
210
0
220
0
230
1
40
0.078373
41
1.5707963267949
42
2.33977266688555
0
ELLIPSE
5
21B
100
AcDbEntity
8
1
62
256
6
ByLayer
370
13
48
1
60
0
100
AcDbEllipse
10
10.3
20
2.475537
30
0
11
-1.4
21
1.71444889535133E-16
31
0
210
0
220
0
230
1
40
0.996924
41
0
42
0.266397410311326
0
ELLIPSE
5
21C
100
AcDbEntity
8
1
62
256
6
ByLayer
370
13
48
1
60
0
100
AcDbEllipse
10
10.3
20
2.475537
30
0
11
-1.4
21
1.71444889535133E-16
31
0
210
0
220
0
230
1
40
0.996924
41
2.89811911807211
42
-3.14159265358979
0
ELLIPSE
5
21D
100
AcDbEntity
8
1
62
256
6
ByLayer
370
13
48
1
60
0
100
AcDbEllipse
10
8.9
20
2.483374
30
0
11
0.1
21
0
31
0
210
0
220
0
230
1
40
0.078373
41
-2.37654555824825
42
-1.5707963267949
0
ELLIPSE
5
21E
100
AcDbEntity
8
1
62
256
6
ByLayer
370
18
48
1
60
0
100
AcDbEllipse
10
2.78498
20
34.874715
30
0
11
0.0175436908818416
21
0.149865587762169
31
0
210
0
220
0
230
1
40
0.361878
41
-2.30513073392292
42
-1.25793318272353
0
ELLIPSE
5
21F
100
AcDbEntity
8
1
62
256
6
ByLayer
370
18
48
1
60
0
100
AcDbEllipse
10
8
20
7.472307
30
0
11
3
21
0
31
0
210
0
220
0
230
1
40
0.67559
41
-2.60551022039918
42
-1.67096374795646
0
POINT
5
70
100
AcDbEntity
8
80
62
256
6
ByLayer
370
18
48
1
60
0
100
AcDbPoint
10
0
20
0
30
0
39
0
210
0
220
0
230
1
50
360
0
POINT
5
72
100
AcDbEntity
8
81
62
256
6
ByLayer
370
18
48
1
60
0
100
AcDbPoint
10
14
20
40
30
0
39
0
210
0
220
0
230
1
50
360
0
POINT
5
74
100
AcDbEntity
8
1
62
256
6
ByLayer
370
18
48
1
60
1
100
AcDbPoint
10
14
20
40
30
0
39
0
210
0
220
0
230
1
50
360
0
POINT
5
76
100
AcDbEntity
8
1
62
256
6
ByLayer
370
18
48
1
60
1
100
AcDbPoint
10
6.4
20
40
30
0
39
0
210
0
220
0
230
1
50
360
0
POINT
5
77
100
AcDbEntity
8
1
62
256
6
ByLayer
370
18
48
1
60
1
100
AcDbPoint
10
0
20
-19.5
30
0
39
0
210
0
220
0
230
1
50
360
0
POINT
5
78
100
AcDbEntity
8
1
62
256
6
ByLayer
370
18
48
1
60
1
100
AcDbPoint
10
16
20
-19.5
30
0
39
0
210
0
220
0
230
1
50
360
0
POINT
5
79
100
AcDbEntity
8
1
62
256
6
ByLayer
370
18
48
1
60
1
100
AcDbPoint
10
2.5
20
40
30
0
39
0
210
0
220
0
230
1
50
360
0
SPLINE
5
220
100
AcDbEntity
8
1
62
256
6
ByLayer
370
18
48
1
60
0
100
AcDbSpline
70
4
71
3
72
8
73
4
40
0
40
0
40
0
40
0
40
1
40
1
40
1
40
1
41
1
10
7.69999999999999
20
5.45569567754774
30
0
41
1
10
7.69999999999999
20
5.34052866238534
30
0
41
1
10
7.69999999999999
20
5.22536537499224
30
0
41
1
10
7.69999999999999
20
5.11020618575162
30
0
0
SPLINE
5
221
100
AcDbEntity
8
1
62
256
6
ByLayer
370
18
48
1
60
0
100
AcDbSpline
70
4
71
3
72
24
73
20
40
0
40
0
40
0
40
0
40
0.0624999999999977
40
0.0624999999999977
40
0.124999999999995
40
0.124999999999995
40
0.249999999999996
40
0.249999999999996
40
0.374999999999997
40
0.374999999999997
40
0.499999999999997
40
0.499999999999997
40
0.624999999999998
40
0.624999999999998
40
0.749999999999999
40
0.749999999999999
40
0.874999999999999
40
0.874999999999999
40
1
40
1
40
1
40
1
41
1
10
8.19999999999999
20
6.61530518255268
30
0
41
1
10
8.18316450198188
20
6.61420618090824
30
0
41
1
10
8.16634591568396
20
6.61257200732598
30
0
41
1
10
8.13274330120464
20
6.60821804687566
30
0
41
1
10
8.11586192787752
20
6.60547712642472
30
0
41
1
10
8.06614697718788
20
6.59572294309339
30
0
41
1
10
8.03422605318269
20
6.58722942641651
30
0
41
1
10
7.97276913240739
20
6.56622479368099
30
0
41
1
10
7.94306352892255
20
6.5535716529717
30
0
41
1
10
7.88857404543279
20
6.52505496179691
30
0
41
1
10
7.86346557078315
20
6.50911343463917
30
0
41
1
10
7.81754917867784
20
6.47361106978832
30
0
41
1
10
7.79719852442946
20
6.45435590886507
30
0
41
1
10
7.76221169303653
20
6.41353257316541
30
0
41
1
10
7.74733860308362
20
6.39166163957339
30
0
41
1
10
7.72359234387159
20
6.34606461694051
30
0
41
1
10
7.71478581652354
20
6.3225907007328
30
0
41
1
10
7.70297419892881
20
6.27426008092357
30
0
41
1
10
7.69999999999999
20
6.24918169850093
30
0
41
1
10
7.69999999999999
20
6.2242025099527
30
0
0
SPLINE
5
222
100
AcDbEntity
8
1
62
256
6
ByLayer
370
18
48
1
60
0
100
AcDbSpline
70
4
71
3
72
22
73
18
40
0
40
0
40
0
40
0
40
0.133024993752422
40
0.133024993752422
40
0.241396869533369
40
0.241396869533369
40
0.349768745314315
40
0.349768745314315
40
0.566512496876209
40
0.566512496876209
40
0.620698434766682
40
0.620698434766682
40
0.674884372657156
40
0.674884372657156
40
0.783256248438103
40
0.783256248438103
40
1
40
1
40
1
40
1
41
1
10
10.4057954527783
20
7.74681603821904
30
0
41
1
10
10.3384658737519
20
7.66471657518798
30
0
41
1
10
10.2660944645587
20
7.58549194612277
30
0
41
1
10
10.1255466768062
20
7.44717374122069
30
0
41
1
10
10.0590067705874
20
7.3870437522404
30
0
41
1
10
9.91899774885974
20
7.27129298460022
30
0
41
1
10
9.8465495882466
20
7.216511272594
30
0
41
1
10
9.62199372669943
20
7.06146830496766
30
0
41
1
10
9.46274213860494
20
6.9704225699021
30
0
41
1
10
9.25113016526302
20
6.87334672285766
30
0
41
1
10
9.20817497506528
20
6.85477506040047
30
0
41
1
10
9.12096052920845
20
6.81938209154663
30
0
41
1
10
9.07660927551467
20
6.80253338265226
30
0
41
1
10
8.94300224217875
20
6.75522117763399
30
0
41
1
10
8.8528044889344
20
6.72780873941434
30
0
41
1
10
8.57885886168333
20
6.65796521749098
30
0
41
1
10
8.39178895421793
20
6.6278249414483
30
0
41
1
10
8.19999999999999
20
6.61530518255268
30
0
0
SPLINE
5
223
100
AcDbEntity
8
1
62
256
6
ByLayer
370
18
48
1
60
0
100
AcDbSpline
70
4
71
3
72
24
73
20
40
0
40
0
40
0
40
0
40
0.0625000000000086
40
0.0625000000000086
40
0.125000000000017
40
0.125000000000017
40
0.250000000000013
40
0.250000000000013
40
0.312500000000011
40
0.312500000000011
40
0.37500000000001
40
0.37500000000001
40
0.500000000000007
40
0.500000000000007
40
0.625000000000005
40
0.625000000000005
40
0.750000000000002
40
0.750000000000002
40
1
40
1
40
1
40
1
41
1
10
2.5
20
35.9663689964377
30
0
41
1
10
2.5
20
35.9857308623784
30
0
41
1
10
2.50060363570145
20
36.0053304768555
30
0
41
1
10
2.50293670317547
20
36.0449731129299
30
0
41
1
10
2.50468598344389
20
36.0651764854778
30
0
41
1
10
2.51137624752494
20
36.1251286639374
30
0
41
1
10
2.51766315060951
20
36.1639819705849
30
0
41
1
10
2.52905880966875
20
36.2210625474147
30
0
41
1
10
2.53319809784085
20
36.2399020111213
30
0
41
1
10
2.54188164955809
20
36.2765243447504
30
0
41
1
10
2.54644548945862
20
36.2944099764095
30
0
41
1
10
2.56069093832315
20
36.3470053923182
30
0
41
1
10
2.57092075801222
20
36.3806646555823
30
0
41
1
10
2.59247190812386
20
36.4458915504101
30
0
41
1
10
2.60380767541727
20
36.4774587404365
30
0
41
1
10
2.62693680092878
20
36.5378953187211
30
0
41
1
10
2.63878595216602
20
36.5669302921812
30
0
41
1
10
2.67500675266353
20
36.651235444255
30
0
41
1
10
2.70004260893285
20
36.7037438576495
30
0
41
1
10
2.72570844086278
20
36.7536328393841
30
0
0
SPLINE
5
224
100
AcDbEntity
8
1
62
256
6
ByLayer
370
18
48
1
60
0
100
AcDbSpline
70
4
71
3
72
20
73
16
40
0
40
0
40
0
40
0
40
0.249999999999999
40
0.249999999999999
40
0.499999999999997
40
0.499999999999997
40
0.624999999999998
40
0.624999999999998
40
0.749999999999998
40
0.749999999999998
40
0.874999999999999
40
0.874999999999999
40
0.937499999999999
40
0.937499999999999
40
1
40
1
40
1
40
1
41
1
10
13.2742915591398
20
36.7536328393767
30
0
41
1
10
13.2999020595863
20
36.7038514104137
30
0
41
1
10
13.3250796777154
20
36.6510798535909
30
0
41
1
10
13.3737607282045
20
36.5376813588007
30
0
41
1
10
13.3971147286864
20
36.477529997657
30
0
41
1
10
13.4294377275491
20
36.3795174938974
30
0
41
1
10
13.4396415442814
20
36.3458594232423
30
0
41
1
10
13.4585376567012
20
36.2759277067107
30
0
41
1
10
13.4672397971896
20
36.2396710965327
30
0
41
1
10
13.4824477317381
20
36.1633572613485
30
0
41
1
10
13.4887262941888
20
36.1243845928338
30
0
41
1
10
13.4953622083918
20
36.0646552498746
30
0
41
1
10
13.4971012885848
20
36.0444612871946
30
0
41
1
10
13.4994089396689
20
36.004980132452
30
0
41
1
10
13.5000000000001
20
35.9855247810568
30
0
41
1
10
13.5000000000001
20
35.9663689964376
30
0
0
SPLINE
5
225
100
AcDbEntity
8
1
62
256
6
ByLayer
370
18
48
1
60
0
100
AcDbSpline
70
4
71
3
72
8
73
4
40
0
40
0
40
0
40
0
40
1
40
1
40
1
40
1
41
1
10
7.69999999999999
20
8.48153303642249
30
0
41
1
10
7.69999999999999
20
8.41141638033997
30
0
41
1
10
7.69999999999999
20
8.34129533863654
30
0
41
1
10
7.69999999999999
20
8.27116947556635
30
0
0
SPLINE
5
226
100
AcDbEntity
8
1
62
256
6
ByLayer
370
18
48
1
60
0
100
AcDbSpline
70
4
71
3
72
20
73
16
40
0
40
0
40
0
40
0
40
0.25
40
0.25
40
0.375000000000001
40
0.375000000000001
40
0.500000000000001
40
0.500000000000001
40
0.750000000000001
40
0.750000000000001
40
0.812500000000001
40
0.812500000000001
40
0.875
40
0.875
40
1
40
1
40
1
40
1
41
1
10
5.4208512303569
20
6.43708945487521
30
0
41
1
10
5.54557666722815
20
6.26161558730894
30
0
41
1
10
5.68923376720289
20
6.09852870607841
30
0
41
1
10
5.93275524786759
20
5.8735483707365
30
0
41
1
10
6.01870093771606
20
5.80182463635782
30
0
41
1
10
6.20038065263361
20
5.66578348202415
30
0
41
1
10
6.29447287332158
20
5.60269201740402
30
0
41
1
10
6.58637288609617
20
5.42831231034478
30
0
41
1
10
6.79366769940975
20
5.33171075903289
30
0
41
1
10
7.07018063358498
20
5.2388123115021
30
0
41
1
10
7.12625206365112
20
5.22169117602772
30
0
41
1
10
7.23887860011047
20
5.190727630455
30
0
41
1
10
7.29558236156737
20
5.17683367010108
30
0
41
1
10
7.4668695421305
20
5.13995335747234
30
0
41
1
10
7.58262512100095
20
5.12175470808467
30
0
41
1
10
7.69999999999999
20
5.11020618575162
30
0
0
SPLINE
5
227
100
AcDbEntity
8
1
62
256
6
ByLayer
370
18
48
1
60
0
100
AcDbSpline
70
4
71
3
72
8
73
4
40
0
40
0
40
0
40
0
40
1
40
1
40
1
40
1
41
1
10
5.24688683129733
20
6.74984074760255
30
0
41
1
10
5.29733216430856
20
6.64400815610117
30
0
41
1
10
5.35528955040445
20
6.53971034265811
30
0
41
1
10
5.4208512303569
20
6.43708945487521
30
0
0
SPLINE
5
228
100
AcDbEntity
8
1
62
256
6
ByLayer
370
18
48
1
60
0
100
AcDbSpline
70
4
71
3
72
20
73
16
40
0
40
0
40
0
40
0
40
0.250000000000001
40
0.250000000000001
40
0.375000000000001
40
0.375000000000001
40
0.500000000000001
40
0.500000000000001
40
0.75
40
0.75
40
0.8125
40
0.8125
40
0.875
40
0.875
40
1
40
1
40
1
40
1
41
1
10
5.4208512303569
20
7.06332001998663
30
0
41
1
10
5.54557666722815
20
7.23345015361224
30
0
41
1
10
5.68923376720289
20
7.3872449827399
30
0
41
1
10
5.93275524786759
20
7.59532620493172
30
0
41
1
10
6.01870093771606
20
7.66091467664182
30
0
41
1
10
6.20038065263361
20
7.7841812762054
30
0
41
1
10
6.29447287332158
20
7.84075258640456
30
0
41
1
10
6.58637288609617
20
7.99593689474648
30
0
41
1
10
6.79366769940975
20
8.08023045677038
30
0
41
1
10
7.07018063358498
20
8.16068069417361
30
0
41
1
10
7.12625206365112
20
8.17546519275868
30
0
41
1
10
7.23887860011047
20
8.2021499871525
30
0
41
1
10
7.29558236156737
20
8.21409494680029
30
0
41
1
10
7.4668695421305
20
8.24575370937993
30
0
41
1
10
7.58262512100095
20
8.26130687306005
30
0
41
1
10
7.69999999999999
20
8.27116947556635
30
0
0
SPLINE
5
229
100
AcDbEntity
8
1
62
256
6
ByLayer
370
18
48
1
60
0
100
AcDbSpline
70
4
71
3
72
22
73
18
40
0
40
0
40
0
40
0
40
0.125
40
0.125
40
0.25
40
0.25
40
0.375
40
0.375
40
0.5
40
0.5
40
0.625
40
0.625
40
0.75
40
0.75
40
0.875
40
0.875
40
1
40
1
40
1
40
1
41
1
10
7.69999999999999
20
-11.1350580186932
30
0
41
1
10
7.69999999999999
20
-11.1592327284177
30
0
41
1
10
7.70319433977562
20
-11.1833682921063
30
0
41
1
10
7.71593033073191
20
-11.2315204691332
30
0
41
1
10
7.72560242840632
20
-11.2556381343058
30
0
41
1
10
7.75058853576576
20
-11.3015571377636
30
0
41
1
10
7.76593891111622
20
-11.3236260236707
30
0
41
1
10
7.80251187413967
20
-11.365761368838
30
0
41
1
10
7.82342909349814
20
-11.3854130490522
30
0
41
1
10
7.86950758364128
20
-11.4209638021128
30
0
41
1
10
7.8950224589679
20
-11.4371198593987
30
0
41
1
10
7.949738207812
20
-11.4650004838998
30
0
41
1
10
7.97851467362074
20
-11.4765633752946
30
0
41
1
10
8.03884178602812
20
-11.4948682336526
30
0
41
1
10
8.0707362218659
20
-11.5016179614048
30
0
41
1
10
8.13484887325149
20
-11.5095149932462
30
0
41
1
10
8.16725113588006
20
-11.5107762629336
30
0
41
1
10
8.19999999999999
20
-11.5093105986055
30
0
0
SPLINE
5
22A
100
AcDbEntity
8
1
62
256
6
ByLayer
370
18
48
1
60
0
100
AcDbSpline
70
4
71
3
72
24
73
20
40
0
40
0
40
0
40
0
40
0.0624999999999972
40
0.0624999999999972
40
0.124999999999995
40
0.124999999999995
40
0.249999999999995
40
0.249999999999995
40
0.374999999999996
40
0.374999999999996
40
0.499999999999997
40
0.499999999999997
40
0.624999999999998
40
0.624999999999998
40
0.749999999999998
40
0.749999999999998
40
0.874999999999999
40
0.874999999999999
40
1
40
1
40
1
40
1
41
1
10
8.19999999999999
20
8.83177915021258
30
0
41
1
10
8.18316450198188
20
8.83277782143847
30
0
41
1
10
8.16634591568396
20
8.83345048690552
30
0
41
1
10
8.13274330120464
20
8.83414229524243
30
0
41
1
10
8.11586192787752
20
8.8341583817022
30
0
41
1
10
8.06614697718788
20
8.83322867845305
30
0
41
1
10
8.03422605318269
20
8.83133214732322
30
0
41
1
10
7.97276913240739
20
8.82525006227394
30
0
41
1
10
7.94306352892255
20
8.82100659660904
30
0
41
1
10
7.88857404543279
20
8.81083835589465
30
0
41
1
10
7.86346557078315
20
8.8048966160045
30
0
41
1
10
7.81754917867784
20
8.79160287466163
30
0
41
1
10
7.79719852442946
20
8.7843688606892
30
0
41
1
10
7.76221169303653
20
8.76935856528092
30
0
41
1
10
7.74733860308362
20
8.76147263847162
30
0
41
1
10
7.72359234387159
20
8.74561772910107
30
0
41
1
10
7.71478581652354
20
8.73773303256434
30
0
41
1
10
7.70297419892881
20
8.72219206195018
30
0
41
1
10
7.69999999999999
20
8.71447361314426
30
0
41
1
10
7.69999999999999
20
8.70714057080602
30
0
0
SPLINE
5
22B
100
AcDbEntity
8
1
62
256
6
ByLayer
370
18
48
1
60
0
100
AcDbSpline
70
4
71
3
72
32
73
28
40
0
40
0
40
0
40
0
40
0.0328819735295497
40
0.0328819735295497
40
0.171041691596752
40
0.171041691596752
40
0.240121550630354
40
0.240121550630354
40
0.274661480147155
40
0.274661480147155
40
0.309201409663957
40
0.309201409663957
40
0.447361127731162
40
0.447361127731162
40
0.516440986764765
40
0.516440986764765
40
0.585520845798368
40
0.585520845798368
40
0.723680563865576
40
0.723680563865576
40
0.758220493382379
40
0.758220493382379
40
0.792760422899183
40
0.792760422899183
40
0.861840281932789
40
0.861840281932789
40
1
40
1
40
1
40
1
41
1
10
10.964083386545
20
6.5321715178049
30
0
41
1
10
10.9572053261336
20
6.57307291120531
30
0
41
1
10
10.9493299950215
20
6.61385500421744
30
0
41
1
10
10.9035900858654
20
6.82355193324793
30
0
41
1
10
10.8503126366276
20
6.98645383862402
30
0
41
1
10
10.7467513727324
20
7.2217267283998
30
0
41
1
10
10.7082629232486
20
7.29862894757571
30
0
41
1
10
10.6444364727511
20
7.41170280599658
30
0
41
1
10
10.622097275068
20
7.44907931633429
30
0
41
1
10
10.5757884676688
20
7.52238276491846
30
0
41
1
10
10.551781615961
20
7.55838368354409
30
0
41
1
10
10.4275473910772
20
7.73521424833666
30
0
41
1
10
10.3148377901298
20
7.86660363767555
30
0
41
1
10
10.1255466768062
20
8.04909257540015
30
0
41
1
10
10.0590067705874
20
8.10751299634615
30
0
41
1
10
9.91899774885974
20
8.21918203275163
30
0
41
1
10
9.8465495882466
20
8.27162320651115
30
0
41
1
10
9.62199372669943
20
8.41913777800511
30
0
41
1
10
9.46274213860494
20
8.50449452016335
30
0
41
1
10
9.25113016526302
20
8.5947721469152
30
0
41
1
10
9.20817497506528
20
8.61199932159468
30
0
41
1
10
9.12096052920845
20
8.64476093392318
30
0
41
1
10
9.07660927551467
20
8.66032049550216
30
0
41
1
10
8.94300224217875
20
8.70393166617134
30
0
41
1
10
8.8528044889344
20
8.72908708186242
30
0
41
1
10
8.57885886168339
20
8.79302731805188
30
0
41
1
10
8.39178895421793
20
8.82040234925205
30
0
41
1
10
8.19999999999999
20
8.83177915021258
30
0
0
SPLINE
5
22C
100
AcDbEntity
8
1
62
256
6
ByLayer
370
18
48
1
60
0
100
AcDbSpline
70
4
71
3
72
10
73
6
40
0
40
0
40
0
40
0
40
0.171585864949652
40
0.171585864949652
40
1
40
1
40
1
40
1
41
1
10
5.08710255573391
20
6.32263471848239
30
0
41
1
10
5.09929174046619
20
6.36798538947926
30
0
41
1
10
5.11269160872183
20
6.41280101205678
30
0
41
1
10
5.19769753504249
20
6.67095737944044
30
0
41
1
10
5.29533974476783
20
6.87284503024028
30
0
41
1
10
5.4208512303569
20
7.06332001998663
30
0
0
SPLINE
5
22D
100
AcDbEntity
8
1
62
256
6
ByLayer
370
18
48
1
60
0
100
AcDbSpline
70
4
71
3
72
16
73
12
40
0
40
0
40
0
40
0
40
0.125000000000006
40
0.125000000000006
40
0.250000000000012
40
0.250000000000012
40
0.500000000000008
40
0.500000000000008
40
0.750000000000004
40
0.750000000000004
40
1
40
1
40
1
40
1
41
1
10
12.9954335865887
20
-36.866104229577
30
0
41
1
10
12.9800746835012
20
-36.8702490058112
30
0
41
1
10
12.9628733067417
20
-36.8759102409942
30
0
41
1
10
12.9260832228849
20
-36.8881119964342
30
0
41
1
10
12.9065112048648
20
-36.8946813967889
30
0
41
1
10
12.8468891305437
20
-36.9137821445085
30
0
41
1
10
12.8049107969393
20
-36.9259993079399
30
0
41
1
10
12.7193630126994
20
-36.9461088174151
30
0
41
1
10
12.6761021412512
20
-36.9540155165203
30
0
41
1
10
12.5887071748285
20
-36.9646975967502
30
0
41
1
10
12.5445725452785
20
-36.9674825876897
30
0
41
1
10
12.5000000000014
20
-36.9674825876898
30
0
0
SPLINE
5
22E
100
AcDbEntity
8
1
62
256
6
ByLayer
370
18
48
1
60
0
100
AcDbSpline
70
4
71
3
72
12
73
8
40
0
40
0
40
0
40
0
40
0.500000000000003
40
0.500000000000003
40
0.750000000000001
40
0.750000000000001
40
1
40
1
40
1
40
1
41
1
10
13.2742915591398
20
-36.7536328393768
30
0
41
1
10
13.2398355820632
20
-36.7739035369934
30
0
41
1
10
13.2005268912951
20
-36.7936375028009
30
0
41
1
10
13.1315016594342
20
-36.8221255277239
30
0
41
1
10
13.1067619319126
20
-36.8314377486138
30
0
41
1
10
13.0539265632297
20
-36.849317579199
30
0
41
1
10
13.025761572372
20
-36.8579198746152
30
0
41
1
10
12.9954335865906
20
-36.8661042295774
30
0
0
SPLINE
5
22F
100
AcDbEntity
8
1
62
256
6
ByLayer
370
18
48
1
60
0
100
AcDbSpline
70
4
71
3
72
20
73
16
40
0
40
0
40
0
40
0
40
0.249999999999993
40
0.249999999999993
40
0.499999999999986
40
0.499999999999986
40
0.624999999999989
40
0.624999999999989
40
0.749999999999993
40
0.749999999999993
40
0.874999999999997
40
0.874999999999997
40
0.937499999999998
40
0.937499999999998
40
1
40
1
40
1
40
1
41
1
10
13.2742915591398
20
-36.7536328393767
30
0
41
1
10
13.2999020595863
20
-36.7038514104138
30
0
41
1
10
13.3250796777154
20
-36.651079853591
30
0
41
1
10
13.3737607282045
20
-36.5376813588008
30
0
41
1
10
13.3971147286864
20
-36.4775299976571
30
0
41
1
10
13.4294377275491
20
-36.3795174938974
30
0
41
1
10
13.4396415442814
20
-36.3458594232424
30
0
41
1
10
13.4585376567012
20
-36.2759277067107
30
0
41
1
10
13.4672397971896
20
-36.2396710965327
30
0
41
1
10
13.4824477317381
20
-36.1633572613486
30
0
41
1
10
13.4887262941888
20
-36.1243845928338
30
0
41
1
10
13.4953622083918
20
-36.0646552498747
30
0
41
1
10
13.4971012885848
20
-36.0444612871946
30
0
41
1
10
13.4994089396689
20
-36.004980132452
30
0
41
1
10
13.5000000000001
20
-35.9855247810568
30
0
41
1
10
13.5000000000001
20
-35.9663689964377
30
0
0
SPLINE
5
230
100
AcDbEntity
8
1
62
256
6
ByLayer
370
18
48
1
60
0
100
AcDbSpline
70
4
71
3
72
22
73
18
40
0
40
0
40
0
40
0
40
0.125
40
0.125
40
0.25
40
0.25
40
0.375
40
0.375
40
0.5
40
0.5
40
0.625
40
0.625
40
0.75
40
0.75
40
0.875
40
0.875
40
1
40
1
40
1
40
1
41
1
10
7.16604483856713
20
15.0733188918558
30
0
41
1
10
7.23323448264523
20
15.0907705922463
30
0
41
1
10
7.30097193189664
20
15.107594762432
30
0
41
1
10
7.43760340311269
20
15.1380634358433
30
0
41
1
10
7.5064970740699
20
15.1517180370459
30
0
41
1
10
7.64550833310864
20
15.1743870030457
30
0
41
1
10
7.71562604712921
20
15.1833995954941
30
0
41
1
10
7.85716348358505
20
15.1956353960551
30
0
41
1
10
7.92894735721956
20
15.1988365171095
30
0
41
1
10
8.07139471422056
20
15.1988264830682
30
0
41
1
10
8.14217792948608
20
15.1956628287957
30
0
41
1
10
8.28290250402995
20
15.1835558595288
30
0
41
1
10
8.35284412634343
20
15.1746180556005
30
0
41
1
10
8.49193301165451
20
15.1520108041395
30
0
41
1
10
8.56108039472934
20
15.1383425721193
30
0
41
1
10
8.6986295411985
20
15.1076978308779
30
0
41
1
10
8.76686234078477
20
15.0907454435271
30
0
41
1
10
8.83395516143281
20
15.0733188918558
30
0
0
SPLINE
5
231
100
AcDbEntity
8
1
62
256
6
ByLayer
370
18
48
1
60
0
100
AcDbSpline
70
4
71
3
72
18
73
14
40
0
40
0
40
0
40
0
40
0.25792761204063
40
0.25792761204063
40
0.386891418060944
40
0.386891418060944
40
0.515855224081258
40
0.515855224081258
40
0.773782836121885
40
0.773782836121885
40
0.902746642142198
40
0.902746642142198
40
1
40
1
40
1
40
1
41
1
10
8.19999999999999
20
-11.5093105986055
30
0
41
1
10
8.39170083384994
20
-11.5007310926775
30
0
41
1
10
8.57907678526391
20
-11.4800793475471
30
0
41
1
10
8.85392120282307
20
-11.4313968032169
30
0
41
1
10
8.94449214469086
20
-11.4121942702391
30
0
41
1
10
9.12350471800892
20
-11.3676147548415
30
0
41
1
10
9.21234447678415
20
-11.3420837421256
30
0
41
1
10
9.47046991343439
20
-11.2573742001878
30
0
41
1
10
9.63268480601096
20
-11.1899773463876
30
0
41
1
10
9.86144873566974
20
-11.0718269917032
30
0
41
1
10
9.93526086191639
20
-11.0295812689541
30
0
41
1
10
10.0603100564419
20
-10.950132541087
30
0
41
1
10
10.1121780678103
20
-10.9145195739566
30
0
41
1
10
10.1619670402099
20
-10.8776042415688
30
0
0
SPLINE
5
232
100
AcDbEntity
8
1
62
256
6
ByLayer
370
18
48
1
60
0
100
AcDbSpline
70
4
71
3
72
24
73
20
40
0
40
0
40
0
40
0
40
0.0624999999999905
40
0.0624999999999905
40
0.124999999999981
40
0.124999999999981
40
0.249999999999983
40
0.249999999999983
40
0.312499999999985
40
0.312499999999985
40
0.374999999999986
40
0.374999999999986
40
0.499999999999988
40
0.499999999999988
40
0.62499999999999
40
0.62499999999999
40
0.749999999999992
40
0.749999999999992
40
1
40
1
40
1
40
1
41
1
10
2.5
20
-35.9663689964377
30
0
41
1
10
2.5
20
-35.9857308623785
30
0
41
1
10
2.50060363570145
20
-36.0053304768555
30
0
41
1
10
2.50293670317547
20
-36.0449731129299
30
0
41
1
10
2.50468598344389
20
-36.0651764854779
30
0
41
1
10
2.51137624752494
20
-36.1251286639374
30
0
41
1
10
2.51766315060951
20
-36.1639819705849
30
0
41
1
10
2.52905880966875
20
-36.2210625474147
30
0
41
1
10
2.53319809784085
20
-36.2399020111213
30
0
41
1
10
2.54188164955809
20
-36.2765243447505
30
0
41
1
10
2.54644548945862
20
-36.2944099764095
30
0
41
1
10
2.56069093832315
20
-36.3470053923182
30
0
41
1
10
2.57092075801222
20
-36.3806646555823
30
0
41
1
10
2.59247190812386
20
-36.4458915504101
30
0
41
1
10
2.60380767541727
20
-36.4774587404365
30
0
41
1
10
2.62693680092878
20
-36.5378953187211
30
0
41
1
10
2.63878595216602
20
-36.5669302921813
30
0
41
1
10
2.67500675266353
20
-36.651235444255
30
0
41
1
10
2.70004260893285
20
-36.7037438576496
30
0
41
1
10
2.72570844086278
20
-36.7536328393841
30
0
0
SPLINE
5
233
100
AcDbEntity
8
1
62
256
6
ByLayer
370
18
48
1
60
0
100
AcDbSpline
70
4
71
3
72
10
73
6
40
0
40
0
40
0
40
0
40
0.5
40
0.5
40
1
40
1
40
1
40
1
41
1
10
3.00456641341145
20
-36.866104229577
30
0
41
1
10
2.94357394949941
20
-36.849644713331
30
0
41
1
10
2.89183603325972
20
-36.8317273092549
30
0
41
1
10
2.80030539386587
20
-36.7940107503954
30
0
41
1
10
2.76058648279349
20
-36.774151840766
30
0
41
1
10
2.72570844085487
20
-36.7536328393737
30
0
0
SPLINE
5
234
100
AcDbEntity
8
1
62
256
6
ByLayer
370
18
48
1
60
0
100
AcDbSpline
70
4
71
3
72
16
73
12
40
0
40
0
40
0
40
0
40
0.249999999999996
40
0.249999999999996
40
0.499999999999992
40
0.499999999999992
40
0.749999999999988
40
0.749999999999988
40
0.874999999999994
40
0.874999999999994
40
1
40
1
40
1
40
1
41
1
10
3.5
20
-36.9674825876809
30
0
41
1
10
3.45538667470811
20
-36.9674825876809
30
0
41
1
10
3.41127785358083
20
-36.9646927598379
30
0
41
1
10
3.32406472246299
20
-36.9540389136155
30
0
41
1
10
3.28095989066623
20
-36.9461653381882
30
0
41
1
10
3.19587666855028
20
-36.9262035475861
30
0
41
1
10
3.15349999619394
20
-36.9139023993438
30
0
41
1
10
3.09365103697525
20
-36.8947355571671
30
0
41
1
10
3.07412114997737
20
-36.8881802532604
30
0
41
1
10
3.0371713182135
20
-36.8759245696838
30
0
41
1
10
3.01992714878946
20
-36.8702495002759
30
0
41
1
10
3.00456641341151
20
-36.866104229577
30
0
0
SPLINE
5
235
100
AcDbEntity
8
1
62
256
6
ByLayer
370
18
48
1
60
0
100
AcDbSpline
70
4
71
3
72
14
73
10
40
0
40
0
40
0
40
0
40
0.25
40
0.25
40
0.5
40
0.5
40
0.75
40
0.75
40
1
40
1
40
1
40
1
41
1
10
11.7
20
-24.9002892287926
30
0
41
1
10
11.715730606562
20
-24.9002892287926
30
0
41
1
10
11.730920939396
20
-24.9054437666256
30
0
41
1
10
11.7568077008495
20
-24.9224946526692
30
0
41
1
10
11.7674229669515
20
-24.9340871164571
30
0
41
1
10
11.7841281895032
20
-24.9602190976078
30
0
41
1
10
11.79003774256
20
-24.9743160974111
30
0
41
1
10
11.7980522151908
20
-25.0041189440686
30
0
41
1
10
11.8000000000039
20
-25.0193973449602
30
0
41
1
10
11.800000000004
20
-25.0348543348518
30
0
0
SPLINE
5
236
100
AcDbEntity
8
1
62
256
6
ByLayer
370
18
48
1
60
0
100
AcDbSpline
70
4
71
3
72
14
73
10
40
0
40
0
40
0
40
0
40
0.25
40
0.25
40
0.5
40
0.5
40
0.75
40
0.75
40
1
40
1
40
1
40
1
41
1
10
8.80000000000001
20
-25.0348543348527
30
0
41
1
10
8.80000000000001
20
-25.0193980685887
30
0
41
1
10
8.80193240276645
20
-25.004215027989
30
0
41
1
10
8.80992101868884
20
-24.9744308394977
30
0
41
1
10
8.81588007606001
20
-24.9602214575037
30
0
41
1
10
8.83249288189609
20
-24.9342035340538
30
0
41
1
10
8.84314406706358
20
-24.9225345217882
30
0
41
1
10
8.86906007819579
20
-24.9054481907941
30
0
41
1
10
8.88427243281427
20
-24.9002892287926
30
0
41
1
10
8.89999999999998
20
-24.9002892287926
30
0
0
SPLINE
5
237
100
AcDbEntity
8
1
62
256
6
ByLayer
370
18
48
1
60
0
100
AcDbSpline
70
4
71
3
72
26
73
22
40
0
40
0
40
0
40
0
40
0.125000000000007
40
0.125000000000007
40
0.250000000000015
40
0.250000000000015
40
0.312500000000018
40
0.312500000000018
40
0.375000000000022
40
0.375000000000022
40
0.500000000000017
40
0.500000000000017
40
0.625000000000012
40
0.625000000000012
40
0.687500000000011
40
0.687500000000011
40
0.750000000000009
40
0.750000000000009
40
0.875000000000004
40
0.875000000000004
40
1
40
1
40
1
40
1
41
1
10
2.5
20
-31.9346858562716
30
0
41
1
10
2.5
20
-31.9971494537774
30
0
41
1
10
2.50632169093598
20
-32.0603621150456
30
0
41
1
10
2.53110778129201
20
-32.1823136763184
30
0
41
1
10
2.54949113882327
20
-32.2416623406547
30
0
41
1
10
2.58632640808924
20
-32.3282075427931
30
0
41
1
10
2.60024008585532
20
-32.3567618937609
30
0
41
1
10
2.63066571820554
20
-32.4118501377416
30
0
41
1
10
2.64721353830191
20
-32.438504981816
30
0
41
1
10
2.70079984205967
20
-32.5158583835214
30
0
41
1
10
2.7417422772096
20
-32.5639708384189
30
0
41
1
10
2.83463223583584
20
-32.6530005970976
30
0
41
1
10
2.88515234009736
20
-32.6925211341141
30
0
41
1
10
2.96648200585594
20
-32.7443330847333
30
0
41
1
10
2.99454270617042
20
-32.7603680752736
30
0
41
1
10
3.05261304256385
20
-32.7899163140436
30
0
41
1
10
3.08276254341024
20
-32.8034702071831
30
0
41
1
10
3.17424100021765
20
-32.8394333570749
30
0
41
1
10
3.23707639465272
20
-32.8574976150783
30
0
41
1
10
3.36641405755637
20
-32.8819646742014
30
0
41
1
10
3.43323602923232
20
-32.8882879230805
30
0
41
1
10
3.5
20
-32.8882879230805
30
0
0
SPLINE
5
238
100
AcDbEntity
8
1
62
256
6
ByLayer
370
18
48
1
60
0
100
AcDbSpline
70
4
71
3
72
28
73
24
40
0
40
0
40
0
40
0
40
0.124999999999995
40
0.124999999999995
40
0.187499999999994
40
0.187499999999994
40
0.249999999999993
40
0.249999999999993
40
0.374999999999986
40
0.374999999999986
40
0.437499999999984
40
0.437499999999984
40
0.499999999999982
40
0.499999999999982
40
0.624999999999983
40
0.624999999999983
40
0.749999999999984
40
0.749999999999984
40
0.81249999999999
40
0.81249999999999
40
0.874999999999997
40
0.874999999999997
40
1
40
1
40
1
40
1
41
1
10
12.5
20
-32.8882879230803
30
0
41
1
10
12.5667912480818
20
-32.8882879230803
30
0
41
1
10
12.6324389576208
20
-32.8820997045426
30
0
41
1
10
12.7292662176399
20
-32.8639044303239
30
0
41
1
10
12.7612658157491
20
-32.8563421630898
30
0
41
1
10
12.8246994762579
20
-32.8381454135604
30
0
41
1
10
12.856154263848
20
-32.8274793588021
30
0
41
1
10
12.9475464855246
20
-32.7915639828638
30
0
41
1
10
13.005273111458
20
-32.7622528256002
30
0
41
1
10
13.0870982659793
20
-32.7102353604012
30
0
41
1
10
13.1137110024601
20
-32.6914317696884
30
0
41
1
10
13.1645218940426
20
-32.6516074109417
30
0
41
1
10
13.1886826365751
20
-32.630643409085
30
0
41
1
10
13.2575458277151
20
-32.5646754307275
30
0
41
1
10
13.2986627631357
20
-32.5166241199378
30
0
41
1
10
13.3710906401664
20
-32.4120923587368
30
0
41
1
10
13.4014067160725
20
-32.356980971234
30
0
41
1
10
13.438061945435
20
-32.2709303801283
30
0
41
1
10
13.4488270426032
20
-32.2416396602233
30
0
41
1
10
13.4674154435461
20
-32.1818218834909
30
0
41
1
10
13.4752537967684
20
-32.1511610310037
30
0
41
1
10
13.4938746607691
20
-32.0590950205755
30
0
41
1
10
13.5000000000001
20
-31.9971644535061
30
0
41
1
10
13.5
20
-31.9346858562711
30
0
0
SPLINE
5
239
100
AcDbEntity
8
1
62
256
6
ByLayer
370
18
48
1
60
0
100
AcDbSpline
70
4
71
3
72
66
73
62
40
0
40
0
40
0
40
0
40
0.0624999999999939
40
0.0624999999999939
40
0.124999999999988
40
0.124999999999988
40
0.187499999999982
40
0.187499999999982
40
0.249999999999976
40
0.249999999999976
40
0.31249999999997
40
0.31249999999997
40
0.343749999999966
40
0.343749999999966
40
0.374999999999962
40
0.374999999999962
40
0.406249999999961
40
0.406249999999961
40
0.437499999999959
40
0.437499999999959
40
0.453124999999958
40
0.453124999999958
40
0.468749999999958
40
0.468749999999958
40
0.484374999999957
40
0.484374999999957
40
0.492187499999957
40
0.492187499999957
40
0.499999999999957
40
0.499999999999957
40
0.507812499999957
40
0.507812499999957
40
0.515624999999957
40
0.515624999999957
40
0.523437499999957
40
0.523437499999957
40
0.531249999999957
40
0.531249999999957
40
0.546874999999959
40
0.546874999999959
40
0.562499999999961
40
0.562499999999961
40
0.578124999999963
40
0.578124999999963
40
0.593749999999965
40
0.593749999999965
40
0.624999999999967
40
0.624999999999967
40
0.687499999999972
40
0.687499999999972
40
0.718749999999975
40
0.718749999999975
40
0.749999999999978
40
0.749999999999978
40
0.812499999999984
40
0.812499999999984
40
0.874999999999989
40
0.874999999999989
40
0.937499999999995
40
0.937499999999995
40
1
40
1
40
1
40
1
41
1
10
8.80000000000001
20
-28.2641241293674
30
0
41
1
10
8.80000000000001
20
-28.4487020431128
30
0
41
1
10
8.80849323320945
20
-28.6314432207871
30
0
41
1
10
8.83935680493613
20
-28.9937803235364
30
0
41
1
10
8.86174848016071
20
-29.1733727031719
30
0
41
1
10
8.9188560980657
20
-29.5296865019114
30
0
41
1
10
8.95357322690234
20
-29.70640755444
30
0
41
1
10
9.03492933708333
20
-30.0570686705993
30
0
41
1
10
9.08154631755878
20
-30.2310118845277
30
0
41
1
10
9.18772768491988
20
-30.5759860112077
30
0
41
1
10
9.24683037725521
20
-30.7457044413461
30
0
41
1
10
9.34658545951868
20
-30.9950966616095
30
0
41
1
10
9.38171421337671
20
-31.077374637142
30
0
41
1
10
9.45660163005948
20
-31.2399324903435
30
0
41
1
10
9.49622664441887
20
-31.3199404026091
30
0
41
1
10
9.58091909192319
20
-31.4761827538997
30
0
41
1
10
9.62598232559566
20
-31.552520110076
30
0
41
1
10
9.72422066186084
20
-31.7001263979453
30
0
41
1
10
9.77723323501112
20
-31.7714881359445
30
0
41
1
10
9.86762395517309
20
-31.8720200161271
30
0
41
1
10
9.89971025322546
20
-31.904473310382
30
0
41
1
10
9.96774416213447
20
-31.9645335862192
30
0
41
1
10
10.0039501483485
20
-31.9924384649299
30
0
41
1
10
10.0821069524835
20
-32.0409943086951
30
0
41
1
10
10.1232692811959
20
-32.061189146822
30
0
41
1
10
10.1896207863481
20
-32.0825032746249
30
0
41
1
10
10.2125076770531
20
-32.0880410489639
30
0
41
1
10
10.2583585239712
20
-32.0952247536422
30
0
41
1
10
10.2815152502122
20
-32.0969416609511
30
0
41
1
10
10.3283214359998
20
-32.0963828897523
30
0
41
1
10
10.3518063898846
20
-32.0940666954317
30
0
41
1
10
10.3974673773159
20
-32.0857977616277
30
0
41
1
10
10.4198662079808
20
-32.0798488440216
30
0
41
1
10
10.4638931780496
20
-32.0647069201521
30
0
41
1
10
10.4852884627467
20
-32.0555800126653
30
0
41
1
10
10.5263423184473
20
-32.0351254553593
30
0
41
1
10
10.546133925422
20
-32.0237505184414
30
0
41
1
10
10.6037178118698
20
-31.9868208032244
30
0
41
1
10
10.6398895284183
20
-31.9583115912569
30
0
41
1
10
10.707106225056
20
-31.8978141679215
30
0
41
1
10
10.7384447014462
20
-31.8656373515269
30
0
41
1
10
10.7979986796186
20
-31.7985902794045
30
0
41
1
10
10.8261983156688
20
-31.7637068892834
30
0
41
1
10
10.8802434294627
20
-31.6918743382453
30
0
41
1
10
10.9060179600529
20
-31.6549950418558
30
0
41
1
10
10.9797941039263
20
-31.5431150787496
30
0
41
1
10
11.0246429015508
20
-31.4664584295468
30
0
41
1
10
11.1506941362469
20
-31.2322000587024
30
0
41
1
10
11.2235566625403
20
-31.0703768465969
30
0
41
1
10
11.3225697831085
20
-30.8218670169271
30
0
41
1
10
11.3537743159212
20
-30.7380306639733
30
0
41
1
10
11.4130067047222
20
-30.5685248711677
30
0
41
1
10
11.4410013225373
20
-30.4829177553809
30
0
41
1
10
11.5199931472808
20
-30.2254392599913
30
0
41
1
10
11.5662833283967
20
-30.052262001238
30
0
41
1
10
11.647119365656
20
-29.7029921708388
30
0
41
1
10
11.6816446394555
20
-29.5268964503865
30
0
41
1
10
11.7384688071014
20
-29.1716785086504
30
0
41
1
10
11.7607695133706
20
-28.9925567911133
30
0
41
1
10
11.7915240892563
20
-28.6309792026127
30
0
41
1
10
11.8000000000001
20
-28.4485272715536
30
0
41
1
10
11.8000000000001
20
-28.2641241293674
30
0
0
SPLINE
5
23A
100
AcDbEntity
8
1
62
256
6
ByLayer
370
18
48
1
60
0
100
AcDbSpline
70
4
71
3
72
8
73
4
40
0
40
0
40
0
40
0
40
1
40
1
40
1
40
1
41
1
10
2.5
20
3.67582524168239
30
0
41
1
10
2.36901232041583
20
3.66097172240819
30
0
41
1
10
2.23802668717934
20
3.64611797187132
30
0
41
1
10
2.10704321706322
20
3.63126397689854
30
0
0
SPLINE
5
23B
100
AcDbEntity
8
1
62
256
6
ByLayer
370
18
48
1
60
0
100
AcDbSpline
70
4
71
3
72
8
73
4
40
0
40
0
40
0
40
0
40
1
40
1
40
1
40
1
41
1
10
2.5
20
-16.5074882086435
30
0
41
1
10
2.36901232041583
20
-16.402013258106
30
0
41
1
10
2.23802668717934
20
-16.2965366653704
30
0
41
1
10
2.10704321706328
20
-16.1910583368934
30
0
0
SPLINE
5
23C
100
AcDbEntity
8
1
62
256
6
ByLayer
370
18
48
1
60
0
100
AcDbSpline
70
4
71
3
72
8
73
4
40
0
40
0
40
0
40
0
40
1
40
1
40
1
40
1
41
1
10
2.10704321706328
20
-16.1910583368934
30
0
41
1
10
1.69030000018432
20
-15.8975616467955
30
0
41
1
10
1.27361601364726
20
-15.6040236309045
30
0
41
1
10
0.8570032950729
20
-15.3104359372271
30
0
0
SPLINE
5
23D
100
AcDbEntity
8
1
62
256
6
ByLayer
370
18
48
1
60
0
100
AcDbSpline
70
4
71
3
72
8
73
4
40
0
40
0
40
0
40
0
40
1
40
1
40
1
40
1
41
1
10
0.8570032950729
20
-15.3104359372271
30
0
41
1
10
0.802148878508035
20
-15.2398011222197
30
0
41
1
10
0.747387735052826
20
-15.1690937724555
30
0
41
1
10
0.69272311750882
20
-15.098311980209
30
0
0
SPLINE
5
23E
100
AcDbEntity
8
1
62
256
6
ByLayer
370
18
48
1
60
0
100
AcDbSpline
70
4
71
3
72
18
73
14
40
0
40
0
40
0
40
0
40
0.250000000000001
40
0.250000000000001
40
0.500000000000002
40
0.500000000000002
40
0.562500000000002
40
0.562500000000002
40
0.625000000000002
40
0.625000000000002
40
0.750000000000001
40
0.750000000000001
40
1
40
1
40
1
40
1
41
1
10
0.69272311750882
20
-15.098311980209
30
0
41
1
10
0.61029633630659
20
-14.4913043728134
30
0
41
1
10
0.583020371733141
20
-13.8862875943546
30
0
41
1
10
0.637987355144162
20
-12.6802074407334
30
0
41
1
10
0.720202171435005
20
-12.0791430500757
30
0
41
1
10
0.887643553786461
20
-11.330147116579
30
0
41
1
10
0.924354243161417
20
-11.1804642522343
30
0
41
1
10
1.0040852584363
20
-10.8813262882048
30
0
41
1
10
1.04706147561757
20
-10.732061043789
30
0
41
1
10
1.18452387784555
20
-10.2866085888995
30
0
41
1
10
1.2876964055917
20
-9.99216838780018
30
0
41
1
10
1.6286737290385
20
-9.11574518679112
30
0
41
1
10
1.89786887056505
20
-8.54064437477348
30
0
41
1
10
2.20125181416699
20
-7.97303907997002
30
0
0
SPLINE
5
23F
100
AcDbEntity
8
1
62
256
6
ByLayer
370
18
48
1
60
0
100
AcDbSpline
70
4
71
3
72
14
73
10
40
0
40
0
40
0
40
0
40
0.5
40
0.5
40
0.75
40
0.75
40
0.875
40
0.875
40
1
40
1
40
1
40
1
41
1
10
2.20125181416699
20
-7.97303907997002
30
0
41
1
10
2.09944316210715
20
-7.22681190999293
30
0
41
1
10
2.03829924458449
20
-6.47521858759291
30
0
41
1
10
2.01200684780349
20
-5.33919526685082
30
0
41
1
10
2.0141285205986
20
-4.95908432665237
30
0
41
1
10
2.03400268463491
20
-4.38671527160363
30
0
41
1
10
2.04341721593551
20
-4.19558889421825
30
0
41
1
10
2.06766308492314
20
-3.81481250144304
30
0
41
1
10
2.08250160246627
20
-3.62488477104944
30
0
41
1
10
2.09999999999997
20
-3.43540806139862
30
0
0
SPLINE
5
240
100
AcDbEntity
8
1
62
256
6
ByLayer
370
18
48
1
60
0
100
AcDbSpline
70
4
71
3
72
44
73
40
40
0
40
0
40
0
40
0
40
0.124999999999995
40
0.124999999999995
40
0.249999999999991
40
0.249999999999991
40
0.312499999999989
40
0.312499999999989
40
0.374999999999986
40
0.374999999999986
40
0.406249999999985
40
0.406249999999985
40
0.437499999999984
40
0.437499999999984
40
0.468749999999983
40
0.468749999999983
40
0.484374999999982
40
0.484374999999982
40
0.499999999999981
40
0.499999999999981
40
0.507812499999982
40
0.507812499999982
40
0.515624999999983
40
0.515624999999983
40
0.531249999999983
40
0.531249999999983
40
0.562499999999984
40
0.562499999999984
40
0.593749999999985
40
0.593749999999985
40
0.624999999999986
40
0.624999999999986
40
0.687499999999989
40
0.687499999999989
40
0.749999999999991
40
0.749999999999991
40
0.874999999999995
40
0.874999999999995
40
1
40
1
40
1
40
1
41
1
10
2.10000000000002
20
-3.43540806139862
30
0
41
1
10
2.11066299058746
20
-3.31994672457262
30
0
41
1
10
2.12272626461299
20
-3.20464396705739
30
0
41
1
10
2.15051266026688
20
-2.97504930601951
30
0
41
1
10
2.16618907016999
20
-2.86074888355938
30
0
41
1
10
2.19388108530575
20
-2.69071625130738
30
0
41
1
10
2.20381566248102
20
-2.63427846510388
30
0
41
1
10
2.22568791790269
20
-2.52214762274235
30
0
41
1
10
2.23760899467658
20
-2.46636748698933
30
0
41
1
10
2.25795578699865
20
-2.38396126159501
30
0
41
1
10
2.26514633554632
20
-2.35673768723552
30
0
41
1
10
2.28074860869543
20
-2.30304818292194
30
0
41
1
10
2.28914981760585
20
-2.27652742805725
30
0
41
1
10
2.30806019873785
20
-2.22503731800856
30
0
41
1
10
2.31835933464936
20
-2.20005235059045
30
0
41
1
10
2.33769075777911
20
-2.16617055349116
30
0
41
1
10
2.34467229303976
20
-2.15562738077551
30
0
41
1
10
2.36130630772794
20
-2.13855606539005
30
0
41
1
10
2.37137912270072
20
-2.13196737634934
30
0
41
1
10
2.38752919332825
20
-2.1342943343675
30
0
41
1
10
2.39274746772873
20
-2.13714759657023
30
0
41
1
10
2.40199794707417
20
-2.14552350880314
30
0
41
1
10
2.40609390557375
20
-2.1509887340024
30
0
41
1
10
2.41684793254547
20
-2.16864064848471
30
0
41
1
10
2.42233445029842
20
-2.1823305190249
30
0
41
1
10
2.43631745363126
20
-2.22374458540048
30
0
41
1
10
2.44268549846902
20
-2.25288102240944
30
0
41
1
10
2.45353515258722
20
-2.31151065933523
30
0
41
1
10
2.45780439460651
20
-2.34090643744156
30
0
41
1
10
2.46519667323957
20
-2.39977689768045
30
0
41
1
10
2.46828904691421
20
-2.42925376425438
30
0
41
1
10
2.47644032759064
20
-2.51776041427348
30
0
41
1
10
2.4803952473107
20
-2.57686469014237
30
0
41
1
10
2.48681357613424
20
-2.69516831169261
30
0
41
1
10
2.48924210922598
20
-2.75439276738968
30
0
41
1
10
2.4950945347457
20
-2.93157291532077
30
0
41
1
10
2.49713372821447
20
-3.04927681248114
30
0
41
1
10
2.49961045378257
20
-3.28415802567167
30
0
41
1
10
2.50000000000006
20
-3.40132842476697
30
0
41
1
10
2.50000000000006
20
-3.51829459633984
30
0
0
SPLINE
5
241
100
AcDbEntity
8
1
62
256
6
ByLayer
370
18
48
1
60
0
100
AcDbSpline
70
4
71
3
72
8
73
4
40
0
40
0
40
0
40
0
40
1
40
1
40
1
40
1
41
1
10
2.10704321706322
20
3.63126397689854
30
0
41
1
10
1.69030000018432
20
3.51936136290686
30
0
41
1
10
1.27361601364726
20
3.40744299247086
30
0
41
1
10
0.8570032950729
20
3.29550568119379
30
0
0
SPLINE
5
242
100
AcDbEntity
8
1
62
256
6
ByLayer
370
18
48
1
60
0
100
AcDbSpline
70
4
71
3
72
8
73
4
40
0
40
0
40
0
40
0
40
1
40
1
40
1
40
1
41
1
10
0.8570032950729
20
3.29550568119379
30
0
41
1
10
0.802148878508035
20
3.33028925271884
30
0
41
1
10
0.747387735052826
20
3.36510854342708
30
0
41
1
10
0.69272311750882
20
3.39996449276333
30
0
0
SPLINE
5
243
100
AcDbEntity
8
1
62
256
6
ByLayer
370
18
48
1
60
0
100
AcDbSpline
70
4
71
3
72
18
73
14
40
0
40
0
40
0
40
0
40
0.25
40
0.25
40
0.5
40
0.5
40
0.5625
40
0.5625
40
0.625
40
0.625
40
0.75
40
0.75
40
1
40
1
40
1
40
1
41
1
10
0.692723117508308
20
3.39996449276339
30
0
41
1
10
0.610296298229969
20
4.22005691150872
30
0
41
1
10
0.583020365722348
20
5.03745944528157
30
0
41
1
10
0.63798739893781
20
6.66692292621286
30
0
41
1
10
0.720202231790324
20
7.47898524550129
30
0
41
1
10
0.887643538002976
20
8.49090884720556
30
0
41
1
10
0.924354207393606
20
8.6931364004044
30
0
41
1
10
1.00408517141523
20
9.09728376621786
30
0
41
1
10
1.0470614067724
20
9.29894731135084
30
0
41
1
10
1.18452382694295
20
9.90077186527168
30
0
41
1
10
1.28769636741066
20
10.2985726476414
30
0
41
1
10
1.62867372328571
20
11.4826562767424
30
0
41
1
10
1.89786887817934
20
12.2596409610204
30
0
41
1
10
2.20125181416699
20
13.0264988499934
30
0
0
SPLINE
5
244
100
AcDbEntity
8
1
62
256
6
ByLayer
370
18
48
1
60
0
100
AcDbSpline
70
4
71
3
72
14
73
10
40
0
40
0
40
0
40
0
40
0.499999999999999
40
0.499999999999999
40
0.749999999999999
40
0.749999999999999
40
0.875
40
0.875
40
1
40
1
40
1
40
1
41
1
10
2.20125181416699
20
13.0264988499934
30
0
41
1
10
2.09941081757472
20
13.5669161205844
30
0
41
1
10
2.03827597278331
20
14.1111422825195
30
0
41
1
10
2.0120051769066
20
14.9336039750688
30
0
41
1
10
2.01413521576848
20
15.2087765709168
30
0
41
1
10
2.03401577010862
20
15.6230967334075
30
0
41
1
10
2.04343825896115
20
15.7615358662391
30
0
41
1
10
2.0676880471284
20
16.0371719578215
30
0
41
1
10
2.08252153586136
20
16.1745857711119
30
0
41
1
10
2.09999999999997
20
16.3116048464806
30
0
0
SPLINE
5
245
100
AcDbEntity
8
1
62
256
6
ByLayer
370
18
48
1
60
0
100
AcDbSpline
70
4
71
3
72
44
73
40
40
0
40
0
40
0
40
0
40
0.125000000000008
40
0.125000000000008
40
0.250000000000015
40
0.250000000000015
40
0.312500000000018
40
0.312500000000018
40
0.37500000000002
40
0.37500000000002
40
0.406250000000022
40
0.406250000000022
40
0.437500000000024
40
0.437500000000024
40
0.468750000000026
40
0.468750000000026
40
0.484375000000027
40
0.484375000000027
40
0.500000000000028
40
0.500000000000028
40
0.507812500000028
40
0.507812500000028
40
0.515625000000029
40
0.515625000000029
40
0.531250000000027
40
0.531250000000027
40
0.562500000000027
40
0.562500000000027
40
0.593750000000026
40
0.593750000000026
40
0.625000000000025
40
0.625000000000025
40
0.687500000000021
40
0.687500000000021
40
0.750000000000016
40
0.750000000000016
40
0.875000000000008
40
0.875000000000008
40
1
40
1
40
1
40
1
41
1
10
2.10000000000002
20
16.3116048464806
30
0
41
1
10
2.11066298437794
20
16.3951952723068
30
0
41
1
10
2.12272625059228
20
16.4790309266356
30
0
41
1
10
2.15051262574383
20
16.6475354130581
30
0
41
1
10
2.1661890231257
20
16.7321685530093
30
0
41
1
10
2.19388101207011
20
16.8606305694415
30
0
41
1
10
2.20381557926964
20
16.903708072394
30
0
41
1
10
2.22568781005623
20
16.9907464252651
30
0
41
1
10
2.23760887211915
20
17.0347446510875
30
0
41
1
10
2.25795563499821
20
17.1018338388239
30
0
41
1
10
2.26514617237115
20
17.1243561234992
30
0
41
1
10
2.28074841752067
20
17.1699178724609
30
0
41
1
10
2.28914960897106
20
17.1929804950155
30
0
41
1
10
2.30805994485399
20
17.2399334799895
30
0
41
1
10
2.31835905561832
20
17.2636491468104
30
0
41
1
10
2.33769039070586
20
17.3004303849575
30
0
41
1
10
2.3446719005608
20
17.3127075584573
30
0
41
1
10
2.36130579934388
20
17.3372162210859
30
0
41
1
10
2.37137848442535
20
17.3498490602756
30
0
41
1
10
2.38752860959301
20
17.3625403196406
30
0
41
1
10
2.39274690140792
20
17.365407969915
30
0
41
1
10
2.40199746293132
20
17.3685421880571
30
0
41
1
10
2.40609345862782
20
17.3688977448878
30
0
41
1
10
2.41684758644601
20
17.3678849014237
30
0
41
1
10
2.42233414259823
20
17.3646069305992
30
0
41
1
10
2.43631723844999
20
17.3523783006666
30
0
41
1
10
2.4426853054552
20
17.3407088725432
30
0
41
1
10
2.4535350044153
20
17.3154102835197
30
0
41
1
10
2.45780426034884
20
17.3016555226927
30
0
41
1
10
2.46519656212007
20
17.2729960690813
30
0
41
1
10
2.46828894451193
20
17.2580634268265
30
0
41
1
10
2.47644024758335
20
17.2120805204287
30
0
41
1
10
2.48039517724629
20
17.1798651553801
30
0
41
1
10
2.48681352285502
20
17.1136474574998
30
0
41
1
10
2.48924206260949
20
17.0795991058212
30
0
41
1
10
2.49509450873012
20
16.9758595682823
30
0
41
1
10
2.4971337129752
20
16.904470812909
30
0
41
1
10
2.49961045133858
20
16.7589052597169
30
0
41
1
10
2.50000000000006
20
16.6846906904215
30
0
41
1
10
2.50000000000006
20
16.6094046956599
30
0
0
SPLINE
5
246
100
AcDbEntity
8
1
62
256
6
ByLayer
370
18
48
1
60
0
100
AcDbSpline
70
4
71
3
72
8
73
4
40
0
40
0
40
0
40
0
40
1
40
1
40
1
40
1
41
1
10
2.5
20
20.1833134503259
30
0
41
1
10
2.36901232041583
20
20.0629849805142
30
0
41
1
10
2.23802668717934
20
19.9426546372417
30
0
41
1
10
2.10704321706322
20
19.822322313792
30
0
0
SPLINE
5
247
100
AcDbEntity
8
1
62
256
6
ByLayer
370
18
48
1
60
0
100
AcDbSpline
70
4
71
3
72
8
73
4
40
0
40
0
40
0
40
0
40
1
40
1
40
1
40
1
41
1
10
2.10704321706322
20
19.822322313792
30
0
41
1
10
1.69030000018432
20
19.4169230097024
30
0
41
1
10
1.27361601364726
20
19.0114666233754
30
0
41
1
10
0.8570032950729
20
18.605941618421
30
0
0
SPLINE
5
248
100
AcDbEntity
8
1
62
256
6
ByLayer
370
18
48
1
60
0
100
AcDbSpline
70
4
71
3
72
8
73
4
40
0
40
0
40
0
40
0
40
1
40
1
40
1
40
1
41
1
10
0.8570032950729
20
18.605941618421
30
0
41
1
10
0.802148878508035
20
18.5700903749386
30
0
41
1
10
0.747387735052826
20
18.5342023158826
30
0
41
1
10
0.69272311750882
20
18.4982764729724
30
0
0
SPLINE
5
249
100
AcDbEntity
8
1
62
256
6
ByLayer
370
18
48
1
60
0
100
AcDbSpline
70
4
71
3
72
18
73
14
40
0
40
0
40
0
40
0
40
0.25
40
0.25
40
0.5
40
0.5
40
0.5625
40
0.5625
40
0.625
40
0.625
40
0.75
40
0.75
40
1
40
1
40
1
40
1
41
1
10
0.692723117508308
20
18.4982764729724
30
0
41
1
10
0.610296297723892
20
18.7113610052301
30
0
41
1
10
0.583020365642483
20
18.9237466242755
30
0
41
1
10
0.637987399519886
20
19.3471299571481
30
0
41
1
10
0.720202232592555
20
19.5581280274963
30
0
41
1
10
0.887643537793281
20
19.8210560338977
30
0
41
1
10
0.924354206918281
20
19.8736007984176
30
0
41
1
10
1.00408517025869
20
19.9786103671789
30
0
41
1
10
1.04706140585739
20
20.0310085862768
30
0
41
1
10
1.1845238262664
20
20.1873806001889
30
0
41
1
10
1.28769636690322
20
20.2907411377977
30
0
41
1
10
1.62867372320926
20
20.5984014688987
30
0
41
1
10
1.89786887828058
20
20.8002853216145
30
0
41
1
10
2.20125181416699
20
20.9995379299634
30
0
0
SPLINE
5
24A
100
AcDbEntity
8
1
62
256
6
ByLayer
370
18
48
1
60
0
100
AcDbSpline
70
4
71
3
72
10
73
6
40
0
40
0
40
0
40
0
40
0.194157690933309
40
0.194157690933309
40
1
40
1
40
1
40
1
41
1
10
1.2444688925936
20
-20.244469489749
30
0
41
1
10
1.29425149814176
20
-20.2942712596382
30
0
41
1
10
1.34658598100492
20
-20.3438766256472
30
0
41
1
10
1.62867372320926
20
-20.5984014688987
30
0
41
1
10
1.89786887828052
20
-20.8002853216145
30
0
41
1
10
2.20125181416699
20
-20.9995379299634
30
0
0
SPLINE
5
24B
100
AcDbEntity
8
1
62
256
6
ByLayer
370
18
48
1
60
0
100
AcDbSpline
70
4
71
3
72
14
73
10
40
0
40
0
40
0
40
0
40
0.5
40
0.5
40
0.75
40
0.75
40
0.875
40
0.875
40
1
40
1
40
1
40
1
41
1
10
2.20125181416699
20
-20.9995379299634
30
0
41
1
10
2.09943674249462
20
-20.7935434066412
30
0
41
1
10
2.03829945023841
20
-20.5860827265765
30
0
41
1
10
2.01200775760196
20
-20.2725339686965
30
0
41
1
10
2.01412804877413
20
-20.1676254152387
30
0
41
1
10
2.03399361243453
20
-20.0096611999306
30
0
41
1
10
2.04340682870412
20
-19.9568971631534
30
0
41
1
10
2.06765497929126
20
-19.8517692328475
30
0
41
1
10
2.08249634985174
20
-19.7993299777874
30
0
41
1
10
2.09999999999997
20
-19.7470129078792
30
0
0
SPLINE
5
24C
100
AcDbEntity
8
1
62
256
6
ByLayer
370
18
48
1
60
0
100
AcDbSpline
70
4
71
3
72
44
73
40
40
0
40
0
40
0
40
0
40
0.124999999999979
40
0.124999999999979
40
0.249999999999959
40
0.249999999999959
40
0.312499999999949
40
0.312499999999949
40
0.374999999999939
40
0.374999999999939
40
0.406249999999936
40
0.406249999999936
40
0.437499999999932
40
0.437499999999932
40
0.468749999999928
40
0.468749999999928
40
0.484374999999925
40
0.484374999999925
40
0.499999999999923
40
0.499999999999923
40
0.507812499999923
40
0.507812499999923
40
0.515624999999923
40
0.515624999999923
40
0.531249999999926
40
0.531249999999926
40
0.562499999999931
40
0.562499999999931
40
0.593749999999935
40
0.593749999999935
40
0.624999999999939
40
0.624999999999939
40
0.68749999999995
40
0.68749999999995
40
0.74999999999996
40
0.74999999999996
40
0.87499999999998
40
0.87499999999998
40
1
40
1
40
1
40
1
41
1
10
2.10000000000002
20
-19.7470129078792
30
0
41
1
10
2.11066296627661
20
-19.7151421182213
30
0
41
1
10
2.12272620972067
20
-19.6836751349575
30
0
41
1
10
2.15051252510602
20
-19.6225851900397
30
0
41
1
10
2.16618888598742
20
-19.592918018116
30
0
41
1
10
2.19388079858197
20
-19.5513475474984
30
0
41
1
10
2.20381533670144
20
-19.5379873091646
30
0
41
1
10
2.22568749567449
20
-19.5128948947719
30
0
41
1
10
2.23760851485389
20
-19.501113017712
30
0
41
1
10
2.25795519190433
20
-19.485795992436
30
0
41
1
10
2.26514569670206
20
-19.4810947016566
30
0
41
1
10
2.2807478602308
20
-19.4729669219333
30
0
41
1
10
2.28914900078377
20
-19.4695087710326
30
0
41
1
10
2.30805920476308
20
-19.4649715329035
30
0
41
1
10
2.31835824222134
20
-19.4637021642693
30
0
41
1
10
2.33768932066454
20
-19.4666012714271
30
0
41
1
10
2.3446707564591
20
-19.4683351240666
30
0
41
1
10
2.36130431738269
20
-19.475771852079
30
0
41
1
10
2.37137662378126
20
-19.4818152686557
30
0
41
1
10
2.38752690794001
20
-19.4968326605222
30
0
41
1
10
2.3927452504991
20
-19.5025532928507
30
0
41
1
10
2.40199605158881
20
-19.514063209231
30
0
41
1
10
2.40609215571288
20
-19.5198839424488
30
0
41
1
10
2.4168465775212
20
-19.5365229947136
30
0
41
1
10
2.42233324561067
20
-19.5469349182847
30
0
41
1
10
2.43631661117189
20
-19.5761204352091
30
0
41
1
10
2.4426847427971
20
-19.5935874266046
30
0
41
1
10
2.45353457247774
20
-19.6269185120489
30
0
41
1
10
2.45780386897292
20
-19.6425595280665
30
0
41
1
10
2.46519623819467
20
-19.6727705214119
30
0
41
1
10
2.46828864599831
20
-19.6873147325053
30
0
41
1
10
2.47644001435361
20
-19.7298384281052
30
0
41
1
10
2.48039497300107
20
-19.7567272958368
30
0
41
1
10
2.48681336754032
20
-19.808813127521
30
0
41
1
10
2.48924192671734
20
-19.8339891743836
30
0
41
1
10
2.49509443289185
20
-19.9074299088631
30
0
41
1
10
2.49713366855116
20
-19.9537453886532
30
0
41
1
10
2.49961044421417
20
-20.0430619861962
30
0
41
1
10
2.50000000000006
20
-20.0860184219595
30
0
41
1
10
2.50000000000006
20
-20.1276992919997
30
0
0
SPLINE
5
24D
100
AcDbEntity
8
1
62
256
6
ByLayer
370
18
48
1
60
0
100
AcDbSpline
70
4
71
3
72
8
73
4
40
0
40
0
40
0
40
0
40
1
40
1
40
1
40
1
41
1
10
13.8929567829368
20
3.63126397689854
30
0
41
1
10
13.7619733128207
20
3.64611797187132
30
0
41
1
10
13.6309876795842
20
3.66097172240819
30
0
41
1
10
13.5
20
3.67582524168239
30
0
0
SPLINE
5
24E
100
AcDbEntity
8
1
62
256
6
ByLayer
370
18
48
1
60
0
100
AcDbSpline
70
4
71
3
72
8
73
4
40
0
40
0
40
0
40
0
40
1
40
1
40
1
40
1
41
1
10
15.1429967049271
20
-15.3104359372271
30
0
41
1
10
14.7263839863527
20
-15.6040236309045
30
0
41
1
10
14.3096999998157
20
-15.8975616467955
30
0
41
1
10
13.8929567829367
20
-16.1910583368934
30
0
0
SPLINE
5
24F
100
AcDbEntity
8
1
62
256
6
ByLayer
370
18
48
1
60
0
100
AcDbSpline
70
4
71
3
72
8
73
4
40
0
40
0
40
0
40
0
40
1
40
1
40
1
40
1
41
1
10
13.8929567829367
20
-16.1910583368934
30
0
41
1
10
13.7619733128207
20
-16.2965366653704
30
0
41
1
10
13.6309876795842
20
-16.402013258106
30
0
41
1
10
13.5
20
-16.5074882086435
30
0
0
SPLINE
5
250
100
AcDbEntity
8
1
62
256
6
ByLayer
370
18
48
1
60
0
100
AcDbSpline
70
4
71
3
72
46
73
42
40
0
40
0
40
0
40
0
40
0.124999999999995
40
0.124999999999995
40
0.249999999999989
40
0.249999999999989
40
0.312499999999985
40
0.312499999999985
40
0.374999999999981
40
0.374999999999981
40
0.406249999999981
40
0.406249999999981
40
0.437499999999981
40
0.437499999999981
40
0.453124999999981
40
0.453124999999981
40
0.468749999999981
40
0.468749999999981
40
0.48437499999998
40
0.48437499999998
40
0.492187499999981
40
0.492187499999981
40
0.499999999999981
40
0.499999999999981
40
0.507812499999982
40
0.507812499999982
40
0.515624999999982
40
0.515624999999982
40
0.531249999999983
40
0.531249999999983
40
0.562499999999984
40
0.562499999999984
40
0.624999999999986
40
0.624999999999986
40
0.687499999999988
40
0.687499999999988
40
0.749999999999989
40
0.749999999999989
40
0.874999999999995
40
0.874999999999995
40
1
40
1
40
1
40
1
41
1
10
13.5
20
-20.1276992919995
30
0
41
1
10
13.5
20
-20.08558103587
30
0
41
1
10
13.5003977691264
20
-20.0421288247095
30
0
41
1
10
13.5029378908438
20
-19.9518222649677
30
0
41
1
10
13.5050299413475
20
-19.9050110345874
30
0
41
1
10
13.5110472881183
20
-19.830827999251
30
0
41
1
10
13.5135410626258
20
-19.8054319713467
30
0
41
1
10
13.520172662191
20
-19.7527018499912
30
0
41
1
10
13.524278913594
20
-19.7253538283744
30
0
41
1
10
13.5328147218839
20
-19.6820299705996
30
0
41
1
10
13.5360605261294
20
-19.6672042015997
30
0
41
1
10
13.5438669315635
20
-19.6363624538883
30
0
41
1
10
13.5484084201075
20
-19.6203270622124
30
0
41
1
10
13.5570849163005
20
-19.5948414907424
30
0
41
1
10
13.5602914887683
20
-19.5861033898011
30
0
41
1
10
13.5677609027896
20
-19.567829491427
30
0
41
1
10
13.5720177346984
20
-19.5582742034566
30
0
41
1
10
13.5824201439713
20
-19.538093252263
30
0
41
1
10
13.5885933056728
20
-19.527258658735
30
0
41
1
10
13.6011386037702
20
-19.5099790722718
30
0
41
1
10
13.6058049189506
20
-19.5041891402473
30
0
41
1
10
13.6161842846528
20
-19.4931389121741
30
0
41
1
10
13.6216841268435
20
-19.4881680473501
30
0
41
1
10
13.6320564305851
20
-19.480213484496
30
0
41
1
10
13.6369173128229
20
-19.4771789837202
30
0
41
1
10
13.6458320204512
20
-19.4724413986066
30
0
41
1
10
13.6499482593227
20
-19.4707019279913
30
0
41
1
10
13.6613379871684
20
-19.4667073552317
30
0
41
1
10
13.6678993990873
20
-19.4655350544358
30
0
41
1
10
13.6861257252261
20
-19.4640051704625
30
0
41
1
10
13.6960019166188
20
-19.4656482575239
30
0
41
1
10
13.7232061746861
20
-19.4732959341644
30
0
41
1
10
13.7378801738161
20
-19.4823646373221
30
0
41
1
10
13.7643797283279
20
-19.502962355949
30
0
41
1
10
13.7760439828768
20
-19.5147104426438
30
0
41
1
10
13.7975105916003
20
-19.5397054940924
30
0
41
1
10
13.8072827721619
20
-19.5529845432887
30
0
41
1
10
13.8345515637561
20
-19.5942686275977
30
0
41
1
10
13.8500303092044
20
-19.6236884274896
30
0
41
1
10
13.877496120365
20
-19.6842567063778
30
0
41
1
10
13.8894354069477
20
-19.7154361482555
30
0
41
1
10
13.9
20
-19.7470129078792
30
0
0
SPLINE
5
251
100
AcDbEntity
8
1
62
256
6
ByLayer
370
18
48
1
60
0
100
AcDbSpline
70
4
71
3
72
14
73
10
40
0
40
0
40
0
40
0
40
0.25
40
0.25
40
0.375
40
0.375
40
0.5
40
0.5
40
1
40
1
40
1
40
1
41
1
10
13.9
20
-19.7470129078791
30
0
41
1
10
13.9348001281012
20
-19.8510278258686
30
0
41
1
10
13.9590531895326
20
-19.9554699387606
30
0
41
1
10
13.9790438613736
20
-20.1127969195104
30
0
41
1
10
13.9829771214147
20
-20.1653498334841
30
0
41
1
10
13.9853038695795
20
-20.2706800425223
30
0
41
1
10
13.9836887352464
20
-20.3233315976601
30
0
41
1
10
13.9619063249676
20
-20.5856979944359
30
0
41
1
10
13.9005572734778
20
-20.7935555136593
30
0
41
1
10
13.798748185833
20
-20.9995379299634
30
0
0
SPLINE
5
252
100
AcDbEntity
8
1
62
256
6
ByLayer
370
18
48
1
60
0
100
AcDbSpline
70
4
71
3
72
8
73
4
40
0
40
0
40
0
40
0
40
1
40
1
40
1
40
1
41
1
10
13.7987481858331
20
-20.9995379299633
30
0
41
1
10
14.1744668000605
20
-20.7527774664214
30
0
41
1
10
14.4963619341397
20
-20.5029221461138
30
0
41
1
10
14.7508465537161
20
-20.2491907128845
30
0
0
SPLINE
5
253
100
AcDbEntity
8
1
62
256
6
ByLayer
370
18
48
1
60
0
100
AcDbSpline
70
4
71
3
72
16
73
12
40
0
40
0
40
0
40
0
40
0.5
40
0.5
40
0.75
40
0.75
40
0.8125
40
0.8125
40
0.875
40
0.875
40
1
40
1
40
1
40
1
41
1
10
13.7987481858331
20
20.9995379299633
30
0
41
1
10
14.405097787082
20
20.6013061069799
30
0
41
1
10
14.8712652939968
20
20.1950137962336
30
0
41
1
10
15.2745796621072
20
19.5685589222062
30
0
41
1
10
15.3595778560106
20
19.3568978288427
30
0
41
1
10
15.3958856572012
20
19.0882999068694
30
0
41
1
10
15.3996311609058
20
19.034529947845
30
0
41
1
10
15.4000679209619
20
18.9271222220288
30
0
41
1
10
15.3967644310555
20
18.8734476088267
30
0
41
1
10
15.3763386907979
20
18.7125111002621
30
0
41
1
10
15.348690623988
20
18.6053366235272
30
0
41
1
10
15.3072768824912
20
18.4982764729724
30
0
0
SPLINE
5
254
100
AcDbEntity
8
1
62
256
6
ByLayer
370
18
48
1
60
0
100
AcDbSpline
70
4
71
3
72
8
73
4
40
0
40
0
40
0
40
0
40
1
40
1
40
1
40
1
41
1
10
15.3072768824912
20
18.4982764729724
30
0
41
1
10
15.2526122649472
20
18.5342023158826
30
0
41
1
10
15.197851121492
20
18.5700903749386
30
0
41
1
10
15.1429967049271
20
18.605941618421
30
0
0
SPLINE
5
255
100
AcDbEntity
8
1
62
256
6
ByLayer
370
18
48
1
60
0
100
AcDbSpline
70
4
71
3
72
8
73
4
40
0
40
0
40
0
40
0
40
1
40
1
40
1
40
1
41
1
10
15.1429967049271
20
18.605941618421
30
0
41
1
10
14.7263839863527
20
19.0114666233754
30
0
41
1
10
14.3096999998157
20
19.4169230097024
30
0
41
1
10
13.8929567829368
20
19.822322313792
30
0
0
SPLINE
5
256
100
AcDbEntity
8
1
62
256
6
ByLayer
370
18
48
1
60
0
100
AcDbSpline
70
4
71
3
72
8
73
4
40
0
40
0
40
0
40
0
40
1
40
1
40
1
40
1
41
1
10
13.8929567829368
20
19.822322313792
30
0
41
1
10
13.7619733128207
20
19.9426546372417
30
0
41
1
10
13.6309876795842
20
20.0629849805142
30
0
41
1
10
13.5
20
20.1833134503259
30
0
0
SPLINE
5
257
100
AcDbEntity
8
1
62
256
6
ByLayer
370
18
48
1
60
0
100
AcDbSpline
70
4
71
3
72
48
73
44
40
0
40
0
40
0
40
0
40
0.125
40
0.125
40
0.25
40
0.25
40
0.312499999999999
40
0.312499999999999
40
0.374999999999998
40
0.374999999999998
40
0.406249999999999
40
0.406249999999999
40
0.437499999999999
40
0.437499999999999
40
0.453124999999999
40
0.453124999999999
40
0.46875
40
0.46875
40
0.484375
40
0.484375
40
0.4921875
40
0.4921875
40
0.500000000000001
40
0.500000000000001
40
0.507812500000001
40
0.507812500000001
40
0.515625000000002
40
0.515625000000002
40
0.53125
40
0.53125
40
0.5625
40
0.5625
40
0.59375
40
0.59375
40
0.625
40
0.625
40
0.687500000000001
40
0.687500000000001
40
0.750000000000002
40
0.750000000000002
40
0.875000000000001
40
0.875000000000001
40
1
40
1
40
1
40
1
41
1
10
13.5
20
16.6094046956598
30
0
41
1
10
13.5
20
16.6852589030058
30
0
41
1
10
13.5003956243688
20
16.7600787726729
30
0
41
1
10
13.5029177630141
20
16.9066608601021
30
0
41
1
10
13.50499498477
20
16.9784707754481
30
0
41
1
10
13.510959426353
20
17.0826256728051
30
0
41
1
10
13.5134304111703
20
17.1167439704441
30
0
41
1
10
13.5199938089775
20
17.1832393738387
30
0
41
1
10
13.5240559275705
20
17.2157025377351
30
0
41
1
10
13.5324796642906
20
17.2619079610506
30
0
41
1
10
13.535680505611
20
17.276887168089
30
0
41
1
10
13.5433630024765
20
17.3055382777551
30
0
41
1
10
13.5478270285065
20
17.3192742164522
30
0
41
1
10
13.5563192264807
20
17.3378724138325
30
0
41
1
10
13.5594530545876
20
17.3437356699511
30
0
41
1
10
13.5667235755007
20
17.35436994256
30
0
41
1
10
13.5708499668609
20
17.3591774743418
30
0
41
1
10
13.5809255568675
20
17.3664946181657
30
0
41
1
10
13.5867367408172
20
17.3691366219462
30
0
41
1
10
13.5985570074192
20
17.3683571163742
30
0
41
1
10
13.6030817898403
20
17.3672124966095
30
0
41
1
10
13.6132287608667
20
17.362031319477
30
0
41
1
10
13.6186818768372
20
17.358008545879
30
0
41
1
10
13.6292334622151
20
17.3480394353018
30
0
41
1
10
13.6342815583926
20
17.342202380413
30
0
41
1
10
13.6434602839462
20
17.3302919166032
30
0
41
1
10
13.6477163157243
20
17.3240752724512
30
0
41
1
10
13.659462143326
20
17.3056458055038
30
0
41
1
10
13.6662270362648
20
17.29327072271
30
0
41
1
10
13.6847392685516
20
17.2567954246417
30
0
41
1
10
13.6947425726173
20
17.2333186925052
30
0
41
1
10
13.7131138096371
20
17.1869069522912
30
0
41
1
10
13.7213622357914
20
17.1639803587746
30
0
41
1
10
13.7367032577736
20
17.1186624125141
30
0
41
1
10
13.743768533664
20
17.0963150399131
30
0
41
1
10
13.7637525777623
20
17.0298547872063
30
0
41
1
10
13.7754798985868
20
16.9863118691704
30
0
41
1
10
13.7970627086497
20
16.8999796891092
30
0
41
1
10
13.8068876734258
20
16.8572082104349
30
0
41
1
10
13.834303263138
20
16.7295812338265
30
0
41
1
10
13.8498720772038
20
16.6453433426275
30
0
41
1
10
13.8774404303272
20
16.4778764038298
30
0
41
1
10
13.8894075545448
20
16.3946422959186
30
0
41
1
10
13.9
20
16.3116048464806
30
0
0
SPLINE
5
258
100
AcDbEntity
8
1
62
256
6
ByLayer
370
18
48
1
60
0
100
AcDbSpline
70
4
71
3
72
14
73
10
40
0
40
0
40
0
40
0
40
0.249999999999999
40
0.249999999999999
40
0.374999999999999
40
0.374999999999999
40
0.499999999999998
40
0.499999999999998
40
1
40
1
40
1
40
1
41
1
10
13.9
20
16.3116048464806
30
0
41
1
10
13.934718835879
20
16.039433175544
30
0
41
1
10
13.9589787287197
20
15.7658475329726
30
0
41
1
10
13.9790075587617
20
15.3532571818469
30
0
41
1
10
13.9829580324189
20
15.2153585564249
30
0
41
1
10
13.9853091181153
20
14.938811005395
30
0
41
1
10
13.9837002913939
20
14.8006013952382
30
0
41
1
10
13.9619322734196
20
14.111964134894
30
0
41
1
10
13.9005404807132
20
13.5666576858953
30
0
41
1
10
13.798748185833
20
13.0264988499934
30
0
0
SPLINE
5
259
100
AcDbEntity
8
1
62
256
6
ByLayer
370
18
48
1
60
0
100
AcDbSpline
70
4
71
3
72
16
73
12
40
0
40
0
40
0
40
0
40
0.5
40
0.5
40
0.750000000000001
40
0.750000000000001
40
0.812500000000001
40
0.812500000000001
40
0.875000000000001
40
0.875000000000001
40
1
40
1
40
1
40
1
41
1
10
13.798748185833
20
13.0264988499934
30
0
41
1
10
14.4050977873146
20
11.4938352746408
30
0
41
1
10
14.8712652943544
20
9.93014952756516
30
0
41
1
10
15.2745796623924
20
7.51913033816248
30
0
41
1
10
15.3595778562283
20
6.70451626313456
30
0
41
1
10
15.3958856572721
20
5.67077102310367
30
0
41
1
10
15.3996311609417
20
5.46382809975086
30
0
41
1
10
15.4000679209321
20
5.0504510177405
30
0
41
1
10
15.3967644309952
20
4.84387504933602
30
0
41
1
10
15.3763386906792
20
4.2244832528861
30
0
41
1
10
15.3486906238743
20
3.81200387069265
30
0
41
1
10
15.3072768824912
20
3.39996449276333
30
0
0
SPLINE
5
25A
100
AcDbEntity
8
1
62
256
6
ByLayer
370
18
48
1
60
0
100
AcDbSpline
70
4
71
3
72
8
73
4
40
0
40
0
40
0
40
0
40
1
40
1
40
1
40
1
41
1
10
15.3072768824912
20
3.39996449276333
30
0
41
1
10
15.2526122649472
20
3.36510854342708
30
0
41
1
10
15.197851121492
20
3.33028925271884
30
0
41
1
10
15.1429967049271
20
3.29550568119379
30
0
0
SPLINE
5
25B
100
AcDbEntity
8
1
62
256
6
ByLayer
370
18
48
1
60
0
100
AcDbSpline
70
4
71
3
72
8
73
4
40
0
40
0
40
0
40
0
40
1
40
1
40
1
40
1
41
1
10
15.1429967049271
20
3.29550568119379
30
0
41
1
10
14.7263839863527
20
3.40744299247086
30
0
41
1
10
14.3096999998157
20
3.51936136290686
30
0
41
1
10
13.8929567829368
20
3.63126397689854
30
0
0
SPLINE
5
25C
100
AcDbEntity
8
1
62
256
6
ByLayer
370
18
48
1
60
0
100
AcDbSpline
70
4
71
3
72
48
73
44
40
0
40
0
40
0
40
0
40
0.12500000000002
40
0.12500000000002
40
0.250000000000039
40
0.250000000000039
40
0.312500000000049
40
0.312500000000049
40
0.375000000000059
40
0.375000000000059
40
0.406250000000064
40
0.406250000000064
40
0.437500000000069
40
0.437500000000069
40
0.453125000000071
40
0.453125000000071
40
0.468750000000073
40
0.468750000000073
40
0.484375000000075
40
0.484375000000075
40
0.492187500000076
40
0.492187500000076
40
0.500000000000076
40
0.500000000000076
40
0.507812500000076
40
0.507812500000076
40
0.515625000000077
40
0.515625000000077
40
0.531250000000075
40
0.531250000000075
40
0.56250000000007
40
0.56250000000007
40
0.593750000000066
40
0.593750000000066
40
0.625000000000061
40
0.625000000000061
40
0.687500000000051
40
0.687500000000051
40
0.750000000000041
40
0.750000000000041
40
0.87500000000002
40
0.87500000000002
40
1
40
1
40
1
40
1
41
1
10
13.5
20
-3.51829459633979
30
0
41
1
10
13.5
20
-3.40042932438655
30
0
41
1
10
13.5003957249787
20
-3.28227225303061
30
0
41
1
10
13.5029186753019
20
-3.04563758941481
30
0
41
1
10
13.5049965614238
20
-2.92715325877879
30
0
41
1
10
13.5109634612421
20
-2.74905392046907
30
0
41
1
10
13.5134355110792
20
-2.6896247233251
30
0
41
1
10
13.5200021517671
20
-2.57059130181841
30
0
41
1
10
13.5240664071689
20
-2.51088742941744
30
0
41
1
10
13.5324951151316
20
-2.42156052456778
30
0
41
1
10
13.5356979821606
20
-2.3918286820155
30
0
41
1
10
13.5433863058321
20
-2.33250784524893
30
0
41
1
10
13.5478537647841
20
-2.30283841954827
30
0
41
1
10
13.556353995122
20
-2.25895178567208
30
0
41
1
10
13.5594911533594
20
-2.24442257380343
30
0
41
1
10
13.5667717868027
20
-2.21569201915446
30
0
41
1
10
13.57090271512
20
-2.2014510172155
30
0
41
1
10
13.5809953557869
20
-2.17413734945109
30
0
41
1
10
13.5868093705954
20
-2.16105699755718
30
0
41
1
10
13.5986690434409
20
-2.14488746478514
30
0
41
1
10
13.603214780737
20
-2.14014319868272
30
0
41
1
10
13.6133551451343
20
-2.13399495502421
30
0
41
1
10
13.6188170966701
20
-2.13279344606508
30
0
41
1
10
13.6293584239552
20
-2.13418928215333
30
0
41
1
10
13.6343976360512
20
-2.13666830536999
30
0
41
1
10
13.643566196661
20
-2.14337732523319
30
0
41
1
10
13.6478148991183
20
-2.14766218156336
30
0
41
1
10
13.6595435250038
20
-2.16163963129372
30
0
41
1
10
13.6663068477392
20
-2.17267764301187
30
0
41
1
10
13.6847942626862
20
-2.20722780148588
30
0
41
1
10
13.6947935246629
20
-2.23222997586328
30
0
41
1
10
13.7131586352716
20
-2.28357966422698
30
0
41
1
10
13.7214080661854
20
-2.31009568574513
30
0
41
1
10
13.7367392018564
20
-2.36371352385993
30
0
41
1
10
13.7438009279897
20
-2.39080584591835
30
0
41
1
10
13.7637762580907
20
-2.47263165022093
30
0
41
1
10
13.7755003266807
20
-2.52790378787586
30
0
41
1
10
13.7970782709077
20
-2.63923083689758
30
0
41
1
10
13.8069017454778
20
-2.69530095047588
30
0
41
1
10
13.8343141204311
20
-2.86430860718537
30
0
41
1
10
13.8498816742361
20
-2.97809636862866
30
0
41
1
10
13.8774441264369
20
-3.20626751481132
30
0
41
1
10
13.8894091597339
20
-3.32072798499809
30
0
41
1
10
13.9
20
-3.43540806139862
30
0
0
SPLINE
5
25D
100
AcDbEntity
8
1
62
256
6
ByLayer
370
18
48
1
60
0
100
AcDbSpline
70
4
71
3
72
14
73
10
40
0
40
0
40
0
40
0
40
0.25
40
0.25
40
0.375
40
0.375
40
0.499999999999999
40
0.499999999999999
40
1
40
1
40
1
40
1
41
1
10
13.9
20
-3.43540806139856
30
0
41
1
10
13.9348303062106
20
-3.81255870071919
30
0
41
1
10
13.9591027505294
20
-4.19133956419864
30
0
41
1
10
13.9790839078111
20
-4.76204740731339
30
0
41
1
10
13.9830081688477
20
-4.95291956752169
30
0
41
1
10
13.9852967449274
20
-5.33453228656788
30
0
41
1
10
13.983665627904
20
-5.5248894945521
30
0
41
1
10
13.9618361489941
20
-6.4744626501199
30
0
41
1
10
13.9005276792289
20
-7.22702563433592
30
0
41
1
10
13.798748185833
20
-7.97303907997002
30
0
0
SPLINE
5
25E
100
AcDbEntity
8
1
62
256
6
ByLayer
370
18
48
1
60
0
100
AcDbSpline
70
4
71
3
72
16
73
12
40
0
40
0
40
0
40
0
40
0.500000000000001
40
0.500000000000001
40
0.750000000000001
40
0.750000000000001
40
0.812500000000001
40
0.812500000000001
40
0.875
40
0.875
40
1
40
1
40
1
40
1
41
1
10
13.798748185833
20
-7.97303907997002
30
0
41
1
10
14.405097804812
20
-9.10747086492273
30
0
41
1
10
14.8712653212638
20
-10.2648643351542
30
0
41
1
10
15.2745796838533
20
-12.0494287045723
30
0
41
1
10
15.3595778726013
20
-12.6523817047844
30
0
41
1
10
15.3958856626085
20
-13.4175290467891
30
0
41
1
10
15.3996311636426
20
-13.5707020121019
30
0
41
1
10
15.40006791869
20
-13.8766713601942
30
0
41
1
10
15.3967644264646
20
-14.0295727067298
30
0
41
1
10
15.3763386817469
20
-14.4880279548789
30
0
41
1
10
15.3486906153224
20
-14.7933328155188
30
0
41
1
10
15.3072768824912
20
-15.098311980209
30
0
0
SPLINE
5
25F
100
AcDbEntity
8
1
62
256
6
ByLayer
370
18
48
1
60
0
100
AcDbSpline
70
4
71
3
72
8
73
4
40
0
40
0
40
0
40
0
40
1
40
1
40
1
40
1
41
1
10
15.3072768824912
20
-15.098311980209
30
0
41
1
10
15.2526122649472
20
-15.1690937724555
30
0
41
1
10
15.197851121492
20
-15.2398011222197
30
0
41
1
10
15.1429967049271
20
-15.3104359372271
30
0
0
SPLINE
5
260
100
AcDbEntity
8
1
62
256
6
ByLayer
370
18
48
1
60
0
100
AcDbSpline
70
4
71
3
72
28
73
24
40
0
40
0
40
0
40
0
40
0.124999999999992
40
0.124999999999992
40
0.18749999999999
40
0.18749999999999
40
0.249999999999988
40
0.249999999999988
40
0.374999999999988
40
0.374999999999988
40
0.437499999999989
40
0.437499999999989
40
0.499999999999991
40
0.499999999999991
40
0.624999999999996
40
0.624999999999996
40
0.750000000000001
40
0.750000000000001
40
0.812500000000001
40
0.812500000000001
40
0.875
40
0.875
40
1
40
1
40
1
40
1
41
1
10
12.5
20
34.2331350437778
30
0
41
1
10
12.5667912480819
20
34.2331350437778
30
0
41
1
10
12.6324389576208
20
34.2277918104143
30
0
41
1
10
12.7292662176399
20
34.2121173140891
30
0
41
1
10
12.7612658157491
20
34.2056065083201
30
0
41
1
10
12.8246994762579
20
34.1899610884418
30
0
41
1
10
12.856154263848
20
34.1807995694812
30
0
41
1
10
12.9475464855246
20
34.1500032575818
30
0
41
1
10
13.005273111458
20
34.124929694527
30
0
41
1
10
13.0870982659793
20
34.0806594161919
30
0
41
1
10
13.1137110024601
20
34.0646893344509
30
0
41
1
10
13.1645218940426
20
34.0309577213533
30
0
41
1
10
13.1886826365751
20
34.0132438761457
30
0
41
1
10
13.2575458277151
20
33.9576669127462
30
0
41
1
10
13.2986627631357
20
33.9173906776743
30
0
41
1
10
13.3710906401664
20
33.8304007317686
30
0
41
1
10
13.4014067160725
20
33.7848301492636
30
0
41
1
10
13.438061945435
20
33.7142188962156
30
0
41
1
10
13.4488270426032
20
33.6902699028578
30
0
41
1
10
13.4674154435461
20
33.6415514513589
30
0
41
1
10
13.4752537967684
20
33.6166745825866
30
0
41
1
10
13.4938746607691
20
33.5422736918827
30
0
41
1
10
13.5000000000001
20
33.4926161500463
30
0
41
1
10
13.5
20
33.4429214608605
30
0
0
SPLINE
5
261
100
AcDbEntity
8
1
62
256
6
ByLayer
370
18
48
1
60
0
100
AcDbSpline
70
4
71
3
72
16
73
12
40
0
40
0
40
0
40
0
40
0.125000000000006
40
0.125000000000006
40
0.250000000000013
40
0.250000000000013
40
0.500000000000009
40
0.500000000000009
40
0.750000000000004
40
0.750000000000004
40
1
40
1
40
1
40
1
41
1
10
12.9954335865887
20
28.4689108447927
30
0
41
1
10
12.9800746993162
20
28.4848627116499
30
0
41
1
10
12.9628733264202
20
28.4988089649627
30
0
41
1
10
12.9260832263751
20
28.5239693885626
30
0
41
1
10
12.9065112138827
20
28.5350731779105
30
0
41
1
10
12.846889137938
20
28.5641243652557
30
0
41
1
10
12.8049107598823
20
28.578464697537
30
0
41
1
10
12.7193630026981
20
28.6001896122975
30
0
41
1
10
12.676102139569
20
28.6075027971162
30
0
41
1
10
12.5887071807875
20
28.6171202624764
30
0
41
1
10
12.5445725505585
20
28.6194079692388
30
0
41
1
10
12.5000000000014
20
28.6194079692388
30
0
0
SPLINE
5
262
100
AcDbEntity
8
1
62
256
6
ByLayer
370
18
48
1
60
0
100
AcDbSpline
70
4
71
2
72
6
73
3
40
0
40
0
40
0
40
1
40
1
40
1
41
0.499999961426703
10
2.88000000000002
20
15.8154532804185
30
0
41
0.500000038573297
10
2.87999022076024
20
15.8155657899144
30
0
41
0.499999961426703
10
2.87998045849997
20
15.8156782742694
30
0
0
SPLINE
5
263
100
AcDbEntity
8
1
62
256
6
ByLayer
370
18
48
1
60
0
100
AcDbSpline
70
4
71
2
72
6
73
3
40
0
40
0
40
0
40
1
40
1
40
1
41
0.499999947177842
10
13.1200195415
20
15.8156782742694
30
0
41
0.500000052822158
10
13.120009779239
20
15.8155657899051
30
0
41
0.499999947177842
10
13.12
20
15.8154532804185
30
0
0
SPLINE
5
264
100
AcDbEntity
8
1
62
256
6
ByLayer
370
18
48
1
60
0
100
AcDbSpline
70
4
71
3
72
20
73
16
40
0
40
0
40
0
40
0
40
0.249999999999999
40
0.249999999999999
40
0.374999999999998
40
0.374999999999998
40
0.499999999999996
40
0.499999999999996
40
0.749999999999994
40
0.749999999999994
40
0.874999999999989
40
0.874999999999989
40
0.937499999999995
40
0.937499999999995
40
1
40
1
40
1
40
1
41
1
10
13.2742915591398
20
28.0360453804719
30
0
41
1
10
13.299905126122
20
28.0597710787141
30
0
41
1
10
13.3249254422366
20
28.0801165566239
30
0
41
1
10
13.3611886257202
20
28.1034140141357
30
0
41
1
10
13.3730629105275
20
28.1099636792688
30
0
41
1
10
13.3962664073066
20
28.1199572976321
30
0
41
1
10
13.4075800955976
20
28.1233854305538
30
0
41
1
10
13.4398984647859
20
28.1274010183169
30
0
41
1
10
13.4597109754285
20
28.122031112112
30
0
41
1
10
13.4822852341604
20
28.0916958884041
30
0
41
1
10
13.488693631394
20
28.0774976583182
30
0
41
1
10
13.4953164945055
20
28.0491600748462
30
0
41
1
10
13.497041421614
20
28.0385473932573
30
0
41
1
10
13.4993909946633
20
28.0146623103889
30
0
41
1
10
13.4999999999998
20
28.0013532535793
30
0
41
1
10
13.5
20
27.9871432904544
30
0
0
SPLINE
5
265
100
AcDbEntity
8
1
62
256
6
ByLayer
370
18
48
1
60
0
100
AcDbSpline
70
4
71
3
72
10
73
6
40
0
40
0
40
0
40
0
40
0.5
40
0.5
40
1
40
1
40
1
40
1
41
1
10
3.00456641341145
20
28.4689108447928
30
0
41
1
10
2.94357395934503
20
28.4055635795058
30
0
41
1
10
2.89183604401416
20
28.3366053772447
30
0
41
1
10
2.80030540171504
20
28.1914467210057
30
0
41
1
10
2.7605864827126
20
28.1150162816702
30
0
41
1
10
2.72570844085487
20
28.03604538046
30
0
0
SPLINE
5
266
100
AcDbEntity
8
1
62
256
6
ByLayer
370
18
48
1
60
0
100
AcDbSpline
70
4
71
3
72
26
73
22
40
0
40
0
40
0
40
0
40
0.124999999999996
40
0.124999999999996
40
0.249999999999993
40
0.249999999999993
40
0.312499999999991
40
0.312499999999991
40
0.374999999999989
40
0.374999999999989
40
0.49999999999999
40
0.49999999999999
40
0.62499999999999
40
0.62499999999999
40
0.687499999999992
40
0.687499999999992
40
0.749999999999993
40
0.749999999999993
40
0.874999999999996
40
0.874999999999996
40
1
40
1
40
1
40
1
41
1
10
2.5
20
33.4429214608609
30
0
41
1
10
2.5
20
33.492604219451
30
0
41
1
10
2.50632169093598
20
33.5432940453885
30
0
41
1
10
2.53110778129201
20
33.6418534992229
30
0
41
1
10
2.54949113882327
20
33.6902032075511
30
0
41
1
10
2.58632640808924
20
33.7612187843047
30
0
41
1
10
2.60024008585532
20
33.7847381434683
30
0
41
1
10
2.63066571820554
20
33.8302700522627
30
0
41
1
10
2.64721353830191
20
33.8523810925317
30
0
41
1
10
2.70079984205967
20
33.9167531905117
30
0
41
1
10
2.7417422772096
20
33.9570738441348
30
0
41
1
10
2.83463223583584
20
34.0320789112864
30
0
41
1
10
2.88515234009736
20
34.0655847390039
30
0
41
1
10
2.96648200585594
20
34.1096781864637
30
0
41
1
10
2.99454270617042
20
34.1233567427388
30
0
41
1
10
3.05261304256385
20
34.1486063995218
30
0
41
1
10
3.08276254341024
20
34.1602125162566
30
0
41
1
10
3.17424100021765
20
34.1910496623174
30
0
41
1
10
3.23707639465272
20
34.2065983169586
30
0
41
1
10
3.36641405755637
20
34.2276752750744
30
0
41
1
10
3.43323602923232
20
34.233135043778
30
0
41
1
10
3.5
20
34.233135043778
30
0
0
SPLINE
5
267
100
AcDbEntity
8
1
62
256
6
ByLayer
370
18
48
1
60
0
100
AcDbSpline
70
4
71
3
72
20
73
16
40
0
40
0
40
0
40
0
40
0.0624999999999978
40
0.0624999999999978
40
0.124999999999996
40
0.124999999999996
40
0.249999999999996
40
0.249999999999996
40
0.374999999999997
40
0.374999999999997
40
0.499999999999997
40
0.499999999999997
40
0.749999999999999
40
0.749999999999999
40
1
40
1
40
1
40
1
41
1
10
2.5
20
27.9871432904453
30
0
41
1
10
2.5
20
28.0013248225093
30
0
41
1
10
2.50059146467095
20
28.0143980097297
30
0
41
1
10
2.50293312257304
20
28.038373044295
30
0
41
1
10
2.504678661892
20
28.0491397947507
30
0
41
1
10
2.5113174143105
20
28.0775440310408
30
0
41
1
10
2.51772451411949
20
28.0917276213386
30
0
41
1
10
2.53283154346502
20
28.1119910420315
30
0
41
1
10
2.54153491833171
20
28.1182687948502
30
0
41
1
10
2.5605803724626
20
28.1253318961223
30
0
41
1
10
2.57093410563965
20
28.1260563040906
30
0
41
1
10
2.60310299406814
20
28.122055559214
30
0
41
1
10
2.62626761320934
20
28.1114222698093
30
0
41
1
10
2.67470018571532
20
28.0804067592958
30
0
41
1
10
2.69998785583664
20
28.0598702089042
30
0
41
1
10
2.72570844086351
20
28.0360453804689
30
0
0
SPLINE
5
268
100
AcDbEntity
8
1
62
256
6
ByLayer
370
18
48
1
60
0
100
AcDbSpline
70
4
71
3
72
16
73
12
40
0
40
0
40
0
40
0
40
0.250000000000001
40
0.250000000000001
40
0.500000000000001
40
0.500000000000001
40
0.750000000000002
40
0.750000000000002
40
0.875000000000001
40
0.875000000000001
40
1
40
1
40
1
40
1
41
1
10
3.5
20
28.6194079692313
30
0
41
1
10
3.45538667150794
20
28.6194079692313
30
0
41
1
10
3.41127784725199
20
28.6171155708751
30
0
41
1
10
3.32406471002378
20
28.6075241969464
30
0
41
1
10
3.28095987524483
20
28.6002390412648
30
0
41
1
10
3.19587664735246
20
28.5786968039255
30
0
41
1
10
3.15349997336932
20
28.5642889061751
30
0
41
1
10
3.0936510058761
20
28.5351646365286
30
0
41
1
10
3.07412110867369
20
28.5240987825433
30
0
41
1
10
3.03717129343721
20
28.498849759524
30
0
41
1
10
3.01992713531951
20
28.4848646171176
30
0
41
1
10
3.00456641341151
20
28.4689108447929
30
0
0
SPLINE
5
269
100
AcDbEntity
8
1
62
256
6
ByLayer
370
18
48
1
60
0
100
AcDbSpline
70
4
71
3
72
12
73
8
40
0
40
0
40
0
40
0
40
0.499999999999997
40
0.499999999999997
40
0.749999999999999
40
0.749999999999999
40
1
40
1
40
1
40
1
41
1
10
13.2742915591398
20
28.036045380472
30
0
41
1
10
13.2398355813323
20
28.1140606437883
30
0
41
1
10
13.20052688857
20
28.1900102052278
30
0
41
1
10
13.1315016482882
20
28.2996512733909
30
0
41
1
10
13.1067619218786
20
28.3354909519504
30
0
41
1
10
13.0539265575728
20
28.4043045440343
30
0
41
1
10
13.0257615692743
20
28.4374119521181
30
0
41
1
10
12.9954335865907
20
28.4689108447941
30
0
0
SPLINE
5
26A
100
AcDbEntity
8
1
62
256
6
ByLayer
370
18
48
1
60
0
100
AcDbSpline
70
4
71
3
72
31
73
27
40
0
40
0
40
0
40
0
40
0.0474442607177869
40
0.0474442607177869
40
0.160272883801583
40
0.160272883801583
40
0.216687195343483
40
0.216687195343483
40
0.273101506885382
40
0.273101506885382
40
0.385930129969178
40
0.385930129969178
40
0.498758753052974
40
0.498758753052974
40
0.61158737613677
40
0.61158737613677
40
0.668001687678668
40
0.668001687678668
40
0.724415999220565
40
0.780830310762463
40
0.780830310762463
40
0.837244622304361
40
0.837244622304361
40
0.950073245388154
40
0.950073245388154
40
1
40
1
40
1
40
1
41
1
10
9.53651916087495
20
1.85758497505293
30
0
41
1
10
9.55426378789667
20
1.87842534810312
30
0
41
1
10
9.57293682549647
20
1.89860307190156
30
0
41
1
10
9.63920517317763
20
1.96449378107223
30
0
41
1
10
9.68976089904885
20
2.00562867081106
30
0
41
1
10
9.77096023407307
20
2.05956432628028
30
0
41
1
10
9.79894162428485
20
2.07625262034827
30
0
41
1
10
9.85677517606348
20
2.10699457493195
30
0
41
1
10
9.88674920041814
20
2.12108249695234
30
0
41
1
10
9.97760999711431
20
2.15845847205463
30
0
41
1
10
10.0399419138656
20
2.17723294150909
30
0
41
1
10
10.1680865847517
20
2.20263813713751
30
0
41
1
10
10.2343730420288
20
2.20914851176627
30
0
41
1
10
10.3649082766217
20
2.20919503643989
30
0
41
1
10
10.4297865468512
20
2.20294170786883
30
0
41
1
10
10.5265074899477
20
2.18394119677538
30
0
41
1
10
10.5586561190804
20
2.17596610478023
30
0
41
1
10
10.6213314008067
20
2.15712503363773
30
0
41
1
10
10.6827527099618
20
2.13533333316934
30
0
41
1
10
10.7417077071791
20
2.10773316576626
30
0
41
1
10
10.799414693059
20
2.07719056261198
30
0
41
1
10
10.8277808536944
20
2.0603546536347
30
0
41
1
10
10.9098986413534
20
2.00594424016151
30
0
41
1
10
10.9602793426208
20
1.96487191293801
30
0
41
1
10
11.0268401323772
20
1.89888219161674
30
0
41
1
10
11.0464224265196
20
1.8777173100874
30
0
41
1
10
11.0651471511209
20
1.85560523325444
30
0
0
SPLINE
5
26B
100
AcDbEntity
8
1
62
256
6
ByLayer
370
18
48
1
60
0
100
AcDbSpline
70
4
71
3
72
16
73
12
40
0
40
0
40
0
40
0
40
0.124999999999997
40
0.124999999999997
40
0.249999999999994
40
0.249999999999994
40
0.499999999999996
40
0.499999999999996
40
0.749999999999998
40
0.749999999999998
40
1
40
1
40
1
40
1
41
1
10
12.9954335865887
20
-8.39719338478432
30
0
41
1
10
12.9800758891014
20
-8.38538720453693
30
0
41
1
10
12.9628748058549
20
-8.37710186565761
30
0
41
1
10
12.9260834835862
20
-8.36414262226776
30
0
41
1
10
12.9065118903348
20
-8.35960835621029
30
0
41
1
10
12.8468896892531
20
-8.34965781424211
30
0
41
1
10
12.8049079696749
20
-8.34753452507459
30
0
41
1
10
12.7193622493142
20
-8.34591923459521
30
0
41
1
10
12.6761020125036
20
-8.34651272115241
30
0
41
1
10
12.5887076291184
20
-8.34757732808919
30
0
41
1
10
12.5445729478925
20
-8.34807461845094
30
0
41
1
10
12.5000000000014
20
-8.34807461845099
30
0
0
SPLINE
5
26C
100
AcDbEntity
8
1
62
256
6
ByLayer
370
18
48
1
60
0
100
AcDbSpline
70
4
71
3
72
20
73
16
40
0
40
0
40
0
40
0
40
0.249999999999996
40
0.249999999999996
40
0.499999999999993
40
0.499999999999993
40
0.624999999999999
40
0.624999999999999
40
0.750000000000005
40
0.750000000000005
40
0.875000000000012
40
0.875000000000012
40
0.937500000000006
40
0.937500000000006
40
1
40
1
40
1
40
1
41
1
10
13.2742915591398
20
-8.7175874589048
30
0
41
1
10
13.2998916640625
20
-8.64411300823997
30
0
41
1
10
13.3249295001284
20
-8.57126069103759
30
0
41
1
10
13.3733890787135
20
-8.42734421520095
30
0
41
1
10
13.3969214917581
20
-8.35595740181071
30
0
41
1
10
13.4292108188102
20
-8.25418073248056
30
0
41
1
10
13.4395498669973
20
-8.22088016604692
30
0
41
1
10
13.4585514288767
20
-8.15767513195954
30
0
41
1
10
13.4672326281443
20
-8.12772952674254
30
0
41
1
10
13.4822987566893
20
-8.07248058325223
30
0
41
1
10
13.4887029471347
20
-8.04703007478781
30
0
41
1
10
13.4953192014931
20
-8.01594669838693
30
0
41
1
10
13.4970485260128
20
-8.00668950421237
30
0
41
1
10
13.4994033835505
20
-7.99073450750285
30
0
41
1
10
13.5
20
-7.98420098795702
30
0
41
1
10
13.5
20
-7.97922570599252
30
0
0
SPLINE
5
26D
100
AcDbEntity
8
1
62
256
6
ByLayer
370
18
48
1
60
0
100
AcDbSpline
70
4
71
3
72
24
73
20
40
0
40
0
40
0
40
0
40
0.0624999999999997
40
0.0624999999999997
40
0.124999999999999
40
0.124999999999999
40
0.187499999999999
40
0.187499999999999
40
0.249999999999999
40
0.249999999999999
40
0.374999999999998
40
0.374999999999998
40
0.499999999999997
40
0.499999999999997
40
0.624999999999996
40
0.624999999999996
40
0.749999999999996
40
0.749999999999996
40
1
40
1
40
1
40
1
41
1
10
2.5
20
-7.97922570599246
30
0
41
1
10
2.5
20
-7.98424226182118
30
0
41
1
10
2.50061646682872
20
-7.9908905522127
30
0
41
1
10
2.50296298047391
20
-8.00674562284041
30
0
41
1
10
2.50468886604011
20
-8.01599356023098
30
0
41
1
10
2.50913572020068
20
-8.0368669980906
30
0
41
1
10
2.51186950755988
20
-8.04853198218586
30
0
41
1
10
2.51804974003039
20
-8.07328875855404
30
0
41
1
10
2.521510624911
20
-8.08645386414747
30
0
41
1
10
2.53282059846725
20
-8.12791681746666
30
0
41
1
10
2.54166799343966
20
-8.15842432118143
30
0
41
1
10
2.5607424139323
20
-8.22183253299994
30
0
41
1
10
2.57095717656353
20
-8.25471496469532
30
0
41
1
10
2.59236340413514
20
-8.32217840304781
30
0
41
1
10
2.60355909189906
20
-8.35676675358252
30
0
41
1
10
2.62672028533552
20
-8.42728223865254
30
0
41
1
10
2.63868304262866
20
-8.46319558490922
30
0
41
1
10
2.6750542401868
20
-8.57121383962965
30
0
41
1
10
2.70010306845899
20
-8.6440978901345
30
0
41
1
10
2.72570844086346
20
-8.7175874589143
30
0
0
SPLINE
5
26E
100
AcDbEntity
8
1
62
256
6
ByLayer
370
18
48
1
60
0
100
AcDbSpline
70
4
71
3
72
12
73
8
40
0
40
0
40
0
40
0
40
0.499999999999997
40
0.499999999999997
40
0.749999999999999
40
0.749999999999999
40
1
40
1
40
1
40
1
41
1
10
13.2742915591398
20
-8.7175874589048
30
0
41
1
10
13.2398355262493
20
-8.65984280132176
30
0
41
1
10
13.2005266833248
20
-8.60362696503728
30
0
41
1
10
13.1315008092351
20
-8.52247331863532
30
0
41
1
10
13.1067611669351
20
-8.49594603269458
30
0
41
1
10
13.0539261319527
20
-8.44501266637036
30
0
41
1
10
13.0257613362029
20
-8.4205077441581
30
0
41
1
10
12.9954335865922
20
-8.39719338478233
30
0
0
SPLINE
5
26F
100
AcDbEntity
8
1
62
256
6
ByLayer
370
18
48
1
60
0
100
AcDbSpline
70
4
71
3
72
10
73
6
40
0
40
0
40
0
40
0
40
0.5
40
0.5
40
1
40
1
40
1
40
1
41
1
10
3.00456641340691
20
-8.39719338478773
30
0
41
1
10
2.94357470010635
20
-8.44408056702491
30
0
41
1
10
2.89183685312457
20
-8.49512108885
30
0
41
1
10
2.80030599215962
20
-8.60256323736741
30
0
41
1
10
2.76058647657368
20
-8.6591355693364
30
0
41
1
10
2.72570844085476
20
-8.71758745891384
30
0
0
SPLINE
5
270
100
AcDbEntity
8
1
62
256
6
ByLayer
370
18
48
1
60
0
100
AcDbSpline
70
4
71
3
72
16
73
12
40
0
40
0
40
0
40
0
40
0.249999999999996
40
0.249999999999996
40
0.499999999999992
40
0.499999999999992
40
0.749999999999988
40
0.749999999999988
40
0.874999999999994
40
0.874999999999994
40
1
40
1
40
1
40
1
41
1
10
3.5
20
-8.34807461844963
30
0
41
1
10
3.45538643027618
20
-8.34807461844963
30
0
41
1
10
3.41127737018849
20
-8.34757718240468
30
0
41
1
10
3.32406377235918
20
-8.34651470369954
30
0
41
1
10
3.28095871277924
20
-8.34592628307638
30
0
41
1
10
3.1958750494627
20
-8.34750680019147
30
0
41
1
10
3.15349825272949
20
-8.34961358802218
30
0
41
1
10
3.09364866212832
20
-8.35957139268419
30
0
41
1
10
3.0741179976115
20
-8.36408233546302
30
0
41
1
10
3.03716942731586
20
-8.37707567374389
30
0
41
1
10
3.01992612080335
20
-8.3853856594277
30
0
41
1
10
3.00456641340486
20
-8.39719338478926
30
0
0
SPLINE
5
271
100
AcDbEntity
8
1
62
256
6
ByLayer
370
18
48
1
60
0
100
AcDbSpline
70
4
71
3
72
14
73
10
40
0
40
0
40
0
40
0
40
0.25
40
0.25
40
0.5
40
0.5
40
0.75
40
0.75
40
1
40
1
40
1
40
1
41
1
10
11.7
20
4.46938505348567
30
0
41
1
10
11.715730606562
20
4.46938505348567
30
0
41
1
10
11.730920939396
20
4.46614697847133
30
0
41
1
10
11.7568077008495
20
4.45545408421964
30
0
41
1
10
11.7674229669515
20
4.44819123405551
30
0
41
1
10
11.7841281895032
20
4.43185510093696
30
0
41
1
10
11.79003774256
20
4.42305786902068
30
0
41
1
10
11.7980522151908
20
4.40450154500724
30
0
41
1
10
11.8000000000039
20
4.39500864610272
30
0
41
1
10
11.800000000004
20
4.38542649909175
30
0
0
SPLINE
5
272
100
AcDbEntity
8
1
62
256
6
ByLayer
370
18
48
1
60
0
100
AcDbSpline
70
4
71
3
72
66
73
62
40
0
40
0
40
0
40
0
40
0.0624999999999996
40
0.0624999999999996
40
0.124999999999999
40
0.124999999999999
40
0.187499999999999
40
0.187499999999999
40
0.249999999999998
40
0.249999999999998
40
0.312499999999998
40
0.312499999999998
40
0.343749999999998
40
0.343749999999998
40
0.374999999999998
40
0.374999999999998
40
0.406249999999997
40
0.406249999999997
40
0.437499999999997
40
0.437499999999997
40
0.453124999999997
40
0.453124999999997
40
0.468749999999997
40
0.468749999999997
40
0.484374999999997
40
0.484374999999997
40
0.492187499999997
40
0.492187499999997
40
0.499999999999997
40
0.499999999999997
40
0.507812499999997
40
0.507812499999997
40
0.515624999999997
40
0.515624999999997
40
0.523437499999997
40
0.523437499999997
40
0.531249999999998
40
0.531249999999998
40
0.546874999999998
40
0.546874999999998
40
0.562499999999999
40
0.562499999999999
40
0.578125
40
0.578125
40
0.593750000000001
40
0.593750000000001
40
0.625000000000001
40
0.625000000000001
40
0.687500000000002
40
0.687500000000002
40
0.718750000000002
40
0.718750000000002
40
0.750000000000002
40
0.750000000000002
40
0.812500000000001
40
0.812500000000001
40
0.875000000000001
40
0.875000000000001
40
0.9375
40
0.9375
40
1
40
1
40
1
40
1
41
1
10
8.80000000000001
20
2.68770367725153
30
0
41
1
10
8.80000000000001
20
2.60794011117917
30
0
41
1
10
8.80849323320945
20
2.53194410348255
30
0
41
1
10
8.83935680493613
20
2.38700160807076
30
0
41
1
10
8.86174848016071
20
2.31805796142942
30
0
41
1
10
8.9188560980657
20
2.1869126342724
30
0
41
1
10
8.95357322690234
20
2.12471216200254
30
0
41
1
10
9.03492933708333
20
2.00685641758366
30
0
41
1
10
9.08154631755883
20
1.95120134870399
30
0
41
1
10
9.18772768491993
20
1.84633065089787
30
0
41
1
10
9.24683037725521
20
1.79752066402961
30
0
41
1
10
9.34658545951868
20
1.72969664397982
30
0
41
1
10
9.38171421337671
20
1.70798308133624
30
0
41
1
10
9.45660163005948
20
1.66635215998713
30
0
41
1
10
9.49622664441887
20
1.64650682084101
30
0
41
1
10
9.58091909192319
20
1.60893231669132
30
0
41
1
10
9.62598232559566
20
1.59117888481199
30
0
41
1
10
9.72422066186084
20
1.55791053481801
30
0
41
1
10
9.77723323501112
20
1.54237958514898
30
0
41
1
10
9.86762395517309
20
1.52115333029281
30
0
41
1
10
9.89971025322546
20
1.51441784622369
30
0
41
1
10
9.96774416213447
20
1.50212801115782
30
0
41
1
10
10.0039501483485
20
1.49651223985444
30
0
41
1
10
10.0821069524835
20
1.48684914934029
30
0
41
1
10
10.1232692811959
20
1.48289105481268
30
0
41
1
10
10.1896207863481
20
1.47873520427834
30
0
41
1
10
10.2125076770531
20
1.47766049934097
30
0
41
1
10
10.2583585239712
20
1.47626784226577
30
0
41
1
10
10.2815152502122
20
1.4759359650331
30
0
41
1
10
10.3283214359998
20
1.4760440966603
30
0
41
1
10
10.3518063898846
20
1.47649196258368
30
0
41
1
10
10.3974673773159
20
1.47809597451146
30
0
41
1
10
10.4198662079808
20
1.47925147746412
30
0
41
1
10
10.4638931780496
20
1.48220711618745
30
0
41
1
10
10.4852884627467
20
1.48399464399461
30
0
41
1
10
10.5263423184473
20
1.48802513279674
30
0
41
1
10
10.546133925422
20
1.49027733827938
30
0
41
1
10
10.6037178118698
20
1.49764005945599
30
0
41
1
10
10.6398895284184
20
1.50338933564802
30
0
41
1
10
10.707106225056
20
1.51579514900538
30
0
41
1
10
10.7384447014462
20
1.52248784872899
30
0
41
1
10
10.7979986796186
20
1.53667313150083
30
0
41
1
10
10.8261983156689
20
1.54416807721253
30
0
41
1
10
10.8802434294628
20
1.55987060039507
30
0
41
1
10
10.9060179600529
20
1.56806354885782
30
0
41
1
10
10.9797941039263
20
1.59334397395236
30
0
41
1
10
11.0246429015508
20
1.61122430749185
30
0
41
1
10
11.150694136247
20
1.66770981777495
30
0
41
1
10
11.2235566625403
20
1.70914853752947
30
0
41
1
10
11.3225697831085
20
1.77684778268554
30
0
41
1
10
11.3537743159213
20
1.80034380230848
30
0
41
1
10
11.4130067047222
20
1.84922245282439
30
0
41
1
10
11.4410013225373
20
1.87459007532738
30
0
41
1
10
11.5199931472808
20
1.95296511051106
30
0
41
1
10
11.5662833283967
20
2.00842874042689
30
0
41
1
10
11.647119365656
20
2.12590426559569
30
0
41
1
10
11.6816446394555
20
2.18791589894704
30
0
41
1
10
11.7384688071013
20
2.31870547467162
30
0
41
1
10
11.7607695133706
20
2.38748208408816
30
0
41
1
10
11.7915240892563
20
2.53213872528249
30
0
41
1
10
11.8000000000001
20
2.60801563702358
30
0
41
1
10
11.8000000000001
20
2.68770367725153
30
0
0
SPLINE
5
273
100
AcDbEntity
8
1
62
256
6
ByLayer
370
18
48
1
60
0
100
AcDbSpline
70
4
71
3
72
14
73
10
40
0
40
0
40
0
40
0
40
0.25
40
0.25
40
0.5
40
0.5
40
0.75
40
0.75
40
1
40
1
40
1
40
1
41
1
10
8.80000000000001
20
4.38542649909118
30
0
41
1
10
8.80000000000001
20
4.39500819750867
30
0
41
1
10
8.80193240276645
20
4.40444181340712
30
0
41
1
10
8.80992101868884
20
4.4229863334287
30
0
41
1
10
8.81588007606001
20
4.43185367178734
30
0
41
1
10
8.83249288189609
20
4.44811841091507
30
0
41
1
10
8.84314406706358
20
4.4554290929251
30
0
41
1
10
8.86906007819579
20
4.46614419273777
30
0
41
1
10
8.88427243281427
20
4.46938505348567
30
0
41
1
10
8.89999999999998
20
4.46938505348567
30
0
0
SPLINE
5
274
100
AcDbEntity
8
1
62
256
6
ByLayer
370
18
48
1
60
0
100
AcDbSpline
70
4
71
3
72
26
73
22
40
0
40
0
40
0
40
0
40
0.125
40
0.125
40
0.249999999999999
40
0.249999999999999
40
0.312499999999999
40
0.312499999999999
40
0.374999999999998
40
0.374999999999998
40
0.499999999999998
40
0.499999999999998
40
0.624999999999998
40
0.624999999999998
40
0.687499999999999
40
0.687499999999999
40
0.749999999999999
40
0.749999999999999
40
0.874999999999999
40
0.874999999999999
40
1
40
1
40
1
40
1
41
1
10
2.5
20
1.50823560458917
30
0
41
1
10
2.5
20
1.49545476567357
30
0
41
1
10
2.50632169093598
20
1.48293193034277
30
0
41
1
10
2.53110778129201
20
1.45953982290433
30
0
41
1
10
2.54949113882327
20
1.44854086689628
30
0
41
1
10
2.58632640808924
20
1.43301124151157
30
0
41
1
10
2.60024008585532
20
1.42797624970723
30
0
41
1
10
2.63066571820554
20
1.418419914521
30
0
41
1
10
2.64721353830191
20
1.41387611071565
30
0
41
1
10
2.70079984205967
20
1.40089480699015
30
0
41
1
10
2.7417422772096
20
1.39310300571589
30
0
41
1
10
2.83463223583584
20
1.37907831418869
30
0
41
1
10
2.88515234009731
20
1.37306360488964
30
0
41
1
10
2.96648200585594
20
1.36534510173027
30
0
41
1
10
2.99454270617042
20
1.36298866746512
30
0
41
1
10
3.05261304256385
20
1.35869008547809
30
0
41
1
10
3.08276254341024
20
1.35674230907335
30
0
41
1
10
3.17424100021765
20
1.35161630524237
30
0
41
1
10
3.23707639465272
20
1.34910070188022
30
0
41
1
10
3.36641405755637
20
1.34571060087302
30
0
41
1
10
3.43323602923232
20
1.34484712069735
30
0
41
1
10
3.5
20
1.34484712069735
30
0
0
SPLINE
5
275
100
AcDbEntity
8
1
62
256
6
ByLayer
370
18
48
1
60
0
100
AcDbSpline
70
4
71
3
72
28
73
24
40
0
40
0
40
0
40
0
40
0.125000000000016
40
0.125000000000016
40
0.187500000000022
40
0.187500000000022
40
0.250000000000027
40
0.250000000000027
40
0.375000000000032
40
0.375000000000032
40
0.437500000000032
40
0.437500000000032
40
0.500000000000033
40
0.500000000000033
40
0.625000000000022
40
0.625000000000022
40
0.750000000000011
40
0.750000000000011
40
0.812500000000011
40
0.812500000000011
40
0.875000000000012
40
0.875000000000012
40
1
40
1
40
1
40
1
41
1
10
12.5
20
1.34484712069741
30
0
41
1
10
12.5667912480819
20
1.34484712069741
30
0
41
1
10
12.6324389576208
20
1.34569210587159
30
0
41
1
10
12.7292662176399
20
1.34821288376509
30
0
41
1
10
12.7612658157491
20
1.34926434523015
30
0
41
1
10
12.8246994762578
20
1.35181567488132
30
0
41
1
10
12.856154263848
20
1.35332021067899
30
0
41
1
10
12.9475464855246
20
1.35843927471791
30
0
41
1
10
13.005273111458
20
1.36267686892683
30
0
41
1
10
13.0870982659793
20
1.37042405579058
30
0
41
1
10
13.1137110024601
20
1.37325756476236
30
0
41
1
10
13.1645218940426
20
1.37935031041161
30
0
41
1
10
13.1886826365751
20
1.38260046706068
30
0
41
1
10
13.2575458277151
20
1.3929914820186
30
0
41
1
10
13.2986627631357
20
1.4007665577364
30
0
41
1
10
13.3710906401664
20
1.41830837303166
30
0
41
1
10
13.4014067160725
20
1.42784917802953
30
0
41
1
10
13.438061945435
20
1.44328851608719
30
0
41
1
10
13.4488270426032
20
1.44863024263435
30
0
41
1
10
13.4674154435461
20
1.45972956786784
30
0
41
1
10
13.4752537967684
20
1.46551355158283
30
0
41
1
10
13.4938746607691
20
1.48317867130709
30
0
41
1
10
13.5000000000001
20
1.4954516965401
30
0
41
1
10
13.5
20
1.50823560458929
30
0
0
SPLINE
5
276
100
AcDbEntity
8
1
62
256
6
ByLayer
370
18
48
1
60
0
100
AcDbSpline
70
4
71
3
72
16
73
12
40
0
40
0
40
0
40
0
40
0.124999999999995
40
0.124999999999995
40
0.249999999999989
40
0.249999999999989
40
0.499999999999993
40
0.499999999999993
40
0.749999999999996
40
0.749999999999996
40
1
40
1
40
1
40
1
41
1
10
12.9954335865887
20
36.866104229577
30
0
41
1
10
12.9800746835012
20
36.8702490058112
30
0
41
1
10
12.9628733067417
20
36.8759102409941
30
0
41
1
10
12.9260832228849
20
36.8881119964342
30
0
41
1
10
12.9065112048649
20
36.8946813967889
30
0
41
1
10
12.8468891305437
20
36.9137821445084
30
0
41
1
10
12.8049107969393
20
36.9259993079398
30
0
41
1
10
12.7193630126994
20
36.9461088174151
30
0
41
1
10
12.6761021412512
20
36.9540155165202
30
0
41
1
10
12.5887071748285
20
36.9646975967502
30
0
41
1
10
12.5445725452785
20
36.9674825876897
30
0
41
1
10
12.5000000000014
20
36.9674825876897
30
0
0
SPLINE
5
277
100
AcDbEntity
8
1
62
256
6
ByLayer
370
18
48
1
60
0
100
AcDbSpline
70
4
71
3
72
16
73
12
40
0
40
0
40
0
40
0
40
0.249999999999998
40
0.249999999999998
40
0.499999999999996
40
0.499999999999996
40
0.749999999999993
40
0.749999999999993
40
0.874999999999997
40
0.874999999999997
40
1
40
1
40
1
40
1
41
1
10
3.5
20
36.9674825876809
30
0
41
1
10
3.45538667470811
20
36.9674825876809
30
0
41
1
10
3.41127785358083
20
36.9646927598379
30
0
41
1
10
3.32406472246299
20
36.9540389136154
30
0
41
1
10
3.28095989066623
20
36.9461653381882
30
0
41
1
10
3.19587666855028
20
36.9262035475861
30
0
41
1
10
3.15349999619394
20
36.9139023993438
30
0
41
1
10
3.09365103697525
20
36.894735557167
30
0
41
1
10
3.07412114997737
20
36.8881802532604
30
0
41
1
10
3.0371713182135
20
36.8759245696838
30
0
41
1
10
3.01992714878952
20
36.8702495002759
30
0
41
1
10
3.00456641341151
20
36.866104229577
30
0
0
SPLINE
5
278
100
AcDbEntity
8
1
62
256
6
ByLayer
370
18
48
1
60
0
100
AcDbSpline
70
4
71
3
72
12
73
8
40
0
40
0
40
0
40
0
40
0.500000000000003
40
0.500000000000003
40
0.750000000000001
40
0.750000000000001
40
1
40
1
40
1
40
1
41
1
10
13.2742915591398
20
36.7536328393767
30
0
41
1
10
13.2398355820632
20
36.7739035369934
30
0
41
1
10
13.2005268912951
20
36.7936375028009
30
0
41
1
10
13.1315016594342
20
36.8221255277239
30
0
41
1
10
13.1067619319126
20
36.8314377486138
30
0
41
1
10
13.0539265632297
20
36.8493175791989
30
0
41
1
10
13.025761572372
20
36.8579198746151
30
0
41
1
10
12.9954335865906
20
36.8661042295773
30
0
0
SPLINE
5
279
100
AcDbEntity
8
1
62
256
6
ByLayer
370
18
48
1
60
0
100
AcDbSpline
70
4
71
3
72
10
73
6
40
0
40
0
40
0
40
0
40
0.5
40
0.5
40
1
40
1
40
1
40
1
41
1
10
3.00456641341145
20
36.866104229577
30
0
41
1
10
2.94357394949941
20
36.849644713331
30
0
41
1
10
2.89183603325972
20
36.8317273092549
30
0
41
1
10
2.80030539386587
20
36.7940107503954
30
0
41
1
10
2.76058648279349
20
36.7741518407659
30
0
41
1
10
2.72570844085487
20
36.7536328393736
30
0
0
LINE
5
7A
100
AcDbEntity
8
1
62
256
6
ByLayer
370
13
48
1
60
0
100
AcDbLine
10
12.995434
20
36.866104
30
0
11
3.004566
21
36.866104
31
0
39
0
210
0
220
0
230
1
0
LINE
5
7B
100
AcDbEntity
8
1
62
256
6
ByLayer
370
13
48
1
60
0
100
AcDbLine
10
2.81348
20
36.686854
30
0
11
13.18652
21
36.686854
31
0
39
0
210
0
220
0
230
1
0
LINE
5
7C
100
AcDbEntity
8
1
62
256
6
ByLayer
370
13
48
1
60
0
100
AcDbLine
10
2.57788
20
35.704398
30
0
11
13.42212
21
35.704398
31
0
39
0
210
0
220
0
230
1
0
LINE
5
7D
100
AcDbEntity
8
1
62
256
6
ByLayer
370
13
48
1
60
0
100
AcDbLine
10
13.15802
20
36.581717
30
0
11
2.84198
21
36.581717
31
0
39
0
210
0
220
0
230
1
0
LINE
5
7E
100
AcDbEntity
8
1
62
256
6
ByLayer
370
13
48
1
60
0
100
AcDbLine
10
13.18652
20
36.215024
30
0
11
2.81348
21
36.215024
31
0
39
0
210
0
220
0
230
1
0
LINE
5
7F
100
AcDbEntity
8
1
62
256
6
ByLayer
370
13
48
1
60
0
100
AcDbLine
10
2.84198
20
36.360247
30
0
11
13.15802
21
36.360247
31
0
39
0
210
0
220
0
230
1
0
LINE
5
80
100
AcDbEntity
8
1
62
256
6
ByLayer
370
13
48
1
60
0
100
AcDbLine
10
13.42212
20
35.420659
30
0
11
2.57788
21
35.420659
31
0
39
0
210
0
220
0
230
1
0
LINE
5
81
100
AcDbEntity
8
1
62
256
6
ByLayer
370
13
48
1
60
0
100
AcDbLine
10
2.81348
20
35.241408
30
0
11
13.18652
21
35.241408
31
0
39
0
210
0
220
0
230
1
0
LINE
5
82
100
AcDbEntity
8
1
62
256
6
ByLayer
370
13
48
1
60
0
100
AcDbLine
10
2.57788
20
34.258953
30
0
11
13.42212
21
34.258953
31
0
39
0
210
0
220
0
230
1
0
LINE
5
83
100
AcDbEntity
8
1
62
256
6
ByLayer
370
13
48
1
60
0
100
AcDbLine
10
13.15802
20
35.136272
30
0
11
2.84198
21
35.136272
31
0
39
0
210
0
220
0
230
1
0
LINE
5
84
100
AcDbEntity
8
1
62
256
6
ByLayer
370
13
48
1
60
0
100
AcDbLine
10
13.18652
20
34.769579
30
0
11
2.81348
21
34.769579
31
0
39
0
210
0
220
0
230
1
0
LINE
5
85
100
AcDbEntity
8
1
62
256
6
ByLayer
370
13
48
1
60
0
100
AcDbLine
10
2.84198
20
34.914801
30
0
11
13.15802
21
34.914801
31
0
39
0
210
0
220
0
230
1
0
LINE
5
86
100
AcDbEntity
8
1
62
256
6
ByLayer
370
13
48
1
60
0
100
AcDbLine
10
13.42212
20
33.975213
30
0
11
13.216587
21
33.975213
31
0
39
0
210
0
220
0
230
1
0
LINE
5
87
100
AcDbEntity
8
1
62
256
6
ByLayer
370
13
48
1
60
0
100
AcDbLine
10
2.77223
20
33.975213
30
0
11
2.57788
21
33.975213
31
0
39
0
210
0
220
0
230
1
0
LINE
5
88
100
AcDbEntity
8
1
62
256
6
ByLayer
370
18
48
1
60
0
100
AcDbLine
10
2.84198
20
34.914801
30
0
11
2.84198
21
35.136272
31
0
39
0
210
0
220
0
230
1
0
LINE
5
89
100
AcDbEntity
8
1
62
256
6
ByLayer
370
13
48
1
60
0
100
AcDbLine
10
8.2
20
6.615305
30
0
11
8.2
21
4.723964
31
0
39
0
210
0
220
0
230
1
0
LINE
5
8A
100
AcDbEntity
8
1
62
256
6
ByLayer
370
18
48
1
60
0
100
AcDbLine
10
2.81348
20
35.241408
30
0
11
2.57788
21
35.420659
31
0
39
0
210
0
220
0
230
1
0
LINE
5
8B
100
AcDbEntity
8
1
62
256
6
ByLayer
370
18
48
1
60
0
100
AcDbLine
10
2.57788
20
35.704398
30
0
11
2.81348
21
36.215024
31
0
39
0
210
0
220
0
230
1
0
LINE
5
8C
100
AcDbEntity
8
1
62
256
6
ByLayer
370
18
48
1
60
0
100
AcDbLine
10
2.84198
20
36.360247
30
0
11
2.84198
21
36.581717
31
0
39
0
210
0
220
0
230
1
0
LINE
5
8D
100
AcDbEntity
8
1
62
256
6
ByLayer
370
18
48
1
60
0
100
AcDbLine
10
2.81348
20
36.686854
30
0
11
2.725708
21
36.753633
31
0
39
0
210
0
220
0
230
1
0
LINE
5
8E
100
AcDbEntity
8
1
62
256
6
ByLayer
370
18
48
1
60
0
100
AcDbLine
10
2.5
20
35.966369
30
0
11
2.5
21
33.442722
31
0
39
0
210
0
220
0
230
1
0
LINE
5
8F
100
AcDbEntity
8
1
62
256
6
ByLayer
370
18
48
1
60
0
100
AcDbLine
10
13.5
20
35.966369
30
0
11
13.5
21
33.442722
31
0
39
0
210
0
220
0
230
1
0
LINE
5
90
100
AcDbEntity
8
1
62
256
6
ByLayer
370
18
48
1
60
0
100
AcDbLine
10
13.274292
20
36.753633
30
0
11
13.18652
21
36.686854
31
0
39
0
210
0
220
0
230
1
0
LINE
5
91
100
AcDbEntity
8
1
62
256
6
ByLayer
370
18
48
1
60
0
100
AcDbLine
10
13.15802
20
36.581717
30
0
11
13.15802
21
36.360247
31
0
39
0
210
0
220
0
230
1
0
LINE
5
92
100
AcDbEntity
8
1
62
256
6
ByLayer
370
18
48
1
60
0
100
AcDbLine
10
13.18652
20
36.215024
30
0
11
13.42212
21
35.704398
31
0
39
0
210
0
220
0
230
1
0
LINE
5
93
100
AcDbEntity
8
1
62
256
6
ByLayer
370
18
48
1
60
0
100
AcDbLine
10
13.42212
20
35.420659
30
0
11
13.18652
21
35.241408
31
0
39
0
210
0
220
0
230
1
0
LINE
5
94
100
AcDbEntity
8
1
62
256
6
ByLayer
370
18
48
1
60
0
100
AcDbLine
10
13.15802
20
35.136272
30
0
11
13.15802
21
34.914801
31
0
39
0
210
0
220
0
230
1
0
LINE
5
95
100
AcDbEntity
8
1
62
256
6
ByLayer
370
18
48
1
60
0
100
AcDbLine
10
13.18652
20
34.769579
30
0
11
13.42212
21
34.258953
31
0
39
0
210
0
220
0
230
1
0
LINE
5
96
100
AcDbEntity
8
1
62
256
6
ByLayer
370
18
48
1
60
0
100
AcDbLine
10
13.42212
20
33.975213
30
0
11
13.312389
21
33.891727
31
0
39
0
210
0
220
0
230
1
0
LINE
5
97
100
AcDbEntity
8
1
62
256
6
ByLayer
370
18
48
1
60
0
100
AcDbLine
10
13.499948
20
20.999538
30
0
11
13.798748
21
20.999538
31
0
39
0
210
0
220
0
230
1
0
LINE
5
98
100
AcDbEntity
8
1
62
256
6
ByLayer
370
18
48
1
60
0
100
AcDbLine
10
2.201252
20
20.999538
30
0
11
2.500052
21
20.999538
31
0
39
0
210
0
220
0
230
1
0
LINE
5
99
100
AcDbEntity
8
1
62
256
6
ByLayer
370
18
48
1
60
0
100
AcDbLine
10
2.201252
20
-20.999538
30
0
11
2.500052
21
-20.999538
31
0
39
0
210
0
220
0
230
1
0
LINE
5
9A
100
AcDbEntity
8
1
62
256
6
ByLayer
370
18
48
1
60
0
100
AcDbLine
10
13.499948
20
-20.999538
30
0
11
13.798748
21
-20.999538
31
0
39
0
210
0
220
0
230
1
0
LINE
5
9B
100
AcDbEntity
8
1
62
256
6
ByLayer
370
13
48
1
60
0
100
AcDbLine
10
8.2
20
-10.242446
30
0
11
8.2
21
-11.519264
31
0
39
0
210
0
220
0
230
1
0
LINE
5
9C
100
AcDbEntity
8
1
62
256
6
ByLayer
370
18
48
1
60
0
100
AcDbLine
10
7.7
20
5.110206
30
0
11
7.7
21
4.715133
31
0
39
0
210
0
220
0
230
1
0
LINE
5
9D
100
AcDbEntity
8
1
62
256
6
ByLayer
370
13
48
1
60
0
100
AcDbLine
10
2.1
20
-19.864631
30
0
11
2.48805
21
-20.13753
31
0
39
0
210
0
220
0
230
1
0
LINE
5
9E
100
AcDbEntity
8
1
62
256
6
ByLayer
370
13
48
1
60
0
100
AcDbLine
10
13.51195
20
-20.13753
30
0
11
13.9
21
-19.864631
31
0
39
0
210
0
220
0
230
1
0
LINE
5
9F
100
AcDbEntity
8
1
62
256
6
ByLayer
370
13
48
1
60
0
100
AcDbLine
10
2.1
20
-19.747013
30
0
11
2.1
21
-19.864631
31
0
39
0
210
0
220
0
230
1
0
LINE
5
A0
100
AcDbEntity
8
1
62
256
6
ByLayer
370
13
48
1
60
0
100
AcDbLine
10
13.9
20
-19.864631
30
0
11
13.9
21
-19.747013
31
0
39
0
210
0
220
0
230
1
0
LINE
5
A1
100
AcDbEntity
8
1
62
256
6
ByLayer
370
18
48
1
60
0
100
AcDbLine
10
15.142997
20
-15.310436
30
0
11
0.857003
21
-15.310436
31
0
39
0
210
0
220
0
230
1
0
LINE
5
A2
100
AcDbEntity
8
1
62
256
6
ByLayer
370
18
48
1
60
0
100
AcDbLine
10
13.12
20
15.815453
30
0
11
2.88
21
15.815453
31
0
39
0
210
0
220
0
230
1
0
LINE
5
A3
100
AcDbEntity
8
1
62
256
6
ByLayer
370
18
48
1
60
0
100
AcDbLine
10
13.12002
20
15.815678
30
0
11
2.87998
21
15.815678
31
0
39
0
210
0
220
0
230
1
0
LINE
5
A4
100
AcDbEntity
8
1
62
256
6
ByLayer
370
13
48
1
60
0
100
AcDbLine
10
2.88
20
15.638983
30
0
11
13.12
21
15.638983
31
0
39
0
210
0
220
0
230
1
0
LINE
5
A5
100
AcDbEntity
8
1
62
256
6
ByLayer
370
13
48
1
60
0
100
AcDbLine
10
13.42212
20
16.700278
30
0
11
2.57788
21
16.700278
31
0
39
0
210
0
220
0
230
1
0
LINE
5
A6
100
AcDbEntity
8
1
62
256
6
ByLayer
370
13
48
1
60
0
100
AcDbLine
10
2.84198
20
16.771129
30
0
11
13.15802
21
16.771129
31
0
39
0
210
0
220
0
230
1
0
LINE
5
A7
100
AcDbEntity
8
1
62
256
6
ByLayer
370
13
48
1
60
0
100
AcDbLine
10
13.15802
20
16.935055
30
0
11
2.84198
21
16.935055
31
0
39
0
210
0
220
0
230
1
0
LINE
5
A8
100
AcDbEntity
8
1
62
256
6
ByLayer
370
13
48
1
60
0
100
AcDbLine
10
2.81348
20
17.080277
30
0
11
13.18652
21
17.080277
31
0
39
0
210
0
220
0
230
1
0
LINE
5
A9
100
AcDbEntity
8
1
62
256
6
ByLayer
370
13
48
1
60
0
100
AcDbLine
10
13.42212
20
17.770154
30
0
11
2.57788
21
17.770154
31
0
39
0
210
0
220
0
230
1
0
LINE
5
AA
100
AcDbEntity
8
1
62
256
6
ByLayer
370
13
48
1
60
0
100
AcDbLine
10
2.604093
20
15.073319
30
0
11
7.166045
21
15.073319
31
0
39
0
210
0
220
0
230
1
0
LINE
5
AB
100
AcDbEntity
8
1
62
256
6
ByLayer
370
13
48
1
60
0
100
AcDbLine
10
2.1
20
16.003118
30
0
11
2.604093
21
15.073319
31
0
39
0
210
0
220
0
230
1
0
LINE
5
AC
100
AcDbEntity
8
1
62
256
6
ByLayer
370
13
48
1
60
0
100
AcDbLine
10
2.1
20
16.311605
30
0
11
2.1
21
16.003118
31
0
39
0
210
0
220
0
230
1
0
LINE
5
AD
100
AcDbEntity
8
1
62
256
6
ByLayer
370
13
48
1
60
0
100
AcDbLine
10
8.833955
20
15.073319
30
0
11
13.395907
21
15.073319
31
0
39
0
210
0
220
0
230
1
0
LINE
5
AE
100
AcDbEntity
8
1
62
256
6
ByLayer
370
13
48
1
60
0
100
AcDbLine
10
13.9
20
16.003118
30
0
11
13.9
21
16.311605
31
0
39
0
210
0
220
0
230
1
0
LINE
5
AF
100
AcDbEntity
8
1
62
256
6
ByLayer
370
13
48
1
60
0
100
AcDbLine
10
13.395907
20
15.073319
30
0
11
13.9
21
16.003118
31
0
39
0
210
0
220
0
230
1
0
LINE
5
B0
100
AcDbEntity
8
1
62
256
6
ByLayer
370
13
48
1
60
0
100
AcDbLine
10
2.84198
20
17.841005
30
0
11
13.15802
21
17.841005
31
0
39
0
210
0
220
0
230
1
0
LINE
5
B1
100
AcDbEntity
8
1
62
256
6
ByLayer
370
13
48
1
60
0
100
AcDbLine
10
13.15802
20
18.004931
30
0
11
2.84198
21
18.004931
31
0
39
0
210
0
220
0
230
1
0
LINE
5
B2
100
AcDbEntity
8
1
62
256
6
ByLayer
370
13
48
1
60
0
100
AcDbLine
10
2.81348
20
18.150153
30
0
11
13.18652
21
18.150153
31
0
39
0
210
0
220
0
230
1
0
LINE
5
B3
100
AcDbEntity
8
1
62
256
6
ByLayer
370
13
48
1
60
0
100
AcDbLine
10
13.42212
20
18.84003
30
0
11
2.57788
21
18.84003
31
0
39
0
210
0
220
0
230
1
0
LINE
5
B4
100
AcDbEntity
8
1
62
256
6
ByLayer
370
18
48
1
60
0
100
AcDbLine
10
7.7
20
-10.248004
30
0
11
7.7
21
-11.135058
31
0
39
0
210
0
220
0
230
1
0
LINE
5
B5
100
AcDbEntity
8
1
62
256
6
ByLayer
370
13
48
1
60
0
100
AcDbLine
10
2.84198
20
18.910881
30
0
11
13.15802
21
18.910881
31
0
39
0
210
0
220
0
230
1
0
LINE
5
B6
100
AcDbEntity
8
1
62
256
6
ByLayer
370
13
48
1
60
0
100
AcDbLine
10
13.15802
20
19.074806
30
0
11
2.84198
21
19.074806
31
0
39
0
210
0
220
0
230
1
0
LINE
5
B7
100
AcDbEntity
8
1
62
256
6
ByLayer
370
13
48
1
60
0
100
AcDbLine
10
2.81348
20
19.220029
30
0
11
13.18652
21
19.220029
31
0
39
0
210
0
220
0
230
1
0
LINE
5
B8
100
AcDbEntity
8
1
62
256
6
ByLayer
370
13
48
1
60
0
100
AcDbLine
10
13.42212
20
19.909905
30
0
11
2.57788
21
19.909905
31
0
39
0
210
0
220
0
230
1
0
LINE
5
B9
100
AcDbEntity
8
1
62
256
6
ByLayer
370
18
48
1
60
0
100
AcDbLine
10
7.7
20
8.707141
30
0
11
7.7
21
8.481533
31
0
39
0
210
0
220
0
230
1
0
LINE
5
BA
100
AcDbEntity
8
1
62
256
6
ByLayer
370
18
48
1
60
0
100
AcDbLine
10
2.5
20
-16.507488
30
0
11
2.5
21
-23.950236
31
0
39
0
210
0
220
0
230
1
0
LINE
5
BB
100
AcDbEntity
8
1
62
256
6
ByLayer
370
18
48
1
60
0
100
AcDbLine
10
13.5
20
-23.950236
30
0
11
13.5
21
-16.507488
31
0
39
0
210
0
220
0
230
1
0
LINE
5
BC
100
AcDbEntity
8
1
62
256
6
ByLayer
370
18
48
1
60
0
100
AcDbLine
10
0
20
19.1
30
0
11
0
21
-19.1
31
0
39
0
210
0
220
0
230
1
0
LINE
5
BD
100
AcDbEntity
8
1
62
256
6
ByLayer
370
18
48
1
60
0
100
AcDbLine
10
2.107043
20
-16.191058
30
0
11
13.892957
21
-16.191058
31
0
39
0
210
0
220
0
230
1
0
LINE
5
BE
100
AcDbEntity
8
1
62
256
6
ByLayer
370
13
48
1
60
0
100
AcDbLine
10
2.84198
20
19.980756
30
0
11
13.15802
21
19.980756
31
0
39
0
210
0
220
0
230
1
0
LINE
5
BF
100
AcDbEntity
8
1
62
256
6
ByLayer
370
13
48
1
60
0
100
AcDbLine
10
13.15802
20
20.144682
30
0
11
2.84198
21
20.144682
31
0
39
0
210
0
220
0
230
1
0
LINE
5
C0
100
AcDbEntity
8
1
62
256
6
ByLayer
370
13
48
1
60
0
100
AcDbLine
10
2.81348
20
20.289904
30
0
11
13.18652
21
20.289904
31
0
39
0
210
0
220
0
230
1
0
LINE
5
C1
100
AcDbEntity
8
1
62
256
6
ByLayer
370
13
48
1
60
0
100
AcDbLine
10
13.42212
20
20.979781
30
0
11
2.57788
21
20.979781
31
0
39
0
210
0
220
0
230
1
0
LINE
5
C2
100
AcDbEntity
8
1
62
256
6
ByLayer
370
18
48
1
60
0
100
AcDbLine
10
2.201252
20
13.026499
30
0
11
5.695356
21
13.026499
31
0
39
0
210
0
220
0
230
1
0
LINE
5
C3
100
AcDbEntity
8
1
62
256
6
ByLayer
370
18
48
1
60
0
100
AcDbLine
10
12
20
7.357298
30
0
11
12
21
10.880042
31
0
39
0
210
0
220
0
230
1
0
LINE
5
C4
100
AcDbEntity
8
1
62
256
6
ByLayer
370
18
48
1
60
0
100
AcDbLine
10
13.499948
20
-7.973039
30
0
11
13.798748
21
-7.973039
31
0
39
0
210
0
220
0
230
1
0
LINE
5
C5
100
AcDbEntity
8
1
62
256
6
ByLayer
370
18
48
1
60
0
100
AcDbLine
10
0.4
20
19.5
30
0
11
0.4
21
-19.5
31
0
39
0
210
0
220
0
230
1
0
LINE
5
C6
100
AcDbEntity
8
1
62
256
6
ByLayer
370
18
48
1
60
0
100
AcDbLine
10
2.201252
20
-7.973039
30
0
11
2.500052
21
-7.973039
31
0
39
0
210
0
220
0
230
1
0
LINE
5
C7
100
AcDbEntity
8
1
62
256
6
ByLayer
370
18
48
1
60
0
100
AcDbLine
10
2.5
20
-23.950236
30
0
11
2.5
21
-24.900289
31
0
39
0
210
0
220
0
230
1
0
LINE
5
C8
100
AcDbEntity
8
1
62
256
6
ByLayer
370
18
48
1
60
0
100
AcDbLine
10
13.5
20
-24.900289
30
0
11
13.5
21
-23.950236
31
0
39
0
210
0
220
0
230
1
0
LINE
5
C9
100
AcDbEntity
8
1
62
256
6
ByLayer
370
18
48
1
60
0
100
AcDbLine
10
0.692723
20
3.399964
30
0
11
1.246021
21
3.399964
31
0
39
0
210
0
220
0
230
1
0
LINE
5
CA
100
AcDbEntity
8
1
62
256
6
ByLayer
370
18
48
1
60
0
100
AcDbLine
10
14.753979
20
3.399964
30
0
11
15.307277
21
3.399964
31
0
39
0
210
0
220
0
230
1
0
LINE
5
CB
100
AcDbEntity
8
1
62
256
6
ByLayer
370
18
48
1
60
0
100
AcDbLine
10
15.6
20
19.5
30
0
11
15.6
21
-19.5
31
0
39
0
210
0
220
0
230
1
0
LINE
5
CC
100
AcDbEntity
8
1
62
256
6
ByLayer
370
18
48
1
60
0
100
AcDbLine
10
16
20
19.1
30
0
11
16
21
-19.1
31
0
39
0
210
0
220
0
230
1
0
LINE
5
CD
100
AcDbEntity
8
1
62
256
6
ByLayer
370
18
48
1
60
0
100
AcDbLine
10
4
20
10.880042
30
0
11
4
21
7.357298
31
0
39
0
210
0
220
0
230
1
0
LINE
5
CE
100
AcDbEntity
8
1
62
256
6
ByLayer
370
18
48
1
60
0
100
AcDbLine
10
0.692723
20
-15.098312
30
0
11
15.307277
21
-15.098312
31
0
39
0
210
0
220
0
230
1
0
LINE
5
CF
100
AcDbEntity
8
1
62
256
6
ByLayer
370
18
48
1
60
0
100
AcDbLine
10
2.5
20
-23.950236
30
0
11
13.5
21
-23.950236
31
0
39
0
210
0
220
0
230
1
0
LINE
5
D0
100
AcDbEntity
8
1
62
256
6
ByLayer
370
18
48
1
60
0
100
AcDbLine
10
8.9
20
-24.900289
30
0
11
11.7
21
-24.900289
31
0
39
0
210
0
220
0
230
1
0
LINE
5
D1
100
AcDbEntity
8
1
62
256
6
ByLayer
370
18
48
1
60
0
100
AcDbLine
10
4
20
-9.561783
30
0
11
4
21
-12.169212
31
0
39
0
210
0
220
0
230
1
0
LINE
5
D2
100
AcDbEntity
8
1
62
256
6
ByLayer
370
18
48
1
60
0
100
AcDbLine
10
12
20
10.880042
30
0
11
4
21
10.880042
31
0
39
0
210
0
220
0
230
1
0
LINE
5
D3
100
AcDbEntity
8
1
62
256
6
ByLayer
370
18
48
1
60
0
100
AcDbLine
10
12
20
-9.561783
30
0
11
4
21
-9.561783
31
0
39
0
210
0
220
0
230
1
0
LINE
5
D4
100
AcDbEntity
8
1
62
256
6
ByLayer
370
18
48
1
60
0
100
AcDbLine
10
12
20
-12.169212
30
0
11
12
21
-9.561783
31
0
39
0
210
0
220
0
230
1
0
LINE
5
D5
100
AcDbEntity
8
1
62
256
6
ByLayer
370
13
48
1
60
0
100
AcDbLine
10
8.9
20
-24.900289
30
0
11
8.9
21
-26.032959
31
0
39
0
210
0
220
0
230
1
0
LINE
5
D6
100
AcDbEntity
8
1
62
256
6
ByLayer
370
13
48
1
60
0
100
AcDbLine
10
11.7
20
-26.032959
30
0
11
11.7
21
-24.900289
31
0
39
0
210
0
220
0
230
1
0
LINE
5
D7
100
AcDbEntity
8
1
62
256
6
ByLayer
370
18
48
1
60
0
100
AcDbLine
10
12.5
20
-36.967483
30
0
11
3.5
21
-36.967483
31
0
39
0
210
0
220
0
230
1
0
LINE
5
D8
100
AcDbEntity
8
1
62
256
6
ByLayer
370
13
48
1
60
0
100
AcDbLine
10
2.84198
20
21.050632
30
0
11
13.15802
21
21.050632
31
0
39
0
210
0
220
0
230
1
0
LINE
5
D9
100
AcDbEntity
8
1
62
256
6
ByLayer
370
13
48
1
60
0
100
AcDbLine
10
13.15802
20
21.214558
30
0
11
2.84198
21
21.214558
31
0
39
0
210
0
220
0
230
1
0
LINE
5
DA
100
AcDbEntity
8
1
62
256
6
ByLayer
370
13
48
1
60
0
100
AcDbLine
10
2.81348
20
21.35978
30
0
11
13.18652
21
21.35978
31
0
39
0
210
0
220
0
230
1
0
LINE
5
DB
100
AcDbEntity
8
1
62
256
6
ByLayer
370
13
48
1
60
0
100
AcDbLine
10
13.42212
20
22.049657
30
0
11
2.57788
21
22.049657
31
0
39
0
210
0
220
0
230
1
0
LINE
5
DC
100
AcDbEntity
8
1
62
256
6
ByLayer
370
18
48
1
60
0
100
AcDbLine
10
13.5
20
-31.934686
30
0
11
13.5
21
-35.966369
31
0
39
0
210
0
220
0
230
1
0
LINE
5
DD
100
AcDbEntity
8
1
62
256
6
ByLayer
370
18
48
1
60
0
100
AcDbLine
10
2.5
20
-35.966369
30
0
11
2.5
21
-31.934686
31
0
39
0
210
0
220
0
230
1
0
LINE
5
DE
100
AcDbEntity
8
1
62
256
6
ByLayer
370
13
48
1
60
0
100
AcDbLine
10
12.5
20
-36.967483
30
0
11
12.5
21
-32.888288
31
0
39
0
210
0
220
0
230
1
0
LINE
5
DF
100
AcDbEntity
8
1
62
256
6
ByLayer
370
18
48
1
60
0
100
AcDbLine
10
11.7
20
-24.900289
30
0
11
13.5
21
-24.900289
31
0
39
0
210
0
220
0
230
1
0
LINE
5
E0
100
AcDbEntity
8
1
62
256
6
ByLayer
370
18
48
1
60
0
100
AcDbLine
10
11.8
20
-28.264124
30
0
11
11.8
21
-25.034854
31
0
39
0
210
0
220
0
230
1
0
LINE
5
E1
100
AcDbEntity
8
1
62
256
6
ByLayer
370
18
48
1
60
0
100
AcDbLine
10
8.8
20
-25.034854
30
0
11
8.8
21
-28.264124
31
0
39
0
210
0
220
0
230
1
0
LINE
5
E2
100
AcDbEntity
8
1
62
256
6
ByLayer
370
13
48
1
60
0
100
AcDbLine
10
3.5
20
-32.888288
30
0
11
3.5
21
-36.967483
31
0
39
0
210
0
220
0
230
1
0
LINE
5
E3
100
AcDbEntity
8
1
62
256
6
ByLayer
370
18
48
1
60
0
100
AcDbLine
10
2.5
20
-24.900289
30
0
11
8.9
21
-24.900289
31
0
39
0
210
0
220
0
230
1
0
LINE
5
E4
100
AcDbEntity
8
1
62
256
6
ByLayer
370
18
48
1
60
0
100
AcDbLine
10
2.5
20
-24.900289
30
0
11
2.5
21
-31.934686
31
0
39
0
210
0
220
0
230
1
0
LINE
5
E5
100
AcDbEntity
8
1
62
256
6
ByLayer
370
18
48
1
60
0
100
AcDbLine
10
3.5
20
-32.888288
30
0
11
12.5
21
-32.888288
31
0
39
0
210
0
220
0
230
1
0
LINE
5
E6
100
AcDbEntity
8
1
62
256
6
ByLayer
370
18
48
1
60
0
100
AcDbLine
10
13.5
20
-31.934686
30
0
11
13.5
21
-24.900289
31
0
39
0
210
0
220
0
230
1
0
LINE
5
E7
100
AcDbEntity
8
1
62
256
6
ByLayer
370
18
48
1
60
0
100
AcDbLine
10
10.304644
20
13.026499
30
0
11
13.798748
21
13.026499
31
0
39
0
210
0
220
0
230
1
0
LINE
5
E8
100
AcDbEntity
8
1
62
256
6
ByLayer
370
13
48
1
60
0
100
AcDbLine
10
2.84198
20
22.120508
30
0
11
13.15802
21
22.120508
31
0
39
0
210
0
220
0
230
1
0
LINE
5
E9
100
AcDbEntity
8
1
62
256
6
ByLayer
370
13
48
1
60
0
100
AcDbLine
10
13.15802
20
22.284433
30
0
11
2.84198
21
22.284433
31
0
39
0
210
0
220
0
230
1
0
LINE
5
EA
100
AcDbEntity
8
1
62
256
6
ByLayer
370
13
48
1
60
0
100
AcDbLine
10
2.81348
20
22.429656
30
0
11
13.18652
21
22.429656
31
0
39
0
210
0
220
0
230
1
0
LINE
5
EB
100
AcDbEntity
8
1
62
256
6
ByLayer
370
13
48
1
60
0
100
AcDbLine
10
13.42212
20
23.119532
30
0
11
2.57788
21
23.119532
31
0
39
0
210
0
220
0
230
1
0
LINE
5
EC
100
AcDbEntity
8
1
62
256
6
ByLayer
370
13
48
1
60
0
100
AcDbLine
10
13.500002
20
-4.880611
30
0
11
13.9
21
-3.861512
31
0
39
0
210
0
220
0
230
1
0
LINE
5
ED
100
AcDbEntity
8
1
62
256
6
ByLayer
370
13
48
1
60
0
100
AcDbLine
10
2.1
20
-3.861512
30
0
11
2.499998
21
-4.880611
31
0
39
0
210
0
220
0
230
1
0
LINE
5
EE
100
AcDbEntity
8
1
62
256
6
ByLayer
370
13
48
1
60
0
100
AcDbLine
10
2.1
20
-3.435408
30
0
11
2.1
21
-3.861512
31
0
39
0
210
0
220
0
230
1
0
LINE
5
EF
100
AcDbEntity
8
1
62
256
6
ByLayer
370
13
48
1
60
0
100
AcDbLine
10
13.9
20
-3.861512
30
0
11
13.9
21
-3.435408
31
0
39
0
210
0
220
0
230
1
0
LINE
5
F0
100
AcDbEntity
8
1
62
256
6
ByLayer
370
18
48
1
60
0
100
AcDbLine
10
0.5
20
-19.5
30
0
11
0.5
21
19.5
31
0
39
0
210
0
220
0
230
1
0
LINE
5
F1
100
AcDbEntity
8
1
62
256
6
ByLayer
370
18
48
1
60
0
100
AcDbLine
10
15.5
20
19.5
30
0
11
15.5
21
-19.5
31
0
39
0
210
0
220
0
230
1
0
LINE
5
F2
100
AcDbEntity
8
1
62
256
6
ByLayer
370
18
48
1
60
0
100
AcDbLine
10
2.694013
20
33.886856
30
0
11
2.57788
21
33.975213
31
0
39
0
210
0
220
0
230
1
0
LINE
5
F3
100
AcDbEntity
8
1
62
256
6
ByLayer
370
18
48
1
60
0
100
AcDbLine
10
3.5
20
34.233135
30
0
11
12.5
21
34.233135
31
0
39
0
210
0
220
0
230
1
0
LINE
5
F4
100
AcDbEntity
8
1
62
256
6
ByLayer
370
13
48
1
60
0
100
AcDbLine
10
2.84198
20
23.190383
30
0
11
13.15802
21
23.190383
31
0
39
0
210
0
220
0
230
1
0
LINE
5
F5
100
AcDbEntity
8
1
62
256
6
ByLayer
370
13
48
1
60
0
100
AcDbLine
10
13.15802
20
23.354309
30
0
11
2.84198
21
23.354309
31
0
39
0
210
0
220
0
230
1
0
LINE
5
F6
100
AcDbEntity
8
1
62
256
6
ByLayer
370
13
48
1
60
0
100
AcDbLine
10
2.81348
20
23.499531
30
0
11
13.18652
21
23.499531
31
0
39
0
210
0
220
0
230
1
0
LINE
5
F7
100
AcDbEntity
8
1
62
256
6
ByLayer
370
13
48
1
60
0
100
AcDbLine
10
13.42212
20
24.189408
30
0
11
2.57788
21
24.189408
31
0
39
0
210
0
220
0
230
1
0
LINE
5
F8
100
AcDbEntity
8
1
62
256
6
ByLayer
370
18
48
1
60
0
100
AcDbLine
10
12.5
20
28.619408
30
0
11
3.5
21
28.619408
31
0
39
0
210
0
220
0
230
1
0
LINE
5
F9
100
AcDbEntity
8
1
62
256
6
ByLayer
370
13
48
1
60
0
100
AcDbLine
10
2.84198
20
24.260259
30
0
11
13.15802
21
24.260259
31
0
39
0
210
0
220
0
230
1
0
LINE
5
FA
100
AcDbEntity
8
1
62
256
6
ByLayer
370
13
48
1
60
0
100
AcDbLine
10
13.15802
20
24.424185
30
0
11
2.84198
21
24.424185
31
0
39
0
210
0
220
0
230
1
0
LINE
5
FB
100
AcDbEntity
8
1
62
256
6
ByLayer
370
13
48
1
60
0
100
AcDbLine
10
2.81348
20
24.569407
30
0
11
13.18652
21
24.569407
31
0
39
0
210
0
220
0
230
1
0
LINE
5
FC
100
AcDbEntity
8
1
62
256
6
ByLayer
370
13
48
1
60
0
100
AcDbLine
10
13.42212
20
25.259284
30
0
11
2.57788
21
25.259284
31
0
39
0
210
0
220
0
230
1
0
LINE
5
FD
100
AcDbEntity
8
1
62
256
6
ByLayer
370
13
48
1
60
0
100
AcDbLine
10
2.84198
20
25.330135
30
0
11
13.15802
21
25.330135
31
0
39
0
210
0
220
0
230
1
0
LINE
5
FE
100
AcDbEntity
8
1
62
256
6
ByLayer
370
13
48
1
60
0
100
AcDbLine
10
13.15802
20
25.49406
30
0
11
2.84198
21
25.49406
31
0
39
0
210
0
220
0
230
1
0
LINE
5
FF
100
AcDbEntity
8
1
62
256
6
ByLayer
370
13
48
1
60
0
100
AcDbLine
10
2.81348
20
25.639283
30
0
11
13.18652
21
25.639283
31
0
39
0
210
0
220
0
230
1
0
LINE
5
100
100
AcDbEntity
8
1
62
256
6
ByLayer
370
13
48
1
60
0
100
AcDbLine
10
13.42212
20
26.329159
30
0
11
2.57788
21
26.329159
31
0
39
0
210
0
220
0
230
1
0
LINE
5
101
100
AcDbEntity
8
1
62
256
6
ByLayer
370
13
48
1
60
0
100
AcDbLine
10
2.84198
20
26.40001
30
0
11
13.15802
21
26.40001
31
0
39
0
210
0
220
0
230
1
0
LINE
5
102
100
AcDbEntity
8
1
62
256
6
ByLayer
370
13
48
1
60
0
100
AcDbLine
10
13.15802
20
26.563936
30
0
11
2.84198
21
26.563936
31
0
39
0
210
0
220
0
230
1
0
LINE
5
103
100
AcDbEntity
8
1
62
256
6
ByLayer
370
13
48
1
60
0
100
AcDbLine
10
2.81348
20
26.709158
30
0
11
13.18652
21
26.709158
31
0
39
0
210
0
220
0
230
1
0
LINE
5
104
100
AcDbEntity
8
1
62
256
6
ByLayer
370
13
48
1
60
0
100
AcDbLine
10
13.42212
20
27.399035
30
0
11
2.57788
21
27.399035
31
0
39
0
210
0
220
0
230
1
0
LINE
5
105
100
AcDbEntity
8
1
62
256
6
ByLayer
370
18
48
1
60
0
100
AcDbLine
10
13.5
20
33.442921
30
0
11
13.5
21
27.987143
31
0
39
0
210
0
220
0
230
1
0
LINE
5
106
100
AcDbEntity
8
1
62
256
6
ByLayer
370
18
48
1
60
0
100
AcDbLine
10
2.87998
20
15.815678
30
0
11
2.57788
21
16.700278
31
0
39
0
210
0
220
0
230
1
0
LINE
5
107
100
AcDbEntity
8
1
62
256
6
ByLayer
370
18
48
1
60
0
100
AcDbLine
10
2.81348
20
27.779034
30
0
11
2.725708
21
28.036045
31
0
39
0
210
0
220
0
230
1
0
LINE
5
108
100
AcDbEntity
8
1
62
256
6
ByLayer
370
13
48
1
60
0
100
AcDbLine
10
12.5
20
28.619408
30
0
11
12.5
21
34.233135
31
0
39
0
210
0
220
0
230
1
0
LINE
5
109
100
AcDbEntity
8
1
62
256
6
ByLayer
370
18
48
1
60
0
100
AcDbLine
10
2.57788
20
16.910294
30
0
11
2.81348
21
16.731043
31
0
39
0
210
0
220
0
230
1
0
LINE
5
10A
100
AcDbEntity
8
1
62
256
6
ByLayer
370
13
48
1
60
0
100
AcDbLine
10
2.84198
20
27.469886
30
0
11
13.15802
21
27.469886
31
0
39
0
210
0
220
0
230
1
0
LINE
5
10B
100
AcDbEntity
8
1
62
256
6
ByLayer
370
13
48
1
60
0
100
AcDbLine
10
12.995434
20
28.468911
30
0
11
3.004566
21
28.468911
31
0
39
0
210
0
220
0
230
1
0
LINE
5
10C
100
AcDbEntity
8
1
62
256
6
ByLayer
370
18
48
1
60
0
100
AcDbLine
10
2.84198
20
16.771129
30
0
11
2.84198
21
16.935055
31
0
39
0
210
0
220
0
230
1
0
LINE
5
10D
100
AcDbEntity
8
1
62
256
6
ByLayer
370
18
48
1
60
0
100
AcDbLine
10
2.81348
20
17.080277
30
0
11
2.57788
21
17.770154
31
0
39
0
210
0
220
0
230
1
0
LINE
5
10E
100
AcDbEntity
8
1
62
256
6
ByLayer
370
18
48
1
60
0
100
AcDbLine
10
2.57788
20
17.98017
30
0
11
2.81348
21
17.800919
31
0
39
0
210
0
220
0
230
1
0
LINE
5
10F
100
AcDbEntity
8
1
62
256
6
ByLayer
370
18
48
1
60
0
100
AcDbLine
10
2.84198
20
17.841005
30
0
11
2.84198
21
18.004931
31
0
39
0
210
0
220
0
230
1
0
LINE
5
110
100
AcDbEntity
8
1
62
256
6
ByLayer
370
18
48
1
60
0
100
AcDbLine
10
2.81348
20
18.150153
30
0
11
2.57788
21
18.84003
31
0
39
0
210
0
220
0
230
1
0
LINE
5
111
100
AcDbEntity
8
1
62
256
6
ByLayer
370
18
48
1
60
0
100
AcDbLine
10
2.57788
20
19.050045
30
0
11
2.81348
21
18.870795
31
0
39
0
210
0
220
0
230
1
0
LINE
5
112
100
AcDbEntity
8
1
62
256
6
ByLayer
370
18
48
1
60
0
100
AcDbLine
10
2.84198
20
18.910881
30
0
11
2.84198
21
19.074806
31
0
39
0
210
0
220
0
230
1
0
LINE
5
113
100
AcDbEntity
8
1
62
256
6
ByLayer
370
18
48
1
60
0
100
AcDbLine
10
2.81348
20
19.220029
30
0
11
2.57788
21
19.909905
31
0
39
0
210
0
220
0
230
1
0
LINE
5
114
100
AcDbEntity
8
1
62
256
6
ByLayer
370
18
48
1
60
0
100
AcDbLine
10
2.57788
20
20.119921
30
0
11
2.81348
21
19.94067
31
0
39
0
210
0
220
0
230
1
0
LINE
5
115
100
AcDbEntity
8
1
62
256
6
ByLayer
370
18
48
1
60
0
100
AcDbLine
10
2.84198
20
19.980756
30
0
11
2.84198
21
20.144682
31
0
39
0
210
0
220
0
230
1
0
LINE
5
116
100
AcDbEntity
8
1
62
256
6
ByLayer
370
18
48
1
60
0
100
AcDbLine
10
2.81348
20
20.289904
30
0
11
2.57788
21
20.979781
31
0
39
0
210
0
220
0
230
1
0
LINE
5
117
100
AcDbEntity
8
1
62
256
6
ByLayer
370
18
48
1
60
0
100
AcDbLine
10
2.57788
20
21.189797
30
0
11
2.81348
21
21.010546
31
0
39
0
210
0
220
0
230
1
0
LINE
5
118
100
AcDbEntity
8
1
62
256
6
ByLayer
370
18
48
1
60
0
100
AcDbLine
10
2.84198
20
21.050632
30
0
11
2.84198
21
21.214558
31
0
39
0
210
0
220
0
230
1
0
LINE
5
119
100
AcDbEntity
8
1
62
256
6
ByLayer
370
18
48
1
60
0
100
AcDbLine
10
2.81348
20
21.35978
30
0
11
2.57788
21
22.049657
31
0
39
0
210
0
220
0
230
1
0
LINE
5
11A
100
AcDbEntity
8
1
62
256
6
ByLayer
370
18
48
1
60
0
100
AcDbLine
10
2.57788
20
22.259672
30
0
11
2.81348
21
22.080422
31
0
39
0
210
0
220
0
230
1
0
LINE
5
11B
100
AcDbEntity
8
1
62
256
6
ByLayer
370
18
48
1
60
0
100
AcDbLine
10
2.84198
20
22.120508
30
0
11
2.84198
21
22.284433
31
0
39
0
210
0
220
0
230
1
0
LINE
5
11C
100
AcDbEntity
8
1
62
256
6
ByLayer
370
18
48
1
60
0
100
AcDbLine
10
2.81348
20
22.429656
30
0
11
2.57788
21
23.119532
31
0
39
0
210
0
220
0
230
1
0
LINE
5
11D
100
AcDbEntity
8
1
62
256
6
ByLayer
370
18
48
1
60
0
100
AcDbLine
10
2.57788
20
23.329548
30
0
11
2.81348
21
23.150297
31
0
39
0
210
0
220
0
230
1
0
LINE
5
11E
100
AcDbEntity
8
1
62
256
6
ByLayer
370
18
48
1
60
0
100
AcDbLine
10
2.84198
20
23.190383
30
0
11
2.84198
21
23.354309
31
0
39
0
210
0
220
0
230
1
0
LINE
5
11F
100
AcDbEntity
8
1
62
256
6
ByLayer
370
18
48
1
60
0
100
AcDbLine
10
2.81348
20
23.499531
30
0
11
2.57788
21
24.189408
31
0
39
0
210
0
220
0
230
1
0
LINE
5
120
100
AcDbEntity
8
1
62
256
6
ByLayer
370
18
48
1
60
0
100
AcDbLine
10
2.57788
20
24.399424
30
0
11
2.81348
21
24.220173
31
0
39
0
210
0
220
0
230
1
0
LINE
5
121
100
AcDbEntity
8
1
62
256
6
ByLayer
370
18
48
1
60
0
100
AcDbLine
10
2.84198
20
24.260259
30
0
11
2.84198
21
24.424185
31
0
39
0
210
0
220
0
230
1
0
LINE
5
122
100
AcDbEntity
8
1
62
256
6
ByLayer
370
18
48
1
60
0
100
AcDbLine
10
2.81348
20
24.569407
30
0
11
2.57788
21
25.259284
31
0
39
0
210
0
220
0
230
1
0
LINE
5
123
100
AcDbEntity
8
1
62
256
6
ByLayer
370
18
48
1
60
0
100
AcDbLine
10
2.57788
20
25.469299
30
0
11
2.81348
21
25.290049
31
0
39
0
210
0
220
0
230
1
0
LINE
5
124
100
AcDbEntity
8
1
62
256
6
ByLayer
370
18
48
1
60
0
100
AcDbLine
10
2.84198
20
25.330135
30
0
11
2.84198
21
25.49406
31
0
39
0
210
0
220
0
230
1
0
LINE
5
125
100
AcDbEntity
8
1
62
256
6
ByLayer
370
18
48
1
60
0
100
AcDbLine
10
2.81348
20
25.639283
30
0
11
2.57788
21
26.329159
31
0
39
0
210
0
220
0
230
1
0
LINE
5
126
100
AcDbEntity
8
1
62
256
6
ByLayer
370
18
48
1
60
0
100
AcDbLine
10
2.57788
20
26.539175
30
0
11
2.81348
21
26.359924
31
0
39
0
210
0
220
0
230
1
0
LINE
5
127
100
AcDbEntity
8
1
62
256
6
ByLayer
370
18
48
1
60
0
100
AcDbLine
10
2.84198
20
26.40001
30
0
11
2.84198
21
26.563936
31
0
39
0
210
0
220
0
230
1
0
LINE
5
128
100
AcDbEntity
8
1
62
256
6
ByLayer
370
18
48
1
60
0
100
AcDbLine
10
2.81348
20
26.709158
30
0
11
2.57788
21
27.399035
31
0
39
0
210
0
220
0
230
1
0
LINE
5
129
100
AcDbEntity
8
1
62
256
6
ByLayer
370
18
48
1
60
0
100
AcDbLine
10
2.57788
20
27.609051
30
0
11
2.81348
21
27.4298
31
0
39
0
210
0
220
0
230
1
0
LINE
5
12A
100
AcDbEntity
8
1
62
256
6
ByLayer
370
18
48
1
60
0
100
AcDbLine
10
2.84198
20
27.469886
30
0
11
2.84198
21
27.633812
31
0
39
0
210
0
220
0
230
1
0
LINE
5
12B
100
AcDbEntity
8
1
62
256
6
ByLayer
370
18
48
1
60
0
100
AcDbLine
10
2.5
20
27.987143
30
0
11
2.5
21
16.339892
31
0
39
0
210
0
220
0
230
1
0
LINE
5
12C
100
AcDbEntity
8
1
62
256
6
ByLayer
370
18
48
1
60
0
100
AcDbLine
10
2.88
20
15.638983
30
0
11
2.88
21
15.815453
31
0
39
0
210
0
220
0
230
1
0
LINE
5
12D
100
AcDbEntity
8
1
62
256
6
ByLayer
370
18
48
1
60
0
100
AcDbLine
10
13.5
20
4.469385
30
0
11
13.5
21
4.723951
31
0
39
0
210
0
220
0
230
1
0
LINE
5
12E
100
AcDbEntity
8
1
62
256
6
ByLayer
370
18
48
1
60
0
100
AcDbLine
10
13.12
20
15.638983
30
0
11
13.12
21
15.815453
31
0
39
0
210
0
220
0
230
1
0
LINE
5
12F
100
AcDbEntity
8
1
62
256
6
ByLayer
370
18
48
1
60
0
100
AcDbLine
10
2.5
20
27.987143
30
0
11
2.5
21
33.442921
31
0
39
0
210
0
220
0
230
1
0
LINE
5
130
100
AcDbEntity
8
1
62
256
6
ByLayer
370
18
48
1
60
0
100
AcDbLine
10
13.5
20
27.987143
30
0
11
13.5
21
16.339892
31
0
39
0
210
0
220
0
230
1
0
LINE
5
131
100
AcDbEntity
8
1
62
256
6
ByLayer
370
13
48
1
60
0
100
AcDbLine
10
2.5
20
16.339892
30
0
11
2.88
21
15.638983
31
0
39
0
210
0
220
0
230
1
0
LINE
5
132
100
AcDbEntity
8
1
62
256
6
ByLayer
370
13
48
1
60
0
100
AcDbLine
10
13.15802
20
27.633812
30
0
11
2.84198
21
27.633812
31
0
39
0
210
0
220
0
230
1
0
LINE
5
133
100
AcDbEntity
8
1
62
256
6
ByLayer
370
13
48
1
60
0
100
AcDbLine
10
2.81348
20
27.779034
30
0
11
13.18652
21
27.779034
31
0
39
0
210
0
220
0
230
1
0
LINE
5
134
100
AcDbEntity
8
1
62
256
6
ByLayer
370
18
48
1
60
0
100
AcDbLine
10
13.15802
20
27.633812
30
0
11
13.15802
21
27.469886
31
0
39
0
210
0
220
0
230
1
0
LINE
5
135
100
AcDbEntity
8
1
62
256
6
ByLayer
370
13
48
1
60
0
100
AcDbLine
10
13.12
20
15.638983
30
0
11
13.5
21
16.339892
31
0
39
0
210
0
220
0
230
1
0
LINE
5
136
100
AcDbEntity
8
1
62
256
6
ByLayer
370
18
48
1
60
0
100
AcDbLine
10
13.18652
20
27.4298
30
0
11
13.42212
21
27.609051
31
0
39
0
210
0
220
0
230
1
0
LINE
5
137
100
AcDbEntity
8
1
62
256
6
ByLayer
370
18
48
1
60
0
100
AcDbLine
10
13.42212
20
27.399035
30
0
11
13.18652
21
26.709158
31
0
39
0
210
0
220
0
230
1
0
LINE
5
138
100
AcDbEntity
8
1
62
256
6
ByLayer
370
18
48
1
60
0
100
AcDbLine
10
13.15802
20
26.563936
30
0
11
13.15802
21
26.40001
31
0
39
0
210
0
220
0
230
1
0
LINE
5
139
100
AcDbEntity
8
1
62
256
6
ByLayer
370
18
48
1
60
0
100
AcDbLine
10
13.18652
20
26.359924
30
0
11
13.42212
21
26.539175
31
0
39
0
210
0
220
0
230
1
0
LINE
5
13A
100
AcDbEntity
8
1
62
256
6
ByLayer
370
18
48
1
60
0
100
AcDbLine
10
13.42212
20
26.329159
30
0
11
13.18652
21
25.639283
31
0
39
0
210
0
220
0
230
1
0
LINE
5
13B
100
AcDbEntity
8
1
62
256
6
ByLayer
370
18
48
1
60
0
100
AcDbLine
10
13.15802
20
25.49406
30
0
11
13.15802
21
25.330135
31
0
39
0
210
0
220
0
230
1
0
LINE
5
13C
100
AcDbEntity
8
1
62
256
6
ByLayer
370
18
48
1
60
0
100
AcDbLine
10
13.18652
20
25.290049
30
0
11
13.42212
21
25.469299
31
0
39
0
210
0
220
0
230
1
0
LINE
5
13D
100
AcDbEntity
8
1
62
256
6
ByLayer
370
18
48
1
60
0
100
AcDbLine
10
13.42212
20
25.259284
30
0
11
13.18652
21
24.569407
31
0
39
0
210
0
220
0
230
1
0
LINE
5
13E
100
AcDbEntity
8
1
62
256
6
ByLayer
370
18
48
1
60
0
100
AcDbLine
10
13.15802
20
24.424185
30
0
11
13.15802
21
24.260259
31
0
39
0
210
0
220
0
230
1
0
LINE
5
13F
100
AcDbEntity
8
1
62
256
6
ByLayer
370
18
48
1
60
0
100
AcDbLine
10
13.18652
20
24.220173
30
0
11
13.42212
21
24.399424
31
0
39
0
210
0
220
0
230
1
0
LINE
5
140
100
AcDbEntity
8
1
62
256
6
ByLayer
370
18
48
1
60
0
100
AcDbLine
10
13.42212
20
24.189408
30
0
11
13.18652
21
23.499531
31
0
39
0
210
0
220
0
230
1
0
LINE
5
141
100
AcDbEntity
8
1
62
256
6
ByLayer
370
18
48
1
60
0
100
AcDbLine
10
13.15802
20
23.354309
30
0
11
13.15802
21
23.190383
31
0
39
0
210
0
220
0
230
1
0
LINE
5
142
100
AcDbEntity
8
1
62
256
6
ByLayer
370
18
48
1
60
0
100
AcDbLine
10
13.18652
20
23.150297
30
0
11
13.42212
21
23.329548
31
0
39
0
210
0
220
0
230
1
0
LINE
5
143
100
AcDbEntity
8
1
62
256
6
ByLayer
370
18
48
1
60
0
100
AcDbLine
10
13.42212
20
23.119532
30
0
11
13.18652
21
22.429656
31
0
39
0
210
0
220
0
230
1
0
LINE
5
144
100
AcDbEntity
8
1
62
256
6
ByLayer
370
18
48
1
60
0
100
AcDbLine
10
13.15802
20
22.284433
30
0
11
13.15802
21
22.120508
31
0
39
0
210
0
220
0
230
1
0
LINE
5
145
100
AcDbEntity
8
1
62
256
6
ByLayer
370
18
48
1
60
0
100
AcDbLine
10
13.18652
20
22.080422
30
0
11
13.42212
21
22.259672
31
0
39
0
210
0
220
0
230
1
0
LINE
5
146
100
AcDbEntity
8
1
62
256
6
ByLayer
370
18
48
1
60
0
100
AcDbLine
10
13.42212
20
22.049657
30
0
11
13.18652
21
21.35978
31
0
39
0
210
0
220
0
230
1
0
LINE
5
147
100
AcDbEntity
8
1
62
256
6
ByLayer
370
18
48
1
60
0
100
AcDbLine
10
13.15802
20
21.214558
30
0
11
13.15802
21
21.050632
31
0
39
0
210
0
220
0
230
1
0
LINE
5
148
100
AcDbEntity
8
1
62
256
6
ByLayer
370
18
48
1
60
0
100
AcDbLine
10
13.18652
20
21.010546
30
0
11
13.42212
21
21.189797
31
0
39
0
210
0
220
0
230
1
0
LINE
5
149
100
AcDbEntity
8
1
62
256
6
ByLayer
370
18
48
1
60
0
100
AcDbLine
10
13.42212
20
20.979781
30
0
11
13.18652
21
20.289904
31
0
39
0
210
0
220
0
230
1
0
LINE
5
14A
100
AcDbEntity
8
1
62
256
6
ByLayer
370
18
48
1
60
0
100
AcDbLine
10
13.15802
20
20.144682
30
0
11
13.15802
21
19.980756
31
0
39
0
210
0
220
0
230
1
0
LINE
5
14B
100
AcDbEntity
8
1
62
256
6
ByLayer
370
18
48
1
60
0
100
AcDbLine
10
13.18652
20
19.94067
30
0
11
13.42212
21
20.119921
31
0
39
0
210
0
220
0
230
1
0
LINE
5
14C
100
AcDbEntity
8
1
62
256
6
ByLayer
370
18
48
1
60
0
100
AcDbLine
10
13.42212
20
19.909905
30
0
11
13.18652
21
19.220029
31
0
39
0
210
0
220
0
230
1
0
LINE
5
14D
100
AcDbEntity
8
1
62
256
6
ByLayer
370
18
48
1
60
0
100
AcDbLine
10
13.15802
20
19.074806
30
0
11
13.15802
21
18.910881
31
0
39
0
210
0
220
0
230
1
0
LINE
5
14E
100
AcDbEntity
8
1
62
256
6
ByLayer
370
18
48
1
60
0
100
AcDbLine
10
13.18652
20
18.870795
30
0
11
13.42212
21
19.050045
31
0
39
0
210
0
220
0
230
1
0
LINE
5
14F
100
AcDbEntity
8
1
62
256
6
ByLayer
370
18
48
1
60
0
100
AcDbLine
10
13.42212
20
18.84003
30
0
11
13.18652
21
18.150153
31
0
39
0
210
0
220
0
230
1
0
LINE
5
150
100
AcDbEntity
8
1
62
256
6
ByLayer
370
18
48
1
60
0
100
AcDbLine
10
13.15802
20
18.004931
30
0
11
13.15802
21
17.841005
31
0
39
0
210
0
220
0
230
1
0
LINE
5
151
100
AcDbEntity
8
1
62
256
6
ByLayer
370
18
48
1
60
0
100
AcDbLine
10
13.18652
20
17.800919
30
0
11
13.42212
21
17.98017
31
0
39
0
210
0
220
0
230
1
0
LINE
5
152
100
AcDbEntity
8
1
62
256
6
ByLayer
370
18
48
1
60
0
100
AcDbLine
10
13.42212
20
17.770154
30
0
11
13.18652
21
17.080277
31
0
39
0
210
0
220
0
230
1
0
LINE
5
153
100
AcDbEntity
8
1
62
256
6
ByLayer
370
18
48
1
60
0
100
AcDbLine
10
13.15802
20
16.935055
30
0
11
13.15802
21
16.771129
31
0
39
0
210
0
220
0
230
1
0
LINE
5
154
100
AcDbEntity
8
1
62
256
6
ByLayer
370
18
48
1
60
0
100
AcDbLine
10
13.18652
20
16.731043
30
0
11
13.42212
21
16.910294
31
0
39
0
210
0
220
0
230
1
0
LINE
5
155
100
AcDbEntity
8
1
62
256
6
ByLayer
370
18
48
1
60
0
100
AcDbLine
10
13.42212
20
16.700278
30
0
11
13.12002
21
15.815678
31
0
39
0
210
0
220
0
230
1
0
LINE
5
156
100
AcDbEntity
8
1
62
256
6
ByLayer
370
18
48
1
60
0
100
AcDbLine
10
13.274292
20
28.036045
30
0
11
13.18652
21
27.779034
31
0
39
0
210
0
220
0
230
1
0
LINE
5
157
100
AcDbEntity
8
1
62
256
6
ByLayer
370
18
48
1
60
0
100
AcDbLine
10
2.5
20
4.723951
30
0
11
2.5
21
4.469385
31
0
39
0
210
0
220
0
230
1
0
LINE
5
158
100
AcDbEntity
8
1
62
256
6
ByLayer
370
18
48
1
60
0
100
AcDbLine
10
2.5
20
4.723951
30
0
11
13.5
21
4.723951
31
0
39
0
210
0
220
0
230
1
0
LINE
5
159
100
AcDbEntity
8
1
62
256
6
ByLayer
370
13
48
1
60
0
100
AcDbLine
10
3.5
20
34.233135
30
0
11
3.5
21
28.619408
31
0
39
0
210
0
220
0
230
1
0
LINE
5
15A
100
AcDbEntity
8
1
62
256
6
ByLayer
370
18
48
1
60
0
100
AcDbLine
10
8.9
20
4.469385
30
0
11
11.7
21
4.469385
31
0
39
0
210
0
220
0
230
1
0
LINE
5
15B
100
AcDbEntity
8
1
62
256
6
ByLayer
370
18
48
1
60
0
100
AcDbLine
10
7.7
20
6.224203
30
0
11
7.7
21
5.455696
31
0
39
0
210
0
220
0
230
1
0
LINE
5
15C
100
AcDbEntity
8
1
62
256
6
ByLayer
370
18
48
1
60
0
100
AcDbLine
10
2.57788
20
34.258953
30
0
11
2.81348
21
34.769579
31
0
39
0
210
0
220
0
230
1
0
LINE
5
15D
100
AcDbEntity
8
1
62
256
6
ByLayer
370
18
48
1
60
0
100
AcDbLine
10
13.274292
20
-8.717587
30
0
11
13.18652
21
-8.90782
31
0
39
0
210
0
220
0
230
1
0
LINE
5
15E
100
AcDbEntity
8
1
62
256
6
ByLayer
370
18
48
1
60
0
100
AcDbLine
10
2.81348
20
-8.90782
30
0
11
2.725708
21
-8.717587
31
0
39
0
210
0
220
0
230
1
0
LINE
5
15F
100
AcDbEntity
8
1
62
256
6
ByLayer
370
13
48
1
60
0
100
AcDbLine
10
8.9
20
4.469385
30
0
11
8.9
21
2.475537
31
0
39
0
210
0
220
0
230
1
0
LINE
5
160
100
AcDbEntity
8
1
62
256
6
ByLayer
370
13
48
1
60
0
100
AcDbLine
10
11.7
20
2.475537
30
0
11
11.7
21
4.469385
31
0
39
0
210
0
220
0
230
1
0
LINE
5
161
100
AcDbEntity
8
1
62
256
6
ByLayer
370
18
48
1
60
0
100
AcDbLine
10
12.5
20
-8.348075
30
0
11
3.5
21
-8.348075
31
0
39
0
210
0
220
0
230
1
0
LINE
5
162
100
AcDbEntity
8
1
62
256
6
ByLayer
370
18
48
1
60
0
100
AcDbLine
10
13.5
20
1.508236
30
0
11
13.5
21
-7.979226
31
0
39
0
210
0
220
0
230
1
0
LINE
5
163
100
AcDbEntity
8
1
62
256
6
ByLayer
370
18
48
1
60
0
100
AcDbLine
10
2.5
20
-7.979226
30
0
11
2.5
21
1.508236
31
0
39
0
210
0
220
0
230
1
0
LINE
5
164
100
AcDbEntity
8
1
62
256
6
ByLayer
370
13
48
1
60
0
100
AcDbLine
10
2.81348
20
-8.90782
30
0
11
13.18652
21
-8.90782
31
0
39
0
210
0
220
0
230
1
0
LINE
5
165
100
AcDbEntity
8
1
62
256
6
ByLayer
370
13
48
1
60
0
100
AcDbLine
10
12.995434
20
-8.397193
30
0
11
3.004566
21
-8.397193
31
0
39
0
210
0
220
0
230
1
0
LINE
5
166
100
AcDbEntity
8
1
62
256
6
ByLayer
370
18
48
1
60
0
100
AcDbLine
10
11.7
20
4.469385
30
0
11
13.5
21
4.469385
31
0
39
0
210
0
220
0
230
1
0
LINE
5
167
100
AcDbEntity
8
1
62
256
6
ByLayer
370
13
48
1
60
0
100
AcDbLine
10
12.5
20
-8.348075
30
0
11
12.5
21
1.344847
31
0
39
0
210
0
220
0
230
1
0
LINE
5
168
100
AcDbEntity
8
1
62
256
6
ByLayer
370
18
48
1
60
0
100
AcDbLine
10
11.8
20
2.687704
30
0
11
11.8
21
4.385426
31
0
39
0
210
0
220
0
230
1
0
LINE
5
169
100
AcDbEntity
8
1
62
256
6
ByLayer
370
18
48
1
60
0
100
AcDbLine
10
8.8
20
4.385426
30
0
11
8.8
21
2.687704
31
0
39
0
210
0
220
0
230
1
0
LINE
5
16A
100
AcDbEntity
8
1
62
256
6
ByLayer
370
13
48
1
60
0
100
AcDbLine
10
3.5
20
1.344847
30
0
11
3.5
21
-8.348075
31
0
39
0
210
0
220
0
230
1
0
LINE
5
16B
100
AcDbEntity
8
1
62
256
6
ByLayer
370
18
48
1
60
0
100
AcDbLine
10
2.5
20
4.469385
30
0
11
8.9
21
4.469385
31
0
39
0
210
0
220
0
230
1
0
LINE
5
16C
100
AcDbEntity
8
1
62
256
6
ByLayer
370
18
48
1
60
0
100
AcDbLine
10
2.5
20
4.469385
30
0
11
2.5
21
1.508236
31
0
39
0
210
0
220
0
230
1
0
LINE
5
16D
100
AcDbEntity
8
1
62
256
6
ByLayer
370
18
48
1
60
0
100
AcDbLine
10
3.5
20
1.344847
30
0
11
12.5
21
1.344847
31
0
39
0
210
0
220
0
230
1
0
LINE
5
16E
100
AcDbEntity
8
1
62
256
6
ByLayer
370
18
48
1
60
0
100
AcDbLine
10
13.5
20
1.508236
30
0
11
13.5
21
4.469385
31
0
39
0
210
0
220
0
230
1
0
LINE
5
16F
100
AcDbEntity
8
1
62
256
6
ByLayer
370
18
48
1
60
0
100
AcDbLine
10
12.5
20
36.967483
30
0
11
3.5
21
36.967483
31
0
39
0
210
0
220
0
230
1
0
LINE
5
170
100
AcDbEntity
8
80
62
256
6
ByLayer
370
18
48
1
60
0
100
AcDbLine
10
0
20
0
30
0
11
-5
21
0
31
0
39
0
210
0
220
0
230
1
0
LINE
5
171
100
AcDbEntity
8
4
62
256
6
ByLayer
370
18
48
0.05
60
0
100
AcDbLine
10
0
20
0
30
0
11
17
21
0
31
0
39
0
210
0
220
0
230
1
0
LINE
5
173
100
AcDbEntity
8
SK4
62
256
6
ByLayer
370
18
48
0.05
60
0
100
AcDbLine
10
-3
20
0
30
0
11
17
21
0
31
0
39
0
210
0
220
0
230
1
0
LINE
5
175
100
AcDbEntity
8
1
62
256
6
ByLayer
370
18
48
1
60
0
100
AcDbLine
10
2.824932
20
16.726266
30
0
11
13.175068
21
16.726266
31
0
39
0
210
0
220
0
230
1
0
LINE
5
176
100
AcDbEntity
8
1
62
256
6
ByLayer
370
18
48
1
60
0
100
AcDbLine
10
2.824932
20
17.796141
30
0
11
13.175068
21
17.796141
31
0
39
0
210
0
220
0
230
1
0
LINE
5
177
100
AcDbEntity
8
1
62
256
6
ByLayer
370
18
48
1
60
0
100
AcDbLine
10
2.824932
20
18.866017
30
0
11
13.175068
21
18.866017
31
0
39
0
210
0
220
0
230
1
0
LINE
5
178
100
AcDbEntity
8
1
62
256
6
ByLayer
370
18
48
1
60
0
100
AcDbLine
10
2.824932
20
19.935893
30
0
11
13.175068
21
19.935893
31
0
39
0
210
0
220
0
230
1
0
LINE
5
179
100
AcDbEntity
8
1
62
256
6
ByLayer
370
18
48
1
60
0
100
AcDbLine
10
0.4
20
-19.5
30
0
11
0.5
21
-19.5
31
0
39
0
210
0
220
0
230
1
0
LINE
5
17A
100
AcDbEntity
8
1
62
256
6
ByLayer
370
18
48
1
60
0
100
AcDbLine
10
0.5
20
19.5
30
0
11
0.4
21
19.5
31
0
39
0
210
0
220
0
230
1
0
LINE
5
17B
100
AcDbEntity
8
1
62
256
6
ByLayer
370
18
48
1
60
0
100
AcDbLine
10
0
20
-19.1
30
0
11
0.4
21
-19.5
31
0
39
0
210
0
220
0
230
1
0
LINE
5
17C
100
AcDbEntity
8
1
62
256
6
ByLayer
370
18
48
1
60
0
100
AcDbLine
10
0.4
20
19.5
30
0
11
0
21
19.1
31
0
39
0
210
0
220
0
230
1
0
LINE
5
17D
100
AcDbEntity
8
1
62
256
6
ByLayer
370
18
48
1
60
0
100
AcDbLine
10
16
20
19.1
30
0
11
15.6
21
19.5
31
0
39
0
210
0
220
0
230
1
0
LINE
5
17E
100
AcDbEntity
8
1
62
256
6
ByLayer
370
18
48
1
60
0
100
AcDbLine
10
15.6
20
-19.5
30
0
11
16
21
-19.1
31
0
39
0
210
0
220
0
230
1
0
LINE
5
17F
100
AcDbEntity
8
1
62
256
6
ByLayer
370
18
48
1
60
0
100
AcDbLine
10
15.5
20
-19.5
30
0
11
15.6
21
-19.5
31
0
39
0
210
0
220
0
230
1
0
LINE
5
180
100
AcDbEntity
8
1
62
256
6
ByLayer
370
18
48
1
60
0
100
AcDbLine
10
15.6
20
19.5
30
0
11
15.5
21
19.5
31
0
39
0
210
0
220
0
230
1
0
LINE
5
181
100
AcDbEntity
8
1
62
256
6
ByLayer
370
18
48
1
60
0
100
AcDbLine
10
2.824932
20
21.005768
30
0
11
13.175068
21
21.005768
31
0
39
0
210
0
220
0
230
1
0
LINE
5
182
100
AcDbEntity
8
1
62
256
6
ByLayer
370
18
48
1
60
0
100
AcDbLine
10
2.824932
20
22.075644
30
0
11
13.175068
21
22.075644
31
0
39
0
210
0
220
0
230
1
0
LINE
5
183
100
AcDbEntity
8
1
62
256
6
ByLayer
370
18
48
1
60
0
100
AcDbLine
10
0.5
20
-19.5
30
0
11
1.246045
21
-20.246045
31
0
39
0
210
0
220
0
230
1
0
LINE
5
184
100
AcDbEntity
8
1
62
256
6
ByLayer
370
18
48
1
60
0
100
AcDbLine
10
1.246045
20
20.246045
30
0
11
0.5
21
19.5
31
0
39
0
210
0
220
0
230
1
0
LINE
5
185
100
AcDbEntity
8
1
62
256
6
ByLayer
370
18
48
1
60
0
100
AcDbLine
10
15.5
20
19.5
30
0
11
14.746455
21
20.253545
31
0
39
0
210
0
220
0
230
1
0
LINE
5
186
100
AcDbEntity
8
1
62
256
6
ByLayer
370
18
48
1
60
0
100
AcDbLine
10
14.746455
20
-20.253545
30
0
11
15.5
21
-19.5
31
0
39
0
210
0
220
0
230
1
0
LINE
5
187
100
AcDbEntity
8
1
62
256
6
ByLayer
370
18
48
1
60
0
100
AcDbLine
10
2.824932
20
23.14552
30
0
11
13.175068
21
23.14552
31
0
39
0
210
0
220
0
230
1
0
LINE
5
188
100
AcDbEntity
8
1
62
256
6
ByLayer
370
18
48
1
60
0
100
AcDbLine
10
2.824932
20
24.215395
30
0
11
13.175068
21
24.215395
31
0
39
0
210
0
220
0
230
1
0
LINE
5
189
100
AcDbEntity
8
1
62
256
6
ByLayer
370
18
48
1
60
0
100
AcDbLine
10
2.824932
20
25.285271
30
0
11
13.175068
21
25.285271
31
0
39
0
210
0
220
0
230
1
0
LINE
5
18A
100
AcDbEntity
8
1
62
256
6
ByLayer
370
18
48
1
60
0
100
AcDbLine
10
2.824932
20
26.355147
30
0
11
13.175068
21
26.355147
31
0
39
0
210
0
220
0
230
1
0
LINE
5
18B
100
AcDbEntity
8
1
62
256
6
ByLayer
370
18
48
1
60
0
100
AcDbLine
10
2.824932
20
27.425022
30
0
11
13.175068
21
27.425022
31
0
39
0
210
0
220
0
230
1
0
LINE
5
18C
100
AcDbEntity
8
1
62
256
6
ByLayer
370
18
48
1
60
0
100
AcDbLine
10
2.840165
20
-8.952683
30
0
11
13.159835
21
-8.952683
31
0
39
0
210
0
220
0
230
1
0
LINE
5
18D
100
AcDbEntity
8
81
62
256
6
ByLayer
370
18
48
1
60
0
100
AcDbLine
10
14
20
40
30
0
11
19
21
40
31
0
39
0
210
0
220
0
230
1
0
LINE
5
18E
100
AcDbEntity
8
SK2
62
256
6
ByLayer
370
13
48
1
60
0
100
AcDbLine
10
14.565685
20
-40.565685
30
0
11
20.576093
21
-46.576093
31
0
39
0
210
0
220
0
230
1
0
LINE
5
190
100
AcDbEntity
8
1
62
256
6
ByLayer
370
18
48
1
60
1
100
AcDbLine
10
14.565685
20
-40.565685
30
0
11
17.366381
21
-42.714735
31
0
39
0
210
0
220
0
230
1
0
LINE
5
191
100
AcDbEntity
8
1
62
256
6
ByLayer
370
18
48
1
60
1
100
AcDbLine
10
17.366381
20
-42.714735
30
0
11
16.714737
21
-43.366384
31
0
39
0
210
0
220
0
230
1
0
LINE
5
192
100
AcDbEntity
8
1
62
256
6
ByLayer
370
18
48
1
60
1
100
AcDbLine
10
16.714737
20
-43.366384
30
0
11
14.565685
21
-40.565685
31
0
39
0
210
0
220
0
230
1
0
LINE
5
193
100
AcDbEntity
8
2
62
256
6
ByLayer
370
13
48
1
60
0
100
AcDbLine
10
47.35
20
40
30
0
11
47.35
21
-40
31
0
39
0
210
0
220
0
230
1
0
LINE
5
195
100
AcDbEntity
8
2
62
256
6
ByLayer
370
13
48
1
60
0
100
AcDbLine
10
15.5875
20
-40
30
0
11
49.35
21
-40
31
0
39
0
210
0
220
0
230
1
0
LINE
5
196
100
AcDbEntity
8
2
62
256
6
ByLayer
370
13
48
1
60
0
100
AcDbLine
10
15.5875
20
40
30
0
11
49.35
21
40
31
0
39
0
210
0
220
0
230
1
0
LINE
5
197
100
AcDbEntity
8
1
62
256
6
ByLayer
370
18
48
1
60
1
100
AcDbLine
10
47.35
20
-40
30
0
11
46.889216
21
-36.500002
31
0
39
0
210
0
220
0
230
1
0
LINE
5
198
100
AcDbEntity
8
1
62
256
6
ByLayer
370
18
48
1
60
1
100
AcDbLine
10
46.889216
20
-36.500002
30
0
11
47.810784
21
-36.499998
31
0
39
0
210
0
220
0
230
1
0
LINE
5
199
100
AcDbEntity
8
1
62
256
6
ByLayer
370
18
48
1
60
1
100
AcDbLine
10
47.810784
20
-36.499998
30
0
11
47.35
21
-40
31
0
39
0
210
0
220
0
230
1
0
LINE
5
19A
100
AcDbEntity
8
1
62
256
6
ByLayer
370
18
48
1
60
1
100
AcDbLine
10
47.35
20
40
30
0
11
47.810784
21
36.500002
31
0
39
0
210
0
220
0
230
1
0
LINE
5
19B
100
AcDbEntity
8
1
62
256
6
ByLayer
370
18
48
1
60
1
100
AcDbLine
10
47.810784
20
36.500002
30
0
11
46.889216
21
36.499998
31
0
39
0
210
0
220
0
230
1
0
LINE
5
19C
100
AcDbEntity
8
1
62
256
6
ByLayer
370
18
48
1
60
1
100
AcDbLine
10
46.889216
20
36.499998
30
0
11
47.35
21
40
31
0
39
0
210
0
220
0
230
1
0
LINE
5
19D
100
AcDbEntity
8
SK2
62
256
6
ByLayer
370
13
48
1
60
0
100
AcDbLine
10
-14.35
20
13.5
30
0
11
-14.35
21
-13.5
31
0
39
0
210
0
220
0
230
1
0
LINE
5
19E
100
AcDbEntity
8
SK2
62
256
6
ByLayer
370
13
48
1
60
0
100
AcDbLine
10
-1.5875
20
-13.5
30
0
11
-16.35
21
-13.5
31
0
39
0
210
0
220
0
230
1
0
LINE
5
19F
100
AcDbEntity
8
SK2
62
256
6
ByLayer
370
13
48
1
60
0
100
AcDbLine
10
-1.5875
20
13.5
30
0
11
-16.35
21
13.5
31
0
39
0
210
0
220
0
230
1
0
LINE
5
1A0
100
AcDbEntity
8
1
62
256
6
ByLayer
370
18
48
1
60
1
100
AcDbLine
10
-14.35
20
-13.5
30
0
11
-14.810784
21
-10.000002
31
0
39
0
210
0
220
0
230
1
0
LINE
5
1A1
100
AcDbEntity
8
1
62
256
6
ByLayer
370
18
48
1
60
1
100
AcDbLine
10
-14.810784
20
-10.000002
30
0
11
-13.889216
21
-9.999998
31
0
39
0
210
0
220
0
230
1
0
LINE
5
1A2
100
AcDbEntity
8
1
62
256
6
ByLayer
370
18
48
1
60
1
100
AcDbLine
10
-13.889216
20
-9.999998
30
0
11
-14.35
21
-13.5
31
0
39
0
210
0
220
0
230
1
0
LINE
5
1A3
100
AcDbEntity
8
1
62
256
6
ByLayer
370
18
48
1
60
1
100
AcDbLine
10
-14.35
20
13.5
30
0
11
-13.889216
21
10.000002
31
0
39
0
210
0
220
0
230
1
0
LINE
5
1A4
100
AcDbEntity
8
1
62
256
6
ByLayer
370
18
48
1
60
1
100
AcDbLine
10
-13.889216
20
10.000002
30
0
11
-14.810784
21
9.999998
31
0
39
0
210
0
220
0
230
1
0
LINE
5
1A5
100
AcDbEntity
8
1
62
256
6
ByLayer
370
18
48
1
60
1
100
AcDbLine
10
-14.810784
20
9.999998
30
0
11
-14.35
21
13.5
31
0
39
0
210
0
220
0
230
1
0
LINE
5
1A6
100
AcDbEntity
8
SK2
62
256
6
ByLayer
370
13
48
1
60
0
100
AcDbLine
10
-29.35
20
19.5
30
0
11
-29.35
21
-19.5
31
0
39
0
210
0
220
0
230
1
0
LINE
5
1A7
100
AcDbEntity
8
SK2
62
256
6
ByLayer
370
13
48
1
60
0
100
AcDbLine
10
-1.5875
20
-19.5
30
0
11
-31.35
21
-19.5
31
0
39
0
210
0
220
0
230
1
0
LINE
5
1A8
100
AcDbEntity
8
SK2
62
256
6
ByLayer
370
13
48
1
60
0
100
AcDbLine
10
-1.5875
20
19.5
30
0
11
-31.35
21
19.5
31
0
39
0
210
0
220
0
230
1
0
LINE
5
1A9
100
AcDbEntity
8
1
62
256
6
ByLayer
370
18
48
1
60
1
100
AcDbLine
10
-29.35
20
-19.5
30
0
11
-29.810784
21
-16.000002
31
0
39
0
210
0
220
0
230
1
0
LINE
5
1AA
100
AcDbEntity
8
1
62
256
6
ByLayer
370
18
48
1
60
1
100
AcDbLine
10
-29.810784
20
-16.000002
30
0
11
-28.889216
21
-15.999998
31
0
39
0
210
0
220
0
230
1
0
LINE
5
1AB
100
AcDbEntity
8
1
62
256
6
ByLayer
370
18
48
1
60
1
100
AcDbLine
10
-28.889216
20
-15.999998
30
0
11
-29.35
21
-19.5
31
0
39
0
210
0
220
0
230
1
0
LINE
5
1AC
100
AcDbEntity
8
1
62
256
6
ByLayer
370
18
48
1
60
1
100
AcDbLine
10
-29.35
20
19.5
30
0
11
-28.889216
21
16.000002
31
0
39
0
210
0
220
0
230
1
0
LINE
5
1AD
100
AcDbEntity
8
1
62
256
6
ByLayer
370
18
48
1
60
1
100
AcDbLine
10
-28.889216
20
16.000002
30
0
11
-29.810784
21
15.999998
31
0
39
0
210
0
220
0
230
1
0
LINE
5
1AE
100
AcDbEntity
8
1
62
256
6
ByLayer
370
18
48
1
60
1
100
AcDbLine
10
-29.810784
20
15.999998
30
0
11
-29.35
21
19.5
31
0
39
0
210
0
220
0
230
1
0
LINE
5
27E
100
AcDbEntity
8
1
62
256
6
ByLayer
370
18
48
1
60
1
100
AcDbLine
10
14.565685
20
-40.565685
30
0
11
17.366381
21
-42.714735
31
0
39
0
210
0
220
0
230
1
0
LINE
5
27F
100
AcDbEntity
8
1
62
256
6
ByLayer
370
18
48
1
60
1
100
AcDbLine
10
17.366381
20
-42.714735
30
0
11
16.714737
21
-43.366384
31
0
39
0
210
0
220
0
230
1
0
LINE
5
280
100
AcDbEntity
8
1
62
256
6
ByLayer
370
18
48
1
60
1
100
AcDbLine
10
16.714737
20
-43.366384
30
0
11
14.565685
21
-40.565685
31
0
39
0
210
0
220
0
230
1
0
LINE
5
284
100
AcDbEntity
8
1
62
256
6
ByLayer
370
18
48
1
60
1
100
AcDbLine
10
47.35
20
-40
30
0
11
46.889216
21
-36.500002
31
0
39
0
210
0
220
0
230
1
0
LINE
5
285
100
AcDbEntity
8
1
62
256
6
ByLayer
370
18
48
1
60
1
100
AcDbLine
10
46.889216
20
-36.500002
30
0
11
47.810784
21
-36.499998
31
0
39
0
210
0
220
0
230
1
0
LINE
5
286
100
AcDbEntity
8
1
62
256
6
ByLayer
370
18
48
1
60
1
100
AcDbLine
10
47.810784
20
-36.499998
30
0
11
47.35
21
-40
31
0
39
0
210
0
220
0
230
1
0
LINE
5
288
100
AcDbEntity
8
1
62
256
6
ByLayer
370
18
48
1
60
1
100
AcDbLine
10
47.35
20
40
30
0
11
47.810784
21
36.500002
31
0
39
0
210
0
220
0
230
1
0
LINE
5
289
100
AcDbEntity
8
1
62
256
6
ByLayer
370
18
48
1
60
1
100
AcDbLine
10
47.810784
20
36.500002
30
0
11
46.889216
21
36.499998
31
0
39
0
210
0
220
0
230
1
0
LINE
5
28A
100
AcDbEntity
8
1
62
256
6
ByLayer
370
18
48
1
60
1
100
AcDbLine
10
46.889216
20
36.499998
30
0
11
47.35
21
40
31
0
39
0
210
0
220
0
230
1
0
LINE
5
28E
100
AcDbEntity
8
1
62
256
6
ByLayer
370
18
48
1
60
1
100
AcDbLine
10
-14.35
20
-13.5
30
0
11
-14.810784
21
-10.000002
31
0
39
0
210
0
220
0
230
1
0
LINE
5
28F
100
AcDbEntity
8
1
62
256
6
ByLayer
370
18
48
1
60
1
100
AcDbLine
10
-14.810784
20
-10.000002
30
0
11
-13.889216
21
-9.999998
31
0
39
0
210
0
220
0
230
1
0
LINE
5
290
100
AcDbEntity
8
1
62
256
6
ByLayer
370
18
48
1
60
1
100
AcDbLine
10
-13.889216
20
-9.999998
30
0
11
-14.35
21
-13.5
31
0
39
0
210
0
220
0
230
1
0
LINE
5
292
100
AcDbEntity
8
1
62
256
6
ByLayer
370
18
48
1
60
1
100
AcDbLine
10
-14.35
20
13.5
30
0
11
-13.889216
21
10.000002
31
0
39
0
210
0
220
0
230
1
0
LINE
5
293
100
AcDbEntity
8
1
62
256
6
ByLayer
370
18
48
1
60
1
100
AcDbLine
10
-13.889216
20
10.000002
30
0
11
-14.810784
21
9.999998
31
0
39
0
210
0
220
0
230
1
0
LINE
5
294
100
AcDbEntity
8
1
62
256
6
ByLayer
370
18
48
1
60
1
100
AcDbLine
10
-14.810784
20
9.999998
30
0
11
-14.35
21
13.5
31
0
39
0
210
0
220
0
230
1
0
LINE
5
298
100
AcDbEntity
8
1
62
256
6
ByLayer
370
18
48
1
60
1
100
AcDbLine
10
-29.35
20
-19.5
30
0
11
-29.810784
21
-16.000002
31
0
39
0
210
0
220
0
230
1
0
LINE
5
299
100
AcDbEntity
8
1
62
256
6
ByLayer
370
18
48
1
60
1
100
AcDbLine
10
-29.810784
20
-16.000002
30
0
11
-28.889216
21
-15.999998
31
0
39
0
210
0
220
0
230
1
0
LINE
5
29A
100
AcDbEntity
8
1
62
256
6
ByLayer
370
18
48
1
60
1
100
AcDbLine
10
-28.889216
20
-15.999998
30
0
11
-29.35
21
-19.5
31
0
39
0
210
0
220
0
230
1
0
LINE
5
29C
100
AcDbEntity
8
1
62
256
6
ByLayer
370
18
48
1
60
1
100
AcDbLine
10
-29.35
20
19.5
30
0
11
-28.889216
21
16.000002
31
0
39
0
210
0
220
0
230
1
0
LINE
5
29D
100
AcDbEntity
8
1
62
256
6
ByLayer
370
18
48
1
60
1
100
AcDbLine
10
-28.889216
20
16.000002
30
0
11
-29.810784
21
15.999998
31
0
39
0
210
0
220
0
230
1
0
LINE
5
29E
100
AcDbEntity
8
1
62
256
6
ByLayer
370
18
48
1
60
1
100
AcDbLine
10
-29.810784
20
15.999998
30
0
11
-29.35
21
19.5
31
0
39
0
210
0
220
0
230
1
0
MTEXT
5
27A
100
AcDbEntity
8
SK2
62
256
6
ByLayer
370
13
48
1
60
0
100
AcDbMText
10
19.966192
20
-49.335314
30
0
210
0
220
0
230
1
1
\W0.6380;R
40
3.5
41
0
44
1.084337
50
315
71
7
72
5
7
iso_b_vert
0
MTEXT
5
27D
100
AcDbEntity
8
SK2
62
256
6
ByLayer
370
13
48
1
60
0
100
AcDbMText
10
22.571174
20
-51.940295
30
0
210
0
220
0
230
1
1
\W0.7121;0.8
40
3.5
41
0
44
1.084337
50
315
71
7
72
5
7
iso_b_vert
0
MTEXT
5
282
100
AcDbEntity
8
2
62
256
6
ByLayer
370
18
48
1
60
0
100
AcDbMText
10
45.561847
20
-5.177854
30
0
210
0
220
0
230
1
1
%%c
40
4
41
0
44
1.084337
50
90
71
7
72
5
7
iso_b_vert
0
MTEXT
5
283
100
AcDbEntity
8
2
62
256
6
ByLayer
370
18
48
1
60
0
100
AcDbMText
10
45.561847
20
2.790896
30
0
210
0
220
0
230
1
1
\W0.6740;80
40
4
41
0
44
1.084337
50
90
71
7
72
5
7
iso_b_vert
0
MTEXT
5
28C
100
AcDbEntity
8
SK2
62
256
6
ByLayer
370
18
48
1
60
0
100
AcDbMText
10
-16.138153
20
-7.482692
30
0
210
0
220
0
230
1
1
%%c
40
4
41
0
44
1.084337
50
90
71
7
72
5
7
iso_b_vert
0
MTEXT
5
28D
100
AcDbEntity
8
SK2
62
256
6
ByLayer
370
18
48
1
60
0
100
AcDbMText
10
-16.138153
20
0.486058
30
0
210
0
220
0
230
1
1
\W0.7346;27.0
40
4
41
0
44
1.084337
50
90
71
7
72
5
7
iso_b_vert
0
MTEXT
5
296
100
AcDbEntity
8
SK2
62
256
6
ByLayer
370
18
48
1
60
0
100
AcDbMText
10
-31.138153
20
-5.177854
30
0
210
0
220
0
230
1
1
%%c
40
4
41
0
44
1.084337
50
90
71
7
72
5
7
iso_b_vert
0
MTEXT
5
297
100
AcDbEntity
8
SK2
62
256
6
ByLayer
370
18
48
1
60
0
100
AcDbMText
10
-31.138153
20
2.790896
30
0
210
0
220
0
230
1
1
\W0.6927;39
40
4
41
0
44
1.084337
50
90
71
7
72
5
7
iso_b_vert
0
MTEXT
5
2A0
100
AcDbEntity
8
SK6
62
256
6
ByLayer
370
13
48
1
60
0
100
AcDbMText
10
7.1855
20
-87.732888
30
0
210
0
220
0
230
1
1
\W0.7646;R331.52C-080S27FM
40
3.5
41
0
44
1.084337
50
0
71
7
72
5
7
iso_b_vert
0
HATCH
5
281
100
AcDbEntity
8
SK2
62
256
6
ByLayer
370
13
48
1
60
0
100
AcDbHatch
10
0
20
0
30
0
210
0
220
0
230
1
2
ANSI31
70
0
71
0
91
1
92
5
93
3
72
1
10
14.5656854249493
20
-40.5656854249493
11
17.3663812705988
21
-42.7147346539739
72
1
10
17.3663812705988
20
-42.7147346539739
11
16.7147370476056
21
-43.3663836642305
72
1
10
16.7147370476056
20
-43.3663836642305
11
14.5656854249493
21
-40.5656854249493
97
0
75
0
76
1
52
0
41
0.0062
77
0
78
1
53
44.9999999999999
43
0
44
0
45
-0.0139193969876572
46
0.0139193969876572
79
0
47
0
98
1
10
0
20
0
0
HATCH
5
287
100
AcDbEntity
8
2
62
256
6
ByLayer
370
13
48
1
60
0
100
AcDbHatch
10
0
20
0
30
0
210
0
220
0
230
1
2
ANSI31
70
0
71
0
91
1
92
5
93
3
72
1
10
47.35
20
-40
11
46.8892162584473
21
-36.5000016925532
72
1
10
46.8892162584473
20
-36.5000016925532
11
47.8107837415528
21
-36.4999983074468
72
1
10
47.8107837415528
20
-36.4999983074468
11
47.35
21
-40
97
0
75
0
76
1
52
0
41
0.0062
77
0
78
1
53
44.9999999999999
43
0
44
0
45
-0.0139193969876572
46
0.0139193969876572
79
0
47
0
98
1
10
0
20
0
0
HATCH
5
28B
100
AcDbEntity
8
2
62
256
6
ByLayer
370
13
48
1
60
0
100
AcDbHatch
10
0
20
0
30
0
210
0
220
0
230
1
2
ANSI31
70
0
71
0
91
1
92
5
93
3
72
1
10
47.35
20
40
11
47.8107837415528
21
36.5000016925532
72
1
10
47.8107837415528
20
36.5000016925532
11
46.8892162584473
21
36.4999983074468
72
1
10
46.8892162584473
20
36.4999983074468
11
47.35
21
40
97
0
75
0
76
1
52
0
41
0.0062
77
0
78
1
53
44.9999999999999
43
0
44
0
45
-0.0139193969876572
46
0.0139193969876572
79
0
47
0
98
1
10
0
20
0
0
HATCH
5
291
100
AcDbEntity
8
SK2
62
256
6
ByLayer
370
13
48
1
60
0
100
AcDbHatch
10
0
20
0
30
0
210
0
220
0
230
1
2
ANSI31
70
0
71
0
91
1
92
5
93
3
72
1
10
-14.35
20
-13.5
11
-14.8107837415528
21
-10.0000016925532
72
1
10
-14.8107837415528
20
-10.0000016925532
11
-13.8892162584473
21
-9.99999830744679
72
1
10
-13.8892162584473
20
-9.99999830744679
11
-14.35
21
-13.5
97
0
75
0
76
1
52
0
41
0.0062
77
0
78
1
53
44.9999999999999
43
0
44
0
45
-0.0139193969876572
46
0.0139193969876572
79
0
47
0
98
1
10
0
20
0
0
HATCH
5
295
100
AcDbEntity
8
SK2
62
256
6
ByLayer
370
13
48
1
60
0
100
AcDbHatch
10
0
20
0
30
0
210
0
220
0
230
1
2
ANSI31
70
0
71
0
91
1
92
5
93
3
72
1
10
-14.35
20
13.5
11
-13.8892162584473
21
10.0000016925532
72
1
10
-13.8892162584473
20
10.0000016925532
11
-14.8107837415528
21
9.99999830744679
72
1
10
-14.8107837415528
20
9.99999830744679
11
-14.35
21
13.5
97
0
75
0
76
1
52
0
41
0.0062
77
0
78
1
53
44.9999999999999
43
0
44
0
45
-0.0139193969876572
46
0.0139193969876572
79
0
47
0
98
1
10
0
20
0
0
HATCH
5
29B
100
AcDbEntity
8
SK2
62
256
6
ByLayer
370
13
48
1
60
0
100
AcDbHatch
10
0
20
0
30
0
210
0
220
0
230
1
2
ANSI31
70
0
71
0
91
1
92
5
93
3
72
1
10
-29.35
20
-19.5
11
-29.8107837415528
21
-16.0000016925532
72
1
10
-29.8107837415528
20
-16.0000016925532
11
-28.8892162584473
21
-15.9999983074468
72
1
10
-28.8892162584473
20
-15.9999983074468
11
-29.35
21
-19.5
97
0
75
0
76
1
52
0
41
0.0062
77
0
78
1
53
44.9999999999999
43
0
44
0
45
-0.0139193969876572
46
0.0139193969876572
79
0
47
0
98
1
10
0
20
0
0
HATCH
5
29F
100
AcDbEntity
8
SK2
62
256
6
ByLayer
370
13
48
1
60
0
100
AcDbHatch
10
0
20
0
30
0
210
0
220
0
230
1
2
ANSI31
70
0
71
0
91
1
92
5
93
3
72
1
10
-29.35
20
19.5
11
-28.8892162584473
21
16.0000016925532
72
1
10
-28.8892162584473
20
16.0000016925532
11
-29.8107837415528
21
15.9999983074468
72
1
10
-29.8107837415528
20
15.9999983074468
11
-29.35
21
19.5
97
0
75
0
76
1
52
0
41
0.0062
77
0
78
1
53
44.9999999999999
43
0
44
0
45
-0.0139193969876572
46
0.0139193969876572
79
0
47
0
98
1
10
0
20
0
0
DIMENSION
5
2A3
100
AcDbEntity
8
SK2
62
256
6
ByLayer
370
13
48
1
60
0
100
AcDbDimension
2
_U0
10
6.4
20
43
30
0
11
-10.790476
21
43
31
0
70
32
71
1
72
1
41
1
210
0
220
0
230
1
3
Standard
100
AcDbAlignedDimension
13
14
23
40
33
0
14
6.4
24
40
34
0
50
0
100
AcDbRotatedDimension
1001
ACAD
1000
DSTYLE
1002
{
1070
   371
1070
    13
1070
   372
1070
    13
1070
     3
1000

1070
   170
1070
     0
1070
   144
1040
1.0
1070
   277
1070
     2
1070
   284
1070
     8
1070
   278
1070
    46
1070
   146
1040
0.875
1070
   345
1005
16
1070
   347
1005
16
1070
   346
1005
16
1070
   344
1005
0
1070
   343
1005
0
1070
   172
1070
     1
1070
    76
1070
     0
1070
    75
1070
     0
1070
   282
1070
     0
1070
   281
1070
     0
1070
    71
1070
     0
1070
    74
1070
     0
1070
   279
1070
     0
1070
   173
1070
     1
1070
   340
1005
27B
1070
   271
1070
     2
1070
   272
1070
     2
1070
    77
1070
     1
1070
    73
1070
     1
1070
   171
1070
     3
1070
   274
1070
     4
1070
   177
1070
     2
1070
   176
1070
     2
1070
   178
1070
     2
1070
    78
1070
     8
1070
    48
1040
-0.1
1070
    41
1040
3.5
1070
   147
1040
2.0
1070
    42
1040
1.5875
1070
    44
1040
2.0
1070
   140
1040
4.0
1002
}
1001
ACAD_DSTYLE_DIM_LINETYPE
1070
   380
1005
16
1001
ACAD_DSTYLE_DIM_EXT1_LINETYPE
1070
   381
1005
16
1001
ACAD_DSTYLE_DIM_EXT2_LINETYPE
1070
   382
1005
16
0
DIMENSION
5
2BE
100
AcDbEntity
8
SK2
62
256
6
ByLayer
370
13
48
1
60
0
100
AcDbDimension
2
_U1
10
16
20
-54
30
0
11
-20.110819
21
-54
31
0
70
32
71
1
72
1
41
1
210
0
220
0
230
1
3
Standard
100
AcDbAlignedDimension
13
0
23
-19.5
33
0
14
16
24
-19.5
34
0
50
0
100
AcDbRotatedDimension
1001
ACAD
1000
DSTYLE
1002
{
1070
   371
1070
    13
1070
   372
1070
    13
1070
   170
1070
     0
1070
   144
1040
1.0
1070
   277
1070
     2
1070
   284
1070
     8
1070
   278
1070
    46
1070
   146
1040
0.875
1070
   345
1005
16
1070
   347
1005
16
1070
   346
1005
16
1070
   344
1005
0
1070
   343
1005
0
1070
   172
1070
     1
1070
    76
1070
     0
1070
    75
1070
     0
1070
   282
1070
     0
1070
   281
1070
     0
1070
    71
1070
     0
1070
    74
1070
     0
1070
   279
1070
     0
1070
   173
1070
     1
1070
   340
1005
27B
1070
   271
1070
     2
1070
   272
1070
     2
1070
    77
1070
     1
1070
    73
1070
     1
1070
   171
1070
     3
1070
   274
1070
     4
1070
   177
1070
     2
1070
   176
1070
     2
1070
   178
1070
     2
1070
    78
1070
     8
1070
    48
1040
-0.1
1070
    41
1040
3.5
1070
   147
1040
2.0
1070
    42
1040
1.5875
1070
    44
1040
2.0
1070
   140
1040
4.0
1002
}
1001
ACAD_DSTYLE_DIM_LINETYPE
1070
   380
1005
16
1001
ACAD_DSTYLE_DIM_EXT1_LINETYPE
1070
   381
1005
16
1001
ACAD_DSTYLE_DIM_EXT2_LINETYPE
1070
   382
1005
16
0
DIMENSION
5
2D8
100
AcDbEntity
8
SK2
62
256
6
ByLayer
370
13
48
1
60
0
100
AcDbDimension
2
_U2
10
2.5
20
56.35
30
0
11
8.25
21
56.35
31
0
70
32
71
1
72
1
41
1
210
0
220
0
230
1
3
Standard
100
AcDbAlignedDimension
13
14
23
40
33
0
14
2.5
24
40
34
0
50
0
100
AcDbRotatedDimension
1001
ACAD
1000
DSTYLE
1002
{
1070
   371
1070
    13
1070
   372
1070
    13
1070
   170
1070
     0
1070
   144
1040
1.0
1070
   277
1070
     2
1070
   284
1070
     8
1070
   278
1070
    46
1070
   146
1040
0.875
1070
   345
1005
16
1070
   347
1005
16
1070
   346
1005
16
1070
   344
1005
0
1070
   343
1005
0
1070
   172
1070
     1
1070
    76
1070
     0
1070
    75
1070
     0
1070
   282
1070
     0
1070
   281
1070
     0
1070
    71
1070
     0
1070
    74
1070
     0
1070
   279
1070
     0
1070
   173
1070
     1
1070
   340
1005
27B
1070
   271
1070
     2
1070
   272
1070
     2
1070
    77
1070
     1
1070
    73
1070
     1
1070
   171
1070
     3
1070
   274
1070
     4
1070
   177
1070
     2
1070
   176
1070
     2
1070
   178
1070
     2
1070
    78
1070
     8
1070
    48
1040
-0.1
1070
    41
1040
3.5
1070
   147
1040
2.0
1070
    42
1040
1.5875
1070
    44
1040
2.0
1070
   140
1040
4.0
1002
}
1001
ACAD_DSTYLE_DIM_LINETYPE
1070
   380
1005
16
1001
ACAD_DSTYLE_DIM_EXT1_LINETYPE
1070
   381
1005
16
1001
ACAD_DSTYLE_DIM_EXT2_LINETYPE
1070
   382
1005
16
0
ENDSEC
0
SECTION
2
OBJECTS
0
DICTIONARY
5
360
330
0
100
AcDbDictionary
280
0
281
1
3
ACAD_GROUP
350
361
3
ACAD_MLINESTYLE
350
362
0
DICTIONARY
5
361
330
0
100
AcDbDictionary
280
0
281
1
0
DICTIONARY
5
362
330
0
100
AcDbDictionary
280
0
281
1
3
Standard
350
18
0
MLINESTYLE
5
18
330
362
100
AcDbMlineStyle
2
Standard
70
0
3

62
256
51
90
52
90
71
2
49
-0.5
62
256
6
ByLayer
49
0.5
62
256
6
ByLayer
0
RASTERVARIABLES
5
34f
330

100
AcDbRasterVariables
90
0
70
1
71
1
72
1
0
ENDSEC
0
EOF
